  0
SECTION
  2
HEADER
  9
$ACADVER
  1
AC1015
  9
$ACADMAINTVER
 70
     6
  9
$DWGCODEPAGE
  3
ANSI_1252
  9
$INSBASE
 10
0.0
 20
0.0
 30
0.0
  9
$EXTMIN
 10
-5.82224697506201
 20
266.2707880253
 30
0.0
  9
$EXTMAX
 10
246.846189534778
 20
392.764414284118
 30
0.0
  9
$LIMMIN
 10
0.0
 20
0.0
  9
$LIMMAX
 10
12.0
 20
9.0
  9
$ORTHOMODE
 70
     0
  9
$REGENMODE
 70
     1
  9
$FILLMODE
 70
     1
  9
$QTEXTMODE
 70
     0
  9
$MIRRTEXT
 70
     1
  9
$LTSCALE
 40
1.0
  9
$ATTMODE
 70
     1
  9
$TEXTSIZE
 40
0.2
  9
$TRACEWID
 40
0.05
  9
$TEXTSTYLE
  7
Standard
  9
$CLAYER
  8
0
  9
$CELTYPE
  6
ByLayer
  9
$CECOLOR
 62
   256
  9
$CELTSCALE
 40
1.0
  9
$DISPSILH
 70
     0
  9
$DIMSCALE
 40
1.0
  9
$DIMASZ
 40
0.18
  9
$DIMEXO
 40
0.0625
  9
$DIMDLI
 40
0.38
  9
$DIMRND
 40
0.0
  9
$DIMDLE
 40
0.0
  9
$DIMEXE
 40
0.18
  9
$DIMTP
 40
0.0
  9
$DIMTM
 40
0.0
  9
$DIMTXT
 40
0.18
  9
$DIMCEN
 40
0.09
  9
$DIMTSZ
 40
0.0
  9
$DIMTOL
 70
     0
  9
$DIMLIM
 70
     0
  9
$DIMTIH
 70
     1
  9
$DIMTOH
 70
     1
  9
$DIMSE1
 70
     0
  9
$DIMSE2
 70
     0
  9
$DIMTAD
 70
     0
  9
$DIMZIN
 70
     0
  9
$DIMBLK
  1

  9
$DIMASO
 70
     1
  9
$DIMSHO
 70
     1
  9
$DIMPOST
  1

  9
$DIMAPOST
  1

  9
$DIMALT
 70
     0
  9
$DIMALTD
 70
     2
  9
$DIMALTF
 40
25.4
  9
$DIMLFAC
 40
1.0
  9
$DIMTOFL
 70
     0
  9
$DIMTVP
 40
0.0
  9
$DIMTIX
 70
     0
  9
$DIMSOXD
 70
     0
  9
$DIMSAH
 70
     0
  9
$DIMBLK1
  1

  9
$DIMBLK2
  1

  9
$DIMSTYLE
  2
Standard
  9
$DIMCLRD
 70
     0
  9
$DIMCLRE
 70
     0
  9
$DIMCLRT
 70
     0
  9
$DIMTFAC
 40
1.0
  9
$DIMGAP
 40
0.09
  9
$DIMJUST
 70
     0
  9
$DIMSD1
 70
     0
  9
$DIMSD2
 70
     0
  9
$DIMTOLJ
 70
     1
  9
$DIMTZIN
 70
     0
  9
$DIMALTZ
 70
     0
  9
$DIMALTTZ
 70
     0
  9
$DIMUPT
 70
     0
  9
$DIMDEC
 70
     4
  9
$DIMTDEC
 70
     4
  9
$DIMALTU
 70
     2
  9
$DIMALTTD
 70
     2
  9
$DIMTXSTY
  7
Standard
  9
$DIMAUNIT
 70
     0
  9
$DIMADEC
 70
     0
  9
$DIMALTRND
 40
0.0
  9
$DIMAZIN
 70
     0
  9
$DIMDSEP
 70
    46
  9
$DIMATFIT
 70
     3
  9
$DIMFRAC
 70
     0
  9
$DIMLDRBLK
  1

  9
$DIMLUNIT
 70
     2
  9
$DIMLWD
 70
    -2
  9
$DIMLWE
 70
    -2
  9
$DIMTMOVE
 70
     0
  9
$LUNITS
 70
     2
  9
$LUPREC
 70
     4
  9
$SKETCHINC
 40
0.1
  9
$FILLETRAD
 40
0.5
  9
$AUNITS
 70
     0
  9
$AUPREC
 70
     0
  9
$MENU
  1
.
  9
$ELEVATION
 40
0.0
  9
$PELEVATION
 40
0.0
  9
$THICKNESS
 40
0.0
  9
$LIMCHECK
 70
     0
  9
$CHAMFERA
 40
0.5
  9
$CHAMFERB
 40
0.5
  9
$CHAMFERC
 40
1.0
  9
$CHAMFERD
 40
0.0
  9
$SKPOLY
 70
     0
  9
$TDCREATE
 40
2456748.73411669
  9
$TDUCREATE
 40
2456748.650783356
  9
$TDUPDATE
 40
2456748.734116701
  9
$TDUUPDATE
 40
2456748.650783368
  9
$TDINDWG
 40
0.0000000116
  9
$TDUSRTIMER
 40
0.0000000116
  9
$USRTIMER
 70
     1
  9
$ANGBASE
 50
0.0
  9
$ANGDIR
 70
     0
  9
$PDMODE
 70
     0
  9
$PDSIZE
 40
0.0
  9
$PLINEWID
 40
0.0
  9
$SPLFRAME
 70
     0
  9
$SPLINETYPE
 70
     6
  9
$SPLINESEGS
 70
     8
  9
$HANDSEED
  5
14F
  9
$SURFTAB1
 70
     6
  9
$SURFTAB2
 70
     6
  9
$SURFTYPE
 70
     6
  9
$SURFU
 70
     6
  9
$SURFV
 70
     6
  9
$UCSBASE
  2

  9
$UCSNAME
  2

  9
$UCSORG
 10
0.0
 20
0.0
 30
0.0
  9
$UCSXDIR
 10
1.0
 20
0.0
 30
0.0
  9
$UCSYDIR
 10
0.0
 20
1.0
 30
0.0
  9
$UCSORTHOREF
  2

  9
$UCSORTHOVIEW
 70
     0
  9
$UCSORGTOP
 10
0.0
 20
0.0
 30
0.0
  9
$UCSORGBOTTOM
 10
0.0
 20
0.0
 30
0.0
  9
$UCSORGLEFT
 10
0.0
 20
0.0
 30
0.0
  9
$UCSORGRIGHT
 10
0.0
 20
0.0
 30
0.0
  9
$UCSORGFRONT
 10
0.0
 20
0.0
 30
0.0
  9
$UCSORGBACK
 10
0.0
 20
0.0
 30
0.0
  9
$PUCSBASE
  2

  9
$PUCSNAME
  2

  9
$PUCSORG
 10
0.0
 20
0.0
 30
0.0
  9
$PUCSXDIR
 10
1.0
 20
0.0
 30
0.0
  9
$PUCSYDIR
 10
0.0
 20
1.0
 30
0.0
  9
$PUCSORTHOREF
  2

  9
$PUCSORTHOVIEW
 70
     0
  9
$PUCSORGTOP
 10
0.0
 20
0.0
 30
0.0
  9
$PUCSORGBOTTOM
 10
0.0
 20
0.0
 30
0.0
  9
$PUCSORGLEFT
 10
0.0
 20
0.0
 30
0.0
  9
$PUCSORGRIGHT
 10
0.0
 20
0.0
 30
0.0
  9
$PUCSORGFRONT
 10
0.0
 20
0.0
 30
0.0
  9
$PUCSORGBACK
 10
0.0
 20
0.0
 30
0.0
  9
$USERI1
 70
     0
  9
$USERI2
 70
     0
  9
$USERI3
 70
     0
  9
$USERI4
 70
     0
  9
$USERI5
 70
     0
  9
$USERR1
 40
16.5
  9
$USERR2
 40
0.0
  9
$USERR3
 40
0.0
  9
$USERR4
 40
0.0
  9
$USERR5
 40
0.0
  9
$WORLDVIEW
 70
     1
  9
$SHADEDGE
 70
     3
  9
$SHADEDIF
 70
    70
  9
$TILEMODE
 70
     1
  9
$MAXACTVP
 70
    64
  9
$PINSBASE
 10
0.0
 20
0.0
 30
0.0
  9
$PLIMCHECK
 70
     0
  9
$PEXTMIN
 10
1.00000000000000E+20
 20
1.00000000000000E+20
 30
1.00000000000000E+20
  9
$PEXTMAX
 10
-1.00000000000000E+20
 20
-1.00000000000000E+20
 30
-1.00000000000000E+20
  9
$PLIMMIN
 10
0.0
 20
0.0
  9
$PLIMMAX
 10
12.0
 20
9.0
  9
$UNITMODE
 70
     0
  9
$VISRETAIN
 70
     1
  9
$PLINEGEN
 70
     0
  9
$PSLTSCALE
 70
     1
  9
$TREEDEPTH
 70
  3020
  9
$CMLSTYLE
  2
Standard
  9
$CMLJUST
 70
     0
  9
$CMLSCALE
 40
1.0
  9
$PROXYGRAPHICS
 70
     1
  9
$MEASUREMENT
 70
     1
  9
$CELWEIGHT
370
    -1
  9
$ENDCAPS
280
     0
  9
$JOINSTYLE
280
     0
  9
$LWDISPLAY
290
     0
  9
$INSUNITS
 70
     1
  9
$HYPERLINKBASE
  1

  9
$STYLESHEET
  1

  9
$XEDIT
290
     1
  9
$CEPSNTYPE
380
     0
  9
$PSTYLEMODE
290
     1
  9
$FINGERPRINTGUID
  2
{E14B069D-ACFF-42D4-88D2-9F4500A1FAE2}
  9
$VERSIONGUID
  2
{FAEB1C32-E019-11D5-929B-00C0DF256EC4}
  9
$EXTNAMES
290
     1
  9
$PSVPSCALE
 40
0.0
  9
$OLESTARTUP
290
     0
  0
ENDSEC
  0
SECTION
  2
CLASSES
  0
CLASS
  1
ACDBDICTIONARYWDFLT
  2
AcDbDictionaryWithDefault
  3
ObjectDBX Classes
 90
        0
280
     0
281
     0
  0
CLASS
  1
VISUALSTYLE
  2
AcDbVisualStyle
  3
ObjectDBX Classes
 90
     4095
280
     0
281
     0
  0
CLASS
  1
SCALE
  2
AcDbScale
  3
ObjectDBX Classes
 90
     1153
280
     0
281
     0
  0
CLASS
  1

  2
exOdDbPolyline
  3

 90
        0
280
     0
281
     1
  0
CLASS
  1

  2
exOdDbCircle
  3

 90
        0
280
     0
281
     1
  0
CLASS
  1

  2
exOdDbSpline
  3

 90
        0
280
     0
281
     1
  0
CLASS
  1
DICTIONARYVAR
  2
AcDbDictionaryVar
  3
ObjectDBX Classes
 90
        0
280
     0
281
     0
  0
CLASS
  1
ACDBPLACEHOLDER
  2
AcDbPlaceHolder
  3
ObjectDBX Classes
 90
        0
280
     0
281
     0
  0
CLASS
  1
LAYOUT
  2
AcDbLayout
  3
ObjectDBX Classes
 90
        0
280
     0
281
     0
  0
ENDSEC
  0
SECTION
  2
TABLES
  0
TABLE
  2
VPORT
  5
8
330
0
100
AcDbSymbolTable
 70
     1
  0
VPORT
  5
29
330
8
100
AcDbSymbolTableRecord
100
AcDbViewportTableRecord
  2
*Active
 70
     0
 10
0.0
 20
0.0
 11
1.0
 21
1.0
 12
120.511971279858
 22
329.517601154709
 13
0.0
 23
0.0
 14
0.5
 24
0.5
 15
0.5
 25
0.5
 16
0.0
 26
0.0
 36
1.0
 17
0.0
 27
0.0
 37
0.0
 40
173.4192277326591
 41
1.60267857142857
 42
50.0
 43
0.0
 44
0.0
 50
0.0
 51
0.0
 71
     0
 72
   100
 73
     1
 74
     3
 75
     0
 76
     0
 77
     0
 78
     0
281
     0
 65
     1
110
0.0
120
0.0
130
0.0
111
1.0
121
0.0
131
0.0
112
0.0
122
1.0
132
0.0
 79
     0
146
0.0
  0
ENDTAB
  0
TABLE
  2
LTYPE
  5
5
330
0
100
AcDbSymbolTable
 70
     8
  0
LTYPE
  5
14
330
5
100
AcDbSymbolTableRecord
100
AcDbLinetypeTableRecord
  2
ByBlock
 70
     0
  3

 72
    65
 73
     0
 40
0.0
  0
LTYPE
  5
15
330
5
100
AcDbSymbolTableRecord
100
AcDbLinetypeTableRecord
  2
ByLayer
 70
     0
  3

 72
    65
 73
     0
 40
0.0
  0
LTYPE
  5
16
330
5
100
AcDbSymbolTableRecord
100
AcDbLinetypeTableRecord
  2
Continuous
 70
     0
  3
Solid line
 72
    65
 73
     0
 40
0.0
  0
LTYPE
  5
3B
330
5
100
AcDbSymbolTableRecord
100
AcDbLinetypeTableRecord
  2
DASHED
 70
     0
  3
Dashed
 72
    65
 73
     2
 40
15.0
 49
7.0
 74
     0
 49
-8.0
 74
     0
  0
LTYPE
  5
3C
330
5
100
AcDbSymbolTableRecord
100
AcDbLinetypeTableRecord
  2
DOTTED
 70
     0
  3
Dotted
 72
    65
 73
     2
 40
1.0
 49
0.0
 74
     0
 49
-1.0
 74
     0
  0
LTYPE
  5
3D
330
5
100
AcDbSymbolTableRecord
100
AcDbLinetypeTableRecord
  2
DOT_CENTER
 70
     0
  3
Dot_Center
 72
    65
 73
     4
 40
14.0
 49
12.0
 74
     0
 49
-1.0
 74
     0
 49
0.0
 74
     0
 49
-1.0
 74
     0
  0
LTYPE
  5
3E
330
5
100
AcDbSymbolTableRecord
100
AcDbLinetypeTableRecord
  2
LONG_DASHED
 70
     0
  3
Long_Dashed
 72
    65
 73
     2
 40
15.0
 49
10.0
 74
     0
 49
-5.0
 74
     0
  0
LTYPE
  5
3F
330
5
100
AcDbSymbolTableRecord
100
AcDbLinetypeTableRecord
  2
DASH_CENTER
 70
     0
  3
Dash_Center
 72
    65
 73
     4
 40
14.0
 49
11.0
 74
     0
 49
-1.0
 74
     0
 49
1.0
 74
     0
 49
-1.0
 74
     0
  0
LTYPE
  5
40
330
5
100
AcDbSymbolTableRecord
100
AcDbLinetypeTableRecord
  2
PHANTOM
 70
     0
  3
Phantom
 72
    65
 73
     6
 40
13.0
 49
10.0
 74
     0
 49
-1.0
 74
     0
 49
0.0
 74
     0
 49
-1.0
 74
     0
 49
0.0
 74
     0
 49
-1.0
 74
     0
  0
LTYPE
  5
41
330
5
100
AcDbSymbolTableRecord
100
AcDbLinetypeTableRecord
  2
CENTER_DASH_DASH
 70
     0
  3
Center_Dash_Dash
 72
    65
 73
     6
 40
14.0
 49
9.0
 74
     0
 49
-1.0
 74
     0
 49
1.0
 74
     0
 49
-1.0
 74
     0
 49
1.0
 74
     0
 49
-1.0
 74
     0
  0
ENDTAB
  0
TABLE
  2
LAYER
  5
2
330
0
100
AcDbSymbolTable
 70
     7
  0
LAYER
  5
10
330
2
100
AcDbSymbolTableRecord
100
AcDbLayerTableRecord
  2
0
 70
     0
 62
     7
  6
Continuous
370
    -3
390
F
  0
LAYER
  5
42
330
2
100
AcDbSymbolTableRecord
100
AcDbLayerTableRecord
  2
1
 70
     0
 62
     7
  6
Continuous
370
    -3
390
F
  0
LAYER
  5
43
330
2
100
AcDbSymbolTableRecord
100
AcDbLayerTableRecord
  2
BEZUGSACHSEN
 70
     0
 62
     7
  6
Continuous
370
    -3
390
F
  0
LAYER
  5
44
330
2
100
AcDbSymbolTableRecord
100
AcDbLayerTableRecord
  2
DEFAULT_2
 70
     0
 62
     7
  6
Continuous
370
    -3
390
F
  0
LAYER
  5
45
330
2
100
AcDbSymbolTableRecord
100
AcDbLayerTableRecord
  2
FASEN
 70
     0
 62
     7
  6
Continuous
370
    -3
390
F
  0
LAYER
  5
46
330
2
100
AcDbSymbolTableRecord
100
AcDbLayerTableRecord
  2
GEWINDE
 70
     0
 62
     7
  6
Continuous
370
    -3
390
F
  0
LAYER
  5
47
330
2
100
AcDbSymbolTableRecord
100
AcDbLayerTableRecord
  2
RUNDUNGEN
 70
     0
 62
     7
  6
Continuous
370
    -3
390
F
  0
ENDTAB
  0
TABLE
  2
STYLE
  5
3
330
0
100
AcDbSymbolTable
 70
     2
  0
STYLE
  5
11
330
3
100
AcDbSymbolTableRecord
100
AcDbTextStyleTableRecord
  2
Standard
 70
     0
 40
0.0
 41
1.0
 50
0.0
 71
     0
 42
0.2
  3
txt
  4

  0
STYLE
  5
6E
330
3
100
AcDbSymbolTableRecord
100
AcDbTextStyleTableRecord
  2
CONVERTER_11
 70
     0
 40
0.0
 41
0.72
 50
0.0
 71
     0
 42
0.2
  3
txt.shx
  4

  0
ENDTAB
  0
TABLE
  2
VIEW
  5
6
330
0
100
AcDbSymbolTable
 70
     0
  0
ENDTAB
  0
TABLE
  2
UCS
  5
7
330
0
100
AcDbSymbolTable
 70
     0
  0
ENDTAB
  0
TABLE
  2
APPID
  5
9
330
0
100
AcDbSymbolTable
 70
     1
  0
APPID
  5
12
330
9
100
AcDbSymbolTableRecord
100
AcDbRegAppTableRecord
  2
ACAD
 70
     0
  0
ENDTAB
  0
TABLE
  2
DIMSTYLE
  5
A
330
0
100
AcDbSymbolTable
 70
     6
100
AcDbDimStyleTable
  0
DIMSTYLE
105
27
330
A
100
AcDbSymbolTableRecord
100
AcDbDimStyleTableRecord
  2
Standard
 70
     0
340
11
  0
DIMSTYLE
105
116
102
{ACAD_REACTORS
330
117
102
}
330
A
100
AcDbSymbolTableRecord
100
AcDbDimStyleTableRecord
  2
ME10_DIM_10
 70
     0
  3
\U+2300<>
 41
3.5
 42
2.0
 44
2.0
 71
     1
 73
     0
 74
     0
 77
     1
 78
     8
140
3.5
146
0.7
147
2.0
172
     1
173
     1
176
     2
177
     2
178
     3
271
     2
272
     0
340
6E
  0
DIMSTYLE
105
121
102
{ACAD_REACTORS
330
122
102
}
330
A
100
AcDbSymbolTableRecord
100
AcDbDimStyleTableRecord
  2
ME10_DIM_11
 70
     0
  3
\U+2300<>
 41
3.5
 42
2.0
 44
2.0
 71
     1
 73
     0
 74
     0
 77
     1
 78
     8
140
3.5
146
0.7
147
2.0
172
     1
173
     1
176
     2
177
     2
178
     3
271
     2
272
     0
340
6E
  0
DIMSTYLE
105
12C
102
{ACAD_REACTORS
330
12D
102
}
330
A
100
AcDbSymbolTableRecord
100
AcDbDimStyleTableRecord
  2
ME10_DIM_12
 70
     0
  3
<>
 41
3.5
 42
2.0
 44
2.0
 71
     1
 73
     0
 74
     0
 77
     1
 78
     8
140
3.5
146
0.7
147
2.0
172
     1
173
     1
176
     2
177
     2
178
     3
271
     2
272
     0
340
6E
  0
DIMSTYLE
105
137
102
{ACAD_REACTORS
330
138
102
}
330
A
100
AcDbSymbolTableRecord
100
AcDbDimStyleTableRecord
  2
ME10_DIM_13
 70
     0
  3
<>
 41
3.5
 42
2.0
 44
2.0
 71
     1
 73
     0
 74
     0
 77
     1
 78
     8
140
3.5
146
0.7
147
2.0
172
     1
173
     1
176
     2
177
     2
178
     3
271
     2
272
     0
340
6E
  0
DIMSTYLE
105
142
102
{ACAD_REACTORS
330
143
102
}
330
A
100
AcDbSymbolTableRecord
100
AcDbDimStyleTableRecord
  2
ME10_DIM_14
 70
     0
  3
<>
 41
3.5
 42
2.0
 44
2.0
 71
     1
 73
     0
 74
     0
 77
     1
 78
     8
140
3.5
146
0.7
147
2.0
172
     1
173
     1
176
     2
177
     2
178
     3
271
     2
272
     0
340
6E
  0
ENDTAB
  0
TABLE
  2
BLOCK_RECORD
  5
1
330
0
100
AcDbSymbolTable
 70
     8
  0
BLOCK_RECORD
  5
1F
330
1
100
AcDbSymbolTableRecord
100
AcDbBlockTableRecord
  2
*Model_Space
340
22
  0
BLOCK_RECORD
  5
1B
330
1
100
AcDbSymbolTableRecord
100
AcDbBlockTableRecord
  2
*Paper_Space
340
1E
  0
BLOCK_RECORD
  5
23
330
1
100
AcDbSymbolTableRecord
100
AcDbBlockTableRecord
  2
*Paper_Space0
340
26
  0
BLOCK_RECORD
  5
48
330
1
100
AcDbSymbolTableRecord
100
AcDbBlockTableRecord
  2
Urheberrecht_DE-EN
340
0
102
{BLKREFS
331
6D
102
}
  0
BLOCK_RECORD
  5
10D
330
1
100
AcDbSymbolTableRecord
100
AcDbBlockTableRecord
  2
*D2
340
0
  0
BLOCK_RECORD
  5
118
330
1
100
AcDbSymbolTableRecord
100
AcDbBlockTableRecord
  2
*D3
340
0
  0
BLOCK_RECORD
  5
123
330
1
100
AcDbSymbolTableRecord
100
AcDbBlockTableRecord
  2
*D4
340
0
  0
BLOCK_RECORD
  5
12E
330
1
100
AcDbSymbolTableRecord
100
AcDbBlockTableRecord
  2
*D5
340
0
  0
BLOCK_RECORD
  5
139
330
1
100
AcDbSymbolTableRecord
100
AcDbBlockTableRecord
  2
*D6
340
0
  0
BLOCK_RECORD
  5
144
330
1
100
AcDbSymbolTableRecord
100
AcDbBlockTableRecord
  2
*D7
340
0
102
{BLKREFS
331
14A
102
}
  0
ENDTAB
  0
ENDSEC
  0
SECTION
  2
BLOCKS
  0
BLOCK
  5
20
330
1F
100
AcDbEntity
  8
0
100
AcDbBlockBegin
  2
*Model_Space
 70
     0
 10
0.0
 20
0.0
 30
0.0
  3
*Model_Space
  1

  0
ENDBLK
  5
21
330
1F
100
AcDbEntity
  8
0
100
AcDbBlockEnd
  0
BLOCK
  5
1C
330
1B
100
AcDbEntity
 67
     1
  8
0
100
AcDbBlockBegin
  2
*Paper_Space
 70
     0
 10
0.0
 20
0.0
 30
0.0
  3
*Paper_Space
  1

  0
ENDBLK
  5
1D
330
1B
100
AcDbEntity
 67
     1
  8
0
100
AcDbBlockEnd
  0
BLOCK
  5
24
330
23
100
AcDbEntity
  8
0
100
AcDbBlockBegin
  2
*Paper_Space0
 70
     0
 10
0.0
 20
0.0
 30
0.0
  3
*Paper_Space0
  1

  0
ENDBLK
  5
25
330
23
100
AcDbEntity
  8
0
100
AcDbBlockEnd
  0
BLOCK
  5
49
330
48
100
AcDbEntity
  8
0
100
AcDbBlockBegin
  2
Urheberrecht_DE-EN
 70
     0
 10
8.17775302493799
 20
327.592267455636
 30
0.0
  3
Urheberrecht_DE-EN
  1

  0
MTEXT
  5
6F
330
48
100
AcDbEntity
  8
1
 62
     1
100
AcDbMText
 10
8.17775302493799
 20
327.592267455636
 30
0.0
 40
2.0
 41
0.0
 71
     7
 72
     1
  1
We own the copyright of this document. It \Pdetermined and may neither be copied or \Pmade accessible to outsiders without our\Ppermission.
  7
CONVERTER_11
 11
0.0
 21
1.0
 31
0.0
 73
     1
 44
0.90036014405762
  0
MTEXT
  5
70
330
48
100
AcDbEntity
  8
1
 62
     1
100
AcDbMText
 10
8.17775302493799
 20
271.3028805383298
 30
0.0
 40
2.0
 41
0.0
 71
     7
 72
     1
  1
F\U+00fcr diese Unterlage behalten wir das Ur-\Pheberrecht. Sie darf nur f\U+00fcr den von uns \Pbestimmten Zweck benutzt und ohne unsere \PZustimmung weder vervielf\U+00e4ltigt noch\PDritten zug\U+00e4nglich gemacht werden.
  7
CONVERTER_11
 11
0.0
 21
1.0
 31
0.0
 73
     1
 44
0.90036014405762
  0
ENDBLK
  5
4A
330
48
100
AcDbEntity
  8
0
100
AcDbBlockEnd
  0
BLOCK
  5
114
330
10D
100
AcDbEntity
  8
0
100
AcDbBlockBegin
  2
*D2
 70
     1
 10
0.0
 20
0.0
 30
0.0
  3
*D2
  1

  0
LINE
  5
10E
330
10D
100
AcDbEntity
  8
1
  6
Continuous
 62
     2
100
AcDbLine
 10
236.299397671323
 20
328.7707880253
 30
0.0
 11
236.299397671323
 21
303.7707880253
 31
0.0
  0
LINE
  5
10F
330
10D
100
AcDbEntity
  8
1
  6
Continuous
 62
     2
100
AcDbLine
 10
226.7078781618
 20
328.7707880253
 30
0.0
 11
238.299397671323
 21
328.7707880253
 31
0.0
  0
LINE
  5
110
330
10D
100
AcDbEntity
  8
1
  6
Continuous
 62
     2
100
AcDbLine
 10
226.7078781618
 20
303.7707880253
 30
0.0
 11
238.299397671323
 21
303.7707880253
 31
0.0
  0
SOLID
  5
111
330
10D
100
AcDbEntity
  8
1
 62
     2
100
AcDbTrace
 10
236.7601814128789
 20
325.2707880253
 30
0.0
 11
235.8386139297671
 21
325.2707880253
 31
0.0
 12
236.299397671323
 22
328.7707880253
 32
0.0
 13
236.299397671323
 23
328.7707880253
 33
0.0
  0
SOLID
  5
112
330
10D
100
AcDbEntity
  8
1
 62
     2
100
AcDbTrace
 10
235.8386139297671
 20
307.2707880253
 30
0.0
 11
236.7601814128789
 21
307.2707880253
 31
0.0
 12
236.299397671323
 22
303.7707880253
 32
0.0
 13
236.299397671323
 23
303.7707880253
 33
0.0
  0
MTEXT
  5
113
330
10D
100
AcDbEntity
  8
1
 62
     3
100
AcDbMText
 10
234.299397671323
 20
306.616362631101
 30
0.0
 40
3.5
 41
0.0
 71
     7
 72
     1
  1
\C3;%%c\C3;\C3;25\C2;\H2.45;\S^ ;\C3;
  7
CONVERTER_11
 11
0.0
 21
1.0
 31
0.0
 73
     1
 44
0.60024009603842
  0
ENDBLK
  5
115
330
10D
100
AcDbEntity
  8
0
100
AcDbBlockEnd
  0
BLOCK
  5
11F
330
118
100
AcDbEntity
  8
0
100
AcDbBlockBegin
  2
*D3
 70
     1
 10
0.0
 20
0.0
 30
0.0
  3
*D3
  1

  0
LINE
  5
119
330
118
100
AcDbEntity
  8
1
  6
Continuous
 62
     2
100
AcDbLine
 10
244.846189534778
 20
348.7707880253
 30
0.0
 11
244.846189534778
 21
283.7707880253
 31
0.0
  0
LINE
  5
11A
330
118
100
AcDbEntity
  8
1
  6
Continuous
 62
     2
100
AcDbLine
 10
216.2936645994
 20
348.7707880253
 30
0.0
 11
246.846189534778
 21
348.7707880253
 31
0.0
  0
LINE
  5
11B
330
118
100
AcDbEntity
  8
1
  6
Continuous
 62
     2
100
AcDbLine
 10
216.2936645994
 20
283.7707880253
 30
0.0
 11
246.846189534778
 21
283.7707880253
 31
0.0
  0
SOLID
  5
11C
330
118
100
AcDbEntity
  8
1
 62
     2
100
AcDbTrace
 10
245.3069732763339
 20
345.2707880253
 30
0.0
 11
244.3854057932221
 21
345.2707880253
 31
0.0
 12
244.846189534778
 22
348.7707880253
 32
0.0
 13
244.846189534778
 23
348.7707880253
 33
0.0
  0
SOLID
  5
11D
330
118
100
AcDbEntity
  8
1
 62
     2
100
AcDbTrace
 10
244.3854057932221
 20
287.2707880253
 30
0.0
 11
245.3069732763339
 21
287.2707880253
 31
0.0
 12
244.846189534778
 22
283.7707880253
 32
0.0
 13
244.846189534778
 23
283.7707880253
 33
0.0
  0
MTEXT
  5
11E
330
118
100
AcDbEntity
  8
1
 62
     3
100
AcDbMText
 10
242.846189534778
 20
307.548739925296
 30
0.0
 40
3.5
 41
0.0
 71
     7
 72
     1
  1
\C3;%%c\C3;\C3;65\C2;\H2.45;\S^ ;\C3;
  7
CONVERTER_11
 11
0.0
 21
1.0
 31
0.0
 73
     1
 44
0.60024009603842
  0
ENDBLK
  5
120
330
118
100
AcDbEntity
  8
0
100
AcDbBlockEnd
  0
BLOCK
  5
12A
330
123
100
AcDbEntity
  8
0
100
AcDbBlockBegin
  2
*D4
 70
     1
 10
0.0
 20
0.0
 30
0.0
  3
*D4
  1

  0
LINE
  5
124
330
123
100
AcDbEntity
  8
1
  6
Continuous
 62
     2
100
AcDbLine
 10
224.7078781618
 20
373.123358655494
 30
0.0
 11
93.7078781618
 21
373.123358655494
 31
0.0
  0
LINE
  5
125
330
123
100
AcDbEntity
  8
1
  6
Continuous
 62
     2
100
AcDbLine
 10
224.7078781618
 20
340.3565744629
 30
0.0
 11
224.7078781618
 21
375.123358655494
 31
0.0
  0
LINE
  5
126
330
123
100
AcDbEntity
  8
1
  6
Continuous
 62
     2
100
AcDbLine
 10
93.7078781618
 20
368.2707511042
 30
0.0
 11
93.7078781618
 21
375.123358655494
 31
0.0
  0
SOLID
  5
127
330
123
100
AcDbEntity
  8
1
 62
     2
100
AcDbTrace
 10
221.2078781618
 20
372.6625749139381
 30
0.0
 11
221.2078781618
 21
373.5841423970498
 31
0.0
 12
224.7078781618
 22
373.123358655494
 32
0.0
 13
224.7078781618
 23
373.123358655494
 33
0.0
  0
SOLID
  5
128
330
123
100
AcDbEntity
  8
1
 62
     2
100
AcDbTrace
 10
97.2078781618
 20
373.5841423970498
 30
0.0
 11
97.2078781618
 21
372.6625749139381
 31
0.0
 12
93.7078781618
 22
373.123358655494
 32
0.0
 13
93.7078781618
 23
373.123358655494
 33
0.0
  0
MTEXT
  5
129
330
123
100
AcDbEntity
  8
1
 62
     3
100
AcDbMText
 10
156.392082253135
 20
375.123358655494
 30
0.0
 40
3.5
 41
0.0
 71
     7
 72
     1
  1
\C3;\C3;\C3;131\C2;\H2.45;\S^ ;\C3;
  7
CONVERTER_11
 11
0.9999999999970619
 21
2.424068405545306E-6
 31
0.0
 73
     1
 44
0.60024009603842
  0
ENDBLK
  5
12B
330
123
100
AcDbEntity
  8
0
100
AcDbBlockEnd
  0
BLOCK
  5
135
330
12E
100
AcDbEntity
  8
0
100
AcDbBlockBegin
  2
*D5
 70
     1
 10
0.0
 20
0.0
 30
0.0
  3
*D5
  1

  0
LINE
  5
12F
330
12E
100
AcDbEntity
  8
1
  6
Continuous
 62
     2
100
AcDbLine
 10
224.7078781618
 20
380.582377009054
 30
0.0
 11
64.7078781618
 21
380.582377009054
 31
0.0
  0
LINE
  5
130
330
12E
100
AcDbEntity
  8
1
  6
Continuous
 62
     2
100
AcDbLine
 10
224.7078781618
 20
340.3565744629
 30
0.0
 11
224.7078781618
 21
382.582377009054
 31
0.0
  0
LINE
  5
131
330
12E
100
AcDbEntity
  8
1
  6
Continuous
 62
     2
100
AcDbLine
 10
64.7078781618
 20
368.2707880253
 30
0.0
 11
64.7078781618
 21
382.582377009054
 31
0.0
  0
SOLID
  5
132
330
12E
100
AcDbEntity
  8
1
 62
     2
100
AcDbTrace
 10
221.2078781618
 20
380.1215932674982
 30
0.0
 11
221.2078781618
 21
381.0431607506099
 31
0.0
 12
224.7078781618
 22
380.582377009054
 32
0.0
 13
224.7078781618
 23
380.582377009054
 33
0.0
  0
SOLID
  5
133
330
12E
100
AcDbEntity
  8
1
 62
     2
100
AcDbTrace
 10
68.2078781618
 20
381.0431607506099
 30
0.0
 11
68.2078781618
 21
380.1215932674982
 31
0.0
 12
64.7078781618
 22
380.582377009054
 32
0.0
 13
64.7078781618
 23
380.582377009054
 33
0.0
  0
MTEXT
  5
134
330
12E
100
AcDbEntity
  8
1
 62
     3
100
AcDbMText
 10
145.249743369892
 20
382.582377009054
 30
0.0
 40
3.5
 41
0.0
 71
     7
 72
     1
  1
\C3;\C3;\C3;160\C2;\H2.45;\S^ ;\C3;
  7
CONVERTER_11
 11
0.9999999999970619
 21
2.424068405545306E-6
 31
0.0
 73
     1
 44
0.60024009603842
  0
ENDBLK
  5
136
330
12E
100
AcDbEntity
  8
0
100
AcDbBlockEnd
  0
BLOCK
  5
140
330
139
100
AcDbEntity
  8
0
100
AcDbBlockBegin
  2
*D6
 70
     1
 10
0.0
 20
0.0
 30
0.0
  3
*D6
  1

  0
LINE
  5
13A
330
139
100
AcDbEntity
  8
1
  6
Continuous
 62
     2
100
AcDbLine
 10
224.7078781618
 20
387.264414284118
 30
0.0
 11
14.70787816180001
 21
387.264414284118
 31
0.0
  0
LINE
  5
13B
330
139
100
AcDbEntity
  8
1
  6
Continuous
 62
     2
100
AcDbLine
 10
224.7078781618
 20
340.3565744629
 30
0.0
 11
224.7078781618
 21
389.264414284118
 31
0.0
  0
LINE
  5
13C
330
139
100
AcDbEntity
  8
1
  6
Continuous
 62
     2
100
AcDbLine
 10
14.70787816180001
 20
351.8709795879
 30
0.0
 11
14.70787816180001
 21
389.264414284118
 31
0.0
  0
SOLID
  5
13D
330
139
100
AcDbEntity
  8
1
 62
     2
100
AcDbTrace
 10
221.2078781618
 20
386.8036305425621
 30
0.0
 11
221.2078781618
 21
387.7251980256739
 31
0.0
 12
224.7078781618
 22
387.264414284118
 32
0.0
 13
224.7078781618
 23
387.264414284118
 33
0.0
  0
SOLID
  5
13E
330
139
100
AcDbEntity
  8
1
 62
     2
100
AcDbTrace
 10
18.20787816180001
 20
387.7251980256739
 30
0.0
 11
18.20787816180001
 21
386.8036305425621
 31
0.0
 12
14.70787816180001
 22
387.264414284118
 32
0.0
 13
14.70787816180001
 23
387.264414284118
 33
0.0
  0
MTEXT
  5
13F
330
139
100
AcDbEntity
  8
1
 62
     3
100
AcDbMText
 10
126.136008838894
 20
389.264414284118
 30
0.0
 40
3.5
 41
0.0
 71
     7
 72
     1
  1
\C3;\C3;\C3;210\C2;\H2.45;\S^ ;\C3;
  7
CONVERTER_11
 11
0.9999999999970619
 21
2.424068405545306E-6
 31
0.0
 73
     1
 44
0.60024009603842
  0
ENDBLK
  5
141
330
139
100
AcDbEntity
  8
0
100
AcDbBlockEnd
  0
BLOCK
  5
148
330
144
100
AcDbEntity
  8
0
100
AcDbBlockBegin
  2
*D7
 70
     1
 10
0.0
 20
0.0
 30
0.0
  3
*D7
  1

  0
LINE
  5
145
330
144
100
AcDbEntity
  8
1
  6
Continuous
 62
     2
100
AcDbLine
 10
106.1301209682157
 20
358.787793713706
 30
0.0
 11
94.56544517781214
 21
350.9707435661584
 31
0.0
  0
SOLID
  5
146
330
144
100
AcDbEntity
  8
1
 62
     2
100
AcDbTrace
 10
97.20710527412243
 20
353.3125278414587
 30
0.0
 11
97.72319125908486
 21
352.5490215336562
 31
0.0
 12
94.56544517781214
 22
350.9707435661584
 32
0.0
 13
94.56544517781214
 23
350.9707435661584
 33
0.0
  0
MTEXT
  5
147
330
144
100
AcDbEntity
  8
1
 62
     3
100
AcDbMText
 10
98.86273263632111
 20
356.2895009299351
 30
0.0
 40
3.5
 41
0.0
 71
     7
 72
     1
  1
\C3; R\C3;\C3;5\C2;\H2.45;\S^ ;\C3;
  7
CONVERTER_11
 11
0.8284865967975715
 21
0.5600088918283157
 31
0.0
 73
     1
 44
0.60024009603842
  0
ENDBLK
  5
149
330
144
100
AcDbEntity
  8
0
100
AcDbBlockEnd
  0
ENDSEC
  0
SECTION
  2
ENTITIES
  0
INSERT
  5
6D
330
1F
100
AcDbEntity
  8
0
100
AcDbBlockReference
  2
Urheberrecht_DE-EN
 10
8.17775302493799
 20
327.592267455636
 30
0.0
  0
LINE
  5
71
330
1F
100
AcDbEntity
  8
BEZUGSACHSEN
  6
Continuous
 62
     7
100
AcDbLine
 10
14.7078781618
 20
282.6705964623
 30
0.0
 11
14.7078781618
 21
304.2607880253
 31
0.0
  0
LINE
  5
72
330
1F
100
AcDbEntity
  8
BEZUGSACHSEN
  6
Continuous
 62
     7
100
AcDbLine
 10
14.7078781618
 20
328.2807880253
 30
0.0
 11
14.7078781618
 21
349.8709795879
 31
0.0
  0
LINE
  5
73
330
1F
100
AcDbEntity
  8
BEZUGSACHSEN
  6
Continuous
 62
     9
100
AcDbLine
 10
16.6078036771
 20
351.8684742936
 30
0.0
 11
16.6078036771
 21
331.9473204116
 31
0.0
  0
LINE
  5
74
330
1F
100
AcDbEntity
  8
BEZUGSACHSEN
  6
Continuous
 62
     9
100
AcDbLine
 10
16.6078036771
 20
300.594255639
 30
0.0
 11
16.6078036771
 21
280.673101757
 31
0.0
  0
LINE
  5
75
330
1F
100
AcDbEntity
  8
BEZUGSACHSEN
  6
Continuous
 62
     7
100
AcDbLine
 10
16.7078781618
 20
303.8671480769
 30
0.0
 11
16.7078781618
 21
306.2607880253
 31
0.0
  0
LINE
  5
76
330
1F
100
AcDbEntity
  8
BEZUGSACHSEN
  6
Continuous
 62
     7
100
AcDbLine
 10
16.7078781618
 20
326.2807880253
 30
0.0
 11
16.7078781618
 21
328.6744279737
 31
0.0
  0
LINE
  5
77
330
1F
100
AcDbEntity
  8
BEZUGSACHSEN
  6
Continuous
 62
     9
100
AcDbLine
 10
22.7078781618
 20
299.9121404379
 30
0.0
 11
22.7078781618
 21
306.2607880253
 31
0.0
  0
LINE
  5
78
330
1F
100
AcDbEntity
  8
BEZUGSACHSEN
  6
Continuous
 62
     9
100
AcDbLine
 10
22.7078781618
 20
326.2807880253
 30
0.0
 11
22.7078781618
 21
332.6294356127
 31
0.0
  0
LINE
  5
79
330
1F
100
AcDbEntity
  8
BEZUGSACHSEN
  6
Continuous
 62
     7
100
AcDbLine
 10
24.7078781618
 20
329.1404435511
 30
0.0
 11
24.7078781618
 21
303.4011324995
 31
0.0
  0
LINE
  5
7A
330
1F
100
AcDbEntity
  8
BEZUGSACHSEN
  6
Continuous
 62
     7
100
AcDbLine
 10
15.9748310888
 20
301.2607880253
 30
0.0
 11
15.8537208374
 21
301.0284520298
 31
0.0
  0
LINE
  5
7B
330
1F
100
AcDbEntity
  8
BEZUGSACHSEN
  6
Continuous
 62
     7
100
AcDbLine
 10
15.8537208374
 20
331.5131240207
 30
0.0
 11
15.9748310888
 21
331.2807880253
 31
0.0
  0
LWPOLYLINE
  5
7C
330
1F
100
AcDbEntity
  8
BEZUGSACHSEN
  6
DOT_CENTER
 62
     7
100
AcDbPolyline
 90
        2
 70
     0
 43
0.25
 10
49.7078781618
 20
316.2707880253
 10
49.7078781618
 20
307.2707880253
  0
LWPOLYLINE
  5
7D
330
1F
100
AcDbEntity
  8
BEZUGSACHSEN
  6
DOT_CENTER
 62
     7
100
AcDbPolyline
 90
        2
 70
     0
 43
0.25
 10
49.7078781618
 20
316.2707880253
 10
49.7078781618
 20
325.2707880253
  0
LINE
  5
7E
330
1F
100
AcDbEntity
  8
BEZUGSACHSEN
  6
Continuous
 62
     7
100
AcDbLine
 10
14.7078781618
 20
304.2607880253
 30
0.0
 11
16.7078781618
 21
306.2607880253
 31
0.0
  0
LINE
  5
7F
330
1F
100
AcDbEntity
  8
BEZUGSACHSEN
  6
Continuous
 62
     7
100
AcDbLine
 10
16.7078781618
 20
326.2807880253
 30
0.0
 11
14.7078781618
 21
328.2807880253
 31
0.0
  0
LINE
  5
80
330
1F
100
AcDbEntity
  8
BEZUGSACHSEN
  6
Continuous
 62
     7
100
AcDbLine
 10
62.2078781618
 20
354.1530380253
 30
0.0
 11
62.2078781618
 21
278.3885380253
 31
0.0
  0
LINE
  5
81
330
1F
100
AcDbEntity
  8
BEZUGSACHSEN
  6
Continuous
 62
     9
100
AcDbLine
 10
62.8271217758
 20
278.5544638516
 30
0.0
 11
62.8271217758
 21
353.987112199
 31
0.0
  0
LINE
  5
82
330
1F
100
AcDbEntity
  8
BEZUGSACHSEN
  6
Continuous
 62
     9
100
AcDbLine
 10
63.0859408209
 20
278.5885380253
 30
0.0
 11
63.0859408209
 21
353.9530380253
 31
0.0
  0
LINE
  5
83
330
1F
100
AcDbEntity
  8
BEZUGSACHSEN
  6
Continuous
 62
     9
100
AcDbLine
 10
64.0073068731
 20
278.5885380253
 30
0.0
 11
64.0073068731
 21
353.9530380253
 31
0.0
  0
LINE
  5
84
330
1F
100
AcDbEntity
  8
BEZUGSACHSEN
  6
Continuous
 62
     7
100
AcDbLine
 10
64.7078781618
 20
366.2707880253
 30
0.0
 11
64.7078781618
 21
266.2707880253
 31
0.0
  0
LWPOLYLINE
  5
85
330
1F
100
AcDbEntity
  8
BEZUGSACHSEN
  6
DOT_CENTER
 62
     7
100
AcDbPolyline
 90
        2
 70
     0
 43
0.25
 10
71.7078781618
 20
358.4201598806
 10
71.7078781618
 20
369.2707880253
  0
LINE
  5
86
330
1F
100
AcDbEntity
  8
BEZUGSACHSEN
  6
Continuous
 62
     7
100
AcDbLine
 10
86.5828781618
 20
363.8933832895
 30
0.0
 11
87.955473426
 21
366.2707880253
 31
0.0
  0
LINE
  5
87
330
1F
100
AcDbEntity
  8
BEZUGSACHSEN
  6
Continuous
 62
     7
100
AcDbLine
 10
81.4602828976
 20
266.2707880253
 30
0.0
 11
64.7078781618
 21
266.2707880253
 31
0.0
  0
LINE
  5
88
330
1F
100
AcDbEntity
  8
BEZUGSACHSEN
  6
Continuous
 62
     7
100
AcDbLine
 10
87.955473426
 20
266.2707880253
 30
0.0
 11
93.7078781618
 21
266.2707880253
 31
0.0
  0
LINE
  5
89
330
1F
100
AcDbEntity
  8
BEZUGSACHSEN
  6
Continuous
 62
     7
100
AcDbLine
 10
83.8328781618
 20
270.2707880253
 30
0.0
 11
85.5828781618
 21
270.2707880253
 31
0.0
  0
LINE
  5
8A
330
1F
100
AcDbEntity
  8
BEZUGSACHSEN
  6
Continuous
 62
     7
100
AcDbLine
 10
86.5828781618
 20
268.6481927611
 30
0.0
 11
87.955473426
 21
266.2707880253
 31
0.0
  0
LINE
  5
8B
330
1F
100
AcDbEntity
  8
FASEN
  6
Continuous
 62
     9
100
AcDbLine
 10
77.6797520837
 20
284.3707880253
 30
0.0
 11
77.6797520837
 21
284.7707880253
 31
0.0
  0
LINE
  5
8C
330
1F
100
AcDbEntity
  8
FASEN
  6
Continuous
 62
     9
100
AcDbLine
 10
79.7078781618
 20
306.6707880253
 30
0.0
 11
79.7078781618
 21
306.2707880253
 31
0.0
  0
LINE
  5
8D
330
1F
100
AcDbEntity
  8
FASEN
  6
Continuous
 62
     9
100
AcDbLine
 10
79.7078781618
 20
325.8707880253
 30
0.0
 11
79.7078781618
 21
326.2707880253
 31
0.0
  0
LINE
  5
8E
330
1F
100
AcDbEntity
  8
0
  6
Continuous
 62
     7
100
AcDbLine
 10
81.4602828976
 20
366.2707880253
 30
0.0
 11
81.4602828976
 21
326.2707880253
 31
0.0
  0
LINE
  5
8F
330
1F
100
AcDbEntity
  8
0
  6
Continuous
 62
     7
100
AcDbLine
 10
81.4602828976
 20
306.2707880253
 30
0.0
 11
81.4602828976
 21
284.7707880253
 31
0.0
  0
LINE
  5
90
330
1F
100
AcDbEntity
  8
0
  6
Continuous
 62
     7
100
AcDbLine
 10
81.4602828976
 20
277.4410313946
 30
0.0
 11
81.4602828976
 21
266.2707880253
 31
0.0
  0
LINE
  5
91
330
1F
100
AcDbEntity
  8
FASEN
  6
Continuous
 62
     7
100
AcDbLine
 10
70.1093641262
 20
277.4410313946
 30
0.0
 11
81.4602828976
 21
277.4410313946
 31
0.0
  0
LINE
  5
92
330
1F
100
AcDbEntity
  8
0
  6
Continuous
 62
     7
100
AcDbLine
 10
87.955473426
 20
277.4410313946
 30
0.0
 11
93.7078781618
 21
277.4410313946
 31
0.0
  0
LINE
  5
93
330
1F
100
AcDbEntity
  8
BEZUGSACHSEN
  6
Continuous
 62
     7
100
AcDbLine
 10
62.2078781618
 20
278.3885380253
 30
0.0
 11
16.6078036771
 21
280.673101757
 31
0.0
  0
LINE
  5
94
330
1F
100
AcDbEntity
  8
0
  6
Continuous
 62
     7
100
AcDbLine
 10
82.8328781618
 20
363.893349863
 30
0.0
 11
82.8328781618
 21
326.2707880253
 31
0.0
  0
LINE
  5
95
330
1F
100
AcDbEntity
  8
0
  6
Continuous
 62
     7
100
AcDbLine
 10
82.8328781618
 20
306.2707880253
 30
0.0
 11
82.8328781618
 21
284.7707880253
 31
0.0
  0
LINE
  5
96
330
1F
100
AcDbEntity
  8
0
  6
Continuous
 62
     7
100
AcDbLine
 10
82.8328781618
 20
268.6482302951
 30
0.0
 11
82.8328781618
 21
281.3888442721
 31
0.0
  0
LINE
  5
97
330
1F
100
AcDbEntity
  8
0
  6
Continuous
 62
     9
100
AcDbLine
 10
83.8328781618
 20
270.2707880253
 30
0.0
 11
83.8328781618
 21
282.7484074416
 31
0.0
  0
LINE
  5
98
330
1F
100
AcDbEntity
  8
0
  6
Continuous
 62
     9
100
AcDbLine
 10
83.8328781618
 20
284.7707880253
 30
0.0
 11
83.8328781618
 21
306.2707880253
 31
0.0
  0
LINE
  5
99
330
1F
100
AcDbEntity
  8
0
  6
Continuous
 62
     9
100
AcDbLine
 10
83.8328781618
 20
326.2707880253
 30
0.0
 11
83.8328781618
 21
362.2707880253
 31
0.0
  0
LINE
  5
9A
330
1F
100
AcDbEntity
  8
0
  6
Continuous
 62
     9
100
AcDbLine
 10
85.5828781618
 20
270.2707880253
 30
0.0
 11
85.5828781618
 21
282.7484074416
 31
0.0
  0
LINE
  5
9B
330
1F
100
AcDbEntity
  8
0
  6
Continuous
 62
     9
100
AcDbLine
 10
85.5828781618
 20
284.7707880253
 30
0.0
 11
85.5828781618
 21
306.2707880253
 31
0.0
  0
LINE
  5
9C
330
1F
100
AcDbEntity
  8
0
  6
Continuous
 62
     9
100
AcDbLine
 10
85.5828781618
 20
326.2707880253
 30
0.0
 11
85.5828781618
 21
362.2707880253
 31
0.0
  0
LINE
  5
9D
330
1F
100
AcDbEntity
  8
0
  6
Continuous
 62
     7
100
AcDbLine
 10
86.5828781618
 20
268.6482302951
 30
0.0
 11
86.5828781618
 21
281.3888442721
 31
0.0
  0
LINE
  5
9E
330
1F
100
AcDbEntity
  8
0
  6
Continuous
 62
     7
100
AcDbLine
 10
86.5828781618
 20
284.7707880253
 30
0.0
 11
86.5828781618
 21
306.2707880253
 31
0.0
  0
LINE
  5
9F
330
1F
100
AcDbEntity
  8
0
  6
Continuous
 62
     7
100
AcDbLine
 10
86.5828781618
 20
326.2707880253
 30
0.0
 11
86.5828781618
 21
363.893349863
 31
0.0
  0
LINE
  5
A0
330
1F
100
AcDbEntity
  8
0
  6
Continuous
 62
     7
100
AcDbLine
 10
87.955473426
 20
366.2707880253
 30
0.0
 11
87.955473426
 21
326.2707880253
 31
0.0
  0
LINE
  5
A1
330
1F
100
AcDbEntity
  8
0
  6
Continuous
 62
     7
100
AcDbLine
 10
87.955473426
 20
306.2707880253
 30
0.0
 11
87.955473426
 21
284.7707880253
 31
0.0
  0
LINE
  5
A2
330
1F
100
AcDbEntity
  8
0
  6
Continuous
 62
     7
100
AcDbLine
 10
87.955473426
 20
277.4410313946
 30
0.0
 11
87.955473426
 21
266.2707880253
 31
0.0
  0
LINE
  5
A3
330
1F
100
AcDbEntity
  8
BEZUGSACHSEN
  6
Continuous
 62
     9
100
AcDbLine
 10
14.7078781618
 20
302.8246040563
 30
0.0
 11
16.7078781618
 21
303.8671480769
 31
0.0
  0
LINE
  5
A4
330
1F
100
AcDbEntity
  8
BEZUGSACHSEN
  6
Continuous
 62
     7
100
AcDbLine
 10
64.0073068731
 20
278.5885380253
 30
0.0
 11
63.0859408209
 21
278.5885380253
 31
0.0
  0
LINE
  5
A5
330
1F
100
AcDbEntity
  8
0
  6
Continuous
 62
     7
100
AcDbLine
 10
83.8328781618
 20
282.7484074416
 30
0.0
 11
85.5828781618
 21
282.7484074416
 31
0.0
  0
LINE
  5
A6
330
1F
100
AcDbEntity
  8
0
  6
Continuous
 62
     7
100
AcDbLine
 10
98.7078781618
 20
283.7707880253
 30
0.0
 11
167.7078781618
 21
283.7707880253
 31
0.0
  0
LINE
  5
A7
330
1F
100
AcDbEntity
  8
0
  6
Continuous
 62
     7
100
AcDbLine
 10
183.7078781618
 20
283.7707880253
 30
0.0
 11
192.7078781618
 21
283.7707880253
 31
0.0
  0
LINE
  5
A8
330
1F
100
AcDbEntity
  8
0
  6
Continuous
 62
     7
100
AcDbLine
 10
208.7078781618
 20
283.7707880253
 30
0.0
 11
214.2936645994
 21
283.7707880253
 31
0.0
  0
LINE
  5
A9
330
1F
100
AcDbEntity
  8
FASEN
  6
Continuous
 62
     7
100
AcDbLine
 10
77.6797520837
 20
284.3707880253
 30
0.0
 11
93.7078781618
 21
284.3707880253
 31
0.0
  0
LINE
  5
AA
330
1F
100
AcDbEntity
  8
0
  6
Continuous
 62
     7
100
AcDbLine
 10
77.6797520837
 20
284.7707880253
 30
0.0
 11
93.7078781618
 21
284.7707880253
 31
0.0
  0
LINE
  5
AB
330
1F
100
AcDbEntity
  8
BEZUGSACHSEN
  6
Continuous
 62
     9
100
AcDbLine
 10
16.7078781618
 20
328.6744279737
 30
0.0
 11
14.7078781618
 21
329.7169719943
 31
0.0
  0
LINE
  5
AC
330
1F
100
AcDbEntity
  8
0
  6
Continuous
 62
     7
100
AcDbLine
 10
93.7078781618
 20
366.2707511042
 30
0.0
 11
93.7078781618
 21
326.2707880253
 31
0.0
  0
LINE
  5
AD
330
1F
100
AcDbEntity
  8
0
  6
Continuous
 62
     7
100
AcDbLine
 10
93.7078781618
 20
306.2707880253
 30
0.0
 11
93.7078781618
 21
284.7707880253
 31
0.0
  0
LINE
  5
AE
330
1F
100
AcDbEntity
  8
0
  6
Continuous
 62
     7
100
AcDbLine
 10
93.7078781618
 20
277.4410313946
 30
0.0
 11
93.7078781618
 21
266.2707898931
 31
0.0
  0
LINE
  5
AF
330
1F
100
AcDbEntity
  8
FASEN
  6
Continuous
 62
     7
100
AcDbLine
 10
93.7078781618
 20
277.4410313946
 30
0.0
 11
93.7078781618
 21
284.7707880253
 31
0.0
  0
LINE
  5
B0
330
1F
100
AcDbEntity
  8
FASEN
  6
Continuous
 62
     7
100
AcDbLine
 10
93.7078781618
 20
306.2707880253
 30
0.0
 11
93.7078781618
 21
326.2707880253
 31
0.0
  0
LINE
  5
B1
330
1F
100
AcDbEntity
  8
RUNDUNGEN
  6
Continuous
 62
     9
100
AcDbLine
 10
98.7078781618
 20
348.7707880253
 30
0.0
 11
98.7078781618
 21
283.7707880253
 31
0.0
  0
LINE
  5
B2
330
1F
100
AcDbEntity
  8
BEZUGSACHSEN
  6
Continuous
 62
     7
100
AcDbLine
 10
62.8271217758
 20
278.5544638516
 30
0.0
 11
62.2078781618
 21
278.3885380253
 31
0.0
  0
LINE
  5
B3
330
1F
100
AcDbEntity
  8
BEZUGSACHSEN
  6
Continuous
 62
     9
100
AcDbLine
 10
24.2617241087
 20
301.2607880253
 30
0.0
 11
15.9748310888
 21
301.2607880253
 31
0.0
  0
LINE
  5
B4
330
1F
100
AcDbEntity
  8
BEZUGSACHSEN
  6
Continuous
 62
     7
100
AcDbLine
 10
81.4602828976
 20
266.2707880253
 30
0.0
 11
82.8328781618
 21
268.6481927611
 31
0.0
  0
LWPOLYLINE
  5
B5
330
1F
100
AcDbEntity
  8
DEFAULT_2
  6
DASHED
 62
     8
100
AcDbPolyline
 90
        2
 70
     0
 43
0.35
 10
164.7078781618
 20
303.7707880253
 10
167.7078781618
 20
303.7707880253
  0
LWPOLYLINE
  5
B6
330
1F
100
AcDbEntity
  8
DEFAULT_2
  6
DASHED
 62
     8
100
AcDbPolyline
 90
        2
 70
     0
 43
0.35
 10
167.7078781618
 20
303.7707880253
 10
192.7078781618
 20
303.7707880253
  0
LWPOLYLINE
  5
B7
330
1F
100
AcDbEntity
  8
DEFAULT_2
  6
DASHED
 62
     8
100
AcDbPolyline
 90
        2
 70
     0
 43
0.35
 10
192.7078781618
 20
303.7707880253
 10
224.7078781618
 20
303.7707880253
  0
LINE
  5
B8
330
1F
100
AcDbEntity
  8
BEZUGSACHSEN
  6
Continuous
 62
     7
100
AcDbLine
 10
22.7078781618
 20
306.2607880253
 30
0.0
 11
16.7078781618
 21
306.2607880253
 31
0.0
  0
LINE
  5
B9
330
1F
100
AcDbEntity
  8
0
  6
Continuous
 62
     7
100
AcDbLine
 10
79.7078781618
 20
306.2707880253
 30
0.0
 11
93.7078781618
 21
306.2707880253
 31
0.0
  0
LINE
  5
BA
330
1F
100
AcDbEntity
  8
FASEN
  6
Continuous
 62
     7
100
AcDbLine
 10
93.7078781618
 20
306.6707880253
 30
0.0
 11
79.7078781618
 21
306.6707880253
 31
0.0
  0
LINE
  5
BB
330
1F
100
AcDbEntity
  8
BEZUGSACHSEN
  6
Continuous
 62
     7
100
AcDbLine
 10
81.4602828976
 20
366.2707880253
 30
0.0
 11
82.8328781618
 21
363.8933832895
 31
0.0
  0
LWPOLYLINE
  5
BC
330
1F
100
AcDbEntity
  8
BEZUGSACHSEN
  6
DOT_CENTER
 62
     7
100
AcDbPolyline
 90
        2
 70
     0
 43
0.25
 10
227.7078781618
 20
316.2707880253
 10
11.7078781618
 20
316.2707880253
  0
LINE
  5
BD
330
1F
100
AcDbEntity
  8
FASEN
  6
Continuous
 62
     7
100
AcDbLine
 10
79.7078781618
 20
325.8707880253
 30
0.0
 11
93.7078781618
 21
325.8707880253
 31
0.0
  0
LINE
  5
BE
330
1F
100
AcDbEntity
  8
0
  6
Continuous
 62
     7
100
AcDbLine
 10
79.7078781618
 20
326.2707880253
 30
0.0
 11
93.7078781618
 21
326.2707880253
 31
0.0
  0
LINE
  5
BF
330
1F
100
AcDbEntity
  8
BEZUGSACHSEN
  6
Continuous
 62
     7
100
AcDbLine
 10
22.7078781618
 20
326.2807880253
 30
0.0
 11
16.7078781618
 21
326.2807880253
 31
0.0
  0
LWPOLYLINE
  5
C0
330
1F
100
AcDbEntity
  8
DEFAULT_2
  6
DASHED
 62
     8
100
AcDbPolyline
 90
        2
 70
     0
 43
0.35
 10
224.7078781618
 20
328.7707880253
 10
164.7078781618
 20
328.7707880253
  0
LINE
  5
C1
330
1F
100
AcDbEntity
  8
BEZUGSACHSEN
  6
Continuous
 62
     9
100
AcDbLine
 10
15.9748310888
 20
331.2807880253
 30
0.0
 11
24.2617241087
 21
331.2807880253
 31
0.0
  0
LINE
  5
C2
330
1F
100
AcDbEntity
  8
BEZUGSACHSEN
  6
Continuous
 62
     7
100
AcDbLine
 10
62.8271217758
 20
353.987112199
 30
0.0
 11
62.2078781618
 21
354.1530380253
 31
0.0
  0
LINE
  5
C3
330
1F
100
AcDbEntity
  8
RUNDUNGEN
  6
Continuous
 62
     7
100
AcDbLine
 10
214.2936645994
 20
348.7707880253
 30
0.0
 11
98.7078781618
 21
348.7707880253
 31
0.0
  0
LINE
  5
C4
330
1F
100
AcDbEntity
  8
0
  6
Continuous
 62
     7
100
AcDbLine
 10
98.7078781618
 20
348.7707880253
 30
0.0
 11
214.2936645994
 21
348.7707880253
 31
0.0
  0
LINE
  5
C5
330
1F
100
AcDbEntity
  8
BEZUGSACHSEN
  6
Continuous
 62
     7
100
AcDbLine
 10
64.0073068731
 20
353.9530380253
 30
0.0
 11
63.0859408209
 21
353.9530380253
 31
0.0
  0
LWPOLYLINE
  5
C6
330
1F
100
AcDbEntity
  8
DEFAULT_2
  6
DASHED
 62
     8
100
AcDbPolyline
 90
        2
 70
     0
 43
0.35
 10
164.7078781618
 20
328.7707880253
 10
164.7078781618
 20
303.7707880253
  0
LINE
  5
C7
330
1F
100
AcDbEntity
  8
BEZUGSACHSEN
  6
Continuous
 62
     7
100
AcDbLine
 10
62.2078781618
 20
354.1530380253
 30
0.0
 11
16.6078036771
 21
351.8684742936
 31
0.0
  0
LINE
  5
C8
330
1F
100
AcDbEntity
  8
BEZUGSACHSEN
  6
Continuous
 62
     7
100
AcDbLine
 10
83.8328781618
 20
362.2707880253
 30
0.0
 11
85.5828781618
 21
362.2707880253
 31
0.0
  0
LWPOLYLINE
  5
C9
330
1F
100
AcDbEntity
  8
GEWINDE
  6
DASHED
 62
     8
100
AcDbPolyline
 90
        2
 70
     0
 43
0.35
 10
167.7078781618
 20
303.7707880253
 10
167.7078781618
 20
283.7707880253
  0
LINE
  5
CA
330
1F
100
AcDbEntity
  8
BEZUGSACHSEN
  6
Continuous
 62
     7
100
AcDbLine
 10
81.4602828976
 20
366.2707880253
 30
0.0
 11
76.7078781618
 21
366.2707880253
 31
0.0
  0
LINE
  5
CB
330
1F
100
AcDbEntity
  8
BEZUGSACHSEN
  6
Continuous
 62
     7
100
AcDbLine
 10
66.7078781618
 20
366.2707880253
 30
0.0
 11
64.7078781618
 21
366.2707880253
 31
0.0
  0
LINE
  5
CC
330
1F
100
AcDbEntity
  8
BEZUGSACHSEN
  6
Continuous
 62
     7
100
AcDbLine
 10
87.955473426
 20
366.2707880253
 30
0.0
 11
93.7078781618
 21
366.2707880253
 31
0.0
  0
LWPOLYLINE
  5
CD
330
1F
100
AcDbEntity
  8
GEWINDE
  6
DOT_CENTER
 62
     7
100
AcDbPolyline
 90
        2
 70
     0
 43
0.25
 10
175.7078781618
 20
280.7707880253
 10
175.7078781618
 20
309.6681946254
  0
LWPOLYLINE
  5
CE
330
1F
100
AcDbEntity
  8
GEWINDE
  6
DASHED
 62
     8
100
AcDbPolyline
 90
        2
 70
     0
 43
0.35
 10
183.7078781618
 20
303.7707880253
 10
183.7078781618
 20
283.7707880253
  0
LWPOLYLINE
  5
CF
330
1F
100
AcDbEntity
  8
GEWINDE
  6
DASHED
 62
     8
100
AcDbPolyline
 90
        2
 70
     0
 43
0.35
 10
192.7078781618
 20
303.7707880253
 10
192.7078781618
 20
283.7707880253
  0
LWPOLYLINE
  5
D0
330
1F
100
AcDbEntity
  8
GEWINDE
  6
DOT_CENTER
 62
     7
100
AcDbPolyline
 90
        2
 70
     0
 43
0.25
 10
200.7078781618
 20
280.7707880253
 10
200.7078781618
 20
309.6681946254
  0
LWPOLYLINE
  5
D1
330
1F
100
AcDbEntity
  8
GEWINDE
  6
DASHED
 62
     8
100
AcDbPolyline
 90
        2
 70
     0
 43
0.35
 10
208.7078781618
 20
303.7707880253
 10
208.7078781618
 20
283.7707880253
  0
LINE
  5
D2
330
1F
100
AcDbEntity
  8
0
  6
Continuous
 62
     7
100
AcDbLine
 10
215.0007713806
 20
284.0636812441
 30
0.0
 11
224.414984943
 21
293.4778948065
 31
0.0
  0
LINE
  5
D3
330
1F
100
AcDbEntity
  8
0
  6
Continuous
 62
     7
100
AcDbLine
 10
215.0007713806
 20
348.4778948065
 30
0.0
 11
224.414984943
 21
339.0636812441
 31
0.0
  0
LINE
  5
D4
330
1F
100
AcDbEntity
  8
RUNDUNGEN
  6
Continuous
 62
     7
100
AcDbLine
 10
224.414984943
 20
339.0636812441
 30
0.0
 11
215.0007713806
 21
348.4778948065
 31
0.0
  0
LINE
  5
D5
330
1F
100
AcDbEntity
  8
RUNDUNGEN
  6
Continuous
 62
     9
100
AcDbLine
 10
214.2936645994
 20
283.7707880253
 30
0.0
 11
214.2936645994
 21
348.7707880253
 31
0.0
  0
LINE
  5
D6
330
1F
100
AcDbEntity
  8
RUNDUNGEN
  6
Continuous
 62
     9
100
AcDbLine
 10
215.0007713806
 20
284.0636812441
 30
0.0
 11
215.0007713806
 21
348.4778948065
 31
0.0
  0
LINE
  5
D7
330
1F
100
AcDbEntity
  8
RUNDUNGEN
  6
Continuous
 62
     9
100
AcDbLine
 10
224.414984943
 20
293.4778948065
 30
0.0
 11
224.414984943
 21
339.0636812441
 31
0.0
  0
LINE
  5
D8
330
1F
100
AcDbEntity
  8
RUNDUNGEN
  6
Continuous
 62
     7
100
AcDbLine
 10
224.7078781618
 20
294.1850015877
 30
0.0
 11
224.7078781618
 21
338.3565744629
 31
0.0
  0
LWPOLYLINE
  5
D9
330
1F
100
AcDbEntity
  8
GEWINDE
  6
DASHED
 62
     8
100
AcDbPolyline
 90
        2
 70
     0
 43
0.35
 10
209.7078781618
 20
303.7707880253
 10
209.7078781618
 20
283.7707880253
  0
LWPOLYLINE
  5
DA
330
1F
100
AcDbEntity
  8
GEWINDE
  6
DASHED
 62
     8
100
AcDbPolyline
 90
        2
 70
     0
 43
0.35
 10
184.7078781618
 20
303.7707880253
 10
184.7078781618
 20
283.7707880253
  0
LWPOLYLINE
  5
DB
330
1F
100
AcDbEntity
  8
GEWINDE
  6
DASHED
 62
     8
100
AcDbPolyline
 90
        2
 70
     0
 43
0.35
 10
191.7078781618
 20
303.7707880253
 10
191.7078781618
 20
283.7707880253
  0
LWPOLYLINE
  5
DC
330
1F
100
AcDbEntity
  8
GEWINDE
  6
DASHED
 62
     8
100
AcDbPolyline
 90
        2
 70
     0
 43
0.35
 10
166.7078781618
 20
303.7707880253
 10
166.7078781618
 20
283.7707880253
  0
ARC
  5
DD
330
1F
100
AcDbEntity
  8
FASEN
  6
Continuous
 62
     7
100
AcDbCircle
 10
82.6085321847
 20
291.8020512953
 30
0.0
 40
19.03859487309966
100
AcDbArc
 50
227.4837701982989
 51
228.965195337302
  0
ARC
  5
DE
330
1F
100
AcDbEntity
  8
FASEN
  6
Continuous
 62
     7
100
AcDbCircle
 10
77.6797520837
 20
276.7707880253
 30
0.0
 40
8.0
100
AcDbArc
 50
90.0
 51
172.8323734889971
  0
ARC
  5
DF
330
1F
100
AcDbEntity
  8
FASEN
  6
Continuous
 62
     7
100
AcDbCircle
 10
77.6797520837
 20
276.7707880253
 30
0.0
 40
7.599982194899951
100
AcDbArc
 50
90.0
 51
174.9405171273017
  0
ARC
  5
E0
330
1F
100
AcDbEntity
  8
BEZUGSACHSEN
  6
Continuous
 62
     7
100
AcDbCircle
 10
22.7078781618
 20
308.2607880253
 30
0.0
 40
2.0
100
AcDbArc
 50
270.0
 51
355.235052060393
  0
ARC
  5
E1
330
1F
100
AcDbEntity
  8
BEZUGSACHSEN
  6
Continuous
 62
     7
100
AcDbCircle
 10
16.7078781618
 20
282.6705964622
 30
0.0
 40
2.0
100
AcDbArc
 50
179.9999999971356
 51
267.1318795135585
  0
ARC
  5
E2
330
1F
100
AcDbEntity
  8
BEZUGSACHSEN
  6
Continuous
 62
     7
100
AcDbCircle
 10
83.8328781618
 20
269.2707880253
 30
0.0
 40
1.0
100
AcDbArc
 50
90.0
 51
180.0
  0
ARC
  5
E3
330
1F
100
AcDbEntity
  8
BEZUGSACHSEN
  6
Continuous
 62
     7
100
AcDbCircle
 10
63.0859408209
 20
277.5885380253
 30
0.0
 40
1.0
100
AcDbArc
 50
90.0
 51
104.9999999996981
  0
ARC
  5
E4
330
1F
100
AcDbEntity
  8
BEZUGSACHSEN
  6
Continuous
 62
     7
100
AcDbCircle
 10
64.0073068731
 20
277.5885380253
 30
0.0
 40
0.9999999999998028
100
AcDbArc
 50
45.49026120128747
 51
90.0
  0
ARC
  5
E5
330
1F
100
AcDbEntity
  8
0
  6
Continuous
 62
     7
100
AcDbCircle
 10
-159.8899017214
 20
385.705255616
 30
0.0
 40
264.5204223909507
100
AcDbArc
 50
335.8400764706018
 51
336.5770705490999
  0
ARC
  5
E6
330
1F
100
AcDbEntity
  8
BEZUGSACHSEN
  6
Continuous
 62
     7
100
AcDbCircle
 10
71.7230861729
 20
416.3235577921
 30
0.0
 40
50.30340021035248
100
AcDbArc
 50
264.2781515101899
 51
269.9826780125999
  0
ARC
  5
E7
330
1F
100
AcDbEntity
  8
BEZUGSACHSEN
  6
Continuous
 62
     7
100
AcDbCircle
 10
71.6926701607
 20
416.3235575914
 30
0.0
 40
50.30340000969741
100
AcDbArc
 50
270.017321976058
 51
275.7218485012678
  0
ARC
  5
E8
330
1F
100
AcDbEntity
  8
0
  6
Continuous
 62
     7
100
AcDbCircle
 10
79.7078781618
 20
316.2707880253
 30
0.0
 40
10.0
100
AcDbArc
 50
90.0
 51
270.0
  0
ARC
  5
E9
330
1F
100
AcDbEntity
  8
FASEN
  6
Continuous
 62
     7
100
AcDbCircle
 10
79.7078781618
 20
316.2707880253
 30
0.0
 40
9.599999195899954
100
AcDbArc
 50
90.0
 51
270.0
  0
ARC
  5
EA
330
1F
100
AcDbEntity
  8
BEZUGSACHSEN
  6
Continuous
 62
     7
100
AcDbCircle
 10
22.7078781618
 20
324.2807880253
 30
0.0
 40
1.999999999999927
100
AcDbArc
 50
4.76494791109065
 51
90.0
  0
ARC
  5
EB
330
1F
100
AcDbEntity
  8
BEZUGSACHSEN
  6
Continuous
 62
     7
100
AcDbCircle
 10
16.7078781618
 20
349.8709795884
 30
0.0
 40
1.999999999947485
100
AcDbArc
 50
92.86812048644148
 51
180.0000000143238
  0
ARC
  5
EC
330
1F
100
AcDbEntity
  8
BEZUGSACHSEN
  6
Continuous
 62
     7
100
AcDbCircle
 10
83.8328781618
 20
363.2707880253
 30
0.0
 40
1.0
100
AcDbArc
 50
180.0
 51
270.0
  0
ARC
  5
ED
330
1F
100
AcDbEntity
  8
BEZUGSACHSEN
  6
Continuous
 62
     7
100
AcDbCircle
 10
63.0859408209
 20
354.9530380253
 30
0.0
 40
1.000000000009859
100
AcDbArc
 50
255.000000000301
 51
270.0
  0
ARC
  5
EE
330
1F
100
AcDbEntity
  8
BEZUGSACHSEN
  6
Continuous
 62
     7
100
AcDbCircle
 10
64.0073068731
 20
354.9530380253
 30
0.0
 40
1.0
100
AcDbArc
 50
270.0
 51
314.5097387987125
  0
ARC
  5
EF
330
1F
100
AcDbEntity
  8
BEZUGSACHSEN
  6
Continuous
 62
     7
100
AcDbCircle
 10
201.03792476
 20
-1289.7719712647
 30
0.0
 40
1632.172763698
100
AcDbArc
 50
96.2726189838
 51
96.48809068979999
  0
ARC
  5
F0
330
1F
100
AcDbEntity
  8
RUNDUNGEN
  6
Continuous
 62
     7
100
AcDbCircle
 10
98.7078781618
 20
278.7707880253
 30
0.0
 40
5.0
100
AcDbArc
 50
90.0
 51
180.0
  0
ARC
  5
F1
330
1F
100
AcDbEntity
  8
BEZUGSACHSEN
  6
Continuous
 62
     7
100
AcDbCircle
 10
85.5828781618
 20
269.2707880253
 30
0.0
 40
1.0
100
AcDbArc
 50
0.0
 51
90.0
  0
ARC
  5
F2
330
1F
100
AcDbEntity
  8
RUNDUNGEN
  6
Continuous
 62
     7
100
AcDbCircle
 10
223.7078781618
 20
294.1850015877
 30
0.0
 40
1.00000000001904
100
AcDbArc
 50
314.9999999999989
 51
0.0
  0
ARC
  5
F3
330
1F
100
AcDbEntity
  8
RUNDUNGEN
  6
Continuous
 62
     7
100
AcDbCircle
 10
214.2936645994
 20
284.7707880253
 30
0.0
 40
1.0
100
AcDbArc
 50
270.0
 51
315.0
  0
ARC
  5
F4
330
1F
100
AcDbEntity
  8
BEZUGSACHSEN
  6
Continuous
 62
     7
100
AcDbCircle
 10
201.03792476
 20
1922.3135473153
 30
0.0
 40
1632.172763698
100
AcDbArc
 50
263.5119093102
 51
263.7273810162
  0
ARC
  5
F5
330
1F
100
AcDbEntity
  8
0
  6
Continuous
 62
     7
100
AcDbCircle
 10
329.3056580447
 20
385.7052556158
 30
0.0
 40
264.5204223905998
100
AcDbArc
 50
203.4229294508999
 51
204.1599235293853
  0
ARC
  5
F6
330
1F
100
AcDbEntity
  8
RUNDUNGEN
  6
Continuous
 62
     7
100
AcDbCircle
 10
98.7078781618
 20
353.7707880253
 30
0.0
 40
4.999999999999991
100
AcDbArc
 50
183.6119562481004
 51
270.0
  0
ARC
  5
F7
330
1F
100
AcDbEntity
  8
RUNDUNGEN
  6
Continuous
 62
     7
100
AcDbCircle
 10
223.7078781618
 20
338.3565744629
 30
0.0
 40
1.0
100
AcDbArc
 50
0.0
 51
44.99999999999885
  0
ARC
  5
F8
330
1F
100
AcDbEntity
  8
BEZUGSACHSEN
  6
Continuous
 62
     7
100
AcDbCircle
 10
85.5828781618
 20
363.2707880253
 30
0.0
 40
1.0
100
AcDbArc
 50
270.0
 51
0.0
  0
ARC
  5
F9
330
1F
100
AcDbEntity
  8
RUNDUNGEN
  6
Continuous
 62
     7
100
AcDbCircle
 10
214.2936645994
 20
347.7707880253
 30
0.0
 40
1.00000000001902
100
AcDbArc
 50
44.9999999999977
 51
90.0
  0
CIRCLE
  5
FA
330
1F
100
AcDbEntity
  8
BEZUGSACHSEN
  6
Continuous
 62
     7
100
AcDbCircle
 10
49.7078781618
 20
316.2707880253
 30
0.0
 40
6.0
  0
SPLINE
  5
FB
330
1F
100
AcDbEntity
  8
0
  6
Continuous
 62
     2
100
AcDbSpline
210
0.0
220
0.0
230
1.0
 70
     8
 71
     3
 72
    67
 73
    63
 74
    61
 42
0.0000000001
 43
0.0000000001
 44
0.00000001
 40
0.0
 40
0.0
 40
0.0
 40
0.0
 40
0.0124398469445349
 40
0.0497906392502825
 40
0.1120573906262848
 40
0.1990775327085583
 40
0.3106846516835047
 40
0.4468637587177138
 40
0.6075293149394697
 40
0.7921591027350869
 40
1.000220413187357
 40
1.231569512161571
 40
1.485933276812304
 40
1.762121829761002
 40
2.058903652878371
 40
2.37578316399009
 40
2.712145337966898
 40
3.066141519208025
 40
3.435895008640784
 40
3.82062768402612
 40
4.219524584874913
 40
4.630498726181876
 40
5.051475959571086
 40
5.481680019030066
 40
5.920401233269161
 40
6.365875149067532
 40
6.816353463743587
 40
7.271187171555344
 40
7.729845676743306
 40
8.191159580826842
 40
8.653912797541835
 40
9.117330803108768
 40
9.580749378512975
 40
10.04350312935023
 40
10.50481627997836
 40
10.96347353598478
 40
11.41830650930136
 40
11.86878444986003
 40
12.31425792560601
 40
12.75297827901962
 40
13.1831809747338
 40
13.60415728347356
 40
14.01513163031198
 40
14.41402852592784
 40
14.79875985697004
 40
15.16851241935674
 40
15.52250966597505
 40
15.85887286131176
 40
16.17575139450514
 40
16.47253222147525
 40
16.74872174143393
 40
17.00308648339411
 40
17.23443456596329
 40
17.4424945910098
 40
17.62712470652006
 40
17.78779098760853
 40
17.92396975656223
 40
18.03557613500433
 40
18.12259598757979
 40
18.18486240619699
 40
18.2222123283673
 40
18.23465162090597
 40
18.23465162090597
 40
18.23465162090597
 40
18.23465162090597
 10
184.7078781618
 20
283.7707684055
 30
0.0
 10
184.7038827648286
 20
283.7718780118493
 30
0.0
 10
184.6878911396781
 20
283.7763192248074
 30
0.0
 10
184.6518856942503
 20
283.7862598337277
 30
0.0
 10
184.5918974781096
 20
283.802746787619
 30
0.0
 10
184.5079926687732
 20
283.8256127120914
 30
0.0
 10
184.4002485396175
 20
283.854703405911
 30
0.0
 10
184.2686874188395
 20
283.8897567271774
 30
0.0
 10
184.1134508007879
 20
283.9304907002105
 30
0.0
 10
183.9348262857171
 20
283.9764925316746
 30
0.0
 10
183.7331225406305
 20
284.0273414274489
 30
0.0
 10
183.5085481533567
 20
284.0825440089927
 30
0.0
 10
183.2615324973664
 20
284.1415658171028
 30
0.0
 10
182.9928495067332
 20
284.2037301851441
 30
0.0
 10
182.703348861388
 20
284.2683271929761
 30
0.0
 10
182.3936911362497
 20
284.3346407024518
 30
0.0
 10
182.0647527600592
 20
284.4019329411017
 30
0.0
 10
181.7178731385322
 20
284.4693832865833
 30
0.0
 10
181.3544501654077
 20
284.5361282374323
 30
0.0
 10
180.9755625290718
 20
284.6014027458471
 30
0.0
 10
180.5823768785208
 20
284.6644629802551
 30
0.0
 10
180.1765122419404
 20
284.7245820039539
 30
0.0
 10
179.7595808996004
 20
284.7809910029916
 30
0.0
 10
179.332769697443
 20
284.8330969077878
 30
0.0
 10
178.897179848423
 20
284.8803594604677
 30
0.0
 10
178.4542575265828
 20
284.9223190747452
 30
0.0
 10
178.0054345227599
 20
284.958476809798
 30
0.0
 10
177.5517551785539
 20
284.9885132388764
 30
0.0
 10
177.094080602604
 20
285.0121560812791
 30
0.0
 10
176.6334714914458
 20
285.0292219473067
 30
0.0
 10
176.1710737661552
 20
285.039501940971
 30
0.0
 10
175.7078729613634
 20
285.0429425273309
 30
0.0
 10
175.2446719800634
 20
285.0395017582063
 30
0.0
 10
174.7822741409888
 20
285.0292216318027
 30
0.0
 10
174.3216655239914
 20
285.0121556451899
 30
0.0
 10
173.8639918678263
 20
284.9885126840477
 30
0.0
 10
173.4103133167058
 20
284.9584761764427
 30
0.0
 10
172.9614908358453
 20
284.9223183785858
 30
0.0
 10
172.5185690808206
 20
284.8803587010759
 30
0.0
 10
172.082980125265
 20
284.8330961498872
 30
0.0
 10
171.6561699723272
 20
284.7809903138339
 30
0.0
 10
171.239239328219
 20
284.7245813316345
 30
0.0
 10
170.8333749429336
 20
284.6644622599597
 30
0.0
 10
170.4401896740073
 20
284.6014020555198
 30
0.0
 10
170.0613027872695
 20
284.5361276654362
 30
0.0
 10
169.6978802202665
 20
284.4693827279701
 30
0.0
 10
169.3510002316197
 20
284.4019322458581
 30
0.0
 10
169.0220614943743
 20
284.3346399285969
 30
0.0
 10
168.7124040803995
 20
284.2683264821275
 30
0.0
 10
168.4229037744757
 20
284.2037294941496
 30
0.0
 10
168.1542204868304
 20
284.1415650080916
 30
0.0
 10
167.9072045303436
 20
284.0825431269175
 30
0.0
 10
167.6826305729536
 20
284.027340645856
 30
0.0
 10
167.4809274744428
 20
283.9764918771112
 30
0.0
 10
167.302303039897
 20
283.9304900443182
 30
0.0
 10
167.1470661912495
 20
283.8897560117223
 30
0.0
 10
167.0155051870577
 20
283.8547027107885
 30
0.0
 10
166.9077615020194
 20
283.8256121216996
 30
0.0
 10
166.8238571266151
 20
283.8027463326548
 30
0.0
 10
166.7638693895307
 20
283.7862595128419
 30
0.0
 10
166.7278645239215
 20
283.7763190045887
 30
0.0
 10
166.7118733758299
 20
283.7718778483684
 30
0.0
 10
166.7078781618
 20
283.7707682739
 30
0.0
 11
184.7078781618
 21
283.7707684055
 31
0.0
 11
184.6958915506705
 21
283.7740957085571
 31
0.0
 11
184.6598900648424
 21
283.7840443116768
 31
0.0
 11
184.5998486731137
 21
283.8005421783934
 31
0.0
 11
184.515892135267
 21
283.8234289623708
 31
0.0
 11
184.4081416408769
 21
283.8525146970971
 31
0.0
 11
184.2765543062659
 21
283.8875792456129
 31
0.0
 11
184.1211487303554
 21
283.928353354211
 31
0.0
 11
183.942353514273
 21
283.9744014730379
 31
0.0
 11
183.7406026632033
 21
284.0252552142942
 31
0.0
 11
183.5159418000534
 21
284.0804811336158
 31
0.0
 11
183.2685414649182
 21
284.1395911914935
 31
0.0
 11
182.9994602475469
 21
284.2018440246651
 31
0.0
 11
182.7097996843495
 21
284.2664676168045
 31
0.0
 11
182.3999450447498
 21
284.3328206640664
 31
0.0
 11
182.0704073937354
 21
284.4002331899522
 31
0.0
 11
181.7229172515331
 21
284.467789813651
 31
0.0
 11
181.3592443485703
 21
284.5345705189356
 31
0.0
 11
180.9800957997601
 21
284.5998821522348
 31
0.0
 11
180.5862322571677
 21
284.6630505567055
 31
0.0
 11
180.1796911307707
 21
284.7232507009819
 31
0.0
 11
179.7625135593422
 21
284.7796838909413
 31
0.0
 11
179.3354788464666
 21
284.831807654948
 31
0.0
 11
178.8993176023945
 21
284.8791328384444
 31
0.0
 11
178.4558274986368
 21
284.9211273324372
 31
0.0
 11
178.0068035331156
 21
284.957296247004
 31
0.0
 11
177.5529629404774
 21
284.9873365238941
 31
0.0
 11
177.0949152864045
 21
285.0110002298503
 31
0.0
 11
176.6339172322588
 21
285.0280680995085
 31
0.0
 11
176.1712783991806
 21
285.038356428238
 31
0.0
 11
175.7078731515667
 21
285.0417950860546
 31
0.0
 11
175.2444673354049
 21
285.0383562523756
 31
0.0
 11
174.7818279714912
 21
285.0280677699085
 31
0.0
 11
174.3208306756246
 21
285.0109997839066
 31
0.0
 11
173.862784277106
 21
284.9873359868441
 31
0.0
 11
173.408944426024
 21
284.9572956275602
 31
0.0
 11
172.9599208422965
 21
284.9211266327373
 31
0.0
 11
172.5164311871513
 21
284.8791320691319
 31
0.0
 11
172.0802708089667
 21
284.8318068855481
 31
0.0
 11
171.6532374580328
 21
284.779683219235
 31
0.0
 11
171.2360608127959
 21
284.7232500801319
 31
0.0
 11
170.8295194937844
 21
284.6630498334908
 31
0.0
 11
170.43565596229
 21
284.5998813928681
 31
0.0
 11
170.056508742313
 21
284.5345699645481
 31
0.0
 11
169.6928367603835
 21
284.4677893764176
 31
0.0
 11
169.3453455821688
 21
284.4002324990751
 31
0.0
 11
169.0158069335669
 21
284.332819753583
 31
0.0
 11
168.7059532532734
 21
284.2664668967691
 31
0.0
 11
168.4162936720197
 21
284.2018434780651
 31
0.0
 11
168.1472115213422
 21
284.1395903888102
 31
0.0
 11
167.8998102379633
 21
284.0804800941492
 31
0.0
 11
167.6751503645967
 21
284.0252544062192
 31
0.0
 11
167.4734007667103
 21
283.9744009523046
 31
0.0
 11
167.2946052377779
 21
283.9283527342381
 31
0.0
 11
167.1391989619174
 21
283.8875784371629
 31
0.0
 11
167.0076119566897
 21
283.8525139655575
 31
0.0
 11
166.899862179083
 21
283.8234284170042
 31
0.0
 11
166.8159059179405
 21
283.8005417187445
 31
0.0
 11
166.755864851541
 21
283.7840439239518
 31
0.0
 11
166.7198642248774
 21
283.7740954785477
 31
0.0
 11
166.7078781618
 21
283.7707682739
 31
0.0
  0
SPLINE
  5
FC
330
1F
100
AcDbEntity
  8
0
  6
Continuous
 62
     2
100
AcDbSpline
210
0.0
220
0.0
230
1.0
 70
     8
 71
     3
 72
    67
 73
    63
 74
    61
 42
0.0000000001
 43
0.0000000001
 44
0.00000001
 40
0.0
 40
0.0
 40
0.0
 40
0.0
 40
0.0124398469445075
 40
0.0497906392502825
 40
0.1120573906262574
 40
0.1990775327085309
 40
0.3106846516834773
 40
0.4468637587177139
 40
0.6075293149394697
 40
0.7921591027350869
 40
1.000220413187357
 40
1.231569512161543
 40
1.485933276812304
 40
1.762121829761002
 40
2.058903652878372
 40
2.375783163990118
 40
2.712145337966927
 40
3.066141519208025
 40
3.435895008640757
 40
3.820627684026093
 40
4.219524584874914
 40
4.630498726181877
 40
5.051475959571115
 40
5.481680019030067
 40
5.92040123326919
 40
6.365875149067561
 40
6.816353463743587
 40
7.271187171555344
 40
7.729845676743277
 40
8.191159580826813
 40
8.653912797541864
 40
9.117330803108796
 40
9.580749378512946
 40
10.04350312935023
 40
10.50481627997836
 40
10.96347353598483
 40
11.41830650930133
 40
11.86878444986003
 40
12.31425792560601
 40
12.75297827901959
 40
13.1831809747338
 40
13.60415728347356
 40
14.01513163031198
 40
14.41402852592781
 40
14.79875985697004
 40
15.16851241935672
 40
15.52250966597505
 40
15.85887286131176
 40
16.17575139450514
 40
16.47253222147523
 40
16.74872174143396
 40
17.00308648339411
 40
17.23443456596327
 40
17.44249459100981
 40
17.62712470652007
 40
17.78779098760853
 40
17.92396975656223
 40
18.03557613500434
 40
18.12259598757979
 40
18.18486240619696
 40
18.22221232836727
 40
18.23465162090598
 40
18.23465162090598
 40
18.23465162090598
 40
18.23465162090598
 10
209.7078781618
 20
283.7707684055
 30
0.0
 10
209.7038827648286
 20
283.7718780118493
 30
0.0
 10
209.6878911396781
 20
283.7763192248074
 30
0.0
 10
209.6518856942502
 20
283.7862598337276
 30
0.0
 10
209.5918974781096
 20
283.8027467876191
 30
0.0
 10
209.5079926687732
 20
283.8256127120914
 30
0.0
 10
209.4002485396176
 20
283.8547034059111
 30
0.0
 10
209.2686874188394
 20
283.8897567271774
 30
0.0
 10
209.1134508007879
 20
283.9304907002104
 30
0.0
 10
208.934826285717
 20
283.9764925316746
 30
0.0
 10
208.7331225406305
 20
284.027341427449
 30
0.0
 10
208.5085481533567
 20
284.0825440089927
 30
0.0
 10
208.2615324973664
 20
284.1415658171029
 30
0.0
 10
207.9928495067332
 20
284.2037301851441
 30
0.0
 10
207.703348861388
 20
284.2683271929761
 30
0.0
 10
207.3936911362497
 20
284.3346407024518
 30
0.0
 10
207.0647527600592
 20
284.4019329411018
 30
0.0
 10
206.7178731385322
 20
284.4693832865833
 30
0.0
 10
206.3544501654078
 20
284.5361282374323
 30
0.0
 10
205.9755625290718
 20
284.6014027458472
 30
0.0
 10
205.5823768785208
 20
284.6644629802551
 30
0.0
 10
205.1765122419404
 20
284.7245820039539
 30
0.0
 10
204.7595808996003
 20
284.7809910029916
 30
0.0
 10
204.3327696974431
 20
284.8330969077878
 30
0.0
 10
203.897179848423
 20
284.8803594604677
 30
0.0
 10
203.4542575265828
 20
284.9223190747453
 30
0.0
 10
203.0054345227598
 20
284.9584768097979
 30
0.0
 10
202.5517551785539
 20
284.9885132388765
 30
0.0
 10
202.094080602604
 20
285.012156081279
 30
0.0
 10
201.6334714914457
 20
285.0292219473067
 30
0.0
 10
201.1710737661552
 20
285.039501940971
 30
0.0
 10
200.7078729613634
 20
285.0429425273309
 30
0.0
 10
200.2446719800634
 20
285.0395017582063
 30
0.0
 10
199.7822741409888
 20
285.0292216318026
 30
0.0
 10
199.3216655239914
 20
285.0121556451899
 30
0.0
 10
198.8639918678263
 20
284.9885126840476
 30
0.0
 10
198.4103133167058
 20
284.9584761764426
 30
0.0
 10
197.9614908358453
 20
284.9223183785859
 30
0.0
 10
197.5185690808206
 20
284.8803587010758
 30
0.0
 10
197.0829801252651
 20
284.8330961498872
 30
0.0
 10
196.6561699723272
 20
284.7809903138339
 30
0.0
 10
196.239239328219
 20
284.7245813316345
 30
0.0
 10
195.8333749429337
 20
284.6644622599599
 30
0.0
 10
195.4401896740072
 20
284.6014020555198
 30
0.0
 10
195.0613027872695
 20
284.5361276654362
 30
0.0
 10
194.6978802202665
 20
284.4693827279702
 30
0.0
 10
194.3510002316197
 20
284.4019322458581
 30
0.0
 10
194.0220614943743
 20
284.3346399285969
 30
0.0
 10
193.7124040803996
 20
284.2683264821275
 30
0.0
 10
193.4229037744756
 20
284.2037294941495
 30
0.0
 10
193.1542204868305
 20
284.1415650080917
 30
0.0
 10
192.9072045303435
 20
284.0825431269175
 30
0.0
 10
192.6826305729537
 20
284.0273406458561
 30
0.0
 10
192.4809274744429
 20
283.9764918771112
 30
0.0
 10
192.302303039897
 20
283.9304900443181
 30
0.0
 10
192.1470661912495
 20
283.8897560117223
 30
0.0
 10
192.0155051870577
 20
283.8547027107886
 30
0.0
 10
191.9077615020193
 20
283.8256121216995
 30
0.0
 10
191.8238571266151
 20
283.802746332655
 30
0.0
 10
191.7638693895306
 20
283.7862595128417
 30
0.0
 10
191.7278645239215
 20
283.7763190045889
 30
0.0
 10
191.7118733758299
 20
283.7718778483683
 30
0.0
 10
191.7078781618
 20
283.7707682739
 30
0.0
 11
209.7078781618
 21
283.7707684055
 31
0.0
 11
209.6958915506706
 21
283.7740957085571
 31
0.0
 11
209.6598900648424
 21
283.7840443116768
 31
0.0
 11
209.5998486731137
 21
283.8005421783934
 31
0.0
 11
209.5158921352671
 21
283.8234289623708
 31
0.0
 11
209.4081416408769
 21
283.8525146970971
 31
0.0
 11
209.2765543062659
 21
283.8875792456129
 31
0.0
 11
209.1211487303554
 21
283.928353354211
 31
0.0
 11
208.942353514273
 21
283.9744014730379
 31
0.0
 11
208.7406026632033
 21
284.0252552142942
 31
0.0
 11
208.5159418000534
 21
284.0804811336158
 31
0.0
 11
208.2685414649182
 21
284.1395911914935
 31
0.0
 11
207.9994602475469
 21
284.2018440246651
 31
0.0
 11
207.7097996843495
 21
284.2664676168045
 31
0.0
 11
207.3999450447498
 21
284.3328206640664
 31
0.0
 11
207.0704073937353
 21
284.4002331899522
 31
0.0
 11
206.7229172515331
 21
284.467789813651
 31
0.0
 11
206.3592443485704
 21
284.5345705189356
 31
0.0
 11
205.9800957997601
 21
284.5998821522348
 31
0.0
 11
205.5862322571677
 21
284.6630505567055
 31
0.0
 11
205.1796911307707
 21
284.7232507009819
 31
0.0
 11
204.7625135593422
 21
284.7796838909413
 31
0.0
 11
204.3354788464666
 21
284.831807654948
 31
0.0
 11
203.8993176023945
 21
284.8791328384444
 31
0.0
 11
203.4558274986368
 21
284.9211273324372
 31
0.0
 11
203.0068035331156
 21
284.957296247004
 31
0.0
 11
202.5529629404774
 21
284.9873365238941
 31
0.0
 11
202.0949152864046
 21
285.0110002298503
 31
0.0
 11
201.6339172322589
 21
285.0280680995085
 31
0.0
 11
201.1712783991805
 21
285.038356428238
 31
0.0
 11
200.7078731515667
 21
285.0417950860546
 31
0.0
 11
200.2444673354049
 21
285.0383562523756
 31
0.0
 11
199.7818279714912
 21
285.0280677699085
 31
0.0
 11
199.3208306756246
 21
285.0109997839066
 31
0.0
 11
198.8627842771059
 21
284.9873359868441
 31
0.0
 11
198.408944426024
 21
284.9572956275602
 31
0.0
 11
197.9599208422965
 21
284.9211266327373
 31
0.0
 11
197.5164311871513
 21
284.8791320691319
 31
0.0
 11
197.0802708089668
 21
284.8318068855481
 31
0.0
 11
196.6532374580328
 21
284.779683219235
 31
0.0
 11
196.2360608127959
 21
284.7232500801319
 31
0.0
 11
195.8295194937844
 21
284.6630498334908
 31
0.0
 11
195.43565596229
 21
284.5998813928681
 31
0.0
 11
195.056508742313
 21
284.5345699645481
 31
0.0
 11
194.6928367603836
 21
284.4677893764176
 31
0.0
 11
194.3453455821688
 21
284.4002324990751
 31
0.0
 11
194.0158069335669
 21
284.332819753583
 31
0.0
 11
193.7059532532734
 21
284.2664668967691
 31
0.0
 11
193.4162936720197
 21
284.2018434780651
 31
0.0
 11
193.1472115213422
 21
284.1395903888102
 31
0.0
 11
192.8998102379633
 21
284.0804800941492
 31
0.0
 11
192.6751503645967
 21
284.0252544062192
 31
0.0
 11
192.4734007667103
 21
283.9744009523046
 31
0.0
 11
192.2946052377779
 21
283.9283527342381
 31
0.0
 11
192.1391989619174
 21
283.8875784371629
 31
0.0
 11
192.0076119566897
 21
283.8525139655575
 31
0.0
 11
191.899862179083
 21
283.8234284170042
 31
0.0
 11
191.8159059179405
 21
283.8005417187445
 31
0.0
 11
191.755864851541
 21
283.7840439239518
 31
0.0
 11
191.7198642248774
 21
283.7740954785477
 31
0.0
 11
191.7078781618
 21
283.7707682739
 31
0.0
  0
SPLINE
  5
FD
330
1F
100
AcDbEntity
  8
GEWINDE
  6
Continuous
 62
     7
100
AcDbSpline
210
0.0
220
0.0
230
1.0
 70
     8
 71
     3
 72
    23
 73
    19
 74
    17
 42
0.0000000001
 43
0.0000000001
 44
0.00000001
 40
0.0
 40
0.0
 40
0.0
 40
0.0
 40
0.3144851919130401
 40
0.6289806223430653
 40
1.512320487129943
 40
2.395711712882655
 40
3.702068607626533
 40
5.00850626479583
 40
6.545013023416567
 40
8.081556001851709
 40
9.618098994927244
 40
11.15460576827895
 40
12.46104344664874
 40
13.76740036267288
 40
14.65079160392903
 40
15.53413148406907
 40
15.84862696371546
 40
16.16311220458338
 40
16.16311220458338
 40
16.16311220458338
 40
16.16311220458338
 10
192.7078781618
 20
283.7707880253
 30
0.0
 10
192.8097287709207
 20
283.7955992423247
 30
0.0
 10
193.0134333050549
 20
283.8452224841388
 30
0.0
 10
193.5044607855328
 20
283.9593371341337
 30
0.0
 10
194.1826444066813
 20
284.1057915308152
 30
0.0
 10
195.1891154196003
 20
284.2969302192408
 30
0.0
 10
196.340654667799
 20
284.478079668797
 30
0.0
 10
197.7146674281803
 20
284.6394040838607
 30
0.0
 10
199.1712026508254
 20
284.7456500662474
 30
0.0
 10
200.7078780661832
 20
284.783352496537
 30
0.0
 10
202.2445534866987
 20
284.7456500755277
 30
0.0
 10
203.7010887267561
 20
284.6394040997075
 30
0.0
 10
205.0751015067765
 20
284.4780796882037
 30
0.0
 10
206.2266407748584
 20
284.2969302407795
 30
0.0
 10
207.2331118059799
 20
284.1057915550487
 30
0.0
 10
207.9112954538159
 20
283.95933715539
 30
0.0
 10
208.4023229711919
 20
283.8452224969669
 30
0.0
 10
208.6060275369231
 20
283.7955992465938
 30
0.0
 10
208.7078781618
 20
283.7707880253
 30
0.0
 11
192.7078781618
 21
283.7707880253
 31
0.0
 11
193.0135589639019
 21
283.8446810774697
 31
0.0
 11
193.3198624875295
 21
283.9159939597185
 31
0.0
 11
194.183358004477
 21
284.1021788380878
 31
0.0
 11
195.0512518470243
 21
284.2669220801506
 31
0.0
 11
196.3417861225255
 21
284.4696278279756
 31
0.0
 11
197.6393449594463
 21
284.6216818210137
 31
0.0
 11
199.1717925018004
 21
284.7332952127729
 31
0.0
 11
200.7078780613438
 21
284.7707849225719
 31
0.0
 11
202.2439636357506
 21
284.733295221737
 31
0.0
 11
203.7764111933882
 21
284.6216818370274
 31
0.0
 11
205.0739700520422
 21
284.4696278472977
 31
0.0
 11
206.36450434952
 21
284.2669221022446
 31
0.0
 11
207.2323982081849
 21
284.1021788619589
 31
0.0
 11
208.0958937407921
 21
283.9159939833752
 31
0.0
 11
208.4021973123563
 21
283.8446810899756
 31
0.0
 11
208.7078781618
 21
283.7707880253
 31
0.0
  0
SPLINE
  5
FE
330
1F
100
AcDbEntity
  8
GEWINDE
  6
Continuous
 62
     7
100
AcDbSpline
210
0.0
220
0.0
230
1.0
 70
     8
 71
     3
 72
    23
 73
    19
 74
    17
 42
0.0000000001
 43
0.0000000001
 44
0.00000001
 40
0.0
 40
0.0
 40
0.0
 40
0.0
 40
0.3144851919130124
 40
0.628980622343093
 40
1.512320487129943
 40
2.395711712882683
 40
3.702068607626589
 40
5.00850626479583
 40
6.545013023416567
 40
8.081556001851709
 40
9.618098994927244
 40
11.15460576827895
 40
12.46104344664874
 40
13.76740036267288
 40
14.65079160392903
 40
15.53413148406907
 40
15.84862696371546
 40
16.16311220458338
 40
16.16311220458338
 40
16.16311220458338
 40
16.16311220458338
 10
167.7078781618
 20
283.7707880253
 30
0.0
 10
167.8097287709207
 20
283.7955992423247
 30
0.0
 10
168.0134333050549
 20
283.8452224841388
 30
0.0
 10
168.5044607855328
 20
283.9593371341335
 30
0.0
 10
169.1826444066814
 20
284.1057915308154
 30
0.0
 10
170.1891154196002
 20
284.2969302192406
 30
0.0
 10
171.3406546677991
 20
284.4780796687972
 30
0.0
 10
172.7146674281802
 20
284.6394040838605
 30
0.0
 10
174.1712026508254
 20
284.7456500662474
 30
0.0
 10
175.7078780661832
 20
284.783352496537
 30
0.0
 10
177.2445534866987
 20
284.7456500755277
 30
0.0
 10
178.7010887267561
 20
284.6394040997075
 30
0.0
 10
180.0751015067765
 20
284.4780796882037
 30
0.0
 10
181.2266407748583
 20
284.2969302407795
 30
0.0
 10
182.2331118059799
 20
284.1057915550487
 30
0.0
 10
182.9112954538159
 20
283.95933715539
 30
0.0
 10
183.4023229711919
 20
283.8452224969669
 30
0.0
 10
183.6060275369231
 20
283.7955992465938
 30
0.0
 10
183.7078781618
 20
283.7707880253
 30
0.0
 11
167.7078781618
 21
283.7707880253
 31
0.0
 11
168.0135589639018
 21
283.8446810774697
 31
0.0
 11
168.3198624875296
 21
283.9159939597185
 31
0.0
 11
169.183358004477
 21
284.1021788380878
 31
0.0
 11
170.0512518470243
 21
284.2669220801506
 31
0.0
 11
171.3417861225256
 21
284.4696278279756
 31
0.0
 11
172.6393449594463
 21
284.6216818210137
 31
0.0
 11
174.1717925018004
 21
284.7332952127729
 31
0.0
 11
175.7078780613438
 21
284.7707849225719
 31
0.0
 11
177.2439636357506
 21
284.733295221737
 31
0.0
 11
178.7764111933882
 21
284.6216818370274
 31
0.0
 11
180.0739700520422
 21
284.4696278472977
 31
0.0
 11
181.36450434952
 21
284.2669221022446
 31
0.0
 11
182.2323982081849
 21
284.1021788619589
 31
0.0
 11
183.0958937407921
 21
283.9159939833752
 31
0.0
 11
183.4021973123563
 21
283.8446810899756
 31
0.0
 11
183.7078781618
 21
283.7707880253
 31
0.0
  0
SPLINE
  5
FF
330
1F
100
AcDbEntity
  8
BEZUGSACHSEN
  6
Continuous
 62
     7
100
AcDbSpline
210
0.0
220
0.0
230
1.0
 70
     8
 71
     3
 72
    47
 73
    43
 74
    41
 42
0.0000000001
 43
0.0000000001
 44
0.00000001
 40
0.0
 40
0.0
 40
0.0
 40
0.0
 40
0.6366022432334986
 40
1.273595002182802
 40
1.592921746402356
 40
1.912076344897081
 40
2.231392290449961
 40
2.550826842773389
 40
3.189774321199115
 40
3.829081697019178
 40
4.468337152530856
 40
5.107221744808758
 40
5.426176341299861
 40
5.745033356846633
 40
6.063356731625451
 40
6.381780214938517
 40
7.017059195731558
 40
7.652639341047709
 40
8.287532214285385
 40
8.922347946533227
 40
9.559226748586669
 40
10.19613435936662
 40
10.83451785504567
 40
11.47287689977272
 40
12.11234487367606
 40
12.75189588949502
 40
13.39354300521162
 40
14.03487957357698
 40
14.35615205773353
 40
14.67732107713206
 40
14.99840882473326
 40
15.31959604122385
 40
15.96011121028035
 40
16.60099592091469
 40
17.23809108083172
 40
17.87482555207228
 40
18.19205670340251
 40
18.50917199107119
 40
18.82571084633421
 40
19.14241581830176
 40
19.77338974998061
 40
20.40398930744865
 40
20.40398930744865
 40
20.40398930744865
 40
20.40398930744865
 10
43.2084625675
 20
316.2707880058
 30
0.0
 10
43.21446821138528
 20
316.4830678155125
 30
0.0
 10
43.22648318324328
 20
316.9077576553424
 30
0.0
 10
43.3077485284581
 20
317.4339004164582
 30
0.0
 10
43.40046812505966
 20
317.8488747925692
 30
0.0
 10
43.48576108920393
 20
318.1566987682675
 30
0.0
 10
43.58599970264135
 20
318.4599914450623
 30
0.0
 10
43.73948525178916
 20
318.8574288076169
 30
0.0
 10
43.96795719856322
 20
319.3395283845011
 30
0.0
 10
44.29757215912445
 20
319.8883442573323
 30
0.0
 10
44.67979937621615
 20
320.4018797966755
 30
0.0
 10
45.03865407334165
 20
320.7963825587599
 30
0.0
 10
45.34760742690834
 20
321.0892558568065
 30
0.0
 10
45.58950253588354
 20
321.2969776779214
 30
0.0
 10
45.84114578936919
 20
321.4924870750542
 30
0.0
 10
46.18843989652601
 20
321.7359822777289
 30
0.0
 10
46.64418023128647
 20
322.0078643477735
 30
0.0
 10
47.21965965597563
 20
322.2791934602889
 30
0.0
 10
47.81877042113314
 20
322.4929770911013
 30
0.0
 10
48.43622082357967
 20
322.6476668224731
 30
0.0
 10
49.06649138525725
 20
322.7414738061276
 30
0.0
 10
49.70408531997677
 20
322.7736005309323
 30
0.0
 10
50.34226396421405
 20
322.7431709579823
 30
0.0
 10
50.97527638541378
 20
322.6504997028225
 30
0.0
 10
51.59651006984232
 20
322.4960077415926
 30
0.0
 10
52.20064582179948
 20
322.2809706090462
 30
0.0
 10
52.78112489536304
 20
322.0070472433169
 30
0.0
 10
53.24075391958432
 20
321.7318803652598
 30
0.0
 10
53.59065290824726
 20
321.4852706664025
 30
0.0
 10
53.84378453739644
 20
321.2873664740316
 30
0.0
 10
54.08678317675066
 20
321.0771879446299
 30
0.0
 10
54.39602752025574
 20
320.7816686044745
 30
0.0
 10
54.75434771105299
 20
320.3841976217078
 30
0.0
 10
55.13429812939621
 20
319.868530860153
 30
0.0
 10
55.46077115900786
 20
319.3189347036828
 30
0.0
 10
55.68614229900282
 20
318.8378291619722
 30
0.0
 10
55.83723328216171
 20
318.4418389743522
 30
0.0
 10
55.93564619971098
 20
318.1404126235689
 30
0.0
 10
56.01931297788311
 20
317.8347172556519
 30
0.0
 10
56.11013233532638
 20
317.4231652379363
 30
0.0
 10
56.18964731099976
 20
316.9017400214142
 30
0.0
 10
56.20141959561549
 20
316.4810637322553
 30
0.0
 10
56.2073039912
 20
316.2707880059
 30
0.0
 11
43.2084625675
 21
316.2707880058
 31
0.0
 11
43.2397112385398
 21
316.9066228402092
 31
0.0
 11
43.33315244091341
 21
317.5367248292973
 31
0.0
 11
43.40309294794784
 21
317.8482980872153
 31
0.0
 11
43.48823428692398
 21
318.1558864649829
 31
0.0
 11
43.58845882506193
 21
318.4590658096608
 31
0.0
 11
43.70353871481398
 21
318.7570507961832
 31
0.0
 11
43.9771346090583
 21
319.3344580760466
 31
0.0
 11
44.30635412273644
 21
319.8824803681036
 31
0.0
 11
44.68797837808382
 21
320.3953258274108
 31
0.0
 11
45.11791301421263
 21
320.8679035785872
 31
0.0
 11
45.34938527527376
 21
321.0873406469736
 31
0.0
 11
45.59128767630102
 21
321.2950737082341
 31
0.0
 11
45.84266148345552
 21
321.4903708664501
 31
0.0
 11
46.10339076174743
 21
321.6731651720687
 31
0.0
 11
46.64892440595726
 21
321.9986992355284
 31
0.0
 11
47.22383422607597
 21
322.2696989031503
 31
0.0
 11
47.82178041382078
 21
322.4831217628665
 31
0.0
 11
48.43757294602974
 21
322.6373636870799
 31
0.0
 11
49.06750522797614
 21
322.7311716220685
 31
0.0
 11
49.70360834969499
 21
322.7631735471507
 31
0.0
 11
50.34126930873031
 21
322.7328092773991
 31
0.0
 11
50.97288684165761
 21
322.6402805678887
 31
0.0
 11
51.59345971376381
 21
322.4859802112659
 31
0.0
 11
52.19596052088637
 21
322.2714614958779
 31
0.0
 11
52.77626771725287
 21
321.9976831567919
 31
0.0
 11
53.3264927052988
 21
321.6681910378384
 31
0.0
 11
53.58910000944626
 21
321.4831142621896
 31
0.0
 11
53.84212046683811
 21
321.2853007460624
 31
0.0
 11
54.08496876820243
 21
321.0752482664672
 31
0.0
 11
54.31717120360945
 21
320.8533400488906
 31
0.0
 11
54.7460872613437
 21
320.3776398310967
 31
0.0
 11
55.12619792001679
 21
319.8616465176827
 31
0.0
 11
55.45163706574196
 21
319.3139425782963
 31
0.0
 11
55.72171792387164
 21
318.7373256197025
 31
0.0
 11
55.83480836905584
 21
318.4409371000491
 31
0.0
 11
55.933252472395
 21
318.1394891539773
 31
0.0
 11
56.01673527777064
 21
317.834157419469
 31
0.0
 11
56.08528470121467
 21
317.5249600459121
 31
0.0
 11
56.17671177913921
 21
316.9006450678118
 31
0.0
 11
56.2073039912
 21
316.2707880059
 31
0.0
  0
SPLINE
  5
100
330
1F
100
AcDbEntity
  8
BEZUGSACHSEN
  6
Continuous
 62
     7
100
AcDbSpline
210
0.0
220
0.0
230
1.0
 70
     8
 71
     3
 72
    47
 73
    43
 74
    41
 42
0.0000000001
 43
0.0000000001
 44
0.00000001
 40
0.0
 40
0.0
 40
0.0
 40
0.0
 40
0.630239321446187
 40
1.26085486730339
 40
1.577476088392119
 40
1.893930800226681
 40
2.210999113873396
 40
2.528183472209244
 40
3.164887038235324
 40
3.80195118337467
 40
4.442851001605724
 40
5.083381259765954
 40
5.404527292269853
 40
5.72557383870304
 40
6.046670709982698
 40
6.36787102712035
 40
7.009090242518027
 40
7.650619763926575
 40
8.290330346477193
 40
8.92995876448155
 40
9.568647011352203
 40
10.20735923012545
 40
10.84445705812788
 40
11.4815262649113
 40
12.11643462217008
 40
12.75141965573727
 40
13.38691908732446
 40
14.02211738527197
 40
14.34050449139843
 40
14.65879153789461
 40
14.97761586865971
 40
15.29653774942495
 40
15.93537694099796
 40
16.57458694067106
 40
17.21386274991208
 40
17.85277859074371
 40
18.17219860083864
 40
18.49150024078518
 40
18.81067156637493
 40
19.13001452422768
 40
19.76719627024202
 40
20.40398968274163
 40
20.40398968274163
 40
20.40398968274163
 40
20.40398968274163
 10
56.2072917996
 20
316.270788044
 30
0.0
 10
56.20142259785577
 20
316.0606320221145
 30
0.0
 10
56.18968069071895
 20
315.6401945246899
 30
0.0
 10
56.11023394815643
 20
315.1190310824394
 30
0.0
 10
56.0195024430956
 20
314.707639615009
 30
0.0
 10
55.93589706080387
 20
314.4020017747054
 30
0.0
 10
55.83754511943769
 20
314.1006179285101
 30
0.0
 10
55.68652630858322
 20
313.704644748921
 30
0.0
 10
55.46124372097631
 20
313.22353794025
 30
0.0
 10
55.13486568622354
 20
312.6739037152583
 30
0.0
 10
54.754998624206
 20
312.1581758525837
 30
0.0
 10
54.39674418493397
 20
311.7606504503722
 30
0.0
 10
54.08756344725566
 20
311.4650970954598
 30
0.0
 10
53.84463849122064
 20
311.2549121870406
 30
0.0
 10
53.59158958789898
 20
311.0570027227113
 30
0.0
 10
53.24180707944385
 20
310.8103793712164
 30
0.0
 10
52.78232184168859
 20
310.5351727619194
 30
0.0
 10
52.20192613471103
 20
310.2611326552159
 30
0.0
 10
51.59777182685145
 20
310.0459441779003
 30
0.0
 10
50.97635667943504
 20
309.891282338887
 30
0.0
 10
50.34308746800874
 20
309.7984719658276
 30
0.0
 10
49.70462800358918
 20
309.7679612159816
 30
0.0
 10
49.06679499004875
 20
309.8000629583519
 30
0.0
 10
48.43636500306138
 20
309.8938760207278
 30
0.0
 10
47.81879133356497
 20
310.0485898370167
 30
0.0
 10
47.21964792213206
 20
310.2623864090902
 30
0.0
 10
46.6441907006659
 20
310.5337077775467
 30
0.0
 10
46.18850530771081
 20
310.8055526611955
 30
0.0
 10
45.84124940996016
 20
311.049013213787
 30
0.0
 10
45.58962982865534
 20
311.2444957401068
 30
0.0
 10
45.34775477837995
 20
311.4521887987966
 30
0.0
 10
45.03881849469397
 20
311.7450263469295
 30
0.0
 10
44.67997573780613
 20
312.139483995882
 30
0.0
 10
44.29774883256906
 20
312.6529686618483
 30
0.0
 10
43.9681243873036
 20
313.2017364405673
 30
0.0
 10
43.73963694138059
 20
313.6837998570625
 30
0.0
 10
43.58613544142038
 20
314.0812094162397
 30
0.0
 10
43.48587863849704
 20
314.3844917795319
 30
0.0
 10
43.40056214557207
 20
314.6923156512349
 30
0.0
 10
43.30779969021336
 20
315.1073565183379
 30
0.0
 10
43.22650732332635
 20
315.6336293173993
 30
0.0
 10
43.21446752378361
 20
316.0584449670805
 30
0.0
 10
43.208449459
 20
316.2707880457
 30
0.0
 11
56.2072917996
 21
316.270788044
 31
0.0
 11
56.17675222087876
 21
315.641289087346
 31
0.0
 11
56.08542094535195
 21
315.0173222895215
 31
0.0
 11
56.01692620666543
 21
314.7081985789848
 31
0.0
 11
55.93350738182868
 21
314.4029365860915
 31
0.0
 11
55.83512063798961
 21
314.1015193268718
 31
0.0
 11
55.72209000688706
 21
313.8051580716351
 31
0.0
 11
55.45210987037474
 21
313.2285280716532
 31
0.0
 11
55.12677324852139
 21
312.6807992998116
 31
0.0
 11
54.74673675372944
 21
312.1647325990501
 31
0.0
 11
54.31788625606872
 21
311.688952962795
 31
0.0
 11
54.0857491216987
 21
311.4670360300489
 31
0.0
 11
53.84296662836235
 21
311.2569704547966
 31
0.0
 11
53.59003702006403
 21
311.0591578819109
 31
0.0
 11
53.32752262422969
 21
310.87407456092
 31
0.0
 11
52.77746444262878
 21
310.5445323344161
 31
0.0
 11
52.19732361096316
 21
310.2706770034966
 31
0.0
 11
51.59471830064035
 21
310.0559761199447
 31
0.0
 11
50.97401903030037
 21
309.9015192362581
 31
0.0
 11
50.3420902163968
 21
309.8088442620248
 31
0.0
 11
49.70410408924687
 21
309.7783975877485
 31
0.0
 11
49.06780910113653
 21
309.8103714919685
 31
0.0
 11
48.43768582703094
 21
309.9041895801078
 31
0.0
 11
47.82180191878948
 21
310.05844791436
 31
0.0
 11
47.22376944897051
 21
310.271903197491
 31
0.0
 11
46.6489337004238
 21
310.5428707042892
 31
0.0
 11
46.10346701288242
 21
310.8683595220664
 31
0.0
 11
45.84276472010551
 21
311.0511289502771
 31
0.0
 11
45.59141546829717
 21
311.2463985013665
 31
0.0
 11
45.34953216994762
 21
311.4541036382008
 31
0.0
 11
45.11807633864741
 21
311.6735104844658
 31
0.0
 11
44.6881533077672
 21
312.1460374151358
 31
0.0
 11
44.3065321683094
 21
312.6588285320645
 31
0.0
 11
43.97730069413036
 21
313.2068068132862
 31
0.0
 11
43.70368638698632
 21
313.7841703578504
 31
0.0
 11
43.58859413452637
 21
314.0821349803691
 31
0.0
 11
43.48835444609948
 21
314.3852942489667
 31
0.0
 11
43.40318736588225
 21
314.6928928567756
 31
0.0
 11
43.33322433840856
 21
315.004477675913
 31
0.0
 11
43.23973544146833
 21
315.6347636456147
 31
0.0
 11
43.208449459
 21
316.2707880457
 31
0.0
  0
SPLINE
  5
101
330
1F
100
AcDbEntity
  8
BEZUGSACHSEN
  6
Continuous
 62
     7
100
AcDbSpline
210
0.0
220
0.0
230
1.0
 70
     8
 71
     3
 72
    27
 73
    23
 74
    21
 42
0.0000000001
 43
0.0000000001
 44
0.00000001
 40
0.0
 40
0.0
 40
0.0
 40
0.0
 40
0.1219765139516418
 40
0.2439857714749086
 40
0.3566831398333699
 40
0.4694418149629619
 40
0.5721317672948646
 40
0.6745445881156051
 40
0.7225206521222073
 40
0.7704888797708651
 40
0.817141293605202
 40
0.8637898734329241
 40
0.9102318001038362
 40
0.9566751324478061
 40
1.004175175776851
 40
1.051683100148066
 40
1.153672388723963
 40
1.256049376657549
 40
1.370745138082607
 40
1.485385401869801
 40
1.611534903907403
 40
1.737631875952293
 40
1.737631875952293
 40
1.737631875952293
 40
1.737631875952293
 10
15.8537208374
 20
301.0284520298
 30
0.0
 10
15.81846581979661
 20
301.0081725045351
 30
0.0
 10
15.74794632067619
 20
300.967608010137
 30
0.0
 10
15.64029391749038
 20
300.9168121492452
 30
0.0
 10
15.53213590161905
 20
300.8750605133762
 30
0.0
 10
15.42655668065066
 20
300.8456459282349
 30
0.0
 10
15.32172513550492
 20
300.8287313408466
 30
0.0
 10
15.23699746565556
 20
300.8268661176185
 30
0.0
 10
15.1711735292518
 20
300.8338214256382
 30
0.0
 10
15.12446632603755
 20
300.8430185527915
 30
0.0
 10
15.07928570873146
 20
300.8565519977796
 30
0.0
 10
15.036146098077
 20
300.8743452565996
 30
0.0
 10
14.99519162150461
 20
300.8965736143384
 30
0.0
 10
14.95654419504163
 20
300.9231086460624
 30
0.0
 10
14.92063811640547
 20
300.9538039235804
 30
0.0
 10
14.87519879486521
 20
301.0013413966659
 30
0.0
 10
14.82665565480466
 20
301.0705107637584
 30
0.0
 10
14.78042994587656
 20
301.1666688184786
 30
0.0
 10
14.74646407207859
 20
301.272244251467
 30
0.0
 10
14.72350864786169
 20
301.3886619423725
 30
0.0
 10
14.71006408949755
 20
301.5104092510301
 30
0.0
 10
14.7086067031996
 20
301.594512614548
 30
0.0
 10
14.7078781618
 20
301.6365555391
 30
0.0
 11
15.8537208374
 21
301.0284520298
 31
0.0
 11
15.74717621333946
 21
300.9690675786399
 31
0.0
 11
15.63688332417079
 21
300.916897304343
 31
0.0
 11
15.53156531631836
 21
300.8767872799486
 31
0.0
 11
15.42284158777531
 21
300.8468929716496
 31
0.0
 11
15.32137743565416
 21
300.8310736118564
 31
0.0
 11
15.21897789506976
 21
300.8294243827744
 31
0.0
 11
15.17127403885721
 21
300.83452779536
 31
0.0
 11
15.12422326859576
 21
300.8438645978939
 31
0.0
 11
15.07954370116234
 21
300.8572878601849
 31
0.0
 11
15.03643756456641
 21
300.8751190403959
 31
0.0
 11
14.99561497176955
 21
300.8972633053475
 31
0.0
 11
14.9573277152234
 21
300.9235514986171
 31
0.0
 11
14.92119061821356
 21
300.9543794783752
 31
0.0
 11
14.88833811784668
 21
300.9886973468653
 31
0.0
 11
14.8291657236237
 21
301.0717662504703
 31
0.0
 11
14.78426600004911
 21
301.1637720246439
 31
0.0
 11
14.74862784046903
 21
301.2727905518336
 31
0.0
 11
14.72577627707164
 21
301.3851301981367
 31
0.0
 11
14.7120095207322
 21
301.5105262638015
 31
0.0
 11
14.7078781618
 21
301.6365555391
 31
0.0
  0
SPLINE
  5
102
330
1F
100
AcDbEntity
  8
BEZUGSACHSEN
  6
Continuous
 62
     7
100
AcDbSpline
210
0.0
220
0.0
230
1.0
 70
     8
 71
     3
 72
    15
 73
    11
 74
     9
 42
0.0000000001
 43
0.0000000001
 44
0.00000001
 40
0.0
 40
0.0
 40
0.0
 40
0.0
 40
0.111037161379934
 40
0.2222522337398384
 40
0.3333980191846889
 40
0.4445069474869391
 40
0.5556201065347086
 40
0.6667525642417564
 40
0.7778876033781843
 40
0.8889820915624763
 40
0.8889820915624763
 40
0.8889820915624763
 40
0.8889820915624763
 10
16.6078036771
 20
300.594255639
 30
0.0
 10
16.5711619502202
 20
300.5997877918472
 30
0.0
 10
16.49781978669663
 20
300.6108609615179
 30
0.0
 10
16.39130323668347
 20
300.6438795250353
 30
0.0
 10
16.28889032893658
 20
300.6874698124854
 30
0.0
 10
16.19144036330951
 20
300.7412493202978
 30
0.0
 10
16.09913556757756
 20
300.8033444556622
 30
0.0
 10
16.0121389394511
 20
300.8726311293143
 30
0.0
 10
15.92988618400673
 20
300.9475130809269
 30
0.0
 10
15.87910619760524
 20
301.0014756624188
 30
0.0
 10
15.8537208374
 20
301.0284520298
 30
0.0
 11
16.6078036771
 21
300.594255639
 31
0.0
 11
16.49846139198977
 21
300.6135821982951
 31
0.0
 11
16.39196943842148
 21
300.6456486316051
 31
0.0
 11
16.28970125781432
 21
300.6891756905163
 31
0.0
 11
16.19229839135977
 21
300.7426347922195
 31
0.0
 11
16.10002662457315
 21
300.8045383879765
 31
0.0
 11
16.01292952116437
 21
300.8735638740944
 31
0.0
 11
15.93088961667783
 21
300.9485335412651
 31
0.0
 11
15.8537208374
 21
301.0284520298
 31
0.0
  0
SPLINE
  5
103
330
1F
100
AcDbEntity
  8
BEZUGSACHSEN
  6
Continuous
 62
     7
100
AcDbSpline
210
0.0
220
0.0
230
1.0
 70
     8
 71
     3
 72
    27
 73
    23
 74
    21
 42
0.0000000001
 43
0.0000000001
 44
0.00000001
 40
0.0
 40
0.0
 40
0.0
 40
0.0
 40
0.1260969825525566
 40
0.2522464959213911
 40
0.366886795255751
 40
0.4815825893854513
 40
0.583959600637112
 40
0.6859489160842943
 40
0.7334568410209084
 40
0.780956884872378
 40
0.8274002264038376
 40
0.8738421606646117
 40
0.9204907318618748
 40
0.9671431399162362
 40
1.015111401804363
 40
1.063087497104299
 40
1.165500418707143
 40
1.268190478941447
 40
1.380949153885226
 40
1.493646517766391
 40
1.615655563739198
 40
1.737631867602129
 40
1.737631867602129
 40
1.737631867602129
 40
1.737631867602129
 10
14.7078781618
 20
330.9050205115
 30
0.0
 10
14.70860670327628
 20
330.947063439561
 30
0.0
 10
14.71006408973235
 20
331.0311668103712
 30
0.0
 10
14.72350865169513
 20
331.1529141379348
 30
0.0
 10
14.7464640850182
 20
331.2693318543027
 30
0.0
 10
14.78042998536743
 20
331.3749073120713
 30
0.0
 10
14.82665574419476
 20
331.4710653743222
 30
0.0
 10
14.8751989127482
 20
331.5402347399879
 30
0.0
 10
14.92063823833033
 20
331.5877722215914
 30
0.0
 10
14.95654431642688
 20
331.6184675050679
 30
0.0
 10
14.99519174750235
 20
331.6450025407896
 30
0.0
 10
15.03614623469869
 20
331.6672308866913
 30
0.0
 10
15.07928586088522
 20
331.6850241035615
 30
0.0
 10
15.12446649550896
 20
331.6985575106182
 30
0.0
 10
15.17117371849445
 20
331.7077546359556
 30
0.0
 10
15.23699770968862
 20
331.7147099563384
 30
0.0
 10
15.32172546169055
 20
331.7128446997003
 30
0.0
 10
15.42655706519866
 20
331.6959300387639
 30
0.0
 10
15.53213630756471
 20
331.6665154059057
 30
0.0
 10
15.64029424566508
 20
331.6247637684362
 30
0.0
 10
15.74794650691966
 20
331.5739679412619
 30
0.0
 10
15.81846588173683
 20
331.533403513012
 30
0.0
 10
15.8537208374
 20
331.5131240207
 30
0.0
 11
14.7078781618
 21
330.9050205115
 31
0.0
 11
14.71200952136706
 21
331.031049797291
 31
0.0
 11
14.72577628050495
 21
331.156445874048
 31
0.0
 11
14.74862785661824
 21
331.2687855540395
 31
0.0
 11
14.78426604600169
 21
331.3778041058943
 31
0.0
 11
14.8291658107798
 21
331.4698098859067
 31
0.0
 11
14.88833823973417
 21
331.5528787977632
 31
0.0
 11
14.92119073991665
 21
331.5871966672126
 31
0.0
 11
14.95732783485248
 21
331.6180246502068
 31
0.0
 11
14.99561509969302
 21
331.6443128476276
 31
0.0
 11
15.03643770761304
 21
331.6664571006178
 31
0.0
 11
15.07954385124814
 21
331.6842882412334
 31
0.0
 11
15.12422342331346
 21
331.6977114680188
 31
0.0
 11
15.17127422905967
 21
331.7070482676418
 31
0.0
 11
15.2189781163128
 21
331.712151684259
 31
0.0
 11
15.32137775717244
 21
331.7105024228949
 31
0.0
 11
15.42284200750758
 21
331.6946829926001
 31
0.0
 11
15.53156572396441
 21
331.6647886410452
 31
0.0
 11
15.63688371626172
 21
331.6246785883872
 31
0.0
 11
15.74717640216712
 21
331.5725083791201
 31
0.0
 11
15.8537208374
 21
331.5131240207
 31
0.0
  0
SPLINE
  5
104
330
1F
100
AcDbEntity
  8
0
  6
Continuous
 62
     7
100
AcDbSpline
210
0.0
220
0.0
230
1.0
 70
     8
 71
     3
 72
    19
 73
    15
 74
    13
 42
0.0000000001
 43
0.0000000001
 44
0.00000001
 40
0.0
 40
0.0
 40
0.0
 40
0.0
 40
0.1162460235718655
 40
0.2327881717960441
 40
0.3491890045888228
 40
0.4655468550526621
 40
0.581907136967151
 40
0.6982738488833192
 40
0.8146206072289081
 40
0.9309998277654286
 40
1.163276323381274
 40
1.39613892171553
 40
1.629013178045494
 40
1.86135153973108
 40
1.86135153973108
 40
1.86135153973108
 40
1.86135153973108
 10
83.8328781618
 20
282.7484074416
 30
0.0
 10
83.79409409095905
 20
282.7465664947047
 30
0.0
 10
83.71642715089126
 20
282.7428799112935
 30
0.0
 10
83.60281706583454
 20
282.7144744262894
 30
0.0
 10
83.49462937788857
 20
282.6706205120731
 30
0.0
 10
83.393653511925
 20
282.6120238238489
 30
0.0
 10
83.30088505520169
 20
282.5413389625218
 30
0.0
 10
83.21679767621839
 20
282.4605813574358
 30
0.0
 10
83.14149403284482
 20
282.3716137186954
 30
0.0
 10
83.05284278867954
 20
282.2442542709556
 30
0.0
 10
82.96284604293707
 20
282.0714688928868
 30
0.0
 10
82.8879525237694
 20
281.8505439027044
 30
0.0
 10
82.84141559843474
 20
281.6215239831007
 30
0.0
 10
82.83572178771183
 20
281.4663445902481
 30
0.0
 10
82.8328781618
 20
281.3888442721
 30
0.0
 11
83.8328781618
 21
282.7484074416
 31
0.0
 11
83.71700681024957
 21
282.739081784189
 31
0.0
 11
83.60368228556152
 21
282.7118857474017
 31
0.0
 11
83.49580915295238
 21
282.6681531378758
 31
0.0
 11
83.3950204134422
 21
282.6100086682118
 31
0.0
 11
83.30233310839466
 21
282.5396611118204
 31
0.0
 11
83.21825774276917
 21
282.4592089860739
 31
0.0
 11
83.14295898483752
 21
282.3705147628602
 31
0.0
 11
83.07633225552222
 21
282.2750946291702
 31
0.0
 11
82.96844246941367
 21
282.0693954204477
 31
0.0
 11
82.89268433256191
 21
281.8492007465709
 31
0.0
 11
82.84772431874529
 21
281.6207078223504
 31
0.0
 11
82.8328781618
 21
281.3888442721
 31
0.0
  0
SPLINE
  5
105
330
1F
100
AcDbEntity
  8
BEZUGSACHSEN
  6
Continuous
 62
     7
100
AcDbSpline
210
0.0
220
0.0
230
1.0
 70
     8
 71
     3
 72
    15
 73
    11
 74
     9
 42
0.0000000001
 43
0.0000000001
 44
0.00000001
 40
0.0
 40
0.0
 40
0.0
 40
0.0
 40
0.1110944831772357
 40
0.2222295181663979
 40
0.3333620401947185
 40
0.4444752610225962
 40
0.5555842178368563
 40
0.6667300354398736
 40
0.7779450182136292
 40
0.8889820872257209
 40
0.8889820872257209
 40
0.8889820872257209
 40
0.8889820872257209
 10
15.8537208374
 20
331.5131240207
 30
0.0
 10
15.87910619696503
 20
331.540100386406
 30
0.0
 10
15.92988618228275
 20
331.5940629647561
 30
0.0
 10
16.0121389515222
 20
331.6689449281751
 30
0.0
 10
16.09913560346302
 20
331.7382316370761
 30
0.0
 10
16.19144044389781
 20
331.8003268001471
 30
0.0
 10
16.28889046589557
 20
331.8541062922695
 30
0.0
 10
16.39130337976978
 20
331.8976965378779
 30
0.0
 10
16.4978198783561
 20
331.9307150937406
 30
0.0
 10
16.57116198107914
 20
331.9417882603533
 30
0.0
 10
16.6078036771
 20
331.9473204116
 30
0.0
 11
15.8537208374
 21
331.5131240207
 31
0.0
 11
15.93088961448627
 21
331.5930425043907
 31
0.0
 11
16.01292951470327
 21
331.6680121700858
 31
0.0
 11
16.10002666329455
 21
331.7370377027505
 31
0.0
 11
16.1922984848786
 21
331.7989413277195
 31
0.0
 11
16.28970139297406
 21
331.8524004128117
 31
0.0
 11
16.39196961637434
 21
331.8959274532946
 31
0.0
 11
16.498461484479
 21
331.9279938597185
 31
0.0
 11
16.6078036771
 21
331.9473204116
 31
0.0
  0
SPLINE
  5
106
330
1F
100
AcDbEntity
  8
BEZUGSACHSEN
  6
Continuous
 62
     7
100
AcDbSpline
210
0.0
220
0.0
230
1.0
 70
     8
 71
     3
 72
    11
 73
     7
 74
     5
 42
0.0000000001
 43
0.0000000001
 44
0.00000001
 40
0.0
 40
0.0
 40
0.0
 40
0.0
 40
0.5462907431305873
 40
1.093000863660968
 40
1.646070107200542
 40
2.198197048713483
 40
2.198197048713483
 40
2.198197048713483
 40
2.198197048713483
 10
24.2617241087
 20
331.2807880253
 30
0.0
 10
24.32479491056601
 20
331.1098563960654
 30
0.0
 10
24.45098493259768
 20
330.7678619165146
 30
0.0
 10
24.59062224561462
 20
330.2365877872794
 30
0.0
 10
24.68811060962739
 20
329.693163382329
 30
0.0
 10
24.70129272414616
 20
329.3245787417809
 30
0.0
 10
24.7078781618
 20
329.1404435511
 30
0.0
 11
24.2617241087
 21
331.2807880253
 31
0.0
 11
24.44257544132919
 21
330.7653014866626
 31
0.0
 11
24.58306692602751
 21
330.2369511307267
 31
0.0
 11
24.67513357925792
 21
329.691598657997
 31
0.0
 11
24.7078781618
 21
329.1404435511
 31
0.0
  0
SPLINE
  5
107
330
1F
100
AcDbEntity
  8
0
  6
Continuous
 62
     7
100
AcDbSpline
210
0.0
220
0.0
230
1.0
 70
     8
 71
     3
 72
    19
 73
    15
 74
    13
 42
0.0000000001
 43
0.0000000001
 44
0.00000001
 40
0.0
 40
0.0
 40
0.0
 40
0.0
 40
0.2323383481415574
 40
0.4652125957553876
 40
0.6980761133052547
 40
0.9303535187359971
 40
1.046733461813515
 40
1.163080940900989
 40
1.279447997475867
 40
1.395808629579086
 40
1.512165904557276
 40
1.62856614040149
 40
1.745106920594199
 40
1.861351602857206
 40
1.861351602857206
 40
1.861351602857206
 40
1.861351602857206
 10
86.5828781618
 20
281.3888442721
 30
0.0
 10
86.58003453619415
 20
281.4663445857674
 30
0.0
 10
86.57434072602445
 20
281.6215239712689
 30
0.0
 10
86.52780375019239
 20
281.850544185298
 30
0.0
 10
86.45291000442836
 20
282.0714697471867
 30
0.0
 10
86.36291270017152
 20
282.2442558113854
 30
0.0
 10
86.27426076236941
 20
282.371615737109
 30
0.0
 10
86.19895649801636
 20
282.4605836360371
 30
0.0
 10
86.11486852419776
 20
282.541341306008
 30
0.0
 10
86.02209979036688
 20
282.6120258723919
 30
0.0
 10
85.92112397812122
 20
282.6706220965651
 30
0.0
 10
85.8129369286082
 20
282.714475347722
 30
0.0
 10
85.69932781925388
 20
282.7428801071724
 30
0.0
 10
85.6216617844618
 20
282.7465665598194
 30
0.0
 10
85.5828781618
 20
282.7484074416
 30
0.0
 11
86.5828781618
 21
281.3888442721
 31
0.0
 11
86.56803200768223
 21
281.6207078089597
 31
0.0
 11
86.5230720060936
 21
281.849200726703
 31
0.0
 11
86.44731352741123
 21
282.0693962550714
 31
0.0
 11
86.3394231162336
 21
282.2750961633104
 31
0.0
 11
86.2727957923894
 21
282.3705167631203
 31
0.0
 11
86.19749633582259
 21
282.4592113386634
 31
0.0
 11
86.11342046949214
 21
282.5396634396719
 31
0.0
 11
86.02073264352276
 21
282.6100108889542
 31
0.0
 11
85.91994420861818
 21
282.6681547349728
 31
0.0
 11
85.8120714798266
 21
282.7118867517071
 31
0.0
 11
85.69874819127271
 21
282.739082077027
 31
0.0
 11
85.5828781618
 21
282.7484074416
 31
0.0
  0
SPLINE
  5
108
330
1F
100
AcDbEntity
  8
BEZUGSACHSEN
  6
Continuous
 62
     7
100
AcDbSpline
210
0.0
220
0.0
230
1.0
 70
     8
 71
     3
 72
    19
 73
    15
 74
    13
 42
0.0000000001
 43
0.0000000001
 44
0.00000001
 40
0.0
 40
0.0
 40
0.0
 40
0.0
 40
0.1462385987780126
 40
0.292747927480836
 40
0.4364790706214224
 40
0.5801659236554936
 40
0.7203799973154303
 40
0.8606059383195829
 40
0.9980411884433098
 40
1.135484020472683
 40
1.405415631116596
 40
1.675815514114233
 40
1.943997429550129
 40
2.211934834776929
 40
2.211934834776929
 40
2.211934834776929
 40
2.211934834776929
 10
22.7078781618
 20
332.6294356127
 30
0.0
 10
22.75659296713832
 20
332.6327436900465
 30
0.0
 10
22.85411276300338
 20
332.6393659689471
 30
0.0
 10
22.99944902331784
 20
332.6230066561861
 30
0.0
 10
23.14010596044918
 20
332.5878348901193
 30
0.0
 10
23.27295809391601
 20
332.5350292034925
 30
0.0
 10
23.39741255699482
 20
332.4673574157459
 30
0.0
 10
23.51221511416473
 20
332.388057214339
 30
0.0
 10
23.61832505193231
 20
332.2989725747459
 30
0.0
 10
23.7474275170827
 20
332.1710250391648
 30
0.0
 10
23.89046736696116
 20
331.9952227502556
 30
0.0
 10
24.03537496865638
 20
331.7675372843771
 30
0.0
 10
24.16001171709885
 20
331.5288746649067
 30
0.0
 10
24.22783028826727
 20
331.3634584244738
 30
0.0
 10
24.2617241087
 20
331.2807880253
 30
0.0
 11
22.7078781618
 21
332.6294356127
 31
0.0
 11
22.85401202361905
 21
332.6349693458349
 31
0.0
 11
22.9997213844657
 21
332.6196799521709
 31
0.0
 11
23.13915146602496
 21
332.5847816160376
 31
0.0
 11
23.27278380296896
 21
332.5319771630272
 31
0.0
 11
23.39609759380042
 21
332.4652411499377
 31
0.0
 11
23.51162870513014
 21
332.3857686588139
 31
0.0
 11
23.617041254893
 21
332.2975833860692
 31
0.0
 11
23.71482975856049
 21
332.2010021217022
 31
0.0
 11
23.88607815442176
 21
331.9923467567106
 31
0.0
 11
24.03242057495233
 21
331.7649704327928
 31
0.0
 11
24.1562882007591
 21
331.5271083907519
 31
0.0
 11
24.2617241087
 21
331.2807880253
 31
0.0
  0
SPLINE
  5
109
330
1F
100
AcDbEntity
  8
BEZUGSACHSEN
  6
Continuous
 62
     7
100
AcDbSpline
210
0.0
220
0.0
230
1.0
 70
     8
 71
     3
 72
    11
 73
     7
 74
     5
 42
0.0000000001
 43
0.0000000001
 44
0.00000001
 40
0.0
 40
0.0
 40
0.0
 40
0.0
 40
0.5521269407036971
 40
1.105196183339768
 40
1.65190630469867
 40
2.198197048720092
 40
2.198197048720092
 40
2.198197048720092
 40
2.198197048720092
 10
24.7078781618
 20
303.4011324995
 30
0.0
 10
24.70129272417225
 20
303.2169973090891
 30
0.0
 10
24.68811060970679
 20
302.8484126691123
 30
0.0
 10
24.59062224590956
 20
302.3049882644269
 30
0.0
 10
24.45098493287704
 20
301.7737141349099
 30
0.0
 10
24.32479491066153
 20
301.4317196548158
 30
0.0
 10
24.2617241087
 20
301.2607880253
 30
0.0
 11
24.7078781618
 21
303.4011324995
 31
0.0
 11
24.6751335793732
 21
302.8499773934069
 31
0.0
 11
24.58306692642982
 21
302.304624921545
 31
0.0
 11
24.4425754415964
 21
301.7762745647877
 31
0.0
 11
24.2617241087
 21
301.2607880253
 31
0.0
  0
SPLINE
  5
10A
330
1F
100
AcDbEntity
  8
BEZUGSACHSEN
  6
Continuous
 62
     7
100
AcDbSpline
210
0.0
220
0.0
230
1.0
 70
     8
 71
     3
 72
    19
 73
    15
 74
    13
 42
0.0000000001
 43
0.0000000001
 44
0.00000001
 40
0.0
 40
0.0
 40
0.0
 40
0.0
 40
0.2679411643110187
 40
0.5361267936765219
 40
0.8065304773514821
 40
1.07646599322306
 40
1.21391337615588
 40
1.35135310489907
 40
1.491586367081397
 40
1.631807897561072
 40
1.77549156275016
 40
1.919219204719275
 40
2.06571300738015
 40
2.211936409330988
 40
2.211936409330988
 40
2.211936409330988
 40
2.211936409330988
 10
24.2617241087
 20
301.2607880253
 30
0.0
 10
24.22782986492776
 20
301.1781164455932
 30
0.0
 10
24.16001045283993
 20
301.0126978580078
 30
0.0
 10
24.03537194651007
 20
300.774031884367
 30
0.0
 10
23.89046114719236
 20
300.5463438883449
 30
0.0
 10
23.74741751567333
 20
300.3705393970108
 30
0.0
 10
23.61831112875314
 20
300.2425896778782
 30
0.0
 10
23.51219602967147
 20
300.1535026570661
 30
0.0
 10
23.3973866020165
 20
300.0742010167484
 30
0.0
 10
23.27292698979353
 20
300.0065305493185
 30
0.0
 10
23.14007343467918
 20
299.9537278626299
 30
0.0
 10
22.9994226358055
 20
299.9185615986411
 30
0.0
 10
22.85409725269668
 20
299.9022093967624
 30
0.0
 10
22.75658783363581
 20
299.9088321301282
 30
0.0
 10
22.7078781618
 20
299.9121404379
 30
0.0
 11
24.2617241087
 21
301.2607880253
 31
0.0
 11
24.156286849043
 21
301.0144641494609
 31
0.0
 11
24.03241733344939
 21
300.7765989041964
 31
0.0
 11
23.88607184714909
 21
300.5492200336201
 31
0.0
 11
23.71481965602313
 21
300.3405627314153
 31
0.0
 11
23.61702721732113
 21
300.2439789749766
 31
0.0
 11
23.51161022804157
 21
300.155792029184
 31
0.0
 11
23.39607158431885
 21
300.0763175702112
 31
0.0
 11
23.27274957443797
 21
300.0095810772782
 31
0.0
 11
23.13911888626829
 21
299.9567811263174
 31
0.0
 11
22.99969118507252
 21
299.9218876999269
 31
0.0
 11
22.85399674652226
 21
299.9066048731737
 31
0.0
 11
22.7078781618
 21
299.9121404379
 31
0.0
  0
SPLINE
  5
10B
330
1F
100
AcDbEntity
  8
BEZUGSACHSEN
  6
Continuous
 62
     7
100
AcDbSpline
210
0.0
220
0.0
230
1.0
 70
     8
 71
     3
 72
    11
 73
     7
 74
     5
 42
0.0000000001
 43
0.0000000001
 44
0.00000001
 40
0.0
 40
0.0
 40
0.0
 40
0.0
 40
0.9140556660003339
 40
1.828030949185932
 40
2.279806974871061
 40
2.730944124762503
 40
2.730944124762503
 40
2.730944124762503
 40
2.730944124762503
 10
15.9748310886854
 20
301.260788025485
 30
0.0
 10
16.10748579564878
 20
301.5355046231516
 30
0.0
 10
16.37278354381037
 20
302.0849136596788
 30
0.0
 10
16.58813875712297
 20
302.8176245807837
 30
0.0
 10
16.69183297078539
 20
303.4155697868898
 30
0.0
 10
16.70253228830649
 20
303.7166930023164
 30
0.0
 10
16.7078781618
 20
303.8671480769
 30
0.0
 11
15.9748310886854
 21
301.260788025485
 31
0.0
 11
16.34963861846086
 21
302.0944648670555
 31
0.0
 11
16.60892997885873
 21
302.970888742071
 31
0.0
 11
16.68164695235736
 21
303.4167741748327
 31
0.0
 11
16.7078781618
 21
303.8671480769
 31
0.0
  0
SPLINE
  5
10C
330
1F
100
AcDbEntity
  8
BEZUGSACHSEN
  6
Continuous
 62
     7
100
AcDbSpline
210
0.0
220
0.0
230
1.0
 70
     8
 71
     3
 72
    11
 73
     7
 74
     5
 42
0.0000000001
 43
0.0000000001
 44
0.00000001
 40
0.0
 40
0.0
 40
0.0
 40
0.0
 40
0.8249192366726984
 40
1.650116891931429
 40
2.190492152293611
 40
2.730585915378234
 40
2.730585915378234
 40
2.730585915378234
 40
2.730585915378234
 10
16.7078781618
 20
328.6744279737
 30
0.0
 10
16.69014485746182
 20
328.949618265677
 30
0.0
 10
16.65467226361588
 20
329.5000917291379
 30
0.0
 10
16.4462374469806
 20
330.2048253142909
 30
0.0
 10
16.21601101600077
 20
330.797039039371
 30
0.0
 10
16.05521043319882
 20
331.1195663728159
 30
0.0
 10
15.9748310886854
 20
331.280788025115
 30
0.0
 11
16.7078781618
 21
328.6744279737
 31
0.0
 11
16.62430270768429
 21
329.4951026293962
 31
0.0
 11
16.40634126557253
 21
330.2909945692957
 31
0.0
 11
16.20840618701333
 21
330.7938137482132
 31
0.0
 11
15.9748310886854
 21
331.280788025115
 31
0.0
  0
DIMENSION
  5
117
330
1F
100
AcDbEntity
  8
1
100
AcDbDimension
  2
*D2
 10
236.299397671323
 20
328.7707880253
 30
0.0
 11
232.549397671323
 21
315.471362631101
 31
0.0
 70
    32
  1
<>
 71
     5
 42
-1.0
 53
90.0
  3
ME10_DIM_10
100
AcDbAlignedDimension
 13
224.7078781618
 23
303.7707880253
 33
0.0
 14
224.7078781618
 24
328.7707880253
 34
0.0
 50
90.0
100
AcDbRotatedDimension
  0
DIMENSION
  5
122
330
1F
100
AcDbEntity
  8
1
100
AcDbDimension
  2
*D3
 10
244.846189534778
 20
348.7707880253
 30
0.0
 11
241.096189534778
 21
316.403739925296
 31
0.0
 70
    32
  1
<>
 71
     5
 42
-1.0
 53
90.0
  3
ME10_DIM_11
100
AcDbAlignedDimension
 13
214.2936645994
 23
283.7707880253
 33
0.0
 14
214.2936645994
 24
348.7707880253
 34
0.0
 50
90.0
100
AcDbRotatedDimension
  0
DIMENSION
  5
12D
330
1F
100
AcDbEntity
  8
1
100
AcDbDimension
  2
*D4
 10
224.7078781618
 20
373.123358655494
 30
0.0
 11
158.912082253135
 21
376.873358655494
 31
0.0
 70
    32
  1
<>
 71
     5
 42
-1.0
 53
0.00013888888889
  3
ME10_DIM_12
100
AcDbAlignedDimension
 13
93.7078781618
 23
366.2707511042
 33
0.0
 14
224.7078781618
 24
338.3565744629
 34
0.0
100
AcDbRotatedDimension
  0
DIMENSION
  5
138
330
1F
100
AcDbEntity
  8
1
100
AcDbDimension
  2
*D5
 10
224.7078781618
 20
380.582377009054
 30
0.0
 11
148.189743369892
 21
384.332377009054
 31
0.0
 70
    32
  1
<>
 71
     5
 42
-1.0
 53
0.00013888888889
  3
ME10_DIM_13
100
AcDbAlignedDimension
 13
64.7078781618
 23
366.2707880253
 33
0.0
 14
224.7078781618
 24
338.3565744629
 34
0.0
100
AcDbRotatedDimension
  0
DIMENSION
  5
143
330
1F
100
AcDbEntity
  8
1
100
AcDbDimension
  2
*D6
 10
224.7078781618
 20
387.264414284118
 30
0.0
 11
129.076008838894
 21
391.014414284118
 31
0.0
 70
    32
  1
<>
 71
     5
 42
-1.0
 53
0.00013888888889
  3
ME10_DIM_14
100
AcDbAlignedDimension
 13
14.7078781618
 23
349.8709795879
 33
0.0
 14
224.7078781618
 24
338.3565744629
 34
0.0
100
AcDbRotatedDimension
  0
INSERT
  5
14A
330
1F
100
AcDbEntity
  8
1
100
AcDbBlockReference
  2
*D7
 10
0.0
 20
0.0
 30
0.0
  0
ENDSEC
  0
SECTION
  2
OBJECTS
  0
DICTIONARY
  5
C
330
0
100
AcDbDictionary
281
     1
  3
ACAD_GROUP
350
D
  3
ACAD_LAYOUT
350
1A
  3
ACAD_MLEADERSTYLE
350
14D
  3
ACAD_MLINESTYLE
350
17
  3
ACAD_PLOTSETTINGS
350
19
  3
ACAD_PLOTSTYLENAME
350
E
  3
ACAD_SCALELIST
350
4B
  3
ACAD_VISUALSTYLE
350
2A
  3
AcDbVariableDictionary
350
14B
  0
DICTIONARY
  5
D
102
{ACAD_REACTORS
330
C
102
}
330
C
100
AcDbDictionary
281
     1
  0
DICTIONARY
  5
1A
102
{ACAD_REACTORS
330
C
102
}
330
C
100
AcDbDictionary
281
     1
  3
Layout1
350
1E
  3
Layout2
350
26
  3
Model
350
22
  0
DICTIONARY
  5
14D
102
{ACAD_REACTORS
330
C
102
}
330
C
100
AcDbDictionary
281
     1
  0
DICTIONARY
  5
17
102
{ACAD_REACTORS
330
C
102
}
330
C
100
AcDbDictionary
281
     1
  3
Standard
350
18
  0
DICTIONARY
  5
19
102
{ACAD_REACTORS
330
C
102
}
330
C
100
AcDbDictionary
281
     1
  0
ACDBDICTIONARYWDFLT
  5
E
102
{ACAD_REACTORS
330
C
102
}
330
C
100
AcDbDictionary
281
     1
  3
Normal
350
F
100
AcDbDictionaryWithDefault
340
F
  0
DICTIONARY
  5
4B
102
{ACAD_REACTORS
330
C
102
}
330
C
100
AcDbDictionary
281
     1
  3
A0
350
4C
  3
A1
350
4D
  3
A2
350
4E
  3
A3
350
4F
  3
A4
350
50
  3
A5
350
51
  3
A6
350
52
  3
A7
350
53
  3
A8
350
54
  3
A9
350
55
  3
B0
350
56
  3
B1
350
57
  3
B2
350
58
  3
B3
350
59
  3
B4
350
5A
  3
B5
350
5B
  3
B6
350
5C
  3
B7
350
5D
  3
B8
350
5E
  3
B9
350
5F
  3
C0
350
60
  3
C1
350
61
  3
C2
350
62
  3
C3
350
63
  3
C4
350
64
  3
C5
350
65
  3
C6
350
66
  3
C7
350
67
  3
C8
350
68
  3
C9
350
69
  3
D0
350
6A
  3
D1
350
6B
  3
D2
350
6C
  0
DICTIONARY
  5
2A
102
{ACAD_REACTORS
330
C
102
}
330
C
100
AcDbDictionary
281
     1
  3
2dWireframe
350
2F
  3
3D Hidden
350
31
  3
3dWireframe
350
30
  3
Basic
350
32
  3
Brighten
350
36
  3
ColorChange
350
3A
  3
Conceptual
350
34
  3
Dim
350
35
  3
Facepattern
350
39
  3
Flat
350
2B
  3
FlatWithEdges
350
2C
  3
Gouraud
350
2D
  3
GouraudWithEdges
350
2E
  3
Linepattern
350
38
  3
Realistic
350
33
  3
Thicken
350
37
  0
DICTIONARY
  5
14B
102
{ACAD_REACTORS
330
C
102
}
330
C
100
AcDbDictionary
281
     1
  3
CANNOSCALE
350
14E
  0
LAYOUT
  5
1E
102
{ACAD_REACTORS
330
1A
102
}
330
1A
100
AcDbPlotSettings
  1

  2
none_device
  4

  6

 40
0.0
 41
0.0
 42
0.0
 43
0.0
 44
0.0
 45
0.0
 46
0.0
 47
0.0
 48
0.0
 49
0.0
140
0.0
141
0.0
142
1.0
143
1.0
 70
   688
 72
     0
 73
     0
 74
     5
  7

 75
    16
147
1.0
148
0.0
149
0.0
100
AcDbLayout
  1
Layout1
 70
     1
 71
     1
 10
0.0
 20
0.0
 11
12.0
 21
9.0
 12
0.0
 22
0.0
 32
0.0
 14
1.00000000000000E+20
 24
1.00000000000000E+20
 34
1.00000000000000E+20
 15
-1.00000000000000E+20
 25
-1.00000000000000E+20
 35
-1.00000000000000E+20
146
0.0
 13
0.0
 23
0.0
 33
0.0
 16
1.0
 26
0.0
 36
0.0
 17
0.0
 27
1.0
 37
0.0
 76
     0
330
1B
  0
LAYOUT
  5
26
102
{ACAD_REACTORS
330
1A
102
}
330
1A
100
AcDbPlotSettings
  1

  2
none_device
  4

  6

 40
0.0
 41
0.0
 42
0.0
 43
0.0
 44
0.0
 45
0.0
 46
0.0
 47
0.0
 48
0.0
 49
0.0
140
0.0
141
0.0
142
1.0
143
1.0
 70
   688
 72
     0
 73
     0
 74
     5
  7

 75
    16
147
1.0
148
0.0
149
0.0
100
AcDbLayout
  1
Layout2
 70
     1
 71
     2
 10
0.0
 20
0.0
 11
0.0
 21
0.0
 12
0.0
 22
0.0
 32
0.0
 14
0.0
 24
0.0
 34
0.0
 15
0.0
 25
0.0
 35
0.0
146
0.0
 13
0.0
 23
0.0
 33
0.0
 16
1.0
 26
0.0
 36
0.0
 17
0.0
 27
1.0
 37
0.0
 76
     0
330
23
  0
LAYOUT
  5
22
102
{ACAD_REACTORS
330
1A
102
}
330
1A
100
AcDbPlotSettings
  1

  2
none_device
  4

  6

 40
0.0
 41
0.0
 42
0.0
 43
0.0
 44
0.0
 45
0.0
 46
0.0
 47
0.0
 48
0.0
 49
0.0
140
0.0
141
0.0
142
1.0
143
1.0
 70
  1712
 72
     0
 73
     0
 74
     0
  7

 75
     0
147
1.0
148
0.0
149
0.0
100
AcDbLayout
  1
Model
 70
     1
 71
     0
 10
0.0
 20
0.0
 11
12.0
 21
9.0
 12
0.0
 22
0.0
 32
0.0
 14
-5.82224697506201
 24
266.2707880253
 34
0.0
 15
246.846189534778
 25
392.764414284118
 35
0.0
146
0.0
 13
0.0
 23
0.0
 33
0.0
 16
1.0
 26
0.0
 36
0.0
 17
0.0
 27
1.0
 37
0.0
 76
     0
330
1F
331
29
  0
MLINESTYLE
  5
18
102
{ACAD_REACTORS
330
17
102
}
330
17
100
AcDbMlineStyle
  2
Standard
 70
     0
  3

 62
   256
 51
90.0
 52
90.0
 71
     2
 49
0.5
 62
   256
  6
BYLAYER
 49
-0.5
 62
   256
  6
BYLAYER
  0
ACDBPLACEHOLDER
  5
F
102
{ACAD_REACTORS
330
E
102
}
330
E
  0
SCALE
  5
4C
102
{ACAD_REACTORS
330
4B
102
}
330
4B
100
AcDbScale
 70
     0
300
1:1
140
1.0
141
1.0
290
     1
  0
SCALE
  5
4D
102
{ACAD_REACTORS
330
4B
102
}
330
4B
100
AcDbScale
 70
     0
300
1:2
140
1.0
141
2.0
290
     0
  0
SCALE
  5
4E
102
{ACAD_REACTORS
330
4B
102
}
330
4B
100
AcDbScale
 70
     0
300
1:4
140
1.0
141
4.0
290
     0
  0
SCALE
  5
4F
102
{ACAD_REACTORS
330
4B
102
}
330
4B
100
AcDbScale
 70
     0
300
1:5
140
1.0
141
5.0
290
     0
  0
SCALE
  5
50
102
{ACAD_REACTORS
330
4B
102
}
330
4B
100
AcDbScale
 70
     0
300
1:8
140
1.0
141
8.0
290
     0
  0
SCALE
  5
51
102
{ACAD_REACTORS
330
4B
102
}
330
4B
100
AcDbScale
 70
     0
300
1:10
140
1.0
141
10.0
290
     0
  0
SCALE
  5
52
102
{ACAD_REACTORS
330
4B
102
}
330
4B
100
AcDbScale
 70
     0
300
1:16
140
1.0
141
16.0
290
     0
  0
SCALE
  5
53
102
{ACAD_REACTORS
330
4B
102
}
330
4B
100
AcDbScale
 70
     0
300
1:20
140
1.0
141
20.0
290
     0
  0
SCALE
  5
54
102
{ACAD_REACTORS
330
4B
102
}
330
4B
100
AcDbScale
 70
     0
300
1:30
140
1.0
141
30.0
290
     0
  0
SCALE
  5
55
102
{ACAD_REACTORS
330
4B
102
}
330
4B
100
AcDbScale
 70
     0
300
1:40
140
1.0
141
40.0
290
     0
  0
SCALE
  5
56
102
{ACAD_REACTORS
330
4B
102
}
330
4B
100
AcDbScale
 70
     0
300
1:50
140
1.0
141
50.0
290
     0
  0
SCALE
  5
57
102
{ACAD_REACTORS
330
4B
102
}
330
4B
100
AcDbScale
 70
     0
300
1:100
140
1.0
141
100.0
290
     0
  0
SCALE
  5
58
102
{ACAD_REACTORS
330
4B
102
}
330
4B
100
AcDbScale
 70
     0
300
2:1
140
2.0
141
1.0
290
     0
  0
SCALE
  5
59
102
{ACAD_REACTORS
330
4B
102
}
330
4B
100
AcDbScale
 70
     0
300
4:1
140
4.0
141
1.0
290
     0
  0
SCALE
  5
5A
102
{ACAD_REACTORS
330
4B
102
}
330
4B
100
AcDbScale
 70
     0
300
8:1
140
8.0
141
1.0
290
     0
  0
SCALE
  5
5B
102
{ACAD_REACTORS
330
4B
102
}
330
4B
100
AcDbScale
 70
     0
300
10:1
140
10.0
141
1.0
290
     0
  0
SCALE
  5
5C
102
{ACAD_REACTORS
330
4B
102
}
330
4B
100
AcDbScale
 70
     0
300
100:1
140
100.0
141
1.0
290
     0
  0
SCALE
  5
5D
102
{ACAD_REACTORS
330
4B
102
}
330
4B
100
AcDbScale
 70
     0
300
1/128" = 1'-0"
140
0.0078125
141
12.0
290
     0
  0
SCALE
  5
5E
102
{ACAD_REACTORS
330
4B
102
}
330
4B
100
AcDbScale
 70
     0
300
1/64" = 1'-0"
140
0.015625
141
12.0
290
     0
  0
SCALE
  5
5F
102
{ACAD_REACTORS
330
4B
102
}
330
4B
100
AcDbScale
 70
     0
300
1/32" = 1'-0"
140
0.03125
141
12.0
290
     0
  0
SCALE
  5
60
102
{ACAD_REACTORS
330
4B
102
}
330
4B
100
AcDbScale
 70
     0
300
1/16" = 1'-0"
140
0.0625
141
12.0
290
     0
  0
SCALE
  5
61
102
{ACAD_REACTORS
330
4B
102
}
330
4B
100
AcDbScale
 70
     0
300
3/32" = 1'-0"
140
0.09375
141
12.0
290
     0
  0
SCALE
  5
62
102
{ACAD_REACTORS
330
4B
102
}
330
4B
100
AcDbScale
 70
     0
300
1/8" = 1'-0"
140
0.125
141
12.0
290
     0
  0
SCALE
  5
63
102
{ACAD_REACTORS
330
4B
102
}
330
4B
100
AcDbScale
 70
     0
300
3/16" = 1'-0"
140
0.1875
141
12.0
290
     0
  0
SCALE
  5
64
102
{ACAD_REACTORS
330
4B
102
}
330
4B
100
AcDbScale
 70
     0
300
1/4" = 1'-0"
140
0.25
141
12.0
290
     0
  0
SCALE
  5
65
102
{ACAD_REACTORS
330
4B
102
}
330
4B
100
AcDbScale
 70
     0
300
3/8" = 1'-0"
140
0.375
141
12.0
290
     0
  0
SCALE
  5
66
102
{ACAD_REACTORS
330
4B
102
}
330
4B
100
AcDbScale
 70
     0
300
1/2" = 1'-0"
140
0.5
141
12.0
290
     0
  0
SCALE
  5
67
102
{ACAD_REACTORS
330
4B
102
}
330
4B
100
AcDbScale
 70
     0
300
3/4" = 1'-0"
140
0.75
141
12.0
290
     0
  0
SCALE
  5
68
102
{ACAD_REACTORS
330
4B
102
}
330
4B
100
AcDbScale
 70
     0
300
1" = 1'-0"
140
1.0
141
12.0
290
     0
  0
SCALE
  5
69
102
{ACAD_REACTORS
330
4B
102
}
330
4B
100
AcDbScale
 70
     0
300
1-1/2" = 1'-0"
140
1.5
141
12.0
290
     0
  0
SCALE
  5
6A
102
{ACAD_REACTORS
330
4B
102
}
330
4B
100
AcDbScale
 70
     0
300
3" = 1'-0"
140
3.0
141
12.0
290
     0
  0
SCALE
  5
6B
102
{ACAD_REACTORS
330
4B
102
}
330
4B
100
AcDbScale
 70
     0
300
6" = 1'-0"
140
6.0
141
12.0
290
     0
  0
SCALE
  5
6C
102
{ACAD_REACTORS
330
4B
102
}
330
4B
100
AcDbScale
 70
     0
300
1'-0" = 1'-0"
140
12.0
141
12.0
290
     0
  0
VISUALSTYLE
  5
2F
102
{ACAD_REACTORS
330
2A
102
}
330
2A
100
AcDbVisualStyle
  2
2dWireframe
 70
     4
 71
     0
 72
     2
 73
     0
 90
        0
 40
-0.6
 41
-30.0
 62
     5
 63
     7
 74
     1
 91
        4
 64
     7
 65
   257
 75
     1
175
     1
 42
1.0
 92
        0
 66
   257
 43
1.0
 76
     1
 77
     6
 78
     2
 67
     7
 79
     5
170
     0
171
     0
290
     0
174
     0
 93
        1
 44
0.0
173
     0
291
     0
 45
0.0
1001
ACAD
1000
AcDbSavedByObjectVersion
1070
     0
  0
VISUALSTYLE
  5
31
102
{ACAD_REACTORS
330
2A
102
}
330
2A
100
AcDbVisualStyle
  2
3D Hidden
 70
     6
 71
     1
 72
     2
 73
     2
 90
        0
 40
-0.6
 41
-30.0
 62
     5
 63
     7
 74
     2
 91
        2
 64
     7
 65
   257
 75
     2
175
     1
 42
40.0
 92
        0
 66
   257
 43
1.0
 76
     1
 77
     6
 78
     2
 67
     7
 79
     3
170
     0
171
     0
290
     0
174
     0
 93
        1
 44
0.0
173
     0
291
     0
 45
0.0
1001
ACAD
1000
AcDbSavedByObjectVersion
1070
     0
  0
VISUALSTYLE
  5
30
102
{ACAD_REACTORS
330
2A
102
}
330
2A
100
AcDbVisualStyle
  2
3dWireframe
 70
     5
 71
     0
 72
     2
 73
     0
 90
        0
 40
-0.6
 41
-30.0
 62
     5
 63
     7
 74
     1
 91
        4
 64
     7
 65
   257
 75
     1
175
     1
 42
1.0
 92
        0
 66
   257
 43
1.0
 76
     1
 77
     6
 78
     2
 67
     7
 79
     5
170
     0
171
     0
290
     0
174
     0
 93
        1
 44
0.0
173
     0
291
     0
 45
0.0
1001
ACAD
1000
AcDbSavedByObjectVersion
1070
     0
  0
VISUALSTYLE
  5
32
102
{ACAD_REACTORS
330
2A
102
}
330
2A
100
AcDbVisualStyle
  2
Basic
 70
     7
 71
     1
 72
     0
 73
     1
 90
        0
 40
-0.6
 41
-30.0
 62
     5
 63
     7
 74
     0
 91
        4
 64
     7
 65
   257
 75
     1
175
     1
 42
1.0
 92
        8
 66
     7
 43
1.0
 76
     1
 77
     6
 78
     2
 67
     7
 79
     5
170
     0
171
     0
290
     0
174
     0
 93
        1
 44
0.0
173
     0
291
     1
 45
0.0
1001
ACAD
1000
AcDbSavedByObjectVersion
1070
     0
  0
VISUALSTYLE
  5
36
102
{ACAD_REACTORS
330
2A
102
}
330
2A
100
AcDbVisualStyle
  2
Brighten
 70
    12
 71
     2
 72
     2
 73
     0
 90
        0
 40
-0.6
 41
-30.0
 62
     5
 63
     7
 74
     1
 91
        4
 64
     7
 65
   257
 75
     1
175
     1
 42
1.0
 92
        8
 66
     7
 43
1.0
 76
     1
 77
     6
 78
     2
 67
     7
 79
     5
170
     0
171
     0
290
     0
174
     0
 93
        1
 44
50.0
173
     0
291
     1
 45
0.0
1001
ACAD
1000
AcDbSavedByObjectVersion
1070
     0
  0
VISUALSTYLE
  5
3A
102
{ACAD_REACTORS
330
2A
102
}
330
2A
100
AcDbVisualStyle
  2
ColorChange
 70
    16
 71
     2
 72
     2
 73
     3
 90
        0
 40
-0.6
 41
-30.0
 62
     5
 63
     8
 74
     1
 91
        4
 64
     7
 65
   257
 75
     1
175
     1
 42
1.0
 92
        8
 66
     8
 43
1.0
 76
     1
 77
     6
 78
     2
 67
     7
 79
     5
170
     0
171
     0
290
     0
174
     0
 93
        1
 44
0.0
173
     0
291
     1
 45
0.0
1001
ACAD
1000
AcDbSavedByObjectVersion
1070
     0
  0
VISUALSTYLE
  5
34
102
{ACAD_REACTORS
330
2A
102
}
330
2A
100
AcDbVisualStyle
  2
Conceptual
 70
     9
 71
     3
 72
     2
 73
     0
 90
        0
 40
-0.6
 41
-30.0
 62
     5
 63
     7
 74
     2
 91
        2
 64
     7
 65
   257
 75
     1
175
     1
 42
40.0
 92
        8
 66
     7
 43
1.0
 76
     1
 77
     6
 78
     2
 67
     7
 79
     3
170
     0
171
     0
290
     0
174
     0
 93
        1
 44
0.0
173
     0
291
     0
 45
0.0
1001
ACAD
1000
AcDbSavedByObjectVersion
1070
     0
  0
VISUALSTYLE
  5
35
102
{ACAD_REACTORS
330
2A
102
}
330
2A
100
AcDbVisualStyle
  2
Dim
 70
    11
 71
     2
 72
     2
 73
     0
 90
        0
 40
-0.6
 41
-30.0
 62
     5
 63
     7
 74
     1
 91
        4
 64
     7
 65
   257
 75
     1
175
     1
 42
1.0
 92
        8
 66
     7
 43
1.0
 76
     1
 77
     6
 78
     2
 67
     7
 79
     5
170
     0
171
     0
290
     0
174
     0
 93
        1
 44
-50.0
173
     0
291
     1
 45
0.0
1001
ACAD
1000
AcDbSavedByObjectVersion
1070
     0
  0
VISUALSTYLE
  5
39
102
{ACAD_REACTORS
330
2A
102
}
330
2A
100
AcDbVisualStyle
  2
Facepattern
 70
    15
 71
     2
 72
     2
 73
     0
 90
        0
 40
-0.6
 41
-30.0
 62
     5
 63
     7
 74
     1
 91
        4
 64
     7
 65
   257
 75
     1
175
     1
 42
1.0
 92
        8
 66
     7
 43
1.0
 76
     1
 77
     6
 78
     2
 67
     7
 79
     5
170
     0
171
     0
290
     0
174
     0
 93
        1
 44
0.0
173
     0
291
     1
 45
0.0
1001
ACAD
1000
AcDbSavedByObjectVersion
1070
     0
  0
VISUALSTYLE
  5
2B
102
{ACAD_REACTORS
330
2A
102
}
330
2A
100
AcDbVisualStyle
  2
Flat
 70
     0
 71
     2
 72
     1
 73
     1
 90
        2
 40
-0.6
 41
30.0
 62
     5
 63
     7
 74
     0
 91
        4
 64
     7
 65
   257
 75
     1
175
     1
 42
1.0
 92
        8
 66
     7
 43
1.0
 76
     1
 77
     6
 78
     2
 67
     7
 79
     5
170
     0
171
     0
290
     0
174
     0
 93
       13
 44
0.0
173
     0
291
     1
 45
0.0
1001
ACAD
1000
AcDbSavedByObjectVersion
1070
     0
  0
VISUALSTYLE
  5
2C
102
{ACAD_REACTORS
330
2A
102
}
330
2A
100
AcDbVisualStyle
  2
FlatWithEdges
 70
     1
 71
     2
 72
     1
 73
     1
 90
        2
 40
-0.6
 41
30.0
 62
     5
 63
     7
 74
     1
 91
        4
 64
     7
 65
   257
 75
     1
175
     1
 42
1.0
 92
        0
 66
   257
 43
1.0
 76
     1
 77
     6
 78
     2
 67
     7
 79
     5
170
     0
171
     0
290
     0
174
     0
 93
       13
 44
0.0
173
     0
291
     1
 45
0.0
1001
ACAD
1000
AcDbSavedByObjectVersion
1070
     0
  0
VISUALSTYLE
  5
2D
102
{ACAD_REACTORS
330
2A
102
}
330
2A
100
AcDbVisualStyle
  2
Gouraud
 70
     2
 71
     2
 72
     2
 73
     1
 90
        2
 40
-0.6
 41
30.0
 62
     5
 63
     7
 74
     0
 91
        4
 64
     7
 65
   257
 75
     1
175
     1
 42
1.0
 92
        0
 66
     7
 43
1.0
 76
     1
 77
     6
 78
     2
 67
     7
 79
     5
170
     0
171
     0
290
     0
174
     0
 93
       13
 44
0.0
173
     0
291
     1
 45
0.0
1001
ACAD
1000
AcDbSavedByObjectVersion
1070
     0
  0
VISUALSTYLE
  5
2E
102
{ACAD_REACTORS
330
2A
102
}
330
2A
100
AcDbVisualStyle
  2
GouraudWithEdges
 70
     3
 71
     2
 72
     2
 73
     1
 90
        2
 40
-0.6
 41
30.0
 62
     5
 63
     7
 74
     1
 91
        4
 64
     7
 65
   257
 75
     1
175
     1
 42
1.0
 92
        0
 66
   257
 43
1.0
 76
     1
 77
     6
 78
     2
 67
     7
 79
     5
170
     0
171
     0
290
     0
174
     0
 93
       13
 44
0.0
173
     0
291
     1
 45
0.0
1001
ACAD
1000
AcDbSavedByObjectVersion
1070
     0
  0
VISUALSTYLE
  5
38
102
{ACAD_REACTORS
330
2A
102
}
330
2A
100
AcDbVisualStyle
  2
Linepattern
 70
    14
 71
     2
 72
     2
 73
     0
 90
        0
 40
-0.6
 41
-30.0
 62
     5
 63
     7
 74
     1
 91
        4
 64
     7
 65
   257
 75
     7
175
     7
 42
1.0
 92
        8
 66
     7
 43
1.0
 76
     1
 77
     6
 78
     2
 67
     7
 79
     5
170
     0
171
     0
290
     0
174
     0
 93
        1
 44
0.0
173
     0
291
     1
 45
0.0
1001
ACAD
1000
AcDbSavedByObjectVersion
1070
     0
  0
VISUALSTYLE
  5
33
102
{ACAD_REACTORS
330
2A
102
}
330
2A
100
AcDbVisualStyle
  2
Realistic
 70
     8
 71
     2
 72
     2
 73
     0
 90
        0
 40
-0.6
 41
-30.0
 62
     5
 63
     7
 74
     1
 91
        0
 64
     7
 65
   257
 75
     1
175
     1
 42
1.0
 92
        8
 66
     8
 43
1.0
 76
     1
 77
     6
 78
     2
 67
     7
 79
     5
170
     0
171
     0
290
     0
174
     0
 93
       13
 44
0.0
173
     0
291
     0
 45
0.0
1001
ACAD
1000
AcDbSavedByObjectVersion
1070
     0
  0
VISUALSTYLE
  5
37
102
{ACAD_REACTORS
330
2A
102
}
330
2A
100
AcDbVisualStyle
  2
Thicken
 70
    13
 71
     2
 72
     2
 73
     0
 90
        0
 40
-0.6
 41
-30.0
 62
     5
 63
     7
 74
     1
 91
        4
 64
     7
 65
   257
 75
     1
175
     1
 42
1.0
 92
       12
 66
     7
 43
1.0
 76
     1
 77
     6
 78
     2
 67
     7
 79
     5
170
     0
171
     0
290
     0
174
     0
 93
        1
 44
0.0
173
     0
291
     1
 45
0.0
1001
ACAD
1000
AcDbSavedByObjectVersion
1070
     0
  0
DICTIONARYVAR
  5
14E
102
{ACAD_REACTORS
330
14B
102
}
330
14B
100
DictionaryVariables
280
     0
  1
1:1
  0
ENDSEC
  0
EOF
