  0
SECTION
  2
HEADER
  9
$ACADVER
  1
AC1015
  9
$ACADMAINTVER
 70
     6
  9
$DWGCODEPAGE
  3
ANSI_1252
  9
$INSBASE
 10
0.0
 20
0.0
 30
0.0
  9
$EXTMIN
 10
-4.22476242602013
 20
245.225876606
 30
0.0
  9
$EXTMAX
 10
249.453883599346
 20
372.480848084278
 30
0.0
  9
$LIMMIN
 10
0.0
 20
0.0
  9
$LIMMAX
 10
12.0
 20
9.0
  9
$ORTHOMODE
 70
     0
  9
$REGENMODE
 70
     1
  9
$FILLMODE
 70
     1
  9
$QTEXTMODE
 70
     0
  9
$MIRRTEXT
 70
     1
  9
$LTSCALE
 40
1.0
  9
$ATTMODE
 70
     1
  9
$TEXTSIZE
 40
0.2
  9
$TRACEWID
 40
0.05
  9
$TEXTSTYLE
  7
Standard
  9
$CLAYER
  8
0
  9
$CELTYPE
  6
ByLayer
  9
$CECOLOR
 62
   256
  9
$CELTSCALE
 40
1.0
  9
$DISPSILH
 70
     0
  9
$DIMSCALE
 40
1.0
  9
$DIMASZ
 40
0.18
  9
$DIMEXO
 40
0.0625
  9
$DIMDLI
 40
0.38
  9
$DIMRND
 40
0.0
  9
$DIMDLE
 40
0.0
  9
$DIMEXE
 40
0.18
  9
$DIMTP
 40
0.0
  9
$DIMTM
 40
0.0
  9
$DIMTXT
 40
0.18
  9
$DIMCEN
 40
0.09
  9
$DIMTSZ
 40
0.0
  9
$DIMTOL
 70
     0
  9
$DIMLIM
 70
     0
  9
$DIMTIH
 70
     1
  9
$DIMTOH
 70
     1
  9
$DIMSE1
 70
     0
  9
$DIMSE2
 70
     0
  9
$DIMTAD
 70
     0
  9
$DIMZIN
 70
     0
  9
$DIMBLK
  1

  9
$DIMASO
 70
     1
  9
$DIMSHO
 70
     1
  9
$DIMPOST
  1

  9
$DIMAPOST
  1

  9
$DIMALT
 70
     0
  9
$DIMALTD
 70
     2
  9
$DIMALTF
 40
25.4
  9
$DIMLFAC
 40
1.0
  9
$DIMTOFL
 70
     0
  9
$DIMTVP
 40
0.0
  9
$DIMTIX
 70
     0
  9
$DIMSOXD
 70
     0
  9
$DIMSAH
 70
     0
  9
$DIMBLK1
  1

  9
$DIMBLK2
  1

  9
$DIMSTYLE
  2
Standard
  9
$DIMCLRD
 70
     0
  9
$DIMCLRE
 70
     0
  9
$DIMCLRT
 70
     0
  9
$DIMTFAC
 40
1.0
  9
$DIMGAP
 40
0.09
  9
$DIMJUST
 70
     0
  9
$DIMSD1
 70
     0
  9
$DIMSD2
 70
     0
  9
$DIMTOLJ
 70
     1
  9
$DIMTZIN
 70
     0
  9
$DIMALTZ
 70
     0
  9
$DIMALTTZ
 70
     0
  9
$DIMUPT
 70
     0
  9
$DIMDEC
 70
     4
  9
$DIMTDEC
 70
     4
  9
$DIMALTU
 70
     2
  9
$DIMALTTD
 70
     2
  9
$DIMTXSTY
  7
Standard
  9
$DIMAUNIT
 70
     0
  9
$DIMADEC
 70
     0
  9
$DIMALTRND
 40
0.0
  9
$DIMAZIN
 70
     0
  9
$DIMDSEP
 70
    46
  9
$DIMATFIT
 70
     3
  9
$DIMFRAC
 70
     0
  9
$DIMLDRBLK
  1

  9
$DIMLUNIT
 70
     2
  9
$DIMLWD
 70
    -2
  9
$DIMLWE
 70
    -2
  9
$DIMTMOVE
 70
     0
  9
$LUNITS
 70
     2
  9
$LUPREC
 70
     4
  9
$SKETCHINC
 40
0.1
  9
$FILLETRAD
 40
0.5
  9
$AUNITS
 70
     0
  9
$AUPREC
 70
     0
  9
$MENU
  1
.
  9
$ELEVATION
 40
0.0
  9
$PELEVATION
 40
0.0
  9
$THICKNESS
 40
0.0
  9
$LIMCHECK
 70
     0
  9
$CHAMFERA
 40
0.5
  9
$CHAMFERB
 40
0.5
  9
$CHAMFERC
 40
1.0
  9
$CHAMFERD
 40
0.0
  9
$SKPOLY
 70
     0
  9
$TDCREATE
 40
2456748.734197164
  9
$TDUCREATE
 40
2456748.650863831
  9
$TDUPDATE
 40
2456748.734197176
  9
$TDUUPDATE
 40
2456748.650863843
  9
$TDINDWG
 40
0.0000000116
  9
$TDUSRTIMER
 40
0.0000000116
  9
$USRTIMER
 70
     1
  9
$ANGBASE
 50
0.0
  9
$ANGDIR
 70
     0
  9
$PDMODE
 70
     0
  9
$PDSIZE
 40
0.0
  9
$PLINEWID
 40
0.0
  9
$SPLFRAME
 70
     0
  9
$SPLINETYPE
 70
     6
  9
$SPLINESEGS
 70
     8
  9
$HANDSEED
  5
14A
  9
$SURFTAB1
 70
     6
  9
$SURFTAB2
 70
     6
  9
$SURFTYPE
 70
     6
  9
$SURFU
 70
     6
  9
$SURFV
 70
     6
  9
$UCSBASE
  2

  9
$UCSNAME
  2

  9
$UCSORG
 10
0.0
 20
0.0
 30
0.0
  9
$UCSXDIR
 10
1.0
 20
0.0
 30
0.0
  9
$UCSYDIR
 10
0.0
 20
1.0
 30
0.0
  9
$UCSORTHOREF
  2

  9
$UCSORTHOVIEW
 70
     0
  9
$UCSORGTOP
 10
0.0
 20
0.0
 30
0.0
  9
$UCSORGBOTTOM
 10
0.0
 20
0.0
 30
0.0
  9
$UCSORGLEFT
 10
0.0
 20
0.0
 30
0.0
  9
$UCSORGRIGHT
 10
0.0
 20
0.0
 30
0.0
  9
$UCSORGFRONT
 10
0.0
 20
0.0
 30
0.0
  9
$UCSORGBACK
 10
0.0
 20
0.0
 30
0.0
  9
$PUCSBASE
  2

  9
$PUCSNAME
  2

  9
$PUCSORG
 10
0.0
 20
0.0
 30
0.0
  9
$PUCSXDIR
 10
1.0
 20
0.0
 30
0.0
  9
$PUCSYDIR
 10
0.0
 20
1.0
 30
0.0
  9
$PUCSORTHOREF
  2

  9
$PUCSORTHOVIEW
 70
     0
  9
$PUCSORGTOP
 10
0.0
 20
0.0
 30
0.0
  9
$PUCSORGBOTTOM
 10
0.0
 20
0.0
 30
0.0
  9
$PUCSORGLEFT
 10
0.0
 20
0.0
 30
0.0
  9
$PUCSORGRIGHT
 10
0.0
 20
0.0
 30
0.0
  9
$PUCSORGFRONT
 10
0.0
 20
0.0
 30
0.0
  9
$PUCSORGBACK
 10
0.0
 20
0.0
 30
0.0
  9
$USERI1
 70
     0
  9
$USERI2
 70
     0
  9
$USERI3
 70
     0
  9
$USERI4
 70
     0
  9
$USERI5
 70
     0
  9
$USERR1
 40
16.5
  9
$USERR2
 40
0.0
  9
$USERR3
 40
0.0
  9
$USERR4
 40
0.0
  9
$USERR5
 40
0.0
  9
$WORLDVIEW
 70
     1
  9
$SHADEDGE
 70
     3
  9
$SHADEDIF
 70
    70
  9
$TILEMODE
 70
     1
  9
$MAXACTVP
 70
    64
  9
$PINSBASE
 10
0.0
 20
0.0
 30
0.0
  9
$PLIMCHECK
 70
     0
  9
$PEXTMIN
 10
1.00000000000000E+20
 20
1.00000000000000E+20
 30
1.00000000000000E+20
  9
$PEXTMAX
 10
-1.00000000000000E+20
 20
-1.00000000000000E+20
 30
-1.00000000000000E+20
  9
$PLIMMIN
 10
0.0
 20
0.0
  9
$PLIMMAX
 10
12.0
 20
9.0
  9
$UNITMODE
 70
     0
  9
$VISRETAIN
 70
     1
  9
$PLINEGEN
 70
     0
  9
$PSLTSCALE
 70
     1
  9
$TREEDEPTH
 70
  3020
  9
$CMLSTYLE
  2
Standard
  9
$CMLJUST
 70
     0
  9
$CMLSCALE
 40
1.0
  9
$PROXYGRAPHICS
 70
     1
  9
$MEASUREMENT
 70
     1
  9
$CELWEIGHT
370
    -1
  9
$ENDCAPS
280
     0
  9
$JOINSTYLE
280
     0
  9
$LWDISPLAY
290
     0
  9
$INSUNITS
 70
     1
  9
$HYPERLINKBASE
  1

  9
$STYLESHEET
  1

  9
$XEDIT
290
     1
  9
$CEPSNTYPE
380
     0
  9
$PSTYLEMODE
290
     1
  9
$FINGERPRINTGUID
  2
{AB3269F1-41B0-4243-9065-E729161F1221}
  9
$VERSIONGUID
  2
{FAEB1C32-E019-11D5-929B-00C0DF256EC4}
  9
$EXTNAMES
290
     1
  9
$PSVPSCALE
 40
0.0
  9
$OLESTARTUP
290
     0
  0
ENDSEC
  0
SECTION
  2
CLASSES
  0
CLASS
  1
ACDBDICTIONARYWDFLT
  2
AcDbDictionaryWithDefault
  3
ObjectDBX Classes
 90
        0
280
     0
281
     0
  0
CLASS
  1
VISUALSTYLE
  2
AcDbVisualStyle
  3
ObjectDBX Classes
 90
     4095
280
     0
281
     0
  0
CLASS
  1
SCALE
  2
AcDbScale
  3
ObjectDBX Classes
 90
     1153
280
     0
281
     0
  0
CLASS
  1

  2
exOdDbPolyline
  3

 90
        0
280
     0
281
     1
  0
CLASS
  1

  2
exOdDbCircle
  3

 90
        0
280
     0
281
     1
  0
CLASS
  1

  2
exOdDbSpline
  3

 90
        0
280
     0
281
     1
  0
CLASS
  1
DICTIONARYVAR
  2
AcDbDictionaryVar
  3
ObjectDBX Classes
 90
        0
280
     0
281
     0
  0
CLASS
  1
ACDBPLACEHOLDER
  2
AcDbPlaceHolder
  3
ObjectDBX Classes
 90
        0
280
     0
281
     0
  0
CLASS
  1
LAYOUT
  2
AcDbLayout
  3
ObjectDBX Classes
 90
        0
280
     0
281
     0
  0
ENDSEC
  0
SECTION
  2
TABLES
  0
TABLE
  2
VPORT
  5
8
330
0
100
AcDbSymbolTable
 70
     1
  0
VPORT
  5
29
330
8
100
AcDbSymbolTableRecord
100
AcDbViewportTableRecord
  2
*Active
 70
     0
 10
0.0
 20
0.0
 11
1.0
 21
1.0
 12
122.6145605866629
 22
308.853362345139
 13
0.0
 23
0.0
 14
0.5
 24
0.5
 15
0.5
 25
0.5
 16
0.0
 26
0.0
 36
1.0
 17
0.0
 27
0.0
 37
0.0
 40
174.1125860185243
 41
1.60267857142857
 42
50.0
 43
0.0
 44
0.0
 50
0.0
 51
0.0
 71
     0
 72
   100
 73
     1
 74
     3
 75
     0
 76
     0
 77
     0
 78
     0
281
     0
 65
     1
110
0.0
120
0.0
130
0.0
111
1.0
121
0.0
131
0.0
112
0.0
122
1.0
132
0.0
 79
     0
146
0.0
  0
ENDTAB
  0
TABLE
  2
LTYPE
  5
5
330
0
100
AcDbSymbolTable
 70
     8
  0
LTYPE
  5
14
330
5
100
AcDbSymbolTableRecord
100
AcDbLinetypeTableRecord
  2
ByBlock
 70
     0
  3

 72
    65
 73
     0
 40
0.0
  0
LTYPE
  5
15
330
5
100
AcDbSymbolTableRecord
100
AcDbLinetypeTableRecord
  2
ByLayer
 70
     0
  3

 72
    65
 73
     0
 40
0.0
  0
LTYPE
  5
16
330
5
100
AcDbSymbolTableRecord
100
AcDbLinetypeTableRecord
  2
Continuous
 70
     0
  3
Solid line
 72
    65
 73
     0
 40
0.0
  0
LTYPE
  5
3B
330
5
100
AcDbSymbolTableRecord
100
AcDbLinetypeTableRecord
  2
DASHED
 70
     0
  3
Dashed
 72
    65
 73
     2
 40
15.0
 49
7.0
 74
     0
 49
-8.0
 74
     0
  0
LTYPE
  5
3C
330
5
100
AcDbSymbolTableRecord
100
AcDbLinetypeTableRecord
  2
DOTTED
 70
     0
  3
Dotted
 72
    65
 73
     2
 40
1.0
 49
0.0
 74
     0
 49
-1.0
 74
     0
  0
LTYPE
  5
3D
330
5
100
AcDbSymbolTableRecord
100
AcDbLinetypeTableRecord
  2
DOT_CENTER
 70
     0
  3
Dot_Center
 72
    65
 73
     4
 40
14.0
 49
12.0
 74
     0
 49
-1.0
 74
     0
 49
0.0
 74
     0
 49
-1.0
 74
     0
  0
LTYPE
  5
3E
330
5
100
AcDbSymbolTableRecord
100
AcDbLinetypeTableRecord
  2
LONG_DASHED
 70
     0
  3
Long_Dashed
 72
    65
 73
     2
 40
15.0
 49
10.0
 74
     0
 49
-5.0
 74
     0
  0
LTYPE
  5
3F
330
5
100
AcDbSymbolTableRecord
100
AcDbLinetypeTableRecord
  2
DASH_CENTER
 70
     0
  3
Dash_Center
 72
    65
 73
     4
 40
14.0
 49
11.0
 74
     0
 49
-1.0
 74
     0
 49
1.0
 74
     0
 49
-1.0
 74
     0
  0
LTYPE
  5
40
330
5
100
AcDbSymbolTableRecord
100
AcDbLinetypeTableRecord
  2
PHANTOM
 70
     0
  3
Phantom
 72
    65
 73
     6
 40
13.0
 49
10.0
 74
     0
 49
-1.0
 74
     0
 49
0.0
 74
     0
 49
-1.0
 74
     0
 49
0.0
 74
     0
 49
-1.0
 74
     0
  0
LTYPE
  5
41
330
5
100
AcDbSymbolTableRecord
100
AcDbLinetypeTableRecord
  2
CENTER_DASH_DASH
 70
     0
  3
Center_Dash_Dash
 72
    65
 73
     6
 40
14.0
 49
9.0
 74
     0
 49
-1.0
 74
     0
 49
1.0
 74
     0
 49
-1.0
 74
     0
 49
1.0
 74
     0
 49
-1.0
 74
     0
  0
ENDTAB
  0
TABLE
  2
LAYER
  5
2
330
0
100
AcDbSymbolTable
 70
     7
  0
LAYER
  5
10
330
2
100
AcDbSymbolTableRecord
100
AcDbLayerTableRecord
  2
0
 70
     0
 62
     7
  6
Continuous
370
    -3
390
F
  0
LAYER
  5
42
330
2
100
AcDbSymbolTableRecord
100
AcDbLayerTableRecord
  2
1
 70
     0
 62
     7
  6
Continuous
370
    -3
390
F
  0
LAYER
  5
43
330
2
100
AcDbSymbolTableRecord
100
AcDbLayerTableRecord
  2
BEZUGSACHSEN
 70
     0
 62
     7
  6
Continuous
370
    -3
390
F
  0
LAYER
  5
44
330
2
100
AcDbSymbolTableRecord
100
AcDbLayerTableRecord
  2
DEFAULT_2
 70
     0
 62
     7
  6
Continuous
370
    -3
390
F
  0
LAYER
  5
45
330
2
100
AcDbSymbolTableRecord
100
AcDbLayerTableRecord
  2
FASEN
 70
     0
 62
     7
  6
Continuous
370
    -3
390
F
  0
LAYER
  5
46
330
2
100
AcDbSymbolTableRecord
100
AcDbLayerTableRecord
  2
GEWINDE
 70
     0
 62
     7
  6
Continuous
370
    -3
390
F
  0
LAYER
  5
47
330
2
100
AcDbSymbolTableRecord
100
AcDbLayerTableRecord
  2
RUNDUNGEN
 70
     0
 62
     7
  6
Continuous
370
    -3
390
F
  0
ENDTAB
  0
TABLE
  2
STYLE
  5
3
330
0
100
AcDbSymbolTable
 70
     2
  0
STYLE
  5
11
330
3
100
AcDbSymbolTableRecord
100
AcDbTextStyleTableRecord
  2
Standard
 70
     0
 40
0.0
 41
1.0
 50
0.0
 71
     0
 42
0.2
  3
txt
  4

  0
STYLE
  5
6E
330
3
100
AcDbSymbolTableRecord
100
AcDbTextStyleTableRecord
  2
CONVERTER_11
 70
     0
 40
0.0
 41
0.72
 50
0.0
 71
     0
 42
0.2
  3
txt.shx
  4

  0
ENDTAB
  0
TABLE
  2
VIEW
  5
6
330
0
100
AcDbSymbolTable
 70
     0
  0
ENDTAB
  0
TABLE
  2
UCS
  5
7
330
0
100
AcDbSymbolTable
 70
     0
  0
ENDTAB
  0
TABLE
  2
APPID
  5
9
330
0
100
AcDbSymbolTable
 70
     1
  0
APPID
  5
12
330
9
100
AcDbSymbolTableRecord
100
AcDbRegAppTableRecord
  2
ACAD
 70
     0
  0
ENDTAB
  0
TABLE
  2
DIMSTYLE
  5
A
330
0
100
AcDbSymbolTable
 70
     6
100
AcDbDimStyleTable
  0
DIMSTYLE
105
27
330
A
100
AcDbSymbolTableRecord
100
AcDbDimStyleTableRecord
  2
Standard
 70
     0
340
11
  0
DIMSTYLE
105
111
102
{ACAD_REACTORS
330
112
102
}
330
A
100
AcDbSymbolTableRecord
100
AcDbDimStyleTableRecord
  2
ME10_DIM_10
 70
     0
  3
\U+2300<>
 41
3.5
 42
2.0
 44
2.0
 71
     1
 73
     0
 74
     0
 77
     1
 78
     8
140
3.5
146
0.7
147
2.0
172
     1
173
     1
176
     2
177
     2
178
     3
271
     2
272
     0
340
6E
  0
DIMSTYLE
105
11C
102
{ACAD_REACTORS
330
11D
102
}
330
A
100
AcDbSymbolTableRecord
100
AcDbDimStyleTableRecord
  2
ME10_DIM_11
 70
     0
  3
\U+2300<>
 41
3.5
 42
2.0
 44
2.0
 71
     1
 73
     0
 74
     0
 77
     1
 78
     8
140
3.5
146
0.7
147
2.0
172
     1
173
     1
176
     2
177
     2
178
     3
271
     2
272
     0
340
6E
  0
DIMSTYLE
105
127
102
{ACAD_REACTORS
330
128
102
}
330
A
100
AcDbSymbolTableRecord
100
AcDbDimStyleTableRecord
  2
ME10_DIM_12
 70
     0
  3
<>
 41
3.5
 42
2.0
 44
2.0
 71
     1
 73
     0
 74
     0
 77
     1
 78
     8
140
3.5
146
0.7
147
2.0
172
     1
173
     1
176
     2
177
     2
178
     3
271
     2
272
     0
340
6E
  0
DIMSTYLE
105
132
102
{ACAD_REACTORS
330
133
102
}
330
A
100
AcDbSymbolTableRecord
100
AcDbDimStyleTableRecord
  2
ME10_DIM_13
 70
     0
  3
<>
 41
3.5
 42
2.0
 44
2.0
 71
     1
 73
     0
 74
     0
 77
     1
 78
     8
140
3.5
146
0.7
147
2.0
172
     1
173
     1
176
     2
177
     2
178
     3
271
     2
272
     0
340
6E
  0
DIMSTYLE
105
13D
102
{ACAD_REACTORS
330
13E
102
}
330
A
100
AcDbSymbolTableRecord
100
AcDbDimStyleTableRecord
  2
ME10_DIM_14
 70
     0
  3
<>
 41
3.5
 42
2.0
 44
2.0
 71
     1
 73
     0
 74
     0
 77
     1
 78
     8
140
3.5
146
0.7
147
2.0
172
     1
173
     1
176
     2
177
     2
178
     3
271
     2
272
     0
340
6E
  0
ENDTAB
  0
TABLE
  2
BLOCK_RECORD
  5
1
330
0
100
AcDbSymbolTable
 70
     8
  0
BLOCK_RECORD
  5
1F
330
1
100
AcDbSymbolTableRecord
100
AcDbBlockTableRecord
  2
*Model_Space
340
22
  0
BLOCK_RECORD
  5
1B
330
1
100
AcDbSymbolTableRecord
100
AcDbBlockTableRecord
  2
*Paper_Space
340
1E
  0
BLOCK_RECORD
  5
23
330
1
100
AcDbSymbolTableRecord
100
AcDbBlockTableRecord
  2
*Paper_Space0
340
26
  0
BLOCK_RECORD
  5
48
330
1
100
AcDbSymbolTableRecord
100
AcDbBlockTableRecord
  2
Urheberrecht_DE-EN
340
0
102
{BLKREFS
331
6D
102
}
  0
BLOCK_RECORD
  5
108
330
1
100
AcDbSymbolTableRecord
100
AcDbBlockTableRecord
  2
*D2
340
0
  0
BLOCK_RECORD
  5
113
330
1
100
AcDbSymbolTableRecord
100
AcDbBlockTableRecord
  2
*D3
340
0
  0
BLOCK_RECORD
  5
11E
330
1
100
AcDbSymbolTableRecord
100
AcDbBlockTableRecord
  2
*D4
340
0
  0
BLOCK_RECORD
  5
129
330
1
100
AcDbSymbolTableRecord
100
AcDbBlockTableRecord
  2
*D5
340
0
  0
BLOCK_RECORD
  5
134
330
1
100
AcDbSymbolTableRecord
100
AcDbBlockTableRecord
  2
*D6
340
0
  0
BLOCK_RECORD
  5
13F
330
1
100
AcDbSymbolTableRecord
100
AcDbBlockTableRecord
  2
*D7
340
0
102
{BLKREFS
331
145
102
}
  0
ENDTAB
  0
ENDSEC
  0
SECTION
  2
BLOCKS
  0
BLOCK
  5
20
330
1F
100
AcDbEntity
  8
0
100
AcDbBlockBegin
  2
*Model_Space
 70
     0
 10
0.0
 20
0.0
 30
0.0
  3
*Model_Space
  1

  0
ENDBLK
  5
21
330
1F
100
AcDbEntity
  8
0
100
AcDbBlockEnd
  0
BLOCK
  5
1C
330
1B
100
AcDbEntity
 67
     1
  8
0
100
AcDbBlockBegin
  2
*Paper_Space
 70
     0
 10
0.0
 20
0.0
 30
0.0
  3
*Paper_Space
  1

  0
ENDBLK
  5
1D
330
1B
100
AcDbEntity
 67
     1
  8
0
100
AcDbBlockEnd
  0
BLOCK
  5
24
330
23
100
AcDbEntity
  8
0
100
AcDbBlockBegin
  2
*Paper_Space0
 70
     0
 10
0.0
 20
0.0
 30
0.0
  3
*Paper_Space0
  1

  0
ENDBLK
  5
25
330
23
100
AcDbEntity
  8
0
100
AcDbBlockEnd
  0
BLOCK
  5
49
330
48
100
AcDbEntity
  8
0
100
AcDbBlockBegin
  2
Urheberrecht_DE-EN
 70
     0
 10
9.77523757397987
 20
309.656887359796
 30
0.0
  3
Urheberrecht_DE-EN
  1

  0
MTEXT
  5
6F
330
48
100
AcDbEntity
  8
1
 62
     1
100
AcDbMText
 10
9.77523757397987
 20
309.656887359796
 30
0.0
 40
2.0
 41
0.0
 71
     7
 72
     1
  1
We own the copyright of this document. It \Pdetermined and may neither be copied or \Pmade accessible to outsiders without our\Ppermission.
  7
CONVERTER_11
 11
0.0
 21
1.0
 31
0.0
 73
     1
 44
0.90036014405762
  0
MTEXT
  5
70
330
48
100
AcDbEntity
  8
1
 62
     1
100
AcDbMText
 10
9.77523757397987
 20
253.3675004424898
 30
0.0
 40
2.0
 41
0.0
 71
     7
 72
     1
  1
F\U+00fcr diese Unterlage behalten wir das Ur-\Pheberrecht. Sie darf nur f\U+00fcr den von uns \Pbestimmten Zweck benutzt und ohne unsere \PZustimmung weder vervielf\U+00e4ltigt noch\PDritten zug\U+00e4nglich gemacht werden.
  7
CONVERTER_11
 11
0.0
 21
1.0
 31
0.0
 73
     1
 44
0.90036014405762
  0
ENDBLK
  5
4A
330
48
100
AcDbEntity
  8
0
100
AcDbBlockEnd
  0
BLOCK
  5
10F
330
108
100
AcDbEntity
  8
0
100
AcDbBlockBegin
  2
*D2
 70
     1
 10
0.0
 20
0.0
 30
0.0
  3
*D2
  1

  0
LINE
  5
109
330
108
100
AcDbEntity
  8
1
  6
Continuous
 62
     2
100
AcDbLine
 10
239.398586913704
 20
305.225876606
 30
0.0
 11
239.398586913704
 21
285.225876606
 31
0.0
  0
LINE
  5
10A
330
108
100
AcDbEntity
  8
1
  6
Continuous
 62
     2
100
AcDbLine
 10
229.2064373662
 20
305.225876606
 30
0.0
 11
241.398586913704
 21
305.225876606
 31
0.0
  0
LINE
  5
10B
330
108
100
AcDbEntity
  8
1
  6
Continuous
 62
     2
100
AcDbLine
 10
229.2064373662
 20
285.225876606
 30
0.0
 11
241.398586913704
 21
285.225876606
 31
0.0
  0
SOLID
  5
10C
330
108
100
AcDbEntity
  8
1
 62
     2
100
AcDbTrace
 10
239.8593706552599
 20
301.725876606
 30
0.0
 11
238.9378031721481
 21
301.725876606
 31
0.0
 12
239.398586913704
 22
305.225876606
 32
0.0
 13
239.398586913704
 23
305.225876606
 33
0.0
  0
SOLID
  5
10D
330
108
100
AcDbEntity
  8
1
 62
     2
100
AcDbTrace
 10
238.9378031721481
 20
288.725876606
 30
0.0
 11
239.8593706552599
 21
288.725876606
 31
0.0
 12
239.398586913704
 22
285.225876606
 32
0.0
 13
239.398586913704
 23
285.225876606
 33
0.0
  0
MTEXT
  5
10E
330
108
100
AcDbEntity
  8
1
 62
     3
100
AcDbMText
 10
237.398586913704
 20
286.097970114561
 30
0.0
 40
3.5
 41
0.0
 71
     7
 72
     1
  1
\C3;%%c\C3;\C3;20\C2;\H2.45;\S^ ;\C3;
  7
CONVERTER_11
 11
0.0
 21
1.0
 31
0.0
 73
     1
 44
0.60024009603842
  0
ENDBLK
  5
110
330
108
100
AcDbEntity
  8
0
100
AcDbBlockEnd
  0
BLOCK
  5
11A
330
113
100
AcDbEntity
  8
0
100
AcDbBlockBegin
  2
*D3
 70
     1
 10
0.0
 20
0.0
 30
0.0
  3
*D3
  1

  0
LINE
  5
114
330
113
100
AcDbEntity
  8
1
  6
Continuous
 62
     2
100
AcDbLine
 10
247.453883599346
 20
321.225876606
 30
0.0
 11
247.453883599346
 21
269.225876606
 31
0.0
  0
LINE
  5
115
330
113
100
AcDbEntity
  8
1
  6
Continuous
 62
     2
100
AcDbLine
 10
216.1177011805
 20
321.225876606
 30
0.0
 11
249.453883599346
 21
321.225876606
 31
0.0
  0
LINE
  5
116
330
113
100
AcDbEntity
  8
1
  6
Continuous
 62
     2
100
AcDbLine
 10
216.1177011805
 20
269.225876606
 30
0.0
 11
249.453883599346
 21
269.225876606
 31
0.0
  0
SOLID
  5
117
330
113
100
AcDbEntity
  8
1
 62
     2
100
AcDbTrace
 10
247.9146673409019
 20
317.725876606
 30
0.0
 11
246.9930998577901
 21
317.725876606
 31
0.0
 12
247.453883599346
 22
321.225876606
 32
0.0
 13
247.453883599346
 23
321.225876606
 33
0.0
  0
SOLID
  5
118
330
113
100
AcDbEntity
  8
1
 62
     2
100
AcDbTrace
 10
246.9930998577901
 20
272.725876606
 30
0.0
 11
247.9146673409019
 21
272.725876606
 31
0.0
 12
247.453883599346
 22
269.225876606
 32
0.0
 13
247.453883599346
 23
269.225876606
 33
0.0
  0
MTEXT
  5
119
330
113
100
AcDbEntity
  8
1
 62
     3
100
AcDbMText
 10
245.453883599346
 20
286.320310054006
 30
0.0
 40
3.5
 41
0.0
 71
     7
 72
     1
  1
\C3;%%c\C3;\C3;52\C2;\H2.45;\S^ ;\C3;
  7
CONVERTER_11
 11
0.0
 21
1.0
 31
0.0
 73
     1
 44
0.60024009603842
  0
ENDBLK
  5
11B
330
113
100
AcDbEntity
  8
0
100
AcDbBlockEnd
  0
BLOCK
  5
125
330
11E
100
AcDbEntity
  8
0
100
AcDbBlockBegin
  2
*D4
 70
     1
 10
0.0
 20
0.0
 30
0.0
  3
*D4
  1

  0
LINE
  5
11F
330
11E
100
AcDbEntity
  8
1
  6
Continuous
 62
     2
100
AcDbLine
 10
227.2064373662
 20
352.448012971029
 30
0.0
 11
96.2064373662
 21
352.448012971029
 31
0.0
  0
LINE
  5
120
330
11E
100
AcDbEntity
  8
1
  6
Continuous
 62
     2
100
AcDbLine
 10
227.2064373662
 20
316.5888063452
 30
0.0
 11
227.2064373662
 21
354.448012971029
 31
0.0
  0
LINE
  5
121
330
11E
100
AcDbEntity
  8
1
  6
Continuous
 62
     2
100
AcDbLine
 10
96.2064373662
 20
347.2258396849
 30
0.0
 11
96.2064373662
 21
354.448012971029
 31
0.0
  0
SOLID
  5
122
330
11E
100
AcDbEntity
  8
1
 62
     2
100
AcDbTrace
 10
223.7064373662
 20
351.9872292294731
 30
0.0
 11
223.7064373662
 21
352.9087967125849
 31
0.0
 12
227.2064373662
 22
352.448012971029
 32
0.0
 13
227.2064373662
 23
352.448012971029
 33
0.0
  0
SOLID
  5
123
330
11E
100
AcDbEntity
  8
1
 62
     2
100
AcDbTrace
 10
99.7064373662
 20
352.9087967125849
 30
0.0
 11
99.7064373662
 21
351.9872292294731
 31
0.0
 12
96.2064373662
 22
352.448012971029
 32
0.0
 13
96.2064373662
 23
352.448012971029
 33
0.0
  0
MTEXT
  5
124
330
11E
100
AcDbEntity
  8
1
 62
     3
100
AcDbMText
 10
159.527054371689
 20
354.448012971029
 30
0.0
 40
3.5
 41
0.0
 71
     7
 72
     1
  1
\C3;\C3;\C3;131\C2;\H2.45;\S^ ;\C3;
  7
CONVERTER_11
 11
0.9999999999970619
 21
2.424068405545306E-6
 31
0.0
 73
     1
 44
0.60024009603842
  0
ENDBLK
  5
126
330
11E
100
AcDbEntity
  8
0
100
AcDbBlockEnd
  0
BLOCK
  5
130
330
129
100
AcDbEntity
  8
0
100
AcDbBlockBegin
  2
*D5
 70
     1
 10
0.0
 20
0.0
 30
0.0
  3
*D5
  1

  0
LINE
  5
12A
330
129
100
AcDbEntity
  8
1
  6
Continuous
 62
     2
100
AcDbLine
 10
227.2064373662
 20
359.552954581951
 30
0.0
 11
67.2064373662
 21
359.552954581951
 31
0.0
  0
LINE
  5
12B
330
129
100
AcDbEntity
  8
1
  6
Continuous
 62
     2
100
AcDbLine
 10
227.2064373662
 20
316.5888063452
 30
0.0
 11
227.2064373662
 21
361.552954581951
 31
0.0
  0
LINE
  5
12C
330
129
100
AcDbEntity
  8
1
  6
Continuous
 62
     2
100
AcDbLine
 10
67.2064373662
 20
347.225876606
 30
0.0
 11
67.2064373662
 21
361.552954581951
 31
0.0
  0
SOLID
  5
12D
330
129
100
AcDbEntity
  8
1
 62
     2
100
AcDbTrace
 10
223.7064373662
 20
359.0921708403951
 30
0.0
 11
223.7064373662
 21
360.0137383235069
 31
0.0
 12
227.2064373662
 22
359.552954581951
 32
0.0
 13
227.2064373662
 23
359.552954581951
 33
0.0
  0
SOLID
  5
12E
330
129
100
AcDbEntity
  8
1
 62
     2
100
AcDbTrace
 10
70.7064373662
 20
360.0137383235069
 30
0.0
 11
70.7064373662
 21
359.0921708403951
 31
0.0
 12
67.2064373662
 22
359.552954581951
 32
0.0
 13
67.2064373662
 23
359.552954581951
 33
0.0
  0
MTEXT
  5
12F
330
129
100
AcDbEntity
  8
1
 62
     3
100
AcDbMText
 10
144.57421925844
 20
361.552954581951
 30
0.0
 40
3.5
 41
0.0
 71
     7
 72
     1
  1
\C3;\C3;\C3;160\C2;\H2.45;\S^ ;\C3;
  7
CONVERTER_11
 11
0.9999999999970619
 21
2.424068405545306E-6
 31
0.0
 73
     1
 44
0.60024009603842
  0
ENDBLK
  5
131
330
129
100
AcDbEntity
  8
0
100
AcDbBlockEnd
  0
BLOCK
  5
13B
330
134
100
AcDbEntity
  8
0
100
AcDbBlockBegin
  2
*D6
 70
     1
 10
0.0
 20
0.0
 30
0.0
  3
*D6
  1

  0
LINE
  5
135
330
134
100
AcDbEntity
  8
1
  6
Continuous
 62
     2
100
AcDbLine
 10
227.2064373662
 20
366.980848084278
 30
0.0
 11
17.20643736620001
 21
366.980848084278
 31
0.0
  0
LINE
  5
136
330
134
100
AcDbEntity
  8
1
  6
Continuous
 62
     2
100
AcDbLine
 10
227.2064373662
 20
316.5888063452
 30
0.0
 11
227.2064373662
 21
368.980848084278
 31
0.0
  0
LINE
  5
137
330
134
100
AcDbEntity
  8
1
  6
Continuous
 62
     2
100
AcDbLine
 10
17.20643736620001
 20
330.8260681686
 30
0.0
 11
17.20643736620001
 21
368.980848084278
 31
0.0
  0
SOLID
  5
138
330
134
100
AcDbEntity
  8
1
 62
     2
100
AcDbTrace
 10
223.7064373662
 20
366.5200643427222
 30
0.0
 11
223.7064373662
 21
367.4416318258339
 31
0.0
 12
227.2064373662
 22
366.980848084278
 32
0.0
 13
227.2064373662
 23
366.980848084278
 33
0.0
  0
SOLID
  5
139
330
134
100
AcDbEntity
  8
1
 62
     2
100
AcDbTrace
 10
20.70643736620001
 20
367.4416318258339
 30
0.0
 11
20.70643736620001
 21
366.5200643427222
 31
0.0
 12
17.20643736620001
 22
366.980848084278
 32
0.0
 13
17.20643736620001
 23
366.980848084278
 33
0.0
  0
MTEXT
  5
13A
330
134
100
AcDbEntity
  8
1
 62
     3
100
AcDbMText
 10
124.228250099892
 20
368.980848084278
 30
0.0
 40
3.5
 41
0.0
 71
     7
 72
     1
  1
\C3;\C3;\C3;210\C2;\H2.45;\S^ ;\C3;
  7
CONVERTER_11
 11
0.9999999999970619
 21
2.424068405545306E-6
 31
0.0
 73
     1
 44
0.60024009603842
  0
ENDBLK
  5
13C
330
134
100
AcDbEntity
  8
0
100
AcDbBlockEnd
  0
BLOCK
  5
143
330
13F
100
AcDbEntity
  8
0
100
AcDbBlockBegin
  2
*D7
 70
     1
 10
0.0
 20
0.0
 30
0.0
  3
*D7
  1

  0
LINE
  5
140
330
13F
100
AcDbEntity
  8
1
  6
Continuous
 62
     2
100
AcDbLine
 10
107.2070918498076
 20
333.3851439992272
 30
0.0
 11
96.89270482217565
 21
327.3401093856775
 31
0.0
  0
SOLID
  5
141
330
13F
100
AcDbEntity
  8
1
 62
     2
100
AcDbTrace
 10
99.67932843746584
 20
329.5073773624605
 30
0.0
 11
100.1453067685637
 21
328.7122982337719
 31
0.0
 12
96.89270482217565
 22
327.3401093856775
 32
0.0
 13
96.89270482217565
 23
327.3401093856775
 33
0.0
  0
MTEXT
  5
142
330
13F
100
AcDbEntity
  8
1
 62
     3
100
AcDbMText
 10
99.79423937589222
 20
331.3588127824794
 30
0.0
 40
3.5
 41
0.0
 71
     7
 72
     1
  1
\C3; R\C3;\C3;5\C2;\H2.45;\S^ ;\C3;
  7
CONVERTER_11
 11
0.8627465088111862
 21
0.5056366892682035
 31
0.0
 73
     1
 44
0.60024009603842
  0
ENDBLK
  5
144
330
13F
100
AcDbEntity
  8
0
100
AcDbBlockEnd
  0
ENDSEC
  0
SECTION
  2
ENTITIES
  0
INSERT
  5
6D
330
1F
100
AcDbEntity
  8
0
100
AcDbBlockReference
  2
Urheberrecht_DE-EN
 10
9.77523757397987
 20
309.656887359796
 30
0.0
  0
LINE
  5
71
330
1F
100
AcDbEntity
  8
BEZUGSACHSEN
  6
Continuous
 62
     7
100
AcDbLine
 10
17.2064373662
 20
261.625685043
 30
0.0
 11
17.2064373662
 21
283.215876606
 31
0.0
  0
LINE
  5
72
330
1F
100
AcDbEntity
  8
BEZUGSACHSEN
  6
Continuous
 62
     7
100
AcDbLine
 10
17.2064373662
 20
307.235876606
 30
0.0
 11
17.2064373662
 21
328.8260681686
 31
0.0
  0
LINE
  5
73
330
1F
100
AcDbEntity
  8
BEZUGSACHSEN
  6
Continuous
 62
     9
100
AcDbLine
 10
19.1063628814
 20
330.8235628743
 30
0.0
 11
19.1063628814
 21
310.9024089923
 31
0.0
  0
LINE
  5
74
330
1F
100
AcDbEntity
  8
BEZUGSACHSEN
  6
Continuous
 62
     9
100
AcDbLine
 10
19.1063628814
 20
279.5493442197
 30
0.0
 11
19.1063628814
 21
259.6281903377
 31
0.0
  0
LINE
  5
75
330
1F
100
AcDbEntity
  8
BEZUGSACHSEN
  6
Continuous
 62
     7
100
AcDbLine
 10
19.2064373662
 20
282.8222366576
 30
0.0
 11
19.2064373662
 21
285.215876606
 31
0.0
  0
LINE
  5
76
330
1F
100
AcDbEntity
  8
BEZUGSACHSEN
  6
Continuous
 62
     7
100
AcDbLine
 10
19.2064373662
 20
305.235876606
 30
0.0
 11
19.2064373662
 21
307.6295165544
 31
0.0
  0
LINE
  5
77
330
1F
100
AcDbEntity
  8
BEZUGSACHSEN
  6
Continuous
 62
     9
100
AcDbLine
 10
25.2064373662
 20
278.8672290186
 30
0.0
 11
25.2064373662
 21
285.215876606
 31
0.0
  0
LINE
  5
78
330
1F
100
AcDbEntity
  8
BEZUGSACHSEN
  6
Continuous
 62
     9
100
AcDbLine
 10
25.2064373662
 20
305.235876606
 30
0.0
 11
25.2064373662
 21
311.5845241934
 31
0.0
  0
LINE
  5
79
330
1F
100
AcDbEntity
  8
BEZUGSACHSEN
  6
Continuous
 62
     7
100
AcDbLine
 10
27.2064373662
 20
308.0955321318
 30
0.0
 11
27.2064373662
 21
282.3562210802
 31
0.0
  0
LINE
  5
7A
330
1F
100
AcDbEntity
  8
BEZUGSACHSEN
  6
Continuous
 62
     7
100
AcDbLine
 10
18.4733902932
 20
280.215876606
 30
0.0
 11
18.3522800418
 21
279.9835406105
 31
0.0
  0
LINE
  5
7B
330
1F
100
AcDbEntity
  8
BEZUGSACHSEN
  6
Continuous
 62
     7
100
AcDbLine
 10
18.3522800418
 20
310.4682126014
 30
0.0
 11
18.4733902932
 21
310.235876606
 31
0.0
  0
LWPOLYLINE
  5
7C
330
1F
100
AcDbEntity
  8
BEZUGSACHSEN
  6
DOT_CENTER
 62
     7
100
AcDbPolyline
 90
        2
 70
     0
 43
0.25
 10
52.2064373662
 20
295.225876606
 10
52.2064373662
 20
286.225876606
  0
LWPOLYLINE
  5
7D
330
1F
100
AcDbEntity
  8
BEZUGSACHSEN
  6
DOT_CENTER
 62
     7
100
AcDbPolyline
 90
        2
 70
     0
 43
0.25
 10
52.2064373662
 20
295.225876606
 10
52.2064373662
 20
304.225876606
  0
LINE
  5
7E
330
1F
100
AcDbEntity
  8
BEZUGSACHSEN
  6
Continuous
 62
     7
100
AcDbLine
 10
17.2064373662
 20
283.215876606
 30
0.0
 11
19.2064373662
 21
285.215876606
 31
0.0
  0
LINE
  5
7F
330
1F
100
AcDbEntity
  8
BEZUGSACHSEN
  6
Continuous
 62
     7
100
AcDbLine
 10
19.2064373662
 20
305.235876606
 30
0.0
 11
17.2064373662
 21
307.235876606
 31
0.0
  0
LINE
  5
80
330
1F
100
AcDbEntity
  8
BEZUGSACHSEN
  6
Continuous
 62
     7
100
AcDbLine
 10
64.7064373662
 20
333.108126606
 30
0.0
 11
64.7064373662
 21
257.343626606
 31
0.0
  0
LINE
  5
81
330
1F
100
AcDbEntity
  8
BEZUGSACHSEN
  6
Continuous
 62
     9
100
AcDbLine
 10
65.3256809802
 20
257.5095524323
 30
0.0
 11
65.3256809802
 21
332.9422007797
 31
0.0
  0
LINE
  5
82
330
1F
100
AcDbEntity
  8
BEZUGSACHSEN
  6
Continuous
 62
     9
100
AcDbLine
 10
65.5845000253
 20
257.543626606
 30
0.0
 11
65.5845000253
 21
332.908126606
 31
0.0
  0
LINE
  5
83
330
1F
100
AcDbEntity
  8
BEZUGSACHSEN
  6
Continuous
 62
     9
100
AcDbLine
 10
66.5058660775
 20
257.543626606
 30
0.0
 11
66.5058660775
 21
332.908126606
 31
0.0
  0
LINE
  5
84
330
1F
100
AcDbEntity
  8
BEZUGSACHSEN
  6
Continuous
 62
     7
100
AcDbLine
 10
67.2064373662
 20
345.225876606
 30
0.0
 11
67.2064373662
 21
245.225876606
 31
0.0
  0
LWPOLYLINE
  5
85
330
1F
100
AcDbEntity
  8
BEZUGSACHSEN
  6
DOT_CENTER
 62
     7
100
AcDbPolyline
 90
        2
 70
     0
 43
0.25
 10
74.2064373662
 20
337.3752484613
 10
74.2064373662
 20
348.225876606
  0
LINE
  5
86
330
1F
100
AcDbEntity
  8
BEZUGSACHSEN
  6
Continuous
 62
     7
100
AcDbLine
 10
89.0814373662
 20
342.8484718702
 30
0.0
 11
90.4540326304
 21
345.225876606
 31
0.0
  0
LINE
  5
87
330
1F
100
AcDbEntity
  8
BEZUGSACHSEN
  6
Continuous
 62
     7
100
AcDbLine
 10
83.958842102
 20
245.225876606
 30
0.0
 11
67.2064373662
 21
245.225876606
 31
0.0
  0
LINE
  5
88
330
1F
100
AcDbEntity
  8
BEZUGSACHSEN
  6
Continuous
 62
     7
100
AcDbLine
 10
90.4540326304
 20
245.225876606
 30
0.0
 11
96.2064373662
 21
245.225876606
 31
0.0
  0
LINE
  5
89
330
1F
100
AcDbEntity
  8
BEZUGSACHSEN
  6
Continuous
 62
     7
100
AcDbLine
 10
86.3314373662
 20
249.225876606
 30
0.0
 11
88.0814373662
 21
249.225876606
 31
0.0
  0
LINE
  5
8A
330
1F
100
AcDbEntity
  8
BEZUGSACHSEN
  6
Continuous
 62
     7
100
AcDbLine
 10
89.0814373662
 20
247.6032813418
 30
0.0
 11
90.4540326304
 21
245.225876606
 31
0.0
  0
LINE
  5
8B
330
1F
100
AcDbEntity
  8
FASEN
  6
Continuous
 62
     9
100
AcDbLine
 10
80.178311288
 20
263.325876606
 30
0.0
 11
80.178311288
 21
263.725876606
 31
0.0
  0
LINE
  5
8C
330
1F
100
AcDbEntity
  8
FASEN
  6
Continuous
 62
     9
100
AcDbLine
 10
82.2064373662
 20
285.625876606
 30
0.0
 11
82.2064373662
 21
285.225876606
 31
0.0
  0
LINE
  5
8D
330
1F
100
AcDbEntity
  8
FASEN
  6
Continuous
 62
     9
100
AcDbLine
 10
82.2064373662
 20
304.825876606
 30
0.0
 11
82.2064373662
 21
305.225876606
 31
0.0
  0
LINE
  5
8E
330
1F
100
AcDbEntity
  8
0
  6
Continuous
 62
     7
100
AcDbLine
 10
83.958842102
 20
345.225876606
 30
0.0
 11
83.958842102
 21
305.225876606
 31
0.0
  0
LINE
  5
8F
330
1F
100
AcDbEntity
  8
0
  6
Continuous
 62
     7
100
AcDbLine
 10
83.958842102
 20
285.225876606
 30
0.0
 11
83.958842102
 21
263.725876606
 31
0.0
  0
LINE
  5
90
330
1F
100
AcDbEntity
  8
0
  6
Continuous
 62
     7
100
AcDbLine
 10
83.958842102
 20
256.3961199753
 30
0.0
 11
83.958842102
 21
245.225876606
 31
0.0
  0
LINE
  5
91
330
1F
100
AcDbEntity
  8
FASEN
  6
Continuous
 62
     7
100
AcDbLine
 10
72.6079233306
 20
256.3961199753
 30
0.0
 11
83.958842102
 21
256.3961199753
 31
0.0
  0
LINE
  5
92
330
1F
100
AcDbEntity
  8
0
  6
Continuous
 62
     7
100
AcDbLine
 10
90.4540326304
 20
256.3961199753
 30
0.0
 11
96.2064373662
 21
256.3961199753
 31
0.0
  0
LINE
  5
93
330
1F
100
AcDbEntity
  8
BEZUGSACHSEN
  6
Continuous
 62
     7
100
AcDbLine
 10
64.7064373662
 20
257.343626606
 30
0.0
 11
19.1063628814
 21
259.6281903377
 31
0.0
  0
LINE
  5
94
330
1F
100
AcDbEntity
  8
0
  6
Continuous
 62
     7
100
AcDbLine
 10
85.3314373662
 20
342.8484384437
 30
0.0
 11
85.3314373662
 21
305.225876606
 31
0.0
  0
LINE
  5
95
330
1F
100
AcDbEntity
  8
0
  6
Continuous
 62
     7
100
AcDbLine
 10
85.3314373662
 20
285.225876606
 30
0.0
 11
85.3314373662
 21
263.725876606
 31
0.0
  0
LINE
  5
96
330
1F
100
AcDbEntity
  8
0
  6
Continuous
 62
     7
100
AcDbLine
 10
85.3314373662
 20
247.6033188758
 30
0.0
 11
85.3314373662
 21
260.3439328528
 31
0.0
  0
LINE
  5
97
330
1F
100
AcDbEntity
  8
0
  6
Continuous
 62
     9
100
AcDbLine
 10
86.3314373662
 20
249.225876606
 30
0.0
 11
86.3314373662
 21
261.7034960223
 31
0.0
  0
LINE
  5
98
330
1F
100
AcDbEntity
  8
0
  6
Continuous
 62
     9
100
AcDbLine
 10
86.3314373662
 20
263.725876606
 30
0.0
 11
86.3314373662
 21
285.225876606
 31
0.0
  0
LINE
  5
99
330
1F
100
AcDbEntity
  8
0
  6
Continuous
 62
     9
100
AcDbLine
 10
86.3314373662
 20
305.225876606
 30
0.0
 11
86.3314373662
 21
341.225876606
 31
0.0
  0
LINE
  5
9A
330
1F
100
AcDbEntity
  8
0
  6
Continuous
 62
     9
100
AcDbLine
 10
88.0814373662
 20
249.225876606
 30
0.0
 11
88.0814373662
 21
261.7034960223
 31
0.0
  0
LINE
  5
9B
330
1F
100
AcDbEntity
  8
0
  6
Continuous
 62
     9
100
AcDbLine
 10
88.0814373662
 20
263.725876606
 30
0.0
 11
88.0814373662
 21
285.225876606
 31
0.0
  0
LINE
  5
9C
330
1F
100
AcDbEntity
  8
0
  6
Continuous
 62
     9
100
AcDbLine
 10
88.0814373662
 20
305.225876606
 30
0.0
 11
88.0814373662
 21
341.225876606
 31
0.0
  0
LINE
  5
9D
330
1F
100
AcDbEntity
  8
0
  6
Continuous
 62
     7
100
AcDbLine
 10
89.0814373662
 20
247.6033188758
 30
0.0
 11
89.0814373662
 21
260.3439328528
 31
0.0
  0
LINE
  5
9E
330
1F
100
AcDbEntity
  8
0
  6
Continuous
 62
     7
100
AcDbLine
 10
89.0814373662
 20
263.725876606
 30
0.0
 11
89.0814373662
 21
285.225876606
 31
0.0
  0
LINE
  5
9F
330
1F
100
AcDbEntity
  8
0
  6
Continuous
 62
     7
100
AcDbLine
 10
89.0814373662
 20
305.225876606
 30
0.0
 11
89.0814373662
 21
342.8484384437
 31
0.0
  0
LINE
  5
A0
330
1F
100
AcDbEntity
  8
0
  6
Continuous
 62
     7
100
AcDbLine
 10
90.4540326304
 20
345.225876606
 30
0.0
 11
90.4540326304
 21
305.225876606
 31
0.0
  0
LINE
  5
A1
330
1F
100
AcDbEntity
  8
0
  6
Continuous
 62
     7
100
AcDbLine
 10
90.4540326304
 20
285.225876606
 30
0.0
 11
90.4540326304
 21
263.725876606
 31
0.0
  0
LINE
  5
A2
330
1F
100
AcDbEntity
  8
0
  6
Continuous
 62
     7
100
AcDbLine
 10
90.4540326304
 20
256.3961199753
 30
0.0
 11
90.4540326304
 21
245.225876606
 31
0.0
  0
LINE
  5
A3
330
1F
100
AcDbEntity
  8
BEZUGSACHSEN
  6
Continuous
 62
     9
100
AcDbLine
 10
17.2064373662
 20
281.779692637
 30
0.0
 11
19.2064373662
 21
282.8222366576
 31
0.0
  0
LINE
  5
A4
330
1F
100
AcDbEntity
  8
BEZUGSACHSEN
  6
Continuous
 62
     7
100
AcDbLine
 10
66.5058660775
 20
257.543626606
 30
0.0
 11
65.5845000253
 21
257.543626606
 31
0.0
  0
LINE
  5
A5
330
1F
100
AcDbEntity
  8
0
  6
Continuous
 62
     7
100
AcDbLine
 10
86.3314373662
 20
261.7034960223
 30
0.0
 11
88.0814373662
 21
261.7034960223
 31
0.0
  0
LINE
  5
A6
330
1F
100
AcDbEntity
  8
FASEN
  6
Continuous
 62
     7
100
AcDbLine
 10
80.178311288
 20
263.325876606
 30
0.0
 11
96.2064373662
 21
263.325876606
 31
0.0
  0
LINE
  5
A7
330
1F
100
AcDbEntity
  8
0
  6
Continuous
 62
     7
100
AcDbLine
 10
80.178311288
 20
263.725876606
 30
0.0
 11
96.2064373662
 21
263.725876606
 31
0.0
  0
LINE
  5
A8
330
1F
100
AcDbEntity
  8
BEZUGSACHSEN
  6
Continuous
 62
     9
100
AcDbLine
 10
19.2064373662
 20
307.6295165544
 30
0.0
 11
17.2064373662
 21
308.672060575
 31
0.0
  0
LINE
  5
A9
330
1F
100
AcDbEntity
  8
0
  6
Continuous
 62
     7
100
AcDbLine
 10
96.2064373662
 20
345.2258396849
 30
0.0
 11
96.2064373662
 21
305.225876606
 31
0.0
  0
LINE
  5
AA
330
1F
100
AcDbEntity
  8
0
  6
Continuous
 62
     7
100
AcDbLine
 10
96.2064373662
 20
285.225876606
 30
0.0
 11
96.2064373662
 21
263.725876606
 31
0.0
  0
LINE
  5
AB
330
1F
100
AcDbEntity
  8
0
  6
Continuous
 62
     7
100
AcDbLine
 10
96.2064373662
 20
256.3961199753
 30
0.0
 11
96.2064373662
 21
245.2258784738
 31
0.0
  0
LINE
  5
AC
330
1F
100
AcDbEntity
  8
FASEN
  6
Continuous
 62
     7
100
AcDbLine
 10
96.2064373662
 20
256.3961199753
 30
0.0
 11
96.2064373662
 21
263.725876606
 31
0.0
  0
LINE
  5
AD
330
1F
100
AcDbEntity
  8
FASEN
  6
Continuous
 62
     7
100
AcDbLine
 10
96.2064373662
 20
285.225876606
 30
0.0
 11
96.2064373662
 21
305.225876606
 31
0.0
  0
LINE
  5
AE
330
1F
100
AcDbEntity
  8
0
  6
Continuous
 62
     7
100
AcDbLine
 10
151.2064373662
 20
269.225876606
 30
0.0
 11
195.2064373662
 21
269.225876606
 31
0.0
  0
LINE
  5
AF
330
1F
100
AcDbEntity
  8
0
  6
Continuous
 62
     7
100
AcDbLine
 10
209.2064373662
 20
269.225876606
 30
0.0
 11
214.1177011805
 21
269.225876606
 31
0.0
  0
LINE
  5
B0
330
1F
100
AcDbEntity
  8
RUNDUNGEN
  6
Continuous
 62
     9
100
AcDbLine
 10
100.481799685
 20
324.921081473
 30
0.0
 11
100.481799685
 21
265.530671739
 31
0.0
  0
LINE
  5
B1
330
1F
100
AcDbEntity
  8
BEZUGSACHSEN
  6
Continuous
 62
     7
100
AcDbLine
 10
65.3256809802
 20
257.5095524323
 30
0.0
 11
64.7064373662
 21
257.343626606
 31
0.0
  0
LINE
  5
B2
330
1F
100
AcDbEntity
  8
BEZUGSACHSEN
  6
Continuous
 62
     9
100
AcDbLine
 10
26.7602833131
 20
280.215876606
 30
0.0
 11
18.4733902932
 21
280.215876606
 31
0.0
  0
LINE
  5
B3
330
1F
100
AcDbEntity
  8
BEZUGSACHSEN
  6
Continuous
 62
     7
100
AcDbLine
 10
83.958842102
 20
245.225876606
 30
0.0
 11
85.3314373662
 21
247.6032813418
 31
0.0
  0
LINE
  5
B4
330
1F
100
AcDbEntity
  8
BEZUGSACHSEN
  6
Continuous
 62
     7
100
AcDbLine
 10
25.2064373662
 20
285.215876606
 30
0.0
 11
19.2064373662
 21
285.215876606
 31
0.0
  0
LINE
  5
B5
330
1F
100
AcDbEntity
  8
0
  6
Continuous
 62
     7
100
AcDbLine
 10
82.2064373662
 20
285.225876606
 30
0.0
 11
96.2064373662
 21
285.225876606
 31
0.0
  0
LWPOLYLINE
  5
B6
330
1F
100
AcDbEntity
  8
DEFAULT_2
  6
DASHED
 62
     8
100
AcDbPolyline
 90
        2
 70
     0
 43
0.35
 10
172.2064373662
 20
285.225876606
 10
195.2064373662
 20
285.225876606
  0
LWPOLYLINE
  5
B7
330
1F
100
AcDbEntity
  8
DEFAULT_2
  6
DASHED
 62
     8
100
AcDbPolyline
 90
        2
 70
     0
 43
0.35
 10
195.2064373662
 20
285.225876606
 10
227.2064373662
 20
285.225876606
  0
LINE
  5
B8
330
1F
100
AcDbEntity
  8
FASEN
  6
Continuous
 62
     7
100
AcDbLine
 10
96.2064373662
 20
285.625876606
 30
0.0
 11
82.2064373662
 21
285.625876606
 31
0.0
  0
LINE
  5
B9
330
1F
100
AcDbEntity
  8
BEZUGSACHSEN
  6
Continuous
 62
     7
100
AcDbLine
 10
83.958842102
 20
345.225876606
 30
0.0
 11
85.3314373662
 21
342.8484718702
 31
0.0
  0
LWPOLYLINE
  5
BA
330
1F
100
AcDbEntity
  8
BEZUGSACHSEN
  6
DOT_CENTER
 62
     7
100
AcDbPolyline
 90
        2
 70
     0
 43
0.25
 10
230.2064373662
 20
295.225876606
 10
14.2064373662
 20
295.225876606
  0
LINE
  5
BB
330
1F
100
AcDbEntity
  8
FASEN
  6
Continuous
 62
     7
100
AcDbLine
 10
82.2064373662
 20
304.825876606
 30
0.0
 11
96.2064373662
 21
304.825876606
 31
0.0
  0
LWPOLYLINE
  5
BC
330
1F
100
AcDbEntity
  8
DEFAULT_2
  6
DASHED
 62
     8
100
AcDbPolyline
 90
        2
 70
     0
 43
0.35
 10
227.2064373662
 20
305.225876606
 10
172.2064373662
 20
305.225876606
  0
LINE
  5
BD
330
1F
100
AcDbEntity
  8
0
  6
Continuous
 62
     7
100
AcDbLine
 10
82.2064373662
 20
305.225876606
 30
0.0
 11
96.2064373662
 21
305.225876606
 31
0.0
  0
LINE
  5
BE
330
1F
100
AcDbEntity
  8
BEZUGSACHSEN
  6
Continuous
 62
     7
100
AcDbLine
 10
25.2064373662
 20
305.235876606
 30
0.0
 11
19.2064373662
 21
305.235876606
 31
0.0
  0
LINE
  5
BF
330
1F
100
AcDbEntity
  8
BEZUGSACHSEN
  6
Continuous
 62
     9
100
AcDbLine
 10
18.4733902932
 20
310.235876606
 30
0.0
 11
26.7602833131
 21
310.235876606
 31
0.0
  0
LINE
  5
C0
330
1F
100
AcDbEntity
  8
BEZUGSACHSEN
  6
Continuous
 62
     7
100
AcDbLine
 10
65.3256809802
 20
332.9422007797
 30
0.0
 11
64.7064373662
 21
333.108126606
 31
0.0
  0
LINE
  5
C1
330
1F
100
AcDbEntity
  8
0
  6
Continuous
 62
     9
100
AcDbLine
 10
151.2064373662
 20
321.225876606
 30
0.0
 11
151.2064373662
 21
269.225876606
 31
0.0
  0
LINE
  5
C2
330
1F
100
AcDbEntity
  8
0
  6
Continuous
 62
     7
100
AcDbLine
 10
214.1177011805
 20
321.225876606
 30
0.0
 11
151.2064373662
 21
321.225876606
 31
0.0
  0
LINE
  5
C3
330
1F
100
AcDbEntity
  8
BEZUGSACHSEN
  6
Continuous
 62
     7
100
AcDbLine
 10
66.5058660775
 20
332.908126606
 30
0.0
 11
65.5845000253
 21
332.908126606
 31
0.0
  0
LINE
  5
C4
330
1F
100
AcDbEntity
  8
BEZUGSACHSEN
  6
Continuous
 62
     7
100
AcDbLine
 10
64.7064373662
 20
333.108126606
 30
0.0
 11
19.1063628814
 21
330.8235628743
 31
0.0
  0
LINE
  5
C5
330
1F
100
AcDbEntity
  8
BEZUGSACHSEN
  6
Continuous
 62
     7
100
AcDbLine
 10
86.3314373662
 20
341.225876606
 30
0.0
 11
88.0814373662
 21
341.225876606
 31
0.0
  0
LWPOLYLINE
  5
C6
330
1F
100
AcDbEntity
  8
DEFAULT_2
  6
DASHED
 62
     8
100
AcDbPolyline
 90
        2
 70
     0
 43
0.35
 10
172.2064373662
 20
305.225876606
 10
172.2064373662
 20
285.225876606
  0
LINE
  5
C7
330
1F
100
AcDbEntity
  8
BEZUGSACHSEN
  6
Continuous
 62
     7
100
AcDbLine
 10
83.958842102
 20
345.225876606
 30
0.0
 11
79.2064373662
 21
345.225876606
 31
0.0
  0
LINE
  5
C8
330
1F
100
AcDbEntity
  8
BEZUGSACHSEN
  6
Continuous
 62
     7
100
AcDbLine
 10
69.2064373662
 20
345.225876606
 30
0.0
 11
67.2064373662
 21
345.225876606
 31
0.0
  0
LINE
  5
C9
330
1F
100
AcDbEntity
  8
BEZUGSACHSEN
  6
Continuous
 62
     7
100
AcDbLine
 10
90.4540326304
 20
345.225876606
 30
0.0
 11
96.2064373662
 21
345.225876606
 31
0.0
  0
LINE
  5
CA
330
1F
100
AcDbEntity
  8
0
  6
Continuous
 62
     7
100
AcDbLine
 10
214.5403194422
 20
269.319568819
 30
0.0
 11
226.6290556279
 21
274.9566390798
 31
0.0
  0
LINE
  5
CB
330
1F
100
AcDbEntity
  8
RUNDUNGEN
  6
Continuous
 62
     7
100
AcDbLine
 10
226.6290556279
 20
315.4951141322
 30
0.0
 11
214.5403194422
 21
321.132184393
 31
0.0
  0
LINE
  5
CC
330
1F
100
AcDbEntity
  8
0
  6
Continuous
 62
     7
100
AcDbLine
 10
214.5403194422
 20
321.132184393
 30
0.0
 11
226.6290556279
 21
315.4951141322
 31
0.0
  0
LWPOLYLINE
  5
CD
330
1F
100
AcDbEntity
  8
GEWINDE
  6
DASHED
 62
     8
100
AcDbPolyline
 90
        2
 70
     0
 43
0.35
 10
195.2064373662
 20
285.225876606
 10
195.2064373662
 20
269.225876606
  0
LWPOLYLINE
  5
CE
330
1F
100
AcDbEntity
  8
GEWINDE
  6
DOT_CENTER
 62
     7
100
AcDbPolyline
 90
        2
 70
     0
 43
0.25
 10
202.2064373662
 20
266.225876606
 10
202.2064373662
 20
291.084448177
  0
LWPOLYLINE
  5
CF
330
1F
100
AcDbEntity
  8
GEWINDE
  6
DASHED
 62
     8
100
AcDbPolyline
 90
        2
 70
     0
 43
0.35
 10
209.2064373662
 20
285.225876606
 10
209.2064373662
 20
269.225876606
  0
LINE
  5
D0
330
1F
100
AcDbEntity
  8
RUNDUNGEN
  6
Continuous
 62
     9
100
AcDbLine
 10
214.1177011805
 20
269.225876606
 30
0.0
 11
214.1177011805
 21
321.225876606
 31
0.0
  0
LINE
  5
D1
330
1F
100
AcDbEntity
  8
RUNDUNGEN
  6
Continuous
 62
     9
100
AcDbLine
 10
214.5403194422
 20
269.319568819
 30
0.0
 11
214.5403194422
 21
321.132184393
 31
0.0
  0
LINE
  5
D2
330
1F
100
AcDbEntity
  8
RUNDUNGEN
  6
Continuous
 62
     9
100
AcDbLine
 10
226.6290556279
 20
274.9566390798
 30
0.0
 11
226.6290556279
 21
315.4951141322
 31
0.0
  0
LINE
  5
D3
330
1F
100
AcDbEntity
  8
RUNDUNGEN
  6
Continuous
 62
     7
100
AcDbLine
 10
227.2064373662
 20
314.5888063452
 30
0.0
 11
227.2064373662
 21
275.8629468668
 31
0.0
  0
LWPOLYLINE
  5
D4
330
1F
100
AcDbEntity
  8
GEWINDE
  6
DASHED
 62
     8
100
AcDbPolyline
 90
        2
 70
     0
 43
0.35
 10
210.2064373662
 20
285.225876606
 10
210.2064373662
 20
269.225876606
  0
LWPOLYLINE
  5
D5
330
1F
100
AcDbEntity
  8
GEWINDE
  6
DASHED
 62
     8
100
AcDbPolyline
 90
        2
 70
     0
 43
0.35
 10
194.2064373662
 20
285.225876606
 10
194.2064373662
 20
269.225876606
  0
ARC
  5
D6
330
1F
100
AcDbEntity
  8
FASEN
  6
Continuous
 62
     7
100
AcDbCircle
 10
85.107091389
 20
270.757139876
 30
0.0
 40
19.03859487309966
100
AcDbArc
 50
227.4837701982989
 51
228.9651953375289
  0
ARC
  5
D7
330
1F
100
AcDbEntity
  8
FASEN
  6
Continuous
 62
     7
100
AcDbCircle
 10
80.178311288
 20
255.725876606
 30
0.0
 40
7.999999999999972
100
AcDbArc
 50
90.0
 51
172.8323734889969
  0
ARC
  5
D8
330
1F
100
AcDbEntity
  8
FASEN
  6
Continuous
 62
     7
100
AcDbCircle
 10
80.178311288
 20
255.725876606
 30
0.0
 40
7.59998219489998
100
AcDbArc
 50
90.0
 51
174.9405171273015
  0
ARC
  5
D9
330
1F
100
AcDbEntity
  8
BEZUGSACHSEN
  6
Continuous
 62
     7
100
AcDbCircle
 10
25.2064373662
 20
287.215876606
 30
0.0
 40
2.0
100
AcDbArc
 50
270.0
 51
355.2355361864949
  0
ARC
  5
DA
330
1F
100
AcDbEntity
  8
BEZUGSACHSEN
  6
Continuous
 62
     7
100
AcDbCircle
 10
19.2064373662
 20
261.6256850429
 30
0.0
 40
2.0
100
AcDbArc
 50
179.9999999971356
 51
267.1318795106973
  0
ARC
  5
DB
330
1F
100
AcDbEntity
  8
BEZUGSACHSEN
  6
Continuous
 62
     7
100
AcDbCircle
 10
86.3314373662
 20
248.225876606
 30
0.0
 40
1.0
100
AcDbArc
 50
90.0
 51
180.0
  0
ARC
  5
DC
330
1F
100
AcDbEntity
  8
BEZUGSACHSEN
  6
Continuous
 62
     7
100
AcDbCircle
 10
65.5845000253
 20
256.543626606
 30
0.0
 40
1.0
100
AcDbArc
 50
90.0
 51
104.9999999996981
  0
ARC
  5
DD
330
1F
100
AcDbEntity
  8
BEZUGSACHSEN
  6
Continuous
 62
     7
100
AcDbCircle
 10
66.5058660775
 20
256.543626606
 30
0.0
 40
0.9999999999998533
100
AcDbArc
 50
45.49026120128917
 51
90.0
  0
ARC
  5
DE
330
1F
100
AcDbEntity
  8
0
  6
Continuous
 62
     7
100
AcDbCircle
 10
-157.391342517
 20
364.6603441967
 30
0.0
 40
264.5204223909507
100
AcDbArc
 50
335.8400764706018
 51
336.5770705490999
  0
ARC
  5
DF
330
1F
100
AcDbEntity
  8
BEZUGSACHSEN
  6
Continuous
 62
     7
100
AcDbCircle
 10
74.2216453773
 20
395.2786463728
 30
0.0
 40
50.30340021035248
100
AcDbArc
 50
264.2781515101899
 51
269.9826780126
  0
ARC
  5
E0
330
1F
100
AcDbEntity
  8
BEZUGSACHSEN
  6
Continuous
 62
     7
100
AcDbCircle
 10
74.1912293651
 20
395.2786461721
 30
0.0
 40
50.30340000959742
100
AcDbArc
 50
270.0173219760581
 51
275.7218485012678
  0
ARC
  5
E1
330
1F
100
AcDbEntity
  8
0
  6
Continuous
 62
     7
100
AcDbCircle
 10
82.2064373662
 20
295.225876606
 30
0.0
 40
10.0
100
AcDbArc
 50
90.0
 51
270.0
  0
ARC
  5
E2
330
1F
100
AcDbEntity
  8
FASEN
  6
Continuous
 62
     7
100
AcDbCircle
 10
82.2064373662
 20
295.225876606
 30
0.0
 40
9.599999195900011
100
AcDbArc
 50
90.0
 51
270.0
  0
ARC
  5
E3
330
1F
100
AcDbEntity
  8
BEZUGSACHSEN
  6
Continuous
 62
     7
100
AcDbCircle
 10
25.2064373662
 20
303.235876606
 30
0.0
 40
1.999999999999988
100
AcDbArc
 50
4.76446378498878
 51
90.0
  0
ARC
  5
E4
330
1F
100
AcDbEntity
  8
BEZUGSACHSEN
  6
Continuous
 62
     7
100
AcDbCircle
 10
19.2064373662
 20
328.8260681691
 30
0.0
 40
1.999999999952545
100
AcDbArc
 50
92.86812048930265
 51
180.0000000143238
  0
ARC
  5
E5
330
1F
100
AcDbEntity
  8
BEZUGSACHSEN
  6
Continuous
 62
     7
100
AcDbCircle
 10
86.3314373662
 20
342.225876606
 30
0.0
 40
1.0
100
AcDbArc
 50
180.0
 51
270.0
  0
ARC
  5
E6
330
1F
100
AcDbEntity
  8
BEZUGSACHSEN
  6
Continuous
 62
     7
100
AcDbCircle
 10
65.5845000253
 20
333.908126606
 30
0.0
 40
1.000000000009914
100
AcDbArc
 50
255.0000000003019
 51
270.0
  0
ARC
  5
E7
330
1F
100
AcDbEntity
  8
BEZUGSACHSEN
  6
Continuous
 62
     7
100
AcDbCircle
 10
66.5058660775
 20
333.908126606
 30
0.0
 40
1.0
100
AcDbArc
 50
270.0
 51
314.5097387987131
  0
ARC
  5
E8
330
1F
100
AcDbEntity
  8
BEZUGSACHSEN
  6
Continuous
 62
     7
100
AcDbCircle
 10
203.5364839644
 20
-1310.816882684
 30
0.0
 40
1632.172763698
100
AcDbArc
 50
96.2726189838
 51
96.48809068979999
  0
ARC
  5
E9
330
1F
100
AcDbEntity
  8
0
  6
Continuous
 62
     7
100
AcDbCircle
 10
151.2064373662
 20
-80.774123394
 30
0.0
 40
350.0
100
AcDbArc
 50
90.0
 51
98.33308299629759
  0
ARC
  5
EA
330
1F
100
AcDbEntity
  8
RUNDUNGEN
  6
Continuous
 62
     7
100
AcDbCircle
 10
151.2064373662
 20
-80.774123394
 30
0.0
 40
350.0
100
AcDbArc
 50
90.0
 51
98.33308299629759
  0
ARC
  5
EB
330
1F
100
AcDbEntity
  8
RUNDUNGEN
  6
Continuous
 62
     7
100
AcDbCircle
 10
101.2064373662
 20
260.58346038
 30
0.0
 40
4.999999999963348
100
AcDbArc
 50
98.33308299682241
 51
180.0
  0
ARC
  5
EC
330
1F
100
AcDbEntity
  8
RUNDUNGEN
  6
Continuous
 62
     7
100
AcDbCircle
 10
226.2064373662
 20
275.8629468668
 30
0.0
 40
0.9999999999495325
100
AcDbArc
 50
294.9999999987751
 51
0.0
  0
ARC
  5
ED
330
1F
100
AcDbEntity
  8
BEZUGSACHSEN
  6
Continuous
 62
     7
100
AcDbCircle
 10
88.0814373662
 20
248.225876606
 30
0.0
 40
1.0
100
AcDbArc
 50
0.0
 51
90.0
  0
ARC
  5
EE
330
1F
100
AcDbEntity
  8
RUNDUNGEN
  6
Continuous
 62
     7
100
AcDbCircle
 10
214.1177011805
 20
270.225876606
 30
0.0
 40
1.0
100
AcDbArc
 50
270.0
 51
294.9999999987737
  0
ARC
  5
EF
330
1F
100
AcDbEntity
  8
BEZUGSACHSEN
  6
Continuous
 62
     7
100
AcDbCircle
 10
203.5364839697
 20
1901.2686359432
 30
0.0
 40
1632.1727637455
100
AcDbArc
 50
263.5119093102
 51
263.7273810162
  0
ARC
  5
F0
330
1F
100
AcDbEntity
  8
0
  6
Continuous
 62
     7
100
AcDbCircle
 10
151.2064373662
 20
671.225876606
 30
0.0
 40
349.9999999999973
100
AcDbArc
 50
261.6669170037024
 51
270.0
  0
ARC
  5
F1
330
1F
100
AcDbEntity
  8
RUNDUNGEN
  6
Continuous
 62
     7
100
AcDbCircle
 10
151.2064373662
 20
671.225876606
 30
0.0
 40
349.9999999999973
100
AcDbArc
 50
261.6669170037024
 51
270.0
  0
ARC
  5
F2
330
1F
100
AcDbEntity
  8
0
  6
Continuous
 62
     7
100
AcDbCircle
 10
331.804217249
 20
364.6603441965
 30
0.0
 40
264.5204223905999
100
AcDbArc
 50
203.4229294508999
 51
204.1599235293941
  0
ARC
  5
F3
330
1F
100
AcDbEntity
  8
RUNDUNGEN
  6
Continuous
 62
     7
100
AcDbCircle
 10
101.2064373662
 20
329.868292832
 30
0.0
 40
5.0
100
AcDbArc
 50
180.0
 51
261.6669170031776
  0
ARC
  5
F4
330
1F
100
AcDbEntity
  8
RUNDUNGEN
  6
Continuous
 62
     7
100
AcDbCircle
 10
226.2064373662
 20
314.5888063452
 30
0.0
 40
1.0
100
AcDbArc
 50
0.0
 51
65.00000000122631
  0
ARC
  5
F5
330
1F
100
AcDbEntity
  8
BEZUGSACHSEN
  6
Continuous
 62
     7
100
AcDbCircle
 10
88.0814373662
 20
342.225876606
 30
0.0
 40
1.0
100
AcDbArc
 50
270.0
 51
0.0
  0
ARC
  5
F6
330
1F
100
AcDbEntity
  8
RUNDUNGEN
  6
Continuous
 62
     7
100
AcDbCircle
 10
214.1177011805
 20
320.225876606
 30
0.0
 40
0.999999999949584
100
AcDbArc
 50
65.00000000122631
 51
90.0
  0
CIRCLE
  5
F7
330
1F
100
AcDbEntity
  8
BEZUGSACHSEN
  6
Continuous
 62
     7
100
AcDbCircle
 10
52.2064373662
 20
295.225876606
 30
0.0
 40
6.0
  0
SPLINE
  5
F8
330
1F
100
AcDbEntity
  8
0
  6
Continuous
 62
     2
100
AcDbSpline
210
0.0
220
0.0
230
1.0
 70
     8
 71
     3
 72
    65
 73
    61
 74
    59
 42
0.0000000001
 43
0.0000000001
 44
0.00000001
 40
0.0
 40
0.0
 40
0.0
 40
0.0
 40
0.0118499163812393
 40
0.0474409069314596
 40
0.1067998740856969
 40
0.1898138277223142
 40
0.2963554462132337
 40
0.4263789081011546
 40
0.5797845251701814
 40
0.7561718922804254
 40
0.9551048524181406
 40
1.176297552232751
 40
1.419337017561454
 40
1.683138311180408
 40
1.966549821391629
 40
2.268806316040938
 40
2.589015938805291
 40
2.925367643396013
 40
3.276031591235481
 40
3.639991934908681
 40
4.016191036842461
 40
4.402556064261214
 40
4.79708594058783
 40
5.199050723390644
 40
5.607765380709813
 40
6.02142450270201
 40
6.438322929944326
 40
6.858255961048974
 40
7.281065282382279
 40
7.705262320431109
 40
8.129402868677715
 40
8.553543496218227
 40
8.9777406548904
 40
9.400549548887858
 40
9.820481240012963
 40
10.2373784273948
 40
10.65103725873206
 40
11.05975138748659
 40
11.46171434366529
 40
11.85624258218857
 40
12.24260754768959
 40
12.61880660237285
 40
12.98276542590842
 40
13.33342813618093
 40
13.66978058254608
 40
13.98999114512916
 40
14.29224695665453
 40
14.57565765753613
 40
14.83945959177154
 40
15.08249972541692
 40
15.30369161752934
 40
15.50262346144391
 40
15.67901073144796
 40
15.83241656868376
 40
15.96243966452196
 40
16.06898064918886
 40
16.15199412263454
 40
16.211352375246
 40
16.24694214823417
 40
16.25879136129802
 40
16.25879136129802
 40
16.25879136129802
 40
16.25879136129802
 10
210.2064373662
 20
269.2258661084
 30
0.0
 10
210.2026626097791
 20
269.2270295066238
 30
0.0
 10
210.1875504467657
 20
269.2316871485077
 30
0.0
 10
210.1535140929548
 20
269.2421219324208
 30
0.0
 10
210.0967777120764
 20
269.2594425401551
 30
0.0
 10
210.0173626362159
 20
269.2834744750546
 30
0.0
 10
209.9153189381112
 20
269.3140519921208
 30
0.0
 10
209.7906576437248
 20
269.3508910613485
 30
0.0
 10
209.6434820936074
 20
269.3936916142401
 30
0.0
 10
209.4739936339357
 20
269.4420157373655
 30
0.0
 10
209.2824569769491
 20
269.4954073357772
 30
0.0
 10
209.0691170394378
 20
269.5533059448769
 30
0.0
 10
208.834436528844
 20
269.6151025384347
 30
0.0
 10
208.5791468184376
 20
269.6800461903265
 30
0.0
 10
208.3040995403955
 20
269.7473441174171
 30
0.0
 10
208.0100831199296
 20
269.8161700525213
 30
0.0
 10
207.6981170027912
 20
269.8856631900799
 30
0.0
 10
207.3695854397816
 20
269.9549078918367
 30
0.0
 10
207.0259219987399
 20
270.0229505431839
 30
0.0
 10
206.6683414295978
 20
270.0889401073472
 30
0.0
 10
206.2981605649745
 20
270.1520397373969
 30
0.0
 10
205.917057002558
 20
270.2114820869376
 30
0.0
 10
205.5266085967744
 20
270.2664705071857
 30
0.0
 10
205.1279709108996
 20
270.3164025941917
 30
0.0
 10
204.7222554835097
 20
270.3607320065782
 30
0.0
 10
204.3109261701525
 20
270.3990349147966
 30
0.0
 10
203.895292213413
 20
270.4308445780391
 30
0.0
 10
203.4761385632774
 20
270.4558723289725
 30
0.0
 10
203.054190136721
 20
270.4738984969426
 30
0.0
 10
202.6305947983207
 20
270.4848208439117
 30
0.0
 10
202.2064301399789
 20
270.4884733581922
 30
0.0
 10
201.7822654434032
 20
270.4848205995138
 30
0.0
 10
201.3586701876353
 20
270.4738979886407
 30
0.0
 10
200.9367223197392
 20
270.455871610856
 30
0.0
 10
200.5175696820659
 20
270.4308437221462
 30
0.0
 10
200.101936696495
 20
270.3990339066046
 30
0.0
 10
199.6906080873326
 20
270.3607308416774
 30
0.0
 10
199.2848935527598
 20
270.3164013815398
 30
0.0
 10
198.8862572015036
 20
270.2664693483033
 30
0.0
 10
198.4958099817756
 20
270.211480934151
 30
0.0
 10
198.114707017586
 20
270.1520385297438
 30
0.0
 10
197.7445266989722
 20
270.0889389304339
 30
0.0
 10
197.3869470572783
 20
270.022949491925
 30
0.0
 10
197.0432842952611
 20
269.9549068700749
 30
0.0
 10
196.7147526069842
 20
269.885662045932
 30
0.0
 10
196.4027861708367
 20
269.8161688103493
 30
0.0
 10
196.1087699365769
 20
269.747342887359
 30
0.0
 10
195.8337229527839
 20
269.6800449520393
 30
0.0
 10
195.5784330973146
 20
269.6151011953097
 30
0.0
 10
195.3437524306933
 20
269.5533045383759
 30
0.0
 10
195.1304129033733
 20
269.4954060155935
 30
0.0
 10
194.9388769075883
 20
269.4420145540315
 30
0.0
 10
194.7693887745451
 20
269.3936904928598
 30
0.0
 10
194.6222133048925
 20
269.3508899533576
 30
0.0
 10
194.4975522640614
 20
269.3140509431435
 30
0.0
 10
194.3955090433444
 20
269.2834735517487
 30
0.0
 10
194.3160945495872
 20
269.2594417976733
 30
0.0
 10
194.2593589381095
 20
269.2421214235864
 30
0.0
 10
194.2253234340045
 20
269.2316868650163
 30
0.0
 10
194.2102118954434
 20
269.2270293709557
 30
0.0
 10
194.2064373662
 20
269.2258660316
 30
0.0
 11
210.2064373662
 21
269.2258661084
 31
0.0
 11
210.1951126655798
 21
269.2293549010429
 31
0.0
 11
210.1610872354386
 21
269.2397946669433
 31
0.0
 11
210.1043132489982
 21
269.2571209892673
 31
0.0
 11
210.0248595420516
 21
269.2811714560159
 31
0.0
 11
209.9227994879456
 21
269.3117469662577
 31
0.0
 11
209.7981079495131
 21
269.3485996579457
 31
0.0
 11
209.6508033183698
 21
269.3914322272367
 31
0.0
 11
209.4811766104655
 21
269.4397983645814
 31
0.0
 11
209.2895473841019
 21
269.493207747956
 31
0.0
 11
209.07607674055
 21
269.5511430117666
 31
0.0
 11
208.8410475116844
 21
269.6130255075639
 31
0.0
 11
208.5853879088252
 21
269.6780584990445
 31
0.0
 11
208.3100945939221
 21
269.7454059183704
 31
0.0
 11
208.0157926519977
 21
269.8142924594161
 31
0.0
 11
207.703242660699
 21
269.8839107432936
 31
0.0
 11
207.3741187505942
 21
269.9532643371327
 31
0.0
 11
207.0301298911762
 21
270.0213588957308
 31
0.0
 11
206.6722108537534
 21
270.0873974785217
 31
0.0
 11
206.3013603995171
 21
270.1506090667672
 31
0.0
 11
205.9196074416833
 21
270.2101289256166
 31
0.0
 11
205.5289311213832
 21
270.2651365257379
 31
0.0
 11
205.1300813393822
 21
270.3150818759866
 31
0.0
 11
204.723784916114
 21
270.359476555251
 31
0.0
 11
204.3119055910492
 21
270.3978078843633
 31
0.0
 11
203.896221968348
 21
270.4296107844691
 31
0.0
 11
203.477035199135
 21
270.4546348354895
 31
0.0
 11
203.0546115277565
 21
270.4726893104328
 31
0.0
 11
202.6305550242799
 21
270.483607595488
 31
0.0
 11
202.2064301667396
 21
270.4872558667699
 31
0.0
 11
201.7823052320368
 21
270.4836073473714
 31
0.0
 11
201.3582486146163
 21
270.472688801339
 31
0.0
 11
200.9358253802317
 21
270.4546341095561
 31
0.0
 11
200.5166399611145
 21
270.4296099290357
 31
0.0
 11
200.1009575913841
 21
270.39780690493
 31
0.0
 11
199.6890785750422
 21
270.3594753951697
 31
0.0
 11
199.2827826939344
 21
270.3150806202699
 31
0.0
 11
198.8839347402314
 21
270.2651353705775
 31
0.0
 11
198.4932600623167
 21
270.21012785265
 31
0.0
 11
198.1115071860287
 21
270.1506078727069
 31
0.0
 11
197.7406567908133
 21
270.0873962194051
 31
0.0
 11
197.3827392590343
 21
270.0213578542329
 31
0.0
 11
197.0387516311225
 21
269.9532634475661
 31
0.0
 11
196.709627011951
 21
269.8839096212041
 31
0.0
 11
196.3970761117856
 21
269.8142910949661
 31
0.0
 11
196.1027748441987
 21
269.7454046703411
 31
0.0
 11
195.8274823315581
 21
269.6780573774612
 31
0.0
 11
195.571822122278
 21
269.6130241713493
 31
0.0
 11
195.3367922546666
 21
269.5511414767333
 31
0.0
 11
195.1233223982814
 21
269.4932063962456
 31
0.0
 11
194.9316942577845
 21
269.4397972744315
 31
0.0
 11
194.7620676508573
 21
269.3914311370846
 31
0.0
 11
194.6147628121536
 21
269.3485984930791
 31
0.0
 11
194.4900716291336
 21
269.3117458903431
 31
0.0
 11
194.3880121856151
 21
269.2811705505659
 31
0.0
 11
194.308558938081
 21
269.2571202235454
 31
0.0
 11
194.2517856386281
 21
269.2397940981183
 31
0.0
 11
194.217761385766
 21
269.229354646096
 31
0.0
 11
194.2064373662
 21
269.2258660316
 31
0.0
  0
SPLINE
  5
F9
330
1F
100
AcDbEntity
  8
GEWINDE
  6
Continuous
 62
     7
100
AcDbSpline
210
0.0
220
0.0
230
1.0
 70
     8
 71
     3
 72
    23
 73
    19
 74
    17
 42
0.0000000001
 43
0.0000000001
 44
0.00000001
 40
0.0
 40
0.0
 40
0.0
 40
0.0
 40
0.2768919866665904
 40
0.553794828532943
 40
1.329527922546874
 40
2.105313020367368
 40
3.24991997824326
 40
4.394609185772347
 40
5.740101913402557
 40
7.085629101626321
 40
8.431156699137322
 40
9.776649837857772
 40
10.92134417166047
 40
12.06595625560131
 40
12.84174989141203
 40
13.61749152228749
 40
13.89439769406194
 40
14.17129300991722
 40
14.17129300991722
 40
14.17129300991722
 40
14.17129300991722
 10
195.2064373662
 20
269.225876606
 30
0.0
 10
195.2956232025122
 20
269.2496424882775
 30
0.0
 10
195.4739983715544
 20
269.2971751845438
 30
0.0
 10
195.9035048733917
 20
269.4064216809755
 30
0.0
 10
196.4966833055208
 20
269.5467422815267
 30
0.0
 10
197.376609253939
 20
269.730006799211
 30
0.0
 10
198.3836979508065
 20
269.904001093373
 30
0.0
 10
199.5856794464513
 20
270.0592304911226
 30
0.0
 10
200.8607516496959
 20
270.1616272610685
 30
0.0
 10
202.2064200869883
 20
270.1980488719661
 30
0.0
 10
203.5520887102646
 20
270.1616290474634
 30
0.0
 10
204.8271630255922
 20
270.0592338113217
 30
0.0
 10
206.0291482444387
 20
269.9040054548285
 30
0.0
 10
207.0362432970596
 20
269.7300111264115
 30
0.0
 10
207.916176624848
 20
269.5467457273241
 30
0.0
 10
208.5093617271637
 20
269.4064237651482
 30
0.0
 10
208.9388731491979
 20
269.2971760628973
 30
0.0
 10
209.1172504594158
 20
269.2496427810413
 30
0.0
 10
209.2064373662
 20
269.225876606
 30
0.0
 11
195.2064373662
 21
269.225876606
 31
0.0
 11
195.4741271935349
 21
269.296667344247
 31
0.0
 11
195.7424565579239
 21
269.3650379230093
 31
0.0
 11
196.4974210967119
 21
269.5433364881214
 31
0.0
 11
197.2569279468977
 21
269.7014246360679
 31
0.0
 11
198.3848840320893
 21
269.8959501045733
 31
0.0
 11
199.5201882034263
 21
270.0422300429735
 31
0.0
 11
200.8613790474316
 21
270.1497372523224
 31
0.0
 11
202.2064199587002
 21
270.1859085290923
 31
0.0
 11
203.5514613273069
 21
270.1497390336519
 31
0.0
 11
204.8926527240501
 21
270.0422335749734
 31
0.0
 11
206.0279621607427
 21
269.8959543871275
 31
0.0
 11
207.1559234955283
 21
269.7014291961313
 31
0.0
 11
207.9154388171844
 21
269.5433398494505
 31
0.0
 11
208.6704117262421
 21
269.3650395845537
 31
0.0
 11
208.9387443237776
 21
269.2966682084767
 31
0.0
 11
209.2064373662
 21
269.225876606
 31
0.0
  0
SPLINE
  5
FA
330
1F
100
AcDbEntity
  8
BEZUGSACHSEN
  6
Continuous
 62
     7
100
AcDbSpline
210
0.0
220
0.0
230
1.0
 70
     8
 71
     3
 72
    47
 73
    43
 74
    41
 42
0.0000000001
 43
0.0000000001
 44
0.00000001
 40
0.0
 40
0.0
 40
0.0
 40
0.0
 40
0.636602243145918
 40
1.27359500207853
 40
1.592921746291858
 40
1.912076344779817
 40
2.231392290329463
 40
2.550826842654488
 40
3.189774321093769
 40
3.829081696924943
 40
4.46833715242363
 40
5.107221744680267
 40
5.426176341167102
 40
5.745033356713285
 40
6.063356731492068
 40
6.381780214805167
 40
7.017059195598202
 40
7.652639340914329
 40
8.287532214153964
 40
8.922347946415895
 40
9.559226748500231
 40
10.19613435929898
 40
10.83451785496145
 40
11.47287689967194
 40
12.11234487359341
 40
12.7518958894418
 40
13.39354300517168
 40
14.03487957353886
 40
14.35615205769537
 40
14.67732107709391
 40
14.9984088246951
 40
15.31959604118569
 40
15.96011121024048
 40
16.60099592086436
 40
17.23809108076362
 40
17.87482555200204
 40
18.19205670334041
 40
18.50917199101674
 40
18.82571084628232
 40
19.14241581824809
 40
19.77338974992099
 40
20.40398930739159
 40
20.40398930739159
 40
20.40398930739159
 40
20.40398930739159
 10
45.7070217719
 20
295.2258765866
 30
0.0
 10
45.71302741578628
 20
295.4381563962831
 30
0.0
 10
45.72504238764692
 20
295.8628462360779
 30
0.0
 10
45.80630773283775
 20
296.3889889971587
 30
0.0
 10
45.89902732939711
 20
296.8039633732689
 30
0.0
 10
45.98432029351386
 20
297.1117873489694
 30
0.0
 10
46.08455890694216
 20
297.4150800257646
 30
0.0
 10
46.23804445609746
 20
297.8125173883209
 30
0.0
 10
46.46651640290315
 20
298.2946169652003
 30
0.0
 10
46.79613136348693
 20
298.8434328380209
 30
0.0
 10
47.17835858055293
 20
299.356968377372
 30
0.0
 10
47.5372132776522
 20
299.751471139464
 30
0.0
 10
47.84616663120975
 20
300.0443444375076
 30
0.0
 10
48.08806174018367
 20
300.2520662586216
 30
0.0
 10
48.33970499366923
 20
300.4475756557541
 30
0.0
 10
48.68699910082599
 20
300.691070858429
 30
0.0
 10
49.14273943558648
 20
300.9629529284736
 30
0.0
 10
49.71821886027621
 20
301.2342820409892
 30
0.0
 10
50.31732962543888
 20
301.4480656718031
 30
0.0
 10
50.93478002790173
 20
301.602755403175
 30
0.0
 10
51.56505058960119
 20
301.6965623868265
 30
0.0
 10
52.20264452433157
 20
301.7286891116323
 30
0.0
 10
52.84082316856424
 20
301.6982595386829
 30
0.0
 10
53.4738355897582
 20
301.6055882835186
 30
0.0
 10
54.09506927419744
 20
301.4510963222906
 30
0.0
 10
54.69920502617812
 20
301.2360591897497
 30
0.0
 10
55.27968409975813
 20
300.9621358240198
 30
0.0
 10
55.73931312398379
 20
300.6869689459598
 30
0.0
 10
56.08921211264728
 20
300.4403592471025
 30
0.0
 10
56.34234374179643
 20
300.2424550547316
 30
0.0
 10
56.58534238115067
 20
300.0322765253298
 30
0.0
 10
56.8945867246553
 20
299.7367571851748
 30
0.0
 10
57.25290691545005
 20
299.3392862024114
 30
0.0
 10
57.63285733377866
 20
298.823619440857
 30
0.0
 10
57.95933036335189
 20
298.2740232843753
 30
0.0
 10
58.18470150333331
 20
297.7929177426649
 30
0.0
 10
58.3357924865241
 20
297.3969275550525
 30
0.0
 10
58.43420540410093
 20
297.0955012042714
 30
0.0
 10
58.5178721822823
 20
296.789805836354
 30
0.0
 10
58.60869153971653
 20
296.3782538186371
 30
0.0
 10
58.6882065153221
 20
295.8568286021093
 30
0.0
 10
58.69997879998958
 20
295.4361523129545
 30
0.0
 10
58.7058631956
 20
295.2258765866
 30
0.0
 11
45.7070217719
 21
295.2258765866
 31
0.0
 11
45.73827044293565
 21
295.8617114209217
 31
0.0
 11
45.83171164528018
 21
296.4918134099973
 31
0.0
 11
45.90165215228593
 21
296.8033866679153
 31
0.0
 11
45.98679349123651
 21
297.1109750456829
 31
0.0
 11
46.08701802936433
 21
297.4141543903609
 31
0.0
 11
46.20209791912066
 21
297.7121393768833
 31
0.0
 11
46.47569381339664
 21
298.2895466567467
 31
0.0
 11
46.80491332709644
 21
298.8375689488037
 31
0.0
 11
47.18653758242214
 21
299.3504144081108
 31
0.0
 11
47.61647221851928
 21
299.8229921592872
 31
0.0
 11
47.84794447957459
 21
300.0424292276736
 31
0.0
 11
48.08984688060103
 21
300.2501622889341
 31
0.0
 11
48.34122068775552
 21
300.44545944715
 31
0.0
 11
48.60194996604744
 21
300.6282537527687
 31
0.0
 11
49.14748361025726
 21
300.9537878162284
 31
0.0
 11
49.72239343037597
 21
301.2247874838503
 31
0.0
 11
50.32033961812286
 21
301.4382103435665
 31
0.0
 11
50.93613215034633
 21
301.5924522677799
 31
0.0
 11
51.56606443232398
 21
301.6862602027684
 31
0.0
 11
52.20216755406164
 21
301.7182621278507
 31
0.0
 11
52.83982851308037
 21
301.6878978580991
 31
0.0
 11
53.47144604599093
 21
301.5953691485886
 31
0.0
 11
54.09201891811583
 21
301.441068791966
 31
0.0
 11
54.69451972526963
 21
301.226550076578
 31
0.0
 11
55.27482692165079
 21
300.9527717374919
 31
0.0
 11
55.8250519096988
 21
300.6232796185383
 31
0.0
 11
56.08765921384625
 21
300.4382028428896
 31
0.0
 11
56.34067967123811
 21
300.2403893267623
 31
0.0
 11
56.58352797260242
 21
300.0303368471672
 31
0.0
 11
56.81573040800945
 21
299.8084286295906
 31
0.0
 11
57.24464646574119
 21
299.3327284117967
 31
0.0
 11
57.62475712439665
 21
298.8167350983827
 31
0.0
 11
57.95019627008686
 21
298.2690311589962
 31
0.0
 11
58.22027712821171
 21
297.6924142004025
 31
0.0
 11
58.33336757341873
 21
297.3960256807491
 31
0.0
 11
58.43181167678256
 21
297.0945777346773
 31
0.0
 11
58.51529448216768
 21
296.7892460001689
 31
0.0
 11
58.58384390560348
 21
296.4800486266121
 31
0.0
 11
58.67527098348777
 21
295.8557336485118
 31
0.0
 11
58.7058631956
 21
295.2258765866
 31
0.0
  0
SPLINE
  5
FB
330
1F
100
AcDbEntity
  8
BEZUGSACHSEN
  6
Continuous
 62
     7
100
AcDbSpline
210
0.0
220
0.0
230
1.0
 70
     8
 71
     3
 72
    47
 73
    43
 74
    41
 42
0.0000000001
 43
0.0000000001
 44
0.00000001
 40
0.0
 40
0.0
 40
0.0
 40
0.0
 40
0.630239321446331
 40
1.260854867307796
 40
1.577476088402675
 40
1.893930800244034
 40
2.210999113893792
 40
2.528183472228188
 40
3.16488703824087
 40
3.801951183369095
 40
4.442851001612936
 40
5.083381259794445
 40
5.404527292302636
 40
5.725573838736415
 40
6.046670710016073
 40
6.367871027153751
 40
7.009090242549579
 40
7.65061976394488
 40
8.29033034646611
 40
8.929958764452326
 40
9.56864701134159
 40
10.20735923014606
 40
10.84445705816299
 40
11.48152626494848
 40
12.11643462220725
 40
12.75141965577443
 40
13.38691908735784
 40
14.02211738528038
 40
14.34050449138465
 40
14.65879153786926
 40
14.97761586864536
 40
15.29653774943027
 40
15.93537694102295
 40
16.57458694069854
 40
17.21386274993742
 40
17.85277859075661
 40
18.17219860084117
 40
18.49150024077975
 40
18.8106715663669
 40
19.13001452422144
 40
19.76719627025594
 40
20.4039896828447
 40
20.4039896828447
 40
20.4039896828447
 40
20.4039896828447
 10
58.705851004
 20
295.2258766247
 30
0.0
 10
58.69998180225578
 20
295.0157206028144
 30
0.0
 10
58.6882398951189
 20
294.5952831053881
 30
0.0
 10
58.60879315253502
 20
294.074119663136
 30
0.0
 10
58.5180616474331
 20
293.6627281957087
 30
0.0
 10
58.43445626511387
 20
293.3570903554074
 30
0.0
 10
58.33610432373844
 20
293.0557065092123
 30
0.0
 10
58.18508551289144
 20
292.6597333296247
 30
0.0
 10
57.95980292531615
 20
292.1786265209494
 30
0.0
 10
57.63342489058613
 20
291.6289922959469
 30
0.0
 10
57.25355782854288
 20
291.1132644332804
 30
0.0
 10
56.89530338924455
 20
290.7157390310762
 30
0.0
 10
56.58612265155706
 20
290.4201856761609
 30
0.0
 10
56.34319769552079
 20
290.2100007677407
 30
0.0
 10
56.09014879219897
 20
290.0120913034112
 30
0.0
 10
55.74036628374438
 20
289.7654679519166
 30
0.0
 10
55.28088104599351
 20
289.4902613426223
 30
0.0
 10
54.70048533903233
 20
289.2162212359195
 30
0.0
 10
54.09633103119639
 20
289.0010327585981
 30
0.0
 10
53.47491588378991
 20
288.846370919583
 30
0.0
 10
52.84164667235227
 20
288.7535605465274
 30
0.0
 10
52.20318720791141
 20
288.7230497966818
 30
0.0
 10
51.56535419435492
 20
288.755151539051
 30
0.0
 10
50.93492420736205
 20
288.8489646014277
 30
0.0
 10
50.31735053786498
 20
289.0036784177167
 30
0.0
 10
49.71820712643331
 20
289.2174749897899
 30
0.0
 10
49.14274990497555
 20
289.4887963582419
 30
0.0
 10
48.68706451203918
 20
289.7606412418902
 30
0.0
 10
48.33980861431816
 20
290.0041017944901
 30
0.0
 10
48.08818903302701
 20
290.1995843208146
 30
0.0
 10
47.84631398273941
 20
290.4072773794994
 30
0.0
 10
47.53737769902148
 20
290.700114927623
 30
0.0
 10
47.17853494211126
 20
291.0945725765753
 30
0.0
 10
46.7963080368699
 20
291.6080572425469
 30
0.0
 10
46.46668359160626
 20
292.1568250212626
 30
0.0
 10
46.23819614570279
 20
292.638888437759
 30
0.0
 10
46.0846946457824
 20
293.0362979969409
 30
0.0
 10
45.98443784288688
 20
293.3395803602347
 30
0.0
 10
45.89912134997144
 20
293.6474042319369
 30
0.0
 10
45.80635889460142
 20
294.0624450990436
 30
0.0
 10
45.72506652765175
 20
294.5887178981328
 30
0.0
 10
45.7130267280923
 20
295.0135335478507
 30
0.0
 10
45.7070086633
 20
295.2258766265
 30
0.0
 11
58.705851004
 21
295.2258766247
 31
0.0
 11
58.67531142527462
 21
294.596377668046
 31
0.0
 11
58.58398014971877
 21
293.9724108702214
 31
0.0
 11
58.51548541100357
 21
293.6632871596848
 31
0.0
 11
58.43206658614123
 21
293.3580251667915
 31
0.0
 11
58.33367984229201
 21
293.0566079075719
 31
0.0
 11
58.22064921119369
 21
292.7602466523351
 31
0.0
 11
57.95066907471296
 21
292.1836166523532
 31
0.0
 11
57.62533245288139
 21
291.6358878805116
 31
0.0
 11
57.24529595806787
 21
291.1198211797501
 31
0.0
 11
56.81644546037543
 21
290.644041543495
 31
0.0
 11
56.58430832599954
 21
290.4221246107488
 31
0.0
 11
56.34152583266236
 21
290.2120590354966
 31
0.0
 11
56.08859622436403
 21
290.0142464626109
 31
0.0
 11
55.82608182852969
 21
289.8291631416199
 31
0.0
 11
55.27602364693088
 21
289.4996209151161
 31
0.0
 11
54.69588281527988
 21
289.2257655841967
 31
0.0
 11
54.09327750498833
 21
289.0110647006446
 31
0.0
 11
53.47257823466703
 21
288.856607816958
 31
0.0
 11
52.84064942074465
 21
288.7639328427248
 31
0.0
 11
52.20266329356347
 21
288.7334861684485
 31
0.0
 11
51.5663683054386
 21
288.7654600726685
 31
0.0
 11
50.93624503133093
 21
288.8592781608078
 31
0.0
 11
50.32036112308949
 21
289.0135364950601
 31
0.0
 11
49.72232865327052
 21
289.2269917781911
 31
0.0
 11
49.14749290472795
 21
289.4979592849891
 31
0.0
 11
48.60202621721566
 21
289.8234481027664
 31
0.0
 11
48.34132392446585
 21
290.006217530977
 31
0.0
 11
48.08997467267216
 21
290.2014870820664
 31
0.0
 11
47.84809137430807
 21
290.4091922189007
 31
0.0
 11
47.6166355429808
 21
290.6285990651658
 31
0.0
 11
47.18671251207137
 21
291.1011259958358
 31
0.0
 11
46.8050913726094
 21
291.6139171127645
 31
0.0
 11
46.47585989843452
 21
292.1618953939862
 31
0.0
 11
46.20224559131965
 21
292.7392589385504
 31
0.0
 11
46.08715333888834
 21
293.0372235610691
 31
0.0
 11
45.98691365048698
 21
293.3403828296667
 31
0.0
 11
45.90174657027927
 21
293.6479814374756
 31
0.0
 11
45.8317835427974
 21
293.959566256613
 31
0.0
 11
45.7382946458044
 21
294.5898522263272
 31
0.0
 11
45.7070086633
 21
295.2258766265
 31
0.0
  0
SPLINE
  5
FC
330
1F
100
AcDbEntity
  8
BEZUGSACHSEN
  6
Continuous
 62
     7
100
AcDbSpline
210
0.0
220
0.0
230
1.0
 70
     8
 71
     3
 72
    27
 73
    23
 74
    21
 42
0.0000000001
 43
0.0000000001
 44
0.00000001
 40
0.0
 40
0.0
 40
0.0
 40
0.0
 40
0.1219765139516157
 40
0.2439857714748809
 40
0.3566831398333455
 40
0.4694418149629191
 40
0.5721317672948323
 40
0.6745445881155729
 40
0.7225206521221734
 40
0.7704888797708423
 40
0.8171412936051613
 40
0.8637898734329084
 40
0.9102318001037886
 40
0.9566751324477629
 40
1.004175175777348
 40
1.051683100151985
 40
1.153672388745732
 40
1.256049376691025
 40
1.370745138112172
 40
1.485385401893102
 40
1.611534903928861
 40
1.737631875973672
 40
1.737631875973672
 40
1.737631875973672
 40
1.737631875973672
 10
18.3522800418
 20
279.9835406105
 30
0.0
 10
18.3170250241966
 20
279.9632610852351
 30
0.0
 10
18.24650552507618
 20
279.9226965908371
 30
0.0
 10
18.13885312189037
 20
279.8719007299453
 30
0.0
 10
18.03069510601907
 20
279.8301490940763
 30
0.0
 10
17.92511588505064
 20
279.800734508935
 30
0.0
 10
17.82028433990493
 20
279.7838199215466
 30
0.0
 10
17.73555667005557
 20
279.7819546983186
 30
0.0
 10
17.66973273365178
 20
279.7889100063381
 30
0.0
 10
17.62302553043757
 20
279.7981071334917
 30
0.0
 10
17.57784491313144
 20
279.8116405784796
 30
0.0
 10
17.53470530247704
 20
279.8294338372997
 30
0.0
 10
17.49375082590459
 20
279.8516621950382
 30
0.0
 10
17.45510339944148
 20
279.8781972267627
 30
0.0
 10
17.41919732080437
 20
279.9088925042814
 30
0.0
 10
17.37375799925642
 20
279.9564299773693
 30
0.0
 10
17.32521485916957
 20
280.0255993444553
 30
0.0
 10
17.27898915020733
 20
280.1217573991703
 30
0.0
 10
17.24502327642497
 20
280.2273328321664
 30
0.0
 10
17.22206785224727
 20
280.3437505230752
 30
0.0
 10
17.20862329389756
 20
280.4654978317308
 30
0.0
 10
17.2071659075996
 20
280.549601195248
 30
0.0
 10
17.2064373662
 20
280.5916441198
 30
0.0
 11
18.3522800418
 21
279.9835406105
 31
0.0
 11
18.24573541773946
 21
279.9241561593399
 31
0.0
 11
18.13544252857079
 21
279.871985885043
 31
0.0
 11
18.03012452071835
 21
279.8318758606487
 31
0.0
 11
17.92140079217531
 21
279.8019815523497
 31
0.0
 11
17.81993664005416
 21
279.7861621925564
 31
0.0
 11
17.71753709946976
 21
279.7845129634745
 31
0.0
 11
17.66983324325722
 21
279.78961637606
 31
0.0
 11
17.62278247299577
 21
279.798953178594
 31
0.0
 11
17.57810290556235
 21
279.8123764408849
 31
0.0
 11
17.53499676896641
 21
279.830207621096
 31
0.0
 11
17.49417417616956
 21
279.8523518860475
 31
0.0
 11
17.4558869196234
 21
279.8786400793172
 31
0.0
 11
17.41974982261285
 21
279.9094680590752
 31
0.0
 11
17.38689732224096
 21
279.9437859275653
 31
0.0
 11
17.32772492798714
 21
280.0268548311702
 31
0.0
 11
17.28282520438608
 21
280.1188606053439
 31
0.0
 11
17.24718704481859
 21
280.2278791325336
 31
0.0
 11
17.22433548145235
 21
280.3402187788366
 31
0.0
 11
17.2105687251298
 21
280.4656148445015
 31
0.0
 11
17.2064373662
 21
280.5916441198
 31
0.0
  0
SPLINE
  5
FD
330
1F
100
AcDbEntity
  8
BEZUGSACHSEN
  6
Continuous
 62
     7
100
AcDbSpline
210
0.0
220
0.0
230
1.0
 70
     8
 71
     3
 72
    15
 73
    11
 74
     9
 42
0.0000000001
 43
0.0000000001
 44
0.00000001
 40
0.0
 40
0.0
 40
0.0
 40
0.0
 40
0.1110371613193933
 40
0.2222522336982595
 40
0.3333980191345121
 40
0.4445069474230586
 40
0.5556201064838292
 40
0.6667525641981571
 40
0.7778876033107915
 40
0.8889820914769476
 40
0.8889820914769476
 40
0.8889820914769476
 40
0.8889820914769476
 10
19.1063628814
 20
279.5493442197
 30
0.0
 10
19.06972115454123
 20
279.5548763725496
 30
0.0
 10
18.99637899103348
 20
279.565949542229
 30
0.0
 10
18.88986244103298
 20
279.5989681057292
 30
0.0
 10
18.78744953328827
 20
279.6425583931838
 30
0.0
 10
18.6899995676708
 20
279.6963379010063
 30
0.0
 10
18.59769477193056
 20
279.758433036361
 30
0.0
 10
18.51069814379559
 20
279.8277197100019
 30
0.0
 10
18.42844538838109
 20
279.9026016616305
 30
0.0
 10
18.37766540199713
 20
279.9565642431195
 30
0.0
 10
18.3522800418
 20
279.9835406105
 30
0.0
 11
19.1063628814
 21
279.5493442197
 31
0.0
 11
18.99702059635124
 21
279.5686707789951
 31
0.0
 11
18.89052864276314
 21
279.6007372123051
 31
0.0
 11
18.78826046216535
 21
279.6442642712163
 31
0.0
 11
18.69085759572644
 21
279.6977233729195
 31
0.0
 11
18.5985858289242
 21
279.7596269686766
 31
0.0
 11
18.51148872550604
 21
279.8286524547943
 31
0.0
 11
18.42944882105179
 21
279.9036221219652
 31
0.0
 11
18.3522800418
 21
279.9835406105
 31
0.0
  0
SPLINE
  5
FE
330
1F
100
AcDbEntity
  8
BEZUGSACHSEN
  6
Continuous
 62
     7
100
AcDbSpline
210
0.0
220
0.0
230
1.0
 70
     8
 71
     3
 72
    27
 73
    23
 74
    21
 42
0.0000000001
 43
0.0000000001
 44
0.00000001
 40
0.0
 40
0.0
 40
0.0
 40
0.0
 40
0.1260969825525912
 40
0.2522464959195273
 40
0.366886795247623
 40
0.4815825893734663
 40
0.5839596006347867
 40
0.685948916081839
 40
0.733456841004003
 40
0.780956884848539
 40
0.827400226397255
 40
0.8738421606731666
 40
0.9204907318546732
 40
0.9671431398889561
 40
1.015111401785845
 40
1.063087497106599
 40
1.16550041870754
 40
1.268190478907825
 40
1.380949153832696
 40
1.493646517711203
 40
1.615655563695332
 40
1.737631867634667
 40
1.737631867634667
 40
1.737631867634667
 40
1.737631867634667
 10
17.2064373662
 20
309.8601090922
 30
0.0
 10
17.20716590767627
 20
309.9021520202609
 30
0.0
 10
17.20862329413234
 20
309.9862553910706
 30
0.0
 10
17.22206785608071
 20
310.1080027186321
 30
0.0
 10
17.24502328936458
 20
310.2244204350033
 30
0.0
 10
17.278989189698
 20
310.329995892779
 30
0.0
 10
17.32521494855634
 20
310.4261539550184
 30
0.0
 10
17.37375811711111
 20
310.4953233206771
 30
0.0
 10
17.41919744266844
 20
310.5428608022944
 30
0.0
 10
17.45510352075958
 20
310.5735560857763
 30
0.0
 10
17.49375095185226
 20
310.6000911214887
 30
0.0
 10
17.53470543905784
 20
310.6223194673836
 30
0.0
 10
17.57784506523335
 20
310.6401126842613
 30
0.0
 10
17.62302569984678
 20
310.6536460913223
 30
0.0
 10
17.66973292283641
 20
310.6628432166561
 30
0.0
 10
17.73555691403986
 20
310.6697985370367
 30
0.0
 10
17.82028466603688
 20
310.667933280403
 30
0.0
 10
17.92511626952609
 20
310.6510186194618
 30
0.0
 10
18.0306955118721
 20
310.6216039866025
 30
0.0
 10
18.13885344997005
 20
310.5798523491355
 30
0.0
 10
18.24650571124685
 20
310.5290565219439
 30
0.0
 10
18.31702508610628
 20
310.4884920937096
 30
0.0
 10
18.3522800418
 20
310.4682126014
 30
0.0
 11
17.2064373662
 21
309.8601090922
 31
0.0
 11
17.21056872576464
 21
309.9861383779911
 31
0.0
 11
17.22433548488566
 21
310.111534454748
 31
0.0
 11
17.2471870609678
 21
310.2238741347395
 31
0.0
 11
17.28282525033866
 21
310.3328926865943
 31
0.0
 11
17.3277250151388
 21
310.4248984666067
 31
0.0
 11
17.38689744409294
 21
310.5079673784633
 31
0.0
 11
17.41974994425447
 21
310.5422852479127
 31
0.0
 11
17.45588703918128
 21
310.5731132309068
 31
0.0
 11
17.49417430404272
 21
310.5994014283277
 31
0.0
 11
17.53499691197998
 21
310.6215456813177
 31
0.0
 11
17.57810305559804
 21
310.6393768219334
 31
0.0
 11
17.62278262764238
 21
310.6528000487188
 31
0.0
 11
17.66983343339751
 21
310.6621368483418
 31
0.0
 11
17.71753732067159
 21
310.667240264959
 31
0.0
 11
17.81993696152932
 21
310.665591003595
 31
0.0
 11
17.92140121183003
 21
310.6497715733001
 31
0.0
 11
18.03012492826722
 21
310.6198772217451
 31
0.0
 11
18.13544292056172
 21
310.5797671690872
 31
0.0
 11
18.24573560647962
 21
310.5275969598201
 31
0.0
 11
18.3522800418
 21
310.4682126014
 31
0.0
  0
SPLINE
  5
FF
330
1F
100
AcDbEntity
  8
0
  6
Continuous
 62
     7
100
AcDbSpline
210
0.0
220
0.0
230
1.0
 70
     8
 71
     3
 72
    19
 73
    15
 74
    13
 42
0.0000000001
 43
0.0000000001
 44
0.00000001
 40
0.0
 40
0.0
 40
0.0
 40
0.0
 40
0.1162460235978158
 40
0.2327881718533907
 40
0.3491890046374987
 40
0.4655468550877817
 40
0.5819071370171669
 40
0.6982738489559421
 40
0.8146206073104523
 40
0.930999827844762
 40
1.163276323444739
 40
1.396138921766311
 40
1.629013178092896
 40
1.861351539778379
 40
1.861351539778379
 40
1.861351539778379
 40
1.861351539778379
 10
86.3314373662
 20
261.7034960223
 30
0.0
 10
86.29265329535055
 20
261.7016550754042
 30
0.0
 10
86.21498635526396
 20
261.697968491992
 30
0.0
 10
86.10137627018821
 20
261.6695630069967
 30
0.0
 10
85.99318858224001
 20
261.6257090927749
 30
0.0
 10
85.89221271628625
 20
261.5671124045397
 30
0.0
 10
85.79944425954926
 20
261.4964275432191
 30
0.0
 10
85.71535688053633
 20
261.4156699381415
 30
0.0
 10
85.64005323714807
 20
261.3267022993998
 30
0.0
 10
85.55140199298839
 20
261.1993428516593
 30
0.0
 10
85.46140524727609
 20
261.0265574735851
 30
0.0
 10
85.38651172815308
 20
260.8056324833994
 30
0.0
 10
85.33997480283466
 20
260.5766125637992
 30
0.0
 10
85.33428099211181
 20
260.421433170948
 30
0.0
 10
85.3314373662
 20
260.3439328528
 30
0.0
 11
86.3314373662
 21
261.7034960223
 31
0.0
 11
86.21556601462355
 21
261.6941703648889
 31
0.0
 11
86.1022414899032
 21
261.6669743281017
 31
0.0
 11
85.99436835730343
 21
261.6232417185758
 31
0.0
 11
85.89357961780887
 21
261.5650972489118
 31
0.0
 11
85.80089231274259
 21
261.4947496925204
 31
0.0
 11
85.71681694708586
 21
261.4142975667739
 31
0.0
 11
85.64151818914043
 21
261.3256033435603
 31
0.0
 11
85.5748914598289
 21
261.2301832098702
 31
0.0
 11
85.46700167375452
 21
261.0244840011478
 31
0.0
 11
85.39124353694191
 21
260.8042893272709
 31
0.0
 11
85.3462835231428
 21
260.5757964030504
 31
0.0
 11
85.3314373662
 21
260.3439328528
 31
0.0
  0
SPLINE
  5
100
330
1F
100
AcDbEntity
  8
0
  6
Continuous
 62
     7
100
AcDbSpline
210
0.0
220
0.0
230
1.0
 70
     8
 71
     3
 72
    19
 73
    15
 74
    13
 42
0.0000000001
 43
0.0000000001
 44
0.00000001
 40
0.0
 40
0.0
 40
0.0
 40
0.0
 40
0.2323383481417172
 40
0.4652125957589889
 40
0.6980761133202338
 40
0.9303535187532188
 40
1.046733461818922
 40
1.163080940899847
 40
1.279447997489436
 40
1.395808629606307
 40
1.512165904568249
 40
1.628566140383503
 40
1.745106920562021
 40
1.861351602822959
 40
1.861351602822959
 40
1.861351602822959
 40
1.861351602822959
 10
89.0814373662
 20
260.3439328528
 30
0.0
 10
89.07859374059417
 20
260.4214331664675
 30
0.0
 10
89.07289993042443
 20
260.5766125519702
 30
0.0
 10
89.02636295457611
 20
260.8056327660026
 30
0.0
 10
88.9514692087693
 20
261.0265583278832
 30
0.0
 10
88.86147190450532
 20
261.1993443920751
 30
0.0
 10
88.77281996673067
 20
261.3267043178111
 30
0.0
 10
88.69751570238608
 20
261.415672216746
 30
0.0
 10
88.61342772854752
 20
261.4964298867075
 30
0.0
 10
88.52065899470588
 20
261.5671144530824
 30
0.0
 10
88.41968318247746
 20
261.6257106772626
 30
0.0
 10
88.3114961329875
 20
261.6695639284251
 30
0.0
 10
88.19788702364778
 20
261.697968687873
 30
0.0
 10
88.12022098886112
 20
261.7016551405195
 30
0.0
 10
88.0814373662
 20
261.7034960223
 30
0.0
 11
89.0814373662
 21
260.3439328528
 31
0.0
 11
89.06659121207974
 21
260.5757963896596
 31
0.0
 11
89.02163121047357
 21
260.804289307403
 31
0.0
 11
88.94587273175622
 21
261.0244848357714
 31
0.0
 11
88.83798232057356
 21
261.2301847440103
 31
0.0
 11
88.77135499675008
 21
261.3256053438203
 31
0.0
 11
88.69605554019338
 21
261.4142999193633
 31
0.0
 11
88.61197967384263
 21
261.4947520203719
 31
0.0
 11
88.51929184785611
 21
261.5650994696542
 31
0.0
 11
88.41850341297028
 21
261.6232433156728
 31
0.0
 11
88.31063068420995
 21
261.6669753324071
 31
0.0
 11
88.19730739567065
 21
261.694170657727
 31
0.0
 11
88.0814373662
 21
261.7034960223
 31
0.0
  0
SPLINE
  5
101
330
1F
100
AcDbEntity
  8
BEZUGSACHSEN
  6
Continuous
 62
     7
100
AcDbSpline
210
0.0
220
0.0
230
1.0
 70
     8
 71
     3
 72
    11
 73
     7
 74
     5
 42
0.0000000001
 43
0.0000000001
 44
0.00000001
 40
0.0
 40
0.0
 40
0.0
 40
0.0
 40
0.5462907431026423
 40
1.093000863635375
 40
1.646070107182662
 40
2.198197048697392
 40
2.198197048697392
 40
2.198197048697392
 40
2.198197048697392
 10
26.7602833131
 20
310.235876606
 30
0.0
 10
26.82335411493117
 20
310.0649449767629
 30
0.0
 10
26.94954413689661
 20
309.7229504971976
 30
0.0
 10
27.08918144993412
 20
309.1916763679777
 30
0.0
 10
27.18666981400486
 20
308.6482519630325
 30
0.0
 10
27.19985192853868
 20
308.2796673224814
 30
0.0
 10
27.2064373662
 20
308.0955321318
 30
0.0
 11
26.7602833131
 21
310.235876606
 31
0.0
 11
26.94113464564478
 21
309.7203900673625
 31
0.0
 11
27.08162613035224
 21
309.1920397114266
 31
0.0
 11
27.17369278362967
 21
308.646687238697
 31
0.0
 11
27.2064373662
 21
308.0955321318
 31
0.0
  0
SPLINE
  5
102
330
1F
100
AcDbEntity
  8
BEZUGSACHSEN
  6
Continuous
 62
     7
100
AcDbSpline
210
0.0
220
0.0
230
1.0
 70
     8
 71
     3
 72
    19
 73
    15
 74
    13
 42
0.0000000001
 43
0.0000000001
 44
0.00000001
 40
0.0
 40
0.0
 40
0.0
 40
0.0
 40
0.146238598778014
 40
0.292747927480828
 40
0.4364790706193363
 40
0.580165923639354
 40
0.720379997271338
 40
0.8606059382574803
 40
0.9980411883900513
 40
1.13548402043836
 40
1.405415631100405
 40
1.675815514100301
 40
1.943997429536199
 40
2.211934834763051
 40
2.211934834763051
 40
2.211934834763051
 40
2.211934834763051
 10
25.2064373662
 20
311.5845241934
 30
0.0
 10
25.25515217153832
 20
311.5878322707465
 30
0.0
 10
25.35267196740338
 20
311.594454549647
 30
0.0
 10
25.49800822771716
 20
311.5780952368862
 30
0.0
 10
25.63866516484331
 20
311.5429234708209
 30
0.0
 10
25.77151729829565
 20
311.4901177841962
 30
0.0
 10
25.89597176134874
 20
311.4224459964435
 30
0.0
 10
26.01077431849829
 20
311.3431457950301
 30
0.0
 10
26.11688425627389
 20
311.2540611554426
 30
0.0
 10
26.24598672145589
 20
311.1261136198714
 30
0.0
 10
26.38902657135697
 20
310.9503113309622
 30
0.0
 10
26.53393417305605
 20
310.7226258650776
 30
0.0
 10
26.65857092149886
 20
310.4839632456068
 30
0.0
 10
26.72638949266727
 20
310.3185470051738
 30
0.0
 10
26.7602833131
 20
310.235876606
 30
0.0
 11
25.2064373662
 21
311.5845241934
 31
0.0
 11
25.35257122801905
 21
311.5900579265349
 31
0.0
 11
25.4982805888657
 21
311.574768532871
 31
0.0
 11
25.6377106704228
 21
311.5398701967375
 31
0.0
 11
25.77134300735172
 21
311.4870657437273
 31
0.0
 11
25.89465679815136
 21
311.4203297306377
 31
0.0
 11
26.01018790945922
 21
311.3408572395139
 31
0.0
 11
26.11560045923365
 21
311.2526719667692
 31
0.0
 11
26.21338896292782
 21
311.1560907024023
 31
0.0
 11
26.38463735881767
 21
310.9474353374107
 31
0.0
 11
26.53097977935233
 21
310.7200590134928
 31
0.0
 11
26.6548474051591
 21
310.4821969714519
 31
0.0
 11
26.7602833131
 21
310.235876606
 31
0.0
  0
SPLINE
  5
103
330
1F
100
AcDbEntity
  8
BEZUGSACHSEN
  6
Continuous
 62
     7
100
AcDbSpline
210
0.0
220
0.0
230
1.0
 70
     8
 71
     3
 72
    11
 73
     7
 74
     5
 42
0.0000000001
 43
0.0000000001
 44
0.00000001
 40
0.0
 40
0.0
 40
0.0
 40
0.0
 40
0.5521269407036971
 40
1.105196183339656
 40
1.651906304698613
 40
2.198197048720036
 40
2.198197048720036
 40
2.198197048720036
 40
2.198197048720036
 10
27.2064373662
 20
282.3562210802
 30
0.0
 10
27.19985192857225
 20
282.1720858897891
 30
0.0
 10
27.18666981410682
 20
281.8035012498124
 30
0.0
 10
27.08918145030954
 20
281.260076845127
 30
0.0
 10
26.94954413727705
 20
280.7288027156098
 30
0.0
 10
26.82335411506154
 20
280.3868082355159
 30
0.0
 10
26.7602833131
 20
280.215876606
 30
0.0
 11
27.2064373662
 21
282.3562210802
 31
0.0
 11
27.17369278377319
 21
281.8050659741069
 31
0.0
 11
27.08162613082982
 21
281.2597135022451
 31
0.0
 11
26.9411346459964
 21
280.7313631454878
 31
0.0
 11
26.7602833131
 21
280.215876606
 31
0.0
  0
SPLINE
  5
104
330
1F
100
AcDbEntity
  8
BEZUGSACHSEN
  6
Continuous
 62
     7
100
AcDbSpline
210
0.0
220
0.0
230
1.0
 70
     8
 71
     3
 72
    19
 73
    15
 74
    13
 42
0.0000000001
 43
0.0000000001
 44
0.00000001
 40
0.0
 40
0.0
 40
0.0
 40
0.0
 40
0.2679411643354427
 40
0.5361267936930503
 40
0.8065304773750821
 40
1.076465993248228
 40
1.213913376164908
 40
1.351353104889026
 40
1.491586367063699
 40
1.63180789755435
 40
1.775491562771521
 40
1.919219204752292
 40
2.065713007381254
 40
2.211936409305904
 40
2.211936409305904
 40
2.211936409305904
 40
2.211936409305904
 10
26.7602833131
 20
280.215876606
 30
0.0
 10
26.72638906930091
 20
280.1332050262961
 30
0.0
 10
26.65856965716346
 20
279.9677864387262
 30
0.0
 10
26.5339311508739
 20
279.7291204650571
 30
0.0
 10
26.38902035153253
 20
279.501432469047
 30
0.0
 10
26.24597672001065
 20
279.3256279777214
 30
0.0
 10
26.11687033311628
 20
279.1976782585792
 30
0.0
 10
26.01075523405697
 20
279.1085912377623
 30
0.0
 10
25.89594580640861
 20
279.0292895974435
 30
0.0
 10
25.77148619417261
 20
278.9616191300146
 30
0.0
 10
25.63863263903731
 20
278.9088164433331
 30
0.0
 10
25.49798184016144
 20
278.8736501793454
 30
0.0
 10
25.35265645706867
 20
278.8572979774616
 30
0.0
 10
25.2551470380271
 20
278.863920710828
 30
0.0
 10
25.2064373662
 20
278.8672290186
 30
0.0
 11
26.7602833131
 21
280.215876606
 31
0.0
 11
26.65484605338106
 21
279.9695527301609
 31
0.0
 11
26.53097653780444
 21
279.7316874848964
 31
0.0
 11
26.38463105149116
 21
279.5043086143201
 31
0.0
 11
26.21337886036266
 21
279.2956513121153
 31
0.0
 11
26.11558642168335
 21
279.1990675556767
 31
0.0
 11
26.01016943242865
 21
279.110880609884
 31
0.0
 11
25.89463078871523
 21
279.0314061509113
 31
0.0
 11
25.77130877882187
 21
278.9646696579782
 31
0.0
 11
25.63767809062201
 21
278.9118697070173
 31
0.0
 11
25.49825038941422
 21
278.8769762806269
 31
0.0
 11
25.35255595089605
 21
278.8616934538737
 31
0.0
 11
25.2064373662
 21
278.8672290186
 31
0.0
  0
SPLINE
  5
105
330
1F
100
AcDbEntity
  8
BEZUGSACHSEN
  6
Continuous
 62
     7
100
AcDbSpline
210
0.0
220
0.0
230
1.0
 70
     8
 71
     3
 72
    15
 73
    11
 74
     9
 42
0.0000000001
 43
0.0000000001
 44
0.00000001
 40
0.0
 40
0.0
 40
0.0
 40
0.0
 40
0.1110944831359939
 40
0.2222295181505722
 40
0.333362040194396
 40
0.4444752610127214
 40
0.5555842178004962
 40
0.6667300353929841
 40
0.777945018185711
 40
0.8889820871372657
 40
0.8889820871372657
 40
0.8889820871372657
 40
0.8889820871372657
 10
18.3522800418
 20
310.4682126014
 30
0.0
 10
18.3776654013412
 20
310.49518896711
 30
0.0
 10
18.42844538662647
 20
310.5491515454844
 30
0.0
 10
18.5106981558995
 20
310.6240335088685
 30
0.0
 10
18.59769480785239
 20
310.6933202177691
 30
0.0
 10
18.68999964827729
 20
310.7554153808422
 30
0.0
 10
18.78744967025222
 20
310.8091948729734
 30
0.0
 10
18.88986258411997
 20
310.8527851185842
 30
0.0
 10
18.99637908269293
 20
310.8858036744294
 30
0.0
 10
19.06972118540016
 20
310.8968768410509
 30
0.0
 10
19.1063628814
 20
310.9024089923
 30
0.0
 11
18.3522800418
 21
310.4682126014
 31
0.0
 11
18.4294488188269
 21
310.5481310850907
 31
0.0
 11
18.51148871907828
 21
310.6231007507859
 31
0.0
 11
18.59858586768934
 21
310.6921262834505
 31
0.0
 11
18.69085768926192
 21
310.7540299084195
 31
0.0
 11
18.78826059732717
 21
310.8074889935118
 31
0.0
 11
18.890528820716
 21
310.8510160339946
 31
0.0
 11
18.99702068884046
 21
310.8830824404186
 31
0.0
 11
19.1063628814
 21
310.9024089923
 31
0.0
  0
SPLINE
  5
106
330
1F
100
AcDbEntity
  8
BEZUGSACHSEN
  6
Continuous
 62
     7
100
AcDbSpline
210
0.0
220
0.0
230
1.0
 70
     8
 71
     3
 72
    11
 73
     7
 74
     5
 42
0.0000000001
 43
0.0000000001
 44
0.00000001
 40
0.0
 40
0.0
 40
0.0
 40
0.0
 40
0.914055666000385
 40
1.828030949185874
 40
2.279806974871115
 40
2.7309441247625
 40
2.7309441247625
 40
2.7309441247625
 40
2.7309441247625
 10
18.4733902930854
 20
280.215876606185
 30
0.0
 10
18.60604500004877
 20
280.4905932038516
 30
0.0
 10
18.87134274821033
 20
281.0400022403788
 30
0.0
 10
19.08669796152302
 20
281.7727131614837
 30
0.0
 10
19.19039217518537
 20
282.3706583675897
 30
0.0
 10
19.20109149270649
 20
282.6717815830166
 30
0.0
 10
19.2064373662
 20
282.8222366576
 30
0.0
 11
18.4733902930854
 21
280.215876606185
 31
0.0
 11
18.84819782286086
 21
281.0495534477556
 31
0.0
 11
19.10748918325873
 21
281.925977322771
 31
0.0
 11
19.18020615675736
 21
282.3718627555327
 31
0.0
 11
19.2064373662
 21
282.8222366576
 31
0.0
  0
SPLINE
  5
107
330
1F
100
AcDbEntity
  8
BEZUGSACHSEN
  6
Continuous
 62
     7
100
AcDbSpline
210
0.0
220
0.0
230
1.0
 70
     8
 71
     3
 72
    11
 73
     7
 74
     5
 42
0.0000000001
 43
0.0000000001
 44
0.00000001
 40
0.0
 40
0.0
 40
0.0
 40
0.0
 40
0.8249192366724182
 40
1.65011689193099
 40
2.190492152293427
 40
2.730585915378194
 40
2.730585915378194
 40
2.730585915378194
 40
2.730585915378194
 10
19.2064373662
 20
307.6295165544
 30
0.0
 10
19.18870406186181
 20
307.9047068463768
 30
0.0
 10
19.15323146801586
 20
308.4551803098377
 30
0.0
 10
18.94479665138044
 20
309.1599138949906
 30
0.0
 10
18.71457022040078
 20
309.7521276200708
 30
0.0
 10
18.55376963759882
 20
310.0746549535161
 30
0.0
 10
18.4733902930854
 20
310.235876605815
 30
0.0
 11
19.2064373662
 21
307.6295165544
 31
0.0
 11
19.12286191208427
 21
308.4501912100959
 31
0.0
 11
18.90490046997248
 21
309.2460831499953
 31
0.0
 11
18.70696539141331
 21
309.7489023289131
 31
0.0
 11
18.4733902930854
 21
310.235876605815
 31
0.0
  0
DIMENSION
  5
112
330
1F
100
AcDbEntity
  8
1
100
AcDbDimension
  2
*D2
 10
239.398586913704
 20
305.225876606
 30
0.0
 11
235.648586913704
 21
294.952970114561
 31
0.0
 70
    32
  1
<>
 71
     5
 42
-1.0
 53
90.0
  3
ME10_DIM_10
100
AcDbAlignedDimension
 13
227.2064373662
 23
285.225876606
 33
0.0
 14
227.2064373662
 24
305.225876606
 34
0.0
 50
90.0
100
AcDbRotatedDimension
  0
DIMENSION
  5
11D
330
1F
100
AcDbEntity
  8
1
100
AcDbDimension
  2
*D3
 10
247.453883599346
 20
321.225876606
 30
0.0
 11
243.703883599346
 21
295.175310054006
 31
0.0
 70
    32
  1
<>
 71
     5
 42
-1.0
 53
90.0
  3
ME10_DIM_11
100
AcDbAlignedDimension
 13
214.1177011805
 23
269.225876606
 33
0.0
 14
214.1177011805
 24
321.225876606
 34
0.0
 50
90.0
100
AcDbRotatedDimension
  0
DIMENSION
  5
128
330
1F
100
AcDbEntity
  8
1
100
AcDbDimension
  2
*D4
 10
227.2064373662
 20
352.448012971029
 30
0.0
 11
162.047054371689
 21
356.198012971029
 31
0.0
 70
    32
  1
<>
 71
     5
 42
-1.0
 53
0.00013888888889
  3
ME10_DIM_12
100
AcDbAlignedDimension
 13
96.2064373662
 23
345.2258396849
 33
0.0
 14
227.2064373662
 24
314.5888063452
 34
0.0
100
AcDbRotatedDimension
  0
DIMENSION
  5
133
330
1F
100
AcDbEntity
  8
1
100
AcDbDimension
  2
*D5
 10
227.2064373662
 20
359.552954581951
 30
0.0
 11
147.51421925844
 21
363.302954581951
 31
0.0
 70
    32
  1
<>
 71
     5
 42
-1.0
 53
0.00013888888889
  3
ME10_DIM_13
100
AcDbAlignedDimension
 13
67.2064373662
 23
345.225876606
 33
0.0
 14
227.2064373662
 24
314.5888063452
 34
0.0
100
AcDbRotatedDimension
  0
DIMENSION
  5
13E
330
1F
100
AcDbEntity
  8
1
100
AcDbDimension
  2
*D6
 10
227.2064373662
 20
366.980848084278
 30
0.0
 11
127.168250099892
 21
370.730848084278
 31
0.0
 70
    32
  1
<>
 71
     5
 42
-1.0
 53
0.00013888888889
  3
ME10_DIM_14
100
AcDbAlignedDimension
 13
17.2064373662
 23
328.8260681686
 33
0.0
 14
227.2064373662
 24
314.5888063452
 34
0.0
100
AcDbRotatedDimension
  0
INSERT
  5
145
330
1F
100
AcDbEntity
  8
1
100
AcDbBlockReference
  2
*D7
 10
0.0
 20
0.0
 30
0.0
  0
ENDSEC
  0
SECTION
  2
OBJECTS
  0
DICTIONARY
  5
C
330
0
100
AcDbDictionary
281
     1
  3
ACAD_GROUP
350
D
  3
ACAD_LAYOUT
350
1A
  3
ACAD_MLEADERSTYLE
350
148
  3
ACAD_MLINESTYLE
350
17
  3
ACAD_PLOTSETTINGS
350
19
  3
ACAD_PLOTSTYLENAME
350
E
  3
ACAD_SCALELIST
350
4B
  3
ACAD_VISUALSTYLE
350
2A
  3
AcDbVariableDictionary
350
146
  0
DICTIONARY
  5
D
102
{ACAD_REACTORS
330
C
102
}
330
C
100
AcDbDictionary
281
     1
  0
DICTIONARY
  5
1A
102
{ACAD_REACTORS
330
C
102
}
330
C
100
AcDbDictionary
281
     1
  3
Layout1
350
1E
  3
Layout2
350
26
  3
Model
350
22
  0
DICTIONARY
  5
148
102
{ACAD_REACTORS
330
C
102
}
330
C
100
AcDbDictionary
281
     1
  0
DICTIONARY
  5
17
102
{ACAD_REACTORS
330
C
102
}
330
C
100
AcDbDictionary
281
     1
  3
Standard
350
18
  0
DICTIONARY
  5
19
102
{ACAD_REACTORS
330
C
102
}
330
C
100
AcDbDictionary
281
     1
  0
ACDBDICTIONARYWDFLT
  5
E
102
{ACAD_REACTORS
330
C
102
}
330
C
100
AcDbDictionary
281
     1
  3
Normal
350
F
100
AcDbDictionaryWithDefault
340
F
  0
DICTIONARY
  5
4B
102
{ACAD_REACTORS
330
C
102
}
330
C
100
AcDbDictionary
281
     1
  3
A0
350
4C
  3
A1
350
4D
  3
A2
350
4E
  3
A3
350
4F
  3
A4
350
50
  3
A5
350
51
  3
A6
350
52
  3
A7
350
53
  3
A8
350
54
  3
A9
350
55
  3
B0
350
56
  3
B1
350
57
  3
B2
350
58
  3
B3
350
59
  3
B4
350
5A
  3
B5
350
5B
  3
B6
350
5C
  3
B7
350
5D
  3
B8
350
5E
  3
B9
350
5F
  3
C0
350
60
  3
C1
350
61
  3
C2
350
62
  3
C3
350
63
  3
C4
350
64
  3
C5
350
65
  3
C6
350
66
  3
C7
350
67
  3
C8
350
68
  3
C9
350
69
  3
D0
350
6A
  3
D1
350
6B
  3
D2
350
6C
  0
DICTIONARY
  5
2A
102
{ACAD_REACTORS
330
C
102
}
330
C
100
AcDbDictionary
281
     1
  3
2dWireframe
350
2F
  3
3D Hidden
350
31
  3
3dWireframe
350
30
  3
Basic
350
32
  3
Brighten
350
36
  3
ColorChange
350
3A
  3
Conceptual
350
34
  3
Dim
350
35
  3
Facepattern
350
39
  3
Flat
350
2B
  3
FlatWithEdges
350
2C
  3
Gouraud
350
2D
  3
GouraudWithEdges
350
2E
  3
Linepattern
350
38
  3
Realistic
350
33
  3
Thicken
350
37
  0
DICTIONARY
  5
146
102
{ACAD_REACTORS
330
C
102
}
330
C
100
AcDbDictionary
281
     1
  3
CANNOSCALE
350
149
  0
LAYOUT
  5
1E
102
{ACAD_REACTORS
330
1A
102
}
330
1A
100
AcDbPlotSettings
  1

  2
none_device
  4

  6

 40
0.0
 41
0.0
 42
0.0
 43
0.0
 44
0.0
 45
0.0
 46
0.0
 47
0.0
 48
0.0
 49
0.0
140
0.0
141
0.0
142
1.0
143
1.0
 70
   688
 72
     0
 73
     0
 74
     5
  7

 75
    16
147
1.0
148
0.0
149
0.0
100
AcDbLayout
  1
Layout1
 70
     1
 71
     1
 10
0.0
 20
0.0
 11
12.0
 21
9.0
 12
0.0
 22
0.0
 32
0.0
 14
1.00000000000000E+20
 24
1.00000000000000E+20
 34
1.00000000000000E+20
 15
-1.00000000000000E+20
 25
-1.00000000000000E+20
 35
-1.00000000000000E+20
146
0.0
 13
0.0
 23
0.0
 33
0.0
 16
1.0
 26
0.0
 36
0.0
 17
0.0
 27
1.0
 37
0.0
 76
     0
330
1B
  0
LAYOUT
  5
26
102
{ACAD_REACTORS
330
1A
102
}
330
1A
100
AcDbPlotSettings
  1

  2
none_device
  4

  6

 40
0.0
 41
0.0
 42
0.0
 43
0.0
 44
0.0
 45
0.0
 46
0.0
 47
0.0
 48
0.0
 49
0.0
140
0.0
141
0.0
142
1.0
143
1.0
 70
   688
 72
     0
 73
     0
 74
     5
  7

 75
    16
147
1.0
148
0.0
149
0.0
100
AcDbLayout
  1
Layout2
 70
     1
 71
     2
 10
0.0
 20
0.0
 11
0.0
 21
0.0
 12
0.0
 22
0.0
 32
0.0
 14
0.0
 24
0.0
 34
0.0
 15
0.0
 25
0.0
 35
0.0
146
0.0
 13
0.0
 23
0.0
 33
0.0
 16
1.0
 26
0.0
 36
0.0
 17
0.0
 27
1.0
 37
0.0
 76
     0
330
23
  0
LAYOUT
  5
22
102
{ACAD_REACTORS
330
1A
102
}
330
1A
100
AcDbPlotSettings
  1

  2
none_device
  4

  6

 40
0.0
 41
0.0
 42
0.0
 43
0.0
 44
0.0
 45
0.0
 46
0.0
 47
0.0
 48
0.0
 49
0.0
140
0.0
141
0.0
142
1.0
143
1.0
 70
  1712
 72
     0
 73
     0
 74
     0
  7

 75
     0
147
1.0
148
0.0
149
0.0
100
AcDbLayout
  1
Model
 70
     1
 71
     0
 10
0.0
 20
0.0
 11
12.0
 21
9.0
 12
0.0
 22
0.0
 32
0.0
 14
-4.22476242602013
 24
245.225876606
 34
0.0
 15
249.453883599346
 25
372.480848084278
 35
0.0
146
0.0
 13
0.0
 23
0.0
 33
0.0
 16
1.0
 26
0.0
 36
0.0
 17
0.0
 27
1.0
 37
0.0
 76
     0
330
1F
331
29
  0
MLINESTYLE
  5
18
102
{ACAD_REACTORS
330
17
102
}
330
17
100
AcDbMlineStyle
  2
Standard
 70
     0
  3

 62
   256
 51
90.0
 52
90.0
 71
     2
 49
0.5
 62
   256
  6
BYLAYER
 49
-0.5
 62
   256
  6
BYLAYER
  0
ACDBPLACEHOLDER
  5
F
102
{ACAD_REACTORS
330
E
102
}
330
E
  0
SCALE
  5
4C
102
{ACAD_REACTORS
330
4B
102
}
330
4B
100
AcDbScale
 70
     0
300
1:1
140
1.0
141
1.0
290
     1
  0
SCALE
  5
4D
102
{ACAD_REACTORS
330
4B
102
}
330
4B
100
AcDbScale
 70
     0
300
1:2
140
1.0
141
2.0
290
     0
  0
SCALE
  5
4E
102
{ACAD_REACTORS
330
4B
102
}
330
4B
100
AcDbScale
 70
     0
300
1:4
140
1.0
141
4.0
290
     0
  0
SCALE
  5
4F
102
{ACAD_REACTORS
330
4B
102
}
330
4B
100
AcDbScale
 70
     0
300
1:5
140
1.0
141
5.0
290
     0
  0
SCALE
  5
50
102
{ACAD_REACTORS
330
4B
102
}
330
4B
100
AcDbScale
 70
     0
300
1:8
140
1.0
141
8.0
290
     0
  0
SCALE
  5
51
102
{ACAD_REACTORS
330
4B
102
}
330
4B
100
AcDbScale
 70
     0
300
1:10
140
1.0
141
10.0
290
     0
  0
SCALE
  5
52
102
{ACAD_REACTORS
330
4B
102
}
330
4B
100
AcDbScale
 70
     0
300
1:16
140
1.0
141
16.0
290
     0
  0
SCALE
  5
53
102
{ACAD_REACTORS
330
4B
102
}
330
4B
100
AcDbScale
 70
     0
300
1:20
140
1.0
141
20.0
290
     0
  0
SCALE
  5
54
102
{ACAD_REACTORS
330
4B
102
}
330
4B
100
AcDbScale
 70
     0
300
1:30
140
1.0
141
30.0
290
     0
  0
SCALE
  5
55
102
{ACAD_REACTORS
330
4B
102
}
330
4B
100
AcDbScale
 70
     0
300
1:40
140
1.0
141
40.0
290
     0
  0
SCALE
  5
56
102
{ACAD_REACTORS
330
4B
102
}
330
4B
100
AcDbScale
 70
     0
300
1:50
140
1.0
141
50.0
290
     0
  0
SCALE
  5
57
102
{ACAD_REACTORS
330
4B
102
}
330
4B
100
AcDbScale
 70
     0
300
1:100
140
1.0
141
100.0
290
     0
  0
SCALE
  5
58
102
{ACAD_REACTORS
330
4B
102
}
330
4B
100
AcDbScale
 70
     0
300
2:1
140
2.0
141
1.0
290
     0
  0
SCALE
  5
59
102
{ACAD_REACTORS
330
4B
102
}
330
4B
100
AcDbScale
 70
     0
300
4:1
140
4.0
141
1.0
290
     0
  0
SCALE
  5
5A
102
{ACAD_REACTORS
330
4B
102
}
330
4B
100
AcDbScale
 70
     0
300
8:1
140
8.0
141
1.0
290
     0
  0
SCALE
  5
5B
102
{ACAD_REACTORS
330
4B
102
}
330
4B
100
AcDbScale
 70
     0
300
10:1
140
10.0
141
1.0
290
     0
  0
SCALE
  5
5C
102
{ACAD_REACTORS
330
4B
102
}
330
4B
100
AcDbScale
 70
     0
300
100:1
140
100.0
141
1.0
290
     0
  0
SCALE
  5
5D
102
{ACAD_REACTORS
330
4B
102
}
330
4B
100
AcDbScale
 70
     0
300
1/128" = 1'-0"
140
0.0078125
141
12.0
290
     0
  0
SCALE
  5
5E
102
{ACAD_REACTORS
330
4B
102
}
330
4B
100
AcDbScale
 70
     0
300
1/64" = 1'-0"
140
0.015625
141
12.0
290
     0
  0
SCALE
  5
5F
102
{ACAD_REACTORS
330
4B
102
}
330
4B
100
AcDbScale
 70
     0
300
1/32" = 1'-0"
140
0.03125
141
12.0
290
     0
  0
SCALE
  5
60
102
{ACAD_REACTORS
330
4B
102
}
330
4B
100
AcDbScale
 70
     0
300
1/16" = 1'-0"
140
0.0625
141
12.0
290
     0
  0
SCALE
  5
61
102
{ACAD_REACTORS
330
4B
102
}
330
4B
100
AcDbScale
 70
     0
300
3/32" = 1'-0"
140
0.09375
141
12.0
290
     0
  0
SCALE
  5
62
102
{ACAD_REACTORS
330
4B
102
}
330
4B
100
AcDbScale
 70
     0
300
1/8" = 1'-0"
140
0.125
141
12.0
290
     0
  0
SCALE
  5
63
102
{ACAD_REACTORS
330
4B
102
}
330
4B
100
AcDbScale
 70
     0
300
3/16" = 1'-0"
140
0.1875
141
12.0
290
     0
  0
SCALE
  5
64
102
{ACAD_REACTORS
330
4B
102
}
330
4B
100
AcDbScale
 70
     0
300
1/4" = 1'-0"
140
0.25
141
12.0
290
     0
  0
SCALE
  5
65
102
{ACAD_REACTORS
330
4B
102
}
330
4B
100
AcDbScale
 70
     0
300
3/8" = 1'-0"
140
0.375
141
12.0
290
     0
  0
SCALE
  5
66
102
{ACAD_REACTORS
330
4B
102
}
330
4B
100
AcDbScale
 70
     0
300
1/2" = 1'-0"
140
0.5
141
12.0
290
     0
  0
SCALE
  5
67
102
{ACAD_REACTORS
330
4B
102
}
330
4B
100
AcDbScale
 70
     0
300
3/4" = 1'-0"
140
0.75
141
12.0
290
     0
  0
SCALE
  5
68
102
{ACAD_REACTORS
330
4B
102
}
330
4B
100
AcDbScale
 70
     0
300
1" = 1'-0"
140
1.0
141
12.0
290
     0
  0
SCALE
  5
69
102
{ACAD_REACTORS
330
4B
102
}
330
4B
100
AcDbScale
 70
     0
300
1-1/2" = 1'-0"
140
1.5
141
12.0
290
     0
  0
SCALE
  5
6A
102
{ACAD_REACTORS
330
4B
102
}
330
4B
100
AcDbScale
 70
     0
300
3" = 1'-0"
140
3.0
141
12.0
290
     0
  0
SCALE
  5
6B
102
{ACAD_REACTORS
330
4B
102
}
330
4B
100
AcDbScale
 70
     0
300
6" = 1'-0"
140
6.0
141
12.0
290
     0
  0
SCALE
  5
6C
102
{ACAD_REACTORS
330
4B
102
}
330
4B
100
AcDbScale
 70
     0
300
1'-0" = 1'-0"
140
12.0
141
12.0
290
     0
  0
VISUALSTYLE
  5
2F
102
{ACAD_REACTORS
330
2A
102
}
330
2A
100
AcDbVisualStyle
  2
2dWireframe
 70
     4
 71
     0
 72
     2
 73
     0
 90
        0
 40
-0.6
 41
-30.0
 62
     5
 63
     7
 74
     1
 91
        4
 64
     7
 65
   257
 75
     1
175
     1
 42
1.0
 92
        0
 66
   257
 43
1.0
 76
     1
 77
     6
 78
     2
 67
     7
 79
     5
170
     0
171
     0
290
     0
174
     0
 93
        1
 44
0.0
173
     0
291
     0
 45
0.0
1001
ACAD
1000
AcDbSavedByObjectVersion
1070
     0
  0
VISUALSTYLE
  5
31
102
{ACAD_REACTORS
330
2A
102
}
330
2A
100
AcDbVisualStyle
  2
3D Hidden
 70
     6
 71
     1
 72
     2
 73
     2
 90
        0
 40
-0.6
 41
-30.0
 62
     5
 63
     7
 74
     2
 91
        2
 64
     7
 65
   257
 75
     2
175
     1
 42
40.0
 92
        0
 66
   257
 43
1.0
 76
     1
 77
     6
 78
     2
 67
     7
 79
     3
170
     0
171
     0
290
     0
174
     0
 93
        1
 44
0.0
173
     0
291
     0
 45
0.0
1001
ACAD
1000
AcDbSavedByObjectVersion
1070
     0
  0
VISUALSTYLE
  5
30
102
{ACAD_REACTORS
330
2A
102
}
330
2A
100
AcDbVisualStyle
  2
3dWireframe
 70
     5
 71
     0
 72
     2
 73
     0
 90
        0
 40
-0.6
 41
-30.0
 62
     5
 63
     7
 74
     1
 91
        4
 64
     7
 65
   257
 75
     1
175
     1
 42
1.0
 92
        0
 66
   257
 43
1.0
 76
     1
 77
     6
 78
     2
 67
     7
 79
     5
170
     0
171
     0
290
     0
174
     0
 93
        1
 44
0.0
173
     0
291
     0
 45
0.0
1001
ACAD
1000
AcDbSavedByObjectVersion
1070
     0
  0
VISUALSTYLE
  5
32
102
{ACAD_REACTORS
330
2A
102
}
330
2A
100
AcDbVisualStyle
  2
Basic
 70
     7
 71
     1
 72
     0
 73
     1
 90
        0
 40
-0.6
 41
-30.0
 62
     5
 63
     7
 74
     0
 91
        4
 64
     7
 65
   257
 75
     1
175
     1
 42
1.0
 92
        8
 66
     7
 43
1.0
 76
     1
 77
     6
 78
     2
 67
     7
 79
     5
170
     0
171
     0
290
     0
174
     0
 93
        1
 44
0.0
173
     0
291
     1
 45
0.0
1001
ACAD
1000
AcDbSavedByObjectVersion
1070
     0
  0
VISUALSTYLE
  5
36
102
{ACAD_REACTORS
330
2A
102
}
330
2A
100
AcDbVisualStyle
  2
Brighten
 70
    12
 71
     2
 72
     2
 73
     0
 90
        0
 40
-0.6
 41
-30.0
 62
     5
 63
     7
 74
     1
 91
        4
 64
     7
 65
   257
 75
     1
175
     1
 42
1.0
 92
        8
 66
     7
 43
1.0
 76
     1
 77
     6
 78
     2
 67
     7
 79
     5
170
     0
171
     0
290
     0
174
     0
 93
        1
 44
50.0
173
     0
291
     1
 45
0.0
1001
ACAD
1000
AcDbSavedByObjectVersion
1070
     0
  0
VISUALSTYLE
  5
3A
102
{ACAD_REACTORS
330
2A
102
}
330
2A
100
AcDbVisualStyle
  2
ColorChange
 70
    16
 71
     2
 72
     2
 73
     3
 90
        0
 40
-0.6
 41
-30.0
 62
     5
 63
     8
 74
     1
 91
        4
 64
     7
 65
   257
 75
     1
175
     1
 42
1.0
 92
        8
 66
     8
 43
1.0
 76
     1
 77
     6
 78
     2
 67
     7
 79
     5
170
     0
171
     0
290
     0
174
     0
 93
        1
 44
0.0
173
     0
291
     1
 45
0.0
1001
ACAD
1000
AcDbSavedByObjectVersion
1070
     0
  0
VISUALSTYLE
  5
34
102
{ACAD_REACTORS
330
2A
102
}
330
2A
100
AcDbVisualStyle
  2
Conceptual
 70
     9
 71
     3
 72
     2
 73
     0
 90
        0
 40
-0.6
 41
-30.0
 62
     5
 63
     7
 74
     2
 91
        2
 64
     7
 65
   257
 75
     1
175
     1
 42
40.0
 92
        8
 66
     7
 43
1.0
 76
     1
 77
     6
 78
     2
 67
     7
 79
     3
170
     0
171
     0
290
     0
174
     0
 93
        1
 44
0.0
173
     0
291
     0
 45
0.0
1001
ACAD
1000
AcDbSavedByObjectVersion
1070
     0
  0
VISUALSTYLE
  5
35
102
{ACAD_REACTORS
330
2A
102
}
330
2A
100
AcDbVisualStyle
  2
Dim
 70
    11
 71
     2
 72
     2
 73
     0
 90
        0
 40
-0.6
 41
-30.0
 62
     5
 63
     7
 74
     1
 91
        4
 64
     7
 65
   257
 75
     1
175
     1
 42
1.0
 92
        8
 66
     7
 43
1.0
 76
     1
 77
     6
 78
     2
 67
     7
 79
     5
170
     0
171
     0
290
     0
174
     0
 93
        1
 44
-50.0
173
     0
291
     1
 45
0.0
1001
ACAD
1000
AcDbSavedByObjectVersion
1070
     0
  0
VISUALSTYLE
  5
39
102
{ACAD_REACTORS
330
2A
102
}
330
2A
100
AcDbVisualStyle
  2
Facepattern
 70
    15
 71
     2
 72
     2
 73
     0
 90
        0
 40
-0.6
 41
-30.0
 62
     5
 63
     7
 74
     1
 91
        4
 64
     7
 65
   257
 75
     1
175
     1
 42
1.0
 92
        8
 66
     7
 43
1.0
 76
     1
 77
     6
 78
     2
 67
     7
 79
     5
170
     0
171
     0
290
     0
174
     0
 93
        1
 44
0.0
173
     0
291
     1
 45
0.0
1001
ACAD
1000
AcDbSavedByObjectVersion
1070
     0
  0
VISUALSTYLE
  5
2B
102
{ACAD_REACTORS
330
2A
102
}
330
2A
100
AcDbVisualStyle
  2
Flat
 70
     0
 71
     2
 72
     1
 73
     1
 90
        2
 40
-0.6
 41
30.0
 62
     5
 63
     7
 74
     0
 91
        4
 64
     7
 65
   257
 75
     1
175
     1
 42
1.0
 92
        8
 66
     7
 43
1.0
 76
     1
 77
     6
 78
     2
 67
     7
 79
     5
170
     0
171
     0
290
     0
174
     0
 93
       13
 44
0.0
173
     0
291
     1
 45
0.0
1001
ACAD
1000
AcDbSavedByObjectVersion
1070
     0
  0
VISUALSTYLE
  5
2C
102
{ACAD_REACTORS
330
2A
102
}
330
2A
100
AcDbVisualStyle
  2
FlatWithEdges
 70
     1
 71
     2
 72
     1
 73
     1
 90
        2
 40
-0.6
 41
30.0
 62
     5
 63
     7
 74
     1
 91
        4
 64
     7
 65
   257
 75
     1
175
     1
 42
1.0
 92
        0
 66
   257
 43
1.0
 76
     1
 77
     6
 78
     2
 67
     7
 79
     5
170
     0
171
     0
290
     0
174
     0
 93
       13
 44
0.0
173
     0
291
     1
 45
0.0
1001
ACAD
1000
AcDbSavedByObjectVersion
1070
     0
  0
VISUALSTYLE
  5
2D
102
{ACAD_REACTORS
330
2A
102
}
330
2A
100
AcDbVisualStyle
  2
Gouraud
 70
     2
 71
     2
 72
     2
 73
     1
 90
        2
 40
-0.6
 41
30.0
 62
     5
 63
     7
 74
     0
 91
        4
 64
     7
 65
   257
 75
     1
175
     1
 42
1.0
 92
        0
 66
     7
 43
1.0
 76
     1
 77
     6
 78
     2
 67
     7
 79
     5
170
     0
171
     0
290
     0
174
     0
 93
       13
 44
0.0
173
     0
291
     1
 45
0.0
1001
ACAD
1000
AcDbSavedByObjectVersion
1070
     0
  0
VISUALSTYLE
  5
2E
102
{ACAD_REACTORS
330
2A
102
}
330
2A
100
AcDbVisualStyle
  2
GouraudWithEdges
 70
     3
 71
     2
 72
     2
 73
     1
 90
        2
 40
-0.6
 41
30.0
 62
     5
 63
     7
 74
     1
 91
        4
 64
     7
 65
   257
 75
     1
175
     1
 42
1.0
 92
        0
 66
   257
 43
1.0
 76
     1
 77
     6
 78
     2
 67
     7
 79
     5
170
     0
171
     0
290
     0
174
     0
 93
       13
 44
0.0
173
     0
291
     1
 45
0.0
1001
ACAD
1000
AcDbSavedByObjectVersion
1070
     0
  0
VISUALSTYLE
  5
38
102
{ACAD_REACTORS
330
2A
102
}
330
2A
100
AcDbVisualStyle
  2
Linepattern
 70
    14
 71
     2
 72
     2
 73
     0
 90
        0
 40
-0.6
 41
-30.0
 62
     5
 63
     7
 74
     1
 91
        4
 64
     7
 65
   257
 75
     7
175
     7
 42
1.0
 92
        8
 66
     7
 43
1.0
 76
     1
 77
     6
 78
     2
 67
     7
 79
     5
170
     0
171
     0
290
     0
174
     0
 93
        1
 44
0.0
173
     0
291
     1
 45
0.0
1001
ACAD
1000
AcDbSavedByObjectVersion
1070
     0
  0
VISUALSTYLE
  5
33
102
{ACAD_REACTORS
330
2A
102
}
330
2A
100
AcDbVisualStyle
  2
Realistic
 70
     8
 71
     2
 72
     2
 73
     0
 90
        0
 40
-0.6
 41
-30.0
 62
     5
 63
     7
 74
     1
 91
        0
 64
     7
 65
   257
 75
     1
175
     1
 42
1.0
 92
        8
 66
     8
 43
1.0
 76
     1
 77
     6
 78
     2
 67
     7
 79
     5
170
     0
171
     0
290
     0
174
     0
 93
       13
 44
0.0
173
     0
291
     0
 45
0.0
1001
ACAD
1000
AcDbSavedByObjectVersion
1070
     0
  0
VISUALSTYLE
  5
37
102
{ACAD_REACTORS
330
2A
102
}
330
2A
100
AcDbVisualStyle
  2
Thicken
 70
    13
 71
     2
 72
     2
 73
     0
 90
        0
 40
-0.6
 41
-30.0
 62
     5
 63
     7
 74
     1
 91
        4
 64
     7
 65
   257
 75
     1
175
     1
 42
1.0
 92
       12
 66
     7
 43
1.0
 76
     1
 77
     6
 78
     2
 67
     7
 79
     5
170
     0
171
     0
290
     0
174
     0
 93
        1
 44
0.0
173
     0
291
     1
 45
0.0
1001
ACAD
1000
AcDbSavedByObjectVersion
1070
     0
  0
DICTIONARYVAR
  5
149
102
{ACAD_REACTORS
330
146
102
}
330
146
100
DictionaryVariables
280
     0
  1
1:1
  0
ENDSEC
  0
EOF
