  0
SECTION
  2
HEADER
  9
$ACADVER
  1
AC1015
  9
$ACADMAINTVER
 70
     6
  9
$DWGCODEPAGE
  3
ANSI_1252
  9
$INSBASE
 10
0.0
 20
0.0
 30
0.0
  9
$EXTMIN
 10
1.6048383894706
 20
294.4256934221
 30
0.0
  9
$EXTMAX
 10
256.593574672705
 20
421.522862042812
 30
0.0
  9
$LIMMIN
 10
0.0
 20
0.0
  9
$LIMMAX
 10
12.0
 20
9.0
  9
$ORTHOMODE
 70
     0
  9
$REGENMODE
 70
     1
  9
$FILLMODE
 70
     1
  9
$QTEXTMODE
 70
     0
  9
$MIRRTEXT
 70
     1
  9
$LTSCALE
 40
1.0
  9
$ATTMODE
 70
     1
  9
$TEXTSIZE
 40
0.2
  9
$TRACEWID
 40
0.05
  9
$TEXTSTYLE
  7
Standard
  9
$CLAYER
  8
0
  9
$CELTYPE
  6
ByLayer
  9
$CECOLOR
 62
   256
  9
$CELTSCALE
 40
1.0
  9
$DISPSILH
 70
     0
  9
$DIMSCALE
 40
1.0
  9
$DIMASZ
 40
0.18
  9
$DIMEXO
 40
0.0625
  9
$DIMDLI
 40
0.38
  9
$DIMRND
 40
0.0
  9
$DIMDLE
 40
0.0
  9
$DIMEXE
 40
0.18
  9
$DIMTP
 40
0.0
  9
$DIMTM
 40
0.0
  9
$DIMTXT
 40
0.18
  9
$DIMCEN
 40
0.09
  9
$DIMTSZ
 40
0.0
  9
$DIMTOL
 70
     0
  9
$DIMLIM
 70
     0
  9
$DIMTIH
 70
     1
  9
$DIMTOH
 70
     1
  9
$DIMSE1
 70
     0
  9
$DIMSE2
 70
     0
  9
$DIMTAD
 70
     0
  9
$DIMZIN
 70
     0
  9
$DIMBLK
  1

  9
$DIMASO
 70
     1
  9
$DIMSHO
 70
     1
  9
$DIMPOST
  1

  9
$DIMAPOST
  1

  9
$DIMALT
 70
     0
  9
$DIMALTD
 70
     2
  9
$DIMALTF
 40
25.4
  9
$DIMLFAC
 40
1.0
  9
$DIMTOFL
 70
     0
  9
$DIMTVP
 40
0.0
  9
$DIMTIX
 70
     0
  9
$DIMSOXD
 70
     0
  9
$DIMSAH
 70
     0
  9
$DIMBLK1
  1

  9
$DIMBLK2
  1

  9
$DIMSTYLE
  2
Standard
  9
$DIMCLRD
 70
     0
  9
$DIMCLRE
 70
     0
  9
$DIMCLRT
 70
     0
  9
$DIMTFAC
 40
1.0
  9
$DIMGAP
 40
0.09
  9
$DIMJUST
 70
     0
  9
$DIMSD1
 70
     0
  9
$DIMSD2
 70
     0
  9
$DIMTOLJ
 70
     1
  9
$DIMTZIN
 70
     0
  9
$DIMALTZ
 70
     0
  9
$DIMALTTZ
 70
     0
  9
$DIMUPT
 70
     0
  9
$DIMDEC
 70
     4
  9
$DIMTDEC
 70
     4
  9
$DIMALTU
 70
     2
  9
$DIMALTTD
 70
     2
  9
$DIMTXSTY
  7
Standard
  9
$DIMAUNIT
 70
     0
  9
$DIMADEC
 70
     0
  9
$DIMALTRND
 40
0.0
  9
$DIMAZIN
 70
     0
  9
$DIMDSEP
 70
    46
  9
$DIMATFIT
 70
     3
  9
$DIMFRAC
 70
     0
  9
$DIMLDRBLK
  1

  9
$DIMLUNIT
 70
     2
  9
$DIMLWD
 70
    -2
  9
$DIMLWE
 70
    -2
  9
$DIMTMOVE
 70
     0
  9
$LUNITS
 70
     2
  9
$LUPREC
 70
     4
  9
$SKETCHINC
 40
0.1
  9
$FILLETRAD
 40
0.5
  9
$AUNITS
 70
     0
  9
$AUPREC
 70
     0
  9
$MENU
  1
.
  9
$ELEVATION
 40
0.0
  9
$PELEVATION
 40
0.0
  9
$THICKNESS
 40
0.0
  9
$LIMCHECK
 70
     0
  9
$CHAMFERA
 40
0.5
  9
$CHAMFERB
 40
0.5
  9
$CHAMFERC
 40
1.0
  9
$CHAMFERD
 40
0.0
  9
$SKPOLY
 70
     0
  9
$TDCREATE
 40
2456748.734282697
  9
$TDUCREATE
 40
2456748.650949364
  9
$TDUPDATE
 40
2456748.734282708
  9
$TDUUPDATE
 40
2456748.650949375
  9
$TDINDWG
 40
0.0000000116
  9
$TDUSRTIMER
 40
0.0000000116
  9
$USRTIMER
 70
     1
  9
$ANGBASE
 50
0.0
  9
$ANGDIR
 70
     0
  9
$PDMODE
 70
     0
  9
$PDSIZE
 40
0.0
  9
$PLINEWID
 40
0.0
  9
$SPLFRAME
 70
     0
  9
$SPLINETYPE
 70
     6
  9
$SPLINESEGS
 70
     8
  9
$HANDSEED
  5
14B
  9
$SURFTAB1
 70
     6
  9
$SURFTAB2
 70
     6
  9
$SURFTYPE
 70
     6
  9
$SURFU
 70
     6
  9
$SURFV
 70
     6
  9
$UCSBASE
  2

  9
$UCSNAME
  2

  9
$UCSORG
 10
0.0
 20
0.0
 30
0.0
  9
$UCSXDIR
 10
1.0
 20
0.0
 30
0.0
  9
$UCSYDIR
 10
0.0
 20
1.0
 30
0.0
  9
$UCSORTHOREF
  2

  9
$UCSORTHOVIEW
 70
     0
  9
$UCSORGTOP
 10
0.0
 20
0.0
 30
0.0
  9
$UCSORGBOTTOM
 10
0.0
 20
0.0
 30
0.0
  9
$UCSORGLEFT
 10
0.0
 20
0.0
 30
0.0
  9
$UCSORGRIGHT
 10
0.0
 20
0.0
 30
0.0
  9
$UCSORGFRONT
 10
0.0
 20
0.0
 30
0.0
  9
$UCSORGBACK
 10
0.0
 20
0.0
 30
0.0
  9
$PUCSBASE
  2

  9
$PUCSNAME
  2

  9
$PUCSORG
 10
0.0
 20
0.0
 30
0.0
  9
$PUCSXDIR
 10
1.0
 20
0.0
 30
0.0
  9
$PUCSYDIR
 10
0.0
 20
1.0
 30
0.0
  9
$PUCSORTHOREF
  2

  9
$PUCSORTHOVIEW
 70
     0
  9
$PUCSORGTOP
 10
0.0
 20
0.0
 30
0.0
  9
$PUCSORGBOTTOM
 10
0.0
 20
0.0
 30
0.0
  9
$PUCSORGLEFT
 10
0.0
 20
0.0
 30
0.0
  9
$PUCSORGRIGHT
 10
0.0
 20
0.0
 30
0.0
  9
$PUCSORGFRONT
 10
0.0
 20
0.0
 30
0.0
  9
$PUCSORGBACK
 10
0.0
 20
0.0
 30
0.0
  9
$USERI1
 70
     0
  9
$USERI2
 70
     0
  9
$USERI3
 70
     0
  9
$USERI4
 70
     0
  9
$USERI5
 70
     0
  9
$USERR1
 40
16.5
  9
$USERR2
 40
0.0
  9
$USERR3
 40
0.0
  9
$USERR4
 40
0.0
  9
$USERR5
 40
0.0
  9
$WORLDVIEW
 70
     1
  9
$SHADEDGE
 70
     3
  9
$SHADEDIF
 70
    70
  9
$TILEMODE
 70
     1
  9
$MAXACTVP
 70
    64
  9
$PINSBASE
 10
0.0
 20
0.0
 30
0.0
  9
$PLIMCHECK
 70
     0
  9
$PEXTMIN
 10
1.00000000000000E+20
 20
1.00000000000000E+20
 30
1.00000000000000E+20
  9
$PEXTMAX
 10
-1.00000000000000E+20
 20
-1.00000000000000E+20
 30
-1.00000000000000E+20
  9
$PLIMMIN
 10
0.0
 20
0.0
  9
$PLIMMAX
 10
12.0
 20
9.0
  9
$UNITMODE
 70
     0
  9
$VISRETAIN
 70
     1
  9
$PLINEGEN
 70
     0
  9
$PSLTSCALE
 70
     1
  9
$TREEDEPTH
 70
  3020
  9
$CMLSTYLE
  2
Standard
  9
$CMLJUST
 70
     0
  9
$CMLSCALE
 40
1.0
  9
$PROXYGRAPHICS
 70
     1
  9
$MEASUREMENT
 70
     1
  9
$CELWEIGHT
370
    -1
  9
$ENDCAPS
280
     0
  9
$JOINSTYLE
280
     0
  9
$LWDISPLAY
290
     0
  9
$INSUNITS
 70
     1
  9
$HYPERLINKBASE
  1

  9
$STYLESHEET
  1

  9
$XEDIT
290
     1
  9
$CEPSNTYPE
380
     0
  9
$PSTYLEMODE
290
     1
  9
$FINGERPRINTGUID
  2
{B29422FF-59A6-4384-A7B4-5E2B6A2511CE}
  9
$VERSIONGUID
  2
{FAEB1C32-E019-11D5-929B-00C0DF256EC4}
  9
$EXTNAMES
290
     1
  9
$PSVPSCALE
 40
0.0
  9
$OLESTARTUP
290
     0
  0
ENDSEC
  0
SECTION
  2
CLASSES
  0
CLASS
  1
ACDBDICTIONARYWDFLT
  2
AcDbDictionaryWithDefault
  3
ObjectDBX Classes
 90
        0
280
     0
281
     0
  0
CLASS
  1
VISUALSTYLE
  2
AcDbVisualStyle
  3
ObjectDBX Classes
 90
     4095
280
     0
281
     0
  0
CLASS
  1
SCALE
  2
AcDbScale
  3
ObjectDBX Classes
 90
     1153
280
     0
281
     0
  0
CLASS
  1

  2
exOdDbPolyline
  3

 90
        0
280
     0
281
     1
  0
CLASS
  1

  2
exOdDbCircle
  3

 90
        0
280
     0
281
     1
  0
CLASS
  1

  2
exOdDbSpline
  3

 90
        0
280
     0
281
     1
  0
CLASS
  1
DICTIONARYVAR
  2
AcDbDictionaryVar
  3
ObjectDBX Classes
 90
        0
280
     0
281
     0
  0
CLASS
  1
ACDBPLACEHOLDER
  2
AcDbPlaceHolder
  3
ObjectDBX Classes
 90
        0
280
     0
281
     0
  0
CLASS
  1
LAYOUT
  2
AcDbLayout
  3
ObjectDBX Classes
 90
        0
280
     0
281
     0
  0
ENDSEC
  0
SECTION
  2
TABLES
  0
TABLE
  2
VPORT
  5
8
330
0
100
AcDbSymbolTable
 70
     1
  0
VPORT
  5
29
330
8
100
AcDbSymbolTableRecord
100
AcDbViewportTableRecord
  2
*Active
 70
     0
 10
0.0
 20
0.0
 11
1.0
 21
1.0
 12
129.0992065310878
 22
357.974277732456
 13
0.0
 23
0.0
 14
0.5
 24
0.5
 15
0.5
 25
0.5
 16
0.0
 26
0.0
 36
1.0
 17
0.0
 27
0.0
 37
0.0
 40
175.011767744259
 41
1.60267857142857
 42
50.0
 43
0.0
 44
0.0
 50
0.0
 51
0.0
 71
     0
 72
   100
 73
     1
 74
     3
 75
     0
 76
     0
 77
     0
 78
     0
281
     0
 65
     1
110
0.0
120
0.0
130
0.0
111
1.0
121
0.0
131
0.0
112
0.0
122
1.0
132
0.0
 79
     0
146
0.0
  0
ENDTAB
  0
TABLE
  2
LTYPE
  5
5
330
0
100
AcDbSymbolTable
 70
     9
  0
LTYPE
  5
14
330
5
100
AcDbSymbolTableRecord
100
AcDbLinetypeTableRecord
  2
ByBlock
 70
     0
  3

 72
    65
 73
     0
 40
0.0
  0
LTYPE
  5
15
330
5
100
AcDbSymbolTableRecord
100
AcDbLinetypeTableRecord
  2
ByLayer
 70
     0
  3

 72
    65
 73
     0
 40
0.0
  0
LTYPE
  5
16
330
5
100
AcDbSymbolTableRecord
100
AcDbLinetypeTableRecord
  2
Continuous
 70
     0
  3
Solid line
 72
    65
 73
     0
 40
0.0
  0
LTYPE
  5
3B
330
5
100
AcDbSymbolTableRecord
100
AcDbLinetypeTableRecord
  2
DASHED
 70
     0
  3
Dashed
 72
    65
 73
     2
 40
15.0
 49
7.0
 74
     0
 49
-8.0
 74
     0
  0
LTYPE
  5
3C
330
5
100
AcDbSymbolTableRecord
100
AcDbLinetypeTableRecord
  2
DOTTED
 70
     0
  3
Dotted
 72
    65
 73
     2
 40
1.0
 49
0.0
 74
     0
 49
-1.0
 74
     0
  0
LTYPE
  5
3D
330
5
100
AcDbSymbolTableRecord
100
AcDbLinetypeTableRecord
  2
DOT_CENTER
 70
     0
  3
Dot_Center
 72
    65
 73
     4
 40
14.0
 49
12.0
 74
     0
 49
-1.0
 74
     0
 49
0.0
 74
     0
 49
-1.0
 74
     0
  0
LTYPE
  5
3E
330
5
100
AcDbSymbolTableRecord
100
AcDbLinetypeTableRecord
  2
LONG_DASHED
 70
     0
  3
Long_Dashed
 72
    65
 73
     2
 40
15.0
 49
10.0
 74
     0
 49
-5.0
 74
     0
  0
LTYPE
  5
3F
330
5
100
AcDbSymbolTableRecord
100
AcDbLinetypeTableRecord
  2
DASH_CENTER
 70
     0
  3
Dash_Center
 72
    65
 73
     4
 40
14.0
 49
11.0
 74
     0
 49
-1.0
 74
     0
 49
1.0
 74
     0
 49
-1.0
 74
     0
  0
LTYPE
  5
40
330
5
100
AcDbSymbolTableRecord
100
AcDbLinetypeTableRecord
  2
PHANTOM
 70
     0
  3
Phantom
 72
    65
 73
     6
 40
13.0
 49
10.0
 74
     0
 49
-1.0
 74
     0
 49
0.0
 74
     0
 49
-1.0
 74
     0
 49
0.0
 74
     0
 49
-1.0
 74
     0
  0
LTYPE
  5
41
330
5
100
AcDbSymbolTableRecord
100
AcDbLinetypeTableRecord
  2
CENTER_DASH_DASH
 70
     0
  3
Center_Dash_Dash
 72
    65
 73
     6
 40
14.0
 49
9.0
 74
     0
 49
-1.0
 74
     0
 49
1.0
 74
     0
 49
-1.0
 74
     0
 49
1.0
 74
     0
 49
-1.0
 74
     0
  0
LTYPE
  5
42
330
5
100
AcDbSymbolTableRecord
100
AcDbLinetypeTableRecord
  2
HIDDEN
 70
     0
  3
HIDDEN
 72
    65
 73
     2
 40
4.0
 49
2.0
 74
     0
 49
-2.0
 74
     0
  0
ENDTAB
  0
TABLE
  2
LAYER
  5
2
330
0
100
AcDbSymbolTable
 70
     7
  0
LAYER
  5
10
330
2
100
AcDbSymbolTableRecord
100
AcDbLayerTableRecord
  2
0
 70
     0
 62
     7
  6
Continuous
370
    -3
390
F
  0
LAYER
  5
43
330
2
100
AcDbSymbolTableRecord
100
AcDbLayerTableRecord
  2
1
 70
     0
 62
     7
  6
Continuous
370
    -3
390
F
  0
LAYER
  5
44
330
2
100
AcDbSymbolTableRecord
100
AcDbLayerTableRecord
  2
BEZUGSACHSEN
 70
     0
 62
     7
  6
Continuous
370
    -3
390
F
  0
LAYER
  5
45
330
2
100
AcDbSymbolTableRecord
100
AcDbLayerTableRecord
  2
DEFAULT_2
 70
     0
 62
     7
  6
Continuous
370
    -3
390
F
  0
LAYER
  5
46
330
2
100
AcDbSymbolTableRecord
100
AcDbLayerTableRecord
  2
FASEN
 70
     0
 62
     7
  6
Continuous
370
    -3
390
F
  0
LAYER
  5
47
330
2
100
AcDbSymbolTableRecord
100
AcDbLayerTableRecord
  2
GEWINDE
 70
     0
 62
     7
  6
Continuous
370
    -3
390
F
  0
LAYER
  5
48
330
2
100
AcDbSymbolTableRecord
100
AcDbLayerTableRecord
  2
RUNDUNGEN
 70
     0
 62
     7
  6
Continuous
370
    -3
390
F
  0
ENDTAB
  0
TABLE
  2
STYLE
  5
3
330
0
100
AcDbSymbolTable
 70
     2
  0
STYLE
  5
11
330
3
100
AcDbSymbolTableRecord
100
AcDbTextStyleTableRecord
  2
Standard
 70
     0
 40
0.0
 41
1.0
 50
0.0
 71
     0
 42
0.2
  3
txt
  4

  0
STYLE
  5
6F
330
3
100
AcDbSymbolTableRecord
100
AcDbTextStyleTableRecord
  2
CONVERTER_11
 70
     0
 40
0.0
 41
0.72
 50
0.0
 71
     0
 42
0.2
  3
txt.shx
  4

  0
ENDTAB
  0
TABLE
  2
VIEW
  5
6
330
0
100
AcDbSymbolTable
 70
     0
  0
ENDTAB
  0
TABLE
  2
UCS
  5
7
330
0
100
AcDbSymbolTable
 70
     0
  0
ENDTAB
  0
TABLE
  2
APPID
  5
9
330
0
100
AcDbSymbolTable
 70
     1
  0
APPID
  5
12
330
9
100
AcDbSymbolTableRecord
100
AcDbRegAppTableRecord
  2
ACAD
 70
     0
  0
ENDTAB
  0
TABLE
  2
DIMSTYLE
  5
A
330
0
100
AcDbSymbolTable
 70
     6
100
AcDbDimStyleTable
  0
DIMSTYLE
105
27
330
A
100
AcDbSymbolTableRecord
100
AcDbDimStyleTableRecord
  2
Standard
 70
     0
340
11
  0
DIMSTYLE
105
112
102
{ACAD_REACTORS
330
113
102
}
330
A
100
AcDbSymbolTableRecord
100
AcDbDimStyleTableRecord
  2
ME10_DIM_10
 70
     0
  3
\U+2300<>
 41
3.5
 42
2.0
 44
2.0
 71
     1
 73
     0
 74
     0
 77
     1
 78
     8
140
3.5
146
0.7
147
2.0
172
     1
173
     1
176
     2
177
     2
178
     3
271
     2
272
     0
340
6F
  0
DIMSTYLE
105
11D
102
{ACAD_REACTORS
330
11E
102
}
330
A
100
AcDbSymbolTableRecord
100
AcDbDimStyleTableRecord
  2
ME10_DIM_11
 70
     0
  3
\U+2300<>
 41
3.5
 42
2.0
 44
2.0
 71
     1
 73
     0
 74
     0
 77
     1
 78
     8
140
3.5
146
0.7
147
2.0
172
     1
173
     1
176
     2
177
     2
178
     3
271
     2
272
     0
340
6F
  0
DIMSTYLE
105
128
102
{ACAD_REACTORS
330
129
102
}
330
A
100
AcDbSymbolTableRecord
100
AcDbDimStyleTableRecord
  2
ME10_DIM_12
 70
     0
  3
<>
 41
3.5
 42
2.0
 44
2.0
 71
     1
 73
     0
 74
     0
 77
     1
 78
     8
140
3.5
146
0.7
147
2.0
172
     1
173
     1
176
     2
177
     2
178
     3
271
     2
272
     0
340
6F
  0
DIMSTYLE
105
133
102
{ACAD_REACTORS
330
134
102
}
330
A
100
AcDbSymbolTableRecord
100
AcDbDimStyleTableRecord
  2
ME10_DIM_13
 70
     0
  3
<>
 41
3.5
 42
2.0
 44
2.0
 71
     1
 73
     0
 74
     0
 77
     1
 78
     8
140
3.5
146
0.7
147
2.0
172
     1
173
     1
176
     2
177
     2
178
     3
271
     2
272
     0
340
6F
  0
DIMSTYLE
105
13E
102
{ACAD_REACTORS
330
13F
102
}
330
A
100
AcDbSymbolTableRecord
100
AcDbDimStyleTableRecord
  2
ME10_DIM_14
 70
     0
  3
<>
 41
3.5
 42
2.0
 44
2.0
 71
     1
 73
     0
 74
     0
 77
     1
 78
     8
140
3.5
146
0.7
147
2.0
172
     1
173
     1
176
     2
177
     2
178
     3
271
     2
272
     0
340
6F
  0
ENDTAB
  0
TABLE
  2
BLOCK_RECORD
  5
1
330
0
100
AcDbSymbolTable
 70
     8
  0
BLOCK_RECORD
  5
1F
330
1
100
AcDbSymbolTableRecord
100
AcDbBlockTableRecord
  2
*Model_Space
340
22
  0
BLOCK_RECORD
  5
1B
330
1
100
AcDbSymbolTableRecord
100
AcDbBlockTableRecord
  2
*Paper_Space
340
1E
  0
BLOCK_RECORD
  5
23
330
1
100
AcDbSymbolTableRecord
100
AcDbBlockTableRecord
  2
*Paper_Space0
340
26
  0
BLOCK_RECORD
  5
49
330
1
100
AcDbSymbolTableRecord
100
AcDbBlockTableRecord
  2
Urheberrecht_DE-EN
340
0
102
{BLKREFS
331
6E
102
}
  0
BLOCK_RECORD
  5
109
330
1
100
AcDbSymbolTableRecord
100
AcDbBlockTableRecord
  2
*D2
340
0
  0
BLOCK_RECORD
  5
114
330
1
100
AcDbSymbolTableRecord
100
AcDbBlockTableRecord
  2
*D3
340
0
  0
BLOCK_RECORD
  5
11F
330
1
100
AcDbSymbolTableRecord
100
AcDbBlockTableRecord
  2
*D4
340
0
  0
BLOCK_RECORD
  5
12A
330
1
100
AcDbSymbolTableRecord
100
AcDbBlockTableRecord
  2
*D5
340
0
  0
BLOCK_RECORD
  5
135
330
1
100
AcDbSymbolTableRecord
100
AcDbBlockTableRecord
  2
*D6
340
0
  0
BLOCK_RECORD
  5
140
330
1
100
AcDbSymbolTableRecord
100
AcDbBlockTableRecord
  2
*D7
340
0
102
{BLKREFS
331
146
102
}
  0
ENDTAB
  0
ENDSEC
  0
SECTION
  2
BLOCKS
  0
BLOCK
  5
20
330
1F
100
AcDbEntity
  8
0
100
AcDbBlockBegin
  2
*Model_Space
 70
     0
 10
0.0
 20
0.0
 30
0.0
  3
*Model_Space
  1

  0
ENDBLK
  5
21
330
1F
100
AcDbEntity
  8
0
100
AcDbBlockEnd
  0
BLOCK
  5
1C
330
1B
100
AcDbEntity
 67
     1
  8
0
100
AcDbBlockBegin
  2
*Paper_Space
 70
     0
 10
0.0
 20
0.0
 30
0.0
  3
*Paper_Space
  1

  0
ENDBLK
  5
1D
330
1B
100
AcDbEntity
 67
     1
  8
0
100
AcDbBlockEnd
  0
BLOCK
  5
24
330
23
100
AcDbEntity
  8
0
100
AcDbBlockBegin
  2
*Paper_Space0
 70
     0
 10
0.0
 20
0.0
 30
0.0
  3
*Paper_Space0
  1

  0
ENDBLK
  5
25
330
23
100
AcDbEntity
  8
0
100
AcDbBlockEnd
  0
BLOCK
  5
4A
330
49
100
AcDbEntity
  8
0
100
AcDbBlockBegin
  2
Urheberrecht_DE-EN
 70
     0
 10
15.6048383894706
 20
356.909439408764
 30
0.0
  3
Urheberrecht_DE-EN
  1

  0
MTEXT
  5
70
330
49
100
AcDbEntity
  8
1
 62
     1
100
AcDbMText
 10
15.6048383894706
 20
356.909439408764
 30
0.0
 40
2.0
 41
0.0
 71
     7
 72
     1
  1
We own the copyright of this document. It \Pdetermined and may neither be copied or \Pmade accessible to outsiders without our\Ppermission.
  7
CONVERTER_11
 11
0.0
 21
1.0
 31
0.0
 73
     1
 44
0.90036014405762
  0
MTEXT
  5
71
330
49
100
AcDbEntity
  8
1
 62
     1
100
AcDbMText
 10
15.6048383894706
 20
300.6200524914578
 30
0.0
 40
2.0
 41
0.0
 71
     7
 72
     1
  1
F\U+00fcr diese Unterlage behalten wir das Ur-\Pheberrecht. Sie darf nur f\U+00fcr den von uns \Pbestimmten Zweck benutzt und ohne unsere \PZustimmung weder vervielf\U+00e4ltigt noch\PDritten zug\U+00e4nglich gemacht werden.
  7
CONVERTER_11
 11
0.0
 21
1.0
 31
0.0
 73
     1
 44
0.90036014405762
  0
ENDBLK
  5
4B
330
49
100
AcDbEntity
  8
0
100
AcDbBlockEnd
  0
BLOCK
  5
110
330
109
100
AcDbEntity
  8
0
100
AcDbBlockBegin
  2
*D2
 70
     1
 10
0.0
 20
0.0
 30
0.0
  3
*D2
  1

  0
LINE
  5
10A
330
109
100
AcDbEntity
  8
1
  6
Continuous
 62
     2
100
AcDbLine
 10
245.175859160327
 20
353.4256934221
 30
0.0
 11
245.175859160327
 21
335.4256934221
 31
0.0
  0
LINE
  5
10B
330
109
100
AcDbEntity
  8
1
  6
Continuous
 62
     2
100
AcDbLine
 10
235.7295214635
 20
353.4256934221
 30
0.0
 11
247.175859160327
 21
353.4256934221
 31
0.0
  0
LINE
  5
10C
330
109
100
AcDbEntity
  8
1
  6
Continuous
 62
     2
100
AcDbLine
 10
235.7295214635
 20
335.4256934221
 30
0.0
 11
247.175859160327
 21
335.4256934221
 31
0.0
  0
SOLID
  5
10D
330
109
100
AcDbEntity
  8
1
 62
     2
100
AcDbTrace
 10
245.6366429018829
 20
349.9256934221
 30
0.0
 11
244.7150754187711
 21
349.9256934221
 31
0.0
 12
245.175859160327
 22
353.4256934221
 32
0.0
 13
245.175859160327
 23
353.4256934221
 33
0.0
  0
SOLID
  5
10E
330
109
100
AcDbEntity
  8
1
 62
     2
100
AcDbTrace
 10
244.7150754187711
 20
338.9256934221
 30
0.0
 11
245.6366429018829
 21
338.9256934221
 31
0.0
 12
245.175859160327
 22
335.4256934221
 32
0.0
 13
245.175859160327
 23
335.4256934221
 33
0.0
  0
MTEXT
  5
10F
330
109
100
AcDbEntity
  8
1
 62
     3
100
AcDbMText
 10
243.175859160327
 20
336.286071053316
 30
0.0
 40
3.5
 41
0.0
 71
     7
 72
     1
  1
\C3;%%c\C3;\C3;18\C2;\H2.45;\S^ ;\C3;
  7
CONVERTER_11
 11
0.0
 21
1.0
 31
0.0
 73
     1
 44
0.60024009603842
  0
ENDBLK
  5
111
330
109
100
AcDbEntity
  8
0
100
AcDbBlockEnd
  0
BLOCK
  5
11B
330
114
100
AcDbEntity
  8
0
100
AcDbBlockBegin
  2
*D3
 70
     1
 10
0.0
 20
0.0
 30
0.0
  3
*D3
  1

  0
LINE
  5
115
330
114
100
AcDbEntity
  8
1
  6
Continuous
 62
     2
100
AcDbLine
 10
254.593574672705
 20
369.4256934221
 30
0.0
 11
254.593574672705
 21
319.4256934221
 31
0.0
  0
LINE
  5
116
330
114
100
AcDbEntity
  8
1
  6
Continuous
 62
     2
100
AcDbLine
 10
222.6407852778
 20
369.4256934221
 30
0.0
 11
256.593574672705
 21
369.4256934221
 31
0.0
  0
LINE
  5
117
330
114
100
AcDbEntity
  8
1
  6
Continuous
 62
     2
100
AcDbLine
 10
222.6407852778
 20
319.4256934221
 30
0.0
 11
256.593574672705
 21
319.4256934221
 31
0.0
  0
SOLID
  5
118
330
114
100
AcDbEntity
  8
1
 62
     2
100
AcDbTrace
 10
255.0543584142609
 20
365.9256934221
 30
0.0
 11
254.1327909311491
 21
365.9256934221
 31
0.0
 12
254.593574672705
 22
369.4256934221
 32
0.0
 13
254.593574672705
 23
369.4256934221
 33
0.0
  0
SOLID
  5
119
330
114
100
AcDbEntity
  8
1
 62
     2
100
AcDbTrace
 10
254.1327909311491
 20
322.9256934221
 30
0.0
 11
255.0543584142609
 21
322.9256934221
 31
0.0
 12
254.593574672705
 22
319.4256934221
 32
0.0
 13
254.593574672705
 23
319.4256934221
 33
0.0
  0
MTEXT
  5
11A
330
114
100
AcDbEntity
  8
1
 62
     3
100
AcDbMText
 10
252.593574672705
 20
335.130312028911
 30
0.0
 40
3.5
 41
0.0
 71
     7
 72
     1
  1
\C3;%%c\C3;\C3;50\C2;\H2.45;\S^ ;\C3;
  7
CONVERTER_11
 11
0.0
 21
1.0
 31
0.0
 73
     1
 44
0.60024009603842
  0
ENDBLK
  5
11C
330
114
100
AcDbEntity
  8
0
100
AcDbBlockEnd
  0
BLOCK
  5
126
330
11F
100
AcDbEntity
  8
0
100
AcDbBlockBegin
  2
*D4
 70
     1
 10
0.0
 20
0.0
 30
0.0
  3
*D4
  1

  0
LINE
  5
120
330
11F
100
AcDbEntity
  8
1
  6
Continuous
 62
     2
100
AcDbLine
 10
233.7295214635
 20
401.706329998629
 30
0.0
 11
102.7295214635
 21
401.706329998629
 31
0.0
  0
LINE
  5
121
330
11F
100
AcDbEntity
  8
1
  6
Continuous
 62
     2
100
AcDbLine
 10
233.7295214635
 20
364.7886231613
 30
0.0
 11
233.7295214635
 21
403.706329998629
 31
0.0
  0
LINE
  5
122
330
11F
100
AcDbEntity
  8
1
  6
Continuous
 62
     2
100
AcDbLine
 10
102.7295214635
 20
396.425656501
 30
0.0
 11
102.7295214635
 21
403.706329998629
 31
0.0
  0
SOLID
  5
123
330
11F
100
AcDbEntity
  8
1
 62
     2
100
AcDbTrace
 10
230.2295214635
 20
401.2455462570731
 30
0.0
 11
230.2295214635
 21
402.1671137401848
 31
0.0
 12
233.7295214635
 22
401.706329998629
 32
0.0
 13
233.7295214635
 23
401.706329998629
 33
0.0
  0
SOLID
  5
124
330
11F
100
AcDbEntity
  8
1
 62
     2
100
AcDbTrace
 10
106.2295214635
 20
402.1671137401848
 30
0.0
 11
106.2295214635
 21
401.2455462570731
 31
0.0
 12
102.7295214635
 22
401.706329998629
 32
0.0
 13
102.7295214635
 23
401.706329998629
 33
0.0
  0
MTEXT
  5
125
330
11F
100
AcDbEntity
  8
1
 62
     3
100
AcDbMText
 10
166.102395936982
 20
403.706329998629
 30
0.0
 40
3.5
 41
0.0
 71
     7
 72
     1
  1
\C3;\C3;\C3;131\C2;\H2.45;\S^ ;\C3;
  7
CONVERTER_11
 11
0.9999999999970619
 21
2.424068405545306E-6
 31
0.0
 73
     1
 44
0.60024009603842
  0
ENDBLK
  5
127
330
11F
100
AcDbEntity
  8
0
100
AcDbBlockEnd
  0
BLOCK
  5
131
330
12A
100
AcDbEntity
  8
0
100
AcDbBlockBegin
  2
*D5
 70
     1
 10
0.0
 20
0.0
 30
0.0
  3
*D5
  1

  0
LINE
  5
12B
330
12A
100
AcDbEntity
  8
1
  6
Continuous
 62
     2
100
AcDbLine
 10
233.7295214635
 20
408.787625418332
 30
0.0
 11
73.7295214635
 21
408.787625418332
 31
0.0
  0
LINE
  5
12C
330
12A
100
AcDbEntity
  8
1
  6
Continuous
 62
     2
100
AcDbLine
 10
233.7295214635
 20
364.7886231613
 30
0.0
 11
233.7295214635
 21
410.787625418332
 31
0.0
  0
LINE
  5
12D
330
12A
100
AcDbEntity
  8
1
  6
Continuous
 62
     2
100
AcDbLine
 10
73.7295214635
 20
396.4256934221
 30
0.0
 11
73.7295214635
 21
410.787625418332
 31
0.0
  0
SOLID
  5
12E
330
12A
100
AcDbEntity
  8
1
 62
     2
100
AcDbTrace
 10
230.2295214635
 20
408.3268416767762
 30
0.0
 11
230.2295214635
 21
409.2484091598879
 31
0.0
 12
233.7295214635
 22
408.787625418332
 32
0.0
 13
233.7295214635
 23
408.787625418332
 33
0.0
  0
SOLID
  5
12F
330
12A
100
AcDbEntity
  8
1
 62
     2
100
AcDbTrace
 10
77.2295214635
 20
409.2484091598879
 30
0.0
 11
77.2295214635
 21
408.3268416767762
 31
0.0
 12
73.7295214635
 22
408.787625418332
 32
0.0
 13
73.7295214635
 23
408.787625418332
 33
0.0
  0
MTEXT
  5
130
330
12A
100
AcDbEntity
  8
1
 62
     3
100
AcDbMText
 10
151.981628711903
 20
410.787625418332
 30
0.0
 40
3.5
 41
0.0
 71
     7
 72
     1
  1
\C3;\C3;\C3;160\C2;\H2.45;\S^ ;\C3;
  7
CONVERTER_11
 11
0.9999999999970619
 21
2.424068405545306E-6
 31
0.0
 73
     1
 44
0.60024009603842
  0
ENDBLK
  5
132
330
12A
100
AcDbEntity
  8
0
100
AcDbBlockEnd
  0
BLOCK
  5
13C
330
135
100
AcDbEntity
  8
0
100
AcDbBlockBegin
  2
*D6
 70
     1
 10
0.0
 20
0.0
 30
0.0
  3
*D6
  1

  0
LINE
  5
136
330
135
100
AcDbEntity
  8
1
  6
Continuous
 62
     2
100
AcDbLine
 10
233.7295214635
 20
416.022862042812
 30
0.0
 11
23.72952146349999
 21
416.022862042812
 31
0.0
  0
LINE
  5
137
330
135
100
AcDbEntity
  8
1
  6
Continuous
 62
     2
100
AcDbLine
 10
233.7295214635
 20
364.7886231613
 30
0.0
 11
233.7295214635
 21
418.022862042812
 31
0.0
  0
LINE
  5
138
330
135
100
AcDbEntity
  8
1
  6
Continuous
 62
     2
100
AcDbLine
 10
23.72952146349999
 20
380.0258849847
 30
0.0
 11
23.72952146349999
 21
418.022862042812
 31
0.0
  0
SOLID
  5
139
330
135
100
AcDbEntity
  8
1
 62
     2
100
AcDbTrace
 10
230.2295214635
 20
415.5620783012561
 30
0.0
 11
230.2295214635
 21
416.4836457843679
 31
0.0
 12
233.7295214635
 22
416.022862042812
 32
0.0
 13
233.7295214635
 23
416.022862042812
 33
0.0
  0
SOLID
  5
13A
330
135
100
AcDbEntity
  8
1
 62
     2
100
AcDbTrace
 10
27.22952146349999
 20
416.4836457843679
 30
0.0
 11
27.22952146349999
 21
415.5620783012561
 31
0.0
 12
23.72952146349999
 22
416.022862042812
 32
0.0
 13
23.72952146349999
 23
416.022862042812
 33
0.0
  0
MTEXT
  5
13B
330
135
100
AcDbEntity
  8
1
 62
     3
100
AcDbMText
 10
139.820273534585
 20
418.022862042812
 30
0.0
 40
3.5
 41
0.0
 71
     7
 72
     1
  1
\C3;\C3;\C3;210\C2;\H2.45;\S^ ;\C3;
  7
CONVERTER_11
 11
0.9999999999970619
 21
2.424068405545306E-6
 31
0.0
 73
     1
 44
0.60024009603842
  0
ENDBLK
  5
13D
330
135
100
AcDbEntity
  8
0
100
AcDbBlockEnd
  0
BLOCK
  5
144
330
140
100
AcDbEntity
  8
0
100
AcDbBlockBegin
  2
*D7
 70
     1
 10
0.0
 20
0.0
 30
0.0
  3
*D7
  1

  0
LINE
  5
141
330
140
100
AcDbEntity
  8
1
  6
Continuous
 62
     2
100
AcDbLine
 10
115.4413108056525
 20
384.4382894481922
 30
0.0
 11
104.7120377421363
 21
376.4401741268068
 31
0.0
  0
SOLID
  5
142
330
140
100
AcDbEntity
  8
1
 62
     2
100
AcDbTrace
 10
107.2427642348393
 20
378.9014228090032
 30
0.0
 11
107.793549854398
 21
378.1625575796032
 31
0.0
 12
104.7120377421363
 22
376.4401741268068
 32
0.0
 13
104.7120377421363
 23
376.4401741268068
 33
0.0
  0
MTEXT
  5
143
330
140
100
AcDbEntity
  8
1
 62
     3
100
AcDbMText
 10
106.9500771520576
 20
380.6030644169772
 30
0.0
 40
3.5
 41
0.0
 71
     7
 72
     1
  1
\C3; R\C3;\C3;10\C2;\H2.45;\S^ ;\C3;
  7
CONVERTER_11
 11
0.8017483721378084
 21
0.5976617335703989
 31
0.0
 73
     1
 44
0.60024009603842
  0
ENDBLK
  5
145
330
140
100
AcDbEntity
  8
0
100
AcDbBlockEnd
  0
ENDSEC
  0
SECTION
  2
ENTITIES
  0
INSERT
  5
6E
330
1F
100
AcDbEntity
  8
0
100
AcDbBlockReference
  2
Urheberrecht_DE-EN
 10
15.6048383894706
 20
356.909439408764
 30
0.0
  0
LINE
  5
72
330
1F
100
AcDbEntity
  8
BEZUGSACHSEN
  6
Continuous
 62
     7
100
AcDbLine
 10
23.7295214635
 20
310.8255018592
 30
0.0
 11
23.7295214635
 21
332.4156934221
 31
0.0
  0
LINE
  5
73
330
1F
100
AcDbEntity
  8
BEZUGSACHSEN
  6
Continuous
 62
     7
100
AcDbLine
 10
23.7295214635
 20
356.4356934221
 30
0.0
 11
23.7295214635
 21
378.0258849847
 31
0.0
  0
LINE
  5
74
330
1F
100
AcDbEntity
  8
BEZUGSACHSEN
  6
Continuous
 62
     9
100
AcDbLine
 10
25.6294469787
 20
380.0233796904
 30
0.0
 11
25.6294469787
 21
360.1022258084
 31
0.0
  0
LINE
  5
75
330
1F
100
AcDbEntity
  8
BEZUGSACHSEN
  6
Continuous
 62
     9
100
AcDbLine
 10
25.6294469787
 20
328.7491610359
 30
0.0
 11
25.6294469787
 21
308.8280071538
 31
0.0
  0
LINE
  5
76
330
1F
100
AcDbEntity
  8
BEZUGSACHSEN
  6
Continuous
 62
     7
100
AcDbLine
 10
25.7295214635
 20
332.0220534737
 30
0.0
 11
25.7295214635
 21
334.4156934221
 31
0.0
  0
LINE
  5
77
330
1F
100
AcDbEntity
  8
BEZUGSACHSEN
  6
Continuous
 62
     7
100
AcDbLine
 10
25.7295214635
 20
354.4356934221
 30
0.0
 11
25.7295214635
 21
356.8293333705
 31
0.0
  0
LINE
  5
78
330
1F
100
AcDbEntity
  8
BEZUGSACHSEN
  6
Continuous
 62
     9
100
AcDbLine
 10
31.7295214635
 20
328.0670458347
 30
0.0
 11
31.7295214635
 21
334.4156934221
 31
0.0
  0
LINE
  5
79
330
1F
100
AcDbEntity
  8
BEZUGSACHSEN
  6
Continuous
 62
     9
100
AcDbLine
 10
31.7295214635
 20
354.4356934221
 30
0.0
 11
31.7295214635
 21
360.7843410095
 31
0.0
  0
LINE
  5
7A
330
1F
100
AcDbEntity
  8
BEZUGSACHSEN
  6
Continuous
 62
     7
100
AcDbLine
 10
33.7295214635
 20
357.2953489479
 30
0.0
 11
33.7295214635
 21
331.5560378963
 31
0.0
  0
LINE
  5
7B
330
1F
100
AcDbEntity
  8
BEZUGSACHSEN
  6
Continuous
 62
     7
100
AcDbLine
 10
24.9964743905
 20
329.4156934221
 30
0.0
 11
24.8753641391
 21
329.1833574267
 31
0.0
  0
LINE
  5
7C
330
1F
100
AcDbEntity
  8
BEZUGSACHSEN
  6
Continuous
 62
     7
100
AcDbLine
 10
24.8753641391
 20
359.6680294176
 30
0.0
 11
24.9964743905
 21
359.4356934221
 31
0.0
  0
LWPOLYLINE
  5
7D
330
1F
100
AcDbEntity
  8
BEZUGSACHSEN
  6
DOT_CENTER
 62
     7
100
AcDbPolyline
 90
        2
 70
     0
 43
0.25
 10
58.7295214635
 20
344.4256934221
 10
58.7295214635
 20
335.4256934221
  0
LWPOLYLINE
  5
7E
330
1F
100
AcDbEntity
  8
BEZUGSACHSEN
  6
DOT_CENTER
 62
     7
100
AcDbPolyline
 90
        2
 70
     0
 43
0.25
 10
58.7295214635
 20
344.4256934221
 10
58.7295214635
 20
353.4256934221
  0
LINE
  5
7F
330
1F
100
AcDbEntity
  8
BEZUGSACHSEN
  6
Continuous
 62
     7
100
AcDbLine
 10
23.7295214635
 20
332.4156934221
 30
0.0
 11
25.7295214635
 21
334.4156934221
 31
0.0
  0
LINE
  5
80
330
1F
100
AcDbEntity
  8
BEZUGSACHSEN
  6
Continuous
 62
     7
100
AcDbLine
 10
25.7295214635
 20
354.4356934221
 30
0.0
 11
23.7295214635
 21
356.4356934221
 31
0.0
  0
LINE
  5
81
330
1F
100
AcDbEntity
  8
BEZUGSACHSEN
  6
Continuous
 62
     7
100
AcDbLine
 10
71.2295214635
 20
382.3079434221
 30
0.0
 11
71.2295214635
 21
306.5434434221
 31
0.0
  0
LINE
  5
82
330
1F
100
AcDbEntity
  8
BEZUGSACHSEN
  6
Continuous
 62
     9
100
AcDbLine
 10
71.8487650775
 20
306.7093692484
 30
0.0
 11
71.8487650775
 21
382.1420175958
 31
0.0
  0
LINE
  5
83
330
1F
100
AcDbEntity
  8
BEZUGSACHSEN
  6
Continuous
 62
     9
100
AcDbLine
 10
72.1075841226
 20
306.7434434221
 30
0.0
 11
72.1075841226
 21
382.1079434221
 31
0.0
  0
LINE
  5
84
330
1F
100
AcDbEntity
  8
BEZUGSACHSEN
  6
Continuous
 62
     9
100
AcDbLine
 10
73.0289501748
 20
306.7434434221
 30
0.0
 11
73.0289501748
 21
382.1079434221
 31
0.0
  0
LINE
  5
85
330
1F
100
AcDbEntity
  8
BEZUGSACHSEN
  6
Continuous
 62
     7
100
AcDbLine
 10
73.7295214635
 20
394.4256934221
 30
0.0
 11
73.7295214635
 21
294.4256934221
 31
0.0
  0
LWPOLYLINE
  5
86
330
1F
100
AcDbEntity
  8
BEZUGSACHSEN
  6
DOT_CENTER
 62
     7
100
AcDbPolyline
 90
        2
 70
     0
 43
0.25
 10
80.7295214635
 20
386.5750652774
 10
80.7295214635
 20
397.4256934221
  0
LINE
  5
87
330
1F
100
AcDbEntity
  8
BEZUGSACHSEN
  6
Continuous
 62
     7
100
AcDbLine
 10
95.6045214635
 20
392.0482886863
 30
0.0
 11
96.9771167277
 21
394.4256934221
 31
0.0
  0
LINE
  5
88
330
1F
100
AcDbEntity
  8
BEZUGSACHSEN
  6
Continuous
 62
     7
100
AcDbLine
 10
90.4819261993
 20
294.4256934221
 30
0.0
 11
73.7295214635
 21
294.4256934221
 31
0.0
  0
LINE
  5
89
330
1F
100
AcDbEntity
  8
BEZUGSACHSEN
  6
Continuous
 62
     7
100
AcDbLine
 10
96.9771167277
 20
294.4256934221
 30
0.0
 11
102.7295214635
 21
294.4256934221
 31
0.0
  0
LINE
  5
8A
330
1F
100
AcDbEntity
  8
BEZUGSACHSEN
  6
Continuous
 62
     7
100
AcDbLine
 10
92.8545214635
 20
298.4256934221
 30
0.0
 11
94.6045214635
 21
298.4256934221
 31
0.0
  0
LINE
  5
8B
330
1F
100
AcDbEntity
  8
BEZUGSACHSEN
  6
Continuous
 62
     7
100
AcDbLine
 10
95.6045214635
 20
296.8030981579
 30
0.0
 11
96.9771167277
 21
294.4256934221
 31
0.0
  0
LINE
  5
8C
330
1F
100
AcDbEntity
  8
FASEN
  6
Continuous
 62
     9
100
AcDbLine
 10
86.7013953853
 20
312.5256934221
 30
0.0
 11
86.7013953853
 21
312.9256934221
 31
0.0
  0
LINE
  5
8D
330
1F
100
AcDbEntity
  8
FASEN
  6
Continuous
 62
     9
100
AcDbLine
 10
88.7295214635
 20
334.8256934221
 30
0.0
 11
88.7295214635
 21
334.4256934221
 31
0.0
  0
LINE
  5
8E
330
1F
100
AcDbEntity
  8
FASEN
  6
Continuous
 62
     9
100
AcDbLine
 10
88.7295214635
 20
354.0256934221
 30
0.0
 11
88.7295214635
 21
354.4256934221
 31
0.0
  0
LINE
  5
8F
330
1F
100
AcDbEntity
  8
0
  6
Continuous
 62
     7
100
AcDbLine
 10
90.4819261993
 20
394.4256934221
 30
0.0
 11
90.4819261993
 21
354.4256934221
 31
0.0
  0
LINE
  5
90
330
1F
100
AcDbEntity
  8
0
  6
Continuous
 62
     7
100
AcDbLine
 10
90.4819261993
 20
334.4256934221
 30
0.0
 11
90.4819261993
 21
312.9256934221
 31
0.0
  0
LINE
  5
91
330
1F
100
AcDbEntity
  8
0
  6
Continuous
 62
     7
100
AcDbLine
 10
90.4819261993
 20
305.5959367914
 30
0.0
 11
90.4819261993
 21
294.4256934221
 31
0.0
  0
LINE
  5
92
330
1F
100
AcDbEntity
  8
FASEN
  6
Continuous
 62
     7
100
AcDbLine
 10
79.1310074279
 20
305.5959367914
 30
0.0
 11
90.4819261993
 21
305.5959367914
 31
0.0
  0
LINE
  5
93
330
1F
100
AcDbEntity
  8
0
  6
Continuous
 62
     7
100
AcDbLine
 10
96.9771167277
 20
305.5959367914
 30
0.0
 11
102.7295214635
 21
305.5959367914
 31
0.0
  0
LINE
  5
94
330
1F
100
AcDbEntity
  8
BEZUGSACHSEN
  6
Continuous
 62
     7
100
AcDbLine
 10
71.2295214635
 20
306.5434434221
 30
0.0
 11
25.6294469787
 21
308.8280071538
 31
0.0
  0
LINE
  5
95
330
1F
100
AcDbEntity
  8
0
  6
Continuous
 62
     7
100
AcDbLine
 10
91.8545214635
 20
392.0482552598
 30
0.0
 11
91.8545214635
 21
354.4256934221
 31
0.0
  0
LINE
  5
96
330
1F
100
AcDbEntity
  8
0
  6
Continuous
 62
     7
100
AcDbLine
 10
91.8545214635
 20
334.4256934221
 30
0.0
 11
91.8545214635
 21
312.9256934221
 31
0.0
  0
LINE
  5
97
330
1F
100
AcDbEntity
  8
0
  6
Continuous
 62
     7
100
AcDbLine
 10
91.8545214635
 20
296.8031356919
 30
0.0
 11
91.8545214635
 21
309.5437496689
 31
0.0
  0
LINE
  5
98
330
1F
100
AcDbEntity
  8
0
  6
Continuous
 62
     9
100
AcDbLine
 10
92.8545214635
 20
298.4256934221
 30
0.0
 11
92.8545214635
 21
310.9033128384
 31
0.0
  0
LINE
  5
99
330
1F
100
AcDbEntity
  8
0
  6
Continuous
 62
     9
100
AcDbLine
 10
92.8545214635
 20
312.9256934221
 30
0.0
 11
92.8545214635
 21
334.4256934221
 31
0.0
  0
LINE
  5
9A
330
1F
100
AcDbEntity
  8
0
  6
Continuous
 62
     9
100
AcDbLine
 10
92.8545214635
 20
354.4256934221
 30
0.0
 11
92.8545214635
 21
390.4256934221
 31
0.0
  0
LINE
  5
9B
330
1F
100
AcDbEntity
  8
0
  6
Continuous
 62
     9
100
AcDbLine
 10
94.6045214635
 20
298.4256934221
 30
0.0
 11
94.6045214635
 21
310.9033128384
 31
0.0
  0
LINE
  5
9C
330
1F
100
AcDbEntity
  8
0
  6
Continuous
 62
     9
100
AcDbLine
 10
94.6045214635
 20
312.9256934221
 30
0.0
 11
94.6045214635
 21
334.4256934221
 31
0.0
  0
LINE
  5
9D
330
1F
100
AcDbEntity
  8
0
  6
Continuous
 62
     9
100
AcDbLine
 10
94.6045214635
 20
354.4256934221
 30
0.0
 11
94.6045214635
 21
390.4256934221
 31
0.0
  0
LINE
  5
9E
330
1F
100
AcDbEntity
  8
0
  6
Continuous
 62
     7
100
AcDbLine
 10
95.6045214635
 20
296.8031356919
 30
0.0
 11
95.6045214635
 21
309.5437496689
 31
0.0
  0
LINE
  5
9F
330
1F
100
AcDbEntity
  8
0
  6
Continuous
 62
     7
100
AcDbLine
 10
95.6045214635
 20
312.9256934221
 30
0.0
 11
95.6045214635
 21
334.4256934221
 31
0.0
  0
LINE
  5
A0
330
1F
100
AcDbEntity
  8
0
  6
Continuous
 62
     7
100
AcDbLine
 10
95.6045214635
 20
354.4256934221
 30
0.0
 11
95.6045214635
 21
392.0482552598
 31
0.0
  0
LINE
  5
A1
330
1F
100
AcDbEntity
  8
0
  6
Continuous
 62
     7
100
AcDbLine
 10
96.9771167277
 20
394.4256934221
 30
0.0
 11
96.9771167277
 21
354.4256934221
 31
0.0
  0
LINE
  5
A2
330
1F
100
AcDbEntity
  8
0
  6
Continuous
 62
     7
100
AcDbLine
 10
96.9771167277
 20
334.4256934221
 30
0.0
 11
96.9771167277
 21
312.9256934221
 31
0.0
  0
LINE
  5
A3
330
1F
100
AcDbEntity
  8
0
  6
Continuous
 62
     7
100
AcDbLine
 10
96.9771167277
 20
305.5959367914
 30
0.0
 11
96.9771167277
 21
294.4256934221
 31
0.0
  0
LINE
  5
A4
330
1F
100
AcDbEntity
  8
BEZUGSACHSEN
  6
Continuous
 62
     9
100
AcDbLine
 10
23.7295214635
 20
330.9795094531
 30
0.0
 11
25.7295214635
 21
332.0220534737
 31
0.0
  0
LINE
  5
A5
330
1F
100
AcDbEntity
  8
BEZUGSACHSEN
  6
Continuous
 62
     7
100
AcDbLine
 10
73.0289501748
 20
306.7434434221
 30
0.0
 11
72.1075841226
 21
306.7434434221
 31
0.0
  0
LINE
  5
A6
330
1F
100
AcDbEntity
  8
0
  6
Continuous
 62
     7
100
AcDbLine
 10
92.8545214635
 20
310.9033128384
 30
0.0
 11
94.6045214635
 21
310.9033128384
 31
0.0
  0
LINE
  5
A7
330
1F
100
AcDbEntity
  8
FASEN
  6
Continuous
 62
     7
100
AcDbLine
 10
86.7013953853
 20
312.5256934221
 30
0.0
 11
102.7295214635
 21
312.5256934221
 31
0.0
  0
LINE
  5
A8
330
1F
100
AcDbEntity
  8
0
  6
Continuous
 62
     7
100
AcDbLine
 10
86.7013953853
 20
312.9256934221
 30
0.0
 11
102.7295214635
 21
312.9256934221
 31
0.0
  0
LINE
  5
A9
330
1F
100
AcDbEntity
  8
BEZUGSACHSEN
  6
Continuous
 62
     9
100
AcDbLine
 10
25.7295214635
 20
356.8293333705
 30
0.0
 11
23.7295214635
 21
357.8718773911
 31
0.0
  0
LINE
  5
AA
330
1F
100
AcDbEntity
  8
0
  6
Continuous
 62
     7
100
AcDbLine
 10
102.7295214635
 20
394.425656501
 30
0.0
 11
102.7295214635
 21
354.4256934221
 31
0.0
  0
LINE
  5
AB
330
1F
100
AcDbEntity
  8
0
  6
Continuous
 62
     7
100
AcDbLine
 10
102.7295214635
 20
334.4256934221
 30
0.0
 11
102.7295214635
 21
312.9256934221
 31
0.0
  0
LINE
  5
AC
330
1F
100
AcDbEntity
  8
0
  6
Continuous
 62
     7
100
AcDbLine
 10
102.7295214635
 20
305.5959367914
 30
0.0
 11
102.7295214635
 21
294.4256952899
 31
0.0
  0
LINE
  5
AD
330
1F
100
AcDbEntity
  8
FASEN
  6
Continuous
 62
     7
100
AcDbLine
 10
102.7295214635
 20
305.5959367914
 30
0.0
 11
102.7295214635
 21
312.9256934221
 31
0.0
  0
LINE
  5
AE
330
1F
100
AcDbEntity
  8
FASEN
  6
Continuous
 62
     7
100
AcDbLine
 10
102.7295214635
 20
334.4256934221
 30
0.0
 11
102.7295214635
 21
354.4256934221
 31
0.0
  0
LINE
  5
AF
330
1F
100
AcDbEntity
  8
0
  6
Continuous
 62
     7
100
AcDbLine
 10
157.7295214635
 20
319.4256934221
 30
0.0
 11
203.7295214635
 21
319.4256934221
 31
0.0
  0
LINE
  5
B0
330
1F
100
AcDbEntity
  8
0
  6
Continuous
 62
     7
100
AcDbLine
 10
215.7295214635
 20
319.4256934221
 30
0.0
 11
220.6407852778
 21
319.4256934221
 31
0.0
  0
LINE
  5
B1
330
1F
100
AcDbEntity
  8
RUNDUNGEN
  6
Continuous
 62
     9
100
AcDbLine
 10
111.4059920517
 20
372.5047649343
 30
0.0
 11
111.4059920517
 21
316.3466219099
 31
0.0
  0
LINE
  5
B2
330
1F
100
AcDbEntity
  8
BEZUGSACHSEN
  6
Continuous
 62
     7
100
AcDbLine
 10
71.8487650775
 20
306.7093692484
 30
0.0
 11
71.2295214635
 21
306.5434434221
 31
0.0
  0
LINE
  5
B3
330
1F
100
AcDbEntity
  8
BEZUGSACHSEN
  6
Continuous
 62
     9
100
AcDbLine
 10
33.2833674104
 20
329.4156934221
 30
0.0
 11
24.9964743905
 21
329.4156934221
 31
0.0
  0
LINE
  5
B4
330
1F
100
AcDbEntity
  8
BEZUGSACHSEN
  6
Continuous
 62
     7
100
AcDbLine
 10
90.4819261993
 20
294.4256934221
 30
0.0
 11
91.8545214635
 21
296.8030981579
 31
0.0
  0
LINE
  5
B5
330
1F
100
AcDbEntity
  8
BEZUGSACHSEN
  6
Continuous
 62
     7
100
AcDbLine
 10
31.7295214635
 20
334.4156934221
 30
0.0
 11
25.7295214635
 21
334.4156934221
 31
0.0
  0
LINE
  5
B6
330
1F
100
AcDbEntity
  8
0
  6
Continuous
 62
     7
100
AcDbLine
 10
88.7295214635
 20
334.4256934221
 30
0.0
 11
102.7295214635
 21
334.4256934221
 31
0.0
  0
LINE
  5
B7
330
1F
100
AcDbEntity
  8
FASEN
  6
Continuous
 62
     7
100
AcDbLine
 10
102.7295214635
 20
334.8256934221
 30
0.0
 11
88.7295214635
 21
334.8256934221
 31
0.0
  0
LINE
  5
B8
330
1F
100
AcDbEntity
  8
DEFAULT_2
  6
HIDDEN
 62
     8
100
AcDbLine
 10
180.7295214635
 20
335.4256934221
 30
0.0
 11
203.7295214635
 21
335.4256934221
 31
0.0
  0
LINE
  5
B9
330
1F
100
AcDbEntity
  8
DEFAULT_2
  6
HIDDEN
 62
     8
100
AcDbLine
 10
203.7295214635
 20
335.4256934221
 30
0.0
 11
233.7295214635
 21
335.4256934221
 31
0.0
  0
LINE
  5
BA
330
1F
100
AcDbEntity
  8
BEZUGSACHSEN
  6
Continuous
 62
     7
100
AcDbLine
 10
90.4819261993
 20
394.4256934221
 30
0.0
 11
91.8545214635
 21
392.0482886863
 31
0.0
  0
LWPOLYLINE
  5
BB
330
1F
100
AcDbEntity
  8
BEZUGSACHSEN
  6
DOT_CENTER
 62
     7
100
AcDbPolyline
 90
        2
 70
     0
 43
0.25
 10
236.7295214635
 20
344.4256934221
 10
20.7295214635
 20
344.4256934221
  0
LINE
  5
BC
330
1F
100
AcDbEntity
  8
DEFAULT_2
  6
HIDDEN
 62
     8
100
AcDbLine
 10
233.7295214635
 20
353.4256934221
 30
0.0
 11
180.7295214635
 21
353.4256934221
 31
0.0
  0
LINE
  5
BD
330
1F
100
AcDbEntity
  8
FASEN
  6
Continuous
 62
     7
100
AcDbLine
 10
88.7295214635
 20
354.0256934221
 30
0.0
 11
102.7295214635
 21
354.0256934221
 31
0.0
  0
LINE
  5
BE
330
1F
100
AcDbEntity
  8
0
  6
Continuous
 62
     7
100
AcDbLine
 10
88.7295214635
 20
354.4256934221
 30
0.0
 11
102.7295214635
 21
354.4256934221
 31
0.0
  0
LINE
  5
BF
330
1F
100
AcDbEntity
  8
BEZUGSACHSEN
  6
Continuous
 62
     7
100
AcDbLine
 10
31.7295214635
 20
354.4356934221
 30
0.0
 11
25.7295214635
 21
354.4356934221
 31
0.0
  0
LINE
  5
C0
330
1F
100
AcDbEntity
  8
BEZUGSACHSEN
  6
Continuous
 62
     9
100
AcDbLine
 10
24.9964743905
 20
359.4356934221
 30
0.0
 11
33.2833674104
 21
359.4356934221
 31
0.0
  0
LINE
  5
C1
330
1F
100
AcDbEntity
  8
BEZUGSACHSEN
  6
Continuous
 62
     7
100
AcDbLine
 10
71.8487650775
 20
382.1420175958
 30
0.0
 11
71.2295214635
 21
382.3079434221
 31
0.0
  0
LINE
  5
C2
330
1F
100
AcDbEntity
  8
0
  6
Continuous
 62
     9
100
AcDbLine
 10
157.7295214635
 20
369.4256934221
 30
0.0
 11
157.7295214635
 21
319.4256934221
 31
0.0
  0
LINE
  5
C3
330
1F
100
AcDbEntity
  8
0
  6
Continuous
 62
     7
100
AcDbLine
 10
220.6407852778
 20
369.4256934221
 30
0.0
 11
157.7295214635
 21
369.4256934221
 31
0.0
  0
LINE
  5
C4
330
1F
100
AcDbEntity
  8
BEZUGSACHSEN
  6
Continuous
 62
     7
100
AcDbLine
 10
73.0289501748
 20
382.1079434221
 30
0.0
 11
72.1075841226
 21
382.1079434221
 31
0.0
  0
LINE
  5
C5
330
1F
100
AcDbEntity
  8
BEZUGSACHSEN
  6
Continuous
 62
     7
100
AcDbLine
 10
71.2295214635
 20
382.3079434221
 30
0.0
 11
25.6294469787
 21
380.0233796904
 31
0.0
  0
LINE
  5
C6
330
1F
100
AcDbEntity
  8
BEZUGSACHSEN
  6
Continuous
 62
     7
100
AcDbLine
 10
92.8545214635
 20
390.4256934221
 30
0.0
 11
94.6045214635
 21
390.4256934221
 31
0.0
  0
LINE
  5
C7
330
1F
100
AcDbEntity
  8
DEFAULT_2
  6
HIDDEN
 62
     8
100
AcDbLine
 10
180.7295214635
 20
353.4256934221
 30
0.0
 11
180.7295214635
 21
335.4256934221
 31
0.0
  0
LINE
  5
C8
330
1F
100
AcDbEntity
  8
BEZUGSACHSEN
  6
Continuous
 62
     7
100
AcDbLine
 10
90.4819261993
 20
394.4256934221
 30
0.0
 11
85.7295214635
 21
394.4256934221
 31
0.0
  0
LINE
  5
C9
330
1F
100
AcDbEntity
  8
BEZUGSACHSEN
  6
Continuous
 62
     7
100
AcDbLine
 10
75.7295214635
 20
394.4256934221
 30
0.0
 11
73.7295214635
 21
394.4256934221
 31
0.0
  0
LINE
  5
CA
330
1F
100
AcDbEntity
  8
BEZUGSACHSEN
  6
Continuous
 62
     7
100
AcDbLine
 10
96.9771167277
 20
394.4256934221
 30
0.0
 11
102.7295214635
 21
394.4256934221
 31
0.0
  0
LINE
  5
CB
330
1F
100
AcDbEntity
  8
0
  6
Continuous
 62
     7
100
AcDbLine
 10
221.0634035395
 20
319.5193856351
 30
0.0
 11
233.1521397252
 21
325.1564558959
 31
0.0
  0
LINE
  5
CC
330
1F
100
AcDbEntity
  8
RUNDUNGEN
  6
Continuous
 62
     7
100
AcDbLine
 10
233.1521397252
 20
363.6949309483
 30
0.0
 11
221.0634035395
 21
369.3320012091
 31
0.0
  0
LINE
  5
CD
330
1F
100
AcDbEntity
  8
0
  6
Continuous
 62
     7
100
AcDbLine
 10
221.0634035395
 20
369.3320012091
 30
0.0
 11
233.1521397252
 21
363.6949309483
 31
0.0
  0
LINE
  5
CE
330
1F
100
AcDbEntity
  8
GEWINDE
  6
HIDDEN
 62
     8
100
AcDbLine
 10
203.7295214635
 20
335.4256934221
 30
0.0
 11
203.7295214635
 21
319.4256934221
 31
0.0
  0
LWPOLYLINE
  5
CF
330
1F
100
AcDbEntity
  8
GEWINDE
  6
DOT_CENTER
 62
     7
100
AcDbPolyline
 90
        2
 70
     0
 43
0.25
 10
209.7295214635
 20
316.4256934221
 10
209.7295214635
 20
340.7194072482
  0
LINE
  5
D0
330
1F
100
AcDbEntity
  8
GEWINDE
  6
HIDDEN
 62
     8
100
AcDbLine
 10
215.7295214635
 20
335.4256934221
 30
0.0
 11
215.7295214635
 21
319.4256934221
 31
0.0
  0
LINE
  5
D1
330
1F
100
AcDbEntity
  8
RUNDUNGEN
  6
Continuous
 62
     9
100
AcDbLine
 10
220.6407852778
 20
319.4256934221
 30
0.0
 11
220.6407852778
 21
369.4256934221
 31
0.0
  0
LINE
  5
D2
330
1F
100
AcDbEntity
  8
RUNDUNGEN
  6
Continuous
 62
     9
100
AcDbLine
 10
221.0634035395
 20
319.5193856351
 30
0.0
 11
221.0634035395
 21
369.3320012091
 31
0.0
  0
LINE
  5
D3
330
1F
100
AcDbEntity
  8
RUNDUNGEN
  6
Continuous
 62
     9
100
AcDbLine
 10
233.1521397252
 20
325.1564558959
 30
0.0
 11
233.1521397252
 21
363.6949309483
 31
0.0
  0
LINE
  5
D4
330
1F
100
AcDbEntity
  8
RUNDUNGEN
  6
Continuous
 62
     7
100
AcDbLine
 10
233.7295214635
 20
362.7886231613
 30
0.0
 11
233.7295214635
 21
326.0627636829
 31
0.0
  0
LINE
  5
D5
330
1F
100
AcDbEntity
  8
GEWINDE
  6
HIDDEN
 62
     8
100
AcDbLine
 10
216.7295214635
 20
335.4256934221
 30
0.0
 11
216.7295214635
 21
319.4256934221
 31
0.0
  0
LINE
  5
D6
330
1F
100
AcDbEntity
  8
GEWINDE
  6
HIDDEN
 62
     8
100
AcDbLine
 10
202.7295214635
 20
335.4256934221
 30
0.0
 11
202.7295214635
 21
319.4256934221
 31
0.0
  0
ARC
  5
D7
330
1F
100
AcDbEntity
  8
FASEN
  6
Continuous
 62
     7
100
AcDbCircle
 10
91.6301754861
 20
319.9569566918
 30
0.0
 40
19.03859487270025
100
AcDbArc
 50
227.4837701983005
 51
228.9651953373902
  0
ARC
  5
D8
330
1F
100
AcDbEntity
  8
FASEN
  6
Continuous
 62
     7
100
AcDbCircle
 10
86.7013953853
 20
304.9256934221
 30
0.0
 40
8.0
100
AcDbArc
 50
90.0
 51
172.8323734889967
  0
ARC
  5
D9
330
1F
100
AcDbEntity
  8
FASEN
  6
Continuous
 62
     7
100
AcDbCircle
 10
86.7013953853
 20
304.9256934221
 30
0.0
 40
7.599982194900008
100
AcDbArc
 50
90.0
 51
174.9405171273013
  0
ARC
  5
DA
330
1F
100
AcDbEntity
  8
BEZUGSACHSEN
  6
Continuous
 62
     7
100
AcDbCircle
 10
31.7295214635
 20
336.4156934221
 30
0.0
 40
2.0
100
AcDbArc
 50
270.0
 51
355.2355361864946
  0
ARC
  5
DB
330
1F
100
AcDbEntity
  8
BEZUGSACHSEN
  6
Continuous
 62
     7
100
AcDbCircle
 10
25.7295214635
 20
310.825501859
 30
0.0
 40
2.0
100
AcDbArc
 50
179.9999999942695
 51
267.1318795106973
  0
ARC
  5
DC
330
1F
100
AcDbEntity
  8
BEZUGSACHSEN
  6
Continuous
 62
     7
100
AcDbCircle
 10
92.8545214635
 20
297.4256934221
 30
0.0
 40
1.0
100
AcDbArc
 50
90.0
 51
180.0
  0
ARC
  5
DD
330
1F
100
AcDbEntity
  8
BEZUGSACHSEN
  6
Continuous
 62
     7
100
AcDbCircle
 10
72.1075841226
 20
305.7434434221
 30
0.0
 40
1.0
100
AcDbArc
 50
90.0
 51
104.9999999996981
  0
ARC
  5
DE
330
1F
100
AcDbEntity
  8
BEZUGSACHSEN
  6
Continuous
 62
     7
100
AcDbCircle
 10
73.0289501748
 20
305.7434434221
 30
0.0
 40
0.9999999999998533
100
AcDbArc
 50
45.49026120128917
 51
90.0
  0
ARC
  5
DF
330
1F
100
AcDbEntity
  8
0
  6
Continuous
 62
     7
100
AcDbCircle
 10
-150.8682584206
 20
413.8601610132
 30
0.0
 40
264.5204223919355
100
AcDbArc
 50
335.8400764706025
 51
336.5770705491
  0
ARC
  5
E0
330
1F
100
AcDbEntity
  8
BEZUGSACHSEN
  6
Continuous
 62
     7
100
AcDbCircle
 10
80.7447294746
 20
444.478463189
 30
0.0
 40
50.30340021045203
100
AcDbArc
 50
264.2781515102013
 51
269.9826780125999
  0
ARC
  5
E1
330
1F
100
AcDbEntity
  8
BEZUGSACHSEN
  6
Continuous
 62
     7
100
AcDbCircle
 10
80.7143134624
 20
444.4784629882
 30
0.0
 40
50.30340000959742
100
AcDbArc
 50
270.017321976058
 51
275.7218485012678
  0
ARC
  5
E2
330
1F
100
AcDbEntity
  8
0
  6
Continuous
 62
     7
100
AcDbCircle
 10
88.7295214635
 20
344.4256934221
 30
0.0
 40
10.0
100
AcDbArc
 50
90.0
 51
270.0
  0
ARC
  5
E3
330
1F
100
AcDbEntity
  8
FASEN
  6
Continuous
 62
     7
100
AcDbCircle
 10
88.7295214635
 20
344.4256934221
 30
0.0
 40
9.599999195900011
100
AcDbArc
 50
90.0
 51
270.0
  0
ARC
  5
E4
330
1F
100
AcDbEntity
  8
BEZUGSACHSEN
  6
Continuous
 62
     7
100
AcDbCircle
 10
31.7295214635
 20
352.4356934221
 30
0.0
 40
1.999999999999992
100
AcDbArc
 50
4.76446378498877
 51
90.0
  0
ARC
  5
E5
330
1F
100
AcDbEntity
  8
BEZUGSACHSEN
  6
Continuous
 62
     7
100
AcDbCircle
 10
25.7295214635
 20
378.0258849852
 30
0.0
 40
1.999999999952545
100
AcDbArc
 50
92.86812048930265
 51
180.0000000143238
  0
ARC
  5
E6
330
1F
100
AcDbEntity
  8
BEZUGSACHSEN
  6
Continuous
 62
     7
100
AcDbCircle
 10
92.8545214635
 20
391.4256934221
 30
0.0
 40
1.0
100
AcDbArc
 50
180.0
 51
270.0
  0
ARC
  5
E7
330
1F
100
AcDbEntity
  8
BEZUGSACHSEN
  6
Continuous
 62
     7
100
AcDbCircle
 10
72.1075841226
 20
383.1079434221
 30
0.0
 40
1.000000000009914
100
AcDbArc
 50
255.0000000003019
 51
270.0
  0
ARC
  5
E8
330
1F
100
AcDbEntity
  8
BEZUGSACHSEN
  6
Continuous
 62
     7
100
AcDbCircle
 10
73.0289501748
 20
383.1079434221
 30
0.0
 40
1.0
100
AcDbArc
 50
270.0
 51
314.5097387987131
  0
ARC
  5
E9
330
1F
100
AcDbEntity
  8
BEZUGSACHSEN
  6
Continuous
 62
     7
100
AcDbCircle
 10
210.0595680617
 20
-1261.6170658679
 30
0.0
 40
1632.172763698
100
AcDbArc
 50
96.2726189838
 51
96.48809068979999
  0
ARC
  5
EA
330
1F
100
AcDbEntity
  8
0
  6
Continuous
 62
     7
100
AcDbCircle
 10
157.7295214635
 20
-30.5743065779
 30
0.0
 40
350.0
100
AcDbArc
 50
90.0
 51
97.60558102241735
  0
ARC
  5
EB
330
1F
100
AcDbEntity
  8
RUNDUNGEN
  6
Continuous
 62
     7
100
AcDbCircle
 10
157.7295214635
 20
-30.5743065779
 30
0.0
 40
350.0
100
AcDbArc
 50
90.0
 51
97.60558102241735
  0
ARC
  5
EC
330
1F
100
AcDbEntity
  8
RUNDUNGEN
  6
Continuous
 62
     7
100
AcDbCircle
 10
112.7295214635
 20
306.4345953817
 30
0.0
 40
9.999999999982055
100
AcDbArc
 50
97.60558102262944
 51
180.0
  0
ARC
  5
ED
330
1F
100
AcDbEntity
  8
RUNDUNGEN
  6
Continuous
 62
     7
100
AcDbCircle
 10
232.7295214635
 20
326.0627636829
 30
0.0
 40
0.999999999949584
100
AcDbArc
 50
294.9999999987737
 51
0.0
  0
ARC
  5
EE
330
1F
100
AcDbEntity
  8
BEZUGSACHSEN
  6
Continuous
 62
     7
100
AcDbCircle
 10
94.6045214635
 20
297.4256934221
 30
0.0
 40
1.0
100
AcDbArc
 50
0.0
 51
90.0
  0
ARC
  5
EF
330
1F
100
AcDbEntity
  8
RUNDUNGEN
  6
Continuous
 62
     7
100
AcDbCircle
 10
220.6407852778
 20
320.4256934221
 30
0.0
 40
1.0
100
AcDbArc
 50
270.0
 51
294.9999999987737
  0
ARC
  5
F0
330
1F
100
AcDbEntity
  8
BEZUGSACHSEN
  6
Continuous
 62
     7
100
AcDbCircle
 10
210.0595680617
 20
1950.4684527121
 30
0.0
 40
1632.172763698
100
AcDbArc
 50
263.5119093102
 51
263.7273810162
  0
ARC
  5
F1
330
1F
100
AcDbEntity
  8
0
  6
Continuous
 62
     7
100
AcDbCircle
 10
157.7295214635
 20
719.4256934221
 30
0.0
 40
350.0000000000045
100
AcDbArc
 50
262.3944189775826
 51
270.0
  0
ARC
  5
F2
330
1F
100
AcDbEntity
  8
RUNDUNGEN
  6
Continuous
 62
     7
100
AcDbCircle
 10
157.7295214635
 20
719.4256934221
 30
0.0
 40
350.0000000000045
100
AcDbArc
 50
262.3944189775826
 51
270.0
  0
ARC
  5
F3
330
1F
100
AcDbEntity
  8
0
  6
Continuous
 62
     7
100
AcDbCircle
 10
338.3273013466
 20
413.8601610128
 30
0.0
 40
264.5204223909001
100
AcDbArc
 50
203.4229294509001
 51
204.1599235294071
  0
ARC
  5
F4
330
1F
100
AcDbEntity
  8
RUNDUNGEN
  6
Continuous
 62
     7
100
AcDbCircle
 10
112.7295214635
 20
382.4167914625
 30
0.0
 40
10.0
100
AcDbArc
 50
180.0
 51
262.3944189773705
  0
ARC
  5
F5
330
1F
100
AcDbEntity
  8
BEZUGSACHSEN
  6
Continuous
 62
     7
100
AcDbCircle
 10
94.6045214635
 20
391.4256934221
 30
0.0
 40
1.0
100
AcDbArc
 50
270.0
 51
0.0
  0
ARC
  5
F6
330
1F
100
AcDbEntity
  8
RUNDUNGEN
  6
Continuous
 62
     7
100
AcDbCircle
 10
232.7295214635
 20
362.7886231613
 30
0.0
 40
1.0
100
AcDbArc
 50
0.0
 51
65.00000000122631
  0
ARC
  5
F7
330
1F
100
AcDbEntity
  8
RUNDUNGEN
  6
Continuous
 62
     7
100
AcDbCircle
 10
220.6407852778
 20
368.4256934221
 30
0.0
 40
0.999999999949584
100
AcDbArc
 50
65.00000000122631
 51
90.0
  0
CIRCLE
  5
F8
330
1F
100
AcDbEntity
  8
BEZUGSACHSEN
  6
Continuous
 62
     7
100
AcDbCircle
 10
58.7295214635
 20
344.4256934221
 30
0.0
 40
6.000000000000007
  0
SPLINE
  5
F9
330
1F
100
AcDbEntity
  8
0
  6
Continuous
 62
     2
100
AcDbSpline
210
0.0
220
0.0
230
1.0
 70
     8
 71
     3
 72
    63
 73
    59
 74
    57
 42
0.0000000001
 43
0.0000000001
 44
0.00000001
 40
0.0
 40
0.0
 40
0.0
 40
0.0
 40
0.0112454268014074
 40
0.0447872911811814
 40
0.1003323473250364
 40
0.1775807487922558
 40
0.2762344221652247
 40
0.3960079996923023
 40
0.5366237667643635
 40
0.6978185300307898
 40
0.8793791965113602
 40
1.081272190003603
 40
1.303321211404465
 40
1.544588195849978
 40
1.803871688286343
 40
2.07966077755315
 40
2.370556085544627
 40
2.675893119457732
 40
2.995252400889096
 40
3.328436712524851
 40
3.674954982367437
 40
4.032886236607554
 40
4.399931973858471
 40
4.773677981017062
 40
5.1519993551355
 40
5.534023105035189
 40
5.919317497542822
 40
6.307953471997001
 40
6.699802204083883
 40
7.093417307196459
 40
7.487027108793035
 40
7.878865113097471
 40
8.267492469928772
 40
8.652787024426361
 40
9.034823281569889
 40
9.41316146018495
 40
9.786918214624455
 40
10.15396064045411
 40
10.51186988857527
 40
10.85835400571765
 40
11.19150130679777
 40
11.51082982813019
 40
11.81614879259002
 40
12.10703462680372
 40
12.38281642116441
 40
12.64208960250616
 40
12.88334009780455
 40
13.10537021481943
 40
13.30724700492739
 40
13.4887977757573
 40
13.64999108361347
 40
13.79061157157279
 40
13.91039299037465
 40
14.00905579597736
 40
14.08631314669216
 40
14.1418656924162
 40
14.17541248263113
 40
14.18665965998134
 40
14.18665965998134
 40
14.18665965998134
 40
14.18665965998134
 10
216.7295214635
 20
319.4256775222
 30
0.0
 10
216.7259125046085
 20
319.4266906790672
 30
0.0
 10
216.711539062356
 20
319.4307257906218
 30
0.0
 10
216.6793249476693
 20
319.4397124965144
 30
0.0
 10
216.6258997806059
 20
319.4545420096949
 30
0.0
 10
216.5515105226258
 20
319.474992621119
 30
0.0
 10
216.4564067124717
 20
319.5008593198534
 30
0.0
 10
216.3408031840762
 20
319.5318342558539
 30
0.0
 10
216.2049073820883
 20
319.5676198328399
 30
0.0
 10
216.0488835012495
 20
319.6078400672886
 30
0.0
 10
215.8728204064102
 20
319.6521393580773
 30
0.0
 10
215.6767585499055
 20
319.700071403218
 30
0.0
 10
215.4609812712474
 20
319.7511415268204
 30
0.0
 10
215.2261391329366
 20
319.8046885450829
 30
0.0
 10
214.9733241845058
 20
319.8599475956029
 30
0.0
 10
214.7037901875511
 20
319.9161306685372
 30
0.0
 10
214.4186229504614
 20
319.9724707195193
 30
0.0
 10
214.118566802005
 20
320.0282892323726
 30
0.0
 10
213.8039852852954
 20
320.0829870353558
 30
0.0
 10
213.4751884317066
 20
320.13591649027
 30
0.0
 10
213.1330005275146
 20
320.1863764135873
 30
0.0
 10
212.7789619524125
 20
320.2336219137171
 30
0.0
 10
212.415261205748
 20
320.2767942952376
 30
0.0
 10
212.0442016218269
 20
320.3152962936499
 30
0.0
 10
211.6676216639742
 20
320.3485512234899
 30
0.0
 10
211.2867312512057
 20
320.3762383296799
 30
0.0
 10
210.9020181938851
 20
320.3981101834667
 30
0.0
 10
210.5137308184236
 20
320.4139416644791
 30
0.0
 10
210.1224645601406
 20
320.4235325224503
 30
0.0
 10
209.7294357304084
 20
320.4267769856406
 30
0.0
 10
209.3364104987062
 20
320.4235298069522
 30
0.0
 10
208.9451525235549
 20
320.4139363632277
 30
0.0
 10
208.5568716362711
 20
320.3981027532418
 30
0.0
 10
208.1721573683125
 20
320.3762283791054
 30
0.0
 10
207.7912573426269
 20
320.3485380005338
 30
0.0
 10
207.414664301582
 20
320.3152794062187
 30
0.0
 10
207.043596976124
 20
320.2767737110982
 30
0.0
 10
206.6799013745546
 20
320.2335992010553
 30
0.0
 10
206.325882767212
 20
320.1863539472374
 30
0.0
 10
205.9837258986692
 20
320.1358964649498
 30
0.0
 10
205.6549628067417
 20
320.0829710705566
 30
0.0
 10
205.3404096542862
 20
320.0282771787602
 30
0.0
 10
205.0403727392044
 20
319.9724615486552
 30
0.0
 10
204.7552169648163
 20
319.9161233962467
 30
0.0
 10
204.4856918778913
 20
319.8599418141598
 30
0.0
 10
204.2328880770246
 20
319.8046849896861
 30
0.0
 10
203.9980608033053
 20
319.7511413122302
 30
0.0
 10
203.7823002569009
 20
319.7000751704185
 30
0.0
 10
203.586252928102
 20
319.652146870958
 30
0.0
 10
203.410198681671
 20
319.607850055393
 30
0.0
 10
203.2541768847929
 20
319.5676305906221
 30
0.0
 10
203.1182774467406
 20
319.5318442828313
 30
0.0
 10
203.0026668976865
 20
319.5008676076991
 30
0.0
 10
202.9075547259296
 20
319.4749987278212
 30
0.0
 10
202.8331572309916
 20
319.4545459230079
 30
0.0
 10
202.7797251958829
 20
319.4397145264017
 30
0.0
 10
202.7475065460267
 20
319.4307265042532
 30
0.0
 10
202.7331309795643
 20
319.4266907255613
 30
0.0
 10
202.7295214635
 20
319.4256773945
 30
0.0
 11
216.7295214635
 21
319.4256775222
 31
0.0
 11
216.718694171025
 21
319.4287155086396
 31
0.0
 11
216.6863881435
 21
319.4377364427166
 31
0.0
 11
216.6328655629645
 21
319.4525886019822
 31
0.0
 11
216.5583822402162
 21
319.4730715256411
 31
0.0
 11
216.4631853089795
 21
319.4989576522941
 31
0.0
 11
216.3474935659287
 21
319.5299597564724
 31
0.0
 11
216.2115122960432
 21
319.5657632226399
 31
0.0
 11
216.0554210769171
 21
319.6060035384469
 31
0.0
 11
215.8793466087355
 21
319.650298654063
 31
0.0
 11
215.6832297883088
 21
319.6982462667978
 31
0.0
 11
215.4671490040594
 21
319.7493819938705
 31
0.0
 11
215.2319184116667
 21
319.8030133856667
 31
0.0
 11
214.97861441375
 21
319.8583759550563
 31
0.0
 11
214.7086266334333
 21
319.9146451316833
 31
0.0
 11
214.4232463576479
 21
319.9710204667521
 31
0.0
 11
214.12305830805
 21
320.0268580809333
 31
0.0
 11
213.8084175433345
 21
320.0815530515939
 31
0.0
 11
213.4794670356256
 21
320.1344997134179
 31
0.0
 11
213.1366554672362
 21
320.1850481052131
 31
0.0
 11
212.7818664478023
 21
320.2323718249639
 31
0.0
 11
212.4173801273335
 21
320.2756418541432
 31
0.0
 11
212.045627896166
 21
320.3141951482822
 31
0.0
 11
211.6687728817821
 21
320.3474721711142
 31
0.0
 11
211.2877539195153
 21
320.3751614448595
 31
0.0
 11
210.9030802093206
 21
320.3970224965929
 31
0.0
 11
210.51476669555
 21
320.4128508149834
 31
0.0
 11
210.1230357821312
 21
320.4224591608437
 31
0.0
 11
209.7294339669
 21
320.4256934219666
 31
0.0
 11
209.3358374758604
 21
320.422456424248
 31
0.0
 11
208.9441173537833
 21
320.4128456190167
 31
0.0
 11
208.5558125503814
 21
320.3970152010595
 31
0.0
 11
208.171138816368
 21
320.3751517135596
 31
0.0
 11
207.79010756207
 21
320.3474590246267
 31
0.0
 11
207.4132360352674
 21
320.3141779536822
 31
0.0
 11
207.0414734052414
 21
320.2756207441704
 31
0.0
 11
206.6769906960643
 21
320.2323483849806
 31
0.0
 11
206.3222238129159
 21
320.1850251506047
 31
0.0
 11
205.9794463310243
 21
320.1344797122346
 31
0.0
 11
205.6505325884739
 21
320.081537534546
 31
0.0
 11
205.3359222985667
 21
320.0268468587334
 31
0.0
 11
205.0357521340521
 21
319.9710119019938
 31
0.0
 11
204.75038123025
 21
319.9146380090167
 31
0.0
 11
204.4804006594771
 21
319.8583699940709
 31
0.0
 11
204.2271067794667
 21
319.80300942225
 31
0.0
 11
203.9918922784093
 21
319.7493816311894
 31
0.0
 11
203.7758298809079
 21
319.6982502978645
 31
0.0
 11
203.5797287577353
 21
319.6503067073152
 31
0.0
 11
203.4036638279329
 21
319.606014237497
 31
0.0
 11
203.2475739595589
 21
319.565774512242
 31
0.0
 11
203.111588071038
 21
319.5299700466391
 31
0.0
 11
202.9958887171601
 21
319.4989660500837
 31
0.0
 11
202.9006829489338
 21
319.4730776181911
 31
0.0
 11
202.8261909807688
 21
319.4525923815958
 31
0.0
 11
202.7726611821167
 21
319.437738224175
 31
0.0
 11
202.7403504283521
 21
319.4287159004782
 31
0.0
 11
202.7295214635
 21
319.4256773945
 31
0.0
  0
SPLINE
  5
FA
330
1F
100
AcDbEntity
  8
GEWINDE
  6
Continuous
 62
     7
100
AcDbSpline
210
0.0
220
0.0
230
1.0
 70
     8
 71
     3
 72
    23
 73
    19
 74
    17
 42
0.0000000001
 43
0.0000000001
 44
0.00000001
 40
0.0
 40
0.0
 40
0.0
 40
0.0
 40
0.235493521736825
 40
0.4709943156007259
 40
1.132889871944714
 40
1.794822364318572
 40
2.774257686010533
 40
3.753750996424641
 40
4.90591222943044
 40
6.05809980438999
 40
7.210287422935822
 40
8.362448699420309
 40
9.341941996951352
 40
10.3213773058292
 40
10.98330987449519
 40
11.64520550721656
 40
11.88070635022543
 40
12.11619992121246
 40
12.11619992121246
 40
12.11619992121246
 40
12.11619992121246
 10
203.7295214635
 20
319.4256934221
 30
0.0
 10
203.8058952589283
 20
319.443832750753
 30
0.0
 10
203.958645208236
 20
319.4801119682082
 30
0.0
 10
204.3269462638813
 20
319.5635517408014
 30
0.0
 10
204.8356314095435
 20
319.6706155300033
 30
0.0
 10
205.5906390479915
 20
319.8103199079612
 30
0.0
 10
206.4543977881947
 20
319.9426646949826
 30
0.0
 10
207.4849658293578
 20
320.0604735869179
 30
0.0
 10
208.5772397163461
 20
320.1380307143072
 30
0.0
 10
209.7295213217236
 20
320.1655370711514
 30
0.0
 10
210.8818029419819
 20
320.1380307283688
 30
0.0
 10
211.9740768544735
 20
320.0604736101064
 30
0.0
 10
213.0046449024618
 20
319.9426647256527
 30
0.0
 10
213.8684036604788
 20
319.8103199436957
 30
0.0
 10
214.6234113461039
 20
319.6706155643798
 30
0.0
 10
215.1320965582722
 20
319.5635517644155
 30
0.0
 10
215.5003976709457
 20
319.4801119798599
 30
0.0
 10
215.6531476521209
 20
319.4438327546396
 30
0.0
 10
215.7295214635
 20
319.4256934221
 30
0.0
 11
203.7295214635
 21
319.4256934221
 31
0.0
 11
203.9587352727567
 21
319.4797140517338
 31
0.0
 11
204.1883952010893
 21
319.5318383380965
 31
0.0
 11
204.8361417532056
 21
319.667963764558
 31
0.0
 11
205.4870348010971
 21
319.7883500788417
 31
0.0
 11
206.4552041635826
 21
319.9364771692819
 31
0.0
 11
207.4283825947201
 21
320.0475216933009
 31
0.0
 11
208.577658612309
 21
320.1290087612101
 31
0.0
 11
209.729521307258
 21
320.1563682180057
 31
0.0
 11
210.8813840461196
 21
320.1290087744365
 31
0.0
 11
212.0306601078799
 21
320.0475217147574
 31
0.0
 11
213.0038385271277
 21
319.9364772001763
 31
0.0
 11
213.9720078782957
 21
319.7883501204926
 31
0.0
 11
214.6229010023044
 21
319.6679637982675
 31
0.0
 11
215.2706476299621
 21
319.5318383598888
 31
0.0
 11
215.5003076063389
 21
319.4797140631694
 31
0.0
 11
215.7295214635
 21
319.4256934221
 31
0.0
  0
SPLINE
  5
FB
330
1F
100
AcDbEntity
  8
BEZUGSACHSEN
  6
Continuous
 62
     7
100
AcDbSpline
210
0.0
220
0.0
230
1.0
 70
     8
 71
     3
 72
    27
 73
    23
 74
    21
 42
0.0000000001
 43
0.0000000001
 44
0.00000001
 40
0.0
 40
0.0
 40
0.0
 40
0.0
 40
0.1219765140164761
 40
0.2439857715663979
 40
0.3566831398999594
 40
0.4694418149919804
 40
0.5721317673101148
 40
0.6745445881295143
 40
0.7225206521331131
 40
0.7704888797769767
 40
0.8171412936083713
 40
0.8637898734355534
 40
0.9102318001064368
 40
0.9566751324504081
 40
1.004175175779996
 40
1.051683100154671
 40
1.153672388748372
 40
1.256049376693666
 40
1.370745138114812
 40
1.485385401895797
 40
1.6115349039315
 40
1.737631875976312
 40
1.737631875976312
 40
1.737631875976312
 40
1.737631875976312
 10
24.8753641391
 20
329.1833574267
 30
0.0
 10
24.84010912149109
 20
329.1630779014006
 30
0.0
 10
24.76958962237067
 20
329.1225134069394
 30
0.0
 10
24.66193721914686
 20
329.0717175460718
 30
0.0
 10
24.55377920327838
 20
329.0299659102301
 30
0.0
 10
24.44819998232743
 20
329.0005513251211
 30
0.0
 10
24.34336843719826
 20
328.9836367377462
 30
0.0
 10
24.25864076735778
 20
328.9817715144967
 30
0.0
 10
24.1928168309528
 20
328.9887268224736
 30
0.0
 10
24.14610962773658
 20
328.9979239496008
 30
0.0
 10
24.10092901043024
 20
329.0114573945798
 30
0.0
 10
24.05778939977686
 20
329.0292506533998
 30
0.0
 10
24.01683492320459
 20
329.0514790111382
 30
0.0
 10
23.97818749674149
 20
329.0780140428627
 30
0.0
 10
23.94228141810435
 20
329.1087093203814
 30
0.0
 10
23.89684209655646
 20
329.1562467934693
 30
0.0
 10
23.84829895646955
 20
329.2254161605553
 30
0.0
 10
23.80207324750734
 20
329.3215742152704
 30
0.0
 10
23.76810737372496
 20
329.4271496482664
 30
0.0
 10
23.7451519495473
 20
329.5435673391752
 30
0.0
 10
23.73170739119753
 20
329.6653146478308
 30
0.0
 10
23.7302500048996
 20
329.749418011348
 30
0.0
 10
23.7295214635
 20
329.7914609359
 30
0.0
 11
24.8753641391
 21
329.1833574267
 31
0.0
 11
24.76881951501269
 21
329.1239729754547
 31
0.0
 11
24.65852662581266
 21
329.0718027011619
 31
0.0
 11
24.55320861797397
 21
329.0316926768014
 31
0.0
 11
24.44448488946085
 21
329.0017983685352
 31
0.0
 11
24.34302073735235
 21
328.9859790087502
 31
0.0
 11
24.24062119676977
 21
328.984329779639
 31
0.0
 11
24.19291734055722
 21
328.9894331921963
 31
0.0
 11
24.14586657029577
 21
328.9987699947056
 31
0.0
 11
24.10118700286235
 21
329.0121932569864
 31
0.0
 11
24.05808086626641
 21
329.0300244371959
 31
0.0
 11
24.01725827346955
 21
329.0521687021475
 31
0.0
 11
23.9789710169234
 21
329.0784568954172
 31
0.0
 11
23.94283391991285
 21
329.1092848751752
 31
0.0
 11
23.90998141954096
 21
329.1436027436653
 31
0.0
 11
23.85080902528714
 21
329.2266716472702
 31
0.0
 11
23.80590930168608
 21
329.3186774214439
 31
0.0
 11
23.77027114211859
 21
329.4276959486336
 31
0.0
 11
23.74741957875235
 21
329.5400355949367
 31
0.0
 11
23.73365282242979
 21
329.6654316606015
 31
0.0
 11
23.7295214635
 21
329.7914609359
 31
0.0
  0
SPLINE
  5
FC
330
1F
100
AcDbEntity
  8
BEZUGSACHSEN
  6
Continuous
 62
     7
100
AcDbSpline
210
0.0
220
0.0
230
1.0
 70
     8
 71
     3
 72
    15
 73
    11
 74
     9
 42
0.0000000001
 43
0.0000000001
 44
0.00000001
 40
0.0
 40
0.0
 40
0.0
 40
0.0
 40
0.11103716130418
 40
0.2222522336794173
 40
0.3333980191156797
 40
0.4445069474042231
 40
0.5556201064649562
 40
0.6667525641793222
 40
0.7778876033003543
 40
0.8889820915295245
 40
0.8889820915295245
 40
0.8889820915295245
 40
0.8889820915295245
 10
25.6294469787
 20
328.7491610359
 30
0.0
 10
25.59280525184032
 20
328.7546931887144
 30
0.0
 10
25.51946308832691
 20
328.7657663583237
 30
0.0
 10
25.41294653833171
 20
328.7987849218317
 30
0.0
 10
25.31053363058829
 20
328.8423752092832
 30
0.0
 10
25.21308366497088
 20
328.8961547171065
 30
0.0
 10
25.12077886923028
 20
328.9582498524608
 30
0.0
 10
25.03378224109429
 20
329.0275365261041
 30
0.0
 10
24.95152948565818
 20
329.1024184777464
 30
0.0
 10
24.90074949929366
 20
329.1563810592871
 30
0.0
 10
24.8753641391
 20
329.1833574267
 30
0.0
 11
25.6294469787
 21
328.7491610359
 31
0.0
 11
25.52010469365124
 21
328.7684875951076
 31
0.0
 11
25.41361274006315
 21
328.8005540284051
 31
0.0
 11
25.31134455946534
 21
328.8440810873163
 31
0.0
 11
25.21394169302643
 21
328.8975401890195
 31
0.0
 11
25.1216699262242
 21
328.9594437847765
 31
0.0
 11
25.03457282280604
 21
329.0284692708943
 31
0.0
 11
24.95253291835179
 21
329.1034389380776
 31
0.0
 11
24.8753641391
 21
329.1833574267
 31
0.0
  0
SPLINE
  5
FD
330
1F
100
AcDbEntity
  8
BEZUGSACHSEN
  6
Continuous
 62
     7
100
AcDbSpline
210
0.0
220
0.0
230
1.0
 70
     8
 71
     3
 72
    15
 73
    11
 74
     9
 42
0.0000000001
 43
0.0000000001
 44
0.00000001
 40
0.0
 40
0.0
 40
0.0
 40
0.0
 40
0.1110944830730616
 40
0.2222295180792038
 40
0.3333620401230304
 40
0.4444752609413213
 40
0.5555842177291539
 40
0.6667300353216163
 40
0.7779450181143235
 40
0.8889820870658914
 40
0.8889820870658914
 40
0.8889820870658914
 40
0.8889820870658914
 10
24.8753641391
 20
359.6680294176
 30
0.0
 10
24.90074949864467
 20
359.6950057832776
 30
0.0
 10
24.95152948394932
 20
359.7489683616003
 30
0.0
 10
25.03378225320085
 20
359.8238503249709
 30
0.0
 10
25.1207789051526
 20
359.893137033869
 30
0.0
 10
25.21308374557729
 20
359.9552321969422
 30
0.0
 10
25.31053376755219
 20
360.0090116890736
 30
0.0
 10
25.41294668141997
 20
360.052601934684
 30
0.0
 10
25.51946317999295
 20
360.0856204905294
 30
0.0
 10
25.59280528270016
 20
360.096693657151
 30
0.0
 10
25.6294469787
 20
360.1022258084
 30
0.0
 11
24.8753641391
 21
359.6680294176
 31
0.0
 11
24.9525329161269
 21
359.7479479012032
 31
0.0
 11
25.03457281637828
 21
359.8229175668858
 31
0.0
 11
25.12166996498934
 21
359.8919430995505
 31
0.0
 11
25.21394178656192
 21
359.9538467245195
 31
0.0
 11
25.31134469462718
 21
360.0073058096118
 31
0.0
 11
25.413612918016
 21
360.0508328500946
 31
0.0
 11
25.52010478614046
 21
360.0828992565185
 31
0.0
 11
25.6294469787
 21
360.1022258084
 31
0.0
  0
SPLINE
  5
FE
330
1F
100
AcDbEntity
  8
BEZUGSACHSEN
  6
Continuous
 62
     7
100
AcDbSpline
210
0.0
220
0.0
230
1.0
 70
     8
 71
     3
 72
    27
 73
    23
 74
    21
 42
0.0000000001
 43
0.0000000001
 44
0.00000001
 40
0.0
 40
0.0
 40
0.0
 40
0.0
 40
0.1260969825525345
 40
0.2522464959195267
 40
0.3668867952504626
 40
0.4815825893953783
 40
0.5839596006874535
 40
0.6859489161358022
 40
0.7334568410412927
 40
0.7809568848702999
 40
0.8274002264131923
 40
0.8738421606883991
 40
0.9204907318699058
 40
0.9671431399041852
 40
1.015111401801067
 40
1.06308749712183
 40
1.165500418722764
 40
1.268190478923052
 40
1.380949153847912
 40
1.493646517726452
 40
1.615655563705213
 40
1.737631867601958
 40
1.737631867601958
 40
1.737631867601958
 40
1.737631867601958
 10
23.7295214635
 20
359.0599259083
 30
0.0
 10
23.73025000497628
 20
359.1019688363609
 30
0.0
 10
23.73170739143235
 20
359.1860722071705
 30
0.0
 10
23.74515195338079
 20
359.3078195347332
 30
0.0
 10
23.76810738666632
 20
359.4242372511113
 30
0.0
 10
23.80207328700192
 20
359.5298127089045
 30
0.0
 10
23.84829904584944
 20
359.6259707711672
 30
0.0
 10
23.8968422144005
 20
359.6951401368374
 30
0.0
 10
23.94228153996883
 20
359.7426776184308
 30
0.0
 10
23.97818761806374
 20
359.7733729018884
 30
0.0
 10
24.01683504915443
 20
359.7999079375899
 30
0.0
 10
24.05778953635804
 20
359.8221362834836
 30
0.0
 10
24.10092916253337
 20
359.8399295003613
 30
0.0
 10
24.14610979714676
 20
359.8534629074223
 30
0.0
 10
24.19281702013642
 20
359.862660032756
 30
0.0
 10
24.25864101133986
 20
359.8696153531369
 30
0.0
 10
24.34336876333686
 20
359.867750096503
 30
0.0
 10
24.44820036682613
 20
359.8508354355619
 30
0.0
 10
24.55377960917192
 20
359.8214208027023
 30
0.0
 10
24.66193754726919
 20
359.7796691652371
 30
0.0
 10
24.76958980852737
 20
359.7288733380473
 30
0.0
 10
24.84010918340338
 20
359.6883089098753
 30
0.0
 10
24.8753641391
 20
359.6680294176
 30
0.0
 11
23.7295214635
 21
359.0599259083
 31
0.0
 11
23.73365282306465
 21
359.185955194091
 31
0.0
 11
23.74741958218566
 21
359.311351270848
 31
0.0
 11
23.7702711582678
 21
359.4236909508424
 31
0.0
 11
23.80590934763866
 21
359.5327095027173
 31
0.0
 11
23.8508091124388
 21
359.6247152827639
 31
0.0
 11
23.90998154139294
 21
359.707784194622
 31
0.0
 11
23.94283404155447
 21
359.7421020640484
 31
0.0
 11
23.97897113648128
 21
359.7729300470185
 31
0.0
 11
24.01725840134272
 21
359.7992182444291
 31
0.0
 11
24.05808100927998
 21
359.8213624974177
 31
0.0
 11
24.10118715289804
 21
359.8391936380334
 31
0.0
 11
24.14586672494237
 21
359.8526168648188
 31
0.0
 11
24.19291753069751
 21
359.8619536644418
 31
0.0
 11
24.24062141797159
 21
359.867057081059
 31
0.0
 11
24.34302105882932
 21
359.865407819695
 31
0.0
 11
24.44448530913003
 21
359.8495883894001
 31
0.0
 11
24.55320902556722
 21
359.8196940378451
 31
0.0
 11
24.65852701786172
 21
359.7795839851871
 31
0.0
 11
24.76881970377962
 21
359.7274137759326
 31
0.0
 11
24.8753641391
 21
359.6680294176
 31
0.0
  0
SPLINE
  5
FF
330
1F
100
AcDbEntity
  8
0
  6
Continuous
 62
     7
100
AcDbSpline
210
0.0
220
0.0
230
1.0
 70
     8
 71
     3
 72
    19
 73
    15
 74
    13
 42
0.0000000001
 43
0.0000000001
 44
0.00000001
 40
0.0
 40
0.0
 40
0.0
 40
0.0
 40
0.1162460235978095
 40
0.2327881718600007
 40
0.3491890046773961
 40
0.4655468551589981
 40
0.5819071370822846
 40
0.6982738489999462
 40
0.8146206073455442
 40
0.93099982788201
 40
1.163276323493698
 40
1.396138921800194
 40
1.629013178087308
 40
1.861351539830433
 40
1.861351539830433
 40
1.861351539830433
 40
1.861351539830433
 10
92.8545214635
 20
310.9033128384
 30
0.0
 10
92.81573739265053
 20
310.9014718915116
 30
0.0
 10
92.73807045256166
 20
310.8977853081137
 30
0.0
 10
92.62446036746084
 20
310.8693798231615
 30
0.0
 10
92.51627267949095
 20
310.8255259089241
 30
0.0
 10
92.41529681352901
 20
310.7669292206642
 30
0.0
 10
92.32252835680453
 20
310.6962443593243
 30
0.0
 10
92.23844097781873
 20
310.6154867542363
 30
0.0
 10
92.16313733444485
 20
310.5265191154955
 30
0.0
 10
92.07448609028029
 20
310.3991596677567
 30
0.0
 10
91.98448934454264
 20
310.2263742896977
 30
0.0
 10
91.90959582538892
 20
310.0054492995351
 30
0.0
 10
91.86305890010593
 20
309.7764293799253
 30
0.0
 10
91.85736508940266
 20
309.6212499870675
 30
0.0
 10
91.8545214635
 20
309.5437496689
 30
0.0
 11
92.8545214635
 21
310.9033128384
 31
0.0
 11
92.73865011192146
 21
310.8939871810149
 31
0.0
 11
92.62532558718654
 21
310.8667911442601
 31
0.0
 11
92.51745245455551
 21
310.8230585347227
 31
0.0
 11
92.4166637150422
 21
310.7649140650285
 31
0.0
 11
92.32397640999467
 21
310.6945665086225
 31
0.0
 11
92.23990104436918
 21
310.6141143828739
 31
0.0
 11
92.16460228643751
 21
310.5254201596603
 31
0.0
 11
92.09797555712223
 21
310.4300000259702
 31
0.0
 11
91.99008577101678
 21
310.2243008172509
 31
0.0
 11
91.9143276341869
 21
310.0041061433959
 31
0.0
 11
91.86936762041717
 21
309.7756132192098
 31
0.0
 11
91.8545214635
 21
309.5437496689
 31
0.0
  0
SPLINE
  5
100
330
1F
100
AcDbEntity
  8
0
  6
Continuous
 62
     7
100
AcDbSpline
210
0.0
220
0.0
230
1.0
 70
     8
 71
     3
 72
    19
 73
    15
 74
    13
 42
0.0000000001
 43
0.0000000001
 44
0.00000001
 40
0.0
 40
0.0
 40
0.0
 40
0.0
 40
0.232338348144215
 40
0.4652125957786568
 40
0.6980761133729633
 40
0.9303535188104854
 40
1.046733461857444
 40
1.163080940919511
 40
1.279447997501565
 40
1.395808629617485
 40
1.512165904579414
 40
1.628566140394689
 40
1.745106920573207
 40
1.861351602834132
 40
1.861351602834132
 40
1.861351602834132
 40
1.861351602834132
 10
95.6045214635
 20
309.5437496689
 30
0.0
 10
95.60167783789403
 20
309.6212499825683
 30
0.0
 10
95.59598402772387
 20
309.7764293680777
 30
0.0
 10
95.5494470518731
 20
310.005449582127
 30
0.0
 10
95.47455330607417
 20
310.2263751440291
 30
0.0
 10
95.38455600181527
 20
310.3991612082325
 30
0.0
 10
95.29590406403082
 20
310.5265211339488
 30
0.0
 10
95.22059979968178
 20
310.61548903286
 30
0.0
 10
95.13651182584499
 20
310.6962467028096
 30
0.0
 10
95.0437430920056
 20
310.7669312691824
 30
0.0
 10
94.94276727977748
 20
310.8255274933628
 30
0.0
 10
94.83458023028749
 20
310.8693807445251
 30
0.0
 10
94.7209711209478
 20
310.897785503973
 30
0.0
 10
94.64330508616112
 20
310.9014719566195
 30
0.0
 10
94.6045214635
 20
310.9033128384
 30
0.0
 11
95.6045214635
 21
309.5437496689
 31
0.0
 11
95.58967530937971
 21
309.7756132057621
 31
0.0
 11
95.54471530777359
 21
310.004106123523
 31
0.0
 11
95.46895682905622
 21
310.2243016519263
 31
0.0
 11
95.36106641787354
 21
310.4300015601704
 31
0.0
 11
95.29443909405008
 21
310.5254221599575
 31
0.0
 11
95.2191396374934
 21
310.6141167354758
 31
0.0
 11
95.13506377114263
 21
310.6945688364735
 31
0.0
 11
95.0423759451561
 21
310.7649162857542
 31
0.0
 11
94.94158751027028
 21
310.8230601317728
 31
0.0
 11
94.83371478150995
 21
310.8667921485072
 31
0.0
 11
94.72039149297063
 21
310.893987473827
 31
0.0
 11
94.6045214635
 21
310.9033128384
 31
0.0
  0
SPLINE
  5
101
330
1F
100
AcDbEntity
  8
BEZUGSACHSEN
  6
Continuous
 62
     7
100
AcDbSpline
210
0.0
220
0.0
230
1.0
 70
     8
 71
     3
 72
    11
 73
     7
 74
     5
 42
0.0000000001
 43
0.0000000001
 44
0.00000001
 40
0.0
 40
0.0
 40
0.0
 40
0.0
 40
0.5462907430996922
 40
1.093000863611552
 40
1.646070107124815
 40
2.198197048698672
 40
2.198197048698672
 40
2.198197048698672
 40
2.198197048698672
 10
33.2833674104
 20
359.4356934221
 30
0.0
 10
33.34643821223082
 20
359.2647617928639
 30
0.0
 10
33.47262823419353
 20
358.9227673133062
 30
0.0
 10
33.61226554723279
 20
358.3914931841069
 30
0.0
 10
33.70975391131078
 20
357.8480687791612
 30
0.0
 10
33.72293602584028
 20
357.4794841386013
 30
0.0
 10
33.7295214635
 20
357.2953489479
 30
0.0
 11
33.2833674104
 21
359.4356934221
 31
0.0
 11
33.46421874294477
 21
358.9202068834657
 31
0.0
 11
33.60471022765225
 21
358.3918565275513
 31
0.0
 11
33.69677688092967
 21
357.8465040548563
 31
0.0
 11
33.7295214635
 21
357.2953489479
 31
0.0
  0
SPLINE
  5
102
330
1F
100
AcDbEntity
  8
BEZUGSACHSEN
  6
Continuous
 62
     7
100
AcDbSpline
210
0.0
220
0.0
230
1.0
 70
     8
 71
     3
 72
    19
 73
    15
 74
    13
 42
0.0000000001
 43
0.0000000001
 44
0.00000001
 40
0.0
 40
0.0
 40
0.0
 40
0.0
 40
0.1462385987758662
 40
0.292747927463759
 40
0.4364790705718632
 40
0.580165923574997
 40
0.7203799972232299
 40
0.8606059382286315
 40
0.998041188356106
 40
1.135484020389923
 40
1.405415631056358
 40
1.6758155140856
 40
1.943997429536874
 40
2.211934834766024
 40
2.211934834766024
 40
2.211934834766024
 40
2.211934834766024
 10
31.7295214635
 20
360.7843410095
 30
0.0
 10
31.77823626883758
 20
360.7876490868465
 30
0.0
 10
31.87575606469693
 20
360.7942713657468
 30
0.0
 10
32.02109232499514
 20
360.7779120529881
 30
0.0
 10
32.16174926209945
 20
360.7427402869195
 30
0.0
 10
32.29460139553754
 20
360.6899346002883
 30
0.0
 10
32.41905585860032
 20
360.6222628125422
 30
0.0
 10
32.53385841577508
 20
360.5429626111479
 30
0.0
 10
32.63996835357058
 20
360.453877971584
 30
0.0
 10
32.76907081876638
 20
360.3259304360332
 30
0.0
 10
32.912110668664
 20
360.1501281471108
 30
0.0
 10
33.05701827035155
 20
359.9224426811999
 30
0.0
 10
33.18165501879623
 20
359.6837800617129
 30
0.0
 10
33.24947358996695
 20
359.5183638212745
 30
0.0
 10
33.2833674104
 20
359.4356934221
 30
0.0
 11
31.7295214635
 21
360.7843410095
 31
0.0
 11
31.8756553253169
 21
360.7898747426349
 31
0.0
 11
32.02136468614854
 21
360.774585348971
 31
0.0
 11
32.1607947676743
 21
360.7396870128375
 31
0.0
 11
32.29442710458507
 21
360.6868825598273
 31
0.0
 11
32.41774089540405
 21
360.6201465467392
 31
0.0
 11
32.53327200674306
 21
360.5406740556268
 31
0.0
 11
32.63868455653164
 21
360.4524887829069
 31
0.0
 11
32.73647306022784
 21
360.3559075185627
 31
0.0
 11
32.90772145611768
 21
360.1472521535654
 31
0.0
 11
33.05406387665233
 21
359.9198758296126
 31
0.0
 11
33.1779315024591
 21
359.6820137875544
 31
0.0
 11
33.2833674104
 21
359.4356934221
 31
0.0
  0
SPLINE
  5
103
330
1F
100
AcDbEntity
  8
BEZUGSACHSEN
  6
Continuous
 62
     7
100
AcDbSpline
210
0.0
220
0.0
230
1.0
 70
     8
 71
     3
 72
    11
 73
     7
 74
     5
 42
0.0000000001
 43
0.0000000001
 44
0.00000001
 40
0.0
 40
0.0
 40
0.0
 40
0.0
 40
0.5521269407035837
 40
1.105196183339654
 40
1.651906304698612
 40
2.198197048720035
 40
2.198197048720035
 40
2.198197048720035
 40
2.198197048720035
 10
33.7295214635
 20
331.5560378963
 30
0.0
 10
33.72293602587224
 20
331.3719027058891
 30
0.0
 10
33.70975391140679
 20
331.0033180659125
 30
0.0
 10
33.61226554760955
 20
330.459893661227
 30
0.0
 10
33.47262823457705
 20
329.9286195317099
 30
0.0
 10
33.34643821236153
 20
329.5866250516159
 30
0.0
 10
33.2833674104
 20
329.4156934221
 30
0.0
 11
33.7295214635
 21
331.5560378963
 31
0.0
 11
33.69677688107319
 21
331.004882790207
 31
0.0
 11
33.60471022812983
 21
330.4595303183451
 31
0.0
 11
33.4642187432964
 21
329.9311799615878
 31
0.0
 11
33.2833674104
 21
329.4156934221
 31
0.0
  0
SPLINE
  5
104
330
1F
100
AcDbEntity
  8
BEZUGSACHSEN
  6
Continuous
 62
     7
100
AcDbSpline
210
0.0
220
0.0
230
1.0
 70
     8
 71
     3
 72
    19
 73
    15
 74
    13
 42
0.0000000001
 43
0.0000000001
 44
0.00000001
 40
0.0
 40
0.0
 40
0.0
 40
0.0
 40
0.2679411643354441
 40
0.53612679369305
 40
0.8065304773716403
 40
1.076465993222724
 40
1.213913376120631
 40
1.351353104837311
 40
1.491586367024387
 40
1.631807897530185
 40
1.775491562752898
 40
1.919219204734176
 40
2.065713007363144
 40
2.211936409287794
 40
2.211936409287794
 40
2.211936409287794
 40
2.211936409287794
 10
33.2833674104
 20
329.4156934221
 30
0.0
 10
33.24947316660091
 20
329.3330218423961
 30
0.0
 10
33.18165375446345
 20
329.1676032548261
 30
0.0
 10
33.05701524817438
 20
328.9289372811581
 30
0.0
 10
32.91210444883792
 20
328.701249285155
 30
0.0
 10
32.76906081731585
 20
328.5254447938472
 30
0.0
 10
32.63995443041209
 20
328.397495074737
 30
0.0
 10
32.53383933134819
 20
328.3084080539338
 30
0.0
 10
32.41902990370757
 20
328.229106413594
 30
0.0
 10
32.2945702914777
 20
328.1614359461298
 30
0.0
 10
32.16171673633959
 20
328.1086332594336
 30
0.0
 10
32.02106593746156
 20
328.0734669954455
 30
0.0
 10
31.87574055436868
 20
328.0571147935615
 30
0.0
 10
31.7782311353271
 20
328.0637375269279
 30
0.0
 10
31.7295214635
 20
328.0670458347
 30
0.0
 11
33.2833674104
 21
329.4156934221
 31
0.0
 11
33.17793015068106
 21
329.1693695462609
 31
0.0
 11
33.05406063510443
 21
328.9315043009964
 31
0.0
 11
32.90771514879116
 21
328.7041254304242
 31
0.0
 11
32.73646295766267
 21
328.4954681282479
 31
0.0
 11
32.63867051898335
 21
328.398884371836
 31
0.0
 11
32.53325352972865
 21
328.310697426055
 31
0.0
 11
32.41771488601523
 21
328.2312229670603
 31
0.0
 11
32.29439287612187
 21
328.1644864740954
 31
0.0
 11
32.160762187922
 21
328.1116865231195
 31
0.0
 11
32.02133448671422
 21
328.0767930967269
 31
0.0
 11
31.87564004819605
 21
328.0615102699737
 31
0.0
 11
31.7295214635
 21
328.0670458347
 31
0.0
  0
SPLINE
  5
105
330
1F
100
AcDbEntity
  8
BEZUGSACHSEN
  6
Continuous
 62
     7
100
AcDbSpline
210
0.0
220
0.0
230
1.0
 70
     8
 71
     3
 72
    47
 73
    43
 74
    41
 42
0.0000000001
 43
0.0000000001
 44
0.00000001
 40
0.0
 40
0.0
 40
0.0
 40
0.0
 40
0.6366022431433939
 40
1.273595002081967
 40
1.592921746297436
 40
1.912076344785714
 40
2.23139229033541
 40
2.550826842660381
 40
3.189774321099614
 40
3.829081696930837
 40
4.468337152429569
 40
5.10722174468616
 40
5.42617634117304
 40
5.745033356719186
 40
6.063356731498004
 40
6.381780214811065
 40
7.017059195604106
 40
7.652639340920232
 40
8.287532214159869
 40
8.922347946421807
 40
9.559226748506157
 40
10.1961343593049
 40
10.83451785496737
 40
11.47287689967785
 40
12.11234487359932
 40
12.75189588944776
 40
13.39354300517762
 40
14.03487957354478
 40
14.3561520577013
 40
14.67732107709984
 40
14.99840882470102
 40
15.31959604119157
 40
15.96011121024453
 40
16.60099592085424
 40
17.23809108071978
 40
17.87482555192735
 40
18.19205670326174
 40
18.50917199094775
 40
18.82571084623795
 40
19.1424158182318
 40
19.77338974993345
 40
20.40398930740819
 40
20.40398930740819
 40
20.40398930740819
 40
20.40398930740819
 10
52.2301058692
 20
344.4256934027
 30
0.0
 10
52.23611151306038
 20
344.6379732123839
 30
0.0
 10
52.24812648486927
 20
345.0626630521831
 30
0.0
 10
52.32939183012792
 20
345.588805813258
 30
0.0
 10
52.42211142669661
 20
346.0037801893681
 30
0.0
 10
52.50740439081392
 20
346.3116041650692
 30
0.0
 10
52.60764300424212
 20
346.6148968418647
 30
0.0
 10
52.76112855339745
 20
347.0123342044208
 30
0.0
 10
52.98960050020319
 20
347.4944337813004
 30
0.0
 10
53.31921546078692
 20
348.0432496541208
 30
0.0
 10
53.7014426778529
 20
348.5567851934721
 30
0.0
 10
54.06029737495224
 20
348.9512879555639
 30
0.0
 10
54.36925072850973
 20
349.2441612536077
 30
0.0
 10
54.61114583748372
 20
349.4518830747217
 30
0.0
 10
54.86278909096919
 20
349.6473924718541
 30
0.0
 10
55.21008319812601
 20
349.890887674529
 30
0.0
 10
55.66582353288648
 20
350.1627697445735
 30
0.0
 10
56.24130295757622
 20
350.4340988570892
 30
0.0
 10
56.84041372273889
 20
350.6478824879031
 30
0.0
 10
57.45786412520174
 20
350.8025722192751
 30
0.0
 10
58.08813468690116
 20
350.8963792029264
 30
0.0
 10
58.72572862163157
 20
350.9285059277324
 30
0.0
 10
59.36390726586423
 20
350.8980763547829
 30
0.0
 10
59.99691968705821
 20
350.8054050996187
 30
0.0
 10
60.61815337149743
 20
350.6509131383906
 30
0.0
 10
61.22228912347811
 20
350.4358760058497
 30
0.0
 10
61.80276819705811
 20
350.1619526401197
 30
0.0
 10
62.26239722128383
 20
349.88678576206
 30
0.0
 10
62.61229620994727
 20
349.6401760632024
 30
0.0
 10
62.86542783909645
 20
349.4422718708315
 30
0.0
 10
63.10842647845063
 20
349.2320933414298
 30
0.0
 10
63.41767082195492
 20
348.9365740012753
 30
0.0
 10
63.77599101274602
 20
348.539103018516
 30
0.0
 10
64.15594143107262
 20
348.0234362569813
 30
0.0
 10
64.48241446065282
 20
347.4738401005346
 30
0.0
 10
64.70778560063667
 20
346.9927345588501
 30
0.0
 10
64.8588765838264
 20
346.5967443712461
 30
0.0
 10
64.95728950140321
 20
346.2953180204545
 30
0.0
 10
65.04095627958262
 20
345.9896226525146
 30
0.0
 10
65.1317756370141
 20
345.5780706347697
 30
0.0
 10
65.21129061262135
 20
345.0566454182215
 30
0.0
 10
65.22306289728942
 20
344.6359691290559
 30
0.0
 10
65.2289472929
 20
344.4256934027
 30
0.0
 11
52.2301058692
 21
344.4256934027
 31
0.0
 11
52.26135454018423
 21
345.0615282370217
 31
0.0
 11
52.35479574256901
 21
345.6916302260973
 31
0.0
 11
52.42473624958454
 21
346.0032034840154
 31
0.0
 11
52.50987758853652
 21
346.3107918617829
 31
0.0
 11
52.61010212666432
 21
346.6139712064609
 31
0.0
 11
52.72518201642065
 21
346.9119561929833
 31
0.0
 11
52.99877791069664
 21
347.4893634728466
 31
0.0
 11
53.32799742439644
 21
348.0373857649037
 31
0.0
 11
53.70962167972214
 21
348.5502312242108
 31
0.0
 11
54.13955631581928
 21
349.0228089753872
 31
0.0
 11
54.37102857687459
 21
349.2422460437737
 31
0.0
 11
54.61293097790103
 21
349.4499791050341
 31
0.0
 11
54.86430478505552
 21
349.6452762632501
 31
0.0
 11
55.12503406334744
 21
349.8280705688687
 31
0.0
 11
55.67056770755726
 21
350.1536046323284
 31
0.0
 11
56.24547752767597
 21
350.4246042999503
 31
0.0
 11
56.84342371542286
 21
350.6380271596665
 31
0.0
 11
57.45921624764632
 21
350.7922690838799
 31
0.0
 11
58.08914852962398
 21
350.8860770188685
 31
0.0
 11
58.72525165136164
 21
350.9180789439507
 31
0.0
 11
59.36291261038037
 21
350.8877146741991
 31
0.0
 11
59.99453014329093
 21
350.7951859646887
 31
0.0
 11
60.61510301541582
 21
350.640885608066
 31
0.0
 11
61.21760382256964
 21
350.4263668926779
 31
0.0
 11
61.79791101895078
 21
350.1525885535918
 31
0.0
 11
62.34813600699881
 21
349.8230964346383
 31
0.0
 11
62.61074331114627
 21
349.6380196589896
 31
0.0
 11
62.86376376853811
 21
349.4402061428623
 31
0.0
 11
63.10661206990242
 21
349.2301536632672
 31
0.0
 11
63.33881450530945
 21
349.0082454456906
 31
0.0
 11
63.76773056304118
 21
348.5325452278992
 31
0.0
 11
64.14784122169665
 21
348.0165519145028
 31
0.0
 11
64.47328036738685
 21
347.4688479751555
 31
0.0
 11
64.74336122551169
 21
346.8922310165959
 31
0.0
 11
64.85645167071873
 21
346.5958424969468
 31
0.0
 11
64.95489577408254
 21
346.2943945508648
 31
0.0
 11
65.03837857946768
 21
345.9890628163309
 31
0.0
 11
65.10692800290349
 21
345.6798654427453
 31
0.0
 11
65.19835508078776
 21
345.055550464616
 31
0.0
 11
65.2289472929
 21
344.4256934027
 31
0.0
  0
SPLINE
  5
106
330
1F
100
AcDbEntity
  8
BEZUGSACHSEN
  6
Continuous
 62
     7
100
AcDbSpline
210
0.0
220
0.0
230
1.0
 70
     8
 71
     3
 72
    47
 73
    43
 74
    41
 42
0.0000000001
 43
0.0000000001
 44
0.00000001
 40
0.0
 40
0.0
 40
0.0
 40
0.0
 40
0.6302393213908041
 40
1.26085486726329
 40
1.577476088341298
 40
1.893930800169877
 40
2.210999113833419
 40
2.528183472193044
 40
3.164887038230018
 40
3.801951183346909
 40
4.442851001562513
 40
5.08338125974018
 40
5.404527292264083
 40
5.725573838714116
 40
6.046670710000537
 40
6.3678710271391
 40
7.009090242534957
 40
7.65061976393022
 40
8.290330346450752
 40
8.929958764433426
 40
9.568647011318173
 40
10.20735923012174
 40
10.84445705813773
 40
11.48152626491861
 40
12.11643462217386
 40
12.75141965574034
 40
13.38691908732375
 40
14.02211738524629
 40
14.34050449135147
 40
14.65879153784277
 40
14.97761586863498
 40
15.29653774943558
 40
15.93537694102456
 40
16.57458694067206
 40
17.21386274989593
 40
17.85277859071286
 40
18.17219860079747
 40
18.49150024073599
 40
18.8106715663232
 40
19.13001452417775
 40
19.76719627021214
 40
20.40398968280095
 40
20.40398968280095
 40
20.40398968280095
 40
20.40398968280095
 10
65.2289351013
 20
344.4256934408
 30
0.0
 10
65.22306589955448
 20
344.215537418933
 30
0.0
 10
65.21132399241449
 20
343.795099921522
 30
0.0
 10
65.131877249839
 20
343.2739364792891
 30
0.0
 10
65.04114574473287
 20
342.8625450118691
 30
0.0
 10
64.9575403624096
 20
342.5569071715743
 30
0.0
 10
64.85918842103641
 20
342.2555233253696
 30
0.0
 10
64.70816961019587
 20
341.859550145757
 30
0.0
 10
64.48288702262465
 20
341.3784433370651
 30
0.0
 10
64.15650898789164
 20
340.8288091120696
 30
0.0
 10
63.77664192583528
 20
340.3130812494302
 30
0.0
 10
63.41838748653377
 20
339.9155558472379
 30
0.0
 10
63.10920674885683
 20
339.6200024922986
 30
0.0
 10
62.86628179282489
 20
339.4098175838536
 30
0.0
 10
62.6132328895013
 20
339.2119081195128
 30
0.0
 10
62.2634503810446
 20
338.9652847680167
 30
0.0
 10
61.80396514329352
 20
338.6900781587221
 30
0.0
 10
61.22356943633257
 20
338.4160380520198
 30
0.0
 10
60.61941512849788
 20
338.2008495746985
 30
0.0
 10
59.99799998109062
 20
338.0461877356956
 30
0.0
 10
59.36473076965004
 20
337.9533773626772
 30
0.0
 10
58.72627130521143
 20
337.9228666128569
 30
0.0
 10
58.08843829165716
 20
337.9549683552008
 30
0.0
 10
57.45800830466131
 20
338.0487814175401
 30
0.0
 10
56.84043463516352
 20
338.2034952338173
 30
0.0
 10
56.24129122373305
 20
338.4172918058899
 30
0.0
 10
55.66583400227556
 20
338.6886131743419
 30
0.0
 10
55.21014860933889
 20
338.9604580579904
 30
0.0
 10
54.86289271161585
 20
339.2039186105918
 30
0.0
 10
54.61127313032296
 20
339.3994011369273
 30
0.0
 10
54.3693980800396
 20
339.6070941956369
 30
0.0
 10
54.06046179633226
 20
339.8999317437849
 30
0.0
 10
53.7016190394189
 20
340.2943893927252
 30
0.0
 10
53.31939213416513
 20
340.8078740586686
 30
0.0
 10
52.98976768890334
 20
341.3566418373683
 30
0.0
 10
52.7612802430025
 20
341.8387052538598
 30
0.0
 10
52.60777874308243
 20
342.236114813041
 30
0.0
 10
52.50752194018683
 20
342.5393971763347
 30
0.0
 10
52.42220544727149
 20
342.847221048037
 30
0.0
 10
52.3294429919014
 20
343.2622619151435
 30
0.0
 10
52.24815062495173
 20
343.7885347142328
 30
0.0
 10
52.23611082539229
 20
344.2133503639506
 30
0.0
 10
52.2300927606
 20
344.4256934426
 30
0.0
 11
65.2289351013
 21
344.4256934408
 31
0.0
 11
65.1983955225746
 21
343.7961944842016
 31
0.0
 11
65.10706424701877
 21
343.1722276863659
 31
0.0
 11
65.03856950830357
 21
342.8631039758465
 31
0.0
 11
64.95515068344125
 21
342.5578419829665
 31
0.0
 11
64.85676393959201
 21
342.2564247237324
 31
0.0
 11
64.74373330849369
 21
341.9600634684686
 31
0.0
 11
64.47375317201298
 21
341.3834334684599
 31
0.0
 11
64.1484165501814
 21
340.8357046966314
 31
0.0
 11
63.76838005536787
 21
340.319637995905
 31
0.0
 11
63.33952955767543
 21
339.8438583596551
 31
0.0
 11
63.10739242329954
 21
339.6219414268861
 31
0.0
 11
62.86460992996236
 21
339.4118758516091
 31
0.0
 11
62.61168032166402
 21
339.2140632787124
 31
0.0
 11
62.34916592582969
 21
339.0289799577199
 31
0.0
 11
61.79910774423087
 21
338.6994377312161
 31
0.0
 11
61.21896691257989
 21
338.4255824002967
 31
0.0
 11
60.61636160228833
 21
338.2108815167467
 31
0.0
 11
59.99566233196704
 21
338.0564246330748
 31
0.0
 11
59.36373351804464
 21
337.9637496588728
 31
0.0
 11
58.72574739086347
 21
337.9333029846152
 31
0.0
 11
58.0894524027386
 21
337.9652768888163
 31
0.0
 11
57.45932912863094
 21
338.0590949769244
 31
0.0
 11
56.84344522038949
 21
338.2133533111622
 31
0.0
 11
56.24541275057052
 21
338.4268085942911
 31
0.0
 11
55.67057700202795
 21
338.6977761010891
 31
0.0
 11
55.12511031451566
 21
339.0232649188664
 31
0.0
 11
54.86440802176585
 21
339.2060343470786
 31
0.0
 11
54.61305876997216
 21
339.4013038981789
 31
0.0
 11
54.37117547160808
 21
339.6090090350379
 31
0.0
 11
54.1397196402808
 21
339.8284158813258
 31
0.0
 11
53.70979660937137
 21
340.3009428119908
 31
0.0
 11
53.3281754699094
 21
340.8137339288845
 31
0.0
 11
52.99894399573452
 21
341.3617122100887
 31
0.0
 11
52.72532968861965
 21
341.9390757546504
 31
0.0
 11
52.61023743618834
 21
342.2370403771691
 31
0.0
 11
52.50999774778698
 21
342.5401996457667
 31
0.0
 11
52.42483066757929
 21
342.8477982535757
 31
0.0
 11
52.35486764009739
 21
343.159383072713
 31
0.0
 11
52.2613787431044
 21
343.7896690424271
 31
0.0
 11
52.2300927606
 21
344.4256934426
 31
0.0
  0
SPLINE
  5
107
330
1F
100
AcDbEntity
  8
BEZUGSACHSEN
  6
Continuous
 62
     7
100
AcDbSpline
210
0.0
220
0.0
230
1.0
 70
     8
 71
     3
 72
    11
 73
     7
 74
     5
 42
0.0000000001
 43
0.0000000001
 44
0.00000001
 40
0.0
 40
0.0
 40
0.0
 40
0.0
 40
0.9140556660003463
 40
1.828030949185894
 40
2.279806974871075
 40
2.730944124762516
 40
2.730944124762516
 40
2.730944124762516
 40
2.730944124762516
 10
24.9964743903854
 20
329.415693422285
 30
0.0
 10
25.12912909734878
 20
329.6904100199515
 30
0.0
 10
25.39442684551039
 20
330.2398190564788
 30
0.0
 10
25.60978205882305
 20
330.9725299775837
 30
0.0
 10
25.71347627248539
 20
331.5704751836897
 30
0.0
 10
25.7241755900065
 20
331.8715983991166
 30
0.0
 10
25.7295214635
 20
332.0220534737
 30
0.0
 11
24.9964743903854
 21
329.415693422285
 31
0.0
 11
25.37128192016089
 21
330.2493702638555
 31
0.0
 11
25.63057328055877
 21
331.125794138871
 31
0.0
 11
25.70329025405738
 21
331.5716795716327
 31
0.0
 11
25.7295214635
 21
332.0220534737
 31
0.0
  0
SPLINE
  5
108
330
1F
100
AcDbEntity
  8
BEZUGSACHSEN
  6
Continuous
 62
     7
100
AcDbSpline
210
0.0
220
0.0
230
1.0
 70
     8
 71
     3
 72
    11
 73
     7
 74
     5
 42
0.0000000001
 43
0.0000000001
 44
0.00000001
 40
0.0
 40
0.0
 40
0.0
 40
0.0
 40
0.8249192366724751
 40
1.650116891930991
 40
2.190492152293428
 40
2.730585915378195
 40
2.730585915378195
 40
2.730585915378195
 40
2.730585915378195
 10
25.7295214635
 20
356.8293333705
 30
0.0
 10
25.71178815916181
 20
357.1045236624769
 30
0.0
 10
25.67631556531587
 20
357.6549971259378
 30
0.0
 10
25.46788074868042
 20
358.3597307110905
 30
0.0
 10
25.23765431770079
 20
358.9519444361709
 30
0.0
 10
25.07685373489882
 20
359.2744717696161
 30
0.0
 10
24.9964743903854
 20
359.435693421915
 30
0.0
 11
25.7295214635
 21
356.8293333705
 31
0.0
 11
25.64594600938426
 21
357.650008026196
 31
0.0
 11
25.42798456727248
 21
358.4458999660953
 31
0.0
 11
25.23004948871331
 21
358.9487191450131
 31
0.0
 11
24.9964743903854
 21
359.435693421915
 31
0.0
  0
DIMENSION
  5
113
330
1F
100
AcDbEntity
  8
1
100
AcDbDimension
  2
*D2
 10
245.175859160327
 20
353.4256934221
 30
0.0
 11
241.425859160327
 21
344.721071053316
 31
0.0
 70
    32
  1
<>
 71
     5
 42
-1.0
 53
90.0
  3
ME10_DIM_10
100
AcDbAlignedDimension
 13
233.7295214635
 23
335.4256934221
 33
0.0
 14
233.7295214635
 24
353.4256934221
 34
0.0
 50
90.0
100
AcDbRotatedDimension
  0
DIMENSION
  5
11E
330
1F
100
AcDbEntity
  8
1
100
AcDbDimension
  2
*D3
 10
254.593574672705
 20
369.4256934221
 30
0.0
 11
250.843574672705
 21
343.985312028911
 31
0.0
 70
    32
  1
<>
 71
     5
 42
-1.0
 53
90.0
  3
ME10_DIM_11
100
AcDbAlignedDimension
 13
220.6407852778
 23
319.4256934221
 33
0.0
 14
220.6407852778
 24
369.4256934221
 34
0.0
 50
90.0
100
AcDbRotatedDimension
  0
DIMENSION
  5
129
330
1F
100
AcDbEntity
  8
1
100
AcDbDimension
  2
*D4
 10
233.7295214635
 20
401.706329998629
 30
0.0
 11
168.622395936982
 21
405.456329998629
 31
0.0
 70
    32
  1
<>
 71
     5
 42
-1.0
 53
0.00013888888889
  3
ME10_DIM_12
100
AcDbAlignedDimension
 13
102.7295214635
 23
394.425656501
 33
0.0
 14
233.7295214635
 24
362.7886231613
 34
0.0
100
AcDbRotatedDimension
  0
DIMENSION
  5
134
330
1F
100
AcDbEntity
  8
1
100
AcDbDimension
  2
*D5
 10
233.7295214635
 20
408.787625418332
 30
0.0
 11
154.921628711903
 21
412.537625418332
 31
0.0
 70
    32
  1
<>
 71
     5
 42
-1.0
 53
0.00013888888889
  3
ME10_DIM_13
100
AcDbAlignedDimension
 13
73.7295214635
 23
394.4256934221
 33
0.0
 14
233.7295214635
 24
362.7886231613
 34
0.0
100
AcDbRotatedDimension
  0
DIMENSION
  5
13F
330
1F
100
AcDbEntity
  8
1
100
AcDbDimension
  2
*D6
 10
233.7295214635
 20
416.022862042812
 30
0.0
 11
142.760273534585
 21
419.772862042812
 31
0.0
 70
    32
  1
<>
 71
     5
 42
-1.0
 53
0.00013888888889
  3
ME10_DIM_14
100
AcDbAlignedDimension
 13
23.7295214635
 23
378.0258849847
 33
0.0
 14
233.7295214635
 24
362.7886231613
 34
0.0
100
AcDbRotatedDimension
  0
INSERT
  5
146
330
1F
100
AcDbEntity
  8
1
100
AcDbBlockReference
  2
*D7
 10
0.0
 20
0.0
 30
0.0
  0
ENDSEC
  0
SECTION
  2
OBJECTS
  0
DICTIONARY
  5
C
330
0
100
AcDbDictionary
281
     1
  3
ACAD_GROUP
350
D
  3
ACAD_LAYOUT
350
1A
  3
ACAD_MLEADERSTYLE
350
149
  3
ACAD_MLINESTYLE
350
17
  3
ACAD_PLOTSETTINGS
350
19
  3
ACAD_PLOTSTYLENAME
350
E
  3
ACAD_SCALELIST
350
4C
  3
ACAD_VISUALSTYLE
350
2A
  3
AcDbVariableDictionary
350
147
  0
DICTIONARY
  5
D
102
{ACAD_REACTORS
330
C
102
}
330
C
100
AcDbDictionary
281
     1
  0
DICTIONARY
  5
1A
102
{ACAD_REACTORS
330
C
102
}
330
C
100
AcDbDictionary
281
     1
  3
Layout1
350
1E
  3
Layout2
350
26
  3
Model
350
22
  0
DICTIONARY
  5
149
102
{ACAD_REACTORS
330
C
102
}
330
C
100
AcDbDictionary
281
     1
  0
DICTIONARY
  5
17
102
{ACAD_REACTORS
330
C
102
}
330
C
100
AcDbDictionary
281
     1
  3
Standard
350
18
  0
DICTIONARY
  5
19
102
{ACAD_REACTORS
330
C
102
}
330
C
100
AcDbDictionary
281
     1
  0
ACDBDICTIONARYWDFLT
  5
E
102
{ACAD_REACTORS
330
C
102
}
330
C
100
AcDbDictionary
281
     1
  3
Normal
350
F
100
AcDbDictionaryWithDefault
340
F
  0
DICTIONARY
  5
4C
102
{ACAD_REACTORS
330
C
102
}
330
C
100
AcDbDictionary
281
     1
  3
A0
350
4D
  3
A1
350
4E
  3
A2
350
4F
  3
A3
350
50
  3
A4
350
51
  3
A5
350
52
  3
A6
350
53
  3
A7
350
54
  3
A8
350
55
  3
A9
350
56
  3
B0
350
57
  3
B1
350
58
  3
B2
350
59
  3
B3
350
5A
  3
B4
350
5B
  3
B5
350
5C
  3
B6
350
5D
  3
B7
350
5E
  3
B8
350
5F
  3
B9
350
60
  3
C0
350
61
  3
C1
350
62
  3
C2
350
63
  3
C3
350
64
  3
C4
350
65
  3
C5
350
66
  3
C6
350
67
  3
C7
350
68
  3
C8
350
69
  3
C9
350
6A
  3
D0
350
6B
  3
D1
350
6C
  3
D2
350
6D
  0
DICTIONARY
  5
2A
102
{ACAD_REACTORS
330
C
102
}
330
C
100
AcDbDictionary
281
     1
  3
2dWireframe
350
2F
  3
3D Hidden
350
31
  3
3dWireframe
350
30
  3
Basic
350
32
  3
Brighten
350
36
  3
ColorChange
350
3A
  3
Conceptual
350
34
  3
Dim
350
35
  3
Facepattern
350
39
  3
Flat
350
2B
  3
FlatWithEdges
350
2C
  3
Gouraud
350
2D
  3
GouraudWithEdges
350
2E
  3
Linepattern
350
38
  3
Realistic
350
33
  3
Thicken
350
37
  0
DICTIONARY
  5
147
102
{ACAD_REACTORS
330
C
102
}
330
C
100
AcDbDictionary
281
     1
  3
CANNOSCALE
350
14A
  0
LAYOUT
  5
1E
102
{ACAD_REACTORS
330
1A
102
}
330
1A
100
AcDbPlotSettings
  1

  2
none_device
  4

  6

 40
0.0
 41
0.0
 42
0.0
 43
0.0
 44
0.0
 45
0.0
 46
0.0
 47
0.0
 48
0.0
 49
0.0
140
0.0
141
0.0
142
1.0
143
1.0
 70
   688
 72
     0
 73
     0
 74
     5
  7

 75
    16
147
1.0
148
0.0
149
0.0
100
AcDbLayout
  1
Layout1
 70
     1
 71
     1
 10
0.0
 20
0.0
 11
12.0
 21
9.0
 12
0.0
 22
0.0
 32
0.0
 14
1.00000000000000E+20
 24
1.00000000000000E+20
 34
1.00000000000000E+20
 15
-1.00000000000000E+20
 25
-1.00000000000000E+20
 35
-1.00000000000000E+20
146
0.0
 13
0.0
 23
0.0
 33
0.0
 16
1.0
 26
0.0
 36
0.0
 17
0.0
 27
1.0
 37
0.0
 76
     0
330
1B
  0
LAYOUT
  5
26
102
{ACAD_REACTORS
330
1A
102
}
330
1A
100
AcDbPlotSettings
  1

  2
none_device
  4

  6

 40
0.0
 41
0.0
 42
0.0
 43
0.0
 44
0.0
 45
0.0
 46
0.0
 47
0.0
 48
0.0
 49
0.0
140
0.0
141
0.0
142
1.0
143
1.0
 70
   688
 72
     0
 73
     0
 74
     5
  7

 75
    16
147
1.0
148
0.0
149
0.0
100
AcDbLayout
  1
Layout2
 70
     1
 71
     2
 10
0.0
 20
0.0
 11
0.0
 21
0.0
 12
0.0
 22
0.0
 32
0.0
 14
0.0
 24
0.0
 34
0.0
 15
0.0
 25
0.0
 35
0.0
146
0.0
 13
0.0
 23
0.0
 33
0.0
 16
1.0
 26
0.0
 36
0.0
 17
0.0
 27
1.0
 37
0.0
 76
     0
330
23
  0
LAYOUT
  5
22
102
{ACAD_REACTORS
330
1A
102
}
330
1A
100
AcDbPlotSettings
  1

  2
none_device
  4

  6

 40
0.0
 41
0.0
 42
0.0
 43
0.0
 44
0.0
 45
0.0
 46
0.0
 47
0.0
 48
0.0
 49
0.0
140
0.0
141
0.0
142
1.0
143
1.0
 70
  1712
 72
     0
 73
     0
 74
     0
  7

 75
     0
147
1.0
148
0.0
149
0.0
100
AcDbLayout
  1
Model
 70
     1
 71
     0
 10
0.0
 20
0.0
 11
12.0
 21
9.0
 12
0.0
 22
0.0
 32
0.0
 14
1.6048383894706
 24
294.4256934221
 34
0.0
 15
256.593574672705
 25
421.522862042812
 35
0.0
146
0.0
 13
0.0
 23
0.0
 33
0.0
 16
1.0
 26
0.0
 36
0.0
 17
0.0
 27
1.0
 37
0.0
 76
     0
330
1F
331
29
  0
MLINESTYLE
  5
18
102
{ACAD_REACTORS
330
17
102
}
330
17
100
AcDbMlineStyle
  2
Standard
 70
     0
  3

 62
   256
 51
90.0
 52
90.0
 71
     2
 49
0.5
 62
   256
  6
BYLAYER
 49
-0.5
 62
   256
  6
BYLAYER
  0
ACDBPLACEHOLDER
  5
F
102
{ACAD_REACTORS
330
E
102
}
330
E
  0
SCALE
  5
4D
102
{ACAD_REACTORS
330
4C
102
}
330
4C
100
AcDbScale
 70
     0
300
1:1
140
1.0
141
1.0
290
     1
  0
SCALE
  5
4E
102
{ACAD_REACTORS
330
4C
102
}
330
4C
100
AcDbScale
 70
     0
300
1:2
140
1.0
141
2.0
290
     0
  0
SCALE
  5
4F
102
{ACAD_REACTORS
330
4C
102
}
330
4C
100
AcDbScale
 70
     0
300
1:4
140
1.0
141
4.0
290
     0
  0
SCALE
  5
50
102
{ACAD_REACTORS
330
4C
102
}
330
4C
100
AcDbScale
 70
     0
300
1:5
140
1.0
141
5.0
290
     0
  0
SCALE
  5
51
102
{ACAD_REACTORS
330
4C
102
}
330
4C
100
AcDbScale
 70
     0
300
1:8
140
1.0
141
8.0
290
     0
  0
SCALE
  5
52
102
{ACAD_REACTORS
330
4C
102
}
330
4C
100
AcDbScale
 70
     0
300
1:10
140
1.0
141
10.0
290
     0
  0
SCALE
  5
53
102
{ACAD_REACTORS
330
4C
102
}
330
4C
100
AcDbScale
 70
     0
300
1:16
140
1.0
141
16.0
290
     0
  0
SCALE
  5
54
102
{ACAD_REACTORS
330
4C
102
}
330
4C
100
AcDbScale
 70
     0
300
1:20
140
1.0
141
20.0
290
     0
  0
SCALE
  5
55
102
{ACAD_REACTORS
330
4C
102
}
330
4C
100
AcDbScale
 70
     0
300
1:30
140
1.0
141
30.0
290
     0
  0
SCALE
  5
56
102
{ACAD_REACTORS
330
4C
102
}
330
4C
100
AcDbScale
 70
     0
300
1:40
140
1.0
141
40.0
290
     0
  0
SCALE
  5
57
102
{ACAD_REACTORS
330
4C
102
}
330
4C
100
AcDbScale
 70
     0
300
1:50
140
1.0
141
50.0
290
     0
  0
SCALE
  5
58
102
{ACAD_REACTORS
330
4C
102
}
330
4C
100
AcDbScale
 70
     0
300
1:100
140
1.0
141
100.0
290
     0
  0
SCALE
  5
59
102
{ACAD_REACTORS
330
4C
102
}
330
4C
100
AcDbScale
 70
     0
300
2:1
140
2.0
141
1.0
290
     0
  0
SCALE
  5
5A
102
{ACAD_REACTORS
330
4C
102
}
330
4C
100
AcDbScale
 70
     0
300
4:1
140
4.0
141
1.0
290
     0
  0
SCALE
  5
5B
102
{ACAD_REACTORS
330
4C
102
}
330
4C
100
AcDbScale
 70
     0
300
8:1
140
8.0
141
1.0
290
     0
  0
SCALE
  5
5C
102
{ACAD_REACTORS
330
4C
102
}
330
4C
100
AcDbScale
 70
     0
300
10:1
140
10.0
141
1.0
290
     0
  0
SCALE
  5
5D
102
{ACAD_REACTORS
330
4C
102
}
330
4C
100
AcDbScale
 70
     0
300
100:1
140
100.0
141
1.0
290
     0
  0
SCALE
  5
5E
102
{ACAD_REACTORS
330
4C
102
}
330
4C
100
AcDbScale
 70
     0
300
1/128" = 1'-0"
140
0.0078125
141
12.0
290
     0
  0
SCALE
  5
5F
102
{ACAD_REACTORS
330
4C
102
}
330
4C
100
AcDbScale
 70
     0
300
1/64" = 1'-0"
140
0.015625
141
12.0
290
     0
  0
SCALE
  5
60
102
{ACAD_REACTORS
330
4C
102
}
330
4C
100
AcDbScale
 70
     0
300
1/32" = 1'-0"
140
0.03125
141
12.0
290
     0
  0
SCALE
  5
61
102
{ACAD_REACTORS
330
4C
102
}
330
4C
100
AcDbScale
 70
     0
300
1/16" = 1'-0"
140
0.0625
141
12.0
290
     0
  0
SCALE
  5
62
102
{ACAD_REACTORS
330
4C
102
}
330
4C
100
AcDbScale
 70
     0
300
3/32" = 1'-0"
140
0.09375
141
12.0
290
     0
  0
SCALE
  5
63
102
{ACAD_REACTORS
330
4C
102
}
330
4C
100
AcDbScale
 70
     0
300
1/8" = 1'-0"
140
0.125
141
12.0
290
     0
  0
SCALE
  5
64
102
{ACAD_REACTORS
330
4C
102
}
330
4C
100
AcDbScale
 70
     0
300
3/16" = 1'-0"
140
0.1875
141
12.0
290
     0
  0
SCALE
  5
65
102
{ACAD_REACTORS
330
4C
102
}
330
4C
100
AcDbScale
 70
     0
300
1/4" = 1'-0"
140
0.25
141
12.0
290
     0
  0
SCALE
  5
66
102
{ACAD_REACTORS
330
4C
102
}
330
4C
100
AcDbScale
 70
     0
300
3/8" = 1'-0"
140
0.375
141
12.0
290
     0
  0
SCALE
  5
67
102
{ACAD_REACTORS
330
4C
102
}
330
4C
100
AcDbScale
 70
     0
300
1/2" = 1'-0"
140
0.5
141
12.0
290
     0
  0
SCALE
  5
68
102
{ACAD_REACTORS
330
4C
102
}
330
4C
100
AcDbScale
 70
     0
300
3/4" = 1'-0"
140
0.75
141
12.0
290
     0
  0
SCALE
  5
69
102
{ACAD_REACTORS
330
4C
102
}
330
4C
100
AcDbScale
 70
     0
300
1" = 1'-0"
140
1.0
141
12.0
290
     0
  0
SCALE
  5
6A
102
{ACAD_REACTORS
330
4C
102
}
330
4C
100
AcDbScale
 70
     0
300
1-1/2" = 1'-0"
140
1.5
141
12.0
290
     0
  0
SCALE
  5
6B
102
{ACAD_REACTORS
330
4C
102
}
330
4C
100
AcDbScale
 70
     0
300
3" = 1'-0"
140
3.0
141
12.0
290
     0
  0
SCALE
  5
6C
102
{ACAD_REACTORS
330
4C
102
}
330
4C
100
AcDbScale
 70
     0
300
6" = 1'-0"
140
6.0
141
12.0
290
     0
  0
SCALE
  5
6D
102
{ACAD_REACTORS
330
4C
102
}
330
4C
100
AcDbScale
 70
     0
300
1'-0" = 1'-0"
140
12.0
141
12.0
290
     0
  0
VISUALSTYLE
  5
2F
102
{ACAD_REACTORS
330
2A
102
}
330
2A
100
AcDbVisualStyle
  2
2dWireframe
 70
     4
 71
     0
 72
     2
 73
     0
 90
        0
 40
-0.6
 41
-30.0
 62
     5
 63
     7
 74
     1
 91
        4
 64
     7
 65
   257
 75
     1
175
     1
 42
1.0
 92
        0
 66
   257
 43
1.0
 76
     1
 77
     6
 78
     2
 67
     7
 79
     5
170
     0
171
     0
290
     0
174
     0
 93
        1
 44
0.0
173
     0
291
     0
 45
0.0
1001
ACAD
1000
AcDbSavedByObjectVersion
1070
     0
  0
VISUALSTYLE
  5
31
102
{ACAD_REACTORS
330
2A
102
}
330
2A
100
AcDbVisualStyle
  2
3D Hidden
 70
     6
 71
     1
 72
     2
 73
     2
 90
        0
 40
-0.6
 41
-30.0
 62
     5
 63
     7
 74
     2
 91
        2
 64
     7
 65
   257
 75
     2
175
     1
 42
40.0
 92
        0
 66
   257
 43
1.0
 76
     1
 77
     6
 78
     2
 67
     7
 79
     3
170
     0
171
     0
290
     0
174
     0
 93
        1
 44
0.0
173
     0
291
     0
 45
0.0
1001
ACAD
1000
AcDbSavedByObjectVersion
1070
     0
  0
VISUALSTYLE
  5
30
102
{ACAD_REACTORS
330
2A
102
}
330
2A
100
AcDbVisualStyle
  2
3dWireframe
 70
     5
 71
     0
 72
     2
 73
     0
 90
        0
 40
-0.6
 41
-30.0
 62
     5
 63
     7
 74
     1
 91
        4
 64
     7
 65
   257
 75
     1
175
     1
 42
1.0
 92
        0
 66
   257
 43
1.0
 76
     1
 77
     6
 78
     2
 67
     7
 79
     5
170
     0
171
     0
290
     0
174
     0
 93
        1
 44
0.0
173
     0
291
     0
 45
0.0
1001
ACAD
1000
AcDbSavedByObjectVersion
1070
     0
  0
VISUALSTYLE
  5
32
102
{ACAD_REACTORS
330
2A
102
}
330
2A
100
AcDbVisualStyle
  2
Basic
 70
     7
 71
     1
 72
     0
 73
     1
 90
        0
 40
-0.6
 41
-30.0
 62
     5
 63
     7
 74
     0
 91
        4
 64
     7
 65
   257
 75
     1
175
     1
 42
1.0
 92
        8
 66
     7
 43
1.0
 76
     1
 77
     6
 78
     2
 67
     7
 79
     5
170
     0
171
     0
290
     0
174
     0
 93
        1
 44
0.0
173
     0
291
     1
 45
0.0
1001
ACAD
1000
AcDbSavedByObjectVersion
1070
     0
  0
VISUALSTYLE
  5
36
102
{ACAD_REACTORS
330
2A
102
}
330
2A
100
AcDbVisualStyle
  2
Brighten
 70
    12
 71
     2
 72
     2
 73
     0
 90
        0
 40
-0.6
 41
-30.0
 62
     5
 63
     7
 74
     1
 91
        4
 64
     7
 65
   257
 75
     1
175
     1
 42
1.0
 92
        8
 66
     7
 43
1.0
 76
     1
 77
     6
 78
     2
 67
     7
 79
     5
170
     0
171
     0
290
     0
174
     0
 93
        1
 44
50.0
173
     0
291
     1
 45
0.0
1001
ACAD
1000
AcDbSavedByObjectVersion
1070
     0
  0
VISUALSTYLE
  5
3A
102
{ACAD_REACTORS
330
2A
102
}
330
2A
100
AcDbVisualStyle
  2
ColorChange
 70
    16
 71
     2
 72
     2
 73
     3
 90
        0
 40
-0.6
 41
-30.0
 62
     5
 63
     8
 74
     1
 91
        4
 64
     7
 65
   257
 75
     1
175
     1
 42
1.0
 92
        8
 66
     8
 43
1.0
 76
     1
 77
     6
 78
     2
 67
     7
 79
     5
170
     0
171
     0
290
     0
174
     0
 93
        1
 44
0.0
173
     0
291
     1
 45
0.0
1001
ACAD
1000
AcDbSavedByObjectVersion
1070
     0
  0
VISUALSTYLE
  5
34
102
{ACAD_REACTORS
330
2A
102
}
330
2A
100
AcDbVisualStyle
  2
Conceptual
 70
     9
 71
     3
 72
     2
 73
     0
 90
        0
 40
-0.6
 41
-30.0
 62
     5
 63
     7
 74
     2
 91
        2
 64
     7
 65
   257
 75
     1
175
     1
 42
40.0
 92
        8
 66
     7
 43
1.0
 76
     1
 77
     6
 78
     2
 67
     7
 79
     3
170
     0
171
     0
290
     0
174
     0
 93
        1
 44
0.0
173
     0
291
     0
 45
0.0
1001
ACAD
1000
AcDbSavedByObjectVersion
1070
     0
  0
VISUALSTYLE
  5
35
102
{ACAD_REACTORS
330
2A
102
}
330
2A
100
AcDbVisualStyle
  2
Dim
 70
    11
 71
     2
 72
     2
 73
     0
 90
        0
 40
-0.6
 41
-30.0
 62
     5
 63
     7
 74
     1
 91
        4
 64
     7
 65
   257
 75
     1
175
     1
 42
1.0
 92
        8
 66
     7
 43
1.0
 76
     1
 77
     6
 78
     2
 67
     7
 79
     5
170
     0
171
     0
290
     0
174
     0
 93
        1
 44
-50.0
173
     0
291
     1
 45
0.0
1001
ACAD
1000
AcDbSavedByObjectVersion
1070
     0
  0
VISUALSTYLE
  5
39
102
{ACAD_REACTORS
330
2A
102
}
330
2A
100
AcDbVisualStyle
  2
Facepattern
 70
    15
 71
     2
 72
     2
 73
     0
 90
        0
 40
-0.6
 41
-30.0
 62
     5
 63
     7
 74
     1
 91
        4
 64
     7
 65
   257
 75
     1
175
     1
 42
1.0
 92
        8
 66
     7
 43
1.0
 76
     1
 77
     6
 78
     2
 67
     7
 79
     5
170
     0
171
     0
290
     0
174
     0
 93
        1
 44
0.0
173
     0
291
     1
 45
0.0
1001
ACAD
1000
AcDbSavedByObjectVersion
1070
     0
  0
VISUALSTYLE
  5
2B
102
{ACAD_REACTORS
330
2A
102
}
330
2A
100
AcDbVisualStyle
  2
Flat
 70
     0
 71
     2
 72
     1
 73
     1
 90
        2
 40
-0.6
 41
30.0
 62
     5
 63
     7
 74
     0
 91
        4
 64
     7
 65
   257
 75
     1
175
     1
 42
1.0
 92
        8
 66
     7
 43
1.0
 76
     1
 77
     6
 78
     2
 67
     7
 79
     5
170
     0
171
     0
290
     0
174
     0
 93
       13
 44
0.0
173
     0
291
     1
 45
0.0
1001
ACAD
1000
AcDbSavedByObjectVersion
1070
     0
  0
VISUALSTYLE
  5
2C
102
{ACAD_REACTORS
330
2A
102
}
330
2A
100
AcDbVisualStyle
  2
FlatWithEdges
 70
     1
 71
     2
 72
     1
 73
     1
 90
        2
 40
-0.6
 41
30.0
 62
     5
 63
     7
 74
     1
 91
        4
 64
     7
 65
   257
 75
     1
175
     1
 42
1.0
 92
        0
 66
   257
 43
1.0
 76
     1
 77
     6
 78
     2
 67
     7
 79
     5
170
     0
171
     0
290
     0
174
     0
 93
       13
 44
0.0
173
     0
291
     1
 45
0.0
1001
ACAD
1000
AcDbSavedByObjectVersion
1070
     0
  0
VISUALSTYLE
  5
2D
102
{ACAD_REACTORS
330
2A
102
}
330
2A
100
AcDbVisualStyle
  2
Gouraud
 70
     2
 71
     2
 72
     2
 73
     1
 90
        2
 40
-0.6
 41
30.0
 62
     5
 63
     7
 74
     0
 91
        4
 64
     7
 65
   257
 75
     1
175
     1
 42
1.0
 92
        0
 66
     7
 43
1.0
 76
     1
 77
     6
 78
     2
 67
     7
 79
     5
170
     0
171
     0
290
     0
174
     0
 93
       13
 44
0.0
173
     0
291
     1
 45
0.0
1001
ACAD
1000
AcDbSavedByObjectVersion
1070
     0
  0
VISUALSTYLE
  5
2E
102
{ACAD_REACTORS
330
2A
102
}
330
2A
100
AcDbVisualStyle
  2
GouraudWithEdges
 70
     3
 71
     2
 72
     2
 73
     1
 90
        2
 40
-0.6
 41
30.0
 62
     5
 63
     7
 74
     1
 91
        4
 64
     7
 65
   257
 75
     1
175
     1
 42
1.0
 92
        0
 66
   257
 43
1.0
 76
     1
 77
     6
 78
     2
 67
     7
 79
     5
170
     0
171
     0
290
     0
174
     0
 93
       13
 44
0.0
173
     0
291
     1
 45
0.0
1001
ACAD
1000
AcDbSavedByObjectVersion
1070
     0
  0
VISUALSTYLE
  5
38
102
{ACAD_REACTORS
330
2A
102
}
330
2A
100
AcDbVisualStyle
  2
Linepattern
 70
    14
 71
     2
 72
     2
 73
     0
 90
        0
 40
-0.6
 41
-30.0
 62
     5
 63
     7
 74
     1
 91
        4
 64
     7
 65
   257
 75
     7
175
     7
 42
1.0
 92
        8
 66
     7
 43
1.0
 76
     1
 77
     6
 78
     2
 67
     7
 79
     5
170
     0
171
     0
290
     0
174
     0
 93
        1
 44
0.0
173
     0
291
     1
 45
0.0
1001
ACAD
1000
AcDbSavedByObjectVersion
1070
     0
  0
VISUALSTYLE
  5
33
102
{ACAD_REACTORS
330
2A
102
}
330
2A
100
AcDbVisualStyle
  2
Realistic
 70
     8
 71
     2
 72
     2
 73
     0
 90
        0
 40
-0.6
 41
-30.0
 62
     5
 63
     7
 74
     1
 91
        0
 64
     7
 65
   257
 75
     1
175
     1
 42
1.0
 92
        8
 66
     8
 43
1.0
 76
     1
 77
     6
 78
     2
 67
     7
 79
     5
170
     0
171
     0
290
     0
174
     0
 93
       13
 44
0.0
173
     0
291
     0
 45
0.0
1001
ACAD
1000
AcDbSavedByObjectVersion
1070
     0
  0
VISUALSTYLE
  5
37
102
{ACAD_REACTORS
330
2A
102
}
330
2A
100
AcDbVisualStyle
  2
Thicken
 70
    13
 71
     2
 72
     2
 73
     0
 90
        0
 40
-0.6
 41
-30.0
 62
     5
 63
     7
 74
     1
 91
        4
 64
     7
 65
   257
 75
     1
175
     1
 42
1.0
 92
       12
 66
     7
 43
1.0
 76
     1
 77
     6
 78
     2
 67
     7
 79
     5
170
     0
171
     0
290
     0
174
     0
 93
        1
 44
0.0
173
     0
291
     1
 45
0.0
1001
ACAD
1000
AcDbSavedByObjectVersion
1070
     0
  0
DICTIONARYVAR
  5
14A
102
{ACAD_REACTORS
330
147
102
}
330
147
100
DictionaryVariables
280
     0
  1
1:1
  0
ENDSEC
  0
EOF
