  0
SECTION
  2
HEADER
  9
$ACADVER
  1
AC1015
  9
$ACADMAINTVER
 70
     6
  9
$DWGCODEPAGE
  3
ANSI_1252
  9
$INSBASE
 10
0.0
 20
0.0
 30
0.0
  9
$EXTMIN
 10
-0.8735787449168
 20
252.2017197537
 30
0.0
  9
$EXTMAX
 10
252.842692098635
 20
381.548099469418
 30
0.0
  9
$LIMMIN
 10
0.0
 20
0.0
  9
$LIMMAX
 10
12.0
 20
9.0
  9
$ORTHOMODE
 70
     0
  9
$REGENMODE
 70
     1
  9
$FILLMODE
 70
     1
  9
$QTEXTMODE
 70
     0
  9
$MIRRTEXT
 70
     1
  9
$LTSCALE
 40
1.0
  9
$ATTMODE
 70
     1
  9
$TEXTSIZE
 40
0.2
  9
$TRACEWID
 40
0.05
  9
$TEXTSTYLE
  7
Standard
  9
$CLAYER
  8
0
  9
$CELTYPE
  6
ByLayer
  9
$CECOLOR
 62
   256
  9
$CELTSCALE
 40
1.0
  9
$DISPSILH
 70
     0
  9
$DIMSCALE
 40
1.0
  9
$DIMASZ
 40
0.18
  9
$DIMEXO
 40
0.0625
  9
$DIMDLI
 40
0.38
  9
$DIMRND
 40
0.0
  9
$DIMDLE
 40
0.0
  9
$DIMEXE
 40
0.18
  9
$DIMTP
 40
0.0
  9
$DIMTM
 40
0.0
  9
$DIMTXT
 40
0.18
  9
$DIMCEN
 40
0.09
  9
$DIMTSZ
 40
0.0
  9
$DIMTOL
 70
     0
  9
$DIMLIM
 70
     0
  9
$DIMTIH
 70
     1
  9
$DIMTOH
 70
     1
  9
$DIMSE1
 70
     0
  9
$DIMSE2
 70
     0
  9
$DIMTAD
 70
     0
  9
$DIMZIN
 70
     0
  9
$DIMBLK
  1

  9
$DIMASO
 70
     1
  9
$DIMSHO
 70
     1
  9
$DIMPOST
  1

  9
$DIMAPOST
  1

  9
$DIMALT
 70
     0
  9
$DIMALTD
 70
     2
  9
$DIMALTF
 40
25.4
  9
$DIMLFAC
 40
1.0
  9
$DIMTOFL
 70
     0
  9
$DIMTVP
 40
0.0
  9
$DIMTIX
 70
     0
  9
$DIMSOXD
 70
     0
  9
$DIMSAH
 70
     0
  9
$DIMBLK1
  1

  9
$DIMBLK2
  1

  9
$DIMSTYLE
  2
Standard
  9
$DIMCLRD
 70
     0
  9
$DIMCLRE
 70
     0
  9
$DIMCLRT
 70
     0
  9
$DIMTFAC
 40
1.0
  9
$DIMGAP
 40
0.09
  9
$DIMJUST
 70
     0
  9
$DIMSD1
 70
     0
  9
$DIMSD2
 70
     0
  9
$DIMTOLJ
 70
     1
  9
$DIMTZIN
 70
     0
  9
$DIMALTZ
 70
     0
  9
$DIMALTTZ
 70
     0
  9
$DIMUPT
 70
     0
  9
$DIMDEC
 70
     4
  9
$DIMTDEC
 70
     4
  9
$DIMALTU
 70
     2
  9
$DIMALTTD
 70
     2
  9
$DIMTXSTY
  7
Standard
  9
$DIMAUNIT
 70
     0
  9
$DIMADEC
 70
     0
  9
$DIMALTRND
 40
0.0
  9
$DIMAZIN
 70
     0
  9
$DIMDSEP
 70
    46
  9
$DIMATFIT
 70
     3
  9
$DIMFRAC
 70
     0
  9
$DIMLDRBLK
  1

  9
$DIMLUNIT
 70
     2
  9
$DIMLWD
 70
    -2
  9
$DIMLWE
 70
    -2
  9
$DIMTMOVE
 70
     0
  9
$LUNITS
 70
     2
  9
$LUPREC
 70
     4
  9
$SKETCHINC
 40
0.1
  9
$FILLETRAD
 40
0.5
  9
$AUNITS
 70
     0
  9
$AUPREC
 70
     0
  9
$MENU
  1
.
  9
$ELEVATION
 40
0.0
  9
$PELEVATION
 40
0.0
  9
$THICKNESS
 40
0.0
  9
$LIMCHECK
 70
     0
  9
$CHAMFERA
 40
0.5
  9
$CHAMFERB
 40
0.5
  9
$CHAMFERC
 40
1.0
  9
$CHAMFERD
 40
0.0
  9
$SKPOLY
 70
     0
  9
$TDCREATE
 40
2456748.734357928
  9
$TDUCREATE
 40
2456748.651024595
  9
$TDUPDATE
 40
2456748.73435794
  9
$TDUUPDATE
 40
2456748.651024607
  9
$TDINDWG
 40
0.0000000116
  9
$TDUSRTIMER
 40
0.0000000116
  9
$USRTIMER
 70
     1
  9
$ANGBASE
 50
0.0
  9
$ANGDIR
 70
     0
  9
$PDMODE
 70
     0
  9
$PDSIZE
 40
0.0
  9
$PLINEWID
 40
0.0
  9
$SPLFRAME
 70
     0
  9
$SPLINETYPE
 70
     6
  9
$SPLINESEGS
 70
     8
  9
$HANDSEED
  5
14A
  9
$SURFTAB1
 70
     6
  9
$SURFTAB2
 70
     6
  9
$SURFTYPE
 70
     6
  9
$SURFU
 70
     6
  9
$SURFV
 70
     6
  9
$UCSBASE
  2

  9
$UCSNAME
  2

  9
$UCSORG
 10
0.0
 20
0.0
 30
0.0
  9
$UCSXDIR
 10
1.0
 20
0.0
 30
0.0
  9
$UCSYDIR
 10
0.0
 20
1.0
 30
0.0
  9
$UCSORTHOREF
  2

  9
$UCSORTHOVIEW
 70
     0
  9
$UCSORGTOP
 10
0.0
 20
0.0
 30
0.0
  9
$UCSORGBOTTOM
 10
0.0
 20
0.0
 30
0.0
  9
$UCSORGLEFT
 10
0.0
 20
0.0
 30
0.0
  9
$UCSORGRIGHT
 10
0.0
 20
0.0
 30
0.0
  9
$UCSORGFRONT
 10
0.0
 20
0.0
 30
0.0
  9
$UCSORGBACK
 10
0.0
 20
0.0
 30
0.0
  9
$PUCSBASE
  2

  9
$PUCSNAME
  2

  9
$PUCSORG
 10
0.0
 20
0.0
 30
0.0
  9
$PUCSXDIR
 10
1.0
 20
0.0
 30
0.0
  9
$PUCSYDIR
 10
0.0
 20
1.0
 30
0.0
  9
$PUCSORTHOREF
  2

  9
$PUCSORTHOVIEW
 70
     0
  9
$PUCSORGTOP
 10
0.0
 20
0.0
 30
0.0
  9
$PUCSORGBOTTOM
 10
0.0
 20
0.0
 30
0.0
  9
$PUCSORGLEFT
 10
0.0
 20
0.0
 30
0.0
  9
$PUCSORGRIGHT
 10
0.0
 20
0.0
 30
0.0
  9
$PUCSORGFRONT
 10
0.0
 20
0.0
 30
0.0
  9
$PUCSORGBACK
 10
0.0
 20
0.0
 30
0.0
  9
$USERI1
 70
     0
  9
$USERI2
 70
     0
  9
$USERI3
 70
     0
  9
$USERI4
 70
     0
  9
$USERI5
 70
     0
  9
$USERR1
 40
16.5
  9
$USERR2
 40
0.0
  9
$USERR3
 40
0.0
  9
$USERR4
 40
0.0
  9
$USERR5
 40
0.0
  9
$WORLDVIEW
 70
     1
  9
$SHADEDGE
 70
     3
  9
$SHADEDIF
 70
    70
  9
$TILEMODE
 70
     1
  9
$MAXACTVP
 70
    64
  9
$PINSBASE
 10
0.0
 20
0.0
 30
0.0
  9
$PLIMCHECK
 70
     0
  9
$PEXTMIN
 10
1.00000000000000E+20
 20
1.00000000000000E+20
 30
1.00000000000000E+20
  9
$PEXTMAX
 10
-1.00000000000000E+20
 20
-1.00000000000000E+20
 30
-1.00000000000000E+20
  9
$PLIMMIN
 10
0.0
 20
0.0
  9
$PLIMMAX
 10
12.0
 20
9.0
  9
$UNITMODE
 70
     0
  9
$VISRETAIN
 70
     1
  9
$PLINEGEN
 70
     0
  9
$PSLTSCALE
 70
     1
  9
$TREEDEPTH
 70
  3020
  9
$CMLSTYLE
  2
Standard
  9
$CMLJUST
 70
     0
  9
$CMLSCALE
 40
1.0
  9
$PROXYGRAPHICS
 70
     1
  9
$MEASUREMENT
 70
     1
  9
$CELWEIGHT
370
    -1
  9
$ENDCAPS
280
     0
  9
$JOINSTYLE
280
     0
  9
$LWDISPLAY
290
     0
  9
$INSUNITS
 70
     1
  9
$HYPERLINKBASE
  1

  9
$STYLESHEET
  1

  9
$XEDIT
290
     1
  9
$CEPSNTYPE
380
     0
  9
$PSTYLEMODE
290
     1
  9
$FINGERPRINTGUID
  2
{9297C9C1-745B-4691-BC0E-5B20FC85C7E9}
  9
$VERSIONGUID
  2
{FAEB1C32-E019-11D5-929B-00C0DF256EC4}
  9
$EXTNAMES
290
     1
  9
$PSVPSCALE
 40
0.0
  9
$OLESTARTUP
290
     0
  0
ENDSEC
  0
SECTION
  2
CLASSES
  0
CLASS
  1
ACDBDICTIONARYWDFLT
  2
AcDbDictionaryWithDefault
  3
ObjectDBX Classes
 90
        0
280
     0
281
     0
  0
CLASS
  1
VISUALSTYLE
  2
AcDbVisualStyle
  3
ObjectDBX Classes
 90
     4095
280
     0
281
     0
  0
CLASS
  1
SCALE
  2
AcDbScale
  3
ObjectDBX Classes
 90
     1153
280
     0
281
     0
  0
CLASS
  1

  2
exOdDbPolyline
  3

 90
        0
280
     0
281
     1
  0
CLASS
  1

  2
exOdDbCircle
  3

 90
        0
280
     0
281
     1
  0
CLASS
  1

  2
exOdDbSpline
  3

 90
        0
280
     0
281
     1
  0
CLASS
  1
DICTIONARYVAR
  2
AcDbDictionaryVar
  3
ObjectDBX Classes
 90
        0
280
     0
281
     0
  0
CLASS
  1
ACDBPLACEHOLDER
  2
AcDbPlaceHolder
  3
ObjectDBX Classes
 90
        0
280
     0
281
     0
  0
CLASS
  1
LAYOUT
  2
AcDbLayout
  3
ObjectDBX Classes
 90
        0
280
     0
281
     0
  0
ENDSEC
  0
SECTION
  2
TABLES
  0
TABLE
  2
VPORT
  5
8
330
0
100
AcDbSymbolTable
 70
     1
  0
VPORT
  5
29
330
8
100
AcDbSymbolTableRecord
100
AcDbViewportTableRecord
  2
*Active
 70
     0
 10
0.0
 20
0.0
 11
1.0
 21
1.0
 12
125.9845566768591
 22
316.874909611559
 13
0.0
 23
0.0
 14
0.5
 24
0.5
 15
0.5
 25
0.5
 16
0.0
 26
0.0
 36
1.0
 17
0.0
 27
0.0
 37
0.0
 40
174.1384098491677
 41
1.60267857142857
 42
50.0
 43
0.0
 44
0.0
 50
0.0
 51
0.0
 71
     0
 72
   100
 73
     1
 74
     3
 75
     0
 76
     0
 77
     0
 78
     0
281
     0
 65
     1
110
0.0
120
0.0
130
0.0
111
1.0
121
0.0
131
0.0
112
0.0
122
1.0
132
0.0
 79
     0
146
0.0
  0
ENDTAB
  0
TABLE
  2
LTYPE
  5
5
330
0
100
AcDbSymbolTable
 70
     8
  0
LTYPE
  5
14
330
5
100
AcDbSymbolTableRecord
100
AcDbLinetypeTableRecord
  2
ByBlock
 70
     0
  3

 72
    65
 73
     0
 40
0.0
  0
LTYPE
  5
15
330
5
100
AcDbSymbolTableRecord
100
AcDbLinetypeTableRecord
  2
ByLayer
 70
     0
  3

 72
    65
 73
     0
 40
0.0
  0
LTYPE
  5
16
330
5
100
AcDbSymbolTableRecord
100
AcDbLinetypeTableRecord
  2
Continuous
 70
     0
  3
Solid line
 72
    65
 73
     0
 40
0.0
  0
LTYPE
  5
3B
330
5
100
AcDbSymbolTableRecord
100
AcDbLinetypeTableRecord
  2
DASHED
 70
     0
  3
Dashed
 72
    65
 73
     2
 40
15.0
 49
7.0
 74
     0
 49
-8.0
 74
     0
  0
LTYPE
  5
3C
330
5
100
AcDbSymbolTableRecord
100
AcDbLinetypeTableRecord
  2
DOTTED
 70
     0
  3
Dotted
 72
    65
 73
     2
 40
1.0
 49
0.0
 74
     0
 49
-1.0
 74
     0
  0
LTYPE
  5
3D
330
5
100
AcDbSymbolTableRecord
100
AcDbLinetypeTableRecord
  2
DOT_CENTER
 70
     0
  3
Dot_Center
 72
    65
 73
     4
 40
14.0
 49
12.0
 74
     0
 49
-1.0
 74
     0
 49
0.0
 74
     0
 49
-1.0
 74
     0
  0
LTYPE
  5
3E
330
5
100
AcDbSymbolTableRecord
100
AcDbLinetypeTableRecord
  2
LONG_DASHED
 70
     0
  3
Long_Dashed
 72
    65
 73
     2
 40
15.0
 49
10.0
 74
     0
 49
-5.0
 74
     0
  0
LTYPE
  5
3F
330
5
100
AcDbSymbolTableRecord
100
AcDbLinetypeTableRecord
  2
DASH_CENTER
 70
     0
  3
Dash_Center
 72
    65
 73
     4
 40
14.0
 49
11.0
 74
     0
 49
-1.0
 74
     0
 49
1.0
 74
     0
 49
-1.0
 74
     0
  0
LTYPE
  5
40
330
5
100
AcDbSymbolTableRecord
100
AcDbLinetypeTableRecord
  2
PHANTOM
 70
     0
  3
Phantom
 72
    65
 73
     6
 40
13.0
 49
10.0
 74
     0
 49
-1.0
 74
     0
 49
0.0
 74
     0
 49
-1.0
 74
     0
 49
0.0
 74
     0
 49
-1.0
 74
     0
  0
LTYPE
  5
41
330
5
100
AcDbSymbolTableRecord
100
AcDbLinetypeTableRecord
  2
CENTER_DASH_DASH
 70
     0
  3
Center_Dash_Dash
 72
    65
 73
     6
 40
14.0
 49
9.0
 74
     0
 49
-1.0
 74
     0
 49
1.0
 74
     0
 49
-1.0
 74
     0
 49
1.0
 74
     0
 49
-1.0
 74
     0
  0
ENDTAB
  0
TABLE
  2
LAYER
  5
2
330
0
100
AcDbSymbolTable
 70
     7
  0
LAYER
  5
10
330
2
100
AcDbSymbolTableRecord
100
AcDbLayerTableRecord
  2
0
 70
     0
 62
     7
  6
Continuous
370
    -3
390
F
  0
LAYER
  5
42
330
2
100
AcDbSymbolTableRecord
100
AcDbLayerTableRecord
  2
1
 70
     0
 62
     7
  6
Continuous
370
    -3
390
F
  0
LAYER
  5
43
330
2
100
AcDbSymbolTableRecord
100
AcDbLayerTableRecord
  2
BEZUGSACHSEN
 70
     0
 62
     7
  6
Continuous
370
    -3
390
F
  0
LAYER
  5
44
330
2
100
AcDbSymbolTableRecord
100
AcDbLayerTableRecord
  2
DEFAULT_2
 70
     0
 62
     7
  6
Continuous
370
    -3
390
F
  0
LAYER
  5
45
330
2
100
AcDbSymbolTableRecord
100
AcDbLayerTableRecord
  2
FASEN
 70
     0
 62
     7
  6
Continuous
370
    -3
390
F
  0
LAYER
  5
46
330
2
100
AcDbSymbolTableRecord
100
AcDbLayerTableRecord
  2
GEWINDE
 70
     0
 62
     7
  6
Continuous
370
    -3
390
F
  0
LAYER
  5
47
330
2
100
AcDbSymbolTableRecord
100
AcDbLayerTableRecord
  2
RUNDUNGEN
 70
     0
 62
     7
  6
Continuous
370
    -3
390
F
  0
ENDTAB
  0
TABLE
  2
STYLE
  5
3
330
0
100
AcDbSymbolTable
 70
     2
  0
STYLE
  5
11
330
3
100
AcDbSymbolTableRecord
100
AcDbTextStyleTableRecord
  2
Standard
 70
     0
 40
0.0
 41
1.0
 50
0.0
 71
     0
 42
0.2
  3
txt
  4

  0
STYLE
  5
6E
330
3
100
AcDbSymbolTableRecord
100
AcDbTextStyleTableRecord
  2
CONVERTER_11
 70
     0
 40
0.0
 41
0.72
 50
0.0
 71
     0
 42
0.2
  3
txt.shx
  4

  0
ENDTAB
  0
TABLE
  2
VIEW
  5
6
330
0
100
AcDbSymbolTable
 70
     0
  0
ENDTAB
  0
TABLE
  2
UCS
  5
7
330
0
100
AcDbSymbolTable
 70
     0
  0
ENDTAB
  0
TABLE
  2
APPID
  5
9
330
0
100
AcDbSymbolTable
 70
     1
  0
APPID
  5
12
330
9
100
AcDbSymbolTableRecord
100
AcDbRegAppTableRecord
  2
ACAD
 70
     0
  0
ENDTAB
  0
TABLE
  2
DIMSTYLE
  5
A
330
0
100
AcDbSymbolTable
 70
     6
100
AcDbDimStyleTable
  0
DIMSTYLE
105
27
330
A
100
AcDbSymbolTableRecord
100
AcDbDimStyleTableRecord
  2
Standard
 70
     0
340
11
  0
DIMSTYLE
105
111
102
{ACAD_REACTORS
330
112
102
}
330
A
100
AcDbSymbolTableRecord
100
AcDbDimStyleTableRecord
  2
ME10_DIM_10
 70
     0
  3
\U+2300<>
 41
3.5
 42
2.0
 44
2.0
 71
     1
 73
     0
 74
     0
 77
     1
 78
     8
140
3.5
146
0.7
147
2.0
172
     1
173
     1
176
     2
177
     2
178
     3
271
     2
272
     0
340
6E
  0
DIMSTYLE
105
11C
102
{ACAD_REACTORS
330
11D
102
}
330
A
100
AcDbSymbolTableRecord
100
AcDbDimStyleTableRecord
  2
ME10_DIM_11
 70
     0
  3
\U+2300<>
 41
3.5
 42
2.0
 44
2.0
 71
     1
 73
     0
 74
     0
 77
     1
 78
     8
140
3.5
146
0.7
147
2.0
172
     1
173
     1
176
     2
177
     2
178
     3
271
     2
272
     0
340
6E
  0
DIMSTYLE
105
127
102
{ACAD_REACTORS
330
128
102
}
330
A
100
AcDbSymbolTableRecord
100
AcDbDimStyleTableRecord
  2
ME10_DIM_12
 70
     0
  3
<>
 41
3.5
 42
2.0
 44
2.0
 71
     1
 73
     0
 74
     0
 77
     1
 78
     8
140
3.5
146
0.7
147
2.0
172
     1
173
     1
176
     2
177
     2
178
     3
271
     2
272
     0
340
6E
  0
DIMSTYLE
105
132
102
{ACAD_REACTORS
330
133
102
}
330
A
100
AcDbSymbolTableRecord
100
AcDbDimStyleTableRecord
  2
ME10_DIM_13
 70
     0
  3
<>
 41
3.5
 42
2.0
 44
2.0
 71
     1
 73
     0
 74
     0
 77
     1
 78
     8
140
3.5
146
0.7
147
2.0
172
     1
173
     1
176
     2
177
     2
178
     3
271
     2
272
     0
340
6E
  0
DIMSTYLE
105
13D
102
{ACAD_REACTORS
330
13E
102
}
330
A
100
AcDbSymbolTableRecord
100
AcDbDimStyleTableRecord
  2
ME10_DIM_14
 70
     0
  3
<>
 41
3.5
 42
2.0
 44
2.0
 71
     1
 73
     0
 74
     0
 77
     1
 78
     8
140
3.5
146
0.7
147
2.0
172
     1
173
     1
176
     2
177
     2
178
     3
271
     2
272
     0
340
6E
  0
ENDTAB
  0
TABLE
  2
BLOCK_RECORD
  5
1
330
0
100
AcDbSymbolTable
 70
     8
  0
BLOCK_RECORD
  5
1F
330
1
100
AcDbSymbolTableRecord
100
AcDbBlockTableRecord
  2
*Model_Space
340
22
  0
BLOCK_RECORD
  5
1B
330
1
100
AcDbSymbolTableRecord
100
AcDbBlockTableRecord
  2
*Paper_Space
340
1E
  0
BLOCK_RECORD
  5
23
330
1
100
AcDbSymbolTableRecord
100
AcDbBlockTableRecord
  2
*Paper_Space0
340
26
  0
BLOCK_RECORD
  5
48
330
1
100
AcDbSymbolTableRecord
100
AcDbBlockTableRecord
  2
Urheberrecht_DE-EN
340
0
102
{BLKREFS
331
6D
102
}
  0
BLOCK_RECORD
  5
108
330
1
100
AcDbSymbolTableRecord
100
AcDbBlockTableRecord
  2
*D2
340
0
  0
BLOCK_RECORD
  5
113
330
1
100
AcDbSymbolTableRecord
100
AcDbBlockTableRecord
  2
*D3
340
0
  0
BLOCK_RECORD
  5
11E
330
1
100
AcDbSymbolTableRecord
100
AcDbBlockTableRecord
  2
*D4
340
0
  0
BLOCK_RECORD
  5
129
330
1
100
AcDbSymbolTableRecord
100
AcDbBlockTableRecord
  2
*D5
340
0
  0
BLOCK_RECORD
  5
134
330
1
100
AcDbSymbolTableRecord
100
AcDbBlockTableRecord
  2
*D6
340
0
  0
BLOCK_RECORD
  5
13F
330
1
100
AcDbSymbolTableRecord
100
AcDbBlockTableRecord
  2
*D7
340
0
102
{BLKREFS
331
145
102
}
  0
ENDTAB
  0
ENDSEC
  0
SECTION
  2
BLOCKS
  0
BLOCK
  5
20
330
1F
100
AcDbEntity
  8
0
100
AcDbBlockBegin
  2
*Model_Space
 70
     0
 10
0.0
 20
0.0
 30
0.0
  3
*Model_Space
  1

  0
ENDBLK
  5
21
330
1F
100
AcDbEntity
  8
0
100
AcDbBlockEnd
  0
BLOCK
  5
1C
330
1B
100
AcDbEntity
 67
     1
  8
0
100
AcDbBlockBegin
  2
*Paper_Space
 70
     0
 10
0.0
 20
0.0
 30
0.0
  3
*Paper_Space
  1

  0
ENDBLK
  5
1D
330
1B
100
AcDbEntity
 67
     1
  8
0
100
AcDbBlockEnd
  0
BLOCK
  5
24
330
23
100
AcDbEntity
  8
0
100
AcDbBlockBegin
  2
*Paper_Space0
 70
     0
 10
0.0
 20
0.0
 30
0.0
  3
*Paper_Space0
  1

  0
ENDBLK
  5
25
330
23
100
AcDbEntity
  8
0
100
AcDbBlockEnd
  0
BLOCK
  5
49
330
48
100
AcDbEntity
  8
0
100
AcDbBlockBegin
  2
Urheberrecht_DE-EN
 70
     0
 10
13.1264212550832
 20
313.213176253543
 30
0.0
  3
Urheberrecht_DE-EN
  1

  0
MTEXT
  5
6F
330
48
100
AcDbEntity
  8
1
 62
     1
100
AcDbMText
 10
13.1264212550832
 20
313.213176253543
 30
0.0
 40
2.0
 41
0.0
 71
     7
 72
     1
  1
We own the copyright of this document. It \Pdetermined and may neither be copied or \Pmade accessible to outsiders without our\Ppermission.
  7
CONVERTER_11
 11
0.0
 21
1.0
 31
0.0
 73
     1
 44
0.90036014405762
  0
MTEXT
  5
70
330
48
100
AcDbEntity
  8
1
 62
     1
100
AcDbMText
 10
13.1264212550832
 20
256.9237893362368
 30
0.0
 40
2.0
 41
0.0
 71
     7
 72
     1
  1
F\U+00fcr diese Unterlage behalten wir das Ur-\Pheberrecht. Sie darf nur f\U+00fcr den von uns \Pbestimmten Zweck benutzt und ohne unsere \PZustimmung weder vervielf\U+00e4ltigt noch\PDritten zug\U+00e4nglich gemacht werden.
  7
CONVERTER_11
 11
0.0
 21
1.0
 31
0.0
 73
     1
 44
0.90036014405762
  0
ENDBLK
  5
4A
330
48
100
AcDbEntity
  8
0
100
AcDbBlockEnd
  0
BLOCK
  5
10F
330
108
100
AcDbEntity
  8
0
100
AcDbBlockBegin
  2
*D2
 70
     1
 10
0.0
 20
0.0
 30
0.0
  3
*D2
  1

  0
LINE
  5
109
330
108
100
AcDbEntity
  8
1
  6
Continuous
 62
     2
100
AcDbLine
 10
242.648088060631
 20
310.2017197537
 30
0.0
 11
242.648088060631
 21
294.2017197537
 31
0.0
  0
LINE
  5
10A
330
108
100
AcDbEntity
  8
1
  6
Continuous
 62
     2
100
AcDbLine
 10
232.4260572805
 20
310.2017197537
 30
0.0
 11
244.648088060631
 21
310.2017197537
 31
0.0
  0
LINE
  5
10B
330
108
100
AcDbEntity
  8
1
  6
Continuous
 62
     2
100
AcDbLine
 10
232.4260572805
 20
294.2017197537
 30
0.0
 11
244.648088060631
 21
294.2017197537
 31
0.0
  0
SOLID
  5
10C
330
108
100
AcDbEntity
  8
1
 62
     2
100
AcDbTrace
 10
243.1088718021869
 20
306.7017197537
 30
0.0
 11
242.1873043190751
 21
306.7017197537
 31
0.0
 12
242.648088060631
 22
310.2017197537
 32
0.0
 13
242.648088060631
 23
310.2017197537
 33
0.0
  0
SOLID
  5
10D
330
108
100
AcDbEntity
  8
1
 62
     2
100
AcDbTrace
 10
242.1873043190751
 20
297.7017197537
 30
0.0
 11
243.1088718021869
 21
297.7017197537
 31
0.0
 12
242.648088060631
 22
294.2017197537
 32
0.0
 13
242.648088060631
 23
294.2017197537
 33
0.0
  0
MTEXT
  5
10E
330
108
100
AcDbEntity
  8
1
 62
     3
100
AcDbMText
 10
240.648088060631
 20
293.627054886967
 30
0.0
 40
3.5
 41
0.0
 71
     7
 72
     1
  1
\C3;%%c\C3;\C3;16\C2;\H2.45;\S^ ;\C3;
  7
CONVERTER_11
 11
0.0
 21
1.0
 31
0.0
 73
     1
 44
0.60024009603842
  0
ENDBLK
  5
110
330
108
100
AcDbEntity
  8
0
100
AcDbBlockEnd
  0
BLOCK
  5
11A
330
113
100
AcDbEntity
  8
0
100
AcDbBlockBegin
  2
*D3
 70
     1
 10
0.0
 20
0.0
 30
0.0
  3
*D3
  1

  0
LINE
  5
114
330
113
100
AcDbEntity
  8
1
  6
Continuous
 62
     2
100
AcDbLine
 10
250.842692098635
 20
326.2017197537
 30
0.0
 11
250.842692098635
 21
278.2017197537
 31
0.0
  0
LINE
  5
115
330
113
100
AcDbEntity
  8
1
  6
Continuous
 62
     2
100
AcDbLine
 10
219.3373210948
 20
326.2017197537
 30
0.0
 11
252.842692098635
 21
326.2017197537
 31
0.0
  0
LINE
  5
116
330
113
100
AcDbEntity
  8
1
  6
Continuous
 62
     2
100
AcDbLine
 10
219.3373210948
 20
278.2017197537
 30
0.0
 11
252.842692098635
 21
278.2017197537
 31
0.0
  0
SOLID
  5
117
330
113
100
AcDbEntity
  8
1
 62
     2
100
AcDbTrace
 10
251.3034758401909
 20
322.7017197537
 30
0.0
 11
250.3819083570791
 21
322.7017197537
 31
0.0
 12
250.842692098635
 22
326.2017197537
 32
0.0
 13
250.842692098635
 23
326.2017197537
 33
0.0
  0
SOLID
  5
118
330
113
100
AcDbEntity
  8
1
 62
     2
100
AcDbTrace
 10
250.3819083570791
 20
281.7017197537
 30
0.0
 11
251.3034758401909
 21
281.7017197537
 31
0.0
 12
250.842692098635
 22
278.2017197537
 32
0.0
 13
250.842692098635
 23
278.2017197537
 33
0.0
  0
MTEXT
  5
119
330
113
100
AcDbEntity
  8
1
 62
     3
100
AcDbMText
 10
248.842692098635
 20
293.494584853213
 30
0.0
 40
3.5
 41
0.0
 71
     7
 72
     1
  1
\C3;%%c\C3;\C3;48\C2;\H2.45;\S^ ;\C3;
  7
CONVERTER_11
 11
0.0
 21
1.0
 31
0.0
 73
     1
 44
0.60024009603842
  0
ENDBLK
  5
11B
330
113
100
AcDbEntity
  8
0
100
AcDbBlockEnd
  0
BLOCK
  5
125
330
11E
100
AcDbEntity
  8
0
100
AcDbBlockBegin
  2
*D4
 70
     1
 10
0.0
 20
0.0
 30
0.0
  3
*D4
  1

  0
LINE
  5
11F
330
11E
100
AcDbEntity
  8
1
  6
Continuous
 62
     2
100
AcDbLine
 10
230.4260572805
 20
361.206721900024
 30
0.0
 11
99.4260572805
 21
361.206721900024
 31
0.0
  0
LINE
  5
120
330
11E
100
AcDbEntity
  8
1
  6
Continuous
 62
     2
100
AcDbLine
 10
230.4260572805
 20
321.5646494929
 30
0.0
 11
230.4260572805
 21
363.206721900024
 31
0.0
  0
LINE
  5
121
330
11E
100
AcDbEntity
  8
1
  6
Continuous
 62
     2
100
AcDbLine
 10
99.4260572805
 20
354.2016828326
 30
0.0
 11
99.4260572805
 21
363.206721900024
 31
0.0
  0
SOLID
  5
122
330
11E
100
AcDbEntity
  8
1
 62
     2
100
AcDbTrace
 10
226.9260572805
 20
360.7459381584681
 30
0.0
 11
226.9260572805
 21
361.6675056415799
 31
0.0
 12
230.4260572805
 22
361.206721900024
 32
0.0
 13
230.4260572805
 23
361.206721900024
 33
0.0
  0
SOLID
  5
123
330
11E
100
AcDbEntity
  8
1
 62
     2
100
AcDbTrace
 10
102.9260572805
 20
361.6675056415799
 30
0.0
 11
102.9260572805
 21
360.7459381584681
 31
0.0
 12
99.4260572805
 22
361.206721900024
 32
0.0
 13
99.4260572805
 23
361.206721900024
 33
0.0
  0
MTEXT
  5
124
330
11E
100
AcDbEntity
  8
1
 62
     3
100
AcDbMText
 10
162.875100213799
 20
363.206721900024
 30
0.0
 40
3.5
 41
0.0
 71
     7
 72
     1
  1
\C3;\C3;\C3;131\C2;\H2.45;\S^ ;\C3;
  7
CONVERTER_11
 11
0.9999999999970619
 21
2.424068405545306E-6
 31
0.0
 73
     1
 44
0.60024009603842
  0
ENDBLK
  5
126
330
11E
100
AcDbEntity
  8
0
100
AcDbBlockEnd
  0
BLOCK
  5
130
330
129
100
AcDbEntity
  8
0
100
AcDbBlockBegin
  2
*D5
 70
     1
 10
0.0
 20
0.0
 30
0.0
  3
*D5
  1

  0
LINE
  5
12A
330
129
100
AcDbEntity
  8
1
  6
Continuous
 62
     2
100
AcDbLine
 10
230.4260572805
 20
368.531038103102
 30
0.0
 11
70.4260572805
 21
368.531038103102
 31
0.0
  0
LINE
  5
12B
330
129
100
AcDbEntity
  8
1
  6
Continuous
 62
     2
100
AcDbLine
 10
230.4260572805
 20
321.5646494929
 30
0.0
 11
230.4260572805
 21
370.531038103102
 31
0.0
  0
LINE
  5
12C
330
129
100
AcDbEntity
  8
1
  6
Continuous
 62
     2
100
AcDbLine
 10
70.4260572805
 20
354.2017197537
 30
0.0
 11
70.4260572805
 21
370.531038103102
 31
0.0
  0
SOLID
  5
12D
330
129
100
AcDbEntity
  8
1
 62
     2
100
AcDbTrace
 10
226.9260572805
 20
368.0702543615461
 30
0.0
 11
226.9260572805
 21
368.9918218446579
 31
0.0
 12
230.4260572805
 22
368.531038103102
 32
0.0
 13
230.4260572805
 23
368.531038103102
 33
0.0
  0
SOLID
  5
12E
330
129
100
AcDbEntity
  8
1
 62
     2
100
AcDbTrace
 10
73.9260572805
 20
368.9918218446579
 30
0.0
 11
73.9260572805
 21
368.0702543615461
 31
0.0
 12
70.4260572805
 22
368.531038103102
 32
0.0
 13
70.4260572805
 23
368.531038103102
 33
0.0
  0
MTEXT
  5
12F
330
129
100
AcDbEntity
  8
1
 62
     3
100
AcDbMText
 10
147.999212970883
 20
370.531038103102
 30
0.0
 40
3.5
 41
0.0
 71
     7
 72
     1
  1
\C3;\C3;\C3;160\C2;\H2.45;\S^ ;\C3;
  7
CONVERTER_11
 11
0.9999999999970619
 21
2.424068405545306E-6
 31
0.0
 73
     1
 44
0.60024009603842
  0
ENDBLK
  5
131
330
129
100
AcDbEntity
  8
0
100
AcDbBlockEnd
  0
BLOCK
  5
13B
330
134
100
AcDbEntity
  8
0
100
AcDbBlockBegin
  2
*D6
 70
     1
 10
0.0
 20
0.0
 30
0.0
  3
*D6
  1

  0
LINE
  5
135
330
134
100
AcDbEntity
  8
1
  6
Continuous
 62
     2
100
AcDbLine
 10
230.4260572805
 20
376.048099469418
 30
0.0
 11
20.42605728049999
 21
376.048099469418
 31
0.0
  0
LINE
  5
136
330
134
100
AcDbEntity
  8
1
  6
Continuous
 62
     2
100
AcDbLine
 10
230.4260572805
 20
321.5646494929
 30
0.0
 11
230.4260572805
 21
378.048099469418
 31
0.0
  0
LINE
  5
137
330
134
100
AcDbEntity
  8
1
  6
Continuous
 62
     2
100
AcDbLine
 10
20.42605728049999
 20
337.8019113163
 30
0.0
 11
20.42605728049999
 21
378.048099469418
 31
0.0
  0
SOLID
  5
138
330
134
100
AcDbEntity
  8
1
 62
     2
100
AcDbTrace
 10
226.9260572805
 20
375.5873157278621
 30
0.0
 11
226.9260572805
 21
376.5088832109739
 31
0.0
 12
230.4260572805
 22
376.048099469418
 32
0.0
 13
230.4260572805
 23
376.048099469418
 33
0.0
  0
SOLID
  5
139
330
134
100
AcDbEntity
  8
1
 62
     2
100
AcDbTrace
 10
23.92605728049999
 20
376.5088832109739
 30
0.0
 11
23.92605728049999
 21
375.5873157278621
 31
0.0
 12
20.42605728049999
 22
376.048099469418
 32
0.0
 13
20.42605728049999
 23
376.048099469418
 33
0.0
  0
MTEXT
  5
13A
330
134
100
AcDbEntity
  8
1
 62
     3
100
AcDbMText
 10
132.579599911772
 20
378.048099469418
 30
0.0
 40
3.5
 41
0.0
 71
     7
 72
     1
  1
\C3;\C3;\C3;210\C2;\H2.45;\S^ ;\C3;
  7
CONVERTER_11
 11
0.9999999999970619
 21
2.424068405545306E-6
 31
0.0
 73
     1
 44
0.60024009603842
  0
ENDBLK
  5
13C
330
134
100
AcDbEntity
  8
0
100
AcDbBlockEnd
  0
BLOCK
  5
143
330
13F
100
AcDbEntity
  8
0
100
AcDbBlockBegin
  2
*D7
 70
     1
 10
0.0
 20
0.0
 30
0.0
  3
*D7
  1

  0
LINE
  5
140
330
13F
100
AcDbEntity
  8
1
  6
Continuous
 62
     2
100
AcDbLine
 10
110.3837228451204
 20
342.1433950570198
 30
0.0
 11
106.338905639733
 21
329.6812724545335
 31
0.0
  0
SOLID
  5
141
330
13F
100
AcDbEntity
  8
1
 62
     2
100
AcDbTrace
 10
106.9811321690373
 20
333.1525642517669
 30
0.0
 11
107.8576852589482
 21
332.8680623950126
 31
0.0
 12
106.338905639733
 22
329.6812724545335
 32
0.0
 13
106.338905639733
 23
329.6812724545335
 33
0.0
  0
MTEXT
  5
142
330
13F
100
AcDbEntity
  8
1
 62
     3
100
AcDbMText
 10
105.6721057841273
 20
334.1053191261419
 30
0.0
 40
3.5
 41
0.0
 71
     7
 72
     1
  1
\C3; R\C3;\C3;10\C2;\H2.45;\S^ ;\C3;
  7
CONVERTER_11
 11
0.3087151640741975
 21
0.9511545339589363
 31
0.0
 73
     1
 44
0.60024009603842
  0
ENDBLK
  5
144
330
13F
100
AcDbEntity
  8
0
100
AcDbBlockEnd
  0
ENDSEC
  0
SECTION
  2
ENTITIES
  0
INSERT
  5
6D
330
1F
100
AcDbEntity
  8
0
100
AcDbBlockReference
  2
Urheberrecht_DE-EN
 10
13.1264212550832
 20
313.213176253543
 30
0.0
  0
LINE
  5
71
330
1F
100
AcDbEntity
  8
BEZUGSACHSEN
  6
Continuous
 62
     7
100
AcDbLine
 10
20.4260572805
 20
268.6015281908
 30
0.0
 11
20.4260572805
 21
290.1917197537
 31
0.0
  0
LINE
  5
72
330
1F
100
AcDbEntity
  8
BEZUGSACHSEN
  6
Continuous
 62
     7
100
AcDbLine
 10
20.4260572805
 20
314.2117197537
 30
0.0
 11
20.4260572805
 21
335.8019113163
 31
0.0
  0
LINE
  5
73
330
1F
100
AcDbEntity
  8
BEZUGSACHSEN
  6
Continuous
 62
     9
100
AcDbLine
 10
22.3259827958
 20
337.7994060221
 30
0.0
 11
22.3259827958
 21
317.87825214
 31
0.0
  0
LINE
  5
74
330
1F
100
AcDbEntity
  8
BEZUGSACHSEN
  6
Continuous
 62
     9
100
AcDbLine
 10
22.3259827958
 20
286.5251873675
 30
0.0
 11
22.3259827958
 21
266.6040334854
 31
0.0
  0
LINE
  5
75
330
1F
100
AcDbEntity
  8
BEZUGSACHSEN
  6
Continuous
 62
     7
100
AcDbLine
 10
22.4260572805
 20
289.7980798054
 30
0.0
 11
22.4260572805
 21
292.1917197537
 31
0.0
  0
LINE
  5
76
330
1F
100
AcDbEntity
  8
BEZUGSACHSEN
  6
Continuous
 62
     7
100
AcDbLine
 10
22.4260572805
 20
312.2117197537
 30
0.0
 11
22.4260572805
 21
314.6053597021
 31
0.0
  0
LINE
  5
77
330
1F
100
AcDbEntity
  8
BEZUGSACHSEN
  6
Continuous
 62
     9
100
AcDbLine
 10
28.4260572805
 20
285.8430721663
 30
0.0
 11
28.4260572805
 21
292.1917197537
 31
0.0
  0
LINE
  5
78
330
1F
100
AcDbEntity
  8
BEZUGSACHSEN
  6
Continuous
 62
     9
100
AcDbLine
 10
28.4260572805
 20
312.2117197537
 30
0.0
 11
28.4260572805
 21
318.5603673412
 31
0.0
  0
LINE
  5
79
330
1F
100
AcDbEntity
  8
BEZUGSACHSEN
  6
Continuous
 62
     7
100
AcDbLine
 10
30.4260572805
 20
315.0713752795
 30
0.0
 11
30.4260572805
 21
289.332064228
 31
0.0
  0
LINE
  5
7A
330
1F
100
AcDbEntity
  8
BEZUGSACHSEN
  6
Continuous
 62
     7
100
AcDbLine
 10
21.6930102075
 20
287.1917197537
 30
0.0
 11
21.5718999561
 21
286.9593837583
 31
0.0
  0
LINE
  5
7B
330
1F
100
AcDbEntity
  8
BEZUGSACHSEN
  6
Continuous
 62
     7
100
AcDbLine
 10
21.5718999561
 20
317.4440557492
 30
0.0
 11
21.6930102075
 21
317.2117197537
 31
0.0
  0
LWPOLYLINE
  5
7C
330
1F
100
AcDbEntity
  8
BEZUGSACHSEN
  6
DOT_CENTER
 62
     7
100
AcDbPolyline
 90
        2
 70
     0
 43
0.25
 10
55.4260572805
 20
302.2017197537
 10
55.4260572805
 20
293.2017197537
  0
LWPOLYLINE
  5
7D
330
1F
100
AcDbEntity
  8
BEZUGSACHSEN
  6
DOT_CENTER
 62
     7
100
AcDbPolyline
 90
        2
 70
     0
 43
0.25
 10
55.4260572805
 20
302.2017197537
 10
55.4260572805
 20
311.2017197537
  0
LINE
  5
7E
330
1F
100
AcDbEntity
  8
BEZUGSACHSEN
  6
Continuous
 62
     7
100
AcDbLine
 10
20.4260572805
 20
290.1917197537
 30
0.0
 11
22.4260572805
 21
292.1917197537
 31
0.0
  0
LINE
  5
7F
330
1F
100
AcDbEntity
  8
BEZUGSACHSEN
  6
Continuous
 62
     7
100
AcDbLine
 10
22.4260572805
 20
312.2117197537
 30
0.0
 11
20.4260572805
 21
314.2117197537
 31
0.0
  0
LINE
  5
80
330
1F
100
AcDbEntity
  8
BEZUGSACHSEN
  6
Continuous
 62
     7
100
AcDbLine
 10
67.9260572805
 20
340.0839697537
 30
0.0
 11
67.9260572805
 21
264.3194697537
 31
0.0
  0
LINE
  5
81
330
1F
100
AcDbEntity
  8
BEZUGSACHSEN
  6
Continuous
 62
     9
100
AcDbLine
 10
68.5453008945
 20
264.48539558
 30
0.0
 11
68.5453008945
 21
339.9180439275
 31
0.0
  0
LINE
  5
82
330
1F
100
AcDbEntity
  8
BEZUGSACHSEN
  6
Continuous
 62
     9
100
AcDbLine
 10
68.8041199396
 20
264.5194697537
 30
0.0
 11
68.8041199396
 21
339.8839697537
 31
0.0
  0
LINE
  5
83
330
1F
100
AcDbEntity
  8
BEZUGSACHSEN
  6
Continuous
 62
     9
100
AcDbLine
 10
69.7254859918
 20
264.5194697537
 30
0.0
 11
69.7254859918
 21
339.8839697537
 31
0.0
  0
LINE
  5
84
330
1F
100
AcDbEntity
  8
BEZUGSACHSEN
  6
Continuous
 62
     7
100
AcDbLine
 10
70.4260572805
 20
352.2017197537
 30
0.0
 11
70.4260572805
 21
252.2017197537
 31
0.0
  0
LWPOLYLINE
  5
85
330
1F
100
AcDbEntity
  8
BEZUGSACHSEN
  6
DOT_CENTER
 62
     7
100
AcDbPolyline
 90
        2
 70
     0
 43
0.25
 10
77.4260572805
 20
344.3510916091
 10
77.4260572805
 20
355.2017197537
  0
LINE
  5
86
330
1F
100
AcDbEntity
  8
BEZUGSACHSEN
  6
Continuous
 62
     7
100
AcDbLine
 10
92.3010572805
 20
349.8243150179
 30
0.0
 11
93.6736525447
 21
352.2017197537
 31
0.0
  0
LINE
  5
87
330
1F
100
AcDbEntity
  8
BEZUGSACHSEN
  6
Continuous
 62
     7
100
AcDbLine
 10
87.1784620163
 20
252.2017197537
 30
0.0
 11
70.4260572805
 21
252.2017197537
 31
0.0
  0
LINE
  5
88
330
1F
100
AcDbEntity
  8
BEZUGSACHSEN
  6
Continuous
 62
     7
100
AcDbLine
 10
93.6736525447
 20
252.2017197537
 30
0.0
 11
99.4260572805
 21
252.2017197537
 31
0.0
  0
LINE
  5
89
330
1F
100
AcDbEntity
  8
BEZUGSACHSEN
  6
Continuous
 62
     7
100
AcDbLine
 10
89.5510572805
 20
256.2017197537
 30
0.0
 11
91.3010572805
 21
256.2017197537
 31
0.0
  0
LINE
  5
8A
330
1F
100
AcDbEntity
  8
BEZUGSACHSEN
  6
Continuous
 62
     7
100
AcDbLine
 10
92.3010572805
 20
254.5791244896
 30
0.0
 11
93.6736525447
 21
252.2017197537
 31
0.0
  0
LINE
  5
8B
330
1F
100
AcDbEntity
  8
FASEN
  6
Continuous
 62
     9
100
AcDbLine
 10
83.3979312024
 20
270.3017197537
 30
0.0
 11
83.3979312024
 21
270.7017197537
 31
0.0
  0
LINE
  5
8C
330
1F
100
AcDbEntity
  8
FASEN
  6
Continuous
 62
     9
100
AcDbLine
 10
85.4260572805
 20
292.6017197537
 30
0.0
 11
85.4260572805
 21
292.2017197537
 31
0.0
  0
LINE
  5
8D
330
1F
100
AcDbEntity
  8
FASEN
  6
Continuous
 62
     9
100
AcDbLine
 10
85.4260572805
 20
311.8017197537
 30
0.0
 11
85.4260572805
 21
312.2017197537
 31
0.0
  0
LINE
  5
8E
330
1F
100
AcDbEntity
  8
0
  6
Continuous
 62
     7
100
AcDbLine
 10
87.1784620163
 20
352.2017197537
 30
0.0
 11
87.1784620163
 21
312.2017197537
 31
0.0
  0
LINE
  5
8F
330
1F
100
AcDbEntity
  8
0
  6
Continuous
 62
     7
100
AcDbLine
 10
87.1784620163
 20
292.2017197537
 30
0.0
 11
87.1784620163
 21
270.7017197537
 31
0.0
  0
LINE
  5
90
330
1F
100
AcDbEntity
  8
0
  6
Continuous
 62
     7
100
AcDbLine
 10
87.1784620163
 20
263.371963123
 30
0.0
 11
87.1784620163
 21
252.2017197537
 31
0.0
  0
LINE
  5
91
330
1F
100
AcDbEntity
  8
FASEN
  6
Continuous
 62
     7
100
AcDbLine
 10
75.8275432449
 20
263.371963123
 30
0.0
 11
87.1784620163
 21
263.371963123
 31
0.0
  0
LINE
  5
92
330
1F
100
AcDbEntity
  8
0
  6
Continuous
 62
     7
100
AcDbLine
 10
93.6736525447
 20
263.371963123
 30
0.0
 11
99.4260572805
 21
263.371963123
 31
0.0
  0
LINE
  5
93
330
1F
100
AcDbEntity
  8
BEZUGSACHSEN
  6
Continuous
 62
     7
100
AcDbLine
 10
67.9260572805
 20
264.3194697537
 30
0.0
 11
22.3259827958
 21
266.6040334854
 31
0.0
  0
LINE
  5
94
330
1F
100
AcDbEntity
  8
0
  6
Continuous
 62
     7
100
AcDbLine
 10
88.5510572805
 20
349.8242815914
 30
0.0
 11
88.5510572805
 21
312.2017197537
 31
0.0
  0
LINE
  5
95
330
1F
100
AcDbEntity
  8
0
  6
Continuous
 62
     7
100
AcDbLine
 10
88.5510572805
 20
292.2017197537
 30
0.0
 11
88.5510572805
 21
270.7017197537
 31
0.0
  0
LINE
  5
96
330
1F
100
AcDbEntity
  8
0
  6
Continuous
 62
     7
100
AcDbLine
 10
88.5510572805
 20
254.5791620235
 30
0.0
 11
88.5510572805
 21
267.3197760006
 31
0.0
  0
LINE
  5
97
330
1F
100
AcDbEntity
  8
0
  6
Continuous
 62
     9
100
AcDbLine
 10
89.5510572805
 20
256.2017197537
 30
0.0
 11
89.5510572805
 21
268.67933917
 31
0.0
  0
LINE
  5
98
330
1F
100
AcDbEntity
  8
0
  6
Continuous
 62
     9
100
AcDbLine
 10
89.5510572805
 20
270.7017197537
 30
0.0
 11
89.5510572805
 21
292.2017197537
 31
0.0
  0
LINE
  5
99
330
1F
100
AcDbEntity
  8
0
  6
Continuous
 62
     9
100
AcDbLine
 10
89.5510572805
 20
312.2017197537
 30
0.0
 11
89.5510572805
 21
348.2017197537
 31
0.0
  0
LINE
  5
9A
330
1F
100
AcDbEntity
  8
0
  6
Continuous
 62
     9
100
AcDbLine
 10
91.3010572805
 20
256.2017197537
 30
0.0
 11
91.3010572805
 21
268.67933917
 31
0.0
  0
LINE
  5
9B
330
1F
100
AcDbEntity
  8
0
  6
Continuous
 62
     9
100
AcDbLine
 10
91.3010572805
 20
270.7017197537
 30
0.0
 11
91.3010572805
 21
292.2017197537
 31
0.0
  0
LINE
  5
9C
330
1F
100
AcDbEntity
  8
0
  6
Continuous
 62
     9
100
AcDbLine
 10
91.3010572805
 20
312.2017197537
 30
0.0
 11
91.3010572805
 21
348.2017197537
 31
0.0
  0
LINE
  5
9D
330
1F
100
AcDbEntity
  8
0
  6
Continuous
 62
     7
100
AcDbLine
 10
92.3010572805
 20
254.5791620235
 30
0.0
 11
92.3010572805
 21
267.3197760006
 31
0.0
  0
LINE
  5
9E
330
1F
100
AcDbEntity
  8
0
  6
Continuous
 62
     7
100
AcDbLine
 10
92.3010572805
 20
270.7017197537
 30
0.0
 11
92.3010572805
 21
292.2017197537
 31
0.0
  0
LINE
  5
9F
330
1F
100
AcDbEntity
  8
0
  6
Continuous
 62
     7
100
AcDbLine
 10
92.3010572805
 20
312.2017197537
 30
0.0
 11
92.3010572805
 21
349.8242815914
 31
0.0
  0
LINE
  5
A0
330
1F
100
AcDbEntity
  8
0
  6
Continuous
 62
     7
100
AcDbLine
 10
93.6736525447
 20
352.2017197537
 30
0.0
 11
93.6736525447
 21
312.2017197537
 31
0.0
  0
LINE
  5
A1
330
1F
100
AcDbEntity
  8
0
  6
Continuous
 62
     7
100
AcDbLine
 10
93.6736525447
 20
292.2017197537
 30
0.0
 11
93.6736525447
 21
270.7017197537
 31
0.0
  0
LINE
  5
A2
330
1F
100
AcDbEntity
  8
0
  6
Continuous
 62
     7
100
AcDbLine
 10
93.6736525447
 20
263.371963123
 30
0.0
 11
93.6736525447
 21
252.2017197537
 31
0.0
  0
LINE
  5
A3
330
1F
100
AcDbEntity
  8
BEZUGSACHSEN
  6
Continuous
 62
     9
100
AcDbLine
 10
20.4260572805
 20
288.7555357847
 30
0.0
 11
22.4260572805
 21
289.7980798054
 31
0.0
  0
LINE
  5
A4
330
1F
100
AcDbEntity
  8
BEZUGSACHSEN
  6
Continuous
 62
     7
100
AcDbLine
 10
69.7254859918
 20
264.5194697537
 30
0.0
 11
68.8041199396
 21
264.5194697537
 31
0.0
  0
LINE
  5
A5
330
1F
100
AcDbEntity
  8
0
  6
Continuous
 62
     7
100
AcDbLine
 10
89.5510572805
 20
268.67933917
 30
0.0
 11
91.3010572805
 21
268.67933917
 31
0.0
  0
LINE
  5
A6
330
1F
100
AcDbEntity
  8
FASEN
  6
Continuous
 62
     7
100
AcDbLine
 10
83.3979312024
 20
270.3017197537
 30
0.0
 11
99.4260572805
 21
270.3017197537
 31
0.0
  0
LINE
  5
A7
330
1F
100
AcDbEntity
  8
0
  6
Continuous
 62
     7
100
AcDbLine
 10
83.3979312024
 20
270.7017197537
 30
0.0
 11
99.4260572805
 21
270.7017197537
 31
0.0
  0
LINE
  5
A8
330
1F
100
AcDbEntity
  8
BEZUGSACHSEN
  6
Continuous
 62
     9
100
AcDbLine
 10
22.4260572805
 20
314.6053597021
 30
0.0
 11
20.4260572805
 21
315.6479037228
 31
0.0
  0
LINE
  5
A9
330
1F
100
AcDbEntity
  8
0
  6
Continuous
 62
     7
100
AcDbLine
 10
99.4260572805
 20
352.2016828326
 30
0.0
 11
99.4260572805
 21
312.2017197537
 31
0.0
  0
LINE
  5
AA
330
1F
100
AcDbEntity
  8
0
  6
Continuous
 62
     7
100
AcDbLine
 10
99.4260572805
 20
292.2017197537
 30
0.0
 11
99.4260572805
 21
270.7017197537
 31
0.0
  0
LINE
  5
AB
330
1F
100
AcDbEntity
  8
0
  6
Continuous
 62
     7
100
AcDbLine
 10
99.4260572805
 20
263.371963123
 30
0.0
 11
99.4260572805
 21
252.2017216215
 31
0.0
  0
LINE
  5
AC
330
1F
100
AcDbEntity
  8
FASEN
  6
Continuous
 62
     7
100
AcDbLine
 10
99.4260572805
 20
263.371963123
 30
0.0
 11
99.4260572805
 21
270.7017197537
 31
0.0
  0
LINE
  5
AD
330
1F
100
AcDbEntity
  8
FASEN
  6
Continuous
 62
     7
100
AcDbLine
 10
99.4260572805
 20
292.2017197537
 30
0.0
 11
99.4260572805
 21
312.2017197537
 31
0.0
  0
LINE
  5
AE
330
1F
100
AcDbEntity
  8
0
  6
Continuous
 62
     7
100
AcDbLine
 10
154.4260572805
 20
278.2017197537
 30
0.0
 11
200.4260572805
 21
278.2017197537
 31
0.0
  0
LINE
  5
AF
330
1F
100
AcDbEntity
  8
0
  6
Continuous
 62
     7
100
AcDbLine
 10
212.4260572805
 20
278.2017197537
 30
0.0
 11
217.3373210948
 21
278.2017197537
 31
0.0
  0
LINE
  5
B0
330
1F
100
AcDbEntity
  8
RUNDUNGEN
  6
Continuous
 62
     9
100
AcDbLine
 10
108.1025278687
 20
329.2807912659
 30
0.0
 11
108.1025278687
 21
275.1226482415
 31
0.0
  0
LINE
  5
B1
330
1F
100
AcDbEntity
  8
BEZUGSACHSEN
  6
Continuous
 62
     7
100
AcDbLine
 10
68.5453008945
 20
264.48539558
 30
0.0
 11
67.9260572805
 21
264.3194697537
 31
0.0
  0
LINE
  5
B2
330
1F
100
AcDbEntity
  8
BEZUGSACHSEN
  6
Continuous
 62
     9
100
AcDbLine
 10
29.9799032274
 20
287.1917197537
 30
0.0
 11
21.6930102075
 21
287.1917197537
 31
0.0
  0
LINE
  5
B3
330
1F
100
AcDbEntity
  8
BEZUGSACHSEN
  6
Continuous
 62
     7
100
AcDbLine
 10
87.1784620163
 20
252.2017197537
 30
0.0
 11
88.5510572805
 21
254.5791244896
 31
0.0
  0
LINE
  5
B4
330
1F
100
AcDbEntity
  8
BEZUGSACHSEN
  6
Continuous
 62
     7
100
AcDbLine
 10
28.4260572805
 20
292.1917197537
 30
0.0
 11
22.4260572805
 21
292.1917197537
 31
0.0
  0
LINE
  5
B5
330
1F
100
AcDbEntity
  8
0
  6
Continuous
 62
     7
100
AcDbLine
 10
85.4260572805
 20
292.2017197537
 30
0.0
 11
99.4260572805
 21
292.2017197537
 31
0.0
  0
LINE
  5
B6
330
1F
100
AcDbEntity
  8
FASEN
  6
Continuous
 62
     7
100
AcDbLine
 10
99.4260572805
 20
292.6017197537
 30
0.0
 11
85.4260572805
 21
292.6017197537
 31
0.0
  0
LWPOLYLINE
  5
B7
330
1F
100
AcDbEntity
  8
DEFAULT_2
  6
DASHED
 62
     8
100
AcDbPolyline
 90
        2
 70
     0
 43
0.35
 10
177.4260572805
 20
294.2017197537
 10
200.4260572805
 20
294.2017197537
  0
LWPOLYLINE
  5
B8
330
1F
100
AcDbEntity
  8
DEFAULT_2
  6
DASHED
 62
     8
100
AcDbPolyline
 90
        2
 70
     0
 43
0.35
 10
200.4260572805
 20
294.2017197537
 10
230.4260572805
 20
294.2017197537
  0
LINE
  5
B9
330
1F
100
AcDbEntity
  8
BEZUGSACHSEN
  6
Continuous
 62
     7
100
AcDbLine
 10
87.1784620163
 20
352.2017197537
 30
0.0
 11
88.5510572805
 21
349.8243150179
 31
0.0
  0
LWPOLYLINE
  5
BA
330
1F
100
AcDbEntity
  8
BEZUGSACHSEN
  6
DOT_CENTER
 62
     7
100
AcDbPolyline
 90
        2
 70
     0
 43
0.25
 10
233.4260572805
 20
302.2017197537
 10
17.4260572805
 20
302.2017197537
  0
LWPOLYLINE
  5
BB
330
1F
100
AcDbEntity
  8
DEFAULT_2
  6
DASHED
 62
     8
100
AcDbPolyline
 90
        2
 70
     0
 43
0.35
 10
230.4260572805
 20
310.2017197537
 10
177.4260572805
 20
310.2017197537
  0
LINE
  5
BC
330
1F
100
AcDbEntity
  8
FASEN
  6
Continuous
 62
     7
100
AcDbLine
 10
85.4260572805
 20
311.8017197537
 30
0.0
 11
99.4260572805
 21
311.8017197537
 31
0.0
  0
LINE
  5
BD
330
1F
100
AcDbEntity
  8
0
  6
Continuous
 62
     7
100
AcDbLine
 10
85.4260572805
 20
312.2017197537
 30
0.0
 11
99.4260572805
 21
312.2017197537
 31
0.0
  0
LINE
  5
BE
330
1F
100
AcDbEntity
  8
BEZUGSACHSEN
  6
Continuous
 62
     7
100
AcDbLine
 10
28.4260572805
 20
312.2117197537
 30
0.0
 11
22.4260572805
 21
312.2117197537
 31
0.0
  0
LINE
  5
BF
330
1F
100
AcDbEntity
  8
BEZUGSACHSEN
  6
Continuous
 62
     9
100
AcDbLine
 10
21.6930102075
 20
317.2117197537
 30
0.0
 11
29.9799032274
 21
317.2117197537
 31
0.0
  0
LINE
  5
C0
330
1F
100
AcDbEntity
  8
0
  6
Continuous
 62
     7
100
AcDbLine
 10
217.3373210948
 20
326.2017197537
 30
0.0
 11
154.4260572805
 21
326.2017197537
 31
0.0
  0
LINE
  5
C1
330
1F
100
AcDbEntity
  8
BEZUGSACHSEN
  6
Continuous
 62
     7
100
AcDbLine
 10
68.5453008945
 20
339.9180439275
 30
0.0
 11
67.9260572805
 21
340.0839697537
 31
0.0
  0
LINE
  5
C2
330
1F
100
AcDbEntity
  8
0
  6
Continuous
 62
     9
100
AcDbLine
 10
154.4260572805
 20
326.2017197537
 30
0.0
 11
154.4260572805
 21
278.2017197537
 31
0.0
  0
LINE
  5
C3
330
1F
100
AcDbEntity
  8
BEZUGSACHSEN
  6
Continuous
 62
     7
100
AcDbLine
 10
69.7254859918
 20
339.8839697537
 30
0.0
 11
68.8041199396
 21
339.8839697537
 31
0.0
  0
LINE
  5
C4
330
1F
100
AcDbEntity
  8
BEZUGSACHSEN
  6
Continuous
 62
     7
100
AcDbLine
 10
67.9260572805
 20
340.0839697537
 30
0.0
 11
22.3259827958
 21
337.7994060221
 31
0.0
  0
LINE
  5
C5
330
1F
100
AcDbEntity
  8
BEZUGSACHSEN
  6
Continuous
 62
     7
100
AcDbLine
 10
89.5510572805
 20
348.2017197537
 30
0.0
 11
91.3010572805
 21
348.2017197537
 31
0.0
  0
LWPOLYLINE
  5
C6
330
1F
100
AcDbEntity
  8
DEFAULT_2
  6
DASHED
 62
     8
100
AcDbPolyline
 90
        2
 70
     0
 43
0.35
 10
177.4260572805
 20
310.2017197537
 10
177.4260572805
 20
294.2017197537
  0
LINE
  5
C7
330
1F
100
AcDbEntity
  8
BEZUGSACHSEN
  6
Continuous
 62
     7
100
AcDbLine
 10
87.1784620163
 20
352.2017197537
 30
0.0
 11
82.4260572805
 21
352.2017197537
 31
0.0
  0
LINE
  5
C8
330
1F
100
AcDbEntity
  8
BEZUGSACHSEN
  6
Continuous
 62
     7
100
AcDbLine
 10
72.4260572805
 20
352.2017197537
 30
0.0
 11
70.4260572805
 21
352.2017197537
 31
0.0
  0
LINE
  5
C9
330
1F
100
AcDbEntity
  8
BEZUGSACHSEN
  6
Continuous
 62
     7
100
AcDbLine
 10
93.6736525447
 20
352.2017197537
 30
0.0
 11
99.4260572805
 21
352.2017197537
 31
0.0
  0
LINE
  5
CA
330
1F
100
AcDbEntity
  8
0
  6
Continuous
 62
     7
100
AcDbLine
 10
217.7599393566
 20
278.2954119667
 30
0.0
 11
229.8486755423
 21
283.9324822275
 31
0.0
  0
LINE
  5
CB
330
1F
100
AcDbEntity
  8
RUNDUNGEN
  6
Continuous
 62
     7
100
AcDbLine
 10
229.8486755423
 20
320.47095728
 30
0.0
 11
217.7599393566
 21
326.1080275408
 31
0.0
  0
LINE
  5
CC
330
1F
100
AcDbEntity
  8
0
  6
Continuous
 62
     7
100
AcDbLine
 10
217.7599393566
 20
326.1080275408
 30
0.0
 11
229.8486755423
 21
320.47095728
 31
0.0
  0
LWPOLYLINE
  5
CD
330
1F
100
AcDbEntity
  8
GEWINDE
  6
DASHED
 62
     8
100
AcDbPolyline
 90
        2
 70
     0
 43
0.35
 10
200.4260572805
 20
294.2017197537
 10
200.4260572805
 20
278.2017197537
  0
LWPOLYLINE
  5
CE
330
1F
100
AcDbEntity
  8
GEWINDE
  6
DOT_CENTER
 62
     7
100
AcDbPolyline
 90
        2
 70
     0
 43
0.25
 10
206.4260572805
 20
275.2017197537
 10
206.4260572805
 20
299.9102171987
  0
LWPOLYLINE
  5
CF
330
1F
100
AcDbEntity
  8
GEWINDE
  6
DASHED
 62
     8
100
AcDbPolyline
 90
        2
 70
     0
 43
0.35
 10
212.4260572805
 20
294.2017197537
 10
212.4260572805
 20
278.2017197537
  0
LINE
  5
D0
330
1F
100
AcDbEntity
  8
RUNDUNGEN
  6
Continuous
 62
     9
100
AcDbLine
 10
217.3373210948
 20
278.2017197537
 30
0.0
 11
217.3373210948
 21
326.2017197537
 31
0.0
  0
LINE
  5
D1
330
1F
100
AcDbEntity
  8
RUNDUNGEN
  6
Continuous
 62
     9
100
AcDbLine
 10
217.7599393566
 20
278.2954119667
 30
0.0
 11
217.7599393566
 21
326.1080275408
 31
0.0
  0
LINE
  5
D2
330
1F
100
AcDbEntity
  8
RUNDUNGEN
  6
Continuous
 62
     9
100
AcDbLine
 10
229.8486755423
 20
283.9324822275
 30
0.0
 11
229.8486755423
 21
320.47095728
 31
0.0
  0
LINE
  5
D3
330
1F
100
AcDbEntity
  8
RUNDUNGEN
  6
Continuous
 62
     7
100
AcDbLine
 10
230.4260572805
 20
319.5646494929
 30
0.0
 11
230.4260572805
 21
284.8387900146
 31
0.0
  0
LWPOLYLINE
  5
D4
330
1F
100
AcDbEntity
  8
GEWINDE
  6
DASHED
 62
     8
100
AcDbPolyline
 90
        2
 70
     0
 43
0.35
 10
213.4260572805
 20
294.2017197537
 10
213.4260572805
 20
278.2017197537
  0
LWPOLYLINE
  5
D5
330
1F
100
AcDbEntity
  8
GEWINDE
  6
DASHED
 62
     8
100
AcDbPolyline
 90
        2
 70
     0
 43
0.35
 10
199.4260572805
 20
294.2017197537
 10
199.4260572805
 20
278.2017197537
  0
ARC
  5
D6
330
1F
100
AcDbEntity
  8
FASEN
  6
Continuous
 62
     7
100
AcDbCircle
 10
88.3267113034
 20
277.7329830237
 30
0.0
 40
19.03859487309966
100
AcDbArc
 50
227.4837701982989
 51
228.9651953373019
  0
ARC
  5
D7
330
1F
100
AcDbEntity
  8
FASEN
  6
Continuous
 62
     7
100
AcDbCircle
 10
83.3979312024
 20
262.7017197537
 30
0.0
 40
8.0
100
AcDbArc
 50
90.0
 51
172.8323734889967
  0
ARC
  5
D8
330
1F
100
AcDbEntity
  8
FASEN
  6
Continuous
 62
     7
100
AcDbCircle
 10
83.3979312024
 20
262.7017197537
 30
0.0
 40
7.599982194900008
100
AcDbArc
 50
90.0
 51
174.9405171273013
  0
ARC
  5
D9
330
1F
100
AcDbEntity
  8
BEZUGSACHSEN
  6
Continuous
 62
     7
100
AcDbCircle
 10
28.4260572805
 20
294.1917197537
 30
0.0
 40
2.0
100
AcDbArc
 50
270.0
 51
355.2355361864949
  0
ARC
  5
DA
330
1F
100
AcDbEntity
  8
BEZUGSACHSEN
  6
Continuous
 62
     7
100
AcDbCircle
 10
22.4260572805
 20
268.6015281907
 30
0.0
 40
2.0
100
AcDbArc
 50
179.9999999971339
 51
267.1318795137018
  0
ARC
  5
DB
330
1F
100
AcDbEntity
  8
BEZUGSACHSEN
  6
Continuous
 62
     7
100
AcDbCircle
 10
89.5510572805
 20
255.2017197537
 30
0.0
 40
1.0
100
AcDbArc
 50
90.0
 51
180.0
  0
ARC
  5
DC
330
1F
100
AcDbEntity
  8
BEZUGSACHSEN
  6
Continuous
 62
     7
100
AcDbCircle
 10
68.8041199396
 20
263.5194697537
 30
0.0
 40
1.0
100
AcDbArc
 50
90.0
 51
104.9999999996981
  0
ARC
  5
DD
330
1F
100
AcDbEntity
  8
BEZUGSACHSEN
  6
Continuous
 62
     7
100
AcDbCircle
 10
69.7254859918
 20
263.5194697537
 30
0.0
 40
0.9999999999998127
100
AcDbArc
 50
45.49026120128689
 51
90.0
  0
ARC
  5
DE
330
1F
100
AcDbEntity
  8
0
  6
Continuous
 62
     7
100
AcDbCircle
 10
-154.1717226027
 20
371.6361873444
 30
0.0
 40
264.5204223909507
100
AcDbArc
 50
335.8400764706018
 51
336.5770705490999
  0
ARC
  5
DF
330
1F
100
AcDbEntity
  8
BEZUGSACHSEN
  6
Continuous
 62
     7
100
AcDbCircle
 10
77.4412652916
 20
402.2544895206
 30
0.0
 40
50.30340021045197
100
AcDbArc
 50
264.2781515102013
 51
269.9826780125999
  0
ARC
  5
E0
330
1F
100
AcDbEntity
  8
BEZUGSACHSEN
  6
Continuous
 62
     7
100
AcDbCircle
 10
77.4108492794
 20
402.2544893198
 30
0.0
 40
50.30340000959737
100
AcDbArc
 50
270.017321976058
 51
275.7218485012679
  0
ARC
  5
E1
330
1F
100
AcDbEntity
  8
0
  6
Continuous
 62
     7
100
AcDbCircle
 10
85.4260572805
 20
302.2017197537
 30
0.0
 40
10.0
100
AcDbArc
 50
90.0
 51
270.0
  0
ARC
  5
E2
330
1F
100
AcDbEntity
  8
FASEN
  6
Continuous
 62
     7
100
AcDbCircle
 10
85.4260572805
 20
302.2017197537
 30
0.0
 40
9.599999195900011
100
AcDbArc
 50
90.0
 51
270.0
  0
ARC
  5
E3
330
1F
100
AcDbEntity
  8
BEZUGSACHSEN
  6
Continuous
 62
     7
100
AcDbCircle
 10
28.4260572805
 20
310.2117197537
 30
0.0
 40
1.999999999999988
100
AcDbArc
 50
4.76446378498878
 51
90.0
  0
ARC
  5
E4
330
1F
100
AcDbEntity
  8
BEZUGSACHSEN
  6
Continuous
 62
     7
100
AcDbCircle
 10
22.4260572805
 20
335.8019113168
 30
0.0
 40
2.000000000047404
100
AcDbArc
 50
92.86812048629808
 51
180.0000000143238
  0
ARC
  5
E5
330
1F
100
AcDbEntity
  8
BEZUGSACHSEN
  6
Continuous
 62
     7
100
AcDbCircle
 10
89.5510572805
 20
349.2017197537
 30
0.0
 40
1.0
100
AcDbArc
 50
180.0
 51
270.0
  0
ARC
  5
E6
330
1F
100
AcDbEntity
  8
BEZUGSACHSEN
  6
Continuous
 62
     7
100
AcDbCircle
 10
68.8041199396
 20
340.8839697537
 30
0.0
 40
0.9999999999133335
100
AcDbArc
 50
254.9999999988192
 51
270.0
  0
ARC
  5
E7
330
1F
100
AcDbEntity
  8
BEZUGSACHSEN
  6
Continuous
 62
     7
100
AcDbCircle
 10
69.7254859918
 20
340.8839697537
 30
0.0
 40
1.0
100
AcDbArc
 50
270.0
 51
314.5097387987131
  0
ARC
  5
E8
330
1F
100
AcDbEntity
  8
BEZUGSACHSEN
  6
Continuous
 62
     7
100
AcDbCircle
 10
206.7561038787
 20
-1303.8410395362
 30
0.0
 40
1632.172763698
100
AcDbArc
 50
96.2726189838
 51
96.48809068979999
  0
ARC
  5
E9
330
1F
100
AcDbEntity
  8
0
  6
Continuous
 62
     7
100
AcDbCircle
 10
154.4260572805
 20
-71.7982802463
 30
0.0
 40
350.0
100
AcDbArc
 50
90.0
 51
97.60558102241735
  0
ARC
  5
EA
330
1F
100
AcDbEntity
  8
RUNDUNGEN
  6
Continuous
 62
     7
100
AcDbCircle
 10
154.4260572805
 20
-71.7982802463
 30
0.0
 40
350.0
100
AcDbArc
 50
90.0
 51
97.60558102241735
  0
ARC
  5
EB
330
1F
100
AcDbEntity
  8
RUNDUNGEN
  6
Continuous
 62
     7
100
AcDbCircle
 10
109.4260572805
 20
265.2106217133
 30
0.0
 40
9.999999999981998
100
AcDbArc
 50
97.60558102262947
 51
180.0
  0
ARC
  5
EC
330
1F
100
AcDbEntity
  8
RUNDUNGEN
  6
Continuous
 62
     7
100
AcDbCircle
 10
229.4260572805
 20
284.8387900146
 30
0.0
 40
1.000000000082512
100
AcDbArc
 50
295.0000000015433
 51
0.0
  0
ARC
  5
ED
330
1F
100
AcDbEntity
  8
BEZUGSACHSEN
  6
Continuous
 62
     7
100
AcDbCircle
 10
91.3010572805
 20
255.2017197537
 30
0.0
 40
1.0
100
AcDbArc
 50
0.0
 51
90.0
  0
ARC
  5
EE
330
1F
100
AcDbEntity
  8
RUNDUNGEN
  6
Continuous
 62
     7
100
AcDbCircle
 10
217.3373210948
 20
279.2017197537
 30
0.0
 40
1.0
100
AcDbArc
 50
270.0
 51
295.0000000039673
  0
ARC
  5
EF
330
1F
100
AcDbEntity
  8
BEZUGSACHSEN
  6
Continuous
 62
     7
100
AcDbCircle
 10
206.7561038787
 20
1908.2444790438
 30
0.0
 40
1632.172763698
100
AcDbArc
 50
263.5119093102
 51
263.7273810162
  0
ARC
  5
F0
330
1F
100
AcDbEntity
  8
0
  6
Continuous
 62
     7
100
AcDbCircle
 10
154.4260572805
 20
676.2017197537
 30
0.0
 40
350.0000000000045
100
AcDbArc
 50
262.3944189775826
 51
270.0
  0
ARC
  5
F1
330
1F
100
AcDbEntity
  8
RUNDUNGEN
  6
Continuous
 62
     7
100
AcDbCircle
 10
154.4260572805
 20
676.2017197537
 30
0.0
 40
350.0000000000045
100
AcDbArc
 50
262.3944189775826
 51
270.0
  0
ARC
  5
F2
330
1F
100
AcDbEntity
  8
0
  6
Continuous
 62
     7
100
AcDbCircle
 10
335.0238371634
 20
371.6361873443
 30
0.0
 40
264.5204223905998
100
AcDbArc
 50
203.4229294508999
 51
204.159923529405
  0
ARC
  5
F3
330
1F
100
AcDbEntity
  8
RUNDUNGEN
  6
Continuous
 62
     7
100
AcDbCircle
 10
109.4260572805
 20
339.1928177942
 30
0.0
 40
10.0
100
AcDbArc
 50
180.0
 51
262.3944189774463
  0
ARC
  5
F4
330
1F
100
AcDbEntity
  8
RUNDUNGEN
  6
Continuous
 62
     7
100
AcDbCircle
 10
229.4260572805
 20
319.5646494929
 30
0.0
 40
1.0
100
AcDbArc
 50
0.0
 51
64.99999999845532
  0
ARC
  5
F5
330
1F
100
AcDbEntity
  8
BEZUGSACHSEN
  6
Continuous
 62
     7
100
AcDbCircle
 10
91.3010572805
 20
349.2017197537
 30
0.0
 40
1.0
100
AcDbArc
 50
270.0
 51
0.0
  0
ARC
  5
F6
330
1F
100
AcDbEntity
  8
RUNDUNGEN
  6
Continuous
 62
     7
100
AcDbCircle
 10
217.3373210948
 20
325.2017197537
 30
0.0
 40
1.000000000082472
100
AcDbArc
 50
64.99999999845384
 51
90.0
  0
CIRCLE
  5
F7
330
1F
100
AcDbEntity
  8
BEZUGSACHSEN
  6
Continuous
 62
     7
100
AcDbCircle
 10
55.4260572805
 20
302.2017197537
 30
0.0
 40
6.0
  0
SPLINE
  5
F8
330
1F
100
AcDbEntity
  8
0
  6
Continuous
 62
     2
100
AcDbSpline
210
0.0
220
0.0
230
1.0
 70
     8
 71
     3
 72
    63
 73
    59
 74
    57
 42
0.0000000001
 43
0.0000000001
 44
0.00000001
 40
0.0
 40
0.0
 40
0.0
 40
0.0
 40
0.0112843358607395
 40
0.0449327733461328
 40
0.1006376760819961
 40
0.1780881944642724
 40
0.2769794655599692
 40
0.3970327120508682
 40
0.5379823126366303
 40
0.6995856183609198
 40
0.8816478110684296
 40
1.084135638036824
 40
1.306865748736633
 40
1.548880649299652
 40
1.808954574793994
 40
2.085543764593258
 40
2.377216656061083
 40
2.683286051081899
 40
3.003312415705509
 40
3.337077620604249
 40
3.684071761603211
 40
4.042361389727214
 40
4.409638446871431
 40
4.783481298837676
 40
5.161762791000961
 40
5.543624314221063
 40
5.928652965494039
 40
6.316938752160441
 40
6.708374480859665
 40
7.101544005153724
 40
7.494708279606672
 40
7.88613340307345
 40
8.2744107270853
 40
8.659439734359877
 40
9.041314001386631
 40
9.419612517132201
 40
9.793466253660776
 40
10.16074003387306
 40
10.51900758395349
 40
10.86596742355834
 40
11.19969542438441
 40
11.51969080188982
 40
11.82574186933708
 40
12.11740498142505
 40
12.39398649989505
 40
12.65404963261495
 40
12.89604744206496
 40
13.1187580009423
 40
13.32122903148945
 40
13.50328090018694
 40
13.66488258981469
 40
13.80583708090202
 40
13.9258986846132
 40
14.02479982001179
 40
14.10226006902457
 40
14.15797312498145
 40
14.19162689661426
 40
14.20291311680467
 40
14.20291311680467
 40
14.20291311680467
 40
14.20291311680467
 10
213.4260572805
 20
278.2017068192
 30
0.0
 10
213.4224468969082
 20
278.2027620929576
 30
0.0
 10
213.4080708140243
 20
278.2069640572691
 30
0.0
 10
213.3758570829656
 20
278.2163237335931
 30
0.0
 10
213.3224439720498
 20
278.2317686604279
 30
0.0
 10
213.2480848471386
 20
278.253066257239
 30
0.0
 10
213.1530292239278
 20
278.2800027869721
 30
0.0
 10
213.0374830192032
 20
278.3122625048346
 30
0.0
 10
212.9016361859121
 20
278.3495424004514
 30
0.0
 10
212.7456297969863
 20
278.3914581420991
 30
0.0
 10
212.5695338703314
 20
278.4376456856401
 30
0.0
 10
212.3733769465107
 20
278.487643286733
 30
0.0
 10
212.1574426362992
 20
278.5409355570859
 30
0.0
 10
211.9223876163182
 20
278.5968310030785
 30
0.0
 10
211.6693180740095
 20
278.6545281185881
 30
0.0
 10
211.3995066359378
 20
278.7132000393656
 30
0.0
 10
211.114058316902
 20
278.7720415258496
 30
0.0
 10
210.8137344470584
 20
278.8303406273307
 30
0.0
 10
210.4989136076957
 20
278.8874687055188
 30
0.0
 10
210.1699200922927
 20
278.9427474446061
 30
0.0
 10
209.8275911062998
 20
278.9954426552633
 30
0.0
 10
209.4734777138252
 20
279.0447756716806
 30
0.0
 10
209.1097759844599
 20
279.0898495904454
 30
0.0
 10
208.738797734251
 20
279.1300413721527
 30
0.0
 10
208.3623828792325
 20
279.1647499783727
 30
0.0
 10
207.981737025168
 20
279.1936425000781
 30
0.0
 10
207.5973374978343
 20
279.2164634738953
 30
0.0
 10
207.209420435941
 20
279.2329800125278
 30
0.0
 10
206.8185660726097
 20
279.2429851546645
 30
0.0
 10
206.4259715628174
 20
279.2463694082556
 30
0.0
 10
206.0333806122115
 20
279.2429823183057
 30
0.0
 10
205.6425344284094
 20
279.2329744734652
 30
0.0
 10
205.2546237061972
 20
279.2164557030151
 30
0.0
 10
204.8702227863294
 20
279.1936320804853
 30
0.0
 10
204.4895671231343
 20
279.1647361174086
 30
0.0
 10
204.1131390132108
 20
279.1300236587731
 30
0.0
 10
203.7421529234964
 20
279.0898279938094
 30
0.0
 10
203.3784563333864
 20
279.0447518387392
 30
0.0
 10
203.024362984277
 20
278.995419079084
 30
0.0
 10
202.6820651697858
 20
278.9427264281186
 30
0.0
 10
202.3531055855041
 20
278.8874519489583
 30
0.0
 10
202.0383133118355
 20
278.8303279854655
 30
0.0
 10
201.7380089168846
 20
278.7720319376953
 30
0.0
 10
201.4525723542561
 20
278.7131924941289
 30
0.0
 10
201.1827701942511
 20
278.6545222135242
 30
0.0
 10
200.9297122536777
 20
278.5968275321802
 30
0.0
 10
200.6946726256531
 20
278.5409357084597
 30
0.0
 10
200.4787556014783
 20
278.4876477418186
 30
0.0
 10
200.2826137009324
 20
278.4376541899961
 30
0.0
 10
200.106526971762
 20
278.3914693362148
 30
0.0
 10
199.9505227873051
 20
278.3495544461676
 30
0.0
 10
199.8146721509274
 20
278.3122737579192
 30
0.0
 10
199.6991184844474
 20
278.2800121167216
 30
0.0
 10
199.6040538692561
 20
278.2530731439052
 30
0.0
 10
199.5296858333095
 20
278.2317730671643
 30
0.0
 10
199.476265280983
 20
278.2163260134577
 30
0.0
 10
199.4440466399934
 20
278.2069648711957
 30
0.0
 10
199.4296682630837
 20
278.2027621787946
 30
0.0
 10
199.4260572805
 20
278.2017067155
 30
0.0
 11
213.4260572805
 21
278.2017068192
 31
0.0
 11
213.4152257056292
 21
278.2048711866937
 31
0.0
 11
213.3829157650333
 21
278.21426720095
 31
0.0
 11
213.3294017954187
 21
278.2297362424488
 31
0.0
 11
213.2549467762162
 21
278.2510677429407
 31
0.0
 11
213.1598003487378
 21
278.2780240193346
 31
0.0
 11
213.0441701590952
 21
278.3103108779032
 31
0.0
 11
212.9082445973307
 21
278.3476074134567
 31
0.0
 11
212.7521770267504
 21
278.3895423849504
 31
0.0
 11
212.5760697469042
 21
278.435725368815
 31
0.0
 11
212.3798558279254
 21
278.4857395474984
 31
0.0
 11
212.1636123827365
 21
278.5391012812144
 31
0.0
 11
211.9281619222667
 21
278.5950860359167
 31
0.0
 11
211.6745937530917
 21
278.6528928720458
 31
0.0
 11
211.4043189663666
 21
278.71165612225
 31
0.0
 11
211.1186507536396
 21
278.770535217475
 31
0.0
 11
210.81818892345
 21
278.82885470965
 31
0.0
 11
210.5033023673136
 21
278.8859802802709
 31
0.0
 11
210.174149691659
 21
278.9412770081173
 31
0.0
 11
209.8311942233509
 21
278.9940641338692
 31
0.0
 11
209.4763284560858
 21
279.0434781485267
 31
0.0
 11
209.1118402651607
 21
279.0886533118431
 31
0.0
 11
208.7401698915996
 21
279.1288977075184
 31
0.0
 11
208.3634860834177
 21
279.163628039605
 31
0.0
 11
207.9827192504654
 21
279.1925216693433
 31
0.0
 11
207.5983667746186
 21
279.2153303653054
 31
0.0
 11
207.2104322577833
 21
279.2318428689
 31
0.0
 11
206.8191248678812
 21
279.2418656584458
 31
0.0
 11
206.4259698168667
 21
279.2452391870667
 31
0.0
 11
206.0328200404208
 21
279.2418628004313
 31
0.0
 11
205.6415233251
 21
279.2318374395834
 31
0.0
 11
205.2535973722794
 21
279.2153227349241
 31
0.0
 11
204.8692446917347
 21
279.19251147891
 31
0.0
 11
204.488465350874
 21
279.1636142577468
 31
0.0
 11
204.1117648392338
 21
279.128879670585
 31
0.0
 11
203.7400839627497
 21
279.0886311628807
 31
0.0
 11
203.3755993770642
 21
279.0434535530601
 31
0.0
 11
203.0207558302554
 21
278.9940400455068
 31
0.0
 11
202.677834590841
 21
278.941256015184
 31
0.0
 11
202.3487188506926
 21
278.8859639893396
 31
0.0
 11
202.0338629685
 21
278.8288429330333
 31
0.0
 11
201.733419261025
 21
278.7705262585375
 31
0.0
 11
201.4477607105
 21
278.7116487291667
 31
0.0
 11
201.1774934927958
 21
278.6528867738417
 31
0.0
 11
200.9239358928667
 21
278.5950821328667
 31
0.0
 11
200.6885020730905
 21
278.5391012764582
 31
0.0
 11
200.4722775964579
 21
278.4857442830984
 31
0.0
 11
200.2760799032562
 21
278.4357344501337
 31
0.0
 11
200.0999825423496
 21
278.3895543421003
 31
0.0
 11
199.9439164649401
 21
278.3476200414317
 31
0.0
 11
199.8079861255715
 21
278.3103224356532
 31
0.0
 11
199.6923478438163
 21
278.2780334827679
 31
0.0
 11
199.5971918971505
 21
278.2510746178574
 31
0.0
 11
199.5227275058209
 21
278.2297404996186
 31
0.0
 11
199.4692057009167
 21
278.2142692034917
 31
0.0
 11
199.4368906531021
 21
278.2048716490302
 31
0.0
 11
199.4260572805
 21
278.2017067155
 31
0.0
  0
SPLINE
  5
F9
330
1F
100
AcDbEntity
  8
GEWINDE
  6
Continuous
 62
     7
100
AcDbSpline
210
0.0
220
0.0
230
1.0
 70
     8
 71
     3
 72
    23
 73
    19
 74
    17
 42
0.0000000001
 43
0.0000000001
 44
0.00000001
 40
0.0
 40
0.0
 40
0.0
 40
0.0
 40
0.2361015312913519
 40
0.4722109991656191
 40
1.135103548758561
 40
1.798035629048125
 40
2.778013816725033
 40
3.758054173344728
 40
4.910576212773649
 40
6.063125953610279
 40
7.215675739457407
 40
8.36819782386291
 40
9.348238167031822
 40
10.32821634130592
 40
10.99114849920844
 40
11.65404112629975
 40
11.89015064501628
 40
12.12625222713404
 40
12.12625222713404
 40
12.12625222713404
 40
12.12625222713404
 10
200.4260572805
 20
278.2017197537
 30
0.0
 10
200.5024547425923
 20
278.2206217344325
 30
0.0
 10
200.6552522348873
 20
278.2584263312901
 30
0.0
 10
201.023504121392
 20
278.3453544361803
 30
0.0
 10
201.5321112865673
 20
278.4569320414467
 30
0.0
 10
202.2868644838459
 20
278.6025690659047
 30
0.0
 10
203.1504501175426
 20
278.7406339740485
 30
0.0
 10
204.1809212329302
 20
278.8636238553725
 30
0.0
 10
205.2734046614014
 20
278.9446429013382
 30
0.0
 10
206.4260571354523
 20
278.9734034423966
 30
0.0
 10
207.5787096249307
 20
278.9446429164263
 30
0.0
 10
208.6711930797829
 20
278.8636238802202
 30
0.0
 10
209.7016642022027
 20
278.7406340067925
 30
0.0
 10
210.5652498538626
 20
278.6025691040002
 30
0.0
 10
211.3200030989993
 20
278.456932078146
 30
0.0
 10
211.828610331979
 20
278.345354461445
 30
0.0
 10
212.1968622768271
 20
278.2584263437394
 30
0.0
 10
212.3496598019809
 20
278.2206217385819
 30
0.0
 10
212.4260572805
 20
278.2017197537
 30
0.0
 11
200.4260572805
 21
278.2017197537
 31
0.0
 11
200.6553491291443
 21
278.2580152350764
 31
0.0
 11
200.8851212850388
 21
278.3123515691032
 31
0.0
 11
201.5326622564401
 21
278.4541867645326
 31
0.0
 11
202.1835985828388
 21
278.579728956849
 31
0.0
 11
203.1513256601193
 21
278.7342008061308
 31
0.0
 11
204.1244864923254
 21
278.8501192915556
 31
0.0
 11
205.2738621055116
 21
278.9352236462168
 31
0.0
 11
206.4260571205197
 21
278.9638165210849
 31
0.0
 11
207.5782521809041
 21
278.9352236604028
 31
0.0
 11
208.7276278398388
 21
278.8501193145038
 31
0.0
 11
209.7007886596936
 21
278.7342008391084
 31
0.0
 11
210.6685157252237
 21
278.5797290012408
 31
0.0
 11
211.3194521290434
 21
278.454186800513
 31
0.0
 11
211.9669931770229
 21
278.3123515924945
 31
0.0
 11
212.1967653825214
 21
278.2580152473018
 31
0.0
 11
212.4260572805
 21
278.2017197537
 31
0.0
  0
SPLINE
  5
FA
330
1F
100
AcDbEntity
  8
BEZUGSACHSEN
  6
Continuous
 62
     7
100
AcDbSpline
210
0.0
220
0.0
230
1.0
 70
     8
 71
     3
 72
    15
 73
    11
 74
     9
 42
0.0000000001
 43
0.0000000001
 44
0.00000001
 40
0.0
 40
0.0
 40
0.0
 40
0.0
 40
0.11103716136506
 40
0.2222522337255578
 40
0.3333980191834979
 40
0.444506947501775
 40
0.5556201065559415
 40
0.6667525642506675
 40
0.7778876033639373
 40
0.8889820915909165
 40
0.8889820915909165
 40
0.8889820915909165
 40
0.8889820915909165
 10
22.3259827958
 20
286.5251873675
 30
0.0
 10
22.28934106891914
 20
286.530719520312
 30
0.0
 10
22.21599890538832
 20
286.5417926899129
 30
0.0
 10
22.10948235537759
 20
286.5748112534519
 30
0.0
 10
22.00706944763515
 20
286.6184015409358
 30
0.0
 10
21.90961948201393
 20
286.672181048783
 30
0.0
 10
21.81731468628481
 20
286.7342761841566
 30
0.0
 10
21.73031805815839
 20
286.803562857791
 30
0.0
 10
21.64806530267818
 20
286.87844480937
 30
0.0
 10
21.59728531630075
 20
286.9324073908946
 30
0.0
 10
21.5718999561
 20
286.9593837583
 30
0.0
 11
22.3259827958
 21
286.5251873675
 31
0.0
 11
22.21664051068978
 21
286.5445139267097
 31
0.0
 11
22.11014855712148
 21
286.5765803600218
 31
0.0
 11
22.00788037651432
 21
286.6201074189663
 31
0.0
 11
21.91047751005977
 21
286.6735665207028
 31
0.0
 11
21.81820574327315
 21
286.7354701164713
 31
0.0
 11
21.73110863986437
 21
286.8044956025694
 31
0.0
 11
21.64906873537783
 21
286.8794652697058
 31
0.0
 11
21.5718999561
 21
286.9593837583
 31
0.0
  0
SPLINE
  5
FB
330
1F
100
AcDbEntity
  8
BEZUGSACHSEN
  6
Continuous
 62
     7
100
AcDbSpline
210
0.0
220
0.0
230
1.0
 70
     8
 71
     3
 72
    15
 73
    11
 74
     9
 42
0.0000000001
 43
0.0000000001
 44
0.00000001
 40
0.0
 40
0.0
 40
0.0
 40
0.0
 40
0.1110944831157731
 40
0.2222295181063963
 40
0.3333620401541352
 40
0.4444752609923656
 40
0.5555842177976277
 40
0.6667300353884014
 40
0.7779450181579776
 40
0.8889820871696934
 40
0.8889820871696934
 40
0.8889820871696934
 40
0.8889820871696934
 10
21.5718999561
 20
317.4440557492
 30
0.0
 10
21.59728531566886
 20
317.4710321148739
 30
0.0
 10
21.6480653010086
 20
317.524994693175
 30
0.0
 10
21.73031807022789
 20
317.5998766565936
 30
0.0
 10
21.81731472215949
 20
317.669163365523
 30
0.0
 10
21.90961956258851
 20
317.7312585286164
 30
0.0
 10
22.00706958459431
 20
317.7850380207191
 30
0.0
 10
22.10948249847415
 20
317.828628266292
 30
0.0
 10
22.21599899705782
 20
317.861646822141
 30
0.0
 10
22.28934109977929
 20
317.8727199887534
 30
0.0
 10
22.3259827958
 20
317.87825214
 30
0.0
 11
21.5718999561
 21
317.4440557492
 31
0.0
 11
21.64906873318627
 21
317.5239742328053
 31
0.0
 11
21.73110863340327
 21
317.5989438985025
 31
0.0
 11
21.81820578199456
 21
317.6679694311985
 31
0.0
 11
21.9104776035786
 21
317.7298730561861
 31
0.0
 11
22.00788051167406
 21
317.7833321412596
 31
0.0
 11
22.11014873507434
 21
317.8268591817112
 31
0.0
 11
22.216640603179
 21
317.8589255881207
 31
0.0
 11
22.3259827958
 21
317.87825214
 31
0.0
  0
SPLINE
  5
FC
330
1F
100
AcDbEntity
  8
BEZUGSACHSEN
  6
Continuous
 62
     7
100
AcDbSpline
210
0.0
220
0.0
230
1.0
 70
     8
 71
     3
 72
    27
 73
    23
 74
    21
 42
0.0000000001
 43
0.0000000001
 44
0.00000001
 40
0.0
 40
0.0
 40
0.0
 40
0.0
 40
0.1260969825526135
 40
0.2522464959213913
 40
0.3668867952585914
 40
0.4815825894074193
 40
0.5839596006898324
 40
0.685948916138311
 40
0.7334568410613357
 40
0.7809568849182761
 40
0.827400226488379
 40
0.873842160780674
 40
0.9204907319663688
 40
0.9671431399914977
 40
1.015111401864665
 40
1.063087497161919
 40
1.165500418765292
 40
1.268190479005584
 40
1.380949153953841
 40
1.493646517828817
 40
1.615655563781182
 40
1.737631867629918
 40
1.737631867629918
 40
1.737631867629918
 40
1.737631867629918
 10
20.4260572805
 20
316.8359522399
 30
0.0
 10
20.42678582197628
 20
316.877995167961
 30
0.0
 10
20.42824320843237
 20
316.9620985387712
 30
0.0
 10
20.4416877703952
 20
317.0838458663357
 30
0.0
 10
20.46464320371996
 20
317.2002635827108
 30
0.0
 10
20.49860910407135
 20
317.3058390404967
 30
0.0
 10
20.54483486288785
 20
317.4019971027708
 30
0.0
 10
20.59337803143817
 20
317.4711664684492
 30
0.0
 10
20.63881735703707
 20
317.5187039500345
 30
0.0
 10
20.67472343515495
 20
317.549399233501
 30
0.0
 10
20.71337086624991
 20
317.5759342692373
 30
0.0
 10
20.75432535345211
 20
317.5981626151685
 30
0.0
 10
20.79746497962724
 20
317.6159558320591
 30
0.0
 10
20.84264561423046
 20
317.6294892391206
 30
0.0
 10
20.88935283720055
 20
317.6386863644563
 30
0.0
 10
20.95517682838999
 20
317.6456416848324
 30
0.0
 10
21.03990458039379
 20
317.6437764281624
 30
0.0
 10
21.14473618389747
 20
317.6268617671804
 30
0.0
 10
21.25031542625963
 20
317.5974471343073
 30
0.0
 10
21.35847336435797
 20
317.5556954968564
 30
0.0
 10
21.46612562562374
 20
317.5048996697371
 30
0.0
 10
21.53664500043759
 20
317.4643352415041
 30
0.0
 10
21.5718999561
 20
317.4440557492
 30
0.0
 11
20.4260572805
 21
316.8359522399
 31
0.0
 11
20.43018864006706
 21
316.961981525691
 31
0.0
 11
20.44395539920495
 21
317.0873776024479
 31
0.0
 11
20.46680697531824
 21
317.1997172824424
 31
0.0
 11
20.50244516470169
 21
317.3087358343173
 31
0.0
 11
20.5473449294798
 21
317.4007416143639
 31
0.0
 11
20.60651735843416
 21
317.483810526222
 31
0.0
 11
20.63936985861879
 21
317.5181283956505
 31
0.0
 11
20.67550695356957
 21
317.5489563786356
 31
0.0
 11
20.71379421844126
 21
317.5752445760794
 31
0.0
 11
20.75461682637999
 21
317.5973888291011
 31
0.0
 11
20.79772296999658
 21
317.6152199697313
 31
0.0
 11
20.84240254203071
 21
317.6286431965189
 31
0.0
 11
20.88945334776182
 21
317.6379799961411
 31
0.0
 11
20.9371572350128
 21
317.6430834127532
 31
0.0
 11
21.03955687587244
 21
317.6414341513563
 31
0.0
 11
21.14102112620758
 21
317.6256147210227
 31
0.0
 11
21.24974484266441
 21
317.5957203694508
 31
0.0
 11
21.35506283496172
 21
317.5556103168102
 31
0.0
 11
21.46535552086712
 21
317.503440107591
 31
0.0
 11
21.5718999561
 21
317.4440557492
 31
0.0
  0
SPLINE
  5
FD
330
1F
100
AcDbEntity
  8
0
  6
Continuous
 62
     7
100
AcDbSpline
210
0.0
220
0.0
230
1.0
 70
     8
 71
     3
 72
    19
 73
    15
 74
    13
 42
0.0000000001
 43
0.0000000001
 44
0.00000001
 40
0.0
 40
0.0
 40
0.0
 40
0.0
 40
0.1162460235696082
 40
0.2327881717828295
 40
0.3491890045674286
 40
0.4655468550296612
 40
0.5819071369441157
 40
0.6982738488603129
 40
0.8146206072065701
 40
0.9309998277478363
 40
1.163276323391167
 40
1.396138921741866
 40
1.629013178042998
 40
1.861351539703
 40
1.861351539703
 40
1.861351539703
 40
1.861351539703
 10
89.5510572805
 20
268.67933917
 30
0.0
 10
89.51227320965982
 20
268.6774982231121
 30
0.0
 10
89.43460626959653
 20
268.673811639716
 30
0.0
 10
89.3209961845327
 20
268.6454061547712
 30
0.0
 10
89.21280849658537
 20
268.601552240571
 30
0.0
 10
89.11183263062455
 20
268.5429555523486
 30
0.0
 10
89.01906417390165
 20
268.4722706910218
 30
0.0
 10
88.9349767949183
 20
268.3915130859357
 30
0.0
 10
88.8596731515435
 20
268.3025454471938
 30
0.0
 10
88.77102190737538
 20
268.1751859994424
 30
0.0
 10
88.68102516164006
 20
268.0024006213512
 30
0.0
 10
88.60613164247607
 20
267.7814756311634
 30
0.0
 10
88.55959471713362
 20
267.5524557115743
 30
0.0
 10
88.5539009064115
 20
267.3972763187397
 30
0.0
 10
88.5510572805
 20
267.3197760006
 30
0.0
 11
89.5510572805
 21
268.67933917
 31
0.0
 11
89.43518592894958
 21
268.6700135126171
 31
0.0
 11
89.32186140426154
 21
268.6428174758767
 31
0.0
 11
89.2139882716524
 21
268.5990848663726
 31
0.0
 11
89.1131995321422
 21
268.5409403967118
 31
0.0
 11
89.02051222709467
 21
268.4705928403204
 31
0.0
 11
88.93643686146919
 21
268.3901407145739
 31
0.0
 11
88.86113810353751
 21
268.3014464913594
 31
0.0
 11
88.79451137422222
 21
268.2060263576635
 31
0.0
 11
88.68662158811368
 21
268.0003271489101
 31
0.0
 11
88.61086345126193
 21
267.7801324750158
 31
0.0
 11
88.5659034374453
 21
267.5516395508247
 31
0.0
 11
88.5510572805
 21
267.3197760006
 31
0.0
  0
SPLINE
  5
FE
330
1F
100
AcDbEntity
  8
0
  6
Continuous
 62
     7
100
AcDbSpline
210
0.0
220
0.0
230
1.0
 70
     8
 71
     3
 72
    19
 73
    15
 74
    13
 42
0.0000000001
 43
0.0000000001
 44
0.00000001
 40
0.0
 40
0.0
 40
0.0
 40
0.0
 40
0.2323383481159743
 40
0.4652125957010252
 40
0.6980761132671788
 40
0.9303535187254065
 40
1.046733461806001
 40
1.163080940883032
 40
1.27944799743488
 40
1.395808629517949
 40
1.51216590448884
 40
1.628566140332306
 40
1.745106920524988
 40
1.861351602787995
 40
1.861351602787995
 40
1.861351602787995
 40
1.861351602787995
 10
92.3010572805
 20
267.3197760006
 30
0.0
 10
92.29821365489451
 20
267.3972763142589
 30
0.0
 10
92.29251984472558
 20
267.5524556997425
 30
0.0
 10
92.2459828688857
 20
267.7814759137569
 30
0.0
 10
92.17108912312537
 20
268.0024014756512
 30
0.0
 10
92.08109181887588
 20
268.1751875398713
 30
0.0
 10
91.99243988107354
 20
268.3025474656035
 30
0.0
 10
91.91713561672117
 20
268.3915153645195
 30
0.0
 10
91.83304764289667
 20
268.4722730344592
 30
0.0
 10
91.74027890906098
 20
268.5429576008084
 30
0.0
 10
91.63930309681835
 20
268.6015538249663
 30
0.0
 10
91.53111604730802
 20
268.6454070761222
 30
0.0
 10
91.41750693795387
 20
268.6738118355723
 30
0.0
 10
91.33984090316181
 20
268.6774982882194
 30
0.0
 10
91.3010572805
 20
268.67933917
 30
0.0
 11
92.3010572805
 21
267.3197760006
 31
0.0
 11
92.28621112638223
 21
267.551639537434
 31
0.0
 11
92.24125112479359
 21
267.780132455148
 31
0.0
 11
92.16549264611122
 21
268.0003279835336
 31
0.0
 11
92.0576022349336
 21
268.2060278918037
 31
0.0
 11
91.9909749110894
 21
268.3014484916174
 31
0.0
 11
91.91567545452259
 21
268.3901430671467
 31
0.0
 11
91.83159958819213
 21
268.4705951681219
 31
0.0
 11
91.73891176222277
 21
268.5409426173709
 31
0.0
 11
91.63812332731818
 21
268.5990864633749
 31
0.0
 11
91.5302505985266
 21
268.6428184801072
 31
0.0
 11
91.41692730997272
 21
268.670013805427
 31
0.0
 11
91.3010572805
 21
268.67933917
 31
0.0
  0
SPLINE
  5
FF
330
1F
100
AcDbEntity
  8
BEZUGSACHSEN
  6
Continuous
 62
     7
100
AcDbSpline
210
0.0
220
0.0
230
1.0
 70
     8
 71
     3
 72
    11
 73
     7
 74
     5
 42
0.0000000001
 43
0.0000000001
 44
0.00000001
 40
0.0
 40
0.0
 40
0.0
 40
0.0
 40
0.5462907431041437
 40
1.093000863589423
 40
1.646070107119413
 40
2.198197048716618
 40
2.198197048716618
 40
2.198197048716618
 40
2.198197048716618
 10
29.9799032274
 20
317.2117197537
 30
0.0
 10
30.04297402926547
 20
317.0407881244747
 30
0.0
 10
30.16916405129389
 20
316.6987936449482
 30
0.0
 10
30.30880136431981
 20
316.1675195157432
 30
0.0
 10
30.40628972833243
 20
315.6240951107823
 30
0.0
 10
30.41947184284747
 20
315.2555104702091
 30
0.0
 10
30.4260572805
 20
315.0713752795
 30
0.0
 11
29.9799032274
 21
317.2117197537
 31
0.0
 11
30.16075456002919
 21
316.6962332150906
 31
0.0
 11
30.30124604472751
 21
316.1678828592013
 31
0.0
 11
30.39331269795792
 21
315.6225303864813
 31
0.0
 11
30.4260572805
 21
315.0713752795
 31
0.0
  0
SPLINE
  5
100
330
1F
100
AcDbEntity
  8
BEZUGSACHSEN
  6
Continuous
 62
     7
100
AcDbSpline
210
0.0
220
0.0
230
1.0
 70
     8
 71
     3
 72
    19
 73
    15
 74
    13
 42
0.0000000001
 43
0.0000000001
 44
0.00000001
 40
0.0
 40
0.0
 40
0.0
 40
0.0
 40
0.1462385988338104
 40
0.2927479275035244
 40
0.436479070622746
 40
0.58016592364843
 40
0.7203799972924583
 40
0.8606059382777969
 40
0.998041188392439
 40
1.135484020420342
 40
1.40541563106425
 40
1.675815514061933
 40
1.94399742950887
 40
2.2119348348162
 40
2.2119348348162
 40
2.2119348348162
 40
2.2119348348162
 10
28.4260572805
 20
318.5603673412
 30
0.0
 10
28.4747720858585
 20
318.563675418512
 30
0.0
 10
28.57229188173429
 20
318.5702976973413
 30
0.0
 10
28.71762814204579
 20
318.5539383845876
 30
0.0
 10
28.85828507915551
 20
318.5187666185161
 30
0.0
 10
28.99113721261145
 20
318.4659609319075
 30
0.0
 10
29.11559167569351
 20
318.3982891441976
 30
0.0
 10
29.23039423286902
 20
318.3189889428237
 30
0.0
 10
29.33650417063514
 20
318.2299043032432
 30
0.0
 10
29.46560663578301
 20
318.1019567676644
 30
0.0
 10
29.60864648566129
 20
317.9261544787557
 30
0.0
 10
29.75355408735795
 20
317.6984690128739
 30
0.0
 10
29.87819083581597
 20
317.4598063933763
 30
0.0
 10
29.94600940697005
 20
317.2943901529041
 30
0.0
 10
29.9799032274
 20
317.2117197537
 30
0.0
 11
28.4260572805
 21
318.5603673412
 31
0.0
 11
28.5721911423782
 21
318.5659010742474
 31
0.0
 11
28.71790050319025
 21
318.5506116805709
 31
0.0
 11
28.85733058472802
 21
318.5157133444397
 31
0.0
 11
28.99096292166896
 21
318.4629088914444
 31
0.0
 11
29.11427671250042
 21
318.3961728783883
 31
0.0
 11
29.22980782383014
 21
318.3167003872977
 31
0.0
 11
29.33522037359299
 21
318.2285151145671
 31
0.0
 11
29.4330088772605
 21
318.1319338502022
 31
0.0
 11
29.60425727312176
 21
317.9232784852107
 31
0.0
 11
29.75059969365233
 21
317.6959021612928
 31
0.0
 11
29.87446731945909
 21
317.4580401192395
 31
0.0
 11
29.9799032274
 21
317.2117197537
 31
0.0
  0
SPLINE
  5
101
330
1F
100
AcDbEntity
  8
BEZUGSACHSEN
  6
Continuous
 62
     7
100
AcDbSpline
210
0.0
220
0.0
230
1.0
 70
     8
 71
     3
 72
    47
 73
    43
 74
    41
 42
0.0000000001
 43
0.0000000001
 44
0.00000001
 40
0.0
 40
0.0
 40
0.0
 40
0.0
 40
0.6366022431821741
 40
1.273595002171232
 40
1.592921746398827
 40
1.912076344884348
 40
2.231392290413856
 40
2.55082684271597
 40
3.189774321146217
 40
3.829081696996299
 40
4.468337152521974
 40
5.107221744801725
 40
5.426176341291733
 40
5.745033356831394
 40
6.063356731594519
 40
6.381780214891107
 40
7.017059195669264
 40
7.652639340983621
 40
8.287532214221303
 40
8.922347946469166
 40
9.559226748522908
 40
10.19613435930358
 40
10.83451785498114
 40
11.47287689970546
 40
12.11234487361271
 40
12.75189588943631
 40
13.39354300514245
 40
14.03487957349132
 40
14.35615205764539
 40
14.67732107705015
 40
14.99840882466752
 40
15.31959604117386
 40
15.96011121022652
 40
16.60099592083262
 40
17.2380910807348
 40
17.8748255519731
 40
18.19205670330471
 40
18.50917199098387
 40
18.82571084627162
 40
19.14241581826708
 40
19.77338974996225
 40
20.40398930734711
 40
20.40398930734711
 40
20.40398930734711
 40
20.40398930734711
 10
48.9266416862
 20
302.2017197343
 30
0.0
 10
48.93264733008672
 20
302.4139995439952
 30
0.0
 10
48.94466230194843
 20
302.8386893838209
 30
0.0
 10
49.02592764715643
 20
303.3648321449365
 30
0.0
 10
49.11864724375754
 20
303.7798065210608
 30
0.0
 10
49.20394020790167
 20
304.0876304967508
 30
0.0
 10
49.30417882134158
 20
304.3909231735261
 30
0.0
 10
49.45766437049683
 20
304.7883605360631
 30
0.0
 10
49.68613631726974
 20
305.2704601129519
 30
0.0
 10
50.01575127781909
 20
305.819275985809
 30
0.0
 10
50.39797849491219
 20
306.3328115251709
 30
0.0
 10
50.75683319204095
 20
306.7273142872592
 30
0.0
 10
51.06578654560612
 20
307.0201875853044
 30
0.0
 10
51.30768165457986
 20
307.2279094064092
 30
0.0
 10
51.55932490806887
 20
307.4234188035164
 30
0.0
 10
51.9066190152325
 20
307.666914006154
 30
0.0
 10
52.36235934999215
 20
307.9387960761764
 30
0.0
 10
52.93783877467615
 20
308.210125188689
 30
0.0
 10
53.53694953983317
 20
308.4239088195012
 30
0.0
 10
54.15439994227977
 20
308.5785985508734
 30
0.0
 10
54.78467050395758
 20
308.6724055345276
 30
0.0
 10
55.42226443867558
 20
308.7045322593447
 30
0.0
 10
56.06044308291304
 20
308.6741026864324
 30
0.0
 10
56.69345550411755
 20
308.5814314312968
 30
0.0
 10
57.31468918854317
 20
308.4269394700424
 30
0.0
 10
57.91882494049146
 20
308.2119023374769
 30
0.0
 10
58.49930401406009
 20
307.9379789717786
 30
0.0
 10
58.95893303828809
 20
307.6628120937505
 30
0.0
 10
59.30883202695075
 20
307.4162023948999
 30
0.0
 10
59.56196365610063
 20
307.2182982025187
 30
0.0
 10
59.80496229545051
 20
307.0081196730923
 30
0.0
 10
60.11420663894492
 20
306.7126003329125
 30
0.0
 10
60.47252682974539
 20
306.3151293501581
 30
0.0
 10
60.85247724810099
 20
305.7994625886313
 30
0.0
 10
61.17895027771067
 20
305.2498664321769
 30
0.0
 10
61.40432141770326
 20
304.7687608904711
 30
0.0
 10
61.5554124008633
 20
304.372770702848
 30
0.0
 10
61.6538253184132
 20
304.0713443520521
 30
0.0
 10
61.73749209658342
 20
303.7656489841127
 30
0.0
 10
61.82831145402284
 20
303.3540969663727
 30
0.0
 10
61.90782642969536
 20
302.8326717498641
 30
0.0
 10
61.91959871431434
 20
302.4119954607276
 30
0.0
 10
61.9254831099
 20
302.2017197344
 30
0.0
 11
48.9266416862
 21
302.2017197343
 31
0.0
 11
48.9578903572398
 21
302.8375545686578
 31
0.0
 11
49.05133155961342
 21
303.4676565577861
 31
0.0
 11
49.12127206664784
 21
303.7792298157124
 31
0.0
 11
49.20641340562398
 21
304.0868181934704
 31
0.0
 11
49.30663794376193
 21
304.3899975381237
 31
0.0
 11
49.42171783351398
 21
304.6879825246232
 31
0.0
 11
49.6953137277583
 21
305.2653898044916
 31
0.0
 11
50.02453324143644
 21
305.8134120965837
 31
0.0
 11
50.40615749678382
 21
306.3262575559083
 31
0.0
 11
50.83609213291263
 21
306.7988353070872
 31
0.0
 11
51.06756439397376
 21
307.0182723754721
 31
0.0
 11
51.30946679500102
 21
307.2260054367216
 31
0.0
 11
51.56084060215552
 21
307.421302594912
 31
0.0
 11
51.82156988044743
 21
307.6040969005019
 31
0.0
 11
52.36710352465726
 21
307.9296309639326
 31
0.0
 11
52.94201334477597
 21
308.2006306315503
 31
0.0
 11
53.53995953252078
 21
308.4140534912665
 31
0.0
 11
54.15575206472974
 21
308.56829541548
 31
0.0
 11
54.78568434667615
 21
308.6621033504705
 31
0.0
 11
55.42178746839498
 21
308.6941052755673
 31
0.0
 11
56.05944842743031
 21
308.663741005847
 31
0.0
 11
56.6910659603576
 21
308.5712122963553
 31
0.0
 11
57.31163883246381
 21
308.4169119397164
 31
0.0
 11
57.91413963958637
 21
308.2023932243146
 31
0.0
 11
58.49444683595286
 21
307.9286148852531
 31
0.0
 11
59.0446718239988
 21
307.5991227663316
 31
0.0
 11
59.30727912814626
 21
307.4140459906872
 31
0.0
 11
59.56029958553811
 21
307.2162324745498
 31
0.0
 11
59.80314788690242
 21
307.0061799949299
 31
0.0
 11
60.03535032230946
 21
306.7842717773306
 31
0.0
 11
60.46426638004371
 21
306.3085715595418
 31
0.0
 11
60.84437703871678
 21
305.7925782461629
 31
0.0
 11
61.16981618444196
 21
305.2448743067937
 31
0.0
 11
61.43989704257164
 21
304.6682573482025
 31
0.0
 11
61.55298748775584
 21
304.3718688285476
 31
0.0
 11
61.651431591095
 21
304.0704208824647
 31
0.0
 11
61.73491439647064
 21
303.7650891479308
 31
0.0
 11
61.80346381991467
 21
303.4558917743453
 31
0.0
 11
61.89489089783921
 21
302.8315767962285
 31
0.0
 11
61.9254831099
 21
302.2017197344
 31
0.0
  0
SPLINE
  5
102
330
1F
100
AcDbEntity
  8
BEZUGSACHSEN
  6
Continuous
 62
     7
100
AcDbSpline
210
0.0
220
0.0
230
1.0
 70
     8
 71
     3
 72
    11
 73
     7
 74
     5
 42
0.0000000001
 43
0.0000000001
 44
0.00000001
 40
0.0
 40
0.0
 40
0.0
 40
0.0
 40
0.5521269407067612
 40
1.105196183364636
 40
1.651906304768803
 40
2.198197048816563
 40
2.198197048816563
 40
2.198197048816563
 40
2.198197048816563
 10
30.4260572805
 20
289.332064228
 30
0.0
 10
30.41947184287213
 20
289.147929037588
 30
0.0
 10
30.40628972840621
 20
288.779344397603
 30
0.0
 10
30.30880136460588
 20
288.2359199928947
 30
0.0
 10
30.16916405158076
 20
287.7046458633434
 30
0.0
 10
30.04297402936205
 20
287.3626513832251
 30
0.0
 10
29.9799032274
 20
287.1917197537
 30
0.0
 11
30.4260572805
 21
289.332064228
 31
0.0
 11
30.3933126980732
 21
288.7809091219038
 31
0.0
 11
30.30124604512982
 21
288.2355566500198
 31
0.0
 11
30.16075456029641
 21
287.7072062932157
 31
0.0
 11
29.9799032274
 21
287.1917197537
 31
0.0
  0
SPLINE
  5
103
330
1F
100
AcDbEntity
  8
BEZUGSACHSEN
  6
Continuous
 62
     7
100
AcDbSpline
210
0.0
220
0.0
230
1.0
 70
     8
 71
     3
 72
    19
 73
    15
 74
    13
 42
0.0000000001
 43
0.0000000001
 44
0.00000001
 40
0.0
 40
0.0
 40
0.0
 40
0.0
 40
0.2679411643110187
 40
0.5361267936765723
 40
0.806530477348089
 40
1.076465993197524
 40
1.213913376110212
 40
1.35135310483688
 40
1.491586367012761
 40
1.631807897491709
 40
1.775491562681945
 40
1.919219204656274
 40
2.065713007322066
 40
2.211936409271826
 40
2.211936409271826
 40
2.211936409271826
 40
2.211936409271826
 10
29.9799032274
 20
287.1917197537
 30
0.0
 10
29.94600898362776
 20
287.1090481739933
 30
0.0
 10
29.87818957153993
 20
286.9436295864078
 30
0.0
 10
29.75355106521057
 20
286.7049636127681
 30
0.0
 10
29.60864026589779
 20
286.4772756167528
 30
0.0
 10
29.46559663437874
 20
286.3014711254368
 30
0.0
 10
29.33649024745183
 20
286.1735214063389
 30
0.0
 10
29.23037514836699
 20
286.084434385553
 30
0.0
 10
29.11556572071409
 20
286.0051327452472
 30
0.0
 10
28.99110610849297
 20
285.9374622778183
 30
0.0
 10
28.85825255337691
 20
285.8846595911288
 30
0.0
 10
28.71760175450562
 20
285.8494933271237
 30
0.0
 10
28.57227637140017
 20
285.8331411251843
 30
0.0
 10
28.4747669523363
 20
285.8397638585355
 30
0.0
 10
28.4260572805
 20
285.8430721663
 30
0.0
 11
29.9799032274
 21
287.1917197537
 31
0.0
 11
29.874465967743
 21
286.945395877861
 31
0.0
 11
29.75059645214939
 21
286.7075306325963
 31
0.0
 11
29.60425096584909
 21
286.4801517620242
 31
0.0
 11
29.43299877472313
 21
286.271494459848
 31
0.0
 11
29.33520633602113
 21
286.174910703438
 31
0.0
 11
29.22978934674157
 21
286.0867237576711
 31
0.0
 11
29.11425070301886
 21
286.0072492987097
 31
0.0
 11
28.99092869313797
 21
285.9405128057782
 31
0.0
 11
28.85729800496829
 21
285.8877128548143
 31
0.0
 11
28.71787030377252
 21
285.8528194284023
 31
0.0
 11
28.57217586522226
 21
285.837536601602
 31
0.0
 11
28.4260572805
 21
285.8430721663
 31
0.0
  0
SPLINE
  5
104
330
1F
100
AcDbEntity
  8
BEZUGSACHSEN
  6
Continuous
 62
     7
100
AcDbSpline
210
0.0
220
0.0
230
1.0
 70
     8
 71
     3
 72
    47
 73
    43
 74
    41
 42
0.0000000001
 43
0.0000000001
 44
0.00000001
 40
0.0
 40
0.0
 40
0.0
 40
0.0
 40
0.6302393214779816
 40
1.260854867358696
 40
1.577476088428946
 40
1.893930800240256
 40
2.210999113877191
 40
2.528183472217019
 40
3.164887038271777
 40
3.801951183429891
 40
4.442851001646846
 40
5.083381259805181
 40
5.404527292323771
 40
5.725573838765912
 40
6.04667071003661
 40
6.367871027158664
 40
7.00909024254242
 40
7.650619763955426
 40
8.290330346516548
 40
8.929958764525415
 40
9.568647011393336
 40
10.2073592301651
 40
10.84445705816824
 40
11.481526264952
 40
12.11643462221015
 40
12.75141965577145
 40
13.38691908734371
 40
14.0221173852886
 40
14.34050449142818
 40
14.65879153793948
 40
14.97761586871123
 40
15.29653774947356
 40
15.93537694102312
 40
16.57458694067885
 40
17.21386274993488
 40
17.85277859076876
 40
18.17219860084387
 40
18.4915002407774
 40
18.81067156637992
 40
19.13001452424952
 40
19.76719627025284
 40
20.40398968280797
 40
20.40398968280797
 40
20.40398968280797
 40
20.40398968280797
 10
61.9254709183
 20
302.2017197725
 30
0.0
 10
61.91960171655552
 20
301.991563750604
 30
0.0
 10
61.90785980941825
 20
301.5711262531609
 30
0.0
 10
61.82841306686161
 20
301.0499628108971
 30
0.0
 10
61.73768156179631
 20
300.6385713434738
 30
0.0
 10
61.65407617950176
 20
300.3329335031887
 30
0.0
 10
61.55572423813535
 20
300.0315496570038
 30
0.0
 10
61.40470542728011
 20
299.6355764774069
 30
0.0
 10
61.17942283967825
 20
299.1544696687151
 30
0.0
 10
60.85304480493438
 20
298.6048354437042
 30
0.0
 10
60.47317774290237
 20
298.0891075810381
 30
0.0
 10
60.11492330362381
 20
297.6915821788346
 30
0.0
 10
59.80574256595779
 20
297.3960288238995
 30
0.0
 10
59.56281760992831
 20
297.1858439154657
 30
0.0
 10
59.30976870660163
 20
296.9879344511506
 30
0.0
 10
58.95998619813734
 20
296.7413110996909
 30
0.0
 10
58.50050096038046
 20
296.4661044904154
 30
0.0
 10
57.92010525340807
 20
296.1920643837023
 30
0.0
 10
57.31595094555468
 20
295.9768759063512
 30
0.0
 10
56.69453579813903
 20
295.8222140673128
 30
0.0
 10
56.06126658670772
 20
295.7294036942774
 30
0.0
 10
55.42280712228798
 20
295.6988929444692
 30
0.0
 10
54.78497410874911
 20
295.7309946868519
 30
0.0
 10
54.15454412176168
 20
295.8248077492278
 30
0.0
 10
53.53697045226737
 20
295.9795215655162
 30
0.0
 10
52.93782704083712
 20
296.193318137573
 30
0.0
 10
52.36236981936077
 20
296.4646395059891
 30
0.0
 10
51.9066844264005
 20
296.7364843896299
 30
0.0
 10
51.55942852865932
 20
296.9799449422501
 30
0.0
 10
51.30780894735898
 20
297.1754274685943
 30
0.0
 10
51.0659338970835
 20
297.3831205272934
 30
0.0
 10
50.75699761339892
 20
297.6759580754178
 30
0.0
 10
50.39815485650398
 20
298.0704157243437
 30
0.0
 10
50.01592795125842
 20
298.5839003902943
 30
0.0
 10
49.6863035060072
 20
299.1326681690224
 30
0.0
 10
49.45781606008779
 20
299.6147315855174
 30
0.0
 10
49.30431456011905
 20
300.0121411446804
 30
0.0
 10
49.2040577571928
 20
300.3154235079646
 30
0.0
 10
49.11874126427183
 20
300.6232473796747
 30
0.0
 10
49.02597880891739
 20
301.0382882467848
 30
0.0
 10
48.94468644202191
 20
301.5645610458656
 30
0.0
 10
48.93264664248234
 20
301.9893766955619
 30
0.0
 10
48.9266285777
 20
302.2017197742
 30
0.0
 11
61.9254709183
 21
302.2017197725
 31
0.0
 11
61.89493133957877
 21
301.5722208158141
 31
0.0
 11
61.80360006405195
 21
300.9482540179658
 31
0.0
 11
61.73510532536542
 21
300.6391303074481
 31
0.0
 11
61.65168650052868
 21
300.3338683145789
 31
0.0
 11
61.55329975668961
 21
300.0324510553695
 31
0.0
 11
61.44026912558707
 21
299.7360898001285
 31
0.0
 11
61.17028898907474
 21
299.159459800115
 31
0.0
 11
60.84495236722139
 21
298.6117310282515
 31
0.0
 11
60.46491587242944
 21
298.0956643275075
 31
0.0
 11
60.03606537476871
 21
297.619884691255
 31
0.0
 11
59.8039282403987
 21
297.3979677584876
 31
0.0
 11
59.56114574706236
 21
297.1879021832216
 31
0.0
 11
59.30821613876403
 21
296.9900896103505
 31
0.0
 11
59.04570174292969
 21
296.8050062893866
 31
0.0
 11
58.49564356132878
 21
296.4754640629099
 31
0.0
 11
57.91550272966316
 21
296.2016087319799
 31
0.0
 11
57.31289741934036
 21
295.9869078483966
 31
0.0
 11
56.69219814900037
 21
295.8324509646914
 31
0.0
 11
56.06026933509679
 21
295.739775990477
 31
0.0
 11
55.42228320794686
 21
295.709329316232
 31
0.0
 11
54.78598821983653
 21
295.7413032204664
 31
0.0
 11
54.15586494573093
 21
295.8351213086079
 31
0.0
 11
53.53998103748948
 21
295.9893796428576
 31
0.0
 11
52.94194856767051
 21
296.202834925971
 31
0.0
 11
52.3671128191238
 21
296.4738024327341
 31
0.0
 11
51.82164613158242
 21
296.7992912505063
 31
0.0
 11
51.5609438388055
 21
296.9820606787398
 31
0.0
 11
51.30959458699718
 21
297.1773302298539
 31
0.0
 11
51.06771128864761
 21
297.3850353666983
 31
0.0
 11
50.83625545734741
 21
297.6044422129592
 31
0.0
 11
50.4063324264672
 21
298.0769691435975
 31
0.0
 11
50.0247112870094
 21
298.5897602605045
 31
0.0
 11
49.69547981283036
 21
299.1377385417437
 31
0.0
 11
49.42186550568633
 21
299.7151020863104
 31
0.0
 11
49.30677325322636
 21
300.0130667088079
 31
0.0
 11
49.20653356479948
 21
300.3162259773918
 31
0.0
 11
49.12136648458224
 21
300.6238245852139
 31
0.0
 11
49.05140345710856
 21
300.9354094043686
 31
0.0
 11
48.95791456016832
 21
301.5656953740591
 31
0.0
 11
48.9266285777
 21
302.2017197742
 31
0.0
  0
SPLINE
  5
105
330
1F
100
AcDbEntity
  8
BEZUGSACHSEN
  6
Continuous
 62
     7
100
AcDbSpline
210
0.0
220
0.0
230
1.0
 70
     8
 71
     3
 72
    27
 73
    23
 74
    21
 42
0.0000000001
 43
0.0000000001
 44
0.00000001
 40
0.0
 40
0.0
 40
0.0
 40
0.0
 40
0.1219765139516188
 40
0.243985771474905
 40
0.3566831398333866
 40
0.469441814962952
 40
0.5721317672948528
 40
0.6745445881155944
 40
0.7225206521221887
 40
0.7704888797708577
 40
0.8171412936045878
 40
0.8637898734267724
 40
0.910231800082586
 40
0.9566751324135587
 40
1.004175175748472
 40
1.051683100134796
 40
1.153672388709446
 40
1.256049376612276
 40
1.370745138018208
 40
1.485385401802561
 40
1.611534903852537
 40
1.737631875984919
 40
1.737631875984919
 40
1.737631875984919
 40
1.737631875984919
 10
21.5718999561
 20
286.9593837583
 30
0.0
 10
21.5366449384966
 20
286.9391042330351
 30
0.0
 10
21.46612543937616
 20
286.8985397386371
 30
0.0
 10
21.35847303619038
 20
286.8477438777454
 30
0.0
 10
21.25031502031909
 20
286.8059922418761
 30
0.0
 10
21.14473579935064
 20
286.776577656735
 30
0.0
 10
21.03990425420493
 20
286.7596630693467
 30
0.0
 10
20.95517658435557
 20
286.7577978461185
 30
0.0
 10
20.8893526479518
 20
286.7647531541381
 30
0.0
 10
20.84264544473774
 20
286.7739502812916
 30
0.0
 10
20.79746482743369
 20
286.7874837262788
 30
0.0
 10
20.75432521678194
 20
286.805276985085
 30
0.0
 10
20.71337074020384
 20
286.8275053427888
 30
0.0
 10
20.67472331373315
 20
286.8540403744904
 30
0.0
 10
20.63881723510212
 20
286.8847356520198
 30
0.0
 10
20.5933779135755
 20
286.932273125127
 30
0.0
 10
20.54483477351159
 20
287.001442492207
 30
0.0
 10
20.49860906457262
 20
287.097600546904
 30
0.0
 10
20.46464319077692
 20
287.2031759798751
 30
0.0
 10
20.4416877665605
 20
287.3195936707775
 30
0.0
 10
20.42824320819495
 20
287.4413409794674
 30
0.0
 10
20.42678582189888
 20
287.5254443430187
 30
0.0
 10
20.4260572805
 20
287.5674872676
 30
0.0
 11
21.5718999561
 21
286.9593837583
 31
0.0
 11
21.46535533203945
 21
286.8999993071399
 31
0.0
 11
21.35506244287079
 21
286.847829032843
 31
0.0
 11
21.24974443501836
 21
286.8077190084486
 31
0.0
 11
21.14102070647531
 21
286.7778247001497
 31
0.0
 11
21.03955655435416
 21
286.7620053403565
 31
0.0
 11
20.93715701376976
 21
286.7603561112745
 31
0.0
 11
20.88945315755722
 21
286.7654595238599
 31
0.0
 11
20.84240238729577
 21
286.7747963263939
 31
0.0
 11
20.79772281986235
 21
286.7882195886828
 31
0.0
 11
20.75461668326641
 21
286.8060507688793
 31
0.0
 11
20.71379409046956
 21
286.8281950337993
 31
0.0
 11
20.6755068339234
 21
286.8544832270459
 31
0.0
 11
20.63936973691356
 21
286.885311206813
 31
0.0
 11
20.60651723654668
 21
286.9196290753241
 31
0.0
 11
20.5473448423237
 21
287.0026979789275
 31
0.0
 11
20.50244511874911
 21
287.0947037530669
 31
0.0
 11
20.46680695916903
 21
287.2037222802365
 31
0.0
 11
20.44395539577164
 21
287.3160619265366
 31
0.0
 11
20.43018863943221
 21
287.4414579922139
 31
0.0
 11
20.4260572805
 21
287.5674872676
 31
0.0
  0
SPLINE
  5
106
330
1F
100
AcDbEntity
  8
BEZUGSACHSEN
  6
Continuous
 62
     7
100
AcDbSpline
210
0.0
220
0.0
230
1.0
 70
     8
 71
     3
 72
    11
 73
     7
 74
     5
 42
0.0000000001
 43
0.0000000001
 44
0.00000001
 40
0.0
 40
0.0
 40
0.0
 40
0.0
 40
0.9140556660003346
 40
1.828030949185877
 40
2.279806974883405
 40
2.730944124862182
 40
2.730944124862182
 40
2.730944124862182
 40
2.730944124862182
 10
21.6930102073854
 20
287.191719753885
 30
0.0
 10
21.82566491434866
 20
287.4664363515517
 30
0.0
 10
22.09096266251002
 20
288.015845388079
 30
0.0
 10
22.30631787582524
 20
288.7485563091873
 30
0.0
 10
22.41001208948975
 20
289.3465015153271
 30
0.0
 10
22.42071140700765
 20
289.6476247307872
 30
0.0
 10
22.4260572805
 20
289.7980798054
 30
0.0
 11
21.6930102073854
 21
287.191719753885
 31
0.0
 11
22.06781773716086
 21
288.0253965954555
 31
0.0
 11
22.32710909755873
 21
288.901820470471
 31
0.0
 11
22.39982607105736
 21
289.3477059032452
 31
0.0
 11
22.4260572805
 21
289.7980798054
 31
0.0
  0
SPLINE
  5
107
330
1F
100
AcDbEntity
  8
BEZUGSACHSEN
  6
Continuous
 62
     7
100
AcDbSpline
210
0.0
220
0.0
230
1.0
 70
     8
 71
     3
 72
    11
 73
     7
 74
     5
 42
0.0000000001
 43
0.0000000001
 44
0.00000001
 40
0.0
 40
0.0
 40
0.0
 40
0.0
 40
0.8249192366724722
 40
1.650116891931038
 40
2.190492152293433
 40
2.73058591537826
 40
2.73058591537826
 40
2.73058591537826
 40
2.73058591537826
 10
22.4260572805
 20
314.6053597021
 30
0.0
 10
22.40832397616182
 20
314.8805499940769
 30
0.0
 10
22.37285138231589
 20
315.4310234575376
 30
0.0
 10
22.16441656568051
 20
316.1357570426906
 30
0.0
 10
21.93419013470077
 20
316.7279707677708
 30
0.0
 10
21.77338955189882
 20
317.050498101216
 30
0.0
 10
21.6930102073854
 20
317.211719753515
 30
0.0
 11
22.4260572805
 21
314.6053597021
 31
0.0
 11
22.34248182638429
 21
315.4260343577959
 31
0.0
 11
22.12452038427253
 21
316.2219262976953
 31
0.0
 11
21.92658530571332
 21
316.724745476613
 31
0.0
 11
21.6930102073854
 21
317.211719753515
 31
0.0
  0
DIMENSION
  5
112
330
1F
100
AcDbEntity
  8
1
100
AcDbDimension
  2
*D2
 10
242.648088060631
 20
310.2017197537
 30
0.0
 11
238.898088060631
 21
302.062054886967
 31
0.0
 70
    32
  1
<>
 71
     5
 42
-1.0
 53
90.0
  3
ME10_DIM_10
100
AcDbAlignedDimension
 13
230.4260572805
 23
294.2017197537
 33
0.0
 14
230.4260572805
 24
310.2017197537
 34
0.0
 50
90.0
100
AcDbRotatedDimension
  0
DIMENSION
  5
11D
330
1F
100
AcDbEntity
  8
1
100
AcDbDimension
  2
*D3
 10
250.842692098635
 20
326.2017197537
 30
0.0
 11
247.092692098635
 21
302.349584853213
 31
0.0
 70
    32
  1
<>
 71
     5
 42
-1.0
 53
90.0
  3
ME10_DIM_11
100
AcDbAlignedDimension
 13
217.3373210948
 23
278.2017197537
 33
0.0
 14
217.3373210948
 24
326.2017197537
 34
0.0
 50
90.0
100
AcDbRotatedDimension
  0
DIMENSION
  5
128
330
1F
100
AcDbEntity
  8
1
100
AcDbDimension
  2
*D4
 10
230.4260572805
 20
361.206721900024
 30
0.0
 11
165.395100213799
 21
364.956721900024
 31
0.0
 70
    32
  1
<>
 71
     5
 42
-1.0
 53
0.00013888888889
  3
ME10_DIM_12
100
AcDbAlignedDimension
 13
99.4260572805
 23
352.2016828326
 33
0.0
 14
230.4260572805
 24
319.5646494929
 34
0.0
100
AcDbRotatedDimension
  0
DIMENSION
  5
133
330
1F
100
AcDbEntity
  8
1
100
AcDbDimension
  2
*D5
 10
230.4260572805
 20
368.531038103102
 30
0.0
 11
150.939212970883
 21
372.281038103102
 31
0.0
 70
    32
  1
<>
 71
     5
 42
-1.0
 53
0.00013888888889
  3
ME10_DIM_13
100
AcDbAlignedDimension
 13
70.4260572805
 23
352.2017197537
 33
0.0
 14
230.4260572805
 24
319.5646494929
 34
0.0
100
AcDbRotatedDimension
  0
DIMENSION
  5
13E
330
1F
100
AcDbEntity
  8
1
100
AcDbDimension
  2
*D6
 10
230.4260572805
 20
376.048099469418
 30
0.0
 11
135.519599911772
 21
379.798099469418
 31
0.0
 70
    32
  1
<>
 71
     5
 42
-1.0
 53
0.00013888888889
  3
ME10_DIM_14
100
AcDbAlignedDimension
 13
20.4260572805
 23
335.8019113163
 33
0.0
 14
230.4260572805
 24
319.5646494929
 34
0.0
100
AcDbRotatedDimension
  0
INSERT
  5
145
330
1F
100
AcDbEntity
  8
1
100
AcDbBlockReference
  2
*D7
 10
0.0
 20
0.0
 30
0.0
  0
ENDSEC
  0
SECTION
  2
OBJECTS
  0
DICTIONARY
  5
C
330
0
100
AcDbDictionary
281
     1
  3
ACAD_GROUP
350
D
  3
ACAD_LAYOUT
350
1A
  3
ACAD_MLEADERSTYLE
350
148
  3
ACAD_MLINESTYLE
350
17
  3
ACAD_PLOTSETTINGS
350
19
  3
ACAD_PLOTSTYLENAME
350
E
  3
ACAD_SCALELIST
350
4B
  3
ACAD_VISUALSTYLE
350
2A
  3
AcDbVariableDictionary
350
146
  0
DICTIONARY
  5
D
102
{ACAD_REACTORS
330
C
102
}
330
C
100
AcDbDictionary
281
     1
  0
DICTIONARY
  5
1A
102
{ACAD_REACTORS
330
C
102
}
330
C
100
AcDbDictionary
281
     1
  3
Layout1
350
1E
  3
Layout2
350
26
  3
Model
350
22
  0
DICTIONARY
  5
148
102
{ACAD_REACTORS
330
C
102
}
330
C
100
AcDbDictionary
281
     1
  0
DICTIONARY
  5
17
102
{ACAD_REACTORS
330
C
102
}
330
C
100
AcDbDictionary
281
     1
  3
Standard
350
18
  0
DICTIONARY
  5
19
102
{ACAD_REACTORS
330
C
102
}
330
C
100
AcDbDictionary
281
     1
  0
ACDBDICTIONARYWDFLT
  5
E
102
{ACAD_REACTORS
330
C
102
}
330
C
100
AcDbDictionary
281
     1
  3
Normal
350
F
100
AcDbDictionaryWithDefault
340
F
  0
DICTIONARY
  5
4B
102
{ACAD_REACTORS
330
C
102
}
330
C
100
AcDbDictionary
281
     1
  3
A0
350
4C
  3
A1
350
4D
  3
A2
350
4E
  3
A3
350
4F
  3
A4
350
50
  3
A5
350
51
  3
A6
350
52
  3
A7
350
53
  3
A8
350
54
  3
A9
350
55
  3
B0
350
56
  3
B1
350
57
  3
B2
350
58
  3
B3
350
59
  3
B4
350
5A
  3
B5
350
5B
  3
B6
350
5C
  3
B7
350
5D
  3
B8
350
5E
  3
B9
350
5F
  3
C0
350
60
  3
C1
350
61
  3
C2
350
62
  3
C3
350
63
  3
C4
350
64
  3
C5
350
65
  3
C6
350
66
  3
C7
350
67
  3
C8
350
68
  3
C9
350
69
  3
D0
350
6A
  3
D1
350
6B
  3
D2
350
6C
  0
DICTIONARY
  5
2A
102
{ACAD_REACTORS
330
C
102
}
330
C
100
AcDbDictionary
281
     1
  3
2dWireframe
350
2F
  3
3D Hidden
350
31
  3
3dWireframe
350
30
  3
Basic
350
32
  3
Brighten
350
36
  3
ColorChange
350
3A
  3
Conceptual
350
34
  3
Dim
350
35
  3
Facepattern
350
39
  3
Flat
350
2B
  3
FlatWithEdges
350
2C
  3
Gouraud
350
2D
  3
GouraudWithEdges
350
2E
  3
Linepattern
350
38
  3
Realistic
350
33
  3
Thicken
350
37
  0
DICTIONARY
  5
146
102
{ACAD_REACTORS
330
C
102
}
330
C
100
AcDbDictionary
281
     1
  3
CANNOSCALE
350
149
  0
LAYOUT
  5
1E
102
{ACAD_REACTORS
330
1A
102
}
330
1A
100
AcDbPlotSettings
  1

  2
none_device
  4

  6

 40
0.0
 41
0.0
 42
0.0
 43
0.0
 44
0.0
 45
0.0
 46
0.0
 47
0.0
 48
0.0
 49
0.0
140
0.0
141
0.0
142
1.0
143
1.0
 70
   688
 72
     0
 73
     0
 74
     5
  7

 75
    16
147
1.0
148
0.0
149
0.0
100
AcDbLayout
  1
Layout1
 70
     1
 71
     1
 10
0.0
 20
0.0
 11
12.0
 21
9.0
 12
0.0
 22
0.0
 32
0.0
 14
1.00000000000000E+20
 24
1.00000000000000E+20
 34
1.00000000000000E+20
 15
-1.00000000000000E+20
 25
-1.00000000000000E+20
 35
-1.00000000000000E+20
146
0.0
 13
0.0
 23
0.0
 33
0.0
 16
1.0
 26
0.0
 36
0.0
 17
0.0
 27
1.0
 37
0.0
 76
     0
330
1B
  0
LAYOUT
  5
26
102
{ACAD_REACTORS
330
1A
102
}
330
1A
100
AcDbPlotSettings
  1

  2
none_device
  4

  6

 40
0.0
 41
0.0
 42
0.0
 43
0.0
 44
0.0
 45
0.0
 46
0.0
 47
0.0
 48
0.0
 49
0.0
140
0.0
141
0.0
142
1.0
143
1.0
 70
   688
 72
     0
 73
     0
 74
     5
  7

 75
    16
147
1.0
148
0.0
149
0.0
100
AcDbLayout
  1
Layout2
 70
     1
 71
     2
 10
0.0
 20
0.0
 11
0.0
 21
0.0
 12
0.0
 22
0.0
 32
0.0
 14
0.0
 24
0.0
 34
0.0
 15
0.0
 25
0.0
 35
0.0
146
0.0
 13
0.0
 23
0.0
 33
0.0
 16
1.0
 26
0.0
 36
0.0
 17
0.0
 27
1.0
 37
0.0
 76
     0
330
23
  0
LAYOUT
  5
22
102
{ACAD_REACTORS
330
1A
102
}
330
1A
100
AcDbPlotSettings
  1

  2
none_device
  4

  6

 40
0.0
 41
0.0
 42
0.0
 43
0.0
 44
0.0
 45
0.0
 46
0.0
 47
0.0
 48
0.0
 49
0.0
140
0.0
141
0.0
142
1.0
143
1.0
 70
  1712
 72
     0
 73
     0
 74
     0
  7

 75
     0
147
1.0
148
0.0
149
0.0
100
AcDbLayout
  1
Model
 70
     1
 71
     0
 10
0.0
 20
0.0
 11
12.0
 21
9.0
 12
0.0
 22
0.0
 32
0.0
 14
-0.8735787449168
 24
252.2017197537
 34
0.0
 15
252.842692098635
 25
381.548099469418
 35
0.0
146
0.0
 13
0.0
 23
0.0
 33
0.0
 16
1.0
 26
0.0
 36
0.0
 17
0.0
 27
1.0
 37
0.0
 76
     0
330
1F
331
29
  0
MLINESTYLE
  5
18
102
{ACAD_REACTORS
330
17
102
}
330
17
100
AcDbMlineStyle
  2
Standard
 70
     0
  3

 62
   256
 51
90.0
 52
90.0
 71
     2
 49
0.5
 62
   256
  6
BYLAYER
 49
-0.5
 62
   256
  6
BYLAYER
  0
ACDBPLACEHOLDER
  5
F
102
{ACAD_REACTORS
330
E
102
}
330
E
  0
SCALE
  5
4C
102
{ACAD_REACTORS
330
4B
102
}
330
4B
100
AcDbScale
 70
     0
300
1:1
140
1.0
141
1.0
290
     1
  0
SCALE
  5
4D
102
{ACAD_REACTORS
330
4B
102
}
330
4B
100
AcDbScale
 70
     0
300
1:2
140
1.0
141
2.0
290
     0
  0
SCALE
  5
4E
102
{ACAD_REACTORS
330
4B
102
}
330
4B
100
AcDbScale
 70
     0
300
1:4
140
1.0
141
4.0
290
     0
  0
SCALE
  5
4F
102
{ACAD_REACTORS
330
4B
102
}
330
4B
100
AcDbScale
 70
     0
300
1:5
140
1.0
141
5.0
290
     0
  0
SCALE
  5
50
102
{ACAD_REACTORS
330
4B
102
}
330
4B
100
AcDbScale
 70
     0
300
1:8
140
1.0
141
8.0
290
     0
  0
SCALE
  5
51
102
{ACAD_REACTORS
330
4B
102
}
330
4B
100
AcDbScale
 70
     0
300
1:10
140
1.0
141
10.0
290
     0
  0
SCALE
  5
52
102
{ACAD_REACTORS
330
4B
102
}
330
4B
100
AcDbScale
 70
     0
300
1:16
140
1.0
141
16.0
290
     0
  0
SCALE
  5
53
102
{ACAD_REACTORS
330
4B
102
}
330
4B
100
AcDbScale
 70
     0
300
1:20
140
1.0
141
20.0
290
     0
  0
SCALE
  5
54
102
{ACAD_REACTORS
330
4B
102
}
330
4B
100
AcDbScale
 70
     0
300
1:30
140
1.0
141
30.0
290
     0
  0
SCALE
  5
55
102
{ACAD_REACTORS
330
4B
102
}
330
4B
100
AcDbScale
 70
     0
300
1:40
140
1.0
141
40.0
290
     0
  0
SCALE
  5
56
102
{ACAD_REACTORS
330
4B
102
}
330
4B
100
AcDbScale
 70
     0
300
1:50
140
1.0
141
50.0
290
     0
  0
SCALE
  5
57
102
{ACAD_REACTORS
330
4B
102
}
330
4B
100
AcDbScale
 70
     0
300
1:100
140
1.0
141
100.0
290
     0
  0
SCALE
  5
58
102
{ACAD_REACTORS
330
4B
102
}
330
4B
100
AcDbScale
 70
     0
300
2:1
140
2.0
141
1.0
290
     0
  0
SCALE
  5
59
102
{ACAD_REACTORS
330
4B
102
}
330
4B
100
AcDbScale
 70
     0
300
4:1
140
4.0
141
1.0
290
     0
  0
SCALE
  5
5A
102
{ACAD_REACTORS
330
4B
102
}
330
4B
100
AcDbScale
 70
     0
300
8:1
140
8.0
141
1.0
290
     0
  0
SCALE
  5
5B
102
{ACAD_REACTORS
330
4B
102
}
330
4B
100
AcDbScale
 70
     0
300
10:1
140
10.0
141
1.0
290
     0
  0
SCALE
  5
5C
102
{ACAD_REACTORS
330
4B
102
}
330
4B
100
AcDbScale
 70
     0
300
100:1
140
100.0
141
1.0
290
     0
  0
SCALE
  5
5D
102
{ACAD_REACTORS
330
4B
102
}
330
4B
100
AcDbScale
 70
     0
300
1/128" = 1'-0"
140
0.0078125
141
12.0
290
     0
  0
SCALE
  5
5E
102
{ACAD_REACTORS
330
4B
102
}
330
4B
100
AcDbScale
 70
     0
300
1/64" = 1'-0"
140
0.015625
141
12.0
290
     0
  0
SCALE
  5
5F
102
{ACAD_REACTORS
330
4B
102
}
330
4B
100
AcDbScale
 70
     0
300
1/32" = 1'-0"
140
0.03125
141
12.0
290
     0
  0
SCALE
  5
60
102
{ACAD_REACTORS
330
4B
102
}
330
4B
100
AcDbScale
 70
     0
300
1/16" = 1'-0"
140
0.0625
141
12.0
290
     0
  0
SCALE
  5
61
102
{ACAD_REACTORS
330
4B
102
}
330
4B
100
AcDbScale
 70
     0
300
3/32" = 1'-0"
140
0.09375
141
12.0
290
     0
  0
SCALE
  5
62
102
{ACAD_REACTORS
330
4B
102
}
330
4B
100
AcDbScale
 70
     0
300
1/8" = 1'-0"
140
0.125
141
12.0
290
     0
  0
SCALE
  5
63
102
{ACAD_REACTORS
330
4B
102
}
330
4B
100
AcDbScale
 70
     0
300
3/16" = 1'-0"
140
0.1875
141
12.0
290
     0
  0
SCALE
  5
64
102
{ACAD_REACTORS
330
4B
102
}
330
4B
100
AcDbScale
 70
     0
300
1/4" = 1'-0"
140
0.25
141
12.0
290
     0
  0
SCALE
  5
65
102
{ACAD_REACTORS
330
4B
102
}
330
4B
100
AcDbScale
 70
     0
300
3/8" = 1'-0"
140
0.375
141
12.0
290
     0
  0
SCALE
  5
66
102
{ACAD_REACTORS
330
4B
102
}
330
4B
100
AcDbScale
 70
     0
300
1/2" = 1'-0"
140
0.5
141
12.0
290
     0
  0
SCALE
  5
67
102
{ACAD_REACTORS
330
4B
102
}
330
4B
100
AcDbScale
 70
     0
300
3/4" = 1'-0"
140
0.75
141
12.0
290
     0
  0
SCALE
  5
68
102
{ACAD_REACTORS
330
4B
102
}
330
4B
100
AcDbScale
 70
     0
300
1" = 1'-0"
140
1.0
141
12.0
290
     0
  0
SCALE
  5
69
102
{ACAD_REACTORS
330
4B
102
}
330
4B
100
AcDbScale
 70
     0
300
1-1/2" = 1'-0"
140
1.5
141
12.0
290
     0
  0
SCALE
  5
6A
102
{ACAD_REACTORS
330
4B
102
}
330
4B
100
AcDbScale
 70
     0
300
3" = 1'-0"
140
3.0
141
12.0
290
     0
  0
SCALE
  5
6B
102
{ACAD_REACTORS
330
4B
102
}
330
4B
100
AcDbScale
 70
     0
300
6" = 1'-0"
140
6.0
141
12.0
290
     0
  0
SCALE
  5
6C
102
{ACAD_REACTORS
330
4B
102
}
330
4B
100
AcDbScale
 70
     0
300
1'-0" = 1'-0"
140
12.0
141
12.0
290
     0
  0
VISUALSTYLE
  5
2F
102
{ACAD_REACTORS
330
2A
102
}
330
2A
100
AcDbVisualStyle
  2
2dWireframe
 70
     4
 71
     0
 72
     2
 73
     0
 90
        0
 40
-0.6
 41
-30.0
 62
     5
 63
     7
 74
     1
 91
        4
 64
     7
 65
   257
 75
     1
175
     1
 42
1.0
 92
        0
 66
   257
 43
1.0
 76
     1
 77
     6
 78
     2
 67
     7
 79
     5
170
     0
171
     0
290
     0
174
     0
 93
        1
 44
0.0
173
     0
291
     0
 45
0.0
1001
ACAD
1000
AcDbSavedByObjectVersion
1070
     0
  0
VISUALSTYLE
  5
31
102
{ACAD_REACTORS
330
2A
102
}
330
2A
100
AcDbVisualStyle
  2
3D Hidden
 70
     6
 71
     1
 72
     2
 73
     2
 90
        0
 40
-0.6
 41
-30.0
 62
     5
 63
     7
 74
     2
 91
        2
 64
     7
 65
   257
 75
     2
175
     1
 42
40.0
 92
        0
 66
   257
 43
1.0
 76
     1
 77
     6
 78
     2
 67
     7
 79
     3
170
     0
171
     0
290
     0
174
     0
 93
        1
 44
0.0
173
     0
291
     0
 45
0.0
1001
ACAD
1000
AcDbSavedByObjectVersion
1070
     0
  0
VISUALSTYLE
  5
30
102
{ACAD_REACTORS
330
2A
102
}
330
2A
100
AcDbVisualStyle
  2
3dWireframe
 70
     5
 71
     0
 72
     2
 73
     0
 90
        0
 40
-0.6
 41
-30.0
 62
     5
 63
     7
 74
     1
 91
        4
 64
     7
 65
   257
 75
     1
175
     1
 42
1.0
 92
        0
 66
   257
 43
1.0
 76
     1
 77
     6
 78
     2
 67
     7
 79
     5
170
     0
171
     0
290
     0
174
     0
 93
        1
 44
0.0
173
     0
291
     0
 45
0.0
1001
ACAD
1000
AcDbSavedByObjectVersion
1070
     0
  0
VISUALSTYLE
  5
32
102
{ACAD_REACTORS
330
2A
102
}
330
2A
100
AcDbVisualStyle
  2
Basic
 70
     7
 71
     1
 72
     0
 73
     1
 90
        0
 40
-0.6
 41
-30.0
 62
     5
 63
     7
 74
     0
 91
        4
 64
     7
 65
   257
 75
     1
175
     1
 42
1.0
 92
        8
 66
     7
 43
1.0
 76
     1
 77
     6
 78
     2
 67
     7
 79
     5
170
     0
171
     0
290
     0
174
     0
 93
        1
 44
0.0
173
     0
291
     1
 45
0.0
1001
ACAD
1000
AcDbSavedByObjectVersion
1070
     0
  0
VISUALSTYLE
  5
36
102
{ACAD_REACTORS
330
2A
102
}
330
2A
100
AcDbVisualStyle
  2
Brighten
 70
    12
 71
     2
 72
     2
 73
     0
 90
        0
 40
-0.6
 41
-30.0
 62
     5
 63
     7
 74
     1
 91
        4
 64
     7
 65
   257
 75
     1
175
     1
 42
1.0
 92
        8
 66
     7
 43
1.0
 76
     1
 77
     6
 78
     2
 67
     7
 79
     5
170
     0
171
     0
290
     0
174
     0
 93
        1
 44
50.0
173
     0
291
     1
 45
0.0
1001
ACAD
1000
AcDbSavedByObjectVersion
1070
     0
  0
VISUALSTYLE
  5
3A
102
{ACAD_REACTORS
330
2A
102
}
330
2A
100
AcDbVisualStyle
  2
ColorChange
 70
    16
 71
     2
 72
     2
 73
     3
 90
        0
 40
-0.6
 41
-30.0
 62
     5
 63
     8
 74
     1
 91
        4
 64
     7
 65
   257
 75
     1
175
     1
 42
1.0
 92
        8
 66
     8
 43
1.0
 76
     1
 77
     6
 78
     2
 67
     7
 79
     5
170
     0
171
     0
290
     0
174
     0
 93
        1
 44
0.0
173
     0
291
     1
 45
0.0
1001
ACAD
1000
AcDbSavedByObjectVersion
1070
     0
  0
VISUALSTYLE
  5
34
102
{ACAD_REACTORS
330
2A
102
}
330
2A
100
AcDbVisualStyle
  2
Conceptual
 70
     9
 71
     3
 72
     2
 73
     0
 90
        0
 40
-0.6
 41
-30.0
 62
     5
 63
     7
 74
     2
 91
        2
 64
     7
 65
   257
 75
     1
175
     1
 42
40.0
 92
        8
 66
     7
 43
1.0
 76
     1
 77
     6
 78
     2
 67
     7
 79
     3
170
     0
171
     0
290
     0
174
     0
 93
        1
 44
0.0
173
     0
291
     0
 45
0.0
1001
ACAD
1000
AcDbSavedByObjectVersion
1070
     0
  0
VISUALSTYLE
  5
35
102
{ACAD_REACTORS
330
2A
102
}
330
2A
100
AcDbVisualStyle
  2
Dim
 70
    11
 71
     2
 72
     2
 73
     0
 90
        0
 40
-0.6
 41
-30.0
 62
     5
 63
     7
 74
     1
 91
        4
 64
     7
 65
   257
 75
     1
175
     1
 42
1.0
 92
        8
 66
     7
 43
1.0
 76
     1
 77
     6
 78
     2
 67
     7
 79
     5
170
     0
171
     0
290
     0
174
     0
 93
        1
 44
-50.0
173
     0
291
     1
 45
0.0
1001
ACAD
1000
AcDbSavedByObjectVersion
1070
     0
  0
VISUALSTYLE
  5
39
102
{ACAD_REACTORS
330
2A
102
}
330
2A
100
AcDbVisualStyle
  2
Facepattern
 70
    15
 71
     2
 72
     2
 73
     0
 90
        0
 40
-0.6
 41
-30.0
 62
     5
 63
     7
 74
     1
 91
        4
 64
     7
 65
   257
 75
     1
175
     1
 42
1.0
 92
        8
 66
     7
 43
1.0
 76
     1
 77
     6
 78
     2
 67
     7
 79
     5
170
     0
171
     0
290
     0
174
     0
 93
        1
 44
0.0
173
     0
291
     1
 45
0.0
1001
ACAD
1000
AcDbSavedByObjectVersion
1070
     0
  0
VISUALSTYLE
  5
2B
102
{ACAD_REACTORS
330
2A
102
}
330
2A
100
AcDbVisualStyle
  2
Flat
 70
     0
 71
     2
 72
     1
 73
     1
 90
        2
 40
-0.6
 41
30.0
 62
     5
 63
     7
 74
     0
 91
        4
 64
     7
 65
   257
 75
     1
175
     1
 42
1.0
 92
        8
 66
     7
 43
1.0
 76
     1
 77
     6
 78
     2
 67
     7
 79
     5
170
     0
171
     0
290
     0
174
     0
 93
       13
 44
0.0
173
     0
291
     1
 45
0.0
1001
ACAD
1000
AcDbSavedByObjectVersion
1070
     0
  0
VISUALSTYLE
  5
2C
102
{ACAD_REACTORS
330
2A
102
}
330
2A
100
AcDbVisualStyle
  2
FlatWithEdges
 70
     1
 71
     2
 72
     1
 73
     1
 90
        2
 40
-0.6
 41
30.0
 62
     5
 63
     7
 74
     1
 91
        4
 64
     7
 65
   257
 75
     1
175
     1
 42
1.0
 92
        0
 66
   257
 43
1.0
 76
     1
 77
     6
 78
     2
 67
     7
 79
     5
170
     0
171
     0
290
     0
174
     0
 93
       13
 44
0.0
173
     0
291
     1
 45
0.0
1001
ACAD
1000
AcDbSavedByObjectVersion
1070
     0
  0
VISUALSTYLE
  5
2D
102
{ACAD_REACTORS
330
2A
102
}
330
2A
100
AcDbVisualStyle
  2
Gouraud
 70
     2
 71
     2
 72
     2
 73
     1
 90
        2
 40
-0.6
 41
30.0
 62
     5
 63
     7
 74
     0
 91
        4
 64
     7
 65
   257
 75
     1
175
     1
 42
1.0
 92
        0
 66
     7
 43
1.0
 76
     1
 77
     6
 78
     2
 67
     7
 79
     5
170
     0
171
     0
290
     0
174
     0
 93
       13
 44
0.0
173
     0
291
     1
 45
0.0
1001
ACAD
1000
AcDbSavedByObjectVersion
1070
     0
  0
VISUALSTYLE
  5
2E
102
{ACAD_REACTORS
330
2A
102
}
330
2A
100
AcDbVisualStyle
  2
GouraudWithEdges
 70
     3
 71
     2
 72
     2
 73
     1
 90
        2
 40
-0.6
 41
30.0
 62
     5
 63
     7
 74
     1
 91
        4
 64
     7
 65
   257
 75
     1
175
     1
 42
1.0
 92
        0
 66
   257
 43
1.0
 76
     1
 77
     6
 78
     2
 67
     7
 79
     5
170
     0
171
     0
290
     0
174
     0
 93
       13
 44
0.0
173
     0
291
     1
 45
0.0
1001
ACAD
1000
AcDbSavedByObjectVersion
1070
     0
  0
VISUALSTYLE
  5
38
102
{ACAD_REACTORS
330
2A
102
}
330
2A
100
AcDbVisualStyle
  2
Linepattern
 70
    14
 71
     2
 72
     2
 73
     0
 90
        0
 40
-0.6
 41
-30.0
 62
     5
 63
     7
 74
     1
 91
        4
 64
     7
 65
   257
 75
     7
175
     7
 42
1.0
 92
        8
 66
     7
 43
1.0
 76
     1
 77
     6
 78
     2
 67
     7
 79
     5
170
     0
171
     0
290
     0
174
     0
 93
        1
 44
0.0
173
     0
291
     1
 45
0.0
1001
ACAD
1000
AcDbSavedByObjectVersion
1070
     0
  0
VISUALSTYLE
  5
33
102
{ACAD_REACTORS
330
2A
102
}
330
2A
100
AcDbVisualStyle
  2
Realistic
 70
     8
 71
     2
 72
     2
 73
     0
 90
        0
 40
-0.6
 41
-30.0
 62
     5
 63
     7
 74
     1
 91
        0
 64
     7
 65
   257
 75
     1
175
     1
 42
1.0
 92
        8
 66
     8
 43
1.0
 76
     1
 77
     6
 78
     2
 67
     7
 79
     5
170
     0
171
     0
290
     0
174
     0
 93
       13
 44
0.0
173
     0
291
     0
 45
0.0
1001
ACAD
1000
AcDbSavedByObjectVersion
1070
     0
  0
VISUALSTYLE
  5
37
102
{ACAD_REACTORS
330
2A
102
}
330
2A
100
AcDbVisualStyle
  2
Thicken
 70
    13
 71
     2
 72
     2
 73
     0
 90
        0
 40
-0.6
 41
-30.0
 62
     5
 63
     7
 74
     1
 91
        4
 64
     7
 65
   257
 75
     1
175
     1
 42
1.0
 92
       12
 66
     7
 43
1.0
 76
     1
 77
     6
 78
     2
 67
     7
 79
     5
170
     0
171
     0
290
     0
174
     0
 93
        1
 44
0.0
173
     0
291
     1
 45
0.0
1001
ACAD
1000
AcDbSavedByObjectVersion
1070
     0
  0
DICTIONARYVAR
  5
149
102
{ACAD_REACTORS
330
146
102
}
330
146
100
DictionaryVariables
280
     0
  1
1:1
  0
ENDSEC
  0
EOF
