  0
SECTION
  2
HEADER
  9
$ACADVER
  1
AC1015
  9
$ACADMAINTVER
 70
     6
  9
$DWGCODEPAGE
  3
ANSI_1252
  9
$INSBASE
 10
0.0
 20
0.0
 30
0.0
  9
$EXTMIN
 10
3.585959060477
 20
257.0311496253
 30
0.0
  9
$EXTMAX
 10
257.147491917732
 20
385.138702097783
 30
0.0
  9
$LIMMIN
 10
0.0
 20
0.0
  9
$LIMMAX
 10
12.0
 20
9.0
  9
$ORTHOMODE
 70
     0
  9
$REGENMODE
 70
     1
  9
$FILLMODE
 70
     1
  9
$QTEXTMODE
 70
     0
  9
$MIRRTEXT
 70
     1
  9
$LTSCALE
 40
1.0
  9
$ATTMODE
 70
     1
  9
$TEXTSIZE
 40
0.2
  9
$TRACEWID
 40
0.05
  9
$TEXTSTYLE
  7
Standard
  9
$CLAYER
  8
0
  9
$CELTYPE
  6
ByLayer
  9
$CECOLOR
 62
   256
  9
$CELTSCALE
 40
1.0
  9
$DISPSILH
 70
     0
  9
$DIMSCALE
 40
1.0
  9
$DIMASZ
 40
0.18
  9
$DIMEXO
 40
0.0625
  9
$DIMDLI
 40
0.38
  9
$DIMRND
 40
0.0
  9
$DIMDLE
 40
0.0
  9
$DIMEXE
 40
0.18
  9
$DIMTP
 40
0.0
  9
$DIMTM
 40
0.0
  9
$DIMTXT
 40
0.18
  9
$DIMCEN
 40
0.09
  9
$DIMTSZ
 40
0.0
  9
$DIMTOL
 70
     0
  9
$DIMLIM
 70
     0
  9
$DIMTIH
 70
     1
  9
$DIMTOH
 70
     1
  9
$DIMSE1
 70
     0
  9
$DIMSE2
 70
     0
  9
$DIMTAD
 70
     0
  9
$DIMZIN
 70
     0
  9
$DIMBLK
  1

  9
$DIMASO
 70
     1
  9
$DIMSHO
 70
     1
  9
$DIMPOST
  1

  9
$DIMAPOST
  1

  9
$DIMALT
 70
     0
  9
$DIMALTD
 70
     2
  9
$DIMALTF
 40
25.4
  9
$DIMLFAC
 40
1.0
  9
$DIMTOFL
 70
     0
  9
$DIMTVP
 40
0.0
  9
$DIMTIX
 70
     0
  9
$DIMSOXD
 70
     0
  9
$DIMSAH
 70
     0
  9
$DIMBLK1
  1

  9
$DIMBLK2
  1

  9
$DIMSTYLE
  2
Standard
  9
$DIMCLRD
 70
     0
  9
$DIMCLRE
 70
     0
  9
$DIMCLRT
 70
     0
  9
$DIMTFAC
 40
1.0
  9
$DIMGAP
 40
0.09
  9
$DIMJUST
 70
     0
  9
$DIMSD1
 70
     0
  9
$DIMSD2
 70
     0
  9
$DIMTOLJ
 70
     1
  9
$DIMTZIN
 70
     0
  9
$DIMALTZ
 70
     0
  9
$DIMALTTZ
 70
     0
  9
$DIMUPT
 70
     0
  9
$DIMDEC
 70
     4
  9
$DIMTDEC
 70
     4
  9
$DIMALTU
 70
     2
  9
$DIMALTTD
 70
     2
  9
$DIMTXSTY
  7
Standard
  9
$DIMAUNIT
 70
     0
  9
$DIMADEC
 70
     0
  9
$DIMALTRND
 40
0.0
  9
$DIMAZIN
 70
     0
  9
$DIMDSEP
 70
    46
  9
$DIMATFIT
 70
     3
  9
$DIMFRAC
 70
     0
  9
$DIMLDRBLK
  1

  9
$DIMLUNIT
 70
     2
  9
$DIMLWD
 70
    -2
  9
$DIMLWE
 70
    -2
  9
$DIMTMOVE
 70
     0
  9
$LUNITS
 70
     2
  9
$LUPREC
 70
     4
  9
$SKETCHINC
 40
0.1
  9
$FILLETRAD
 40
0.5
  9
$AUNITS
 70
     0
  9
$AUPREC
 70
     0
  9
$MENU
  1
.
  9
$ELEVATION
 40
0.0
  9
$PELEVATION
 40
0.0
  9
$THICKNESS
 40
0.0
  9
$LIMCHECK
 70
     0
  9
$CHAMFERA
 40
0.5
  9
$CHAMFERB
 40
0.5
  9
$CHAMFERC
 40
1.0
  9
$CHAMFERD
 40
0.0
  9
$SKPOLY
 70
     0
  9
$TDCREATE
 40
2456748.734431701
  9
$TDUCREATE
 40
2456748.651098368
  9
$TDUPDATE
 40
2456748.734431713
  9
$TDUUPDATE
 40
2456748.651098379
  9
$TDINDWG
 40
0.0000000116
  9
$TDUSRTIMER
 40
0.0000000116
  9
$USRTIMER
 70
     1
  9
$ANGBASE
 50
0.0
  9
$ANGDIR
 70
     0
  9
$PDMODE
 70
     0
  9
$PDSIZE
 40
0.0
  9
$PLINEWID
 40
0.0
  9
$SPLFRAME
 70
     0
  9
$SPLINETYPE
 70
     6
  9
$SPLINESEGS
 70
     8
  9
$HANDSEED
  5
14A
  9
$SURFTAB1
 70
     6
  9
$SURFTAB2
 70
     6
  9
$SURFTYPE
 70
     6
  9
$SURFU
 70
     6
  9
$SURFV
 70
     6
  9
$UCSBASE
  2

  9
$UCSNAME
  2

  9
$UCSORG
 10
0.0
 20
0.0
 30
0.0
  9
$UCSXDIR
 10
1.0
 20
0.0
 30
0.0
  9
$UCSYDIR
 10
0.0
 20
1.0
 30
0.0
  9
$UCSORTHOREF
  2

  9
$UCSORTHOVIEW
 70
     0
  9
$UCSORGTOP
 10
0.0
 20
0.0
 30
0.0
  9
$UCSORGBOTTOM
 10
0.0
 20
0.0
 30
0.0
  9
$UCSORGLEFT
 10
0.0
 20
0.0
 30
0.0
  9
$UCSORGRIGHT
 10
0.0
 20
0.0
 30
0.0
  9
$UCSORGFRONT
 10
0.0
 20
0.0
 30
0.0
  9
$UCSORGBACK
 10
0.0
 20
0.0
 30
0.0
  9
$PUCSBASE
  2

  9
$PUCSNAME
  2

  9
$PUCSORG
 10
0.0
 20
0.0
 30
0.0
  9
$PUCSXDIR
 10
1.0
 20
0.0
 30
0.0
  9
$PUCSYDIR
 10
0.0
 20
1.0
 30
0.0
  9
$PUCSORTHOREF
  2

  9
$PUCSORTHOVIEW
 70
     0
  9
$PUCSORGTOP
 10
0.0
 20
0.0
 30
0.0
  9
$PUCSORGBOTTOM
 10
0.0
 20
0.0
 30
0.0
  9
$PUCSORGLEFT
 10
0.0
 20
0.0
 30
0.0
  9
$PUCSORGRIGHT
 10
0.0
 20
0.0
 30
0.0
  9
$PUCSORGFRONT
 10
0.0
 20
0.0
 30
0.0
  9
$PUCSORGBACK
 10
0.0
 20
0.0
 30
0.0
  9
$USERI1
 70
     0
  9
$USERI2
 70
     0
  9
$USERI3
 70
     0
  9
$USERI4
 70
     0
  9
$USERI5
 70
     0
  9
$USERR1
 40
16.5
  9
$USERR2
 40
0.0
  9
$USERR3
 40
0.0
  9
$USERR4
 40
0.0
  9
$USERR5
 40
0.0
  9
$WORLDVIEW
 70
     1
  9
$SHADEDGE
 70
     3
  9
$SHADEDIF
 70
    70
  9
$TILEMODE
 70
     1
  9
$MAXACTVP
 70
    64
  9
$PINSBASE
 10
0.0
 20
0.0
 30
0.0
  9
$PLIMCHECK
 70
     0
  9
$PEXTMIN
 10
1.00000000000000E+20
 20
1.00000000000000E+20
 30
1.00000000000000E+20
  9
$PEXTMAX
 10
-1.00000000000000E+20
 20
-1.00000000000000E+20
 30
-1.00000000000000E+20
  9
$PLIMMIN
 10
0.0
 20
0.0
  9
$PLIMMAX
 10
12.0
 20
9.0
  9
$UNITMODE
 70
     0
  9
$VISRETAIN
 70
     1
  9
$PLINEGEN
 70
     0
  9
$PSLTSCALE
 70
     1
  9
$TREEDEPTH
 70
  3020
  9
$CMLSTYLE
  2
Standard
  9
$CMLJUST
 70
     0
  9
$CMLSCALE
 40
1.0
  9
$PROXYGRAPHICS
 70
     1
  9
$MEASUREMENT
 70
     1
  9
$CELWEIGHT
370
    -1
  9
$ENDCAPS
280
     0
  9
$JOINSTYLE
280
     0
  9
$LWDISPLAY
290
     0
  9
$INSUNITS
 70
     1
  9
$HYPERLINKBASE
  1

  9
$STYLESHEET
  1

  9
$XEDIT
290
     1
  9
$CEPSNTYPE
380
     0
  9
$PSTYLEMODE
290
     1
  9
$FINGERPRINTGUID
  2
{ADB4774D-C327-4191-B641-A5B438EF3F2F}
  9
$VERSIONGUID
  2
{FAEB1C32-E019-11D5-929B-00C0DF256EC4}
  9
$EXTNAMES
290
     1
  9
$PSVPSCALE
 40
0.0
  9
$OLESTARTUP
290
     0
  0
ENDSEC
  0
SECTION
  2
CLASSES
  0
CLASS
  1
ACDBDICTIONARYWDFLT
  2
AcDbDictionaryWithDefault
  3
ObjectDBX Classes
 90
        0
280
     0
281
     0
  0
CLASS
  1
VISUALSTYLE
  2
AcDbVisualStyle
  3
ObjectDBX Classes
 90
     4095
280
     0
281
     0
  0
CLASS
  1
SCALE
  2
AcDbScale
  3
ObjectDBX Classes
 90
     1153
280
     0
281
     0
  0
CLASS
  1

  2
exOdDbPolyline
  3

 90
        0
280
     0
281
     1
  0
CLASS
  1

  2
exOdDbCircle
  3

 90
        0
280
     0
281
     1
  0
CLASS
  1

  2
exOdDbSpline
  3

 90
        0
280
     0
281
     1
  0
CLASS
  1
DICTIONARYVAR
  2
AcDbDictionaryVar
  3
ObjectDBX Classes
 90
        0
280
     0
281
     0
  0
CLASS
  1
ACDBPLACEHOLDER
  2
AcDbPlaceHolder
  3
ObjectDBX Classes
 90
        0
280
     0
281
     0
  0
CLASS
  1
LAYOUT
  2
AcDbLayout
  3
ObjectDBX Classes
 90
        0
280
     0
281
     0
  0
ENDSEC
  0
SECTION
  2
TABLES
  0
TABLE
  2
VPORT
  5
8
330
0
100
AcDbSymbolTable
 70
     1
  0
VPORT
  5
29
330
8
100
AcDbSymbolTableRecord
100
AcDbViewportTableRecord
  2
*Active
 70
     0
 10
0.0
 20
0.0
 11
1.0
 21
1.0
 12
130.3667254891045
 22
321.0849258615415
 13
0.0
 23
0.0
 14
0.5
 24
0.5
 15
0.5
 25
0.5
 16
0.0
 26
0.0
 36
1.0
 17
0.0
 27
0.0
 37
0.0
 40
174.0322052814141
 41
1.60267857142857
 42
50.0
 43
0.0
 44
0.0
 50
0.0
 51
0.0
 71
     0
 72
   100
 73
     1
 74
     3
 75
     0
 76
     0
 77
     0
 78
     0
281
     0
 65
     1
110
0.0
120
0.0
130
0.0
111
1.0
121
0.0
131
0.0
112
0.0
122
1.0
132
0.0
 79
     0
146
0.0
  0
ENDTAB
  0
TABLE
  2
LTYPE
  5
5
330
0
100
AcDbSymbolTable
 70
     8
  0
LTYPE
  5
14
330
5
100
AcDbSymbolTableRecord
100
AcDbLinetypeTableRecord
  2
ByBlock
 70
     0
  3

 72
    65
 73
     0
 40
0.0
  0
LTYPE
  5
15
330
5
100
AcDbSymbolTableRecord
100
AcDbLinetypeTableRecord
  2
ByLayer
 70
     0
  3

 72
    65
 73
     0
 40
0.0
  0
LTYPE
  5
16
330
5
100
AcDbSymbolTableRecord
100
AcDbLinetypeTableRecord
  2
Continuous
 70
     0
  3
Solid line
 72
    65
 73
     0
 40
0.0
  0
LTYPE
  5
3B
330
5
100
AcDbSymbolTableRecord
100
AcDbLinetypeTableRecord
  2
DASHED
 70
     0
  3
Dashed
 72
    65
 73
     2
 40
15.0
 49
7.0
 74
     0
 49
-8.0
 74
     0
  0
LTYPE
  5
3C
330
5
100
AcDbSymbolTableRecord
100
AcDbLinetypeTableRecord
  2
DOTTED
 70
     0
  3
Dotted
 72
    65
 73
     2
 40
1.0
 49
0.0
 74
     0
 49
-1.0
 74
     0
  0
LTYPE
  5
3D
330
5
100
AcDbSymbolTableRecord
100
AcDbLinetypeTableRecord
  2
DOT_CENTER
 70
     0
  3
Dot_Center
 72
    65
 73
     4
 40
14.0
 49
12.0
 74
     0
 49
-1.0
 74
     0
 49
0.0
 74
     0
 49
-1.0
 74
     0
  0
LTYPE
  5
3E
330
5
100
AcDbSymbolTableRecord
100
AcDbLinetypeTableRecord
  2
LONG_DASHED
 70
     0
  3
Long_Dashed
 72
    65
 73
     2
 40
15.0
 49
10.0
 74
     0
 49
-5.0
 74
     0
  0
LTYPE
  5
3F
330
5
100
AcDbSymbolTableRecord
100
AcDbLinetypeTableRecord
  2
DASH_CENTER
 70
     0
  3
Dash_Center
 72
    65
 73
     4
 40
14.0
 49
11.0
 74
     0
 49
-1.0
 74
     0
 49
1.0
 74
     0
 49
-1.0
 74
     0
  0
LTYPE
  5
40
330
5
100
AcDbSymbolTableRecord
100
AcDbLinetypeTableRecord
  2
PHANTOM
 70
     0
  3
Phantom
 72
    65
 73
     6
 40
13.0
 49
10.0
 74
     0
 49
-1.0
 74
     0
 49
0.0
 74
     0
 49
-1.0
 74
     0
 49
0.0
 74
     0
 49
-1.0
 74
     0
  0
LTYPE
  5
41
330
5
100
AcDbSymbolTableRecord
100
AcDbLinetypeTableRecord
  2
CENTER_DASH_DASH
 70
     0
  3
Center_Dash_Dash
 72
    65
 73
     6
 40
14.0
 49
9.0
 74
     0
 49
-1.0
 74
     0
 49
1.0
 74
     0
 49
-1.0
 74
     0
 49
1.0
 74
     0
 49
-1.0
 74
     0
  0
ENDTAB
  0
TABLE
  2
LAYER
  5
2
330
0
100
AcDbSymbolTable
 70
     7
  0
LAYER
  5
10
330
2
100
AcDbSymbolTableRecord
100
AcDbLayerTableRecord
  2
0
 70
     0
 62
     7
  6
Continuous
370
    -3
390
F
  0
LAYER
  5
42
330
2
100
AcDbSymbolTableRecord
100
AcDbLayerTableRecord
  2
1
 70
     0
 62
     7
  6
Continuous
370
    -3
390
F
  0
LAYER
  5
43
330
2
100
AcDbSymbolTableRecord
100
AcDbLayerTableRecord
  2
BEZUGSACHSEN
 70
     0
 62
     7
  6
Continuous
370
    -3
390
F
  0
LAYER
  5
44
330
2
100
AcDbSymbolTableRecord
100
AcDbLayerTableRecord
  2
DEFAULT_2
 70
     0
 62
     7
  6
Continuous
370
    -3
390
F
  0
LAYER
  5
45
330
2
100
AcDbSymbolTableRecord
100
AcDbLayerTableRecord
  2
FASEN
 70
     0
 62
     7
  6
Continuous
370
    -3
390
F
  0
LAYER
  5
46
330
2
100
AcDbSymbolTableRecord
100
AcDbLayerTableRecord
  2
GEWINDE
 70
     0
 62
     7
  6
Continuous
370
    -3
390
F
  0
LAYER
  5
47
330
2
100
AcDbSymbolTableRecord
100
AcDbLayerTableRecord
  2
RUNDUNGEN
 70
     0
 62
     7
  6
Continuous
370
    -3
390
F
  0
ENDTAB
  0
TABLE
  2
STYLE
  5
3
330
0
100
AcDbSymbolTable
 70
     2
  0
STYLE
  5
11
330
3
100
AcDbSymbolTableRecord
100
AcDbTextStyleTableRecord
  2
Standard
 70
     0
 40
0.0
 41
1.0
 50
0.0
 71
     0
 42
0.2
  3
txt
  4

  0
STYLE
  5
6E
330
3
100
AcDbSymbolTableRecord
100
AcDbTextStyleTableRecord
  2
CONVERTER_11
 70
     0
 40
0.0
 41
0.72
 50
0.0
 71
     0
 42
0.2
  3
txt.shx
  4

  0
ENDTAB
  0
TABLE
  2
VIEW
  5
6
330
0
100
AcDbSymbolTable
 70
     0
  0
ENDTAB
  0
TABLE
  2
UCS
  5
7
330
0
100
AcDbSymbolTable
 70
     0
  0
ENDTAB
  0
TABLE
  2
APPID
  5
9
330
0
100
AcDbSymbolTable
 70
     1
  0
APPID
  5
12
330
9
100
AcDbSymbolTableRecord
100
AcDbRegAppTableRecord
  2
ACAD
 70
     0
  0
ENDTAB
  0
TABLE
  2
DIMSTYLE
  5
A
330
0
100
AcDbSymbolTable
 70
     6
100
AcDbDimStyleTable
  0
DIMSTYLE
105
27
330
A
100
AcDbSymbolTableRecord
100
AcDbDimStyleTableRecord
  2
Standard
 70
     0
340
11
  0
DIMSTYLE
105
111
102
{ACAD_REACTORS
330
112
102
}
330
A
100
AcDbSymbolTableRecord
100
AcDbDimStyleTableRecord
  2
ME10_DIM_10
 70
     0
  3
\U+2300<>
 41
3.5
 42
2.0
 44
2.0
 71
     1
 73
     0
 74
     0
 77
     1
 78
     8
140
3.5
146
0.7
147
2.0
172
     1
173
     1
176
     2
177
     2
178
     3
271
     2
272
     0
340
6E
  0
DIMSTYLE
105
11C
102
{ACAD_REACTORS
330
11D
102
}
330
A
100
AcDbSymbolTableRecord
100
AcDbDimStyleTableRecord
  2
ME10_DIM_11
 70
     0
  3
\U+2300<>
 41
3.5
 42
2.0
 44
2.0
 71
     1
 73
     0
 74
     0
 77
     1
 78
     8
140
3.5
146
0.7
147
2.0
172
     1
173
     1
176
     2
177
     2
178
     3
271
     2
272
     0
340
6E
  0
DIMSTYLE
105
127
102
{ACAD_REACTORS
330
128
102
}
330
A
100
AcDbSymbolTableRecord
100
AcDbDimStyleTableRecord
  2
ME10_DIM_12
 70
     0
  3
<>
 41
3.5
 42
2.0
 44
2.0
 71
     1
 73
     0
 74
     0
 77
     1
 78
     8
140
3.5
146
0.7
147
2.0
172
     1
173
     1
176
     2
177
     2
178
     3
271
     2
272
     0
340
6E
  0
DIMSTYLE
105
132
102
{ACAD_REACTORS
330
133
102
}
330
A
100
AcDbSymbolTableRecord
100
AcDbDimStyleTableRecord
  2
ME10_DIM_13
 70
     0
  3
<>
 41
3.5
 42
2.0
 44
2.0
 71
     1
 73
     0
 74
     0
 77
     1
 78
     8
140
3.5
146
0.7
147
2.0
172
     1
173
     1
176
     2
177
     2
178
     3
271
     2
272
     0
340
6E
  0
DIMSTYLE
105
13D
102
{ACAD_REACTORS
330
13E
102
}
330
A
100
AcDbSymbolTableRecord
100
AcDbDimStyleTableRecord
  2
ME10_DIM_14
 70
     0
  3
<>
 41
3.5
 42
2.0
 44
2.0
 71
     1
 73
     0
 74
     0
 77
     1
 78
     8
140
3.5
146
0.7
147
2.0
172
     1
173
     1
176
     2
177
     2
178
     3
271
     2
272
     0
340
6E
  0
ENDTAB
  0
TABLE
  2
BLOCK_RECORD
  5
1
330
0
100
AcDbSymbolTable
 70
     8
  0
BLOCK_RECORD
  5
1F
330
1
100
AcDbSymbolTableRecord
100
AcDbBlockTableRecord
  2
*Model_Space
340
22
  0
BLOCK_RECORD
  5
1B
330
1
100
AcDbSymbolTableRecord
100
AcDbBlockTableRecord
  2
*Paper_Space
340
1E
  0
BLOCK_RECORD
  5
23
330
1
100
AcDbSymbolTableRecord
100
AcDbBlockTableRecord
  2
*Paper_Space0
340
26
  0
BLOCK_RECORD
  5
48
330
1
100
AcDbSymbolTableRecord
100
AcDbBlockTableRecord
  2
Urheberrecht_DE-EN
340
0
102
{BLKREFS
331
6D
102
}
  0
BLOCK_RECORD
  5
108
330
1
100
AcDbSymbolTableRecord
100
AcDbBlockTableRecord
  2
*D2
340
0
  0
BLOCK_RECORD
  5
113
330
1
100
AcDbSymbolTableRecord
100
AcDbBlockTableRecord
  2
*D3
340
0
  0
BLOCK_RECORD
  5
11E
330
1
100
AcDbSymbolTableRecord
100
AcDbBlockTableRecord
  2
*D4
340
0
  0
BLOCK_RECORD
  5
129
330
1
100
AcDbSymbolTableRecord
100
AcDbBlockTableRecord
  2
*D5
340
0
  0
BLOCK_RECORD
  5
134
330
1
100
AcDbSymbolTableRecord
100
AcDbBlockTableRecord
  2
*D6
340
0
  0
BLOCK_RECORD
  5
13F
330
1
100
AcDbSymbolTableRecord
100
AcDbBlockTableRecord
  2
*D7
340
0
102
{BLKREFS
331
145
102
}
  0
ENDTAB
  0
ENDSEC
  0
SECTION
  2
BLOCKS
  0
BLOCK
  5
20
330
1F
100
AcDbEntity
  8
0
100
AcDbBlockBegin
  2
*Model_Space
 70
     0
 10
0.0
 20
0.0
 30
0.0
  3
*Model_Space
  1

  0
ENDBLK
  5
21
330
1F
100
AcDbEntity
  8
0
100
AcDbBlockEnd
  0
BLOCK
  5
1C
330
1B
100
AcDbEntity
 67
     1
  8
0
100
AcDbBlockBegin
  2
*Paper_Space
 70
     0
 10
0.0
 20
0.0
 30
0.0
  3
*Paper_Space
  1

  0
ENDBLK
  5
1D
330
1B
100
AcDbEntity
 67
     1
  8
0
100
AcDbBlockEnd
  0
BLOCK
  5
24
330
23
100
AcDbEntity
  8
0
100
AcDbBlockBegin
  2
*Paper_Space0
 70
     0
 10
0.0
 20
0.0
 30
0.0
  3
*Paper_Space0
  1

  0
ENDBLK
  5
25
330
23
100
AcDbEntity
  8
0
100
AcDbBlockEnd
  0
BLOCK
  5
49
330
48
100
AcDbEntity
  8
0
100
AcDbBlockBegin
  2
Urheberrecht_DE-EN
 70
     0
 10
17.585959060477
 20
320.648145693631
 30
0.0
  3
Urheberrecht_DE-EN
  1

  0
MTEXT
  5
6F
330
48
100
AcDbEntity
  8
1
 62
     1
100
AcDbMText
 10
17.585959060477
 20
320.648145693631
 30
0.0
 40
2.0
 41
0.0
 71
     7
 72
     1
  1
We own the copyright of this document. It \Pdetermined and may neither be copied or \Pmade accessible to outsiders without our\Ppermission.
  7
CONVERTER_11
 11
0.0
 21
1.0
 31
0.0
 73
     1
 44
0.90036014405762
  0
MTEXT
  5
70
330
48
100
AcDbEntity
  8
1
 62
     1
100
AcDbMText
 10
17.585959060477
 20
264.3587587763248
 30
0.0
 40
2.0
 41
0.0
 71
     7
 72
     1
  1
F\U+00fcr diese Unterlage behalten wir das Ur-\Pheberrecht. Sie darf nur f\U+00fcr den von uns \Pbestimmten Zweck benutzt und ohne unsere \PZustimmung weder vervielf\U+00e4ltigt noch\PDritten zug\U+00e4nglich gemacht werden.
  7
CONVERTER_11
 11
0.0
 21
1.0
 31
0.0
 73
     1
 44
0.90036014405762
  0
ENDBLK
  5
4A
330
48
100
AcDbEntity
  8
0
100
AcDbBlockEnd
  0
BLOCK
  5
10F
330
108
100
AcDbEntity
  8
0
100
AcDbBlockBegin
  2
*D2
 70
     1
 10
0.0
 20
0.0
 30
0.0
  3
*D2
  1

  0
LINE
  5
109
330
108
100
AcDbEntity
  8
1
  6
Continuous
 62
     2
100
AcDbLine
 10
246.84147156802
 20
314.0311496253
 30
0.0
 11
246.84147156802
 21
300.0311496253
 31
0.0
  0
LINE
  5
10A
330
108
100
AcDbEntity
  8
1
  6
Continuous
 62
     2
100
AcDbLine
 10
238.3286937901
 20
314.0311496253
 30
0.0
 11
248.84147156802
 21
314.0311496253
 31
0.0
  0
LINE
  5
10B
330
108
100
AcDbEntity
  8
1
  6
Continuous
 62
     2
100
AcDbLine
 10
238.3286937901
 20
300.0311496253
 30
0.0
 11
248.84147156802
 21
300.0311496253
 31
0.0
  0
SOLID
  5
10C
330
108
100
AcDbEntity
  8
1
 62
     2
100
AcDbTrace
 10
247.3022553095759
 20
310.5311496253
 30
0.0
 11
246.3806878264641
 21
310.5311496253
 31
0.0
 12
246.84147156802
 22
314.0311496253
 32
0.0
 13
246.84147156802
 23
314.0311496253
 33
0.0
  0
SOLID
  5
10D
330
108
100
AcDbEntity
  8
1
 62
     2
100
AcDbTrace
 10
246.3806878264641
 20
303.5311496253
 30
0.0
 11
247.3022553095759
 21
303.5311496253
 31
0.0
 12
246.84147156802
 22
300.0311496253
 32
0.0
 13
246.84147156802
 23
300.0311496253
 33
0.0
  0
MTEXT
  5
10E
330
108
100
AcDbEntity
  8
1
 62
     3
100
AcDbMText
 10
244.84147156802
 20
299.509631710801
 30
0.0
 40
3.5
 41
0.0
 71
     7
 72
     1
  1
\C3;%%c\C3;\C3;14\C2;\H2.45;\S^ ;\C3;
  7
CONVERTER_11
 11
0.0
 21
1.0
 31
0.0
 73
     1
 44
0.60024009603842
  0
ENDBLK
  5
110
330
108
100
AcDbEntity
  8
0
100
AcDbBlockEnd
  0
BLOCK
  5
11A
330
113
100
AcDbEntity
  8
0
100
AcDbBlockBegin
  2
*D3
 70
     1
 10
0.0
 20
0.0
 30
0.0
  3
*D3
  1

  0
LINE
  5
114
330
113
100
AcDbEntity
  8
1
  6
Continuous
 62
     2
100
AcDbLine
 10
255.147491917732
 20
329.0311496253
 30
0.0
 11
255.147491917732
 21
285.0311496253
 31
0.0
  0
LINE
  5
115
330
113
100
AcDbEntity
  8
1
  6
Continuous
 62
     2
100
AcDbLine
 10
225.2399576044
 20
329.0311496253
 30
0.0
 11
257.147491917732
 21
329.0311496253
 31
0.0
  0
LINE
  5
116
330
113
100
AcDbEntity
  8
1
  6
Continuous
 62
     2
100
AcDbLine
 10
225.2399576044
 20
285.0311496253
 30
0.0
 11
257.147491917732
 21
285.0311496253
 31
0.0
  0
SOLID
  5
117
330
113
100
AcDbEntity
  8
1
 62
     2
100
AcDbTrace
 10
255.6082756592879
 20
325.5311496253
 30
0.0
 11
254.6867081761761
 21
325.5311496253
 31
0.0
 12
255.147491917732
 22
329.0311496253
 32
0.0
 13
255.147491917732
 23
329.0311496253
 33
0.0
  0
SOLID
  5
118
330
113
100
AcDbEntity
  8
1
 62
     2
100
AcDbTrace
 10
254.6867081761761
 20
288.5311496253
 30
0.0
 11
255.6082756592879
 21
288.5311496253
 31
0.0
 12
255.147491917732
 22
285.0311496253
 32
0.0
 13
255.147491917732
 23
285.0311496253
 33
0.0
  0
MTEXT
  5
119
330
113
100
AcDbEntity
  8
1
 62
     3
100
AcDbMText
 10
253.147491917732
 20
299.089631710801
 30
0.0
 40
3.5
 41
0.0
 71
     7
 72
     1
  1
\C3;%%c\C3;\C3;44\C2;\H2.45;\S^ ;\C3;
  7
CONVERTER_11
 11
0.0
 21
1.0
 31
0.0
 73
     1
 44
0.60024009603842
  0
ENDBLK
  5
11B
330
113
100
AcDbEntity
  8
0
100
AcDbBlockEnd
  0
BLOCK
  5
125
330
11E
100
AcDbEntity
  8
0
100
AcDbBlockBegin
  2
*D4
 70
     1
 10
0.0
 20
0.0
 30
0.0
  3
*D4
  1

  0
LINE
  5
11F
330
11E
100
AcDbEntity
  8
1
  6
Continuous
 62
     2
100
AcDbLine
 10
236.3286937901
 20
364.483857950942
 30
0.0
 11
105.3286937901
 21
364.483857950942
 31
0.0
  0
LINE
  5
120
330
11E
100
AcDbEntity
  8
1
  6
Continuous
 62
     2
100
AcDbLine
 10
236.3286937901
 20
324.3940793645
 30
0.0
 11
236.3286937901
 21
366.483857950942
 31
0.0
  0
LINE
  5
121
330
11E
100
AcDbEntity
  8
1
  6
Continuous
 62
     2
100
AcDbLine
 10
105.3286937901
 20
359.0311127041
 30
0.0
 11
105.3286937901
 21
366.483857950942
 31
0.0
  0
SOLID
  5
122
330
11E
100
AcDbEntity
  8
1
 62
     2
100
AcDbTrace
 10
232.8286937901
 20
364.0230742093862
 30
0.0
 11
232.8286937901
 21
364.9446416924979
 31
0.0
 12
236.3286937901
 22
364.483857950942
 32
0.0
 13
236.3286937901
 23
364.483857950942
 33
0.0
  0
SOLID
  5
123
330
11E
100
AcDbEntity
  8
1
 62
     2
100
AcDbTrace
 10
108.8286937901
 20
364.9446416924979
 30
0.0
 11
108.8286937901
 21
364.0230742093862
 31
0.0
 12
105.3286937901
 22
364.483857950942
 32
0.0
 13
105.3286937901
 23
364.483857950942
 33
0.0
  0
MTEXT
  5
124
330
11E
100
AcDbEntity
  8
1
 62
     3
100
AcDbMText
 10
168.692970489069
 20
366.483857950942
 30
0.0
 40
3.5
 41
0.0
 71
     7
 72
     1
  1
\C3;\C3;\C3;131\C2;\H2.45;\S^ ;\C3;
  7
CONVERTER_11
 11
0.9999999999970619
 21
2.424068405545306E-6
 31
0.0
 73
     1
 44
0.60024009603842
  0
ENDBLK
  5
126
330
11E
100
AcDbEntity
  8
0
100
AcDbBlockEnd
  0
BLOCK
  5
130
330
129
100
AcDbEntity
  8
0
100
AcDbBlockBegin
  2
*D5
 70
     1
 10
0.0
 20
0.0
 30
0.0
  3
*D5
  1

  0
LINE
  5
12A
330
129
100
AcDbEntity
  8
1
  6
Continuous
 62
     2
100
AcDbLine
 10
236.3286937901
 20
372.061280024363
 30
0.0
 11
76.3286937901
 21
372.061280024363
 31
0.0
  0
LINE
  5
12B
330
129
100
AcDbEntity
  8
1
  6
Continuous
 62
     2
100
AcDbLine
 10
236.3286937901
 20
324.3940793645
 30
0.0
 11
236.3286937901
 21
374.061280024363
 31
0.0
  0
LINE
  5
12C
330
129
100
AcDbEntity
  8
1
  6
Continuous
 62
     2
100
AcDbLine
 10
76.3286937901
 20
359.0311496253
 30
0.0
 11
76.3286937901
 21
374.061280024363
 31
0.0
  0
SOLID
  5
12D
330
129
100
AcDbEntity
  8
1
 62
     2
100
AcDbTrace
 10
232.8286937901
 20
371.6004962828071
 30
0.0
 11
232.8286937901
 21
372.5220637659189
 31
0.0
 12
236.3286937901
 22
372.061280024363
 32
0.0
 13
236.3286937901
 23
372.061280024363
 33
0.0
  0
SOLID
  5
12E
330
129
100
AcDbEntity
  8
1
 62
     2
100
AcDbTrace
 10
79.8286937901
 20
372.5220637659189
 30
0.0
 11
79.8286937901
 21
371.6004962828071
 31
0.0
 12
76.3286937901
 22
372.061280024363
 32
0.0
 13
76.3286937901
 23
372.061280024363
 33
0.0
  0
MTEXT
  5
12F
330
129
100
AcDbEntity
  8
1
 62
     3
100
AcDbMText
 10
148.163658063452
 20
374.061280024363
 30
0.0
 40
3.5
 41
0.0
 71
     7
 72
     1
  1
\C3;\C3;\C3;160\C2;\H2.45;\S^ ;\C3;
  7
CONVERTER_11
 11
0.9999999999970619
 21
2.424068405545306E-6
 31
0.0
 73
     1
 44
0.60024009603842
  0
ENDBLK
  5
131
330
129
100
AcDbEntity
  8
0
100
AcDbBlockEnd
  0
BLOCK
  5
13B
330
134
100
AcDbEntity
  8
0
100
AcDbBlockBegin
  2
*D6
 70
     1
 10
0.0
 20
0.0
 30
0.0
  3
*D6
  1

  0
LINE
  5
135
330
134
100
AcDbEntity
  8
1
  6
Continuous
 62
     2
100
AcDbLine
 10
236.3286937901
 20
379.638702097783
 30
0.0
 11
26.3286937901
 21
379.638702097783
 31
0.0
  0
LINE
  5
136
330
134
100
AcDbEntity
  8
1
  6
Continuous
 62
     2
100
AcDbLine
 10
236.3286937901
 20
324.3940793645
 30
0.0
 11
236.3286937901
 21
381.638702097783
 31
0.0
  0
LINE
  5
137
330
134
100
AcDbEntity
  8
1
  6
Continuous
 62
     2
100
AcDbLine
 10
26.3286937901
 20
342.6313411878
 30
0.0
 11
26.3286937901
 21
381.638702097783
 31
0.0
  0
SOLID
  5
138
330
134
100
AcDbEntity
  8
1
 62
     2
100
AcDbTrace
 10
232.8286937901
 20
379.1779183562271
 30
0.0
 11
232.8286937901
 21
380.0994858393389
 31
0.0
 12
236.3286937901
 22
379.638702097783
 32
0.0
 13
236.3286937901
 23
379.638702097783
 33
0.0
  0
SOLID
  5
139
330
134
100
AcDbEntity
  8
1
 62
     2
100
AcDbTrace
 10
29.8286937901
 20
380.0994858393389
 30
0.0
 11
29.8286937901
 21
379.1779183562271
 31
0.0
 12
26.3286937901
 22
379.638702097783
 32
0.0
 13
26.3286937901
 23
379.638702097783
 33
0.0
  0
MTEXT
  5
13A
330
134
100
AcDbEntity
  8
1
 62
     3
100
AcDbMText
 10
140.149077024256
 20
381.638702097783
 30
0.0
 40
3.5
 41
0.0
 71
     7
 72
     1
  1
\C3;\C3;\C3;210\C2;\H2.45;\S^ ;\C3;
  7
CONVERTER_11
 11
0.9999999999970619
 21
2.424068405545306E-6
 31
0.0
 73
     1
 44
0.60024009603842
  0
ENDBLK
  5
13C
330
134
100
AcDbEntity
  8
0
100
AcDbBlockEnd
  0
BLOCK
  5
143
330
13F
100
AcDbEntity
  8
0
100
AcDbBlockBegin
  2
*D7
 70
     1
 10
0.0
 20
0.0
 30
0.0
  3
*D7
  1

  0
LINE
  5
140
330
13F
100
AcDbEntity
  8
1
  6
Continuous
 62
     2
100
AcDbLine
 10
116.5021491318681
 20
343.5390021604165
 30
0.0
 11
109.2095907401789
 21
334.1129760264262
 31
0.0
  0
SOLID
  5
141
330
13F
100
AcDbEntity
  8
1
 62
     2
100
AcDbTrace
 10
110.9868304297642
 20
337.1631794200124
 30
0.0
 11
111.7157231855518
 21
336.5992627803489
 31
0.0
 12
109.2095907401789
 22
334.1129760264262
 32
0.0
 13
109.2095907401789
 23
334.1129760264262
 33
0.0
  0
MTEXT
  5
142
330
13F
100
AcDbEntity
  8
1
 62
     3
100
AcDbMText
 10
109.3519110285628
 20
337.5653855786429
 30
0.0
 40
3.5
 41
0.0
 71
     7
 72
     1
  1
\C3; R\C3;\C3;10\C2;\H2.45;\S^ ;\C3;
  7
CONVERTER_11
 11
0.6119103049940231
 21
0.7909271639298536
 31
0.0
 73
     1
 44
0.60024009603842
  0
ENDBLK
  5
144
330
13F
100
AcDbEntity
  8
0
100
AcDbBlockEnd
  0
ENDSEC
  0
SECTION
  2
ENTITIES
  0
INSERT
  5
6D
330
1F
100
AcDbEntity
  8
0
100
AcDbBlockReference
  2
Urheberrecht_DE-EN
 10
17.585959060477
 20
320.648145693631
 30
0.0
  0
LINE
  5
71
330
1F
100
AcDbEntity
  8
BEZUGSACHSEN
  6
Continuous
 62
     7
100
AcDbLine
 10
26.3286937901
 20
273.4309580623
 30
0.0
 11
26.3286937901
 21
295.0211496253
 31
0.0
  0
LINE
  5
72
330
1F
100
AcDbEntity
  8
BEZUGSACHSEN
  6
Continuous
 62
     7
100
AcDbLine
 10
26.3286937901
 20
319.0411496253
 30
0.0
 11
26.3286937901
 21
340.6313411878
 31
0.0
  0
LINE
  5
73
330
1F
100
AcDbEntity
  8
BEZUGSACHSEN
  6
Continuous
 62
     9
100
AcDbLine
 10
28.2286193054
 20
342.6288358936
 30
0.0
 11
28.2286193054
 21
322.7076820115
 31
0.0
  0
LINE
  5
74
330
1F
100
AcDbEntity
  8
BEZUGSACHSEN
  6
Continuous
 62
     9
100
AcDbLine
 10
28.2286193054
 20
291.354617239
 30
0.0
 11
28.2286193054
 21
271.433463357
 31
0.0
  0
LINE
  5
75
330
1F
100
AcDbEntity
  8
BEZUGSACHSEN
  6
Continuous
 62
     7
100
AcDbLine
 10
28.3286937901
 20
294.6275096769
 30
0.0
 11
28.3286937901
 21
297.0211496253
 31
0.0
  0
LINE
  5
76
330
1F
100
AcDbEntity
  8
BEZUGSACHSEN
  6
Continuous
 62
     7
100
AcDbLine
 10
28.3286937901
 20
317.0411496253
 30
0.0
 11
28.3286937901
 21
319.4347895736
 31
0.0
  0
LINE
  5
77
330
1F
100
AcDbEntity
  8
BEZUGSACHSEN
  6
Continuous
 62
     9
100
AcDbLine
 10
34.3286937901
 20
290.6725020378
 30
0.0
 11
34.3286937901
 21
297.0211496253
 31
0.0
  0
LINE
  5
78
330
1F
100
AcDbEntity
  8
BEZUGSACHSEN
  6
Continuous
 62
     9
100
AcDbLine
 10
34.3286937901
 20
317.0411496253
 30
0.0
 11
34.3286937901
 21
323.3897972127
 31
0.0
  0
LINE
  5
79
330
1F
100
AcDbEntity
  8
BEZUGSACHSEN
  6
Continuous
 62
     7
100
AcDbLine
 10
36.3286937901
 20
319.9008051511
 30
0.0
 11
36.3286937901
 21
294.1614940995
 31
0.0
  0
LINE
  5
7A
330
1F
100
AcDbEntity
  8
BEZUGSACHSEN
  6
Continuous
 62
     7
100
AcDbLine
 10
27.5956467172
 20
292.0211496253
 30
0.0
 11
27.4745364657
 21
291.7888136298
 31
0.0
  0
LINE
  5
7B
330
1F
100
AcDbEntity
  8
BEZUGSACHSEN
  6
Continuous
 62
     7
100
AcDbLine
 10
27.4745364657
 20
322.2734856207
 30
0.0
 11
27.5956467172
 21
322.0411496253
 31
0.0
  0
LWPOLYLINE
  5
7C
330
1F
100
AcDbEntity
  8
BEZUGSACHSEN
  6
DOT_CENTER
 62
     7
100
AcDbPolyline
 90
        2
 70
     0
 43
0.25
 10
61.3286937901
 20
307.0311496253
 10
61.3286937901
 20
298.0311496253
  0
LWPOLYLINE
  5
7D
330
1F
100
AcDbEntity
  8
BEZUGSACHSEN
  6
DOT_CENTER
 62
     7
100
AcDbPolyline
 90
        2
 70
     0
 43
0.25
 10
61.3286937901
 20
307.0311496253
 10
61.3286937901
 20
316.0311496253
  0
LINE
  5
7E
330
1F
100
AcDbEntity
  8
BEZUGSACHSEN
  6
Continuous
 62
     7
100
AcDbLine
 10
26.3286937901
 20
295.0211496253
 30
0.0
 11
28.3286937901
 21
297.0211496253
 31
0.0
  0
LINE
  5
7F
330
1F
100
AcDbEntity
  8
BEZUGSACHSEN
  6
Continuous
 62
     7
100
AcDbLine
 10
28.3286937901
 20
317.0411496253
 30
0.0
 11
26.3286937901
 21
319.0411496253
 31
0.0
  0
LINE
  5
80
330
1F
100
AcDbEntity
  8
BEZUGSACHSEN
  6
Continuous
 62
     7
100
AcDbLine
 10
73.8286937901
 20
344.9133996253
 30
0.0
 11
73.8286937901
 21
269.1488996253
 31
0.0
  0
LINE
  5
81
330
1F
100
AcDbEntity
  8
BEZUGSACHSEN
  6
Continuous
 62
     9
100
AcDbLine
 10
74.4479374041
 20
269.3148254516
 30
0.0
 11
74.4479374041
 21
344.747473799
 31
0.0
  0
LINE
  5
82
330
1F
100
AcDbEntity
  8
BEZUGSACHSEN
  6
Continuous
 62
     9
100
AcDbLine
 10
74.7067564493
 20
269.3488996253
 30
0.0
 11
74.7067564493
 21
344.7133996253
 31
0.0
  0
LINE
  5
83
330
1F
100
AcDbEntity
  8
BEZUGSACHSEN
  6
Continuous
 62
     9
100
AcDbLine
 10
75.6281225015
 20
269.3488996253
 30
0.0
 11
75.6281225015
 21
344.7133996253
 31
0.0
  0
LINE
  5
84
330
1F
100
AcDbEntity
  8
BEZUGSACHSEN
  6
Continuous
 62
     7
100
AcDbLine
 10
76.3286937901
 20
357.0311496253
 30
0.0
 11
76.3286937901
 21
257.0311496253
 31
0.0
  0
LWPOLYLINE
  5
85
330
1F
100
AcDbEntity
  8
BEZUGSACHSEN
  6
DOT_CENTER
 62
     7
100
AcDbPolyline
 90
        2
 70
     0
 43
0.25
 10
83.3286937901
 20
349.1805214806
 10
83.3286937901
 20
360.0311496253
  0
LINE
  5
86
330
1F
100
AcDbEntity
  8
BEZUGSACHSEN
  6
Continuous
 62
     7
100
AcDbLine
 10
98.2036937901
 20
354.6537448895
 30
0.0
 11
99.5762890543
 21
357.0311496253
 31
0.0
  0
LINE
  5
87
330
1F
100
AcDbEntity
  8
BEZUGSACHSEN
  6
Continuous
 62
     7
100
AcDbLine
 10
93.081098526
 20
257.0311496253
 30
0.0
 11
76.3286937901
 21
257.0311496253
 31
0.0
  0
LINE
  5
88
330
1F
100
AcDbEntity
  8
BEZUGSACHSEN
  6
Continuous
 62
     7
100
AcDbLine
 10
99.5762890543
 20
257.0311496253
 30
0.0
 11
105.3286937901
 21
257.0311496253
 31
0.0
  0
LINE
  5
89
330
1F
100
AcDbEntity
  8
BEZUGSACHSEN
  6
Continuous
 62
     7
100
AcDbLine
 10
95.4536937901
 20
261.0311496253
 30
0.0
 11
97.2036937901
 21
261.0311496253
 31
0.0
  0
LINE
  5
8A
330
1F
100
AcDbEntity
  8
BEZUGSACHSEN
  6
Continuous
 62
     7
100
AcDbLine
 10
98.2036937901
 20
259.4085543611
 30
0.0
 11
99.5762890543
 21
257.0311496253
 31
0.0
  0
LINE
  5
8B
330
1F
100
AcDbEntity
  8
FASEN
  6
Continuous
 62
     9
100
AcDbLine
 10
89.300567712
 20
275.1311496253
 30
0.0
 11
89.300567712
 21
275.5311496253
 31
0.0
  0
LINE
  5
8C
330
1F
100
AcDbEntity
  8
FASEN
  6
Continuous
 62
     9
100
AcDbLine
 10
91.3286937901
 20
297.4311496253
 30
0.0
 11
91.3286937901
 21
297.0311496253
 31
0.0
  0
LINE
  5
8D
330
1F
100
AcDbEntity
  8
FASEN
  6
Continuous
 62
     9
100
AcDbLine
 10
91.3286937901
 20
316.6311496253
 30
0.0
 11
91.3286937901
 21
317.0311496253
 31
0.0
  0
LINE
  5
8E
330
1F
100
AcDbEntity
  8
0
  6
Continuous
 62
     7
100
AcDbLine
 10
93.081098526
 20
357.0311496253
 30
0.0
 11
93.081098526
 21
317.0311496253
 31
0.0
  0
LINE
  5
8F
330
1F
100
AcDbEntity
  8
0
  6
Continuous
 62
     7
100
AcDbLine
 10
93.081098526
 20
297.0311496253
 30
0.0
 11
93.081098526
 21
275.5311496253
 31
0.0
  0
LINE
  5
90
330
1F
100
AcDbEntity
  8
0
  6
Continuous
 62
     7
100
AcDbLine
 10
93.081098526
 20
268.2013929946
 30
0.0
 11
93.081098526
 21
257.0311496253
 31
0.0
  0
LINE
  5
91
330
1F
100
AcDbEntity
  8
FASEN
  6
Continuous
 62
     7
100
AcDbLine
 10
81.7301797546
 20
268.2013929946
 30
0.0
 11
93.081098526
 21
268.2013929946
 31
0.0
  0
LINE
  5
92
330
1F
100
AcDbEntity
  8
0
  6
Continuous
 62
     7
100
AcDbLine
 10
99.5762890543
 20
268.2013929946
 30
0.0
 11
105.3286937901
 21
268.2013929946
 31
0.0
  0
LINE
  5
93
330
1F
100
AcDbEntity
  8
BEZUGSACHSEN
  6
Continuous
 62
     7
100
AcDbLine
 10
73.8286937901
 20
269.1488996253
 30
0.0
 11
28.2286193054
 21
271.433463357
 31
0.0
  0
LINE
  5
94
330
1F
100
AcDbEntity
  8
0
  6
Continuous
 62
     7
100
AcDbLine
 10
94.4536937901
 20
354.6537114629
 30
0.0
 11
94.4536937901
 21
317.0311496253
 31
0.0
  0
LINE
  5
95
330
1F
100
AcDbEntity
  8
0
  6
Continuous
 62
     7
100
AcDbLine
 10
94.4536937901
 20
297.0311496253
 30
0.0
 11
94.4536937901
 21
275.5311496253
 31
0.0
  0
LINE
  5
96
330
1F
100
AcDbEntity
  8
0
  6
Continuous
 62
     7
100
AcDbLine
 10
94.4536937901
 20
259.408591895
 30
0.0
 11
94.4536937901
 21
272.1492058721
 31
0.0
  0
LINE
  5
97
330
1F
100
AcDbEntity
  8
0
  6
Continuous
 62
     9
100
AcDbLine
 10
95.4536937901
 20
261.0311496253
 30
0.0
 11
95.4536937901
 21
273.5087690415
 31
0.0
  0
LINE
  5
98
330
1F
100
AcDbEntity
  8
0
  6
Continuous
 62
     9
100
AcDbLine
 10
95.4536937901
 20
275.5311496253
 30
0.0
 11
95.4536937901
 21
297.0311496253
 31
0.0
  0
LINE
  5
99
330
1F
100
AcDbEntity
  8
0
  6
Continuous
 62
     9
100
AcDbLine
 10
95.4536937901
 20
317.0311496253
 30
0.0
 11
95.4536937901
 21
353.0311496253
 31
0.0
  0
LINE
  5
9A
330
1F
100
AcDbEntity
  8
0
  6
Continuous
 62
     9
100
AcDbLine
 10
97.2036937901
 20
261.0311496253
 30
0.0
 11
97.2036937901
 21
273.5087690415
 31
0.0
  0
LINE
  5
9B
330
1F
100
AcDbEntity
  8
0
  6
Continuous
 62
     9
100
AcDbLine
 10
97.2036937901
 20
275.5311496253
 30
0.0
 11
97.2036937901
 21
297.0311496253
 31
0.0
  0
LINE
  5
9C
330
1F
100
AcDbEntity
  8
0
  6
Continuous
 62
     9
100
AcDbLine
 10
97.2036937901
 20
317.0311496253
 30
0.0
 11
97.2036937901
 21
353.0311496253
 31
0.0
  0
LINE
  5
9D
330
1F
100
AcDbEntity
  8
0
  6
Continuous
 62
     7
100
AcDbLine
 10
98.2036937901
 20
259.408591895
 30
0.0
 11
98.2036937901
 21
272.1492058721
 31
0.0
  0
LINE
  5
9E
330
1F
100
AcDbEntity
  8
0
  6
Continuous
 62
     7
100
AcDbLine
 10
98.2036937901
 20
275.5311496253
 30
0.0
 11
98.2036937901
 21
297.0311496253
 31
0.0
  0
LINE
  5
9F
330
1F
100
AcDbEntity
  8
0
  6
Continuous
 62
     7
100
AcDbLine
 10
98.2036937901
 20
317.0311496253
 30
0.0
 11
98.2036937901
 21
354.6537114629
 31
0.0
  0
LINE
  5
A0
330
1F
100
AcDbEntity
  8
0
  6
Continuous
 62
     7
100
AcDbLine
 10
99.5762890543
 20
357.0311496253
 30
0.0
 11
99.5762890543
 21
317.0311496253
 31
0.0
  0
LINE
  5
A1
330
1F
100
AcDbEntity
  8
0
  6
Continuous
 62
     7
100
AcDbLine
 10
99.5762890543
 20
297.0311496253
 30
0.0
 11
99.5762890543
 21
275.5311496253
 31
0.0
  0
LINE
  5
A2
330
1F
100
AcDbEntity
  8
0
  6
Continuous
 62
     7
100
AcDbLine
 10
99.5762890543
 20
268.2013929946
 30
0.0
 11
99.5762890543
 21
257.0311496253
 31
0.0
  0
LINE
  5
A3
330
1F
100
AcDbEntity
  8
BEZUGSACHSEN
  6
Continuous
 62
     9
100
AcDbLine
 10
26.3286937901
 20
293.5849656562
 30
0.0
 11
28.3286937901
 21
294.6275096769
 31
0.0
  0
LINE
  5
A4
330
1F
100
AcDbEntity
  8
BEZUGSACHSEN
  6
Continuous
 62
     7
100
AcDbLine
 10
75.6281225015
 20
269.3488996253
 30
0.0
 11
74.7067564493
 21
269.3488996253
 31
0.0
  0
LINE
  5
A5
330
1F
100
AcDbEntity
  8
0
  6
Continuous
 62
     7
100
AcDbLine
 10
95.4536937901
 20
273.5087690415
 30
0.0
 11
97.2036937901
 21
273.5087690415
 31
0.0
  0
LINE
  5
A6
330
1F
100
AcDbEntity
  8
FASEN
  6
Continuous
 62
     7
100
AcDbLine
 10
89.300567712
 20
275.1311496253
 30
0.0
 11
105.3286937901
 21
275.1311496253
 31
0.0
  0
LINE
  5
A7
330
1F
100
AcDbEntity
  8
0
  6
Continuous
 62
     7
100
AcDbLine
 10
89.300567712
 20
275.5311496253
 30
0.0
 11
105.3286937901
 21
275.5311496253
 31
0.0
  0
LINE
  5
A8
330
1F
100
AcDbEntity
  8
BEZUGSACHSEN
  6
Continuous
 62
     9
100
AcDbLine
 10
28.3286937901
 20
319.4347895736
 30
0.0
 11
26.3286937901
 21
320.4773335943
 31
0.0
  0
LINE
  5
A9
330
1F
100
AcDbEntity
  8
0
  6
Continuous
 62
     7
100
AcDbLine
 10
105.3286937901
 20
357.0311127041
 30
0.0
 11
105.3286937901
 21
317.0311496253
 31
0.0
  0
LINE
  5
AA
330
1F
100
AcDbEntity
  8
0
  6
Continuous
 62
     7
100
AcDbLine
 10
105.3286937901
 20
297.0311496253
 30
0.0
 11
105.3286937901
 21
275.5311496253
 31
0.0
  0
LINE
  5
AB
330
1F
100
AcDbEntity
  8
0
  6
Continuous
 62
     7
100
AcDbLine
 10
105.3286937901
 20
268.2013929946
 30
0.0
 11
105.3286937901
 21
257.031151493
 31
0.0
  0
LINE
  5
AC
330
1F
100
AcDbEntity
  8
FASEN
  6
Continuous
 62
     7
100
AcDbLine
 10
105.3286937901
 20
268.2013929946
 30
0.0
 11
105.3286937901
 21
275.5311496253
 31
0.0
  0
LINE
  5
AD
330
1F
100
AcDbEntity
  8
FASEN
  6
Continuous
 62
     7
100
AcDbLine
 10
105.3286937901
 20
297.0311496253
 30
0.0
 11
105.3286937901
 21
317.0311496253
 31
0.0
  0
LINE
  5
AE
330
1F
100
AcDbEntity
  8
RUNDUNGEN
  6
Continuous
 62
     9
100
AcDbLine
 10
114.0051643784
 20
332.1102211375
 30
0.0
 11
114.0051643784
 21
281.9520781131
 31
0.0
  0
LINE
  5
AF
330
1F
100
AcDbEntity
  8
BEZUGSACHSEN
  6
Continuous
 62
     7
100
AcDbLine
 10
74.4479374041
 20
269.3148254516
 30
0.0
 11
73.8286937901
 21
269.1488996253
 31
0.0
  0
LINE
  5
B0
330
1F
100
AcDbEntity
  8
0
  6
Continuous
 62
     7
100
AcDbLine
 10
160.3286937901
 20
285.0311496253
 30
0.0
 11
208.7286937901
 21
285.0311496253
 31
0.0
  0
LINE
  5
B1
330
1F
100
AcDbEntity
  8
0
  6
Continuous
 62
     7
100
AcDbLine
 10
218.9286937901
 20
285.0311496253
 30
0.0
 11
223.2399576044
 21
285.0311496253
 31
0.0
  0
LINE
  5
B2
330
1F
100
AcDbEntity
  8
BEZUGSACHSEN
  6
Continuous
 62
     9
100
AcDbLine
 10
35.8825397371
 20
292.0211496253
 30
0.0
 11
27.5956467172
 21
292.0211496253
 31
0.0
  0
LINE
  5
B3
330
1F
100
AcDbEntity
  8
BEZUGSACHSEN
  6
Continuous
 62
     7
100
AcDbLine
 10
93.081098526
 20
257.0311496253
 30
0.0
 11
94.4536937901
 21
259.4085543611
 31
0.0
  0
LINE
  5
B4
330
1F
100
AcDbEntity
  8
BEZUGSACHSEN
  6
Continuous
 62
     7
100
AcDbLine
 10
34.3286937901
 20
297.0211496253
 30
0.0
 11
28.3286937901
 21
297.0211496253
 31
0.0
  0
LINE
  5
B5
330
1F
100
AcDbEntity
  8
0
  6
Continuous
 62
     7
100
AcDbLine
 10
91.3286937901
 20
297.0311496253
 30
0.0
 11
105.3286937901
 21
297.0311496253
 31
0.0
  0
LINE
  5
B6
330
1F
100
AcDbEntity
  8
FASEN
  6
Continuous
 62
     7
100
AcDbLine
 10
105.3286937901
 20
297.4311496253
 30
0.0
 11
91.3286937901
 21
297.4311496253
 31
0.0
  0
LWPOLYLINE
  5
B7
330
1F
100
AcDbEntity
  8
DEFAULT_2
  6
DASHED
 62
     8
100
AcDbPolyline
 90
        2
 70
     0
 43
0.35
 10
186.3286937901
 20
300.0311496253
 10
208.7286937901
 20
300.0311496253
  0
LWPOLYLINE
  5
B8
330
1F
100
AcDbEntity
  8
DEFAULT_2
  6
DASHED
 62
     8
100
AcDbPolyline
 90
        2
 70
     0
 43
0.35
 10
208.7286937901
 20
300.0311496253
 10
236.3286937901
 20
300.0311496253
  0
LINE
  5
B9
330
1F
100
AcDbEntity
  8
BEZUGSACHSEN
  6
Continuous
 62
     7
100
AcDbLine
 10
93.081098526
 20
357.0311496253
 30
0.0
 11
94.4536937901
 21
354.6537448895
 31
0.0
  0
LWPOLYLINE
  5
BA
330
1F
100
AcDbEntity
  8
BEZUGSACHSEN
  6
DOT_CENTER
 62
     7
100
AcDbPolyline
 90
        2
 70
     0
 43
0.25
 10
239.3286937901
 20
307.0311496253
 10
23.3286937901
 20
307.0311496253
  0
LWPOLYLINE
  5
BB
330
1F
100
AcDbEntity
  8
DEFAULT_2
  6
DASHED
 62
     8
100
AcDbPolyline
 90
        2
 70
     0
 43
0.35
 10
236.3286937901
 20
314.0311496253
 10
186.3286937901
 20
314.0311496253
  0
LINE
  5
BC
330
1F
100
AcDbEntity
  8
FASEN
  6
Continuous
 62
     7
100
AcDbLine
 10
91.3286937901
 20
316.6311496253
 30
0.0
 11
105.3286937901
 21
316.6311496253
 31
0.0
  0
LINE
  5
BD
330
1F
100
AcDbEntity
  8
0
  6
Continuous
 62
     7
100
AcDbLine
 10
91.3286937901
 20
317.0311496253
 30
0.0
 11
105.3286937901
 21
317.0311496253
 31
0.0
  0
LINE
  5
BE
330
1F
100
AcDbEntity
  8
BEZUGSACHSEN
  6
Continuous
 62
     7
100
AcDbLine
 10
34.3286937901
 20
317.0411496253
 30
0.0
 11
28.3286937901
 21
317.0411496253
 31
0.0
  0
LINE
  5
BF
330
1F
100
AcDbEntity
  8
BEZUGSACHSEN
  6
Continuous
 62
     9
100
AcDbLine
 10
27.5956467172
 20
322.0411496253
 30
0.0
 11
35.8825397371
 21
322.0411496253
 31
0.0
  0
LINE
  5
C0
330
1F
100
AcDbEntity
  8
0
  6
Continuous
 62
     7
100
AcDbLine
 10
223.2399576044
 20
329.0311496253
 30
0.0
 11
160.3286937901
 21
329.0311496253
 31
0.0
  0
LINE
  5
C1
330
1F
100
AcDbEntity
  8
BEZUGSACHSEN
  6
Continuous
 62
     7
100
AcDbLine
 10
74.4479374041
 20
344.747473799
 30
0.0
 11
73.8286937901
 21
344.9133996253
 31
0.0
  0
LINE
  5
C2
330
1F
100
AcDbEntity
  8
0
  6
Continuous
 62
     9
100
AcDbLine
 10
160.3286937901
 20
329.0311496253
 30
0.0
 11
160.3286937901
 21
285.0311496253
 31
0.0
  0
LINE
  5
C3
330
1F
100
AcDbEntity
  8
BEZUGSACHSEN
  6
Continuous
 62
     7
100
AcDbLine
 10
75.6281225015
 20
344.7133996253
 30
0.0
 11
74.7067564493
 21
344.7133996253
 31
0.0
  0
LINE
  5
C4
330
1F
100
AcDbEntity
  8
BEZUGSACHSEN
  6
Continuous
 62
     7
100
AcDbLine
 10
73.8286937901
 20
344.9133996253
 30
0.0
 11
28.2286193054
 21
342.6288358936
 31
0.0
  0
LINE
  5
C5
330
1F
100
AcDbEntity
  8
BEZUGSACHSEN
  6
Continuous
 62
     7
100
AcDbLine
 10
95.4536937901
 20
353.0311496253
 30
0.0
 11
97.2036937901
 21
353.0311496253
 31
0.0
  0
LWPOLYLINE
  5
C6
330
1F
100
AcDbEntity
  8
DEFAULT_2
  6
DASHED
 62
     8
100
AcDbPolyline
 90
        2
 70
     0
 43
0.35
 10
186.3286937901
 20
314.0311496253
 10
186.3286937901
 20
300.0311496253
  0
LINE
  5
C7
330
1F
100
AcDbEntity
  8
BEZUGSACHSEN
  6
Continuous
 62
     7
100
AcDbLine
 10
93.081098526
 20
357.0311496253
 30
0.0
 11
88.3286937901
 21
357.0311496253
 31
0.0
  0
LINE
  5
C8
330
1F
100
AcDbEntity
  8
BEZUGSACHSEN
  6
Continuous
 62
     7
100
AcDbLine
 10
78.3286937901
 20
357.0311496253
 30
0.0
 11
76.3286937901
 21
357.0311496253
 31
0.0
  0
LINE
  5
C9
330
1F
100
AcDbEntity
  8
BEZUGSACHSEN
  6
Continuous
 62
     7
100
AcDbLine
 10
99.5762890543
 20
357.0311496253
 30
0.0
 11
105.3286937901
 21
357.0311496253
 31
0.0
  0
LINE
  5
CA
330
1F
100
AcDbEntity
  8
0
  6
Continuous
 62
     7
100
AcDbLine
 10
223.6625758662
 20
285.1248418382
 30
0.0
 11
235.7513120519
 21
290.761912099
 31
0.0
  0
LINE
  5
CB
330
1F
100
AcDbEntity
  8
RUNDUNGEN
  6
Continuous
 62
     7
100
AcDbLine
 10
235.7513120519
 20
323.3003871515
 30
0.0
 11
223.6625758662
 21
328.9374574123
 31
0.0
  0
LINE
  5
CC
330
1F
100
AcDbEntity
  8
0
  6
Continuous
 62
     7
100
AcDbLine
 10
223.6625758662
 20
328.9374574123
 30
0.0
 11
235.7513120519
 21
323.3003871515
 31
0.0
  0
LWPOLYLINE
  5
CD
330
1F
100
AcDbEntity
  8
GEWINDE
  6
DASHED
 62
     8
100
AcDbPolyline
 90
        2
 70
     0
 43
0.35
 10
208.7286937901
 20
300.0311496253
 10
208.7286937901
 20
285.0311496253
  0
LWPOLYLINE
  5
CE
330
1F
100
AcDbEntity
  8
GEWINDE
  6
DOT_CENTER
 62
     7
100
AcDbPolyline
 90
        2
 70
     0
 43
0.25
 10
213.8286937901
 20
282.0311496253
 10
213.8286937901
 20
305.2363608456
  0
LWPOLYLINE
  5
CF
330
1F
100
AcDbEntity
  8
GEWINDE
  6
DASHED
 62
     8
100
AcDbPolyline
 90
        2
 70
     0
 43
0.35
 10
218.9286937901
 20
300.0311496253
 10
218.9286937901
 20
285.0311496253
  0
LINE
  5
D0
330
1F
100
AcDbEntity
  8
RUNDUNGEN
  6
Continuous
 62
     9
100
AcDbLine
 10
223.2399576044
 20
285.0311496253
 30
0.0
 11
223.2399576044
 21
329.0311496253
 31
0.0
  0
LINE
  5
D1
330
1F
100
AcDbEntity
  8
RUNDUNGEN
  6
Continuous
 62
     9
100
AcDbLine
 10
223.6625758662
 20
285.1248418382
 30
0.0
 11
223.6625758662
 21
328.9374574123
 31
0.0
  0
LINE
  5
D2
330
1F
100
AcDbEntity
  8
RUNDUNGEN
  6
Continuous
 62
     9
100
AcDbLine
 10
235.7513120519
 20
290.761912099
 30
0.0
 11
235.7513120519
 21
323.3003871515
 31
0.0
  0
LINE
  5
D3
330
1F
100
AcDbEntity
  8
RUNDUNGEN
  6
Continuous
 62
     7
100
AcDbLine
 10
236.3286937901
 20
322.3940793645
 30
0.0
 11
236.3286937901
 21
291.6682198861
 31
0.0
  0
LWPOLYLINE
  5
D4
330
1F
100
AcDbEntity
  8
GEWINDE
  6
DASHED
 62
     8
100
AcDbPolyline
 90
        2
 70
     0
 43
0.35
 10
219.8286937901
 20
300.0311496253
 10
219.8286937901
 20
285.0311496253
  0
LWPOLYLINE
  5
D5
330
1F
100
AcDbEntity
  8
GEWINDE
  6
DASHED
 62
     8
100
AcDbPolyline
 90
        2
 70
     0
 43
0.35
 10
207.8286937901
 20
300.0311496253
 10
207.8286937901
 20
285.0311496253
  0
ARC
  5
D6
330
1F
100
AcDbEntity
  8
FASEN
  6
Continuous
 62
     7
100
AcDbCircle
 10
94.2293478131
 20
282.5624128953
 30
0.0
 40
19.0385948731999
100
AcDbArc
 50
227.4837701982995
 51
228.9651953373019
  0
ARC
  5
D7
330
1F
100
AcDbEntity
  8
FASEN
  6
Continuous
 62
     7
100
AcDbCircle
 10
89.300567712
 20
267.5311496253
 30
0.0
 40
8.0
100
AcDbArc
 50
90.0
 51
172.8323734889967
  0
ARC
  5
D8
330
1F
100
AcDbEntity
  8
FASEN
  6
Continuous
 62
     7
100
AcDbCircle
 10
89.300567712
 20
267.5311496253
 30
0.0
 40
7.599982194900008
100
AcDbArc
 50
90.0
 51
174.9405171273013
  0
ARC
  5
D9
330
1F
100
AcDbEntity
  8
BEZUGSACHSEN
  6
Continuous
 62
     7
100
AcDbCircle
 10
34.3286937901
 20
299.0211496253
 30
0.0
 40
2.0
100
AcDbArc
 50
270.0
 51
355.2355361864946
  0
ARC
  5
DA
330
1F
100
AcDbEntity
  8
BEZUGSACHSEN
  6
Continuous
 62
     7
100
AcDbCircle
 10
28.3286937901
 20
273.4309580622
 30
0.0
 40
2.0
100
AcDbArc
 50
179.9999999971339
 51
267.1318795135584
  0
ARC
  5
DB
330
1F
100
AcDbEntity
  8
BEZUGSACHSEN
  6
Continuous
 62
     7
100
AcDbCircle
 10
95.4536937901
 20
260.0311496253
 30
0.0
 40
1.0
100
AcDbArc
 50
90.0
 51
180.0
  0
ARC
  5
DC
330
1F
100
AcDbEntity
  8
BEZUGSACHSEN
  6
Continuous
 62
     7
100
AcDbCircle
 10
74.7067564493
 20
268.3488996253
 30
0.0
 40
1.0
100
AcDbArc
 50
90.0
 51
105.0000000052334
  0
ARC
  5
DD
330
1F
100
AcDbEntity
  8
BEZUGSACHSEN
  6
Continuous
 62
     7
100
AcDbCircle
 10
75.6281225015
 20
268.3488996253
 30
0.0
 40
0.9999999999998127
100
AcDbArc
 50
45.49026120128689
 51
90.0
  0
ARC
  5
DE
330
1F
100
AcDbEntity
  8
0
  6
Continuous
 62
     7
100
AcDbCircle
 10
-148.269086093
 20
376.4656172159
 30
0.0
 40
264.5204223909097
100
AcDbArc
 50
335.8400764706216
 51
336.5770705490999
  0
ARC
  5
DF
330
1F
100
AcDbEntity
  8
BEZUGSACHSEN
  6
Continuous
 62
     7
100
AcDbCircle
 10
83.3439018013
 20
407.0839193922
 30
0.0
 40
50.30340021039986
100
AcDbArc
 50
264.2781515102
 51
269.9826780125999
  0
ARC
  5
E0
330
1F
100
AcDbEntity
  8
BEZUGSACHSEN
  6
Continuous
 62
     7
100
AcDbCircle
 10
83.3134857891
 20
407.0839191914
 30
0.0
 40
50.30340000959742
100
AcDbArc
 50
270.017321976058
 51
275.7218485011545
  0
ARC
  5
E1
330
1F
100
AcDbEntity
  8
0
  6
Continuous
 62
     7
100
AcDbCircle
 10
91.3286937901
 20
307.0311496253
 30
0.0
 40
10.0
100
AcDbArc
 50
90.0
 51
270.0
  0
ARC
  5
E2
330
1F
100
AcDbEntity
  8
FASEN
  6
Continuous
 62
     7
100
AcDbCircle
 10
91.3286937901
 20
307.0311496253
 30
0.0
 40
9.599999195900011
100
AcDbArc
 50
90.0
 51
270.0
  0
ARC
  5
E3
330
1F
100
AcDbEntity
  8
BEZUGSACHSEN
  6
Continuous
 62
     7
100
AcDbCircle
 10
34.3286937901
 20
315.0411496253
 30
0.0
 40
1.999999999999987
100
AcDbArc
 50
4.76446378498715
 51
90.0
  0
ARC
  5
E4
330
1F
100
AcDbEntity
  8
BEZUGSACHSEN
  6
Continuous
 62
     7
100
AcDbCircle
 10
28.3286937901
 20
340.6313411883
 30
0.0
 40
2.000000000047404
100
AcDbArc
 50
92.86812048629818
 51
180.0000000143238
  0
ARC
  5
E5
330
1F
100
AcDbEntity
  8
BEZUGSACHSEN
  6
Continuous
 62
     7
100
AcDbCircle
 10
95.4536937901
 20
354.0311496253
 30
0.0
 40
1.0
100
AcDbArc
 50
180.0
 51
270.0
  0
ARC
  5
E6
330
1F
100
AcDbEntity
  8
BEZUGSACHSEN
  6
Continuous
 62
     7
100
AcDbCircle
 10
74.7067564493
 20
345.7133996253
 30
0.0
 40
1.000000000035796
100
AcDbArc
 50
254.9999999947674
 51
270.0
  0
ARC
  5
E7
330
1F
100
AcDbEntity
  8
BEZUGSACHSEN
  6
Continuous
 62
     7
100
AcDbCircle
 10
75.6281225015
 20
345.7133996253
 30
0.0
 40
1.0
100
AcDbArc
 50
270.0
 51
314.5097387987131
  0
ARC
  5
E8
330
1F
100
AcDbEntity
  8
BEZUGSACHSEN
  6
Continuous
 62
     7
100
AcDbCircle
 10
212.6587403884
 20
-1299.0116096647
 30
0.0
 40
1632.172763697999
100
AcDbArc
 50
96.2726189838
 51
96.48809068979999
  0
ARC
  5
E9
330
1F
100
AcDbEntity
  8
0
  6
Continuous
 62
     7
100
AcDbCircle
 10
160.3286937901
 20
-64.9688503747
 30
0.0
 40
350.0
100
AcDbArc
 50
90.0
 51
97.60558102240114
  0
ARC
  5
EA
330
1F
100
AcDbEntity
  8
RUNDUNGEN
  6
Continuous
 62
     7
100
AcDbCircle
 10
160.3286937901
 20
-64.9688503747
 30
0.0
 40
350.0
100
AcDbArc
 50
90.0
 51
97.60558102240114
  0
ARC
  5
EB
330
1F
100
AcDbEntity
  8
RUNDUNGEN
  6
Continuous
 62
     7
100
AcDbCircle
 10
115.3286937901
 20
272.0400515848
 30
0.0
 40
10.00000000006793
100
AcDbArc
 50
97.60558102198569
 51
180.0
  0
ARC
  5
EC
330
1F
100
AcDbEntity
  8
BEZUGSACHSEN
  6
Continuous
 62
     7
100
AcDbCircle
 10
97.2036937901
 20
260.0311496253
 30
0.0
 40
1.0
100
AcDbArc
 50
0.0
 51
90.0
  0
ARC
  5
ED
330
1F
100
AcDbEntity
  8
RUNDUNGEN
  6
Continuous
 62
     7
100
AcDbCircle
 10
235.3286937901
 20
291.6682198861
 30
0.0
 40
1.00000000008246
100
AcDbArc
 50
295.0000000015447
 51
0.0
  0
ARC
  5
EE
330
1F
100
AcDbEntity
  8
RUNDUNGEN
  6
Continuous
 62
     7
100
AcDbCircle
 10
223.2399576044
 20
286.0311496253
 30
0.0
 40
1.0
100
AcDbArc
 50
270.0
 51
295.0000000015462
  0
ARC
  5
EF
330
1F
100
AcDbEntity
  8
BEZUGSACHSEN
  6
Continuous
 62
     7
100
AcDbCircle
 10
212.6587403884
 20
1913.0739089153
 30
0.0
 40
1632.172763698
100
AcDbArc
 50
263.5119093102
 51
263.7273810162
  0
ARC
  5
F0
330
1F
100
AcDbEntity
  8
0
  6
Continuous
 62
     7
100
AcDbCircle
 10
160.3286937901
 20
679.0311496253
 30
0.0
 40
349.9999999999913
100
AcDbArc
 50
262.3944189775989
 51
270.0
  0
ARC
  5
F1
330
1F
100
AcDbEntity
  8
RUNDUNGEN
  6
Continuous
 62
     7
100
AcDbCircle
 10
160.3286937901
 20
679.0311496253
 30
0.0
 40
349.9999999999913
100
AcDbArc
 50
262.3944189775989
 51
270.0
  0
ARC
  5
F2
330
1F
100
AcDbEntity
  8
0
  6
Continuous
 62
     7
100
AcDbCircle
 10
340.926473673
 20
376.4656172158
 30
0.0
 40
264.5204223905999
100
AcDbArc
 50
203.4229294508999
 51
204.1599235293853
  0
ARC
  5
F3
330
1F
100
AcDbEntity
  8
RUNDUNGEN
  6
Continuous
 62
     7
100
AcDbCircle
 10
115.3286937901
 20
342.0222476657
 30
0.0
 40
10.0
100
AcDbArc
 50
180.0
 51
262.3944189779385
  0
ARC
  5
F4
330
1F
100
AcDbEntity
  8
BEZUGSACHSEN
  6
Continuous
 62
     7
100
AcDbCircle
 10
97.2036937901
 20
354.0311496253
 30
0.0
 40
1.0
100
AcDbArc
 50
270.0
 51
0.0
  0
ARC
  5
F5
330
1F
100
AcDbEntity
  8
RUNDUNGEN
  6
Continuous
 62
     7
100
AcDbCircle
 10
235.3286937901
 20
322.3940793645
 30
0.0
 40
1.0
100
AcDbArc
 50
0.0
 51
64.99999999603419
  0
ARC
  5
F6
330
1F
100
AcDbEntity
  8
RUNDUNGEN
  6
Continuous
 62
     7
100
AcDbCircle
 10
223.2399576044
 20
328.0311496253
 30
0.0
 40
0.9999999999918526
100
AcDbArc
 50
64.99999999603273
 51
90.0
  0
CIRCLE
  5
F7
330
1F
100
AcDbEntity
  8
BEZUGSACHSEN
  6
Continuous
 62
     7
100
AcDbCircle
 10
61.3286937901
 20
307.0311496253
 30
0.0
 40
6.000000000000007
  0
SPLINE
  5
F8
330
1F
100
AcDbEntity
  8
0
  6
Continuous
 62
     2
100
AcDbSpline
210
0.0
220
0.0
230
1.0
 70
     8
 71
     3
 72
    61
 73
    57
 74
    55
 42
0.0000000001
 43
0.0000000001
 44
0.00000001
 40
0.0
 40
0.0
 40
0.0
 40
0.0
 40
0.0102287466315733
 40
0.0409818033674921
 40
0.0922954747380716
 40
0.1639502473345419
 40
0.2557227138388882
 40
0.367628740509178
 40
0.4995977312396859
 40
0.6509701576908542
 40
0.8210772534509663
 40
1.009795225078862
 40
1.216876975029608
 40
1.441024789251732
 40
1.680863456729216
 40
1.935741171083793
 40
2.204978341674973
 40
2.487038946021145
 40
2.780281553665686
 40
3.083473433301684
 40
3.395505302007248
 40
3.715329372217279
 40
4.041813115029678
 40
4.373397895778744
 40
4.708696997532896
 40
5.047421620639225
 40
5.389241954175477
 40
5.732551135250151
 40
6.075817872738604
 40
6.419085013941047
 40
6.762395082568481
 40
7.104215161793548
 40
7.442937352152772
 40
7.778234479719004
 40
8.109820017195418
 40
8.436304379994034
 40
8.756126121157848
 40
9.06815526154431
 40
9.37134685415108
 40
9.664590263649714
 40
9.946650801926355
 40
10.21588684657235
 40
10.4707629023162
 40
10.71060102684749
 40
10.93475037721355
 40
11.14183283841684
 40
11.33054827428425
 40
11.50065296280653
 40
11.65202640720721
 40
11.78399702476327
 40
11.89590215049084
 40
11.98767288153604
 40
12.05932716132784
 40
12.11064036732884
 40
12.1413917172517
 40
12.15161932260885
 40
12.15161932260885
 40
12.15161932260885
 40
12.15161932260885
 10
219.8286937901
 20
285.0311326123
 30
0.0
 10
219.8254050737712
 20
285.0320323886907
 30
0.0
 10
219.8122287257033
 20
285.035637371828
 30
0.0
 10
219.7825395494944
 20
285.0437026672241
 30
0.0
 10
219.7330726213835
 20
285.0570673497811
 30
0.0
 10
219.6639211635415
 20
285.0755559793775
 30
0.0
 10
219.5751895232152
 20
285.0990056081932
 30
0.0
 10
219.4669046438656
 20
285.1271509211341
 30
0.0
 10
219.339239574201
 20
285.159702678801
 30
0.0
 10
219.1925697940382
 20
285.1962323167203
 30
0.0
 10
219.0272901067926
 20
285.2363003918823
 30
0.0
 10
218.8436453549488
 20
285.2794128828672
 30
0.0
 10
218.642094686361
 20
285.3250439751168
 30
0.0
 10
218.4235002433551
 20
285.3725289412553
 30
0.0
 10
218.1888600521062
 20
285.4211530677738
 30
0.0
 10
217.9389781864848
 20
285.4702324800119
 30
0.0
 10
217.6747264765554
 20
285.5190933588887
 30
0.0
 10
217.3973156811143
 20
285.5670204140083
 30
0.0
 10
217.1081471918343
 20
285.6132449934613
 30
0.0
 10
216.8085119099927
 20
285.6571248398145
 30
0.0
 10
216.4995176963197
 20
285.6980509476019
 30
0.0
 10
216.1822612813731
 20
285.7354898343752
 30
0.0
 10
215.8580014342915
 20
285.7688979113142
 30
0.0
 10
215.5281374062587
 20
285.7978865788631
 30
0.0
 10
215.1937936829719
 20
285.8220607426713
 30
0.0
 10
214.855702996088
 20
285.8411477673015
 30
0.0
 10
214.5146817548776
 20
285.8549212124352
 30
0.0
 10
214.1719702556341
 20
285.863285263694
 30
0.0
 10
213.8286854229083
 20
285.866084934067
 30
0.0
 10
213.4854002961416
 20
285.8632849996172
 30
0.0
 10
213.142688459152
 20
285.8549206169411
 30
0.0
 10
212.8016678281547
 20
285.8411469410021
 30
0.0
 10
212.4635787032733
 20
285.8220598135407
 30
0.0
 10
212.1292362131833
 20
285.7978854609036
 30
0.0
 10
211.799372408328
 20
285.7688965338717
 30
0.0
 10
211.4751128919419
 20
285.7354883492357
 30
0.0
 10
211.1578579611443
 20
285.6980495043141
 30
0.0
 10
210.8488655418963
 20
285.6571234157439
 30
0.0
 10
210.5492310132957
 20
285.6132435211108
 30
0.0
 10
210.2600623886175
 20
285.5670188411253
 30
0.0
 10
209.9826517414759
 20
285.5190916903244
 30
0.0
 10
209.7184009880819
 20
285.4702308653949
 30
0.0
 10
209.4685202225294
 20
285.4211516079987
 30
0.0
 10
209.2338802646148
 20
285.3725274477542
 30
0.0
 10
209.0152852889691
 20
285.3250422573395
 30
0.0
 10
208.8137347231019
 20
285.279411147449
 30
0.0
 10
208.6300913483237
 20
285.236298962291
 30
0.0
 10
208.4648129490278
 20
285.1962311273134
 30
0.0
 10
208.318143105077
 20
285.1597014182723
 30
0.0
 10
208.1904774722145
 20
285.1271495168763
 30
0.0
 10
208.0821929225692
 20
285.0990042729616
 30
0.0
 10
207.9934622996982
 20
285.0755548766824
 30
0.0
 10
207.9243117065279
 20
285.0570664893175
 30
0.0
 10
207.8748456349967
 20
285.043702042144
 30
0.0
 10
207.8451575421952
 20
285.0356369713093
 30
0.0
 10
207.8319821335668
 20
285.0320321519505
 30
0.0
 10
207.8286937901
 20
285.0311324543
 30
0.0
 11
219.8286937901
 21
285.0311326123
 31
0.0
 11
219.8188272370238
 21
285.0338304610814
 31
0.0
 11
219.7891520036874
 21
285.0419008405664
 31
0.0
 11
219.7396134413612
 21
285.0552808148632
 31
0.0
 11
219.670391751902
 21
285.0737947054392
 31
0.0
 11
219.581663701404
 21
285.0972365198554
 31
0.0
 11
219.4733574612618
 21
285.1253917529639
 31
0.0
 11
219.3454790021019
 21
285.1579941178675
 31
0.0
 11
219.1985940851089
 21
285.1945787136652
 31
0.0
 11
219.033273843542
 21
285.2346491735602
 31
0.0
 11
218.8495511111272
 21
285.2777818805168
 31
0.0
 11
218.6475801957127
 21
285.3235049653784
 31
0.0
 11
218.428539600174
 21
285.371080800911
 31
0.0
 11
218.1936890556195
 21
285.4197409297624
 31
0.0
 11
217.9435890119819
 21
285.4688593320884
 31
0.0
 11
217.6788389247355
 21
285.5178087481318
 31
0.0
 11
217.4008935518736
 21
285.565814521001
 31
0.0
 11
217.1113266936353
 21
285.6120990923848
 31
0.0
 11
216.8113330127126
 21
285.6560206962226
 31
0.0
 11
216.5020018120852
 21
285.6969852590335
 31
0.0
 11
216.1843800984693
 21
285.7344536847461
 31
0.0
 11
215.8596157946183
 21
285.7679168176691
 31
0.0
 11
215.5293027832523
 21
285.7969302860363
 31
0.0
 11
215.1948761369704
 21
285.8211027061421
 31
0.0
 11
214.8566897227943
 21
285.8401898632188
 31
0.0
 11
214.5151482379182
 21
285.8539940121408
 31
0.0
 11
214.1719409113516
 21
285.8623561172084
 31
0.0
 11
213.8286855577833
 21
285.8651517052792
 31
0.0
 11
213.4854298027151
 21
285.8623558437251
 31
0.0
 11
213.142221596238
 21
285.8539934141867
 31
0.0
 11
212.800680375989
 21
285.8401890151688
 31
0.0
 11
212.4624964030046
 21
285.8211017770693
 31
0.0
 11
212.1280717444644
 21
285.796929240703
 31
0.0
 11
211.7977580012983
 21
285.7679154553733
 31
0.0
 11
211.4729930977475
 21
285.7344520937128
 31
0.0
 11
211.1553737150398
 21
285.6969837891148
 31
0.0
 11
210.8460452441707
 21
285.6560193953059
 31
0.0
 11
210.5460518688377
 21
285.6120976855973
 31
0.0
 11
210.2564842342264
 21
285.5658128911177
 31
0.0
 11
209.9785389461499
 21
285.5178070155506
 31
0.0
 11
209.7137899864015
 21
285.4688576943218
 31
0.0
 11
209.4636915843388
 21
285.4197395400687
 31
0.0
 11
209.2288415876093
 21
285.3710794433276
 31
0.0
 11
209.0097995098832
 21
285.3235031944744
 31
0.0
 11
208.8078279114561
 21
285.2777799053668
 31
0.0
 11
208.6241076552038
 21
285.2346477459353
 31
0.0
 11
208.4587897667744
 21
285.1945777968152
 31
0.0
 11
208.3119038725148
 21
285.1579929128154
 31
0.0
 11
208.1840238397882
 21
285.1253901348973
 31
0.0
 11
208.0757184766043
 21
285.0972351092408
 31
0.0
 11
207.9869921098147
 21
285.0737937160893
 31
0.0
 11
207.9177708953295
 21
285.0552799569445
 31
0.0
 11
207.868232787521
 21
285.0419000845664
 31
0.0
 11
207.838559225521
 21
285.0338300634815
 31
0.0
 11
207.8286937901
 21
285.0311324543
 31
0.0
  0
SPLINE
  5
F9
330
1F
100
AcDbEntity
  8
GEWINDE
  6
Continuous
 62
     7
100
AcDbSpline
210
0.0
220
0.0
230
1.0
 70
     8
 71
     3
 72
    23
 73
    19
 74
    17
 42
0.0000000001
 43
0.0000000001
 44
0.00000001
 40
0.0
 40
0.0
 40
0.0
 40
0.0
 40
0.1997623613650424
 40
0.3995304663111288
 40
0.9614757930509855
 40
1.523450711549584
 40
2.355608702801683
 40
3.187813199690014
 40
4.166909589702599
 40
5.146027189081215
 40
6.125144886789761
 40
7.104241375098271
 40
7.93644588221906
 40
8.768603883677944
 40
9.330578865883696
 40
9.892524256340668
 40
10.09229241325139
 40
10.29205482663829
 40
10.29205482663829
 40
10.29205482663829
 40
10.29205482663829
 10
208.7286937901
 20
285.0311496253
 30
0.0
 10
208.7935958391459
 20
285.0460381465251
 30
0.0
 10
208.9234018033058
 20
285.0758156170511
 30
0.0
 10
209.2364918160717
 20
285.1443144806209
 30
0.0
 10
209.668927249601
 20
285.2321837689963
 30
0.0
 10
210.3108541887914
 20
285.346815132721
 30
0.0
 10
211.0451637716234
 20
285.4553450340378
 30
0.0
 10
211.9212098623169
 20
285.5518999522717
 30
0.0
 10
212.8495017497938
 20
285.615436228758
 30
0.0
 10
213.8286935985455
 20
285.6379550155697
 30
0.0
 10
214.8078854805943
 20
285.6154362473262
 30
0.0
 10
215.7361774378777
 20
285.5518999792449
 30
0.0
 10
216.6122235688696
 20
285.455345065137
 30
0.0
 10
217.3465331804394
 20
285.346815166432
 30
0.0
 10
217.9884601658377
 20
285.2321838004166
 30
0.0
 10
218.4208956585488
 20
285.1443145029247
 30
0.0
 10
218.7339857261897
 20
285.0758156286036
 30
0.0
 10
218.8637917241464
 20
285.0460381503773
 30
0.0
 10
218.9286937901
 20
285.0311496253
 30
0.0
 11
208.7286937901
 21
285.0311496253
 31
0.0
 11
208.9234737036053
 21
285.0754868141261
 31
0.0
 11
209.1186095647949
 21
285.1182570307675
 31
0.0
 11
209.6693335843446
 21
285.2299960326237
 31
0.0
 11
210.2225637298774
 21
285.3287493368481
 31
0.0
 11
211.0458028732448
 21
285.4502575062541
 31
0.0
 11
211.8730151800784
 21
285.5412746698232
 31
0.0
 11
212.8498323803943
 21
285.6080421626822
 31
0.0
 11
213.8286935658543
 21
285.6304487021939
 31
0.0
 11
214.8075548500569
 21
285.6080421795882
 31
0.0
 11
215.784372149372
 21
285.541274693663
 31
0.0
 11
216.6115844672831
 21
285.4502575372126
 31
0.0
 11
217.4348236218953
 21
285.3287493740899
 31
0.0
 11
217.9880538310167
 21
285.2299960635599
 31
0.0
 11
218.5387779137236
 21
285.1182570525456
 31
0.0
 11
218.7339138258278
 21
285.0754868254855
 31
0.0
 11
218.9286937901
 21
285.0311496253
 31
0.0
  0
SPLINE
  5
FA
330
1F
100
AcDbEntity
  8
BEZUGSACHSEN
  6
Continuous
 62
     7
100
AcDbSpline
210
0.0
220
0.0
230
1.0
 70
     8
 71
     3
 72
    15
 73
    11
 74
     9
 42
0.0000000001
 43
0.0000000001
 44
0.00000001
 40
0.0
 40
0.0
 40
0.0
 40
0.0
 40
0.1110944831353106
 40
0.222229518160534
 40
0.3333620402237464
 40
0.4444752610525196
 40
0.5555842178312963
 40
0.666730035411544
 40
0.7779450182000588
 40
0.8889820871512537
 40
0.8889820871512537
 40
0.8889820871512537
 40
0.8889820871512537
 10
27.4745364657
 20
322.2734856207
 30
0.0
 10
27.49992182527733
 20
322.300461986375
 30
0.0
 10
27.55070181063746
 20
322.3544245646819
 30
0.0
 10
27.63295457990153
 20
322.429306528086
 30
0.0
 10
27.71995123184927
 20
322.4985932370157
 30
0.0
 10
27.81225607226784
 20
322.5606884001116
 30
0.0
 10
27.909706094251
 20
322.6144678922232
 30
0.0
 10
28.01211900812431
 20
322.6580581377982
 30
0.0
 10
28.11863550669467
 20
322.6910766936297
 30
0.0
 10
28.19197760940031
 20
322.702149860251
 30
0.0
 10
28.2286193054
 20
322.7076820115
 30
0.0
 11
27.4745364657
 21
322.2734856207
 31
0.0
 11
27.5517052428144
 21
322.3534041043053
 31
0.0
 11
27.63374514307827
 21
322.4283737700025
 31
0.0
 11
27.72084229168934
 21
322.4973993026984
 31
0.0
 11
27.81311411326192
 21
322.5593029276861
 31
0.0
 11
27.91051702132717
 21
322.6127620127597
 31
0.0
 11
28.01278524471601
 21
322.6562890532113
 31
0.0
 11
28.11927711284046
 21
322.6883554596207
 31
0.0
 11
28.2286193054
 21
322.7076820115
 31
0.0
  0
SPLINE
  5
FB
330
1F
100
AcDbEntity
  8
BEZUGSACHSEN
  6
Continuous
 62
     7
100
AcDbSpline
210
0.0
220
0.0
230
1.0
 70
     8
 71
     3
 72
    27
 73
    23
 74
    21
 42
0.0000000001
 43
0.0000000001
 44
0.00000001
 40
0.0
 40
0.0
 40
0.0
 40
0.0
 40
0.126096982555938
 40
0.2522464959448965
 40
0.3668867953103097
 40
0.4815825894680998
 40
0.5839596007403508
 40
0.6859489161888848
 40
0.7334568411110898
 40
0.7809568849555943
 40
0.8274002265043074
 40
0.873842160780219
 40
0.9204907319617224
 40
0.9671431399960051
 40
1.015111401892887
 40
1.063087497213647
 40
1.165500418814613
 40
1.268190479016846
 40
1.380949153949662
 40
1.493646517833061
 40
1.615655563792451
 40
1.73763186764235
 40
1.73763186764235
 40
1.73763186764235
 40
1.73763186764235
 10
26.3286937901
 20
321.6653821114
 30
0.0
 10
26.32942233158394
 20
321.7074250394621
 30
0.0
 10
26.33087971805544
 20
321.7915284102803
 30
0.0
 10
26.34432428006572
 20
321.9132757378562
 30
0.0
 10
26.36727971336398
 20
322.0296934542539
 30
0.0
 10
26.40124561369426
 20
322.1352689120587
 30
0.0
 10
26.4474713725538
 20
322.2314269743144
 30
0.0
 10
26.49601454111079
 20
322.3005963399767
 30
0.0
 10
26.54145386666839
 20
322.3481338215944
 30
0.0
 10
26.5773599447596
 20
322.3788291050762
 30
0.0
 10
26.61600737585226
 20
322.4053641407887
 30
0.0
 10
26.65696186305784
 20
322.4275924866836
 30
0.0
 10
26.70010148923335
 20
322.4453857035613
 30
0.0
 10
26.74528212384677
 20
322.4589191106223
 30
0.0
 10
26.79198934683642
 20
322.468116235956
 30
0.0
 10
26.85781333803984
 20
322.4750715563367
 30
0.0
 10
26.94254109003773
 20
322.4732062997031
 30
0.0
 10
27.04737269352917
 20
322.4562916387499
 30
0.0
 10
27.15295193587122
 20
322.426877005856
 30
0.0
 10
27.26110987395595
 20
322.3851253683708
 30
0.0
 10
27.36876213522108
 20
322.3343295412387
 30
0.0
 10
27.43928151003727
 20
322.2937651130043
 30
0.0
 10
27.4745364657
 20
322.2734856207
 30
0.0
 11
26.3286937901
 21
321.6653821114
 31
0.0
 11
26.33282514969396
 21
321.7914113971935
 31
0.0
 11
26.346591908863
 21
321.9168074739673
 31
0.0
 11
26.36944348496497
 21
322.0291471539928
 31
0.0
 11
26.40508167433866
 21
322.1381657058803
 31
0.0
 11
26.4499814391388
 21
322.2301714859049
 31
0.0
 11
26.50915386809294
 21
322.3132403977633
 31
0.0
 11
26.54200636825447
 21
322.3475582672127
 31
0.0
 11
26.57814346318128
 21
322.3783862502067
 31
0.0
 11
26.61643072804272
 21
322.4046744476277
 31
0.0
 11
26.65725333597998
 21
322.4268187006177
 31
0.0
 11
26.70035947959803
 21
322.4446498412334
 31
0.0
 11
26.74503905164237
 21
322.4580730680188
 31
0.0
 11
26.79208985739751
 21
322.4674098676418
 31
0.0
 11
26.83979374467159
 21
322.472513284259
 31
0.0
 11
26.94219338552932
 21
322.4708640228932
 31
0.0
 11
27.04365763583003
 21
322.4550445925857
 31
0.0
 11
27.15238135226722
 21
322.4251502410007
 31
0.0
 11
27.25769934456172
 21
322.385040188329
 31
0.0
 11
27.36799203046712
 21
322.3328699790933
 31
0.0
 11
27.4745364657
 21
322.2734856207
 31
0.0
  0
SPLINE
  5
FC
330
1F
100
AcDbEntity
  8
0
  6
Continuous
 62
     7
100
AcDbSpline
210
0.0
220
0.0
230
1.0
 70
     8
 71
     3
 72
    19
 73
    15
 74
    13
 42
0.0000000001
 43
0.0000000001
 44
0.00000001
 40
0.0
 40
0.0
 40
0.0
 40
0.0
 40
0.1162460235104266
 40
0.2327881717570616
 40
0.3491890045619422
 40
0.465546855026899
 40
0.5819071369413648
 40
0.6982738488575619
 40
0.8146206072037758
 40
0.9309998277450886
 40
1.163276323388412
 40
1.396138921739063
 40
1.629013178040245
 40
1.861351539700191
 40
1.861351539700191
 40
1.861351539700191
 40
1.861351539700191
 10
95.4536937901
 20
273.5087690415
 30
0.0
 10
95.41490971927992
 20
273.5069280946099
 30
0.0
 10
95.33724277922587
 20
273.5032415112077
 30
0.0
 10
95.22363269416218
 20
273.4748360262735
 30
0.0
 10
95.11544500619289
 20
273.4309821120754
 30
0.0
 10
95.01446914022527
 20
273.3723854238492
 30
0.0
 10
94.92170068350165
 20
273.3017005625217
 30
0.0
 10
94.83761330451827
 20
273.2209429574358
 30
0.0
 10
94.76230966114349
 20
273.1319753186939
 30
0.0
 10
94.67365841697539
 20
273.0046158709423
 30
0.0
 10
94.58366167124008
 20
272.8318304928513
 30
0.0
 10
94.50876815207603
 20
272.6109055026635
 30
0.0
 10
94.46223122673365
 20
272.3818855830742
 30
0.0
 10
94.45653741601151
 20
272.2267061902397
 30
0.0
 10
94.4536937901
 20
272.1492058721
 30
0.0
 11
95.4536937901
 21
273.5087690415
 31
0.0
 11
95.33782243860895
 21
273.4994433841171
 31
0.0
 11
95.22449791388654
 21
273.4722473473768
 31
0.0
 11
95.11662478125551
 21
273.4285147378727
 31
0.0
 11
95.0158360417422
 21
273.3703702682118
 31
0.0
 11
94.92314873669466
 21
273.3000227118204
 31
0.0
 11
94.83907337106918
 21
273.2195705860739
 31
0.0
 11
94.7637746131375
 21
273.1308763628595
 31
0.0
 11
94.69714788382221
 21
273.0354562291635
 31
0.0
 11
94.58925809771368
 21
272.8297570204101
 31
0.0
 11
94.51349996086192
 21
272.6095623465159
 31
0.0
 11
94.46853994704531
 21
272.3810694223247
 31
0.0
 11
94.4536937901
 21
272.1492058721
 31
0.0
  0
SPLINE
  5
FD
330
1F
100
AcDbEntity
  8
BEZUGSACHSEN
  6
Continuous
 62
     7
100
AcDbSpline
210
0.0
220
0.0
230
1.0
 70
     8
 71
     3
 72
    47
 73
    43
 74
    41
 42
0.0000000001
 43
0.0000000001
 44
0.00000001
 40
0.0
 40
0.0
 40
0.0
 40
0.0
 40
0.6366022431793891
 40
1.273595002170143
 40
1.592921746393656
 40
1.912076344872672
 40
2.231392290398998
 40
2.550826842702656
 40
3.189774321146403
 40
3.829081697007691
 40
4.468337152520382
 40
5.107221744778869
 40
5.426176341265744
 40
5.745033356811926
 40
6.063356731590704
 40
6.381780214903732
 40
7.017059195696809
 40
7.652639341012935
 40
8.287532214252572
 40
8.922347946514503
 40
9.55922674859886
 40
10.19613435939759
 40
10.83451785506005
 40
11.47287689977055
 40
12.11234487369203
 40
12.75189588954042
 40
13.39354300527028
 40
14.03487957363745
 40
14.356152057794
 40
14.6773210771925
 40
14.99840882479373
 40
15.31959604128428
 40
15.9601112103391
 40
16.60099592096302
 40
17.23809108086006
 40
17.87482555208616
 40
18.19205670341479
 40
18.50917199108667
 40
18.82571084635607
 40
19.14241581832777
 40
19.77338975000307
 40
20.40398930746962
 40
20.40398930746962
 40
20.40398930746962
 40
20.40398930746962
 10
54.8292781959
 20
307.0311496058
 30
0.0
 10
54.83528383976081
 20
307.2434294154958
 30
0.0
 10
54.84729881157073
 20
307.6681192553243
 30
0.0
 10
54.92856415682517
 20
308.1942620164323
 30
0.0
 10
55.02128375339449
 20
308.6092363925596
 30
0.0
 10
55.10657671751169
 20
308.9170603682525
 30
0.0
 10
55.20681533094233
 20
309.2203530450282
 30
0.0
 10
55.36030088010516
 20
309.6177904075671
 30
0.0
 10
55.5887728269097
 20
310.099889984451
 30
0.0
 10
55.91838778748154
 20
310.6487058572975
 30
0.0
 10
56.30061500454897
 20
311.1622413966676
 30
0.0
 10
56.6594697016518
 20
311.5567441587635
 30
0.0
 10
56.96842305520973
 20
311.8496174568077
 30
0.0
 10
57.21031816418369
 20
312.0573392779216
 30
0.0
 10
57.46196141766917
 20
312.2528486750541
 30
0.0
 10
57.80925552482606
 20
312.4963438777289
 30
0.0
 10
58.26499585958645
 20
312.7682259477735
 30
0.0
 10
58.84047528427622
 20
313.0395550602892
 30
0.0
 10
59.43958604943888
 20
313.2533386911031
 30
0.0
 10
60.05703645190177
 20
313.408028422475
 30
0.0
 10
60.68730701360116
 20
313.5018354061265
 30
0.0
 10
61.32490094833157
 20
313.5339621309323
 30
0.0
 10
61.96307959256426
 20
313.503532557983
 30
0.0
 10
62.59609201375821
 20
313.4108613028187
 30
0.0
 10
63.21732569819742
 20
313.2563693415906
 30
0.0
 10
63.82146145017813
 20
313.0413322090498
 30
0.0
 10
64.40194052375809
 20
312.7674088433196
 30
0.0
 10
64.86156954798383
 20
312.4922419652601
 30
0.0
 10
65.21146853664723
 20
312.2456322664025
 30
0.0
 10
65.46460016579648
 20
312.0477280740317
 30
0.0
 10
65.70759880515062
 20
311.8375495446298
 30
0.0
 10
66.01684314865538
 20
311.5420302044749
 30
0.0
 10
66.37516333945007
 20
311.1445592217112
 30
0.0
 10
66.75511375777816
 20
310.6288924601578
 30
0.0
 10
67.08158678734934
 20
310.07929630368
 30
0.0
 10
67.30695792731112
 20
309.5981907619681
 30
0.0
 10
67.45804891046251
 20
309.2022005743498
 30
0.0
 10
67.55646182802096
 20
308.9007742235673
 30
0.0
 10
67.64012860622026
 20
308.5950788556531
 30
0.0
 10
67.7309479636941
 20
308.1835268379413
 30
0.0
 10
67.81046293932879
 20
307.6621016214121
 30
0.0
 10
67.82223522392518
 20
307.2414253322549
 30
0.0
 10
67.8281196195
 20
307.0311496059
 30
0.0
 11
54.8292781959
 21
307.0311496058
 31
0.0
 11
54.86052686688423
 21
307.6669844401578
 31
0.0
 11
54.95396806926902
 21
308.2970864292861
 31
0.0
 11
55.02390857628455
 21
308.6086596872124
 31
0.0
 11
55.10904991523652
 21
308.9162480649704
 31
0.0
 11
55.20927445336432
 21
309.2194274096237
 31
0.0
 11
55.32435434312066
 21
309.5174123961232
 31
0.0
 11
55.59795023739663
 21
310.0948196759916
 31
0.0
 11
55.92716975109644
 21
310.6428419680837
 31
0.0
 11
56.30879400642214
 21
311.1556874274083
 31
0.0
 11
56.73872864251928
 21
311.6282651785872
 31
0.0
 11
56.97020090357459
 21
311.8477022469737
 31
0.0
 11
57.21210330460103
 21
312.0554353082342
 31
0.0
 11
57.46347711175552
 21
312.2507324664501
 31
0.0
 11
57.72420639004743
 21
312.4335267720687
 31
0.0
 11
58.26974003425726
 21
312.7590608355284
 31
0.0
 11
58.84464985437597
 21
313.0300605031503
 31
0.0
 11
59.44259604212286
 21
313.2434833628665
 31
0.0
 11
60.05838857434633
 21
313.3977252870799
 31
0.0
 11
60.68832085632399
 21
313.4915332220685
 31
0.0
 11
61.32442397806164
 21
313.5235351471507
 31
0.0
 11
61.96208493708036
 21
313.4931708773991
 31
0.0
 11
62.59370246999093
 21
313.4006421678887
 31
0.0
 11
63.21427534211583
 21
313.2463418112659
 31
0.0
 11
63.81677614926964
 21
313.0318230958779
 31
0.0
 11
64.39708334565077
 21
312.7580447567919
 31
0.0
 11
64.9473083336988
 21
312.4285526378383
 31
0.0
 11
65.20991563784625
 21
312.2434758621896
 31
0.0
 11
65.4629360952381
 21
312.0456623460624
 31
0.0
 11
65.70578439660243
 21
311.8356098664672
 31
0.0
 11
65.93798683200946
 21
311.6137016488906
 31
0.0
 11
66.3669028897412
 21
311.1380014310967
 31
0.0
 11
66.74701354839664
 21
310.6220081176826
 31
0.0
 11
67.07245269408267
 21
310.0743041782962
 31
0.0
 11
67.34253355217827
 21
309.4976872197025
 31
0.0
 11
67.45562399735824
 21
309.2012987000492
 31
0.0
 11
67.55406810070757
 21
308.8998507539773
 31
0.0
 11
67.63755090610736
 21
308.594519019469
 31
0.0
 11
67.7061003295703
 21
308.2853216459121
 31
0.0
 11
67.79752740747112
 21
307.6610066678118
 31
0.0
 11
67.8281196195
 21
307.0311496059
 31
0.0
  0
SPLINE
  5
FE
330
1F
100
AcDbEntity
  8
BEZUGSACHSEN
  6
Continuous
 62
     7
100
AcDbSpline
210
0.0
220
0.0
230
1.0
 70
     8
 71
     3
 72
    47
 73
    43
 74
    41
 42
0.0000000001
 43
0.0000000001
 44
0.00000001
 40
0.0
 40
0.0
 40
0.0
 40
0.0
 40
0.6302393214806747
 40
1.260854867359764
 40
1.5774760884341
 40
1.893930800251729
 40
2.210999113891372
 40
2.528183472226342
 40
3.164887038252477
 40
3.801951183391775
 40
4.442851001626178
 40
5.083381259808016
 40
5.404527292330696
 40
5.725573838773405
 40
6.046670710044069
 40
6.367871027166149
 40
7.009090242548101
 40
7.650619763947859
 40
8.290330346479571
 40
8.929958764470296
 40
9.568647011356836
 40
10.20735923015982
 40
10.84445705817748
 40
11.48152626496327
 40
12.11643462222205
 40
12.75141965578921
 40
13.38691908737639
 40
14.02211738532391
 40
14.3405044914504
 40
14.65879153794657
 40
14.97761586871164
 40
15.29653774947692
 40
15.93537694104994
 40
16.57458694072298
 40
17.2138627499604
 40
17.85277859076578
 40
18.17219860083486
 40
18.49150024076409
 40
18.81067156636016
 40
19.13001452422573
 40
19.76719627023246
 40
20.40398968278917
 40
20.40398968278917
 40
20.40398968278917
 40
20.40398968278917
 10
67.828107428
 20
307.031149644
 30
0.0
 10
67.82223822622959
 20
306.8209936221045
 30
0.0
 10
67.81049631904051
 20
306.4005561246644
 30
0.0
 10
67.73104957653032
 20
305.8793926823928
 30
0.0
 10
67.64031807143334
 20
305.4680012149726
 30
0.0
 10
67.55671268911178
 20
305.1623633746906
 30
0.0
 10
67.45836074773662
 20
304.8609795285074
 30
0.0
 10
67.30734193688313
 20
304.4650063489207
 30
0.0
 10
67.08205934927634
 20
303.98389954025
 30
0.0
 10
66.755681314523
 20
303.4342653152573
 30
0.0
 10
66.37581425250025
 20
302.9185374525764
 30
0.0
 10
66.0175598132285
 20
302.521012050346
 30
0.0
 10
65.70837907555908
 20
302.2254586954006
 30
0.0
 10
65.46545411952849
 20
302.0152737869658
 30
0.0
 10
65.2124052162016
 20
301.8173643226507
 30
0.0
 10
64.86262270773786
 20
301.5707409711913
 30
0.0
 10
64.4031374699854
 20
301.295534361918
 30
0.0
 10
63.8227417630294
 20
301.021494255206
 30
0.0
 10
63.21858745519957
 20
300.806305777849
 30
0.0
 10
62.59717230779391
 20
300.6516439388088
 30
0.0
 10
61.96390309635126
 20
300.5588335657773
 30
0.0
 10
61.32544363191019
 20
300.5283228159693
 30
0.0
 10
60.68761061835529
 20
300.5604245583511
 30
0.0
 10
60.05718063136214
 20
300.6542376207275
 30
0.0
 10
59.43960696186497
 20
300.8089514370168
 30
0.0
 10
58.8404635504321
 20
301.0227480090902
 30
0.0
 10
58.2650063289659
 20
301.2940693775467
 30
0.0
 10
57.80932093601078
 20
301.5659142611956
 30
0.0
 10
57.46206503826018
 20
301.809374813787
 30
0.0
 10
57.21044545695533
 20
302.0048573401067
 30
0.0
 10
56.96857040667994
 20
302.2125503987966
 30
0.0
 10
56.65963412299399
 20
302.5053879469295
 30
0.0
 10
56.30079136610615
 20
302.899845595882
 30
0.0
 10
55.91856446086977
 20
303.4133302618474
 30
0.0
 10
55.58894001560917
 20
303.9620980405574
 30
0.0
 10
55.36045256968495
 20
304.4441614570309
 30
0.0
 10
55.20695106971883
 20
304.8415710161813
 30
0.0
 10
55.10669426680263
 20
305.1448533794631
 30
0.0
 10
55.02137777390892
 20
305.4526772511758
 30
0.0
 10
54.92861531858511
 20
305.8677181182896
 30
0.0
 10
54.84732295165097
 20
306.3939909173636
 30
0.0
 10
54.83528315209202
 20
306.8188065670614
 30
0.0
 10
54.8292650873
 20
307.0311496457
 30
0.0
 11
67.828107428
 21
307.031149644
 31
0.0
 11
67.79756784922319
 21
306.4016506873141
 31
0.0
 11
67.70623657370759
 21
305.7776838894658
 31
0.0
 11
67.63774183500217
 21
305.4685601789481
 31
0.0
 11
67.55432301014125
 21
305.163298186079
 31
0.0
 11
67.45593626629119
 21
304.8618809268703
 31
0.0
 11
67.34290563518708
 21
304.5655196716351
 31
0.0
 11
67.07292549867475
 21
303.9888896716532
 31
0.0
 11
66.7475888768214
 21
303.4411608998116
 31
0.0
 11
66.36755238202943
 21
302.9250941990459
 31
0.0
 11
65.93870188436873
 21
302.4493145627618
 31
0.0
 11
65.7065647499987
 21
302.2273976299884
 31
0.0
 11
65.46378225666236
 21
302.0173320547216
 31
0.0
 11
65.21085264836402
 21
301.8195194818506
 31
0.0
 11
64.9483382525297
 21
301.6344361608866
 31
0.0
 11
64.39828007093088
 21
301.3048939344098
 31
0.0
 11
63.81813923927989
 21
301.03103860348
 31
0.0
 11
63.21553392898833
 21
300.8163377198966
 31
0.0
 11
62.59483465866703
 21
300.6618808361914
 31
0.0
 11
61.96290584474465
 21
300.569205861977
 31
0.0
 11
61.32491971756346
 21
300.5387591877319
 31
0.0
 11
60.6886247294386
 21
300.5707330919664
 31
0.0
 11
60.05850145533093
 21
300.6645511801078
 31
0.0
 11
59.44261754708948
 21
300.8188095143601
 31
0.0
 11
58.84458507727052
 21
301.0322647974911
 31
0.0
 11
58.2697493287238
 21
301.3032323042891
 31
0.0
 11
57.72428264118241
 21
301.6287211220664
 31
0.0
 11
57.46358034840551
 21
301.8114905502771
 31
0.0
 11
57.21223109659717
 21
302.0067601013665
 31
0.0
 11
56.97034779824762
 21
302.2144652382007
 31
0.0
 11
56.73889196694741
 21
302.4338720844658
 31
0.0
 11
56.3089689360672
 21
302.9063990151358
 31
0.0
 11
55.9273477966094
 21
303.4191901320645
 31
0.0
 11
55.59811632243036
 21
303.967168413282
 31
0.0
 11
55.32450201528633
 21
304.5445319578171
 31
0.0
 11
55.20940976282793
 21
304.8424965803087
 31
0.0
 11
55.10917007441201
 21
305.1456558488917
 31
0.0
 11
55.02400299421893
 21
305.4532544567139
 31
0.0
 11
54.95403996676416
 21
305.7648392758686
 31
0.0
 11
54.86055106980024
 21
306.3951252455591
 31
0.0
 11
54.8292650873
 21
307.0311496457
 31
0.0
  0
SPLINE
  5
FF
330
1F
100
AcDbEntity
  8
0
  6
Continuous
 62
     7
100
AcDbSpline
210
0.0
220
0.0
230
1.0
 70
     8
 71
     3
 72
    19
 73
    15
 74
    13
 42
0.0000000001
 43
0.0000000001
 44
0.00000001
 40
0.0
 40
0.0
 40
0.0
 40
0.0
 40
0.2323383481142794
 40
0.4652125956936592
 40
0.6980761132641385
 40
0.930353518723207
 40
1.046733461791931
 40
1.163080940862404
 40
1.279447997430483
 40
1.39580862953883
 40
1.512165904519657
 40
1.628566140344722
 40
1.745106920504005
 40
1.861351602826193
 40
1.861351602826193
 40
1.861351602826193
 40
1.861351602826193
 10
98.2036937901
 20
272.1492058721
 30
0.0
 10
98.20085016450187
 20
272.2267061857584
 30
0.0
 10
98.19515635434773
 20
272.3818855712395
 30
0.0
 10
98.1486193785515
 20
272.6109057852628
 30
0.0
 10
98.07372563276472
 20
272.8318313471505
 30
0.0
 10
97.9837283285095
 20
273.0046174113618
 30
0.0
 10
97.89507639073479
 20
273.1319773371056
 30
0.0
 10
97.81977212639062
 20
273.2209452360288
 30
0.0
 10
97.73568415254277
 20
273.3017029059621
 30
0.0
 10
97.64291541868013
 20
273.3723874723036
 30
0.0
 10
97.54193960643099
 20
273.4309836964597
 30
0.0
 10
97.43375255693803
 20
273.47483694762
 30
0.0
 10
97.32014344758329
 20
273.5032417070805
 30
0.0
 10
97.2424774127819
 20
273.5069281597216
 30
0.0
 10
97.2036937901
 20
273.5087690415
 30
0.0
 11
98.2036937901
 21
272.1492058721
 31
0.0
 11
98.18884763600786
 21
272.381069408934
 31
0.0
 11
98.1438876344486
 21
272.609562326648
 31
0.0
 11
98.0681291557531
 21
272.8297578550336
 31
0.0
 11
97.96023874457356
 21
273.0354577633037
 31
0.0
 11
97.89361142075009
 21
273.1308783631173
 31
0.0
 11
97.81831196419341
 21
273.2195729386466
 31
0.0
 11
97.73423609784055
 21
273.3000250396219
 31
0.0
 11
97.64154827183941
 21
273.3703724888709
 31
0.0
 11
97.54075983692339
 21
273.4285163348749
 31
0.0
 11
97.43288710815162
 21
273.4722483516071
 31
0.0
 11
97.3195638196321
 21
273.499443676927
 31
0.0
 11
97.2036937901
 21
273.5087690415
 31
0.0
  0
SPLINE
  5
100
330
1F
100
AcDbEntity
  8
BEZUGSACHSEN
  6
Continuous
 62
     7
100
AcDbSpline
210
0.0
220
0.0
230
1.0
 70
     8
 71
     3
 72
    11
 73
     7
 74
     5
 42
0.0000000001
 43
0.0000000001
 44
0.00000001
 40
0.0
 40
0.0
 40
0.0
 40
0.0
 40
0.5462907431577805
 40
1.093000863651934
 40
1.646070107169592
 40
2.198197048679469
 40
2.198197048679469
 40
2.198197048679469
 40
2.198197048679469
 10
35.8825397371
 20
322.0411496253
 30
0.0
 10
35.945610538929
 20
321.8702179960428
 30
0.0
 10
36.07180056087926
 20
321.5282235164664
 30
0.0
 10
36.21143787392005
 20
320.9969493872513
 30
0.0
 10
36.30892623792741
 20
320.4535249823192
 30
0.0
 10
36.32210835244609
 20
320.0849403417798
 30
0.0
 10
36.3286937901
 20
319.9008051511
 30
0.0
 11
35.8825397371
 21
322.0411496253
 31
0.0
 11
36.06339106964169
 21
321.5256630866031
 31
0.0
 11
36.20388255432751
 21
320.9973127307013
 31
0.0
 11
36.29594920755792
 21
320.4519602579938
 31
0.0
 11
36.3286937901
 21
319.9008051511
 31
0.0
  0
SPLINE
  5
101
330
1F
100
AcDbEntity
  8
BEZUGSACHSEN
  6
Continuous
 62
     7
100
AcDbSpline
210
0.0
220
0.0
230
1.0
 70
     8
 71
     3
 72
    19
 73
    15
 74
    13
 42
0.0000000001
 43
0.0000000001
 44
0.00000001
 40
0.0
 40
0.0
 40
0.0
 40
0.0
 40
0.1462385988632251
 40
0.2927479275651141
 40
0.4364790706808162
 40
0.5801659236906478
 40
0.7203799973304333
 40
0.8606059383245537
 40
0.9980411884589271
 40
1.135484020507274
 40
1.405415631167331
 40
1.675815514155252
 40
1.94399742957531
 40
2.211934834825509
 40
2.211934834825509
 40
2.211934834825509
 40
2.211934834825509
 10
34.3286937901
 20
323.3897972127
 30
0.0
 10
34.37740859546677
 20
323.3931052900472
 30
0.0
 10
34.47492839136002
 20
323.3997275689473
 30
0.0
 10
34.62026465169458
 20
323.3833682561767
 30
0.0
 10
34.7609215887994
 20
323.3481964900683
 30
0.0
 10
34.89377372222962
 20
323.2953908034169
 30
0.0
 10
35.0182281852989
 20
323.2277190156943
 30
0.0
 10
35.13303074248342
 20
323.1484188143199
 30
0.0
 10
35.23914068027339
 20
323.059334174743
 30
0.0
 10
35.36824314545549
 20
322.9313866391718
 30
0.0
 10
35.51128299535312
 20
322.755584350266
 30
0.0
 10
35.65619059703816
 20
322.5278988843819
 30
0.0
 10
35.78082734542365
 20
322.2892362648852
 30
0.0
 10
35.84864591664055
 20
322.1238200244706
 30
0.0
 10
35.8825397371
 20
322.0411496253
 30
0.0
 11
34.3286937901
 21
323.3897972127
 31
0.0
 11
34.4748276520044
 21
323.3953309458327
 31
0.0
 11
34.62053701284854
 21
323.3800415521538
 31
0.0
 11
34.7599670943743
 21
323.345143215989
 31
0.0
 11
34.89359943128508
 21
323.2923387629606
 31
0.0
 11
35.01691322210405
 21
323.2256027498903
 31
0.0
 11
35.13244433344305
 21
323.1461302587977
 31
0.0
 11
35.23785688323164
 21
323.0579449860671
 31
0.0
 11
35.33564538692782
 21
322.9613637217022
 31
0.0
 11
35.50689378281454
 21
322.7527083567106
 31
0.0
 11
35.65323620332715
 21
322.5253320327928
 31
0.0
 11
35.77710382909963
 21
322.2874699907519
 31
0.0
 11
35.8825397371
 21
322.0411496253
 31
0.0
  0
SPLINE
  5
102
330
1F
100
AcDbEntity
  8
BEZUGSACHSEN
  6
Continuous
 62
     7
100
AcDbSpline
210
0.0
220
0.0
230
1.0
 70
     8
 71
     3
 72
    27
 73
    23
 74
    21
 42
0.0000000001
 43
0.0000000001
 44
0.00000001
 40
0.0
 40
0.0
 40
0.0
 40
0.0
 40
0.1219765139516433
 40
0.243985771474915
 40
0.3566831398307501
 40
0.469441814941409
 40
0.5721317672349053
 40
0.6745445880227698
 40
0.722520652024303
 40
0.7704888796722541
 40
0.817141293507978
 40
0.8637898733436062
 40
0.9102318000272132
 40
0.9566751323771323
 40
1.004175175705628
 40
1.051683100081074
 40
1.153672388683139
 40
1.256049376635795
 40
1.370745138067097
 40
1.485385401854862
 40
1.611534903892408
 40
1.737631875937355
 40
1.737631875937355
 40
1.737631875937355
 40
1.737631875937355
 10
27.4745364657
 20
291.7888136298
 30
0.0
 10
27.43928144809662
 20
291.7685341045351
 30
0.0
 10
27.3687619489762
 20
291.727969610137
 30
0.0
 10
27.26110954579113
 20
291.6771737492456
 30
0.0
 10
27.15295152992668
 20
291.6354221133791
 30
0.0
 10
27.04737230897939
 20
291.6060075282374
 30
0.0
 10
26.94254076386455
 20
291.5890929408459
 30
0.0
 10
26.85781309404044
 20
291.5872277176192
 30
0.0
 10
26.79198915764966
 20
291.5941830256385
 30
0.0
 10
26.74528195443685
 20
291.6033801527918
 30
0.0
 10
26.70010133712816
 20
291.6169135977806
 30
0.0
 10
26.65696172646196
 20
291.6347068565885
 30
0.0
 10
26.6160072498583
 20
291.6569352142866
 30
0.0
 10
26.57735982336609
 20
291.6834702459817
 30
0.0
 10
26.54145374473913
 20
291.7141655235181
 30
0.0
 10
26.49601442323299
 20
291.7617029966495
 30
0.0
 10
26.44747128317026
 20
291.8308723637543
 30
0.0
 10
26.40124557419582
 20
291.9270304184716
 30
0.0
 10
26.36727970037909
 20
292.0326058514644
 30
0.0
 10
26.34432427616172
 20
292.1490235423724
 30
0.0
 10
26.33087971779755
 20
292.2707708510301
 30
0.0
 10
26.3294223314996
 20
292.3548742145479
 30
0.0
 10
26.3286937901
 20
292.3969171391
 30
0.0
 11
27.4745364657
 21
291.7888136298
 31
0.0
 11
27.36799184163946
 21
291.7294291786399
 31
0.0
 11
27.25769895247078
 21
291.677258904343
 31
0.0
 11
27.15238094462116
 21
291.6371488799487
 31
0.0
 11
27.04365721609775
 21
291.6072545716496
 31
0.0
 11
26.94219306401547
 21
291.5914352118565
 31
0.0
 11
26.83979352346395
 21
291.5897859827745
 31
0.0
 11
26.79208966725648
 21
291.5948893953599
 31
0.0
 11
26.74503889699577
 21
291.6042261978939
 31
0.0
 11
26.70035932956026
 21
291.6176494601828
 31
0.0
 11
26.65725319294978
 21
291.6354806403793
 31
0.0
 11
26.6164306001213
 21
291.6576249052993
 31
0.0
 11
26.57814334355221
 21
291.683913098546
 31
0.0
 11
26.54200624655138
 21
291.7147410783138
 31
0.0
 11
26.50915374620546
 21
291.7490589468298
 31
0.0
 11
26.44998135198095
 21
291.8321278504658
 31
0.0
 11
26.40508162837207
 21
291.9241336246439
 31
0.0
 11
26.3694434687719
 21
292.0331521518336
 31
0.0
 11
26.34659190537164
 21
292.1454917981367
 31
0.0
 11
26.3328251490322
 21
292.2708878638015
 31
0.0
 11
26.3286937901
 21
292.3969171391
 31
0.0
  0
SPLINE
  5
103
330
1F
100
AcDbEntity
  8
BEZUGSACHSEN
  6
Continuous
 62
     7
100
AcDbSpline
210
0.0
220
0.0
230
1.0
 70
     8
 71
     3
 72
    11
 73
     7
 74
     5
 42
0.0000000001
 43
0.0000000001
 44
0.00000001
 40
0.0
 40
0.0
 40
0.0
 40
0.0
 40
0.5521269407020954
 40
1.105196183334077
 40
1.651906304696217
 40
2.198197048696915
 40
2.198197048696915
 40
2.198197048696915
 40
2.198197048696915
 10
36.3286937901
 20
294.1614940995
 30
0.0
 10
36.32210835247942
 20
293.9773589090896
 30
0.0
 10
36.30892623802835
 20
293.6087742691149
 30
0.0
 10
36.21143787427405
 20
293.0653498644207
 30
0.0
 10
36.07180056119611
 20
292.5340757349243
 30
0.0
 10
35.94561053903364
 20
292.1920812548182
 30
0.0
 10
35.8825397371
 20
292.0211496253
 30
0.0
 11
36.3286937901
 21
294.1614940995
 31
0.0
 11
36.29594920769829
 21
293.610338993407
 31
0.0
 11
36.20388255477982
 21
293.0649865215451
 31
0.0
 11
36.0633910699338
 21
292.5366361647878
 31
0.0
 11
35.8825397371
 21
292.0211496253
 31
0.0
  0
SPLINE
  5
104
330
1F
100
AcDbEntity
  8
BEZUGSACHSEN
  6
Continuous
 62
     7
100
AcDbSpline
210
0.0
220
0.0
230
1.0
 70
     8
 71
     3
 72
    19
 73
    15
 74
    13
 42
0.0000000001
 43
0.0000000001
 44
0.00000001
 40
0.0
 40
0.0
 40
0.0
 40
0.0
 40
0.2679411643612041
 40
0.5361267937603569
 40
0.8065304774573975
 40
1.076465993310942
 40
1.213913376207411
 40
1.351353104915046
 40
1.49158636708327
 40
1.6318078975732
 40
1.775491562791471
 40
1.919219204777463
 40
2.065713007423765
 40
2.211936409434778
 40
2.211936409434778
 40
2.211936409434778
 40
2.211936409434778
 10
35.8825397371
 20
292.0211496253
 30
0.0
 10
35.84864549330001
 20
291.9384780455873
 30
0.0
 10
35.78082608115877
 20
291.7730594579948
 30
0.0
 10
35.65618757488131
 20
291.5343934842887
 30
0.0
 10
35.51127677554264
 20
291.3067054882613
 30
0.0
 10
35.36823314401677
 20
291.130900996948
 30
0.0
 10
35.2391267571149
 20
291.0029512778398
 30
0.0
 10
35.13301165805253
 20
290.9138642570492
 30
0.0
 10
35.01820223040617
 20
290.8345626167421
 30
0.0
 10
34.89374261817209
 20
290.7668921493145
 30
0.0
 10
34.76088906303502
 20
290.7140894626323
 30
0.0
 10
34.62023826415754
 20
290.6789231986261
 30
0.0
 10
34.47491288103467
 20
290.662570996683
 30
0.0
 10
34.37740346195676
 20
290.6691937300345
 30
0.0
 10
34.3286937901
 20
290.6725020378
 30
0.0
 11
35.8825397371
 21
292.0211496253
 31
0.0
 11
35.77710247738106
 21
291.7748257494329
 31
0.0
 11
35.65323296180443
 21
291.5369605041215
 31
0.0
 11
35.50688747549115
 21
291.3095816335274
 31
0.0
 11
35.33563528436267
 21
291.1009243313479
 31
0.0
 11
35.23784284568335
 21
291.0043405749381
 31
0.0
 11
35.13242585642865
 21
290.9161536291711
 31
0.0
 11
35.01688721271523
 21
290.8366791702097
 31
0.0
 11
34.89356520282186
 21
290.7699426772782
 31
0.0
 11
34.75993451462201
 21
290.7171427263143
 31
0.0
 11
34.62050681341422
 21
290.6822492999024
 31
0.0
 11
34.47481237488356
 21
290.6669664731021
 31
0.0
 11
34.3286937901
 21
290.6725020378
 31
0.0
  0
SPLINE
  5
105
330
1F
100
AcDbEntity
  8
BEZUGSACHSEN
  6
Continuous
 62
     7
100
AcDbSpline
210
0.0
220
0.0
230
1.0
 70
     8
 71
     3
 72
    15
 73
    11
 74
     9
 42
0.0000000001
 43
0.0000000001
 44
0.00000001
 40
0.0
 40
0.0
 40
0.0
 40
0.0
 40
0.1110371613090641
 40
0.2222522336978426
 40
0.33339801914265
 40
0.4445069474327007
 40
0.5556201064917266
 40
0.6667525641924942
 40
0.7778876032911559
 40
0.8889820915608255
 40
0.8889820915608255
 40
0.8889820915608255
 40
0.8889820915608255
 10
28.2286193054
 20
291.354617239
 30
0.0
 10
28.19197757853951
 20
291.3601493918219
 30
0.0
 10
28.11863541502164
 20
291.3712225614466
 30
0.0
 10
28.01211886503478
 20
291.404241125013
 30
0.0
 10
27.90970595729163
 20
291.4478314124813
 30
0.0
 10
27.81225599167173
 20
291.5016109203058
 30
0.0
 10
27.71995119593529
 20
291.5637060556576
 30
0.0
 10
27.63295456779898
 20
291.63299272928
 30
0.0
 10
27.55070181233768
 20
291.7078746808951
 30
0.0
 10
27.49992182592494
 20
291.7618372623983
 30
0.0
 10
27.4745364657
 20
291.7888136298
 30
0.0
 11
28.2286193054
 21
291.354617239
 31
0.0
 11
28.11927702035124
 21
291.3739437982357
 31
0.0
 11
28.01278506676315
 21
291.4060102315801
 31
0.0
 11
27.91051688616535
 21
291.4495372905131
 31
0.0
 11
27.81311401972643
 21
291.5029963922195
 31
0.0
 11
27.7208422529242
 21
291.5648999879734
 31
0.0
 11
27.63374514950604
 21
291.6339254740694
 31
0.0
 11
27.55170524503929
 21
291.7088951412058
 31
0.0
 11
27.4745364657
 21
291.7888136298
 31
0.0
  0
SPLINE
  5
106
330
1F
100
AcDbEntity
  8
BEZUGSACHSEN
  6
Continuous
 62
     7
100
AcDbSpline
210
0.0
220
0.0
230
1.0
 70
     8
 71
     3
 72
    11
 73
     7
 74
     5
 42
0.0000000001
 43
0.0000000001
 44
0.00000001
 40
0.0
 40
0.0
 40
0.0
 40
0.0
 40
0.9140556660002828
 40
1.828030949185934
 40
2.27980697487112
 40
2.730944124762505
 40
2.730944124762505
 40
2.730944124762505
 40
2.730944124762505
 10
27.5956467169854
 20
292.021149625485
 30
0.0
 10
27.72830142394878
 20
292.2958662231516
 30
0.0
 10
27.9935991721104
 20
292.8452752596788
 30
0.0
 10
28.20895438542296
 20
293.5779861807837
 30
0.0
 10
28.31264859908539
 20
294.1759313868897
 30
0.0
 10
28.32334791660649
 20
294.4770546023166
 30
0.0
 10
28.3286937901
 20
294.6275096769
 30
0.0
 11
27.5956467169854
 21
292.021149625485
 31
0.0
 11
27.97045424676086
 21
292.8548264670554
 31
0.0
 11
28.22974560715873
 21
293.731250342071
 31
0.0
 11
28.30246258065736
 21
294.1771357748327
 31
0.0
 11
28.3286937901
 21
294.6275096769
 31
0.0
  0
SPLINE
  5
107
330
1F
100
AcDbEntity
  8
BEZUGSACHSEN
  6
Continuous
 62
     7
100
AcDbSpline
210
0.0
220
0.0
230
1.0
 70
     8
 71
     3
 72
    11
 73
     7
 74
     5
 42
0.0000000001
 43
0.0000000001
 44
0.00000001
 40
0.0
 40
0.0
 40
0.0
 40
0.0
 40
0.8249192367595041
 40
1.650116892030078
 40
2.190492152392522
 40
2.730585915477301
 40
2.730585915477301
 40
2.730585915477301
 40
2.730585915477301
 10
28.3286937901
 20
319.4347895736
 30
0.0
 10
28.31096048576373
 20
319.7099798656063
 30
0.0
 10
28.27548789192323
 20
320.2604533291009
 30
0.0
 10
28.06705307528244
 20
320.965186914287
 30
0.0
 10
27.83682664430071
 20
321.5574006393708
 30
0.0
 10
27.6760260614988
 20
321.8799279728159
 30
0.0
 10
27.5956467169854
 20
322.041149625115
 30
0.0
 11
28.3286937901
 21
319.4347895736
 31
0.0
 11
28.24511833598429
 21
320.2554642293834
 31
0.0
 11
28.02715689387252
 21
321.0513561692953
 31
0.0
 11
27.82922181531333
 21
321.5541753482131
 31
0.0
 11
27.5956467169854
 21
322.041149625115
 31
0.0
  0
DIMENSION
  5
112
330
1F
100
AcDbEntity
  8
1
100
AcDbDimension
  2
*D2
 10
246.84147156802
 20
314.0311496253
 30
0.0
 11
243.09147156802
 21
307.944631710801
 31
0.0
 70
    32
  1
<>
 71
     5
 42
-1.0
 53
90.0
  3
ME10_DIM_10
100
AcDbAlignedDimension
 13
236.3286937901
 23
300.0311496253
 33
0.0
 14
236.3286937901
 24
314.0311496253
 34
0.0
 50
90.0
100
AcDbRotatedDimension
  0
DIMENSION
  5
11D
330
1F
100
AcDbEntity
  8
1
100
AcDbDimension
  2
*D3
 10
255.147491917732
 20
329.0311496253
 30
0.0
 11
251.397491917732
 21
307.944631710801
 31
0.0
 70
    32
  1
<>
 71
     5
 42
-1.0
 53
90.0
  3
ME10_DIM_11
100
AcDbAlignedDimension
 13
223.2399576044
 23
285.0311496253
 33
0.0
 14
223.2399576044
 24
329.0311496253
 34
0.0
 50
90.0
100
AcDbRotatedDimension
  0
DIMENSION
  5
128
330
1F
100
AcDbEntity
  8
1
100
AcDbDimension
  2
*D4
 10
236.3286937901
 20
364.483857950942
 30
0.0
 11
171.212970489069
 21
368.233857950942
 31
0.0
 70
    32
  1
<>
 71
     5
 42
-1.0
 53
0.00013888888889
  3
ME10_DIM_12
100
AcDbAlignedDimension
 13
105.3286937901
 23
357.0311127041
 33
0.0
 14
236.3286937901
 24
322.3940793645
 34
0.0
100
AcDbRotatedDimension
  0
DIMENSION
  5
133
330
1F
100
AcDbEntity
  8
1
100
AcDbDimension
  2
*D5
 10
236.3286937901
 20
372.061280024363
 30
0.0
 11
151.103658063452
 21
375.811280024363
 31
0.0
 70
    32
  1
<>
 71
     5
 42
-1.0
 53
0.00013888888889
  3
ME10_DIM_13
100
AcDbAlignedDimension
 13
76.3286937901
 23
357.0311496253
 33
0.0
 14
236.3286937901
 24
322.3940793645
 34
0.0
100
AcDbRotatedDimension
  0
DIMENSION
  5
13E
330
1F
100
AcDbEntity
  8
1
100
AcDbDimension
  2
*D6
 10
236.3286937901
 20
379.638702097783
 30
0.0
 11
143.089077024256
 21
383.388702097783
 31
0.0
 70
    32
  1
<>
 71
     5
 42
-1.0
 53
0.00013888888889
  3
ME10_DIM_14
100
AcDbAlignedDimension
 13
26.3286937901
 23
340.6313411878
 33
0.0
 14
236.3286937901
 24
322.3940793645
 34
0.0
100
AcDbRotatedDimension
  0
INSERT
  5
145
330
1F
100
AcDbEntity
  8
1
100
AcDbBlockReference
  2
*D7
 10
0.0
 20
0.0
 30
0.0
  0
ENDSEC
  0
SECTION
  2
OBJECTS
  0
DICTIONARY
  5
C
330
0
100
AcDbDictionary
281
     1
  3
ACAD_GROUP
350
D
  3
ACAD_LAYOUT
350
1A
  3
ACAD_MLEADERSTYLE
350
148
  3
ACAD_MLINESTYLE
350
17
  3
ACAD_PLOTSETTINGS
350
19
  3
ACAD_PLOTSTYLENAME
350
E
  3
ACAD_SCALELIST
350
4B
  3
ACAD_VISUALSTYLE
350
2A
  3
AcDbVariableDictionary
350
146
  0
DICTIONARY
  5
D
102
{ACAD_REACTORS
330
C
102
}
330
C
100
AcDbDictionary
281
     1
  0
DICTIONARY
  5
1A
102
{ACAD_REACTORS
330
C
102
}
330
C
100
AcDbDictionary
281
     1
  3
Layout1
350
1E
  3
Layout2
350
26
  3
Model
350
22
  0
DICTIONARY
  5
148
102
{ACAD_REACTORS
330
C
102
}
330
C
100
AcDbDictionary
281
     1
  0
DICTIONARY
  5
17
102
{ACAD_REACTORS
330
C
102
}
330
C
100
AcDbDictionary
281
     1
  3
Standard
350
18
  0
DICTIONARY
  5
19
102
{ACAD_REACTORS
330
C
102
}
330
C
100
AcDbDictionary
281
     1
  0
ACDBDICTIONARYWDFLT
  5
E
102
{ACAD_REACTORS
330
C
102
}
330
C
100
AcDbDictionary
281
     1
  3
Normal
350
F
100
AcDbDictionaryWithDefault
340
F
  0
DICTIONARY
  5
4B
102
{ACAD_REACTORS
330
C
102
}
330
C
100
AcDbDictionary
281
     1
  3
A0
350
4C
  3
A1
350
4D
  3
A2
350
4E
  3
A3
350
4F
  3
A4
350
50
  3
A5
350
51
  3
A6
350
52
  3
A7
350
53
  3
A8
350
54
  3
A9
350
55
  3
B0
350
56
  3
B1
350
57
  3
B2
350
58
  3
B3
350
59
  3
B4
350
5A
  3
B5
350
5B
  3
B6
350
5C
  3
B7
350
5D
  3
B8
350
5E
  3
B9
350
5F
  3
C0
350
60
  3
C1
350
61
  3
C2
350
62
  3
C3
350
63
  3
C4
350
64
  3
C5
350
65
  3
C6
350
66
  3
C7
350
67
  3
C8
350
68
  3
C9
350
69
  3
D0
350
6A
  3
D1
350
6B
  3
D2
350
6C
  0
DICTIONARY
  5
2A
102
{ACAD_REACTORS
330
C
102
}
330
C
100
AcDbDictionary
281
     1
  3
2dWireframe
350
2F
  3
3D Hidden
350
31
  3
3dWireframe
350
30
  3
Basic
350
32
  3
Brighten
350
36
  3
ColorChange
350
3A
  3
Conceptual
350
34
  3
Dim
350
35
  3
Facepattern
350
39
  3
Flat
350
2B
  3
FlatWithEdges
350
2C
  3
Gouraud
350
2D
  3
GouraudWithEdges
350
2E
  3
Linepattern
350
38
  3
Realistic
350
33
  3
Thicken
350
37
  0
DICTIONARY
  5
146
102
{ACAD_REACTORS
330
C
102
}
330
C
100
AcDbDictionary
281
     1
  3
CANNOSCALE
350
149
  0
LAYOUT
  5
1E
102
{ACAD_REACTORS
330
1A
102
}
330
1A
100
AcDbPlotSettings
  1

  2
none_device
  4

  6

 40
0.0
 41
0.0
 42
0.0
 43
0.0
 44
0.0
 45
0.0
 46
0.0
 47
0.0
 48
0.0
 49
0.0
140
0.0
141
0.0
142
1.0
143
1.0
 70
   688
 72
     0
 73
     0
 74
     5
  7

 75
    16
147
1.0
148
0.0
149
0.0
100
AcDbLayout
  1
Layout1
 70
     1
 71
     1
 10
0.0
 20
0.0
 11
12.0
 21
9.0
 12
0.0
 22
0.0
 32
0.0
 14
1.00000000000000E+20
 24
1.00000000000000E+20
 34
1.00000000000000E+20
 15
-1.00000000000000E+20
 25
-1.00000000000000E+20
 35
-1.00000000000000E+20
146
0.0
 13
0.0
 23
0.0
 33
0.0
 16
1.0
 26
0.0
 36
0.0
 17
0.0
 27
1.0
 37
0.0
 76
     0
330
1B
  0
LAYOUT
  5
26
102
{ACAD_REACTORS
330
1A
102
}
330
1A
100
AcDbPlotSettings
  1

  2
none_device
  4

  6

 40
0.0
 41
0.0
 42
0.0
 43
0.0
 44
0.0
 45
0.0
 46
0.0
 47
0.0
 48
0.0
 49
0.0
140
0.0
141
0.0
142
1.0
143
1.0
 70
   688
 72
     0
 73
     0
 74
     5
  7

 75
    16
147
1.0
148
0.0
149
0.0
100
AcDbLayout
  1
Layout2
 70
     1
 71
     2
 10
0.0
 20
0.0
 11
0.0
 21
0.0
 12
0.0
 22
0.0
 32
0.0
 14
0.0
 24
0.0
 34
0.0
 15
0.0
 25
0.0
 35
0.0
146
0.0
 13
0.0
 23
0.0
 33
0.0
 16
1.0
 26
0.0
 36
0.0
 17
0.0
 27
1.0
 37
0.0
 76
     0
330
23
  0
LAYOUT
  5
22
102
{ACAD_REACTORS
330
1A
102
}
330
1A
100
AcDbPlotSettings
  1

  2
none_device
  4

  6

 40
0.0
 41
0.0
 42
0.0
 43
0.0
 44
0.0
 45
0.0
 46
0.0
 47
0.0
 48
0.0
 49
0.0
140
0.0
141
0.0
142
1.0
143
1.0
 70
  1712
 72
     0
 73
     0
 74
     0
  7

 75
     0
147
1.0
148
0.0
149
0.0
100
AcDbLayout
  1
Model
 70
     1
 71
     0
 10
0.0
 20
0.0
 11
12.0
 21
9.0
 12
0.0
 22
0.0
 32
0.0
 14
3.585959060477
 24
257.0311496253
 34
0.0
 15
257.147491917732
 25
385.138702097783
 35
0.0
146
0.0
 13
0.0
 23
0.0
 33
0.0
 16
1.0
 26
0.0
 36
0.0
 17
0.0
 27
1.0
 37
0.0
 76
     0
330
1F
331
29
  0
MLINESTYLE
  5
18
102
{ACAD_REACTORS
330
17
102
}
330
17
100
AcDbMlineStyle
  2
Standard
 70
     0
  3

 62
   256
 51
90.0
 52
90.0
 71
     2
 49
0.5
 62
   256
  6
BYLAYER
 49
-0.5
 62
   256
  6
BYLAYER
  0
ACDBPLACEHOLDER
  5
F
102
{ACAD_REACTORS
330
E
102
}
330
E
  0
SCALE
  5
4C
102
{ACAD_REACTORS
330
4B
102
}
330
4B
100
AcDbScale
 70
     0
300
1:1
140
1.0
141
1.0
290
     1
  0
SCALE
  5
4D
102
{ACAD_REACTORS
330
4B
102
}
330
4B
100
AcDbScale
 70
     0
300
1:2
140
1.0
141
2.0
290
     0
  0
SCALE
  5
4E
102
{ACAD_REACTORS
330
4B
102
}
330
4B
100
AcDbScale
 70
     0
300
1:4
140
1.0
141
4.0
290
     0
  0
SCALE
  5
4F
102
{ACAD_REACTORS
330
4B
102
}
330
4B
100
AcDbScale
 70
     0
300
1:5
140
1.0
141
5.0
290
     0
  0
SCALE
  5
50
102
{ACAD_REACTORS
330
4B
102
}
330
4B
100
AcDbScale
 70
     0
300
1:8
140
1.0
141
8.0
290
     0
  0
SCALE
  5
51
102
{ACAD_REACTORS
330
4B
102
}
330
4B
100
AcDbScale
 70
     0
300
1:10
140
1.0
141
10.0
290
     0
  0
SCALE
  5
52
102
{ACAD_REACTORS
330
4B
102
}
330
4B
100
AcDbScale
 70
     0
300
1:16
140
1.0
141
16.0
290
     0
  0
SCALE
  5
53
102
{ACAD_REACTORS
330
4B
102
}
330
4B
100
AcDbScale
 70
     0
300
1:20
140
1.0
141
20.0
290
     0
  0
SCALE
  5
54
102
{ACAD_REACTORS
330
4B
102
}
330
4B
100
AcDbScale
 70
     0
300
1:30
140
1.0
141
30.0
290
     0
  0
SCALE
  5
55
102
{ACAD_REACTORS
330
4B
102
}
330
4B
100
AcDbScale
 70
     0
300
1:40
140
1.0
141
40.0
290
     0
  0
SCALE
  5
56
102
{ACAD_REACTORS
330
4B
102
}
330
4B
100
AcDbScale
 70
     0
300
1:50
140
1.0
141
50.0
290
     0
  0
SCALE
  5
57
102
{ACAD_REACTORS
330
4B
102
}
330
4B
100
AcDbScale
 70
     0
300
1:100
140
1.0
141
100.0
290
     0
  0
SCALE
  5
58
102
{ACAD_REACTORS
330
4B
102
}
330
4B
100
AcDbScale
 70
     0
300
2:1
140
2.0
141
1.0
290
     0
  0
SCALE
  5
59
102
{ACAD_REACTORS
330
4B
102
}
330
4B
100
AcDbScale
 70
     0
300
4:1
140
4.0
141
1.0
290
     0
  0
SCALE
  5
5A
102
{ACAD_REACTORS
330
4B
102
}
330
4B
100
AcDbScale
 70
     0
300
8:1
140
8.0
141
1.0
290
     0
  0
SCALE
  5
5B
102
{ACAD_REACTORS
330
4B
102
}
330
4B
100
AcDbScale
 70
     0
300
10:1
140
10.0
141
1.0
290
     0
  0
SCALE
  5
5C
102
{ACAD_REACTORS
330
4B
102
}
330
4B
100
AcDbScale
 70
     0
300
100:1
140
100.0
141
1.0
290
     0
  0
SCALE
  5
5D
102
{ACAD_REACTORS
330
4B
102
}
330
4B
100
AcDbScale
 70
     0
300
1/128" = 1'-0"
140
0.0078125
141
12.0
290
     0
  0
SCALE
  5
5E
102
{ACAD_REACTORS
330
4B
102
}
330
4B
100
AcDbScale
 70
     0
300
1/64" = 1'-0"
140
0.015625
141
12.0
290
     0
  0
SCALE
  5
5F
102
{ACAD_REACTORS
330
4B
102
}
330
4B
100
AcDbScale
 70
     0
300
1/32" = 1'-0"
140
0.03125
141
12.0
290
     0
  0
SCALE
  5
60
102
{ACAD_REACTORS
330
4B
102
}
330
4B
100
AcDbScale
 70
     0
300
1/16" = 1'-0"
140
0.0625
141
12.0
290
     0
  0
SCALE
  5
61
102
{ACAD_REACTORS
330
4B
102
}
330
4B
100
AcDbScale
 70
     0
300
3/32" = 1'-0"
140
0.09375
141
12.0
290
     0
  0
SCALE
  5
62
102
{ACAD_REACTORS
330
4B
102
}
330
4B
100
AcDbScale
 70
     0
300
1/8" = 1'-0"
140
0.125
141
12.0
290
     0
  0
SCALE
  5
63
102
{ACAD_REACTORS
330
4B
102
}
330
4B
100
AcDbScale
 70
     0
300
3/16" = 1'-0"
140
0.1875
141
12.0
290
     0
  0
SCALE
  5
64
102
{ACAD_REACTORS
330
4B
102
}
330
4B
100
AcDbScale
 70
     0
300
1/4" = 1'-0"
140
0.25
141
12.0
290
     0
  0
SCALE
  5
65
102
{ACAD_REACTORS
330
4B
102
}
330
4B
100
AcDbScale
 70
     0
300
3/8" = 1'-0"
140
0.375
141
12.0
290
     0
  0
SCALE
  5
66
102
{ACAD_REACTORS
330
4B
102
}
330
4B
100
AcDbScale
 70
     0
300
1/2" = 1'-0"
140
0.5
141
12.0
290
     0
  0
SCALE
  5
67
102
{ACAD_REACTORS
330
4B
102
}
330
4B
100
AcDbScale
 70
     0
300
3/4" = 1'-0"
140
0.75
141
12.0
290
     0
  0
SCALE
  5
68
102
{ACAD_REACTORS
330
4B
102
}
330
4B
100
AcDbScale
 70
     0
300
1" = 1'-0"
140
1.0
141
12.0
290
     0
  0
SCALE
  5
69
102
{ACAD_REACTORS
330
4B
102
}
330
4B
100
AcDbScale
 70
     0
300
1-1/2" = 1'-0"
140
1.5
141
12.0
290
     0
  0
SCALE
  5
6A
102
{ACAD_REACTORS
330
4B
102
}
330
4B
100
AcDbScale
 70
     0
300
3" = 1'-0"
140
3.0
141
12.0
290
     0
  0
SCALE
  5
6B
102
{ACAD_REACTORS
330
4B
102
}
330
4B
100
AcDbScale
 70
     0
300
6" = 1'-0"
140
6.0
141
12.0
290
     0
  0
SCALE
  5
6C
102
{ACAD_REACTORS
330
4B
102
}
330
4B
100
AcDbScale
 70
     0
300
1'-0" = 1'-0"
140
12.0
141
12.0
290
     0
  0
VISUALSTYLE
  5
2F
102
{ACAD_REACTORS
330
2A
102
}
330
2A
100
AcDbVisualStyle
  2
2dWireframe
 70
     4
 71
     0
 72
     2
 73
     0
 90
        0
 40
-0.6
 41
-30.0
 62
     5
 63
     7
 74
     1
 91
        4
 64
     7
 65
   257
 75
     1
175
     1
 42
1.0
 92
        0
 66
   257
 43
1.0
 76
     1
 77
     6
 78
     2
 67
     7
 79
     5
170
     0
171
     0
290
     0
174
     0
 93
        1
 44
0.0
173
     0
291
     0
 45
0.0
1001
ACAD
1000
AcDbSavedByObjectVersion
1070
     0
  0
VISUALSTYLE
  5
31
102
{ACAD_REACTORS
330
2A
102
}
330
2A
100
AcDbVisualStyle
  2
3D Hidden
 70
     6
 71
     1
 72
     2
 73
     2
 90
        0
 40
-0.6
 41
-30.0
 62
     5
 63
     7
 74
     2
 91
        2
 64
     7
 65
   257
 75
     2
175
     1
 42
40.0
 92
        0
 66
   257
 43
1.0
 76
     1
 77
     6
 78
     2
 67
     7
 79
     3
170
     0
171
     0
290
     0
174
     0
 93
        1
 44
0.0
173
     0
291
     0
 45
0.0
1001
ACAD
1000
AcDbSavedByObjectVersion
1070
     0
  0
VISUALSTYLE
  5
30
102
{ACAD_REACTORS
330
2A
102
}
330
2A
100
AcDbVisualStyle
  2
3dWireframe
 70
     5
 71
     0
 72
     2
 73
     0
 90
        0
 40
-0.6
 41
-30.0
 62
     5
 63
     7
 74
     1
 91
        4
 64
     7
 65
   257
 75
     1
175
     1
 42
1.0
 92
        0
 66
   257
 43
1.0
 76
     1
 77
     6
 78
     2
 67
     7
 79
     5
170
     0
171
     0
290
     0
174
     0
 93
        1
 44
0.0
173
     0
291
     0
 45
0.0
1001
ACAD
1000
AcDbSavedByObjectVersion
1070
     0
  0
VISUALSTYLE
  5
32
102
{ACAD_REACTORS
330
2A
102
}
330
2A
100
AcDbVisualStyle
  2
Basic
 70
     7
 71
     1
 72
     0
 73
     1
 90
        0
 40
-0.6
 41
-30.0
 62
     5
 63
     7
 74
     0
 91
        4
 64
     7
 65
   257
 75
     1
175
     1
 42
1.0
 92
        8
 66
     7
 43
1.0
 76
     1
 77
     6
 78
     2
 67
     7
 79
     5
170
     0
171
     0
290
     0
174
     0
 93
        1
 44
0.0
173
     0
291
     1
 45
0.0
1001
ACAD
1000
AcDbSavedByObjectVersion
1070
     0
  0
VISUALSTYLE
  5
36
102
{ACAD_REACTORS
330
2A
102
}
330
2A
100
AcDbVisualStyle
  2
Brighten
 70
    12
 71
     2
 72
     2
 73
     0
 90
        0
 40
-0.6
 41
-30.0
 62
     5
 63
     7
 74
     1
 91
        4
 64
     7
 65
   257
 75
     1
175
     1
 42
1.0
 92
        8
 66
     7
 43
1.0
 76
     1
 77
     6
 78
     2
 67
     7
 79
     5
170
     0
171
     0
290
     0
174
     0
 93
        1
 44
50.0
173
     0
291
     1
 45
0.0
1001
ACAD
1000
AcDbSavedByObjectVersion
1070
     0
  0
VISUALSTYLE
  5
3A
102
{ACAD_REACTORS
330
2A
102
}
330
2A
100
AcDbVisualStyle
  2
ColorChange
 70
    16
 71
     2
 72
     2
 73
     3
 90
        0
 40
-0.6
 41
-30.0
 62
     5
 63
     8
 74
     1
 91
        4
 64
     7
 65
   257
 75
     1
175
     1
 42
1.0
 92
        8
 66
     8
 43
1.0
 76
     1
 77
     6
 78
     2
 67
     7
 79
     5
170
     0
171
     0
290
     0
174
     0
 93
        1
 44
0.0
173
     0
291
     1
 45
0.0
1001
ACAD
1000
AcDbSavedByObjectVersion
1070
     0
  0
VISUALSTYLE
  5
34
102
{ACAD_REACTORS
330
2A
102
}
330
2A
100
AcDbVisualStyle
  2
Conceptual
 70
     9
 71
     3
 72
     2
 73
     0
 90
        0
 40
-0.6
 41
-30.0
 62
     5
 63
     7
 74
     2
 91
        2
 64
     7
 65
   257
 75
     1
175
     1
 42
40.0
 92
        8
 66
     7
 43
1.0
 76
     1
 77
     6
 78
     2
 67
     7
 79
     3
170
     0
171
     0
290
     0
174
     0
 93
        1
 44
0.0
173
     0
291
     0
 45
0.0
1001
ACAD
1000
AcDbSavedByObjectVersion
1070
     0
  0
VISUALSTYLE
  5
35
102
{ACAD_REACTORS
330
2A
102
}
330
2A
100
AcDbVisualStyle
  2
Dim
 70
    11
 71
     2
 72
     2
 73
     0
 90
        0
 40
-0.6
 41
-30.0
 62
     5
 63
     7
 74
     1
 91
        4
 64
     7
 65
   257
 75
     1
175
     1
 42
1.0
 92
        8
 66
     7
 43
1.0
 76
     1
 77
     6
 78
     2
 67
     7
 79
     5
170
     0
171
     0
290
     0
174
     0
 93
        1
 44
-50.0
173
     0
291
     1
 45
0.0
1001
ACAD
1000
AcDbSavedByObjectVersion
1070
     0
  0
VISUALSTYLE
  5
39
102
{ACAD_REACTORS
330
2A
102
}
330
2A
100
AcDbVisualStyle
  2
Facepattern
 70
    15
 71
     2
 72
     2
 73
     0
 90
        0
 40
-0.6
 41
-30.0
 62
     5
 63
     7
 74
     1
 91
        4
 64
     7
 65
   257
 75
     1
175
     1
 42
1.0
 92
        8
 66
     7
 43
1.0
 76
     1
 77
     6
 78
     2
 67
     7
 79
     5
170
     0
171
     0
290
     0
174
     0
 93
        1
 44
0.0
173
     0
291
     1
 45
0.0
1001
ACAD
1000
AcDbSavedByObjectVersion
1070
     0
  0
VISUALSTYLE
  5
2B
102
{ACAD_REACTORS
330
2A
102
}
330
2A
100
AcDbVisualStyle
  2
Flat
 70
     0
 71
     2
 72
     1
 73
     1
 90
        2
 40
-0.6
 41
30.0
 62
     5
 63
     7
 74
     0
 91
        4
 64
     7
 65
   257
 75
     1
175
     1
 42
1.0
 92
        8
 66
     7
 43
1.0
 76
     1
 77
     6
 78
     2
 67
     7
 79
     5
170
     0
171
     0
290
     0
174
     0
 93
       13
 44
0.0
173
     0
291
     1
 45
0.0
1001
ACAD
1000
AcDbSavedByObjectVersion
1070
     0
  0
VISUALSTYLE
  5
2C
102
{ACAD_REACTORS
330
2A
102
}
330
2A
100
AcDbVisualStyle
  2
FlatWithEdges
 70
     1
 71
     2
 72
     1
 73
     1
 90
        2
 40
-0.6
 41
30.0
 62
     5
 63
     7
 74
     1
 91
        4
 64
     7
 65
   257
 75
     1
175
     1
 42
1.0
 92
        0
 66
   257
 43
1.0
 76
     1
 77
     6
 78
     2
 67
     7
 79
     5
170
     0
171
     0
290
     0
174
     0
 93
       13
 44
0.0
173
     0
291
     1
 45
0.0
1001
ACAD
1000
AcDbSavedByObjectVersion
1070
     0
  0
VISUALSTYLE
  5
2D
102
{ACAD_REACTORS
330
2A
102
}
330
2A
100
AcDbVisualStyle
  2
Gouraud
 70
     2
 71
     2
 72
     2
 73
     1
 90
        2
 40
-0.6
 41
30.0
 62
     5
 63
     7
 74
     0
 91
        4
 64
     7
 65
   257
 75
     1
175
     1
 42
1.0
 92
        0
 66
     7
 43
1.0
 76
     1
 77
     6
 78
     2
 67
     7
 79
     5
170
     0
171
     0
290
     0
174
     0
 93
       13
 44
0.0
173
     0
291
     1
 45
0.0
1001
ACAD
1000
AcDbSavedByObjectVersion
1070
     0
  0
VISUALSTYLE
  5
2E
102
{ACAD_REACTORS
330
2A
102
}
330
2A
100
AcDbVisualStyle
  2
GouraudWithEdges
 70
     3
 71
     2
 72
     2
 73
     1
 90
        2
 40
-0.6
 41
30.0
 62
     5
 63
     7
 74
     1
 91
        4
 64
     7
 65
   257
 75
     1
175
     1
 42
1.0
 92
        0
 66
   257
 43
1.0
 76
     1
 77
     6
 78
     2
 67
     7
 79
     5
170
     0
171
     0
290
     0
174
     0
 93
       13
 44
0.0
173
     0
291
     1
 45
0.0
1001
ACAD
1000
AcDbSavedByObjectVersion
1070
     0
  0
VISUALSTYLE
  5
38
102
{ACAD_REACTORS
330
2A
102
}
330
2A
100
AcDbVisualStyle
  2
Linepattern
 70
    14
 71
     2
 72
     2
 73
     0
 90
        0
 40
-0.6
 41
-30.0
 62
     5
 63
     7
 74
     1
 91
        4
 64
     7
 65
   257
 75
     7
175
     7
 42
1.0
 92
        8
 66
     7
 43
1.0
 76
     1
 77
     6
 78
     2
 67
     7
 79
     5
170
     0
171
     0
290
     0
174
     0
 93
        1
 44
0.0
173
     0
291
     1
 45
0.0
1001
ACAD
1000
AcDbSavedByObjectVersion
1070
     0
  0
VISUALSTYLE
  5
33
102
{ACAD_REACTORS
330
2A
102
}
330
2A
100
AcDbVisualStyle
  2
Realistic
 70
     8
 71
     2
 72
     2
 73
     0
 90
        0
 40
-0.6
 41
-30.0
 62
     5
 63
     7
 74
     1
 91
        0
 64
     7
 65
   257
 75
     1
175
     1
 42
1.0
 92
        8
 66
     8
 43
1.0
 76
     1
 77
     6
 78
     2
 67
     7
 79
     5
170
     0
171
     0
290
     0
174
     0
 93
       13
 44
0.0
173
     0
291
     0
 45
0.0
1001
ACAD
1000
AcDbSavedByObjectVersion
1070
     0
  0
VISUALSTYLE
  5
37
102
{ACAD_REACTORS
330
2A
102
}
330
2A
100
AcDbVisualStyle
  2
Thicken
 70
    13
 71
     2
 72
     2
 73
     0
 90
        0
 40
-0.6
 41
-30.0
 62
     5
 63
     7
 74
     1
 91
        4
 64
     7
 65
   257
 75
     1
175
     1
 42
1.0
 92
       12
 66
     7
 43
1.0
 76
     1
 77
     6
 78
     2
 67
     7
 79
     5
170
     0
171
     0
290
     0
174
     0
 93
        1
 44
0.0
173
     0
291
     1
 45
0.0
1001
ACAD
1000
AcDbSavedByObjectVersion
1070
     0
  0
DICTIONARYVAR
  5
149
102
{ACAD_REACTORS
330
146
102
}
330
146
100
DictionaryVariables
280
     0
  1
1:1
  0
ENDSEC
  0
EOF
