  0
SECTION
  2
HEADER
  9
$ACADVER
  1
AC1015
  9
$ACADMAINTVER
 70
     6
  9
$DWGCODEPAGE
  3
ANSI_1252
  9
$INSBASE
 10
0.0
 20
0.0
 30
0.0
  9
$EXTMIN
 10
-13.02101450670903
 20
280.2392431745
 30
0.0
  9
$EXTMAX
 10
240.602975403364
 20
407.992114254553
 30
0.0
  9
$LIMMIN
 10
0.0
 20
0.0
  9
$LIMMAX
 10
12.0
 20
9.0
  9
$ORTHOMODE
 70
     0
  9
$REGENMODE
 70
     1
  9
$FILLMODE
 70
     1
  9
$QTEXTMODE
 70
     0
  9
$MIRRTEXT
 70
     1
  9
$LTSCALE
 40
1.0
  9
$ATTMODE
 70
     1
  9
$TEXTSIZE
 40
0.2
  9
$TRACEWID
 40
0.05
  9
$TEXTSTYLE
  7
Standard
  9
$CLAYER
  8
0
  9
$CELTYPE
  6
ByLayer
  9
$CECOLOR
 62
   256
  9
$CELTSCALE
 40
1.0
  9
$DISPSILH
 70
     0
  9
$DIMSCALE
 40
1.0
  9
$DIMASZ
 40
0.18
  9
$DIMEXO
 40
0.0625
  9
$DIMDLI
 40
0.38
  9
$DIMRND
 40
0.0
  9
$DIMDLE
 40
0.0
  9
$DIMEXE
 40
0.18
  9
$DIMTP
 40
0.0
  9
$DIMTM
 40
0.0
  9
$DIMTXT
 40
0.18
  9
$DIMCEN
 40
0.09
  9
$DIMTSZ
 40
0.0
  9
$DIMTOL
 70
     0
  9
$DIMLIM
 70
     0
  9
$DIMTIH
 70
     1
  9
$DIMTOH
 70
     1
  9
$DIMSE1
 70
     0
  9
$DIMSE2
 70
     0
  9
$DIMTAD
 70
     0
  9
$DIMZIN
 70
     0
  9
$DIMBLK
  1

  9
$DIMASO
 70
     1
  9
$DIMSHO
 70
     1
  9
$DIMPOST
  1

  9
$DIMAPOST
  1

  9
$DIMALT
 70
     0
  9
$DIMALTD
 70
     2
  9
$DIMALTF
 40
25.4
  9
$DIMLFAC
 40
1.0
  9
$DIMTOFL
 70
     0
  9
$DIMTVP
 40
0.0
  9
$DIMTIX
 70
     0
  9
$DIMSOXD
 70
     0
  9
$DIMSAH
 70
     0
  9
$DIMBLK1
  1

  9
$DIMBLK2
  1

  9
$DIMSTYLE
  2
Standard
  9
$DIMCLRD
 70
     0
  9
$DIMCLRE
 70
     0
  9
$DIMCLRT
 70
     0
  9
$DIMTFAC
 40
1.0
  9
$DIMGAP
 40
0.09
  9
$DIMJUST
 70
     0
  9
$DIMSD1
 70
     0
  9
$DIMSD2
 70
     0
  9
$DIMTOLJ
 70
     1
  9
$DIMTZIN
 70
     0
  9
$DIMALTZ
 70
     0
  9
$DIMALTTZ
 70
     0
  9
$DIMUPT
 70
     0
  9
$DIMDEC
 70
     4
  9
$DIMTDEC
 70
     4
  9
$DIMALTU
 70
     2
  9
$DIMALTTD
 70
     2
  9
$DIMTXSTY
  7
Standard
  9
$DIMAUNIT
 70
     0
  9
$DIMADEC
 70
     0
  9
$DIMALTRND
 40
0.0
  9
$DIMAZIN
 70
     0
  9
$DIMDSEP
 70
    46
  9
$DIMATFIT
 70
     3
  9
$DIMFRAC
 70
     0
  9
$DIMLDRBLK
  1

  9
$DIMLUNIT
 70
     2
  9
$DIMLWD
 70
    -2
  9
$DIMLWE
 70
    -2
  9
$DIMTMOVE
 70
     0
  9
$LUNITS
 70
     2
  9
$LUPREC
 70
     4
  9
$SKETCHINC
 40
0.1
  9
$FILLETRAD
 40
0.5
  9
$AUNITS
 70
     0
  9
$AUPREC
 70
     0
  9
$MENU
  1
.
  9
$ELEVATION
 40
0.0
  9
$PELEVATION
 40
0.0
  9
$THICKNESS
 40
0.0
  9
$LIMCHECK
 70
     0
  9
$CHAMFERA
 40
0.5
  9
$CHAMFERB
 40
0.5
  9
$CHAMFERC
 40
1.0
  9
$CHAMFERD
 40
0.0
  9
$SKPOLY
 70
     0
  9
$TDCREATE
 40
2456748.734509653
  9
$TDUCREATE
 40
2456748.651176319
  9
$TDUPDATE
 40
2456748.734509664
  9
$TDUUPDATE
 40
2456748.651176331
  9
$TDINDWG
 40
0.0000000116
  9
$TDUSRTIMER
 40
0.0000000116
  9
$USRTIMER
 70
     1
  9
$ANGBASE
 50
0.0
  9
$ANGDIR
 70
     0
  9
$PDMODE
 70
     0
  9
$PDSIZE
 40
0.0
  9
$PLINEWID
 40
0.0
  9
$SPLFRAME
 70
     0
  9
$SPLINETYPE
 70
     6
  9
$SPLINESEGS
 70
     8
  9
$HANDSEED
  5
14A
  9
$SURFTAB1
 70
     6
  9
$SURFTAB2
 70
     6
  9
$SURFTYPE
 70
     6
  9
$SURFU
 70
     6
  9
$SURFV
 70
     6
  9
$UCSBASE
  2

  9
$UCSNAME
  2

  9
$UCSORG
 10
0.0
 20
0.0
 30
0.0
  9
$UCSXDIR
 10
1.0
 20
0.0
 30
0.0
  9
$UCSYDIR
 10
0.0
 20
1.0
 30
0.0
  9
$UCSORTHOREF
  2

  9
$UCSORTHOVIEW
 70
     0
  9
$UCSORGTOP
 10
0.0
 20
0.0
 30
0.0
  9
$UCSORGBOTTOM
 10
0.0
 20
0.0
 30
0.0
  9
$UCSORGLEFT
 10
0.0
 20
0.0
 30
0.0
  9
$UCSORGRIGHT
 10
0.0
 20
0.0
 30
0.0
  9
$UCSORGFRONT
 10
0.0
 20
0.0
 30
0.0
  9
$UCSORGBACK
 10
0.0
 20
0.0
 30
0.0
  9
$PUCSBASE
  2

  9
$PUCSNAME
  2

  9
$PUCSORG
 10
0.0
 20
0.0
 30
0.0
  9
$PUCSXDIR
 10
1.0
 20
0.0
 30
0.0
  9
$PUCSYDIR
 10
0.0
 20
1.0
 30
0.0
  9
$PUCSORTHOREF
  2

  9
$PUCSORTHOVIEW
 70
     0
  9
$PUCSORGTOP
 10
0.0
 20
0.0
 30
0.0
  9
$PUCSORGBOTTOM
 10
0.0
 20
0.0
 30
0.0
  9
$PUCSORGLEFT
 10
0.0
 20
0.0
 30
0.0
  9
$PUCSORGRIGHT
 10
0.0
 20
0.0
 30
0.0
  9
$PUCSORGFRONT
 10
0.0
 20
0.0
 30
0.0
  9
$PUCSORGBACK
 10
0.0
 20
0.0
 30
0.0
  9
$USERI1
 70
     0
  9
$USERI2
 70
     0
  9
$USERI3
 70
     0
  9
$USERI4
 70
     0
  9
$USERI5
 70
     0
  9
$USERR1
 40
16.5
  9
$USERR2
 40
0.0
  9
$USERR3
 40
0.0
  9
$USERR4
 40
0.0
  9
$USERR5
 40
0.0
  9
$WORLDVIEW
 70
     1
  9
$SHADEDGE
 70
     3
  9
$SHADEDIF
 70
    70
  9
$TILEMODE
 70
     1
  9
$MAXACTVP
 70
    64
  9
$PINSBASE
 10
0.0
 20
0.0
 30
0.0
  9
$PLIMCHECK
 70
     0
  9
$PEXTMIN
 10
1.00000000000000E+20
 20
1.00000000000000E+20
 30
1.00000000000000E+20
  9
$PEXTMAX
 10
-1.00000000000000E+20
 20
-1.00000000000000E+20
 30
-1.00000000000000E+20
  9
$PLIMMIN
 10
0.0
 20
0.0
  9
$PLIMMAX
 10
12.0
 20
9.0
  9
$UNITMODE
 70
     0
  9
$VISRETAIN
 70
     1
  9
$PLINEGEN
 70
     0
  9
$PSLTSCALE
 70
     1
  9
$TREEDEPTH
 70
  3020
  9
$CMLSTYLE
  2
Standard
  9
$CMLJUST
 70
     0
  9
$CMLSCALE
 40
1.0
  9
$PROXYGRAPHICS
 70
     1
  9
$MEASUREMENT
 70
     1
  9
$CELWEIGHT
370
    -1
  9
$ENDCAPS
280
     0
  9
$JOINSTYLE
280
     0
  9
$LWDISPLAY
290
     0
  9
$INSUNITS
 70
     1
  9
$HYPERLINKBASE
  1

  9
$STYLESHEET
  1

  9
$XEDIT
290
     1
  9
$CEPSNTYPE
380
     0
  9
$PSTYLEMODE
290
     1
  9
$FINGERPRINTGUID
  2
{E9CC9EE8-9205-4C31-BC99-D827E2FDCF47}
  9
$VERSIONGUID
  2
{FAEB1C32-E019-11D5-929B-00C0DF256EC4}
  9
$EXTNAMES
290
     1
  9
$PSVPSCALE
 40
0.0
  9
$OLESTARTUP
290
     0
  0
ENDSEC
  0
SECTION
  2
CLASSES
  0
CLASS
  1
ACDBDICTIONARYWDFLT
  2
AcDbDictionaryWithDefault
  3
ObjectDBX Classes
 90
        0
280
     0
281
     0
  0
CLASS
  1
VISUALSTYLE
  2
AcDbVisualStyle
  3
ObjectDBX Classes
 90
     4095
280
     0
281
     0
  0
CLASS
  1
SCALE
  2
AcDbScale
  3
ObjectDBX Classes
 90
     1153
280
     0
281
     0
  0
CLASS
  1

  2
exOdDbPolyline
  3

 90
        0
280
     0
281
     1
  0
CLASS
  1

  2
exOdDbCircle
  3

 90
        0
280
     0
281
     1
  0
CLASS
  1

  2
exOdDbSpline
  3

 90
        0
280
     0
281
     1
  0
CLASS
  1
DICTIONARYVAR
  2
AcDbDictionaryVar
  3
ObjectDBX Classes
 90
        0
280
     0
281
     0
  0
CLASS
  1
ACDBPLACEHOLDER
  2
AcDbPlaceHolder
  3
ObjectDBX Classes
 90
        0
280
     0
281
     0
  0
CLASS
  1
LAYOUT
  2
AcDbLayout
  3
ObjectDBX Classes
 90
        0
280
     0
281
     0
  0
ENDSEC
  0
SECTION
  2
TABLES
  0
TABLE
  2
VPORT
  5
8
330
0
100
AcDbSymbolTable
 70
     1
  0
VPORT
  5
29
330
8
100
AcDbSymbolTableRecord
100
AcDbViewportTableRecord
  2
*Active
 70
     0
 10
0.0
 20
0.0
 11
1.0
 21
1.0
 12
113.7909804483275
 22
344.1156787145265
 13
0.0
 23
0.0
 14
0.5
 24
0.5
 15
0.5
 25
0.5
 16
0.0
 26
0.0
 36
1.0
 17
0.0
 27
0.0
 37
0.0
 40
174.075072740507
 41
1.60267857142857
 42
50.0
 43
0.0
 44
0.0
 50
0.0
 51
0.0
 71
     0
 72
   100
 73
     1
 74
     3
 75
     0
 76
     0
 77
     0
 78
     0
281
     0
 65
     1
110
0.0
120
0.0
130
0.0
111
1.0
121
0.0
131
0.0
112
0.0
122
1.0
132
0.0
 79
     0
146
0.0
  0
ENDTAB
  0
TABLE
  2
LTYPE
  5
5
330
0
100
AcDbSymbolTable
 70
     8
  0
LTYPE
  5
14
330
5
100
AcDbSymbolTableRecord
100
AcDbLinetypeTableRecord
  2
ByBlock
 70
     0
  3

 72
    65
 73
     0
 40
0.0
  0
LTYPE
  5
15
330
5
100
AcDbSymbolTableRecord
100
AcDbLinetypeTableRecord
  2
ByLayer
 70
     0
  3

 72
    65
 73
     0
 40
0.0
  0
LTYPE
  5
16
330
5
100
AcDbSymbolTableRecord
100
AcDbLinetypeTableRecord
  2
Continuous
 70
     0
  3
Solid line
 72
    65
 73
     0
 40
0.0
  0
LTYPE
  5
3B
330
5
100
AcDbSymbolTableRecord
100
AcDbLinetypeTableRecord
  2
DASHED
 70
     0
  3
Dashed
 72
    65
 73
     2
 40
15.0
 49
7.0
 74
     0
 49
-8.0
 74
     0
  0
LTYPE
  5
3C
330
5
100
AcDbSymbolTableRecord
100
AcDbLinetypeTableRecord
  2
DOTTED
 70
     0
  3
Dotted
 72
    65
 73
     2
 40
1.0
 49
0.0
 74
     0
 49
-1.0
 74
     0
  0
LTYPE
  5
3D
330
5
100
AcDbSymbolTableRecord
100
AcDbLinetypeTableRecord
  2
DOT_CENTER
 70
     0
  3
Dot_Center
 72
    65
 73
     4
 40
14.0
 49
12.0
 74
     0
 49
-1.0
 74
     0
 49
0.0
 74
     0
 49
-1.0
 74
     0
  0
LTYPE
  5
3E
330
5
100
AcDbSymbolTableRecord
100
AcDbLinetypeTableRecord
  2
LONG_DASHED
 70
     0
  3
Long_Dashed
 72
    65
 73
     2
 40
15.0
 49
10.0
 74
     0
 49
-5.0
 74
     0
  0
LTYPE
  5
3F
330
5
100
AcDbSymbolTableRecord
100
AcDbLinetypeTableRecord
  2
DASH_CENTER
 70
     0
  3
Dash_Center
 72
    65
 73
     4
 40
14.0
 49
11.0
 74
     0
 49
-1.0
 74
     0
 49
1.0
 74
     0
 49
-1.0
 74
     0
  0
LTYPE
  5
40
330
5
100
AcDbSymbolTableRecord
100
AcDbLinetypeTableRecord
  2
PHANTOM
 70
     0
  3
Phantom
 72
    65
 73
     6
 40
13.0
 49
10.0
 74
     0
 49
-1.0
 74
     0
 49
0.0
 74
     0
 49
-1.0
 74
     0
 49
0.0
 74
     0
 49
-1.0
 74
     0
  0
LTYPE
  5
41
330
5
100
AcDbSymbolTableRecord
100
AcDbLinetypeTableRecord
  2
CENTER_DASH_DASH
 70
     0
  3
Center_Dash_Dash
 72
    65
 73
     6
 40
14.0
 49
9.0
 74
     0
 49
-1.0
 74
     0
 49
1.0
 74
     0
 49
-1.0
 74
     0
 49
1.0
 74
     0
 49
-1.0
 74
     0
  0
ENDTAB
  0
TABLE
  2
LAYER
  5
2
330
0
100
AcDbSymbolTable
 70
     7
  0
LAYER
  5
10
330
2
100
AcDbSymbolTableRecord
100
AcDbLayerTableRecord
  2
0
 70
     0
 62
     7
  6
Continuous
370
    -3
390
F
  0
LAYER
  5
42
330
2
100
AcDbSymbolTableRecord
100
AcDbLayerTableRecord
  2
1
 70
     0
 62
     7
  6
Continuous
370
    -3
390
F
  0
LAYER
  5
43
330
2
100
AcDbSymbolTableRecord
100
AcDbLayerTableRecord
  2
BEZUGSACHSEN
 70
     0
 62
     7
  6
Continuous
370
    -3
390
F
  0
LAYER
  5
44
330
2
100
AcDbSymbolTableRecord
100
AcDbLayerTableRecord
  2
DEFAULT_2
 70
     0
 62
     7
  6
Continuous
370
    -3
390
F
  0
LAYER
  5
45
330
2
100
AcDbSymbolTableRecord
100
AcDbLayerTableRecord
  2
FASEN
 70
     0
 62
     7
  6
Continuous
370
    -3
390
F
  0
LAYER
  5
46
330
2
100
AcDbSymbolTableRecord
100
AcDbLayerTableRecord
  2
GEWINDE
 70
     0
 62
     7
  6
Continuous
370
    -3
390
F
  0
LAYER
  5
47
330
2
100
AcDbSymbolTableRecord
100
AcDbLayerTableRecord
  2
RUNDUNGEN
 70
     0
 62
     7
  6
Continuous
370
    -3
390
F
  0
ENDTAB
  0
TABLE
  2
STYLE
  5
3
330
0
100
AcDbSymbolTable
 70
     2
  0
STYLE
  5
11
330
3
100
AcDbSymbolTableRecord
100
AcDbTextStyleTableRecord
  2
Standard
 70
     0
 40
0.0
 41
1.0
 50
0.0
 71
     0
 42
0.2
  3
txt
  4

  0
STYLE
  5
6E
330
3
100
AcDbSymbolTableRecord
100
AcDbTextStyleTableRecord
  2
CONVERTER_11
 70
     0
 40
0.0
 41
0.72
 50
0.0
 71
     0
 42
0.2
  3
txt.shx
  4

  0
ENDTAB
  0
TABLE
  2
VIEW
  5
6
330
0
100
AcDbSymbolTable
 70
     0
  0
ENDTAB
  0
TABLE
  2
UCS
  5
7
330
0
100
AcDbSymbolTable
 70
     0
  0
ENDTAB
  0
TABLE
  2
APPID
  5
9
330
0
100
AcDbSymbolTable
 70
     1
  0
APPID
  5
12
330
9
100
AcDbSymbolTableRecord
100
AcDbRegAppTableRecord
  2
ACAD
 70
     0
  0
ENDTAB
  0
TABLE
  2
DIMSTYLE
  5
A
330
0
100
AcDbSymbolTable
 70
     6
100
AcDbDimStyleTable
  0
DIMSTYLE
105
27
330
A
100
AcDbSymbolTableRecord
100
AcDbDimStyleTableRecord
  2
Standard
 70
     0
340
11
  0
DIMSTYLE
105
111
102
{ACAD_REACTORS
330
112
102
}
330
A
100
AcDbSymbolTableRecord
100
AcDbDimStyleTableRecord
  2
ME10_DIM_10
 70
     0
  3
\U+2300<>
 41
3.5
 42
2.0
 44
2.0
 71
     1
 73
     0
 74
     0
 77
     1
 78
     8
140
3.5
146
0.7
147
2.0
172
     1
173
     1
176
     2
177
     2
178
     3
271
     2
272
     0
340
6E
  0
DIMSTYLE
105
11C
102
{ACAD_REACTORS
330
11D
102
}
330
A
100
AcDbSymbolTableRecord
100
AcDbDimStyleTableRecord
  2
ME10_DIM_11
 70
     0
  3
\U+2300<>
 41
3.5
 42
2.0
 44
2.0
 71
     1
 73
     0
 74
     0
 77
     1
 78
     8
140
3.5
146
0.7
147
2.0
172
     1
173
     1
176
     2
177
     2
178
     3
271
     2
272
     0
340
6E
  0
DIMSTYLE
105
127
102
{ACAD_REACTORS
330
128
102
}
330
A
100
AcDbSymbolTableRecord
100
AcDbDimStyleTableRecord
  2
ME10_DIM_12
 70
     0
  3
<>
 41
3.5
 42
2.0
 44
2.0
 71
     1
 73
     0
 74
     0
 77
     1
 78
     8
140
3.5
146
0.7
147
2.0
172
     1
173
     1
176
     2
177
     2
178
     3
271
     2
272
     0
340
6E
  0
DIMSTYLE
105
132
102
{ACAD_REACTORS
330
133
102
}
330
A
100
AcDbSymbolTableRecord
100
AcDbDimStyleTableRecord
  2
ME10_DIM_13
 70
     0
  3
<>
 41
3.5
 42
2.0
 44
2.0
 71
     1
 73
     0
 74
     0
 77
     1
 78
     8
140
3.5
146
0.7
147
2.0
172
     1
173
     1
176
     2
177
     2
178
     3
271
     2
272
     0
340
6E
  0
DIMSTYLE
105
13D
102
{ACAD_REACTORS
330
13E
102
}
330
A
100
AcDbSymbolTableRecord
100
AcDbDimStyleTableRecord
  2
ME10_DIM_14
 70
     0
  3
<>
 41
3.5
 42
2.0
 44
2.0
 71
     1
 73
     0
 74
     0
 77
     1
 78
     8
140
3.5
146
0.7
147
2.0
172
     1
173
     1
176
     2
177
     2
178
     3
271
     2
272
     0
340
6E
  0
ENDTAB
  0
TABLE
  2
BLOCK_RECORD
  5
1
330
0
100
AcDbSymbolTable
 70
     8
  0
BLOCK_RECORD
  5
1F
330
1
100
AcDbSymbolTableRecord
100
AcDbBlockTableRecord
  2
*Model_Space
340
22
  0
BLOCK_RECORD
  5
1B
330
1
100
AcDbSymbolTableRecord
100
AcDbBlockTableRecord
  2
*Paper_Space
340
1E
  0
BLOCK_RECORD
  5
23
330
1
100
AcDbSymbolTableRecord
100
AcDbBlockTableRecord
  2
*Paper_Space0
340
26
  0
BLOCK_RECORD
  5
48
330
1
100
AcDbSymbolTableRecord
100
AcDbBlockTableRecord
  2
Urheberrecht_DE-EN
340
0
102
{BLKREFS
331
6D
102
}
  0
BLOCK_RECORD
  5
108
330
1
100
AcDbSymbolTableRecord
100
AcDbBlockTableRecord
  2
*D2
340
0
  0
BLOCK_RECORD
  5
113
330
1
100
AcDbSymbolTableRecord
100
AcDbBlockTableRecord
  2
*D3
340
0
  0
BLOCK_RECORD
  5
11E
330
1
100
AcDbSymbolTableRecord
100
AcDbBlockTableRecord
  2
*D4
340
0
  0
BLOCK_RECORD
  5
129
330
1
100
AcDbSymbolTableRecord
100
AcDbBlockTableRecord
  2
*D5
340
0
  0
BLOCK_RECORD
  5
134
330
1
100
AcDbSymbolTableRecord
100
AcDbBlockTableRecord
  2
*D6
340
0
  0
BLOCK_RECORD
  5
13F
330
1
100
AcDbSymbolTableRecord
100
AcDbBlockTableRecord
  2
*D7
340
0
102
{BLKREFS
331
145
102
}
  0
ENDTAB
  0
ENDSEC
  0
SECTION
  2
BLOCKS
  0
BLOCK
  5
20
330
1F
100
AcDbEntity
  8
0
100
AcDbBlockBegin
  2
*Model_Space
 70
     0
 10
0.0
 20
0.0
 30
0.0
  3
*Model_Space
  1

  0
ENDBLK
  5
21
330
1F
100
AcDbEntity
  8
0
100
AcDbBlockEnd
  0
BLOCK
  5
1C
330
1B
100
AcDbEntity
 67
     1
  8
0
100
AcDbBlockBegin
  2
*Paper_Space
 70
     0
 10
0.0
 20
0.0
 30
0.0
  3
*Paper_Space
  1

  0
ENDBLK
  5
1D
330
1B
100
AcDbEntity
 67
     1
  8
0
100
AcDbBlockEnd
  0
BLOCK
  5
24
330
23
100
AcDbEntity
  8
0
100
AcDbBlockBegin
  2
*Paper_Space0
 70
     0
 10
0.0
 20
0.0
 30
0.0
  3
*Paper_Space0
  1

  0
ENDBLK
  5
25
330
23
100
AcDbEntity
  8
0
100
AcDbBlockEnd
  0
BLOCK
  5
49
330
48
100
AcDbEntity
  8
0
100
AcDbBlockBegin
  2
Urheberrecht_DE-EN
 70
     0
 10
0.97898549329097
 20
339.699695664659
 30
0.0
  3
Urheberrecht_DE-EN
  1

  0
MTEXT
  5
6F
330
48
100
AcDbEntity
  8
1
 62
     1
100
AcDbMText
 10
0.97898549329097
 20
339.699695664659
 30
0.0
 40
2.0
 41
0.0
 71
     7
 72
     1
  1
We own the copyright of this document. It \Pdetermined and may neither be copied or \Pmade accessible to outsiders without our\Ppermission.
  7
CONVERTER_11
 11
0.0
 21
1.0
 31
0.0
 73
     1
 44
0.90036014405762
  0
MTEXT
  5
70
330
48
100
AcDbEntity
  8
1
 62
     1
100
AcDbMText
 10
0.97898549329097
 20
283.4103087473528
 30
0.0
 40
2.0
 41
0.0
 71
     7
 72
     1
  1
F\U+00fcr diese Unterlage behalten wir das Ur-\Pheberrecht. Sie darf nur f\U+00fcr den von uns \Pbestimmten Zweck benutzt und ohne unsere \PZustimmung weder vervielf\U+00e4ltigt noch\PDritten zug\U+00e4nglich gemacht werden.
  7
CONVERTER_11
 11
0.0
 21
1.0
 31
0.0
 73
     1
 44
0.90036014405762
  0
ENDBLK
  5
4A
330
48
100
AcDbEntity
  8
0
100
AcDbBlockEnd
  0
BLOCK
  5
10F
330
108
100
AcDbEntity
  8
0
100
AcDbBlockBegin
  2
*D2
 70
     1
 10
0.0
 20
0.0
 30
0.0
  3
*D2
  1

  0
LINE
  5
109
330
108
100
AcDbEntity
  8
1
  6
Continuous
 62
     2
100
AcDbLine
 10
229.219161197366
 20
336.2392431745
 30
0.0
 11
229.219161197366
 21
324.2392431745
 31
0.0
  0
LINE
  5
10A
330
108
100
AcDbEntity
  8
1
  6
Continuous
 62
     2
100
AcDbLine
 10
220.4195580166
 20
336.2392431745
 30
0.0
 11
231.219161197366
 21
336.2392431745
 31
0.0
  0
LINE
  5
10B
330
108
100
AcDbEntity
  8
1
  6
Continuous
 62
     2
100
AcDbLine
 10
220.4195580166
 20
324.2392431745
 30
0.0
 11
231.219161197366
 21
324.2392431745
 31
0.0
  0
SOLID
  5
10C
330
108
100
AcDbEntity
  8
1
 62
     2
100
AcDbTrace
 10
229.6799449389219
 20
332.7392431745
 30
0.0
 11
228.7583774558101
 21
332.7392431745
 31
0.0
 12
229.219161197366
 22
336.2392431745
 32
0.0
 13
229.219161197366
 23
336.2392431745
 33
0.0
  0
SOLID
  5
10D
330
108
100
AcDbEntity
  8
1
 62
     2
100
AcDbTrace
 10
228.7583774558101
 20
327.7392431745
 30
0.0
 11
229.6799449389219
 21
327.7392431745
 31
0.0
 12
229.219161197366
 22
324.2392431745
 32
0.0
 13
229.219161197366
 23
324.2392431745
 33
0.0
  0
MTEXT
  5
10E
330
108
100
AcDbEntity
  8
1
 62
     3
100
AcDbMText
 10
227.219161197366
 20
322.120283958729
 30
0.0
 40
3.5
 41
0.0
 71
     7
 72
     1
  1
\C3;%%c\C3;\C3;12\C2;\H2.45;\S^ ;\C3;
  7
CONVERTER_11
 11
0.0
 21
1.0
 31
0.0
 73
     1
 44
0.60024009603842
  0
ENDBLK
  5
110
330
108
100
AcDbEntity
  8
0
100
AcDbBlockEnd
  0
BLOCK
  5
11A
330
113
100
AcDbEntity
  8
0
100
AcDbBlockBegin
  2
*D3
 70
     1
 10
0.0
 20
0.0
 30
0.0
  3
*D3
  1

  0
LINE
  5
114
330
113
100
AcDbEntity
  8
1
  6
Continuous
 62
     2
100
AcDbLine
 10
238.602975403364
 20
351.2392431745
 30
0.0
 11
238.602975403364
 21
309.2392431745
 31
0.0
  0
LINE
  5
115
330
113
100
AcDbEntity
  8
1
  6
Continuous
 62
     2
100
AcDbLine
 10
207.3308218309
 20
351.2392431745
 30
0.0
 11
240.602975403364
 21
351.2392431745
 31
0.0
  0
LINE
  5
116
330
113
100
AcDbEntity
  8
1
  6
Continuous
 62
     2
100
AcDbLine
 10
207.3308218309
 20
309.2392431745
 30
0.0
 11
240.602975403364
 21
309.2392431745
 31
0.0
  0
SOLID
  5
117
330
113
100
AcDbEntity
  8
1
 62
     2
100
AcDbTrace
 10
239.0637591449199
 20
347.7392431745
 30
0.0
 11
238.1421916618081
 21
347.7392431745
 31
0.0
 12
238.602975403364
 22
351.2392431745
 32
0.0
 13
238.602975403364
 23
351.2392431745
 33
0.0
  0
SOLID
  5
118
330
113
100
AcDbEntity
  8
1
 62
     2
100
AcDbTrace
 10
238.1421916618081
 20
312.7392431745
 30
0.0
 11
239.0637591449199
 21
312.7392431745
 31
0.0
 12
238.602975403364
 22
309.2392431745
 32
0.0
 13
238.602975403364
 23
309.2392431745
 33
0.0
  0
MTEXT
  5
119
330
113
100
AcDbEntity
  8
1
 62
     3
100
AcDbMText
 10
236.602975403364
 20
322.742929981618
 30
0.0
 40
3.5
 41
0.0
 71
     7
 72
     1
  1
\C3;%%c\C3;\C3;42\C2;\H2.45;\S^ ;\C3;
  7
CONVERTER_11
 11
0.0
 21
1.0
 31
0.0
 73
     1
 44
0.60024009603842
  0
ENDBLK
  5
11B
330
113
100
AcDbEntity
  8
0
100
AcDbBlockEnd
  0
BLOCK
  5
125
330
11E
100
AcDbEntity
  8
0
100
AcDbBlockBegin
  2
*D4
 70
     1
 10
0.0
 20
0.0
 30
0.0
  3
*D4
  1

  0
LINE
  5
11F
330
11E
100
AcDbEntity
  8
1
  6
Continuous
 62
     2
100
AcDbLine
 10
218.4195580166
 20
387.279517998238
 30
0.0
 11
87.4195580166
 21
387.279517998238
 31
0.0
  0
LINE
  5
120
330
11E
100
AcDbEntity
  8
1
  6
Continuous
 62
     2
100
AcDbLine
 10
218.4195580166
 20
346.6021729137
 30
0.0
 11
218.4195580166
 21
389.279517998238
 31
0.0
  0
LINE
  5
121
330
11E
100
AcDbEntity
  8
1
  6
Continuous
 62
     2
100
AcDbLine
 10
87.4195580166
 20
382.2392062534
 30
0.0
 11
87.4195580166
 21
389.279517998238
 31
0.0
  0
SOLID
  5
122
330
11E
100
AcDbEntity
  8
1
 62
     2
100
AcDbTrace
 10
214.9195580166
 20
386.8187342566821
 30
0.0
 11
214.9195580166
 21
387.7403017397939
 31
0.0
 12
218.4195580166
 22
387.279517998238
 32
0.0
 13
218.4195580166
 23
387.279517998238
 33
0.0
  0
SOLID
  5
123
330
11E
100
AcDbEntity
  8
1
 62
     2
100
AcDbTrace
 10
90.9195580166
 20
387.7403017397939
 30
0.0
 11
90.9195580166
 21
386.8187342566821
 31
0.0
 12
87.4195580166
 22
387.279517998238
 32
0.0
 13
87.4195580166
 23
387.279517998238
 33
0.0
  0
MTEXT
  5
124
330
11E
100
AcDbEntity
  8
1
 62
     3
100
AcDbMText
 10
151.232292577981
 20
389.279517998238
 30
0.0
 40
3.5
 41
0.0
 71
     7
 72
     1
  1
\C3;\C3;\C3;131\C2;\H2.45;\S^ ;\C3;
  7
CONVERTER_11
 11
0.9999999999970619
 21
2.424068405545306E-6
 31
0.0
 73
     1
 44
0.60024009603842
  0
ENDBLK
  5
126
330
11E
100
AcDbEntity
  8
0
100
AcDbBlockEnd
  0
BLOCK
  5
130
330
129
100
AcDbEntity
  8
0
100
AcDbBlockBegin
  2
*D5
 70
     1
 10
0.0
 20
0.0
 30
0.0
  3
*D5
  1

  0
LINE
  5
12A
330
129
100
AcDbEntity
  8
1
  6
Continuous
 62
     2
100
AcDbLine
 10
218.4195580166
 20
394.885816126396
 30
0.0
 11
58.41955801660001
 21
394.885816126396
 31
0.0
  0
LINE
  5
12B
330
129
100
AcDbEntity
  8
1
  6
Continuous
 62
     2
100
AcDbLine
 10
218.4195580166
 20
346.6021729137
 30
0.0
 11
218.4195580166
 21
396.885816126396
 31
0.0
  0
LINE
  5
12C
330
129
100
AcDbEntity
  8
1
  6
Continuous
 62
     2
100
AcDbLine
 10
58.41955801660001
 20
382.2392431745
 30
0.0
 11
58.41955801660001
 21
396.885816126396
 31
0.0
  0
SOLID
  5
12D
330
129
100
AcDbEntity
  8
1
 62
     2
100
AcDbTrace
 10
214.9195580166
 20
394.4250323848401
 30
0.0
 11
214.9195580166
 21
395.3465998679519
 31
0.0
 12
218.4195580166
 22
394.885816126396
 32
0.0
 13
218.4195580166
 23
394.885816126396
 33
0.0
  0
SOLID
  5
12E
330
129
100
AcDbEntity
  8
1
 62
     2
100
AcDbTrace
 10
61.91955801660001
 20
395.3465998679519
 30
0.0
 11
61.91955801660001
 21
394.4250323848401
 31
0.0
 12
58.41955801660001
 22
394.885816126396
 32
0.0
 13
58.41955801660001
 23
394.885816126396
 33
0.0
  0
MTEXT
  5
12F
330
129
100
AcDbEntity
  8
1
 62
     3
100
AcDbMText
 10
133.172154365872
 20
396.885816126396
 30
0.0
 40
3.5
 41
0.0
 71
     7
 72
     1
  1
\C3;\C3;\C3;160\C2;\H2.45;\S^ ;\C3;
  7
CONVERTER_11
 11
0.9999999999970619
 21
2.424068405545306E-6
 31
0.0
 73
     1
 44
0.60024009603842
  0
ENDBLK
  5
131
330
129
100
AcDbEntity
  8
0
100
AcDbBlockEnd
  0
BLOCK
  5
13B
330
134
100
AcDbEntity
  8
0
100
AcDbBlockBegin
  2
*D6
 70
     1
 10
0.0
 20
0.0
 30
0.0
  3
*D6
  1

  0
LINE
  5
135
330
134
100
AcDbEntity
  8
1
  6
Continuous
 62
     2
100
AcDbLine
 10
218.4195580166
 20
402.492114254553
 30
0.0
 11
8.41955801660001
 21
402.492114254553
 31
0.0
  0
LINE
  5
136
330
134
100
AcDbEntity
  8
1
  6
Continuous
 62
     2
100
AcDbLine
 10
218.4195580166
 20
346.6021729137
 30
0.0
 11
218.4195580166
 21
404.492114254553
 31
0.0
  0
LINE
  5
137
330
134
100
AcDbEntity
  8
1
  6
Continuous
 62
     2
100
AcDbLine
 10
8.41955801660001
 20
365.8394347371
 30
0.0
 11
8.41955801660001
 21
404.492114254553
 31
0.0
  0
SOLID
  5
138
330
134
100
AcDbEntity
  8
1
 62
     2
100
AcDbTrace
 10
214.9195580166
 20
402.0313305129971
 30
0.0
 11
214.9195580166
 21
402.9528979961088
 31
0.0
 12
218.4195580166
 22
402.492114254553
 32
0.0
 13
218.4195580166
 23
402.492114254553
 33
0.0
  0
SOLID
  5
139
330
134
100
AcDbEntity
  8
1
 62
     2
100
AcDbTrace
 10
11.91955801660001
 20
402.9528979961088
 30
0.0
 11
11.91955801660001
 21
402.0313305129971
 31
0.0
 12
8.41955801660001
 22
402.492114254553
 32
0.0
 13
8.41955801660001
 23
402.492114254553
 33
0.0
  0
MTEXT
  5
13A
330
134
100
AcDbEntity
  8
1
 62
     3
100
AcDbMText
 10
117.150377457626
 20
404.492114254553
 30
0.0
 40
3.5
 41
0.0
 71
     7
 72
     1
  1
\C3;\C3;\C3;210\C2;\H2.45;\S^ ;\C3;
  7
CONVERTER_11
 11
0.9999999999970619
 21
2.424068405545306E-6
 31
0.0
 73
     1
 44
0.60024009603842
  0
ENDBLK
  5
13C
330
134
100
AcDbEntity
  8
0
100
AcDbBlockEnd
  0
BLOCK
  5
143
330
13F
100
AcDbEntity
  8
0
100
AcDbBlockBegin
  2
*D7
 70
     1
 10
0.0
 20
0.0
 30
0.0
  3
*D7
  1

  0
LINE
  5
140
330
13F
100
AcDbEntity
  8
1
  6
Continuous
 62
     2
100
AcDbLine
 10
98.87729176626398
 20
366.5653164113322
 30
0.0
 11
92.12381637462845
 21
355.7477048050844
 31
0.0
  0
SOLID
  5
141
330
13F
100
AcDbEntity
  8
1
 62
     2
100
AcDbTrace
 10
93.58645985500384
 20
358.9606467133357
 30
0.0
 11
94.36819204363984
 21
358.4726083837146
 31
0.0
 12
92.12381637462845
 22
355.7477048050844
 32
0.0
 13
92.12381637462845
 23
355.7477048050844
 33
0.0
  0
MTEXT
  5
142
330
13F
100
AcDbEntity
  8
1
 62
     3
100
AcDbMText
 10
92.36163959009505
 20
359.9052656067823
 30
0.0
 40
3.5
 41
0.0
 71
     7
 72
     1
  1
\C3; R\C3;\C3;10\C2;\H2.45;\S^ ;\C3;
  7
CONVERTER_11
 11
0.5295741641981064
 21
0.8482636409830832
 31
0.0
 73
     1
 44
0.60024009603842
  0
ENDBLK
  5
144
330
13F
100
AcDbEntity
  8
0
100
AcDbBlockEnd
  0
ENDSEC
  0
SECTION
  2
ENTITIES
  0
INSERT
  5
6D
330
1F
100
AcDbEntity
  8
0
100
AcDbBlockReference
  2
Urheberrecht_DE-EN
 10
0.97898549329097
 20
339.699695664659
 30
0.0
  0
LINE
  5
71
330
1F
100
AcDbEntity
  8
BEZUGSACHSEN
  6
Continuous
 62
     7
100
AcDbLine
 10
8.4195580166
 20
296.6390516116
 30
0.0
 11
8.4195580166
 21
318.2292431745
 31
0.0
  0
LINE
  5
72
330
1F
100
AcDbEntity
  8
BEZUGSACHSEN
  6
Continuous
 62
     7
100
AcDbLine
 10
8.4195580166
 20
342.2492431745
 30
0.0
 11
8.4195580166
 21
363.8394347371
 31
0.0
  0
LINE
  5
73
330
1F
100
AcDbEntity
  8
BEZUGSACHSEN
  6
Continuous
 62
     9
100
AcDbLine
 10
10.3194835319
 20
365.8369294428
 30
0.0
 11
10.3194835319
 21
345.9157755608
 31
0.0
  0
LINE
  5
74
330
1F
100
AcDbEntity
  8
BEZUGSACHSEN
  6
Continuous
 62
     9
100
AcDbLine
 10
10.3194835319
 20
314.5627107883
 30
0.0
 11
10.3194835319
 21
294.6415569062
 31
0.0
  0
LINE
  5
75
330
1F
100
AcDbEntity
  8
BEZUGSACHSEN
  6
Continuous
 62
     7
100
AcDbLine
 10
10.4195580166
 20
317.8356032261
 30
0.0
 11
10.4195580166
 21
320.2292431745
 31
0.0
  0
LINE
  5
76
330
1F
100
AcDbEntity
  8
BEZUGSACHSEN
  6
Continuous
 62
     7
100
AcDbLine
 10
10.4195580166
 20
340.2492431745
 30
0.0
 11
10.4195580166
 21
342.6428831229
 31
0.0
  0
LINE
  5
77
330
1F
100
AcDbEntity
  8
BEZUGSACHSEN
  6
Continuous
 62
     9
100
AcDbLine
 10
16.4195580166
 20
313.8805955871
 30
0.0
 11
16.4195580166
 21
320.2292431745
 31
0.0
  0
LINE
  5
78
330
1F
100
AcDbEntity
  8
BEZUGSACHSEN
  6
Continuous
 62
     9
100
AcDbLine
 10
16.4195580166
 20
340.2492431745
 30
0.0
 11
16.4195580166
 21
346.597890762
 31
0.0
  0
LINE
  5
79
330
1F
100
AcDbEntity
  8
BEZUGSACHSEN
  6
Continuous
 62
     7
100
AcDbLine
 10
18.4195580166
 20
343.1088987003
 30
0.0
 11
18.4195580166
 21
317.3695876487
 31
0.0
  0
LINE
  5
7A
330
1F
100
AcDbEntity
  8
BEZUGSACHSEN
  6
Continuous
 62
     7
100
AcDbLine
 10
9.6865109436
 20
315.2292431745
 30
0.0
 11
9.5654006922
 21
314.9969071791
 31
0.0
  0
LINE
  5
7B
330
1F
100
AcDbEntity
  8
BEZUGSACHSEN
  6
Continuous
 62
     7
100
AcDbLine
 10
9.5654006922
 20
345.48157917
 30
0.0
 11
9.6865109436
 21
345.2492431745
 31
0.0
  0
LWPOLYLINE
  5
7C
330
1F
100
AcDbEntity
  8
BEZUGSACHSEN
  6
DOT_CENTER
 62
     7
100
AcDbPolyline
 90
        2
 70
     0
 43
0.25
 10
43.4195580166
 20
330.2392431745
 10
43.4195580166
 20
321.2392431745
  0
LWPOLYLINE
  5
7D
330
1F
100
AcDbEntity
  8
BEZUGSACHSEN
  6
DOT_CENTER
 62
     7
100
AcDbPolyline
 90
        2
 70
     0
 43
0.25
 10
43.4195580166
 20
330.2392431745
 10
43.4195580166
 20
339.2392431745
  0
LINE
  5
7E
330
1F
100
AcDbEntity
  8
BEZUGSACHSEN
  6
Continuous
 62
     7
100
AcDbLine
 10
8.4195580166
 20
318.2292431745
 30
0.0
 11
10.4195580166
 21
320.2292431745
 31
0.0
  0
LINE
  5
7F
330
1F
100
AcDbEntity
  8
BEZUGSACHSEN
  6
Continuous
 62
     7
100
AcDbLine
 10
10.4195580166
 20
340.2492431745
 30
0.0
 11
8.4195580166
 21
342.2492431745
 31
0.0
  0
LINE
  5
80
330
1F
100
AcDbEntity
  8
BEZUGSACHSEN
  6
Continuous
 62
     7
100
AcDbLine
 10
55.9195580166
 20
368.1214931745
 30
0.0
 11
55.9195580166
 21
292.3569931745
 31
0.0
  0
LINE
  5
81
330
1F
100
AcDbEntity
  8
BEZUGSACHSEN
  6
Continuous
 62
     9
100
AcDbLine
 10
56.5388016306
 20
292.5229190008
 30
0.0
 11
56.5388016306
 21
367.9555673482
 31
0.0
  0
LINE
  5
82
330
1F
100
AcDbEntity
  8
BEZUGSACHSEN
  6
Continuous
 62
     9
100
AcDbLine
 10
56.7976206757
 20
292.5569931745
 30
0.0
 11
56.7976206757
 21
367.9214931745
 31
0.0
  0
LINE
  5
83
330
1F
100
AcDbEntity
  8
BEZUGSACHSEN
  6
Continuous
 62
     9
100
AcDbLine
 10
57.7189867279
 20
292.5569931745
 30
0.0
 11
57.7189867279
 21
367.9214931745
 31
0.0
  0
LINE
  5
84
330
1F
100
AcDbEntity
  8
BEZUGSACHSEN
  6
Continuous
 62
     7
100
AcDbLine
 10
58.4195580166
 20
380.2392431745
 30
0.0
 11
58.4195580166
 21
280.2392431745
 31
0.0
  0
LWPOLYLINE
  5
85
330
1F
100
AcDbEntity
  8
BEZUGSACHSEN
  6
DOT_CENTER
 62
     7
100
AcDbPolyline
 90
        2
 70
     0
 43
0.25
 10
65.4195580166
 20
372.3886150298
 10
65.4195580166
 20
383.2392431745
  0
LINE
  5
86
330
1F
100
AcDbEntity
  8
BEZUGSACHSEN
  6
Continuous
 62
     7
100
AcDbLine
 10
80.2945580166
 20
377.8618384387
 30
0.0
 11
81.6671532808
 21
380.2392431745
 31
0.0
  0
LINE
  5
87
330
1F
100
AcDbEntity
  8
BEZUGSACHSEN
  6
Continuous
 62
     7
100
AcDbLine
 10
75.1719627524
 20
280.2392431745
 30
0.0
 11
58.4195580166
 21
280.2392431745
 31
0.0
  0
LINE
  5
88
330
1F
100
AcDbEntity
  8
BEZUGSACHSEN
  6
Continuous
 62
     7
100
AcDbLine
 10
81.6671532808
 20
280.2392431745
 30
0.0
 11
87.4195580166
 21
280.2392431745
 31
0.0
  0
LINE
  5
89
330
1F
100
AcDbEntity
  8
BEZUGSACHSEN
  6
Continuous
 62
     7
100
AcDbLine
 10
77.5445580166
 20
284.2392431745
 30
0.0
 11
79.2945580166
 21
284.2392431745
 31
0.0
  0
LINE
  5
8A
330
1F
100
AcDbEntity
  8
BEZUGSACHSEN
  6
Continuous
 62
     7
100
AcDbLine
 10
80.2945580166
 20
282.6166479103
 30
0.0
 11
81.6671532808
 21
280.2392431745
 31
0.0
  0
LINE
  5
8B
330
1F
100
AcDbEntity
  8
FASEN
  6
Continuous
 62
     9
100
AcDbLine
 10
71.3914319384
 20
298.3392431745
 30
0.0
 11
71.3914319384
 21
298.7392431745
 31
0.0
  0
LINE
  5
8C
330
1F
100
AcDbEntity
  8
FASEN
  6
Continuous
 62
     9
100
AcDbLine
 10
73.4195580166
 20
320.6392431745
 30
0.0
 11
73.4195580166
 21
320.2392431745
 31
0.0
  0
LINE
  5
8D
330
1F
100
AcDbEntity
  8
FASEN
  6
Continuous
 62
     9
100
AcDbLine
 10
73.4195580166
 20
339.8392431745
 30
0.0
 11
73.4195580166
 21
340.2392431745
 31
0.0
  0
LINE
  5
8E
330
1F
100
AcDbEntity
  8
0
  6
Continuous
 62
     7
100
AcDbLine
 10
75.1719627524
 20
380.2392431745
 30
0.0
 11
75.1719627524
 21
340.2392431745
 31
0.0
  0
LINE
  5
8F
330
1F
100
AcDbEntity
  8
0
  6
Continuous
 62
     7
100
AcDbLine
 10
75.1719627524
 20
320.2392431745
 30
0.0
 11
75.1719627524
 21
298.7392431745
 31
0.0
  0
LINE
  5
90
330
1F
100
AcDbEntity
  8
0
  6
Continuous
 62
     7
100
AcDbLine
 10
75.1719627524
 20
291.4094865438
 30
0.0
 11
75.1719627524
 21
280.2392431745
 31
0.0
  0
LINE
  5
91
330
1F
100
AcDbEntity
  8
FASEN
  6
Continuous
 62
     7
100
AcDbLine
 10
63.821043981
 20
291.4094865438
 30
0.0
 11
75.1719627524
 21
291.4094865438
 31
0.0
  0
LINE
  5
92
330
1F
100
AcDbEntity
  8
0
  6
Continuous
 62
     7
100
AcDbLine
 10
81.6671532808
 20
291.4094865438
 30
0.0
 11
87.4195580166
 21
291.4094865438
 31
0.0
  0
LINE
  5
93
330
1F
100
AcDbEntity
  8
BEZUGSACHSEN
  6
Continuous
 62
     7
100
AcDbLine
 10
10.3194835319
 20
294.6415569062
 30
0.0
 11
55.9195580166
 21
292.3569931745
 31
0.0
  0
LINE
  5
94
330
1F
100
AcDbEntity
  8
0
  6
Continuous
 62
     7
100
AcDbLine
 10
76.5445580166
 20
377.8618050122
 30
0.0
 11
76.5445580166
 21
340.2392431745
 31
0.0
  0
LINE
  5
95
330
1F
100
AcDbEntity
  8
0
  6
Continuous
 62
     7
100
AcDbLine
 10
76.5445580166
 20
320.2392431745
 30
0.0
 11
76.5445580166
 21
298.7392431745
 31
0.0
  0
LINE
  5
96
330
1F
100
AcDbEntity
  8
0
  6
Continuous
 62
     7
100
AcDbLine
 10
76.5445580166
 20
282.6166854443
 30
0.0
 11
76.5445580166
 21
295.3572994213
 31
0.0
  0
LINE
  5
97
330
1F
100
AcDbEntity
  8
0
  6
Continuous
 62
     9
100
AcDbLine
 10
77.5445580166
 20
284.2392431745
 30
0.0
 11
77.5445580166
 21
296.7168625908
 31
0.0
  0
LINE
  5
98
330
1F
100
AcDbEntity
  8
0
  6
Continuous
 62
     9
100
AcDbLine
 10
77.5445580166
 20
298.7392431745
 30
0.0
 11
77.5445580166
 21
320.2392431745
 31
0.0
  0
LINE
  5
99
330
1F
100
AcDbEntity
  8
0
  6
Continuous
 62
     9
100
AcDbLine
 10
77.5445580166
 20
340.2392431745
 30
0.0
 11
77.5445580166
 21
376.2392431745
 31
0.0
  0
LINE
  5
9A
330
1F
100
AcDbEntity
  8
0
  6
Continuous
 62
     9
100
AcDbLine
 10
79.2945580166
 20
284.2392431745
 30
0.0
 11
79.2945580166
 21
296.7168625908
 31
0.0
  0
LINE
  5
9B
330
1F
100
AcDbEntity
  8
0
  6
Continuous
 62
     9
100
AcDbLine
 10
79.2945580166
 20
298.7392431745
 30
0.0
 11
79.2945580166
 21
320.2392431745
 31
0.0
  0
LINE
  5
9C
330
1F
100
AcDbEntity
  8
0
  6
Continuous
 62
     9
100
AcDbLine
 10
79.2945580166
 20
340.2392431745
 30
0.0
 11
79.2945580166
 21
376.2392431745
 31
0.0
  0
LINE
  5
9D
330
1F
100
AcDbEntity
  8
0
  6
Continuous
 62
     7
100
AcDbLine
 10
80.2945580166
 20
282.6166854443
 30
0.0
 11
80.2945580166
 21
295.3572994213
 31
0.0
  0
LINE
  5
9E
330
1F
100
AcDbEntity
  8
0
  6
Continuous
 62
     7
100
AcDbLine
 10
80.2945580166
 20
298.7392431745
 30
0.0
 11
80.2945580166
 21
320.2392431745
 31
0.0
  0
LINE
  5
9F
330
1F
100
AcDbEntity
  8
0
  6
Continuous
 62
     7
100
AcDbLine
 10
80.2945580166
 20
340.2392431745
 30
0.0
 11
80.2945580166
 21
377.8618050122
 31
0.0
  0
LINE
  5
A0
330
1F
100
AcDbEntity
  8
0
  6
Continuous
 62
     7
100
AcDbLine
 10
81.6671532808
 20
380.2392431745
 30
0.0
 11
81.6671532808
 21
340.2392431745
 31
0.0
  0
LINE
  5
A1
330
1F
100
AcDbEntity
  8
0
  6
Continuous
 62
     7
100
AcDbLine
 10
81.6671532808
 20
320.2392431745
 30
0.0
 11
81.6671532808
 21
298.7392431745
 31
0.0
  0
LINE
  5
A2
330
1F
100
AcDbEntity
  8
0
  6
Continuous
 62
     7
100
AcDbLine
 10
81.6671532808
 20
291.4094865438
 30
0.0
 11
81.6671532808
 21
280.2392431745
 31
0.0
  0
LINE
  5
A3
330
1F
100
AcDbEntity
  8
BEZUGSACHSEN
  6
Continuous
 62
     9
100
AcDbLine
 10
8.4195580166
 20
316.7930592055
 30
0.0
 11
10.4195580166
 21
317.8356032261
 31
0.0
  0
LINE
  5
A4
330
1F
100
AcDbEntity
  8
BEZUGSACHSEN
  6
Continuous
 62
     7
100
AcDbLine
 10
57.7189867279
 20
292.5569931745
 30
0.0
 11
56.7976206757
 21
292.5569931745
 31
0.0
  0
LINE
  5
A5
330
1F
100
AcDbEntity
  8
0
  6
Continuous
 62
     7
100
AcDbLine
 10
77.5445580166
 20
296.7168625908
 30
0.0
 11
79.2945580166
 21
296.7168625908
 31
0.0
  0
LINE
  5
A6
330
1F
100
AcDbEntity
  8
FASEN
  6
Continuous
 62
     7
100
AcDbLine
 10
71.3914319384
 20
298.3392431745
 30
0.0
 11
87.4195580166
 21
298.3392431745
 31
0.0
  0
LINE
  5
A7
330
1F
100
AcDbEntity
  8
0
  6
Continuous
 62
     7
100
AcDbLine
 10
71.3914319384
 20
298.7392431745
 30
0.0
 11
87.4195580166
 21
298.7392431745
 31
0.0
  0
LINE
  5
A8
330
1F
100
AcDbEntity
  8
BEZUGSACHSEN
  6
Continuous
 62
     9
100
AcDbLine
 10
10.4195580166
 20
342.6428831229
 30
0.0
 11
8.4195580166
 21
343.6854271435
 31
0.0
  0
LINE
  5
A9
330
1F
100
AcDbEntity
  8
0
  6
Continuous
 62
     7
100
AcDbLine
 10
87.4195580166
 20
380.2392062534
 30
0.0
 11
87.4195580166
 21
340.2392431745
 31
0.0
  0
LINE
  5
AA
330
1F
100
AcDbEntity
  8
0
  6
Continuous
 62
     7
100
AcDbLine
 10
87.4195580166
 20
320.2392431745
 30
0.0
 11
87.4195580166
 21
298.7392431745
 31
0.0
  0
LINE
  5
AB
330
1F
100
AcDbEntity
  8
0
  6
Continuous
 62
     7
100
AcDbLine
 10
87.4195580166
 20
291.4094865438
 30
0.0
 11
87.4195580166
 21
280.2392450423
 31
0.0
  0
LINE
  5
AC
330
1F
100
AcDbEntity
  8
FASEN
  6
Continuous
 62
     7
100
AcDbLine
 10
87.4195580166
 20
291.4094865438
 30
0.0
 11
87.4195580166
 21
298.7392431745
 31
0.0
  0
LINE
  5
AD
330
1F
100
AcDbEntity
  8
FASEN
  6
Continuous
 62
     7
100
AcDbLine
 10
87.4195580166
 20
320.2392431745
 30
0.0
 11
87.4195580166
 21
340.2392431745
 31
0.0
  0
LINE
  5
AE
330
1F
100
AcDbEntity
  8
RUNDUNGEN
  6
Continuous
 62
     9
100
AcDbLine
 10
96.0960286048
 20
354.3183146867
 30
0.0
 11
96.0960286048
 21
306.1601716623
 31
0.0
  0
LINE
  5
AF
330
1F
100
AcDbEntity
  8
BEZUGSACHSEN
  6
Continuous
 62
     7
100
AcDbLine
 10
56.5388016306
 20
292.5229190008
 30
0.0
 11
55.9195580166
 21
292.3569931745
 31
0.0
  0
LINE
  5
B0
330
1F
100
AcDbEntity
  8
0
  6
Continuous
 62
     7
100
AcDbLine
 10
142.4195580166
 20
309.2392431745
 30
0.0
 11
190.8195580166
 21
309.2392431745
 31
0.0
  0
LINE
  5
B1
330
1F
100
AcDbEntity
  8
0
  6
Continuous
 62
     7
100
AcDbLine
 10
201.0195580166
 20
309.2392431745
 30
0.0
 11
205.3308218309
 21
309.2392431745
 31
0.0
  0
LINE
  5
B2
330
1F
100
AcDbEntity
  8
BEZUGSACHSEN
  6
Continuous
 62
     9
100
AcDbLine
 10
17.9734039635
 20
315.2292431745
 30
0.0
 11
9.6865109436
 21
315.2292431745
 31
0.0
  0
LINE
  5
B3
330
1F
100
AcDbEntity
  8
BEZUGSACHSEN
  6
Continuous
 62
     7
100
AcDbLine
 10
75.1719627524
 20
280.2392431745
 30
0.0
 11
76.5445580166
 21
282.6166479103
 31
0.0
  0
LINE
  5
B4
330
1F
100
AcDbEntity
  8
BEZUGSACHSEN
  6
Continuous
 62
     7
100
AcDbLine
 10
16.4195580166
 20
320.2292431745
 30
0.0
 11
10.4195580166
 21
320.2292431745
 31
0.0
  0
LINE
  5
B5
330
1F
100
AcDbEntity
  8
0
  6
Continuous
 62
     7
100
AcDbLine
 10
73.4195580166
 20
320.2392431745
 30
0.0
 11
87.4195580166
 21
320.2392431745
 31
0.0
  0
LINE
  5
B6
330
1F
100
AcDbEntity
  8
FASEN
  6
Continuous
 62
     7
100
AcDbLine
 10
87.4195580166
 20
320.6392431745
 30
0.0
 11
73.4195580166
 21
320.6392431745
 31
0.0
  0
LINE
  5
B7
330
1F
100
AcDbEntity
  8
BEZUGSACHSEN
  6
Continuous
 62
     7
100
AcDbLine
 10
75.1719627524
 20
380.2392431745
 30
0.0
 11
76.5445580166
 21
377.8618384387
 31
0.0
  0
LWPOLYLINE
  5
B8
330
1F
100
AcDbEntity
  8
GEWINDE
  6
DASHED
 62
     8
100
AcDbPolyline
 90
        2
 70
     0
 43
0.35
 10
218.4195580166
 20
324.2392431745
 10
190.8195580166
 20
324.2392431745
  0
LWPOLYLINE
  5
B9
330
1F
100
AcDbEntity
  8
DEFAULT_2
  6
DASHED
 62
     8
100
AcDbPolyline
 90
        2
 70
     0
 43
0.35
 10
168.4195580166
 20
324.2392431745
 10
190.8195580166
 20
324.2392431745
  0
LWPOLYLINE
  5
BA
330
1F
100
AcDbEntity
  8
BEZUGSACHSEN
  6
DOT_CENTER
 62
     7
100
AcDbPolyline
 90
        2
 70
     0
 43
0.25
 10
221.4195580166
 20
330.2392431745
 10
5.4195580166
 20
330.2392431745
  0
LWPOLYLINE
  5
BB
330
1F
100
AcDbEntity
  8
DEFAULT_2
  6
DASHED
 62
     8
100
AcDbPolyline
 90
        2
 70
     0
 43
0.35
 10
218.4195580166
 20
336.2392431745
 10
168.4195580166
 20
336.2392431745
  0
LINE
  5
BC
330
1F
100
AcDbEntity
  8
FASEN
  6
Continuous
 62
     7
100
AcDbLine
 10
73.4195580166
 20
339.8392431745
 30
0.0
 11
87.4195580166
 21
339.8392431745
 31
0.0
  0
LINE
  5
BD
330
1F
100
AcDbEntity
  8
0
  6
Continuous
 62
     7
100
AcDbLine
 10
73.4195580166
 20
340.2392431745
 30
0.0
 11
87.4195580166
 21
340.2392431745
 31
0.0
  0
LINE
  5
BE
330
1F
100
AcDbEntity
  8
BEZUGSACHSEN
  6
Continuous
 62
     7
100
AcDbLine
 10
16.4195580166
 20
340.2492431745
 30
0.0
 11
10.4195580166
 21
340.2492431745
 31
0.0
  0
LINE
  5
BF
330
1F
100
AcDbEntity
  8
BEZUGSACHSEN
  6
Continuous
 62
     9
100
AcDbLine
 10
9.6865109436
 20
345.2492431745
 30
0.0
 11
17.9734039635
 21
345.2492431745
 31
0.0
  0
LINE
  5
C0
330
1F
100
AcDbEntity
  8
0
  6
Continuous
 62
     7
100
AcDbLine
 10
205.3308218309
 20
351.2392431745
 30
0.0
 11
142.4195580166
 21
351.2392431745
 31
0.0
  0
LINE
  5
C1
330
1F
100
AcDbEntity
  8
BEZUGSACHSEN
  6
Continuous
 62
     7
100
AcDbLine
 10
56.5388016306
 20
367.9555673482
 30
0.0
 11
55.9195580166
 21
368.1214931745
 31
0.0
  0
LINE
  5
C2
330
1F
100
AcDbEntity
  8
0
  6
Continuous
 62
     9
100
AcDbLine
 10
142.4195580166
 20
351.2392431745
 30
0.0
 11
142.4195580166
 21
309.2392431745
 31
0.0
  0
LINE
  5
C3
330
1F
100
AcDbEntity
  8
BEZUGSACHSEN
  6
Continuous
 62
     7
100
AcDbLine
 10
57.7189867279
 20
367.9214931745
 30
0.0
 11
56.7976206757
 21
367.9214931745
 31
0.0
  0
LINE
  5
C4
330
1F
100
AcDbEntity
  8
BEZUGSACHSEN
  6
Continuous
 62
     7
100
AcDbLine
 10
55.9195580166
 20
368.1214931745
 30
0.0
 11
10.3194835319
 21
365.8369294428
 31
0.0
  0
LINE
  5
C5
330
1F
100
AcDbEntity
  8
BEZUGSACHSEN
  6
Continuous
 62
     7
100
AcDbLine
 10
77.5445580166
 20
376.2392431745
 30
0.0
 11
79.2945580166
 21
376.2392431745
 31
0.0
  0
LWPOLYLINE
  5
C6
330
1F
100
AcDbEntity
  8
DEFAULT_2
  6
DASHED
 62
     8
100
AcDbPolyline
 90
        2
 70
     0
 43
0.35
 10
168.4195580166
 20
336.2392431745
 10
168.4195580166
 20
324.2392431745
  0
LINE
  5
C7
330
1F
100
AcDbEntity
  8
BEZUGSACHSEN
  6
Continuous
 62
     7
100
AcDbLine
 10
75.1719627524
 20
380.2392431745
 30
0.0
 11
70.4195580166
 21
380.2392431745
 31
0.0
  0
LINE
  5
C8
330
1F
100
AcDbEntity
  8
BEZUGSACHSEN
  6
Continuous
 62
     7
100
AcDbLine
 10
60.4195580166
 20
380.2392431745
 30
0.0
 11
58.4195580166
 21
380.2392431745
 31
0.0
  0
LINE
  5
C9
330
1F
100
AcDbEntity
  8
BEZUGSACHSEN
  6
Continuous
 62
     7
100
AcDbLine
 10
81.6671532808
 20
380.2392431745
 30
0.0
 11
87.4195580166
 21
380.2392431745
 31
0.0
  0
LINE
  5
CA
330
1F
100
AcDbEntity
  8
0
  6
Continuous
 62
     7
100
AcDbLine
 10
205.7534400926
 20
309.3329353875
 30
0.0
 11
217.8421762783
 21
314.9700056483
 31
0.0
  0
LINE
  5
CB
330
1F
100
AcDbEntity
  8
RUNDUNGEN
  6
Continuous
 62
     7
100
AcDbLine
 10
217.8421762783
 20
345.5084807007
 30
0.0
 11
205.7534400926
 21
351.1455509616
 31
0.0
  0
LINE
  5
CC
330
1F
100
AcDbEntity
  8
0
  6
Continuous
 62
     7
100
AcDbLine
 10
205.7534400926
 20
351.1455509616
 30
0.0
 11
217.8421762783
 21
345.5084807007
 31
0.0
  0
LWPOLYLINE
  5
CD
330
1F
100
AcDbEntity
  8
GEWINDE
  6
DASHED
 62
     8
100
AcDbPolyline
 90
        2
 70
     0
 43
0.35
 10
190.8195580166
 20
324.2392431745
 10
190.8195580166
 20
309.2392431745
  0
LWPOLYLINE
  5
CE
330
1F
100
AcDbEntity
  8
GEWINDE
  6
DOT_CENTER
 62
     7
100
AcDbPolyline
 90
        2
 70
     0
 43
0.25
 10
195.9195580166
 20
306.2392431745
 10
195.9195580166
 20
330.0785493804
  0
LWPOLYLINE
  5
CF
330
1F
100
AcDbEntity
  8
GEWINDE
  6
DASHED
 62
     8
100
AcDbPolyline
 90
        2
 70
     0
 43
0.35
 10
201.0195580166
 20
324.2392431745
 10
201.0195580166
 20
309.2392431745
  0
LINE
  5
D0
330
1F
100
AcDbEntity
  8
RUNDUNGEN
  6
Continuous
 62
     9
100
AcDbLine
 10
205.3308218309
 20
309.2392431745
 30
0.0
 11
205.3308218309
 21
351.2392431745
 31
0.0
  0
LINE
  5
D1
330
1F
100
AcDbEntity
  8
RUNDUNGEN
  6
Continuous
 62
     9
100
AcDbLine
 10
205.7534400926
 20
309.3329353875
 30
0.0
 11
205.7534400926
 21
351.1455509616
 31
0.0
  0
LINE
  5
D2
330
1F
100
AcDbEntity
  8
RUNDUNGEN
  6
Continuous
 62
     9
100
AcDbLine
 10
217.8421762783
 20
314.9700056483
 30
0.0
 11
217.8421762783
 21
345.5084807007
 31
0.0
  0
LINE
  5
D3
330
1F
100
AcDbEntity
  8
RUNDUNGEN
  6
Continuous
 62
     7
100
AcDbLine
 10
218.4195580166
 20
344.6021729137
 30
0.0
 11
218.4195580166
 21
315.8763134353
 31
0.0
  0
LWPOLYLINE
  5
D4
330
1F
100
AcDbEntity
  8
GEWINDE
  6
DASHED
 62
     8
100
AcDbPolyline
 90
        2
 70
     0
 43
0.35
 10
201.9195580166
 20
324.2392431745
 10
201.9195580166
 20
309.2392431745
  0
LWPOLYLINE
  5
D5
330
1F
100
AcDbEntity
  8
GEWINDE
  6
DASHED
 62
     8
100
AcDbPolyline
 90
        2
 70
     0
 43
0.35
 10
189.9195580166
 20
324.2392431745
 10
189.9195580166
 20
309.2392431745
  0
ARC
  5
D6
330
1F
100
AcDbEntity
  8
FASEN
  6
Continuous
 62
     7
100
AcDbCircle
 10
76.3202120395
 20
305.7705064445
 30
0.0
 40
19.03859487309962
100
AcDbArc
 50
227.4837701982988
 51
228.9651953373019
  0
ARC
  5
D7
330
1F
100
AcDbEntity
  8
FASEN
  6
Continuous
 62
     7
100
AcDbCircle
 10
71.3914319384
 20
290.7392431745
 30
0.0
 40
8.0
100
AcDbArc
 50
90.0
 51
172.8323734889971
  0
ARC
  5
D8
330
1F
100
AcDbEntity
  8
FASEN
  6
Continuous
 62
     7
100
AcDbCircle
 10
71.3914319384
 20
290.7392431745
 30
0.0
 40
7.599982194900008
100
AcDbArc
 50
90.0
 51
174.9405171273017
  0
ARC
  5
D9
330
1F
100
AcDbEntity
  8
BEZUGSACHSEN
  6
Continuous
 62
     7
100
AcDbCircle
 10
16.4195580166
 20
322.2292431745
 30
0.0
 40
2.0
100
AcDbArc
 50
270.0
 51
355.2355361864933
  0
ARC
  5
DA
330
1F
100
AcDbEntity
  8
BEZUGSACHSEN
  6
Continuous
 62
     7
100
AcDbCircle
 10
10.4195580166
 20
296.6390516115
 30
0.0
 40
2.0
100
AcDbArc
 50
179.9999999971356
 51
267.1318795137018
  0
ARC
  5
DB
330
1F
100
AcDbEntity
  8
BEZUGSACHSEN
  6
Continuous
 62
     7
100
AcDbCircle
 10
77.5445580166
 20
283.2392431745
 30
0.0
 40
1.0
100
AcDbArc
 50
90.0
 51
180.0
  0
ARC
  5
DC
330
1F
100
AcDbEntity
  8
BEZUGSACHSEN
  6
Continuous
 62
     7
100
AcDbCircle
 10
56.7976206757
 20
291.5569931745
 30
0.0
 40
1.0
100
AcDbArc
 50
90.0
 51
104.9999999996985
  0
ARC
  5
DD
330
1F
100
AcDbEntity
  8
BEZUGSACHSEN
  6
Continuous
 62
     7
100
AcDbCircle
 10
57.7189867279
 20
291.5569931745
 30
0.0
 40
0.9999999999998077
100
AcDbArc
 50
45.49026120128718
 51
90.0
  0
ARC
  5
DE
330
1F
100
AcDbEntity
  8
0
  6
Continuous
 62
     7
100
AcDbCircle
 10
-166.1782218672
 20
399.6737107654
 30
0.0
 40
264.52042239158
100
AcDbArc
 50
335.8400764706154
 51
336.5770705491
  0
ARC
  5
DF
330
1F
100
AcDbEntity
  8
BEZUGSACHSEN
  6
Continuous
 62
     7
100
AcDbCircle
 10
65.4347660277
 20
430.2920129413
 30
0.0
 40
50.30340021035247
100
AcDbArc
 50
264.2781515101899
 51
269.9826780125999
  0
ARC
  5
E0
330
1F
100
AcDbEntity
  8
BEZUGSACHSEN
  6
Continuous
 62
     7
100
AcDbCircle
 10
65.4043500155
 20
430.2920127406
 30
0.0
 40
50.30340000969741
100
AcDbArc
 50
270.017321976058
 51
275.7218485012679
  0
ARC
  5
E1
330
1F
100
AcDbEntity
  8
0
  6
Continuous
 62
     7
100
AcDbCircle
 10
73.4195580166
 20
330.2392431745
 30
0.0
 40
10.0
100
AcDbArc
 50
90.0
 51
270.0
  0
ARC
  5
E2
330
1F
100
AcDbEntity
  8
FASEN
  6
Continuous
 62
     7
100
AcDbCircle
 10
73.4195580166
 20
330.2392431745
 30
0.0
 40
9.599999195899954
100
AcDbArc
 50
90.0
 51
270.0
  0
ARC
  5
E3
330
1F
100
AcDbEntity
  8
BEZUGSACHSEN
  6
Continuous
 62
     7
100
AcDbCircle
 10
16.4195580166
 20
338.2492431745
 30
0.0
 40
1.999999999999988
100
AcDbArc
 50
4.76446378498878
 51
90.0
  0
ARC
  5
E4
330
1F
100
AcDbEntity
  8
BEZUGSACHSEN
  6
Continuous
 62
     7
100
AcDbCircle
 10
10.4195580166
 20
363.8394347376
 30
0.0
 40
1.999999999947485
100
AcDbArc
 50
92.86812048644153
 51
180.0000000143238
  0
ARC
  5
E5
330
1F
100
AcDbEntity
  8
BEZUGSACHSEN
  6
Continuous
 62
     7
100
AcDbCircle
 10
77.5445580166
 20
377.2392431745
 30
0.0
 40
1.0
100
AcDbArc
 50
180.0
 51
270.0
  0
ARC
  5
E6
330
1F
100
AcDbEntity
  8
BEZUGSACHSEN
  6
Continuous
 62
     7
100
AcDbCircle
 10
56.7976206757
 20
368.9214931745
 30
0.0
 40
1.000000000009861
100
AcDbArc
 50
255.0000000003006
 51
270.0
  0
ARC
  5
E7
330
1F
100
AcDbEntity
  8
BEZUGSACHSEN
  6
Continuous
 62
     7
100
AcDbCircle
 10
57.7189867279
 20
368.9214931745
 30
0.0
 40
1.0
100
AcDbArc
 50
270.0
 51
314.5097387987128
  0
ARC
  5
E8
330
1F
100
AcDbEntity
  8
BEZUGSACHSEN
  6
Continuous
 62
     7
100
AcDbCircle
 10
194.749604619
 20
-1275.8035161532
 30
0.0
 40
1632.1727637359
100
AcDbArc
 50
96.2726189838
 51
96.48809068979999
  0
ARC
  5
E9
330
1F
100
AcDbEntity
  8
0
  6
Continuous
 62
     7
100
AcDbCircle
 10
142.4195580166
 20
-40.7607568255
 30
0.0
 40
350.0
100
AcDbArc
 50
90.0
 51
97.60558102239999
  0
ARC
  5
EA
330
1F
100
AcDbEntity
  8
RUNDUNGEN
  6
Continuous
 62
     7
100
AcDbCircle
 10
142.4195580166
 20
-40.7607568255
 30
0.0
 40
350.0
100
AcDbArc
 50
90.0
 51
97.60558102239999
  0
ARC
  5
EB
330
1F
100
AcDbEntity
  8
RUNDUNGEN
  6
Continuous
 62
     7
100
AcDbCircle
 10
97.4195580166
 20
296.2481451341
 30
0.0
 40
9.999999999981998
100
AcDbArc
 50
97.60558102262947
 51
180.0
  0
ARC
  5
EC
330
1F
100
AcDbEntity
  8
RUNDUNGEN
  6
Continuous
 62
     7
100
AcDbCircle
 10
217.4195580166
 20
315.8763134353
 30
0.0
 40
0.999999999949584
100
AcDbArc
 50
294.9999999987737
 51
0.0
  0
ARC
  5
ED
330
1F
100
AcDbEntity
  8
BEZUGSACHSEN
  6
Continuous
 62
     7
100
AcDbCircle
 10
79.2945580166
 20
283.2392431745
 30
0.0
 40
1.0
100
AcDbArc
 50
0.0
 51
90.0
  0
ARC
  5
EE
330
1F
100
AcDbEntity
  8
RUNDUNGEN
  6
Continuous
 62
     7
100
AcDbCircle
 10
205.3308218309
 20
310.2392431745
 30
0.0
 40
1.0
100
AcDbArc
 50
270.0
 51
294.9999999987737
  0
ARC
  5
EF
330
1F
100
AcDbEntity
  8
BEZUGSACHSEN
  6
Continuous
 62
     7
100
AcDbCircle
 10
194.749604619
 20
1936.2820025023
 30
0.0
 40
1632.172763736
100
AcDbArc
 50
263.5119093102
 51
263.7273810162
  0
ARC
  5
F0
330
1F
100
AcDbEntity
  8
0
  6
Continuous
 62
     7
100
AcDbCircle
 10
142.4195580166
 20
701.2392431745
 30
0.0
 40
350.0000000000004
100
AcDbArc
 50
262.3944189776
 51
270.0
  0
ARC
  5
F1
330
1F
100
AcDbEntity
  8
RUNDUNGEN
  6
Continuous
 62
     7
100
AcDbCircle
 10
142.4195580166
 20
701.2392431745
 30
0.0
 40
350.0000000000004
100
AcDbArc
 50
262.3944189776
 51
270.0
  0
ARC
  5
F2
330
1F
100
AcDbEntity
  8
0
  6
Continuous
 62
     7
100
AcDbCircle
 10
323.0173379004
 20
399.6737107654
 30
0.0
 40
264.5204223916001
100
AcDbArc
 50
203.4229294509
 51
204.1599235293845
  0
ARC
  5
F3
330
1F
100
AcDbEntity
  8
RUNDUNGEN
  6
Continuous
 62
     7
100
AcDbCircle
 10
97.4195580166
 20
364.2303412149
 30
0.0
 40
10.0
100
AcDbArc
 50
180.0
 51
262.3944189773705
  0
ARC
  5
F4
330
1F
100
AcDbEntity
  8
BEZUGSACHSEN
  6
Continuous
 62
     7
100
AcDbCircle
 10
79.2945580166
 20
377.2392431745
 30
0.0
 40
1.0
100
AcDbArc
 50
270.0
 51
0.0
  0
ARC
  5
F5
330
1F
100
AcDbEntity
  8
RUNDUNGEN
  6
Continuous
 62
     7
100
AcDbCircle
 10
217.4195580166
 20
344.6021729137
 30
0.0
 40
1.0
100
AcDbArc
 50
0.0
 51
65.00000000122631
  0
ARC
  5
F6
330
1F
100
AcDbEntity
  8
RUNDUNGEN
  6
Continuous
 62
     7
100
AcDbCircle
 10
205.3308218309
 20
350.2392431745
 30
0.0
 40
1.000000000040203
100
AcDbArc
 50
65.00000000364744
 51
90.0
  0
CIRCLE
  5
F7
330
1F
100
AcDbEntity
  8
BEZUGSACHSEN
  6
Continuous
 62
     7
100
AcDbCircle
 10
43.4195580166
 20
330.2392431745
 30
0.0
 40
6.0
  0
SPLINE
  5
F8
330
1F
100
AcDbEntity
  8
0
  6
Continuous
 62
     2
100
AcDbSpline
210
0.0
220
0.0
230
1.0
 70
     8
 71
     3
 72
    61
 73
    57
 74
    55
 42
0.0000000001
 43
0.0000000001
 44
0.00000001
 40
0.0
 40
0.0
 40
0.0
 40
0.0
 40
0.0102311748478919
 40
0.0410047351671872
 40
0.0923742250033145
 40
0.1641270482838264
 40
0.2560456792228489
 40
0.3681579475431033
 40
0.5004064217223722
 40
0.6521432216769874
 40
0.8227098637026464
 40
1.011988354414476
 40
1.219732162327829
 40
1.444626628957957
 40
1.68527486519675
 40
1.941000351755069
 40
2.211095248240688
 40
2.493981965402909
 40
2.787977036880123
 40
3.091814432058451
 40
3.404356267639795
 40
3.724533762282131
 40
4.051199958322542
 40
4.382797871727491
 40
4.71794974424949
 40
5.056387401313042
 40
5.397806867003426
 40
5.740634893000583
 40
6.083377342643812
 40
6.426120188753433
 40
6.768949079297057
 40
7.110368244825654
 40
7.448803391952276
 40
7.783953175021215
 40
8.115551694182075
 40
8.442218360020703
 40
8.762393408658669
 40
9.074932414306312
 40
9.37876941453698
 40
9.67276518776451
 40
9.95565176128585
 40
10.2257454570939
 40
10.48146919609
 40
10.72211681494872
 40
10.94701277836378
 40
11.15475723463534
 40
11.34403305094373
 40
11.51459712413233
 40
11.66633481945657
 40
11.79858483061893
 40
11.91069611676472
 40
12.00261291225249
 40
12.07436509770792
 40
12.12573391346715
 40
12.15650551449117
 40
12.16673541864558
 40
12.16673541864558
 40
12.16673541864558
 40
12.16673541864558
 10
201.9195580166
 20
309.2392296051
 30
0.0
 10
201.916279474269
 20
309.2401687179097
 30
0.0
 10
201.9031396577752
 20
309.2439325155802
 30
0.0
 10
201.8735238207276
 20
309.2523595058316
 30
0.0
 10
201.8241645939797
 20
309.2663315709285
 30
0.0
 10
201.7551418407325
 20
309.2856691417974
 30
0.0
 10
201.6665484904336
 20
309.3102047001059
 30
0.0
 10
201.5583962068821
 20
309.3396671996172
 30
0.0
 10
201.4308408028715
 20
309.3737606522153
 30
0.0
 10
201.2842382899756
 20
309.4120422860465
 30
0.0
 10
201.1189664855449
 20
309.4540573783111
 30
0.0
 10
200.9352551787138
 20
309.4992917456785
 30
0.0
 10
200.733557640283
 20
309.5471956098604
 30
0.0
 10
200.5147372094339
 20
309.5970699221688
 30
0.0
 10
200.2798013779684
 20
309.6481613128444
 30
0.0
 10
200.0295682935156
 20
309.6997467425638
 30
0.0
 10
199.7649317493094
 20
309.751112153962
 30
0.0
 10
199.4871312137707
 20
309.8014996156293
 30
0.0
 10
199.1975990404329
 20
309.8500944672803
 30
0.0
 10
198.8976564611669
 20
309.8962174719599
 30
0.0
 10
198.5884362527223
 20
309.9392251529987
 30
0.0
 10
198.2710564867259
 20
309.9785566533125
 30
0.0
 10
197.9467884694853
 20
310.0136414172648
 30
0.0
 10
197.6170370525297
 20
310.0440742132947
 30
0.0
 10
197.2829213087552
 20
310.0694441870179
 30
0.0
 10
196.9451622674971
 20
310.0894691758952
 30
0.0
 10
196.6045574298159
 20
310.10391608983
 30
0.0
 10
196.2623235368745
 20
310.1126873123243
 30
0.0
 10
195.9195482332884
 20
310.1156233277882
 30
0.0
 10
195.5767726439311
 20
310.1126869868135
 30
0.0
 10
195.2345384406471
 20
310.103915369111
 30
0.0
 10
194.8939342648727
 20
310.0894681681552
 30
0.0
 10
194.5561768684692
 20
310.0694430305259
 30
0.0
 10
194.2220624769912
 20
310.0440728245532
 30
0.0
 10
193.8923114274985
 20
310.0136397300409
 30
0.0
 10
193.5680438848741
 20
309.9785548311943
 30
0.0
 10
193.2506657297165
 20
309.9392233563154
 30
0.0
 10
192.9414474289199
 20
309.8962156810517
 30
0.0
 10
192.6415057105958
 20
309.8500926146745
 30
0.0
 10
192.3519735013903
 20
309.8014976483016
 30
0.0
 10
192.0741732028536
 20
309.7511100789156
 30
0.0
 10
191.8095376985177
 20
309.6997447201428
 30
0.0
 10
191.559305794505
 20
309.6481594516187
 30
0.0
 10
191.3243702669633
 20
309.5970680243439
 30
0.0
 10
191.1055493675317
 20
309.5471934765128
 30
0.0
 10
190.9038520132736
 20
309.499289601168
 30
0.0
 10
190.7201422001452
 20
309.4540555733163
 30
0.0
 10
190.5548718203719
 20
309.4120407589933
 30
0.0
 10
190.4082693674385
 20
309.3737590760092
 30
0.0
 10
190.2807134976998
 20
309.3396654939704
 30
0.0
 10
190.172561630896
 20
309.3102030885296
 30
0.0
 10
190.0839694010444
 20
309.2856678001252
 30
0.0
 10
190.0149476573592
 20
309.2663305147101
 30
0.0
 10
189.9655894791605
 20
309.2523587488041
 30
0.0
 10
189.9359749082856
 20
309.2439320634534
 30
0.0
 10
189.9228361467675
 20
309.2401684926434
 30
0.0
 10
189.9195580166
 20
309.2392294791
 30
0.0
 11
201.9195580166
 21
309.2392296051
 31
0.0
 11
201.9097219790394
 21
309.2420455070646
 31
0.0
 11
201.8801255914622
 21
309.2504755638323
 31
0.0
 11
201.8306969461435
 21
309.2644624687071
 31
0.0
 11
201.7616061546856
 21
309.2838255827244
 31
0.0
 11
201.6730201222354
 21
309.3083520901898
 31
0.0
 11
201.5648509077285
 21
309.3378238010472
 31
0.0
 11
201.4370864159351
 21
309.3719689845952
 31
0.0
 11
201.2902727801088
 21
309.410307122212
 31
0.0
 11
201.1249622752816
 21
309.4523239803248
 31
0.0
 11
200.9411735178437
 21
309.4975792527867
 31
0.0
 11
200.7390512948564
 21
309.5455802600784
 31
0.0
 11
200.5197787337077
 21
309.5955509019407
 31
0.0
 11
200.2846250136028
 21
309.6466811427542
 31
0.0
 11
200.0341651816145
 21
309.698308626093
 31
0.0
 11
199.7690178473747
 21
309.749768749034
 31
0.0
 11
199.4906700020569
 21
309.8002402435011
 31
0.0
 11
199.2007296145314
 21
309.8488989912702
 31
0.0
 11
198.9004201788965
 21
309.8950661395186
 31
0.0
 11
198.5908571649165
 21
309.9381142447522
 31
0.0
 11
198.2731084248358
 21
309.9774762346992
 31
0.0
 11
197.9483379336538
 21
310.0126178296101
 31
0.0
 11
197.6181417744689
 21
310.0430755484031
 31
0.0
 11
197.2839512583951
 21
310.0684423893829
 31
0.0
 11
196.946106495377
 21
310.0884664703839
 31
0.0
 11
196.6049941459787
 21
310.1029446139199
 31
0.0
 11
196.2622782799523
 21
310.1117133414754
 31
0.0
 11
195.9195483658479
 21
310.1146446833876
 31
0.0
 11
195.576818058131
 21
310.1117130061255
 31
0.0
 11
195.2341013372026
 21
310.1029438905782
 31
0.0
 11
194.8929893012897
 21
310.0884654395005
 31
0.0
 11
194.5551470600716
 21
310.0684412326663
 31
0.0
 11
194.2209586512978
 21
310.0430742357531
 31
0.0
 11
193.8907619168212
 21
310.0126161588163
 31
0.0
 11
193.5659909812975
 21
309.9774743032992
 31
0.0
 11
193.2482446925293
 21
309.9381124214294
 31
0.0
 11
192.9386845132369
 21
309.8950644778353
 31
0.0
 11
192.6383754958874
 21
309.8488972079598
 31
0.0
 11
192.3484344374598
 21
309.8002382179012
 31
0.0
 11
192.0700867591857
 21
309.7497666072862
 31
0.0
 11
191.8049406297522
 21
309.6983065785096
 31
0.0
 11
191.554482528341
 21
309.6466793558105
 31
0.0
 11
191.3193294326756
 21
309.595549148874
 31
0.0
 11
191.1000554361019
 21
309.545578069368
 31
0.0
 11
190.8979325967396
 21
309.4975768514702
 31
0.0
 11
190.7141464467226
 21
309.4523221754561
 31
0.0
 11
190.5488384485412
 21
309.4103058833787
 31
0.0
 11
190.4020239595378
 21
309.3719674692098
 31
0.0
 11
190.2742579871048
 21
309.3378218729972
 31
0.0
 11
190.1660897263083
 21
309.3083503980169
 31
0.0
 11
190.0775054701311
 21
309.2838243536912
 31
0.0
 11
190.0084152933825
 21
309.2644614098425
 31
0.0
 11
189.9589873013294
 21
309.250474672049
 31
0.0
 11
189.9293928184408
 21
309.2420450805918
 31
0.0
 11
189.9195580166
 21
309.2392294791
 31
0.0
  0
SPLINE
  5
F9
330
1F
100
AcDbEntity
  8
GEWINDE
  6
Continuous
 62
     7
100
AcDbSpline
210
0.0
220
0.0
230
1.0
 70
     8
 71
     3
 72
    23
 73
    19
 74
    17
 42
0.0000000001
 43
0.0000000001
 44
0.00000001
 40
0.0
 40
0.0
 40
0.0
 40
0.0
 40
0.200314851200126
 40
0.4006360485348825
 40
0.963486244422252
 40
1.526368435394225
 40
2.35901783218547
 40
3.191717622901965
 40
4.17114075144743
 40
5.15058643352218
 40
6.130032215063522
 40
7.109455443049436
 40
7.942155244538007
 40
8.774804652107342
 40
9.337686907422224
 40
9.900537167689023
 40
10.10085841912929
 40
10.30117332447366
 40
10.30117332447366
 40
10.30117332447366
 40
10.30117332447366
 10
190.8195580166
 20
309.2392431745
 30
0.0
 10
190.8844813516953
 20
309.2548466692543
 30
0.0
 10
191.0143300787091
 20
309.2860541530941
 30
0.0
 10
191.3273741771966
 20
309.3578248793214
 30
0.0
 10
191.7597380941485
 20
309.4499249115762
 30
0.0
 10
192.4014339583568
 20
309.5701134181363
 30
0.0
 10
193.1355878102151
 20
309.6839926574165
 30
0.0
 10
194.0115474848475
 20
309.7853851010406
 30
0.0
 10
194.9400300600282
 20
309.8521492983842
 30
0.0
 10
195.9195578209288
 20
309.8758351800531
 30
0.0
 10
196.8990856155748
 20
309.8521493182737
 30
0.0
 10
197.8275682616111
 20
309.7853851299866
 30
0.0
 10
198.7035279773852
 20
309.6839926907946
 30
0.0
 10
199.4376818586461
 20
309.5701134542902
 30
0.0
 10
200.0793777697285
 20
309.4499249453274
 30
0.0
 10
200.5117417469426
 20
309.3578249033749
 30
0.0
 10
200.8247859018149
 20
309.2860541655681
 30
0.0
 10
200.9546346639419
 20
309.2548466734134
 30
0.0
 10
201.0195580166
 20
309.2392431745
 30
0.0
 11
190.8195580166
 21
309.2392431745
 31
0.0
 11
191.0144082717352
 21
309.2857127095212
 31
0.0
 11
191.2096459426658
 21
309.330555032735
 31
0.0
 11
191.7601816583988
 21
309.4476480244672
 31
0.0
 11
192.3134516840946
 21
309.5512271709204
 31
0.0
 11
193.1362897221991
 21
309.678673555825
 31
0.0
 11
193.9634871316432
 21
309.7742423125828
 31
0.0
 11
194.9403954000803
 21
309.8443843099099
 31
0.0
 11
195.9195577878695
 21
309.8679398288767
 31
0.0
 11
196.89872027559
 21
309.8443843280308
 31
0.0
 11
197.8756286442624
 21
309.774242338209
 31
0.0
 11
198.7028260654277
 21
309.6786735890457
 31
0.0
 11
199.525664115468
 21
309.5512272107865
 31
0.0
 11
200.0789342053851
 21
309.4476480577126
 31
0.0
 11
200.6294699848901
 21
309.3305550563538
 31
0.0
 11
200.824707708731
 21
309.2857127218023
 31
0.0
 11
201.0195580166
 21
309.2392431745
 31
0.0
  0
SPLINE
  5
FA
330
1F
100
AcDbEntity
  8
BEZUGSACHSEN
  6
Continuous
 62
     7
100
AcDbSpline
210
0.0
220
0.0
230
1.0
 70
     8
 71
     3
 72
    15
 73
    11
 74
     9
 42
0.0000000001
 43
0.0000000001
 44
0.00000001
 40
0.0
 40
0.0
 40
0.0
 40
0.0
 40
0.1110944831157743
 40
0.2222295181063962
 40
0.3333620401542043
 40
0.4444752609924377
 40
0.5555842177976983
 40
0.6667300353884498
 40
0.7779450181579932
 40
0.888982087169727
 40
0.888982087169727
 40
0.888982087169727
 40
0.888982087169727
 10
9.5654006922
 20
345.48157917
 30
0.0
 10
9.590786051768857
 20
345.5085555356738
 30
0.0
 10
9.6415660371086
 20
345.562518113975
 30
0.0
 10
9.723818806327927
 20
345.6374000773936
 30
0.0
 10
9.810815458259455
 20
345.7066867863232
 30
0.0
 10
9.903120298688517
 20
345.7687819494165
 30
0.0
 10
10.0005703206943
 20
345.8225614415193
 30
0.0
 10
10.10298323457414
 20
345.8661516870919
 30
0.0
 10
10.20949973315785
 20
345.8991702429408
 30
0.0
 10
10.2828418358793
 20
345.9102434095533
 30
0.0
 10
10.3194835319
 20
345.9157755608
 30
0.0
 11
9.5654006922
 21
345.48157917
 31
0.0
 11
9.642569469286274
 21
345.5614976536053
 31
0.0
 11
9.724609369503273
 21
345.6364673193025
 31
0.0
 11
9.811706518094555
 21
345.7054928519985
 31
0.0
 11
9.9039783396786
 21
345.7673964769862
 31
0.0
 11
10.00138124777406
 21
345.8208555620597
 31
0.0
 11
10.10364947117434
 21
345.8643826025112
 31
0.0
 11
10.210141339279
 21
345.8964490089206
 31
0.0
 11
10.3194835319
 21
345.9157755608
 31
0.0
  0
SPLINE
  5
FB
330
1F
100
AcDbEntity
  8
BEZUGSACHSEN
  6
Continuous
 62
     7
100
AcDbSpline
210
0.0
220
0.0
230
1.0
 70
     8
 71
     3
 72
    47
 73
    43
 74
    41
 42
0.0000000001
 43
0.0000000001
 44
0.00000001
 40
0.0
 40
0.0
 40
0.0
 40
0.0
 40
0.6366022431461787
 40
1.273595002083056
 40
1.592921746302323
 40
1.912076344794075
 40
2.231392290339206
 40
2.550826842654467
 40
3.189774321082288
 40
3.829081696920375
 40
4.468337152442497
 40
5.107221744722123
 40
5.426176341213182
 40
5.745033356759996
 40
6.06335673153878
 40
6.38178021485184
 40
7.017059195644911
 40
7.652639340961043
 40
8.287532214198713
 40
8.922347946446555
 40
9.559226748500004
 40
10.19613435927995
 40
10.83451785495901
 40
11.47287689968605
 40
12.1123448735894
 40
12.75189588940835
 40
13.39354300512496
 40
14.03487957349028
 40
14.35615205764687
 40
14.67732107704537
 40
14.99840882464663
 40
15.31959604113715
 40
15.9601112101918
 40
16.6009959208119
 40
17.23809108069536
 40
17.87482555190498
 40
18.19205670323128
 40
18.50917199090963
 40
18.82571084619732
 40
19.14241581819285
 40
19.77338974990039
 40
20.40398930737263
 40
20.40398930737263
 40
20.40398930737263
 40
20.40398930737263
 10
36.9201424223
 20
330.2392431551
 30
0.0
 10
36.92614806618629
 20
330.4515229647832
 30
0.0
 10
36.93816303804697
 20
330.8762128045796
 30
0.0
 10
37.01942838325923
 20
331.4023555656621
 30
0.0
 10
37.11214797985934
 20
331.817329941768
 30
0.0
 10
37.19744094399379
 20
332.1251539174649
 30
0.0
 10
37.29767955740371
 20
332.4284465942621
 30
0.0
 10
37.4511651065196
 20
332.8258839568243
 30
0.0
 10
37.67963705330757
 20
333.3079835337086
 30
0.0
 10
38.0092520139069
 20
333.8567994065281
 30
0.0
 10
38.39147923101319
 20
334.3703349458721
 30
0.0
 10
38.7503339281412
 20
334.7648377079596
 30
0.0
 10
39.05928728170838
 20
335.0577110060065
 30
0.0
 10
39.30118239068351
 20
335.2654328271215
 30
0.0
 10
39.5528256441692
 20
335.4609422242542
 30
0.0
 10
39.900119751326
 20
335.7044374269287
 30
0.0
 10
40.35586008608647
 20
335.9763194969737
 30
0.0
 10
40.93133951077564
 20
336.2476486094889
 30
0.0
 10
41.53045027593314
 20
336.4614322403013
 30
0.0
 10
42.14790067837968
 20
336.6161219716731
 30
0.0
 10
42.77817124005722
 20
336.7099289553277
 30
0.0
 10
43.41576517477679
 20
336.7420556801324
 30
0.0
 10
44.05394381901404
 20
336.7116261071823
 30
0.0
 10
44.68695624021377
 20
336.6189548520223
 30
0.0
 10
45.30818992464233
 20
336.4644628907927
 30
0.0
 10
45.91232567659947
 20
336.2494257582461
 30
0.0
 10
46.49280475016301
 20
335.9755023925168
 30
0.0
 10
46.95243377438437
 20
335.7003355144599
 30
0.0
 10
47.30233276304722
 20
335.4537258156024
 30
0.0
 10
47.55546439219651
 20
335.2558216232316
 30
0.0
 10
47.79846303155058
 20
335.0456430938298
 30
0.0
 10
48.10770737505538
 20
334.7501237536749
 30
0.0
 10
48.46602756584893
 20
334.3526527709124
 30
0.0
 10
48.84597798419023
 20
333.8369860093773
 30
0.0
 10
49.1724510138087
 20
333.287389852942
 30
0.0
 10
49.39782215380626
 20
332.8062843112575
 30
0.0
 10
49.54891313696399
 20
332.4102941236458
 30
0.0
 10
49.64732605451329
 20
332.1088677728517
 30
0.0
 10
49.7309928326834
 20
331.8031724049126
 30
0.0
 10
49.82181219012393
 20
331.3916203871686
 30
0.0
 10
49.90132716579903
 20
330.8701951706267
 30
0.0
 10
49.91309945041533
 20
330.4495188814568
 30
0.0
 10
49.918983846
 20
330.2392431551
 30
0.0
 11
36.9201424223
 21
330.2392431551
 31
0.0
 11
36.95139109333981
 21
330.8750779894218
 31
0.0
 11
37.04483229571341
 21
331.5051799784973
 31
0.0
 11
37.11477280274628
 21
331.8167532364154
 31
0.0
 11
37.19991414171149
 21
332.1243416141829
 31
0.0
 11
37.30013867982475
 21
332.4275209588608
 31
0.0
 11
37.41521856955398
 21
332.7255059453832
 31
0.0
 11
37.68881446380331
 21
333.3029132252466
 31
0.0
 11
38.01803397751645
 21
333.8509355173036
 31
0.0
 11
38.39965823288132
 21
334.3637809766108
 31
0.0
 11
38.82959286901263
 21
334.8363587277872
 31
0.0
 11
39.06106513007376
 21
335.0557957961736
 31
0.0
 11
39.30296753110103
 21
335.2635288574342
 31
0.0
 11
39.55434133825552
 21
335.4588260156501
 31
0.0
 11
39.81507061654743
 21
335.6416203212687
 31
0.0
 11
40.36060426075726
 21
335.9671543847285
 31
0.0
 11
40.93551408087598
 21
336.2381540523503
 31
0.0
 11
41.53346026862077
 21
336.4515769120665
 31
0.0
 11
42.14925280082974
 21
336.6058188362799
 31
0.0
 11
42.77918508277615
 21
336.6996267712685
 31
0.0
 11
43.41528820449498
 21
336.7316286963507
 31
0.0
 11
44.05294916353032
 21
336.7012644265991
 31
0.0
 11
44.6845666964576
 21
336.6087357170886
 31
0.0
 11
45.30513956856381
 21
336.4544353604659
 31
0.0
 11
45.90764037568637
 21
336.2399166450779
 31
0.0
 11
46.48794757205287
 21
335.9661383059919
 31
0.0
 11
47.0381725600988
 21
335.6366461870384
 31
0.0
 11
47.30077986424626
 21
335.4515694113896
 31
0.0
 11
47.55380032163811
 21
335.2537558952624
 31
0.0
 11
47.79664862300242
 21
335.0437034156671
 31
0.0
 11
48.02885105840945
 21
334.8217951980906
 31
0.0
 11
48.45776711614371
 21
334.3460949802992
 31
0.0
 11
48.83787777481679
 21
333.8301016669029
 31
0.0
 11
49.16331692054196
 21
333.2823977275555
 31
0.0
 11
49.43339777867165
 21
332.7057807689959
 31
0.0
 11
49.54648822385584
 21
332.4093922493467
 31
0.0
 11
49.64493232719501
 21
332.1079443032647
 31
0.0
 11
49.72841513257063
 21
331.8026125687308
 31
0.0
 11
49.79696455601467
 21
331.4934151951453
 31
0.0
 11
49.88839163393921
 21
330.869100217016
 31
0.0
 11
49.918983846
 21
330.2392431551
 31
0.0
  0
SPLINE
  5
FC
330
1F
100
AcDbEntity
  8
BEZUGSACHSEN
  6
Continuous
 62
     7
100
AcDbSpline
210
0.0
220
0.0
230
1.0
 70
     8
 71
     3
 72
    27
 73
    23
 74
    21
 42
0.0000000001
 43
0.0000000001
 44
0.00000001
 40
0.0
 40
0.0
 40
0.0
 40
0.0
 40
0.1260969825524776
 40
0.25224649591947
 40
0.3668867952504062
 40
0.4815825893953219
 40
0.5839596006873963
 40
0.685948916135746
 40
0.7334568410412365
 40
0.7809568848702437
 40
0.8274002264148582
 40
0.8738421607026969
 40
0.9204907319133852
 40
0.9671431399697517
 40
1.015111401857877
 40
1.063087497157813
 40
1.165500418760659
 40
1.268190478994961
 40
1.380949153938003
 40
1.493646517811985
 40
1.615655563764326
 40
1.73763186761309
 40
1.73763186761309
 40
1.73763186761309
 40
1.73763186761309
 10
8.4195580166
 20
344.8734756607
 30
0.0
 10
8.420286558076278
 20
344.915518588761
 30
0.0
 10
8.421743944532352
 20
344.9996219595706
 30
0.0
 10
8.435188506480786
 20
345.1213692871331
 30
0.0
 10
8.458143939766325
 20
345.2377870035113
 30
0.0
 10
8.492109840101929
 20
345.3433624613045
 30
0.0
 10
8.538335598949436
 20
345.439520523567
 30
0.0
 10
8.586878767500503
 20
345.5086898892375
 30
0.0
 10
8.632318093068836
 20
345.5562273708308
 30
0.0
 10
8.668224171164166
 20
345.5869226542887
 30
0.0
 10
8.70687160225894
 20
345.613457689993
 30
0.0
 10
8.747826089478947
 20
345.6356860358878
 30
0.0
 10
8.790965715679711
 20
345.6534792527597
 30
0.0
 10
8.836146350308283
 20
345.6670126598181
 30
0.0
 10
8.882853573294465
 20
345.6762097851557
 30
0.0
 10
8.948677564488618
 20
345.6831651055384
 30
0.0
 10
9.033405316490553
 20
345.6812998489004
 30
0.0
 10
9.13823691999843
 20
345.6643851879638
 30
0.0
 10
9.243816162361842
 20
345.6349705551066
 30
0.0
 10
9.351974100458255
 20
345.5932189176562
 30
0.0
 10
9.459626361723767
 20
345.5424230905372
 30
0.0
 10
9.530145736537593
 20
345.5018586623042
 30
0.0
 10
9.5654006922
 20
345.48157917
 30
0.0
 11
8.4195580166
 21
344.8734756607
 31
0.0
 11
8.423689376164644
 21
344.999504946491
 31
0.0
 11
8.437456135285657
 21
345.124901023248
 31
0.0
 11
8.460307711367799
 21
345.2372407032424
 31
0.0
 11
8.49594590073866
 21
345.3462592551173
 31
0.0
 11
8.5408456655388
 21
345.4382650351639
 31
0.0
 11
8.600018094492944
 21
345.521333947022
 31
0.0
 11
8.632870594654468
 21
345.5556518164483
 31
0.0
 11
8.669007689581283
 21
345.5864797994185
 31
0.0
 11
8.707294954444771
 21
345.6127679968292
 31
0.0
 11
8.748117562396407
 21
345.6349122498178
 31
0.0
 11
8.791223706046065
 21
345.6527433904334
 31
0.0
 11
8.835903278113461
 21
345.6661666172188
 31
0.0
 11
8.882954083859664
 21
345.6755034168418
 31
0.0
 11
8.9306579711128
 21
345.680606833459
 31
0.0
 11
9.033057611972442
 21
345.678957572095
 31
0.0
 11
9.134521862307583
 21
345.6631381418002
 31
0.0
 11
9.243245578764416
 21
345.633243790248
 31
0.0
 11
9.348563571061721
 21
345.5931337376102
 31
0.0
 11
9.45885625696712
 21
345.540963528391
 31
0.0
 11
9.5654006922
 21
345.48157917
 31
0.0
  0
SPLINE
  5
FD
330
1F
100
AcDbEntity
  8
BEZUGSACHSEN
  6
Continuous
 62
     7
100
AcDbSpline
210
0.0
220
0.0
230
1.0
 70
     8
 71
     3
 72
    47
 73
    43
 74
    41
 42
0.0000000001
 43
0.0000000001
 44
0.00000001
 40
0.0
 40
0.0
 40
0.0
 40
0.0
 40
0.6302393213906023
 40
1.260854867258999
 40
1.577476088330803
 40
1.893930800152533
 40
2.210999113813027
 40
2.528183472174153
 40
3.164887038225589
 40
3.801951183362421
 40
4.442851001588428
 40
5.083381259767821
 40
5.404527292290628
 40
5.725573838732269
 40
6.04667070999857
 40
6.367871027113739
 40
7.009090242486415
 40
7.65061976389118
 40
8.290330346441124
 40
8.929958764441926
 40
9.568647011308073
 40
10.20735923008043
 40
10.8444570580819
 40
11.48152626486074
 40
12.1164346221184
 40
12.75141965570135
 40
13.38691908732016
 40
14.02211738527209
 40
14.34050449138076
 40
14.65879153786407
 40
14.97761586863696
 40
15.29653774941677
 40
15.93537694098609
 40
16.57458694063115
 40
17.21386274985711
 40
17.85277859068653
 40
18.17219860078141
 40
18.49150024072806
 40
18.81067156631813
 40
19.13001452417301
 40
19.76719627020563
 40
20.40398968279009
 40
20.40398968279009
 40
20.40398968279009
 40
20.40398968279009
 10
49.9189716544
 20
330.2392431932
 30
0.0
 10
49.91310245265451
 20
330.0290871713332
 30
0.0
 10
49.90136054551456
 20
329.6086496739236
 30
0.0
 10
49.82191380296042
 20
329.0874862316925
 30
0.0
 10
49.73118229789538
 20
328.6760947642694
 30
0.0
 10
49.64757691559958
 20
328.3704569239724
 30
0.0
 10
49.54922497423566
 20
328.0690730777674
 30
0.0
 10
49.39820616338754
 20
327.6730998981528
 30
0.0
 10
49.17292357578315
 20
327.1919930894623
 30
0.0
 10
48.84654554100968
 20
326.6423588644742
 30
0.0
 10
48.46667847893821
 20
326.1266310018336
 30
0.0
 10
48.10842403963437
 20
325.7291055996386
 30
0.0
 10
47.7992433019595
 20
325.4335522447009
 30
0.0
 10
47.55631834593921
 20
325.2233673362576
 30
0.0
 10
47.30326944264027
 20
325.025457871914
 30
0.0
 10
46.95348693421538
 20
324.7788345204109
 30
0.0
 10
46.49400169647895
 20
324.5036279111146
 30
0.0
 10
45.91360598951
 20
324.2295878044157
 30
0.0
 10
45.309451681653
 20
324.0143993271006
 30
0.0
 10
44.68803653423571
 20
323.8597374880998
 30
0.0
 10
44.05476732280651
 20
323.7669271150774
 30
0.0
 10
43.4163078583892
 20
323.7364163652567
 30
0.0
 10
42.77847484485095
 20
323.7685181076016
 30
0.0
 10
42.14804485785984
 20
323.8623311699403
 30
0.0
 10
41.53047118835666
 20
324.0170449862192
 30
0.0
 10
40.93132777690816
 20
324.2308415582941
 30
0.0
 10
40.3558705554186
 20
324.5021629267407
 30
0.0
 10
39.9001851624529
 20
324.7740078103856
 30
0.0
 10
39.55292926472049
 20
325.0174683629883
 30
0.0
 10
39.30130968343698
 20
325.2129508893233
 30
0.0
 10
39.05943463317751
 20
325.4206439480364
 30
0.0
 10
38.75049834950457
 20
325.7134814961917
 30
0.0
 10
38.39165559261374
 20
326.1079391451318
 30
0.0
 10
38.00942868736432
 20
326.6214238110699
 30
0.0
 10
37.67980424210065
 20
327.1701915897731
 30
0.0
 10
37.45131679618039
 20
327.6522550062631
 30
0.0
 10
37.29781529622031
 20
328.0496645654398
 30
0.0
 10
37.19755849329711
 20
328.3529469287321
 30
0.0
 10
37.11224200037158
 20
328.6607708004359
 30
0.0
 10
37.01947954500245
 20
329.0758116675427
 30
0.0
 10
36.93818717804498
 20
329.6020844666315
 30
0.0
 10
36.9261473785567
 20
330.0269001163505
 30
0.0
 10
36.9201293138
 20
330.239243195
 30
0.0
 11
49.9189716544
 21
330.2392431932
 31
0.0
 11
49.88843207567877
 21
329.6097442366017
 31
0.0
 11
49.79710080015195
 21
328.9857774387658
 31
0.0
 11
49.72860606146543
 21
328.6766537282464
 31
0.0
 11
49.64518723662867
 21
328.3713917353665
 31
0.0
 11
49.54680049278961
 21
328.0699744761323
 31
0.0
 11
49.43376986168708
 21
327.7736132208685
 31
0.0
 11
49.16378972517226
 21
327.1969832208598
 31
0.0
 11
48.83845310330153
 21
326.6492544490314
 31
0.0
 11
48.45841660847039
 21
326.133187748305
 31
0.0
 11
48.02956611077543
 21
325.6574081120551
 31
0.0
 11
47.79742897640111
 21
325.435491179286
 31
0.0
 11
47.55464648307488
 21
325.2254256040092
 31
0.0
 11
47.30171687480209
 21
325.0276130311125
 31
0.0
 11
47.03920247899642
 21
324.8425297101199
 31
0.0
 11
46.48914429742462
 21
324.5129874836161
 31
0.0
 11
45.90900346576316
 21
324.2391321526967
 31
0.0
 11
45.30639815544036
 21
324.0244312691467
 31
0.0
 11
44.68569888510037
 21
323.8699743854748
 31
0.0
 11
44.05377007119678
 21
323.7772994112728
 31
0.0
 11
43.41578394404686
 21
323.7468527370152
 31
0.0
 11
42.77948895593652
 21
323.7788266412163
 31
0.0
 11
42.14936568183093
 21
323.8726447293244
 31
0.0
 11
41.53348177358699
 21
324.0269030635621
 31
0.0
 11
40.93544930375053
 21
324.240358346691
 31
0.0
 11
40.36061355516883
 21
324.5113258534891
 31
0.0
 11
39.81514686762235
 21
324.8368146712664
 31
0.0
 11
39.55444457486824
 21
325.0195840994786
 31
0.0
 11
39.30309532308463
 21
325.2148536505788
 31
0.0
 11
39.06121202474605
 21
325.4225587874379
 31
0.0
 11
38.82975619344742
 21
325.6419656337258
 31
0.0
 11
38.39983316256721
 21
326.1144925643908
 31
0.0
 11
38.0182120231094
 21
326.6272836812846
 31
0.0
 11
37.68898054893036
 21
327.1752619624887
 31
0.0
 11
37.41536624178632
 21
327.7526255070504
 31
0.0
 11
37.30027398932636
 21
328.0505901295691
 31
0.0
 11
37.20003430089947
 21
328.3537493981668
 31
0.0
 11
37.11486722068085
 21
328.6613480059756
 31
0.0
 11
37.0449041931974
 21
328.972932825113
 31
0.0
 11
36.9514152962169
 21
329.6032187948272
 31
0.0
 11
36.9201293138
 21
330.239243195
 31
0.0
  0
SPLINE
  5
FE
330
1F
100
AcDbEntity
  8
0
  6
Continuous
 62
     7
100
AcDbSpline
210
0.0
220
0.0
230
1.0
 70
     8
 71
     3
 72
    19
 73
    15
 74
    13
 42
0.0000000001
 43
0.0000000001
 44
0.00000001
 40
0.0
 40
0.0
 40
0.0
 40
0.0
 40
0.1162460235697911
 40
0.2327881717864215
 40
0.3491890045854156
 40
0.4655468550770081
 40
0.5819071370268393
 40
0.6982738489685488
 40
0.8146206073230065
 40
0.9309998278573628
 40
1.163276323454578
 40
1.396138921755505
 40
1.629013178048291
 40
1.861351539792997
 40
1.861351539792997
 40
1.861351539792997
 40
1.861351539792997
 10
77.5445580166
 20
296.7168625908
 30
0.0
 10
77.50577394575971
 20
296.7150216439122
 30
0.0
 10
77.4281070056951
 20
296.7113350605159
 30
0.0
 10
77.3144969206273
 20
296.682929575557
 30
0.0
 10
77.20630923267825
 20
296.6390756613178
 30
0.0
 10
77.10533336670946
 20
296.580478973059
 30
0.0
 10
77.01256490995581
 20
296.509794111725
 30
0.0
 10
76.92847753093692
 20
296.4290365066423
 30
0.0
 10
76.85317388754805
 20
296.3400688678998
 30
0.0
 10
76.76452264338894
 20
296.21270942016
 30
0.0
 10
76.67452589768006
 20
296.039924042093
 30
0.0
 10
76.59963237855467
 20
295.8189990519288
 30
0.0
 10
76.5530954532281
 20
295.5899791323283
 30
0.0
 10
76.54740164251001
 20
295.434799739468
 30
0.0
 10
76.5445580166
 20
295.3572994213
 30
0.0
 11
77.5445580166
 21
296.7168625908
 31
0.0
 11
77.42868666504957
 21
296.707536933415
 31
0.0
 11
77.31536214036153
 21
296.68034089666
 31
0.0
 11
77.20748900775031
 21
296.6366082871227
 31
0.0
 11
77.10670026822554
 21
296.5784638174284
 31
0.0
 11
77.01401296314468
 21
296.5081162610225
 31
0.0
 11
76.92993759748585
 21
296.4276641352739
 31
0.0
 11
76.85463883954043
 21
296.3389699120603
 31
0.0
 11
76.7880121102289
 21
296.2435497783702
 31
0.0
 11
76.68012232415451
 21
296.0378505696509
 31
0.0
 11
76.60436418734191
 21
295.8176558957958
 31
0.0
 11
76.5594041735428
 21
295.5891629716098
 31
0.0
 11
76.5445580166
 21
295.3572994213
 31
0.0
  0
SPLINE
  5
FF
330
1F
100
AcDbEntity
  8
0
  6
Continuous
 62
     7
100
AcDbSpline
210
0.0
220
0.0
230
1.0
 70
     8
 71
     3
 72
    19
 73
    15
 74
    13
 42
0.0000000001
 43
0.0000000001
 44
0.00000001
 40
0.0
 40
0.0
 40
0.0
 40
0.0
 40
0.2323383481439408
 40
0.4652125957750052
 40
0.6980761133579829
 40
0.9303535187932056
 40
1.046733461851988
 40
1.163080940920656
 40
1.279447997487948
 40
1.395808629590228
 40
1.512165904568431
 40
1.628566140412631
 40
1.74510692060534
 40
1.861351602868347
 40
1.861351602868347
 40
1.861351602868347
 40
1.861351602868347
 10
80.2945580166
 20
295.3572994213
 30
0.0
 10
80.291714390994
 20
295.4347997349681
 30
0.0
 10
80.2860205808239
 20
295.5899791204762
 30
0.0
 10
80.2394836049894
 20
295.8189993345225
 30
0.0
 10
80.16458985923325
 20
296.0399248964325
 30
0.0
 10
80.07459255498142
 20
296.2127109606425
 30
0.0
 10
79.98594061716953
 20
296.3400708863468
 30
0.0
 10
79.91063635281208
 20
296.4290387852511
 30
0.0
 10
79.82654837899523
 20
296.5097964552099
 30
0.0
 10
79.73377964516665
 20
296.5804810215921
 30
0.0
 10
79.63280383292123
 20
296.6390772457652
 30
0.0
 10
79.52461678340819
 20
296.682930496922
 30
0.0
 10
79.4110076740539
 20
296.7113352563724
 30
0.0
 10
79.33334163926182
 20
296.7150217090194
 30
0.0
 10
79.2945580166
 20
296.7168625908
 30
0.0
 11
80.2945580166
 21
295.3572994213
 31
0.0
 11
80.27971186248223
 21
295.589162958162
 31
0.0
 11
80.2347518608936
 21
295.8176558759229
 31
0.0
 11
80.15899338221122
 21
296.0378514043263
 31
0.0
 11
80.0511029710336
 21
296.2435513125704
 31
0.0
 11
79.9844756471894
 21
296.3389719123575
 31
0.0
 11
79.90917619062259
 21
296.4276664878759
 31
0.0
 11
79.82510032429214
 21
296.5081185888734
 31
0.0
 11
79.73241249832277
 21
296.5784660381542
 31
0.0
 11
79.63162406341817
 21
296.6366098841728
 31
0.0
 11
79.52375133462661
 21
296.6803419009071
 31
0.0
 11
79.41042804607272
 21
296.707537226227
 31
0.0
 11
79.2945580166
 21
296.7168625908
 31
0.0
  0
SPLINE
  5
100
330
1F
100
AcDbEntity
  8
BEZUGSACHSEN
  6
Continuous
 62
     7
100
AcDbSpline
210
0.0
220
0.0
230
1.0
 70
     8
 71
     3
 72
    11
 73
     7
 74
     5
 42
0.0000000001
 43
0.0000000001
 44
0.00000001
 40
0.0
 40
0.0
 40
0.0
 40
0.0
 40
0.5462907431194461
 40
1.093000863622449
 40
1.646070107132089
 40
2.198197048705703
 40
2.198197048705703
 40
2.198197048705703
 40
2.198197048705703
 10
17.9734039635
 20
345.2492431745
 30
0.0
 10
18.03647476535856
 20
345.0783115452665
 30
0.0
 10
18.16266478737343
 20
344.7363170657228
 30
0.0
 10
18.30230210035039
 20
344.205042936502
 30
0.0
 10
18.3997904644114
 20
343.6616185315599
 30
0.0
 10
18.41297257894048
 20
343.2930338910014
 30
0.0
 10
18.4195580166
 20
343.1088987003
 30
0.0
 11
17.9734039635
 21
345.2492431745
 31
0.0
 11
18.15425529610429
 21
344.7337566358656
 31
0.0
 11
18.29474678077751
 21
344.2054062799514
 31
0.0
 11
18.38681343403283
 21
343.6600538072562
 31
0.0
 11
18.4195580166
 21
343.1088987003
 31
0.0
  0
SPLINE
  5
101
330
1F
100
AcDbEntity
  8
BEZUGSACHSEN
  6
Continuous
 62
     7
100
AcDbSpline
210
0.0
220
0.0
230
1.0
 70
     8
 71
     3
 72
    19
 73
    15
 74
    13
 42
0.0000000001
 43
0.0000000001
 44
0.00000001
 40
0.0
 40
0.0
 40
0.0
 40
0.0
 40
0.1462385987746979
 40
0.2927479274788205
 40
0.4364790706173288
 40
0.5801659236373432
 40
0.7203799972685425
 40
0.8606059382482769
 40
0.9980411883643618
 40
1.135484020392582
 40
1.405415631034944
 40
1.675815514049845
 40
1.943997429527288
 40
2.21193483477985
 40
2.21193483477985
 40
2.21193483477985
 40
2.21193483477985
 10
16.4195580166
 20
346.597890762
 30
0.0
 10
16.46827282193876
 20
346.6011988393108
 30
0.0
 10
16.56579261780625
 20
346.6078211181401
 30
0.0
 10
16.71112887811604
 20
346.5914618053882
 30
0.0
 10
16.85178581524349
 20
346.5562900393204
 30
0.0
 10
16.98463794869538
 20
346.5034843526964
 30
0.0
 10
17.10909241174637
 20
346.4358125649447
 30
0.0
 10
17.22389496889381
 20
346.3565123635431
 30
0.0
 10
17.33000490667257
 20
346.267427723982
 30
0.0
 10
17.4591073718619
 20
346.1394801884447
 30
0.0
 10
17.60214722176715
 20
345.9636778995478
 30
0.0
 10
17.74705482346345
 20
345.735992433646
 30
0.0
 10
17.87169157189417
 20
345.4973298141381
 30
0.0
 10
17.93951014306638
 20
345.3319135736826
 30
0.0
 10
17.9734039635
 20
345.2492431745
 30
0.0
 11
16.4195580166
 21
346.597890762
 31
0.0
 11
16.56569187841905
 21
346.6034244950474
 31
0.0
 11
16.7114012392657
 21
346.5881351013709
 31
0.0
 11
16.8508313208228
 21
346.5532367652375
 31
0.0
 11
16.98446365775171
 21
346.5004323122272
 31
0.0
 11
17.10777744855136
 21
346.4336962991393
 31
0.0
 11
17.22330855985922
 21
346.3542238080268
 31
0.0
 11
17.32872110963365
 21
346.2660385353078
 31
0.0
 11
17.42650961332783
 21
346.1694572709695
 31
0.0
 11
17.59775800921768
 21
345.9608019060034
 31
0.0
 11
17.74410042975233
 21
345.7334255820676
 31
0.0
 11
17.8679680555591
 21
345.4955635399799
 31
0.0
 11
17.9734039635
 21
345.2492431745
 31
0.0
  0
SPLINE
  5
102
330
1F
100
AcDbEntity
  8
BEZUGSACHSEN
  6
Continuous
 62
     7
100
AcDbSpline
210
0.0
220
0.0
230
1.0
 70
     8
 71
     3
 72
    11
 73
     7
 74
     5
 42
0.0000000001
 43
0.0000000001
 44
0.00000001
 40
0.0
 40
0.0
 40
0.0
 40
0.0
 40
0.5521269406194901
 40
1.105196183265033
 40
1.651906304669092
 40
2.198197048716904
 40
2.198197048716904
 40
2.198197048716904
 40
2.198197048716904
 10
18.4195580166
 20
317.3695876487
 30
0.0
 10
18.41297257897094
 20
317.1854524583173
 30
0.0
 10
18.39979046450176
 20
316.8168678183657
 30
0.0
 10
18.30230210070433
 20
316.2734434136908
 30
0.0
 10
18.16266478768086
 20
315.7421692841435
 30
0.0
 10
18.03647476546209
 20
315.4001748040252
 30
0.0
 10
17.9734039635
 20
315.2292431745
 30
0.0
 11
18.4195580166
 21
317.3695876487
 31
0.0
 11
18.38681343417319
 21
316.8184325426913
 31
0.0
 11
18.29474678122982
 21
316.2730800708198
 31
0.0
 11
18.1542552963964
 21
315.7447297140158
 31
0.0
 11
17.9734039635
 21
315.2292431745
 31
0.0
  0
SPLINE
  5
103
330
1F
100
AcDbEntity
  8
BEZUGSACHSEN
  6
Continuous
 62
     7
100
AcDbSpline
210
0.0
220
0.0
230
1.0
 70
     8
 71
     3
 72
    19
 73
    15
 74
    13
 42
0.0000000001
 43
0.0000000001
 44
0.00000001
 40
0.0
 40
0.0
 40
0.0
 40
0.0
 40
0.2679411643344697
 40
0.5361267936841365
 40
0.8065304773437321
 40
1.076465993191216
 40
1.2139133761053
 40
1.351353104841049
 40
1.491586367035744
 40
1.631807897530569
 40
1.775491562725217
 40
1.919219204694857
 40
2.065713007355741
 40
2.211936409306578
 40
2.211936409306578
 40
2.211936409306578
 40
2.211936409306578
 10
17.9734039635
 20
315.2292431745
 30
0.0
 10
17.93950971970106
 20
315.1465715947965
 30
0.0
 10
17.87169030756477
 20
314.9811530072294
 30
0.0
 10
17.74705180129263
 20
314.7424870335637
 30
0.0
 10
17.60214100199394
 20
314.5147990375489
 30
0.0
 10
17.45909737047807
 20
314.3389945462361
 30
0.0
 10
17.32999098354896
 20
314.2110448271361
 30
0.0
 10
17.22387588446271
 20
314.1219578063376
 30
0.0
 10
17.10906645681543
 20
314.0426561659989
 30
0.0
 10
16.98460684459863
 20
313.9749856985338
 30
0.0
 10
16.85175328948146
 20
313.9221830118304
 30
0.0
 10
16.71110249060564
 20
313.8870167478412
 30
0.0
 10
16.56577710749669
 20
313.8706645459623
 30
0.0
 10
16.4682676884358
 20
313.8772872793281
 30
0.0
 10
16.4195580166
 20
313.8805955871
 30
0.0
 11
17.9734039635
 21
315.2292431745
 31
0.0
 11
17.86796670378354
 21
314.9829192986609
 31
0.0
 11
17.74409718822421
 21
314.7450540533964
 31
0.0
 11
17.59775170194594
 21
314.5176751828242
 31
0.0
 11
17.42649951082313
 21
314.309017880648
 31
0.0
 11
17.32870707212113
 21
314.212434124236
 31
0.0
 11
17.22329008284157
 21
314.1242471784549
 31
0.0
 11
17.10775143911886
 21
314.0447727194604
 31
0.0
 11
16.98442942923798
 21
313.9780362264955
 31
0.0
 11
16.85079874106829
 21
313.9252362755195
 31
0.0
 11
16.71137103987252
 21
313.8903428491269
 31
0.0
 11
16.56567660132226
 21
313.8750600223736
 31
0.0
 11
16.4195580166
 21
313.8805955871
 31
0.0
  0
SPLINE
  5
104
330
1F
100
AcDbEntity
  8
BEZUGSACHSEN
  6
Continuous
 62
     7
100
AcDbSpline
210
0.0
220
0.0
230
1.0
 70
     8
 71
     3
 72
    27
 73
    23
 74
    21
 42
0.0000000001
 43
0.0000000001
 44
0.00000001
 40
0.0
 40
0.0
 40
0.0
 40
0.0
 40
0.1219765139646779
 40
0.2439857715013357
 40
0.3566831398549044
 40
0.469441814976551
 40
0.5721317673071875
 40
0.6745445881283969
 40
0.7225206521322279
 40
0.7704888797790177
 40
0.8171412936193735
 40
0.863789873453614
 40
0.9102318001155818
 40
0.9566751324419214
 40
1.004175175761843
 40
1.051683100134956
 40
1.153672388728705
 40
1.256049376673947
 40
1.370745138095147
 40
1.485385401876077
 40
1.61153490391178
 40
1.737631875956648
 40
1.737631875956648
 40
1.737631875956648
 40
1.737631875956648
 10
9.5654006922
 20
314.9969071791
 30
0.0
 10
9.530145674596177
 20
314.9766276538274
 30
0.0
 10
9.459626175474789
 20
314.9360631594138
 30
0.0
 10
9.35197377230029
 20
314.8852672984802
 30
0.0
 10
9.243815756420119
 20
314.8435156626295
 30
0.0
 10
9.13823653544727
 20
314.8141010775229
 30
0.0
 10
9.033404990303634
 20
314.7971864901467
 30
0.0
 10
8.94867732045834
 20
314.7953212668965
 30
0.0
 10
8.882853384051616
 20
314.802276574874
 30
0.0
 10
8.836146180833136
 20
314.8114737020144
 30
0.0
 10
8.790965563530847
 20
314.8250071470305
 30
0.0
 10
8.747825952884936
 20
314.8428004058712
 30
0.0
 10
8.706871476308507
 20
314.8650287635859
 30
0.0
 10
8.66822404983748
 20
314.8915637952781
 30
0.0
 10
8.632317971201383
 20
314.9222590727844
 30
0.0
 10
8.586878649656155
 20
314.9697965458698
 30
0.0
 10
8.53833550956958
 20
315.0389659129553
 30
0.0
 10
8.492109800607306
 20
315.1351239676703
 30
0.0
 10
8.458143926824981
 20
315.2406994006664
 30
0.0
 10
8.435188502647279
 20
315.3571170915752
 30
0.0
 10
8.421743944297543
 20
315.4788644002309
 30
0.0
 10
8.4202865579996
 20
315.562967763748
 30
0.0
 10
8.4195580166
 20
315.6050106883
 30
0.0
 11
9.5654006922
 21
314.9969071791
 31
0.0
 11
9.458856068139458
 21
314.9375227279131
 31
0.0
 11
9.348563178970789
 21
314.8853524535849
 31
0.0
 11
9.243245171118353
 21
314.8452424292043
 31
0.0
 11
9.13452144257531
 21
314.8153481209352
 31
0.0
 11
9.033057290454162
 21
314.7995287611503
 31
0.0
 11
8.930657749869763
 21
314.7978795320391
 31
0.0
 11
8.882953893657216
 21
314.8029829445986
 31
0.0
 11
8.835903123395765
 21
314.8123197471229
 31
0.0
 11
8.791223555962343
 21
314.8257430094348
 31
0.0
 11
8.748117419366412
 21
314.8435741896628
 31
0.0
 11
8.707294826569553
 21
314.8657184545957
 31
0.0
 11
8.669007570023401
 21
314.8920066478342
 31
0.0
 11
8.632870473012845
 21
314.9228346275773
 31
0.0
 11
8.600017972640964
 21
314.9571524960653
 31
0.0
 11
8.54084557838714
 21
315.0402213996703
 31
0.0
 11
8.49594585478608
 21
315.1322271738439
 31
0.0
 11
8.460307695218589
 21
315.2412457010337
 31
0.0
 11
8.437456131852347
 21
315.3535853473367
 31
0.0
 11
8.423689375529793
 21
315.4789814130015
 31
0.0
 11
8.4195580166
 21
315.6050106883
 31
0.0
  0
SPLINE
  5
105
330
1F
100
AcDbEntity
  8
BEZUGSACHSEN
  6
Continuous
 62
     7
100
AcDbSpline
210
0.0
220
0.0
230
1.0
 70
     8
 71
     3
 72
    15
 73
    11
 74
     9
 42
0.0000000001
 43
0.0000000001
 44
0.00000001
 40
0.0
 40
0.0
 40
0.0
 40
0.0
 40
0.1110371613646922
 40
0.2222522337209779
 40
0.3333980191658507
 40
0.4445069474681282
 40
0.5556201065158991
 40
0.6667525642229089
 40
0.7778876033677766
 40
0.8889820916149973
 40
0.8889820916149973
 40
0.8889820916149973
 40
0.8889820916149973
 10
10.3194835319
 20
314.5627107883
 30
0.0
 10
10.28284180501929
 20
314.568242941112
 30
0.0
 10
10.20949964149006
 20
314.5793161107126
 30
0.0
 10
10.10298309148218
 20
314.6123346742377
 30
0.0
 10
10.00057018373661
 20
314.6559249616848
 30
0.0
 10
9.90312021810957
 20
314.7097044694981
 30
0.0
 10
9.810815422377349
 20
314.7717996048621
 30
0.0
 10
9.723818794249745
 20
314.8410862785166
 30
0.0
 10
9.641566038783873
 20
314.9159682301428
 30
0.0
 10
9.59078605240178
 20
314.9699308116864
 30
0.0
 10
9.5654006922
 20
314.9969071791
 30
0.0
 11
10.3194835319
 21
314.5627107883
 31
0.0
 11
10.21014124678978
 21
314.5820373475076
 31
0.0
 11
10.10364929322148
 21
314.6141037808051
 31
0.0
 11
10.00138111261432
 21
314.6576308397163
 31
0.0
 11
9.903978246159774
 21
314.7110899414195
 31
0.0
 11
9.811706479373148
 21
314.7729935371765
 31
0.0
 11
9.724609375964375
 21
314.8420190232944
 31
0.0
 11
9.642569471477831
 21
314.9169886904776
 31
0.0
 11
9.5654006922
 21
314.9969071791
 31
0.0
  0
SPLINE
  5
106
330
1F
100
AcDbEntity
  8
BEZUGSACHSEN
  6
Continuous
 62
     7
100
AcDbSpline
210
0.0
220
0.0
230
1.0
 70
     8
 71
     3
 72
    11
 73
     7
 74
     5
 42
0.0000000001
 43
0.0000000001
 44
0.00000001
 40
0.0
 40
0.0
 40
0.0
 40
0.0
 40
0.9140556660002733
 40
1.828030949185867
 40
2.279806974871109
 40
2.730944124762494
 40
2.730944124762494
 40
2.730944124762494
 40
2.730944124762494
 10
9.68651094348544
 20
315.229243174685
 30
0.0
 10
9.819165650448808
 20
315.5039597723515
 30
0.0
 10
10.08446339861041
 20
316.053368808879
 30
0.0
 10
10.29981861192299
 20
316.7860797299835
 30
0.0
 10
10.40351282558538
 20
317.3840249360898
 30
0.0
 10
10.41421214310649
 20
317.6851481515165
 30
0.0
 10
10.4195580166
 20
317.8356032261
 30
0.0
 11
9.68651094348544
 21
315.229243174685
 31
0.0
 11
10.06131847326088
 21
316.0629200162554
 31
0.0
 11
10.32060983365873
 21
316.9393438912709
 31
0.0
 11
10.39332680715737
 21
317.3852293240327
 31
0.0
 11
10.4195580166
 21
317.8356032261
 31
0.0
  0
SPLINE
  5
107
330
1F
100
AcDbEntity
  8
BEZUGSACHSEN
  6
Continuous
 62
     7
100
AcDbSpline
210
0.0
220
0.0
230
1.0
 70
     8
 71
     3
 72
    11
 73
     7
 74
     5
 42
0.0000000001
 43
0.0000000001
 44
0.00000001
 40
0.0
 40
0.0
 40
0.0
 40
0.0
 40
0.8249192366727551
 40
1.65011689193149
 40
2.190492152293674
 40
2.730585915378219
 40
2.730585915378219
 40
2.730585915378219
 40
2.730585915378219
 10
10.4195580166
 20
342.6428831229
 30
0.0
 10
10.40182471226182
 20
342.918073414877
 30
0.0
 10
10.36635211841588
 20
343.4685468783379
 30
0.0
 10
10.15791730178058
 20
344.173280463491
 30
0.0
 10
9.92769087080075
 20
344.765494188571
 30
0.0
 10
9.766890287998834
 20
345.088021522016
 30
0.0
 10
9.68651094348544
 20
345.249243174315
 30
0.0
 11
10.4195580166
 21
342.6428831229
 31
0.0
 11
10.33598256248429
 21
343.4635577785962
 31
0.0
 11
10.11802112037251
 21
344.2594497184958
 31
0.0
 11
9.920086041813306
 21
344.7622688974133
 31
0.0
 11
9.68651094348544
 21
345.249243174315
 31
0.0
  0
DIMENSION
  5
112
330
1F
100
AcDbEntity
  8
1
100
AcDbDimension
  2
*D2
 10
229.219161197366
 20
336.2392431745
 30
0.0
 11
225.469161197366
 21
330.555283958729
 31
0.0
 70
    32
  1
<>
 71
     5
 42
-1.0
 53
90.0
  3
ME10_DIM_10
100
AcDbAlignedDimension
 13
218.4195580166
 23
324.2392431745
 33
0.0
 14
218.4195580166
 24
336.2392431745
 34
0.0
 50
90.0
100
AcDbRotatedDimension
  0
DIMENSION
  5
11D
330
1F
100
AcDbEntity
  8
1
100
AcDbDimension
  2
*D3
 10
238.602975403364
 20
351.2392431745
 30
0.0
 11
234.852975403364
 21
331.597929981618
 31
0.0
 70
    32
  1
<>
 71
     5
 42
-1.0
 53
90.0
  3
ME10_DIM_11
100
AcDbAlignedDimension
 13
205.3308218309
 23
309.2392431745
 33
0.0
 14
205.3308218309
 24
351.2392431745
 34
0.0
 50
90.0
100
AcDbRotatedDimension
  0
DIMENSION
  5
128
330
1F
100
AcDbEntity
  8
1
100
AcDbDimension
  2
*D4
 10
218.4195580166
 20
387.279517998238
 30
0.0
 11
153.752292577981
 21
391.029517998238
 31
0.0
 70
    32
  1
<>
 71
     5
 42
-1.0
 53
0.00013888888889
  3
ME10_DIM_12
100
AcDbAlignedDimension
 13
87.4195580166
 23
380.2392062534
 33
0.0
 14
218.4195580166
 24
344.6021729137
 34
0.0
100
AcDbRotatedDimension
  0
DIMENSION
  5
133
330
1F
100
AcDbEntity
  8
1
100
AcDbDimension
  2
*D5
 10
218.4195580166
 20
394.885816126396
 30
0.0
 11
136.112154365872
 21
398.635816126396
 31
0.0
 70
    32
  1
<>
 71
     5
 42
-1.0
 53
0.00013888888889
  3
ME10_DIM_13
100
AcDbAlignedDimension
 13
58.4195580166
 23
380.2392431745
 33
0.0
 14
218.4195580166
 24
344.6021729137
 34
0.0
100
AcDbRotatedDimension
  0
DIMENSION
  5
13E
330
1F
100
AcDbEntity
  8
1
100
AcDbDimension
  2
*D6
 10
218.4195580166
 20
402.492114254553
 30
0.0
 11
120.090377457626
 21
406.242114254553
 31
0.0
 70
    32
  1
<>
 71
     5
 42
-1.0
 53
0.00013888888889
  3
ME10_DIM_14
100
AcDbAlignedDimension
 13
8.4195580166
 23
363.8394347371
 33
0.0
 14
218.4195580166
 24
344.6021729137
 34
0.0
100
AcDbRotatedDimension
  0
INSERT
  5
145
330
1F
100
AcDbEntity
  8
1
100
AcDbBlockReference
  2
*D7
 10
0.0
 20
0.0
 30
0.0
  0
ENDSEC
  0
SECTION
  2
OBJECTS
  0
DICTIONARY
  5
C
330
0
100
AcDbDictionary
281
     1
  3
ACAD_GROUP
350
D
  3
ACAD_LAYOUT
350
1A
  3
ACAD_MLEADERSTYLE
350
148
  3
ACAD_MLINESTYLE
350
17
  3
ACAD_PLOTSETTINGS
350
19
  3
ACAD_PLOTSTYLENAME
350
E
  3
ACAD_SCALELIST
350
4B
  3
ACAD_VISUALSTYLE
350
2A
  3
AcDbVariableDictionary
350
146
  0
DICTIONARY
  5
D
102
{ACAD_REACTORS
330
C
102
}
330
C
100
AcDbDictionary
281
     1
  0
DICTIONARY
  5
1A
102
{ACAD_REACTORS
330
C
102
}
330
C
100
AcDbDictionary
281
     1
  3
Layout1
350
1E
  3
Layout2
350
26
  3
Model
350
22
  0
DICTIONARY
  5
148
102
{ACAD_REACTORS
330
C
102
}
330
C
100
AcDbDictionary
281
     1
  0
DICTIONARY
  5
17
102
{ACAD_REACTORS
330
C
102
}
330
C
100
AcDbDictionary
281
     1
  3
Standard
350
18
  0
DICTIONARY
  5
19
102
{ACAD_REACTORS
330
C
102
}
330
C
100
AcDbDictionary
281
     1
  0
ACDBDICTIONARYWDFLT
  5
E
102
{ACAD_REACTORS
330
C
102
}
330
C
100
AcDbDictionary
281
     1
  3
Normal
350
F
100
AcDbDictionaryWithDefault
340
F
  0
DICTIONARY
  5
4B
102
{ACAD_REACTORS
330
C
102
}
330
C
100
AcDbDictionary
281
     1
  3
A0
350
4C
  3
A1
350
4D
  3
A2
350
4E
  3
A3
350
4F
  3
A4
350
50
  3
A5
350
51
  3
A6
350
52
  3
A7
350
53
  3
A8
350
54
  3
A9
350
55
  3
B0
350
56
  3
B1
350
57
  3
B2
350
58
  3
B3
350
59
  3
B4
350
5A
  3
B5
350
5B
  3
B6
350
5C
  3
B7
350
5D
  3
B8
350
5E
  3
B9
350
5F
  3
C0
350
60
  3
C1
350
61
  3
C2
350
62
  3
C3
350
63
  3
C4
350
64
  3
C5
350
65
  3
C6
350
66
  3
C7
350
67
  3
C8
350
68
  3
C9
350
69
  3
D0
350
6A
  3
D1
350
6B
  3
D2
350
6C
  0
DICTIONARY
  5
2A
102
{ACAD_REACTORS
330
C
102
}
330
C
100
AcDbDictionary
281
     1
  3
2dWireframe
350
2F
  3
3D Hidden
350
31
  3
3dWireframe
350
30
  3
Basic
350
32
  3
Brighten
350
36
  3
ColorChange
350
3A
  3
Conceptual
350
34
  3
Dim
350
35
  3
Facepattern
350
39
  3
Flat
350
2B
  3
FlatWithEdges
350
2C
  3
Gouraud
350
2D
  3
GouraudWithEdges
350
2E
  3
Linepattern
350
38
  3
Realistic
350
33
  3
Thicken
350
37
  0
DICTIONARY
  5
146
102
{ACAD_REACTORS
330
C
102
}
330
C
100
AcDbDictionary
281
     1
  3
CANNOSCALE
350
149
  0
LAYOUT
  5
1E
102
{ACAD_REACTORS
330
1A
102
}
330
1A
100
AcDbPlotSettings
  1

  2
none_device
  4

  6

 40
0.0
 41
0.0
 42
0.0
 43
0.0
 44
0.0
 45
0.0
 46
0.0
 47
0.0
 48
0.0
 49
0.0
140
0.0
141
0.0
142
1.0
143
1.0
 70
   688
 72
     0
 73
     0
 74
     5
  7

 75
    16
147
1.0
148
0.0
149
0.0
100
AcDbLayout
  1
Layout1
 70
     1
 71
     1
 10
0.0
 20
0.0
 11
12.0
 21
9.0
 12
0.0
 22
0.0
 32
0.0
 14
1.00000000000000E+20
 24
1.00000000000000E+20
 34
1.00000000000000E+20
 15
-1.00000000000000E+20
 25
-1.00000000000000E+20
 35
-1.00000000000000E+20
146
0.0
 13
0.0
 23
0.0
 33
0.0
 16
1.0
 26
0.0
 36
0.0
 17
0.0
 27
1.0
 37
0.0
 76
     0
330
1B
  0
LAYOUT
  5
26
102
{ACAD_REACTORS
330
1A
102
}
330
1A
100
AcDbPlotSettings
  1

  2
none_device
  4

  6

 40
0.0
 41
0.0
 42
0.0
 43
0.0
 44
0.0
 45
0.0
 46
0.0
 47
0.0
 48
0.0
 49
0.0
140
0.0
141
0.0
142
1.0
143
1.0
 70
   688
 72
     0
 73
     0
 74
     5
  7

 75
    16
147
1.0
148
0.0
149
0.0
100
AcDbLayout
  1
Layout2
 70
     1
 71
     2
 10
0.0
 20
0.0
 11
0.0
 21
0.0
 12
0.0
 22
0.0
 32
0.0
 14
0.0
 24
0.0
 34
0.0
 15
0.0
 25
0.0
 35
0.0
146
0.0
 13
0.0
 23
0.0
 33
0.0
 16
1.0
 26
0.0
 36
0.0
 17
0.0
 27
1.0
 37
0.0
 76
     0
330
23
  0
LAYOUT
  5
22
102
{ACAD_REACTORS
330
1A
102
}
330
1A
100
AcDbPlotSettings
  1

  2
none_device
  4

  6

 40
0.0
 41
0.0
 42
0.0
 43
0.0
 44
0.0
 45
0.0
 46
0.0
 47
0.0
 48
0.0
 49
0.0
140
0.0
141
0.0
142
1.0
143
1.0
 70
  1712
 72
     0
 73
     0
 74
     0
  7

 75
     0
147
1.0
148
0.0
149
0.0
100
AcDbLayout
  1
Model
 70
     1
 71
     0
 10
0.0
 20
0.0
 11
12.0
 21
9.0
 12
0.0
 22
0.0
 32
0.0
 14
-13.02101450670903
 24
280.2392431745
 34
0.0
 15
240.602975403364
 25
407.992114254553
 35
0.0
146
0.0
 13
0.0
 23
0.0
 33
0.0
 16
1.0
 26
0.0
 36
0.0
 17
0.0
 27
1.0
 37
0.0
 76
     0
330
1F
331
29
  0
MLINESTYLE
  5
18
102
{ACAD_REACTORS
330
17
102
}
330
17
100
AcDbMlineStyle
  2
Standard
 70
     0
  3

 62
   256
 51
90.0
 52
90.0
 71
     2
 49
0.5
 62
   256
  6
BYLAYER
 49
-0.5
 62
   256
  6
BYLAYER
  0
ACDBPLACEHOLDER
  5
F
102
{ACAD_REACTORS
330
E
102
}
330
E
  0
SCALE
  5
4C
102
{ACAD_REACTORS
330
4B
102
}
330
4B
100
AcDbScale
 70
     0
300
1:1
140
1.0
141
1.0
290
     1
  0
SCALE
  5
4D
102
{ACAD_REACTORS
330
4B
102
}
330
4B
100
AcDbScale
 70
     0
300
1:2
140
1.0
141
2.0
290
     0
  0
SCALE
  5
4E
102
{ACAD_REACTORS
330
4B
102
}
330
4B
100
AcDbScale
 70
     0
300
1:4
140
1.0
141
4.0
290
     0
  0
SCALE
  5
4F
102
{ACAD_REACTORS
330
4B
102
}
330
4B
100
AcDbScale
 70
     0
300
1:5
140
1.0
141
5.0
290
     0
  0
SCALE
  5
50
102
{ACAD_REACTORS
330
4B
102
}
330
4B
100
AcDbScale
 70
     0
300
1:8
140
1.0
141
8.0
290
     0
  0
SCALE
  5
51
102
{ACAD_REACTORS
330
4B
102
}
330
4B
100
AcDbScale
 70
     0
300
1:10
140
1.0
141
10.0
290
     0
  0
SCALE
  5
52
102
{ACAD_REACTORS
330
4B
102
}
330
4B
100
AcDbScale
 70
     0
300
1:16
140
1.0
141
16.0
290
     0
  0
SCALE
  5
53
102
{ACAD_REACTORS
330
4B
102
}
330
4B
100
AcDbScale
 70
     0
300
1:20
140
1.0
141
20.0
290
     0
  0
SCALE
  5
54
102
{ACAD_REACTORS
330
4B
102
}
330
4B
100
AcDbScale
 70
     0
300
1:30
140
1.0
141
30.0
290
     0
  0
SCALE
  5
55
102
{ACAD_REACTORS
330
4B
102
}
330
4B
100
AcDbScale
 70
     0
300
1:40
140
1.0
141
40.0
290
     0
  0
SCALE
  5
56
102
{ACAD_REACTORS
330
4B
102
}
330
4B
100
AcDbScale
 70
     0
300
1:50
140
1.0
141
50.0
290
     0
  0
SCALE
  5
57
102
{ACAD_REACTORS
330
4B
102
}
330
4B
100
AcDbScale
 70
     0
300
1:100
140
1.0
141
100.0
290
     0
  0
SCALE
  5
58
102
{ACAD_REACTORS
330
4B
102
}
330
4B
100
AcDbScale
 70
     0
300
2:1
140
2.0
141
1.0
290
     0
  0
SCALE
  5
59
102
{ACAD_REACTORS
330
4B
102
}
330
4B
100
AcDbScale
 70
     0
300
4:1
140
4.0
141
1.0
290
     0
  0
SCALE
  5
5A
102
{ACAD_REACTORS
330
4B
102
}
330
4B
100
AcDbScale
 70
     0
300
8:1
140
8.0
141
1.0
290
     0
  0
SCALE
  5
5B
102
{ACAD_REACTORS
330
4B
102
}
330
4B
100
AcDbScale
 70
     0
300
10:1
140
10.0
141
1.0
290
     0
  0
SCALE
  5
5C
102
{ACAD_REACTORS
330
4B
102
}
330
4B
100
AcDbScale
 70
     0
300
100:1
140
100.0
141
1.0
290
     0
  0
SCALE
  5
5D
102
{ACAD_REACTORS
330
4B
102
}
330
4B
100
AcDbScale
 70
     0
300
1/128" = 1'-0"
140
0.0078125
141
12.0
290
     0
  0
SCALE
  5
5E
102
{ACAD_REACTORS
330
4B
102
}
330
4B
100
AcDbScale
 70
     0
300
1/64" = 1'-0"
140
0.015625
141
12.0
290
     0
  0
SCALE
  5
5F
102
{ACAD_REACTORS
330
4B
102
}
330
4B
100
AcDbScale
 70
     0
300
1/32" = 1'-0"
140
0.03125
141
12.0
290
     0
  0
SCALE
  5
60
102
{ACAD_REACTORS
330
4B
102
}
330
4B
100
AcDbScale
 70
     0
300
1/16" = 1'-0"
140
0.0625
141
12.0
290
     0
  0
SCALE
  5
61
102
{ACAD_REACTORS
330
4B
102
}
330
4B
100
AcDbScale
 70
     0
300
3/32" = 1'-0"
140
0.09375
141
12.0
290
     0
  0
SCALE
  5
62
102
{ACAD_REACTORS
330
4B
102
}
330
4B
100
AcDbScale
 70
     0
300
1/8" = 1'-0"
140
0.125
141
12.0
290
     0
  0
SCALE
  5
63
102
{ACAD_REACTORS
330
4B
102
}
330
4B
100
AcDbScale
 70
     0
300
3/16" = 1'-0"
140
0.1875
141
12.0
290
     0
  0
SCALE
  5
64
102
{ACAD_REACTORS
330
4B
102
}
330
4B
100
AcDbScale
 70
     0
300
1/4" = 1'-0"
140
0.25
141
12.0
290
     0
  0
SCALE
  5
65
102
{ACAD_REACTORS
330
4B
102
}
330
4B
100
AcDbScale
 70
     0
300
3/8" = 1'-0"
140
0.375
141
12.0
290
     0
  0
SCALE
  5
66
102
{ACAD_REACTORS
330
4B
102
}
330
4B
100
AcDbScale
 70
     0
300
1/2" = 1'-0"
140
0.5
141
12.0
290
     0
  0
SCALE
  5
67
102
{ACAD_REACTORS
330
4B
102
}
330
4B
100
AcDbScale
 70
     0
300
3/4" = 1'-0"
140
0.75
141
12.0
290
     0
  0
SCALE
  5
68
102
{ACAD_REACTORS
330
4B
102
}
330
4B
100
AcDbScale
 70
     0
300
1" = 1'-0"
140
1.0
141
12.0
290
     0
  0
SCALE
  5
69
102
{ACAD_REACTORS
330
4B
102
}
330
4B
100
AcDbScale
 70
     0
300
1-1/2" = 1'-0"
140
1.5
141
12.0
290
     0
  0
SCALE
  5
6A
102
{ACAD_REACTORS
330
4B
102
}
330
4B
100
AcDbScale
 70
     0
300
3" = 1'-0"
140
3.0
141
12.0
290
     0
  0
SCALE
  5
6B
102
{ACAD_REACTORS
330
4B
102
}
330
4B
100
AcDbScale
 70
     0
300
6" = 1'-0"
140
6.0
141
12.0
290
     0
  0
SCALE
  5
6C
102
{ACAD_REACTORS
330
4B
102
}
330
4B
100
AcDbScale
 70
     0
300
1'-0" = 1'-0"
140
12.0
141
12.0
290
     0
  0
VISUALSTYLE
  5
2F
102
{ACAD_REACTORS
330
2A
102
}
330
2A
100
AcDbVisualStyle
  2
2dWireframe
 70
     4
 71
     0
 72
     2
 73
     0
 90
        0
 40
-0.6
 41
-30.0
 62
     5
 63
     7
 74
     1
 91
        4
 64
     7
 65
   257
 75
     1
175
     1
 42
1.0
 92
        0
 66
   257
 43
1.0
 76
     1
 77
     6
 78
     2
 67
     7
 79
     5
170
     0
171
     0
290
     0
174
     0
 93
        1
 44
0.0
173
     0
291
     0
 45
0.0
1001
ACAD
1000
AcDbSavedByObjectVersion
1070
     0
  0
VISUALSTYLE
  5
31
102
{ACAD_REACTORS
330
2A
102
}
330
2A
100
AcDbVisualStyle
  2
3D Hidden
 70
     6
 71
     1
 72
     2
 73
     2
 90
        0
 40
-0.6
 41
-30.0
 62
     5
 63
     7
 74
     2
 91
        2
 64
     7
 65
   257
 75
     2
175
     1
 42
40.0
 92
        0
 66
   257
 43
1.0
 76
     1
 77
     6
 78
     2
 67
     7
 79
     3
170
     0
171
     0
290
     0
174
     0
 93
        1
 44
0.0
173
     0
291
     0
 45
0.0
1001
ACAD
1000
AcDbSavedByObjectVersion
1070
     0
  0
VISUALSTYLE
  5
30
102
{ACAD_REACTORS
330
2A
102
}
330
2A
100
AcDbVisualStyle
  2
3dWireframe
 70
     5
 71
     0
 72
     2
 73
     0
 90
        0
 40
-0.6
 41
-30.0
 62
     5
 63
     7
 74
     1
 91
        4
 64
     7
 65
   257
 75
     1
175
     1
 42
1.0
 92
        0
 66
   257
 43
1.0
 76
     1
 77
     6
 78
     2
 67
     7
 79
     5
170
     0
171
     0
290
     0
174
     0
 93
        1
 44
0.0
173
     0
291
     0
 45
0.0
1001
ACAD
1000
AcDbSavedByObjectVersion
1070
     0
  0
VISUALSTYLE
  5
32
102
{ACAD_REACTORS
330
2A
102
}
330
2A
100
AcDbVisualStyle
  2
Basic
 70
     7
 71
     1
 72
     0
 73
     1
 90
        0
 40
-0.6
 41
-30.0
 62
     5
 63
     7
 74
     0
 91
        4
 64
     7
 65
   257
 75
     1
175
     1
 42
1.0
 92
        8
 66
     7
 43
1.0
 76
     1
 77
     6
 78
     2
 67
     7
 79
     5
170
     0
171
     0
290
     0
174
     0
 93
        1
 44
0.0
173
     0
291
     1
 45
0.0
1001
ACAD
1000
AcDbSavedByObjectVersion
1070
     0
  0
VISUALSTYLE
  5
36
102
{ACAD_REACTORS
330
2A
102
}
330
2A
100
AcDbVisualStyle
  2
Brighten
 70
    12
 71
     2
 72
     2
 73
     0
 90
        0
 40
-0.6
 41
-30.0
 62
     5
 63
     7
 74
     1
 91
        4
 64
     7
 65
   257
 75
     1
175
     1
 42
1.0
 92
        8
 66
     7
 43
1.0
 76
     1
 77
     6
 78
     2
 67
     7
 79
     5
170
     0
171
     0
290
     0
174
     0
 93
        1
 44
50.0
173
     0
291
     1
 45
0.0
1001
ACAD
1000
AcDbSavedByObjectVersion
1070
     0
  0
VISUALSTYLE
  5
3A
102
{ACAD_REACTORS
330
2A
102
}
330
2A
100
AcDbVisualStyle
  2
ColorChange
 70
    16
 71
     2
 72
     2
 73
     3
 90
        0
 40
-0.6
 41
-30.0
 62
     5
 63
     8
 74
     1
 91
        4
 64
     7
 65
   257
 75
     1
175
     1
 42
1.0
 92
        8
 66
     8
 43
1.0
 76
     1
 77
     6
 78
     2
 67
     7
 79
     5
170
     0
171
     0
290
     0
174
     0
 93
        1
 44
0.0
173
     0
291
     1
 45
0.0
1001
ACAD
1000
AcDbSavedByObjectVersion
1070
     0
  0
VISUALSTYLE
  5
34
102
{ACAD_REACTORS
330
2A
102
}
330
2A
100
AcDbVisualStyle
  2
Conceptual
 70
     9
 71
     3
 72
     2
 73
     0
 90
        0
 40
-0.6
 41
-30.0
 62
     5
 63
     7
 74
     2
 91
        2
 64
     7
 65
   257
 75
     1
175
     1
 42
40.0
 92
        8
 66
     7
 43
1.0
 76
     1
 77
     6
 78
     2
 67
     7
 79
     3
170
     0
171
     0
290
     0
174
     0
 93
        1
 44
0.0
173
     0
291
     0
 45
0.0
1001
ACAD
1000
AcDbSavedByObjectVersion
1070
     0
  0
VISUALSTYLE
  5
35
102
{ACAD_REACTORS
330
2A
102
}
330
2A
100
AcDbVisualStyle
  2
Dim
 70
    11
 71
     2
 72
     2
 73
     0
 90
        0
 40
-0.6
 41
-30.0
 62
     5
 63
     7
 74
     1
 91
        4
 64
     7
 65
   257
 75
     1
175
     1
 42
1.0
 92
        8
 66
     7
 43
1.0
 76
     1
 77
     6
 78
     2
 67
     7
 79
     5
170
     0
171
     0
290
     0
174
     0
 93
        1
 44
-50.0
173
     0
291
     1
 45
0.0
1001
ACAD
1000
AcDbSavedByObjectVersion
1070
     0
  0
VISUALSTYLE
  5
39
102
{ACAD_REACTORS
330
2A
102
}
330
2A
100
AcDbVisualStyle
  2
Facepattern
 70
    15
 71
     2
 72
     2
 73
     0
 90
        0
 40
-0.6
 41
-30.0
 62
     5
 63
     7
 74
     1
 91
        4
 64
     7
 65
   257
 75
     1
175
     1
 42
1.0
 92
        8
 66
     7
 43
1.0
 76
     1
 77
     6
 78
     2
 67
     7
 79
     5
170
     0
171
     0
290
     0
174
     0
 93
        1
 44
0.0
173
     0
291
     1
 45
0.0
1001
ACAD
1000
AcDbSavedByObjectVersion
1070
     0
  0
VISUALSTYLE
  5
2B
102
{ACAD_REACTORS
330
2A
102
}
330
2A
100
AcDbVisualStyle
  2
Flat
 70
     0
 71
     2
 72
     1
 73
     1
 90
        2
 40
-0.6
 41
30.0
 62
     5
 63
     7
 74
     0
 91
        4
 64
     7
 65
   257
 75
     1
175
     1
 42
1.0
 92
        8
 66
     7
 43
1.0
 76
     1
 77
     6
 78
     2
 67
     7
 79
     5
170
     0
171
     0
290
     0
174
     0
 93
       13
 44
0.0
173
     0
291
     1
 45
0.0
1001
ACAD
1000
AcDbSavedByObjectVersion
1070
     0
  0
VISUALSTYLE
  5
2C
102
{ACAD_REACTORS
330
2A
102
}
330
2A
100
AcDbVisualStyle
  2
FlatWithEdges
 70
     1
 71
     2
 72
     1
 73
     1
 90
        2
 40
-0.6
 41
30.0
 62
     5
 63
     7
 74
     1
 91
        4
 64
     7
 65
   257
 75
     1
175
     1
 42
1.0
 92
        0
 66
   257
 43
1.0
 76
     1
 77
     6
 78
     2
 67
     7
 79
     5
170
     0
171
     0
290
     0
174
     0
 93
       13
 44
0.0
173
     0
291
     1
 45
0.0
1001
ACAD
1000
AcDbSavedByObjectVersion
1070
     0
  0
VISUALSTYLE
  5
2D
102
{ACAD_REACTORS
330
2A
102
}
330
2A
100
AcDbVisualStyle
  2
Gouraud
 70
     2
 71
     2
 72
     2
 73
     1
 90
        2
 40
-0.6
 41
30.0
 62
     5
 63
     7
 74
     0
 91
        4
 64
     7
 65
   257
 75
     1
175
     1
 42
1.0
 92
        0
 66
     7
 43
1.0
 76
     1
 77
     6
 78
     2
 67
     7
 79
     5
170
     0
171
     0
290
     0
174
     0
 93
       13
 44
0.0
173
     0
291
     1
 45
0.0
1001
ACAD
1000
AcDbSavedByObjectVersion
1070
     0
  0
VISUALSTYLE
  5
2E
102
{ACAD_REACTORS
330
2A
102
}
330
2A
100
AcDbVisualStyle
  2
GouraudWithEdges
 70
     3
 71
     2
 72
     2
 73
     1
 90
        2
 40
-0.6
 41
30.0
 62
     5
 63
     7
 74
     1
 91
        4
 64
     7
 65
   257
 75
     1
175
     1
 42
1.0
 92
        0
 66
   257
 43
1.0
 76
     1
 77
     6
 78
     2
 67
     7
 79
     5
170
     0
171
     0
290
     0
174
     0
 93
       13
 44
0.0
173
     0
291
     1
 45
0.0
1001
ACAD
1000
AcDbSavedByObjectVersion
1070
     0
  0
VISUALSTYLE
  5
38
102
{ACAD_REACTORS
330
2A
102
}
330
2A
100
AcDbVisualStyle
  2
Linepattern
 70
    14
 71
     2
 72
     2
 73
     0
 90
        0
 40
-0.6
 41
-30.0
 62
     5
 63
     7
 74
     1
 91
        4
 64
     7
 65
   257
 75
     7
175
     7
 42
1.0
 92
        8
 66
     7
 43
1.0
 76
     1
 77
     6
 78
     2
 67
     7
 79
     5
170
     0
171
     0
290
     0
174
     0
 93
        1
 44
0.0
173
     0
291
     1
 45
0.0
1001
ACAD
1000
AcDbSavedByObjectVersion
1070
     0
  0
VISUALSTYLE
  5
33
102
{ACAD_REACTORS
330
2A
102
}
330
2A
100
AcDbVisualStyle
  2
Realistic
 70
     8
 71
     2
 72
     2
 73
     0
 90
        0
 40
-0.6
 41
-30.0
 62
     5
 63
     7
 74
     1
 91
        0
 64
     7
 65
   257
 75
     1
175
     1
 42
1.0
 92
        8
 66
     8
 43
1.0
 76
     1
 77
     6
 78
     2
 67
     7
 79
     5
170
     0
171
     0
290
     0
174
     0
 93
       13
 44
0.0
173
     0
291
     0
 45
0.0
1001
ACAD
1000
AcDbSavedByObjectVersion
1070
     0
  0
VISUALSTYLE
  5
37
102
{ACAD_REACTORS
330
2A
102
}
330
2A
100
AcDbVisualStyle
  2
Thicken
 70
    13
 71
     2
 72
     2
 73
     0
 90
        0
 40
-0.6
 41
-30.0
 62
     5
 63
     7
 74
     1
 91
        4
 64
     7
 65
   257
 75
     1
175
     1
 42
1.0
 92
       12
 66
     7
 43
1.0
 76
     1
 77
     6
 78
     2
 67
     7
 79
     5
170
     0
171
     0
290
     0
174
     0
 93
        1
 44
0.0
173
     0
291
     1
 45
0.0
1001
ACAD
1000
AcDbSavedByObjectVersion
1070
     0
  0
DICTIONARYVAR
  5
149
102
{ACAD_REACTORS
330
146
102
}
330
146
100
DictionaryVariables
280
     0
  1
1:1
  0
ENDSEC
  0
EOF
