  0
SECTION
  2
HEADER
  9
$ACADVER
  1
AC1015
  9
$ACADMAINTVER
 70
     6
  9
$DWGCODEPAGE
  3
ANSI_1252
  9
$INSBASE
 10
0.0
 20
0.0
 30
0.0
  9
$EXTMIN
 10
-19.92598538979053
 20
280.6249268101
 30
0.0
  9
$EXTMAX
 10
234.043346583301
 20
407.563331207655
 30
0.0
  9
$LIMMIN
 10
0.0
 20
0.0
  9
$LIMMAX
 10
12.0
 20
9.0
  9
$ORTHOMODE
 70
     0
  9
$REGENMODE
 70
     1
  9
$FILLMODE
 70
     1
  9
$QTEXTMODE
 70
     0
  9
$MIRRTEXT
 70
     1
  9
$LTSCALE
 40
1.0
  9
$ATTMODE
 70
     1
  9
$TEXTSIZE
 40
0.2
  9
$TRACEWID
 40
0.05
  9
$TEXTSTYLE
  7
Standard
  9
$CLAYER
  8
0
  9
$CELTYPE
  6
ByLayer
  9
$CECOLOR
 62
   256
  9
$CELTSCALE
 40
1.0
  9
$DISPSILH
 70
     0
  9
$DIMSCALE
 40
1.0
  9
$DIMASZ
 40
0.18
  9
$DIMEXO
 40
0.0625
  9
$DIMDLI
 40
0.38
  9
$DIMRND
 40
0.0
  9
$DIMDLE
 40
0.0
  9
$DIMEXE
 40
0.18
  9
$DIMTP
 40
0.0
  9
$DIMTM
 40
0.0
  9
$DIMTXT
 40
0.18
  9
$DIMCEN
 40
0.09
  9
$DIMTSZ
 40
0.0
  9
$DIMTOL
 70
     0
  9
$DIMLIM
 70
     0
  9
$DIMTIH
 70
     1
  9
$DIMTOH
 70
     1
  9
$DIMSE1
 70
     0
  9
$DIMSE2
 70
     0
  9
$DIMTAD
 70
     0
  9
$DIMZIN
 70
     0
  9
$DIMBLK
  1

  9
$DIMASO
 70
     1
  9
$DIMSHO
 70
     1
  9
$DIMPOST
  1

  9
$DIMAPOST
  1

  9
$DIMALT
 70
     0
  9
$DIMALTD
 70
     2
  9
$DIMALTF
 40
25.4
  9
$DIMLFAC
 40
1.0
  9
$DIMTOFL
 70
     0
  9
$DIMTVP
 40
0.0
  9
$DIMTIX
 70
     0
  9
$DIMSOXD
 70
     0
  9
$DIMSAH
 70
     0
  9
$DIMBLK1
  1

  9
$DIMBLK2
  1

  9
$DIMSTYLE
  2
Standard
  9
$DIMCLRD
 70
     0
  9
$DIMCLRE
 70
     0
  9
$DIMCLRT
 70
     0
  9
$DIMTFAC
 40
1.0
  9
$DIMGAP
 40
0.09
  9
$DIMJUST
 70
     0
  9
$DIMSD1
 70
     0
  9
$DIMSD2
 70
     0
  9
$DIMTOLJ
 70
     1
  9
$DIMTZIN
 70
     0
  9
$DIMALTZ
 70
     0
  9
$DIMALTTZ
 70
     0
  9
$DIMUPT
 70
     0
  9
$DIMDEC
 70
     4
  9
$DIMTDEC
 70
     4
  9
$DIMALTU
 70
     2
  9
$DIMALTTD
 70
     2
  9
$DIMTXSTY
  7
Standard
  9
$DIMAUNIT
 70
     0
  9
$DIMADEC
 70
     0
  9
$DIMALTRND
 40
0.0
  9
$DIMAZIN
 70
     0
  9
$DIMDSEP
 70
    46
  9
$DIMATFIT
 70
     3
  9
$DIMFRAC
 70
     0
  9
$DIMLDRBLK
  1

  9
$DIMLUNIT
 70
     2
  9
$DIMLWD
 70
    -2
  9
$DIMLWE
 70
    -2
  9
$DIMTMOVE
 70
     0
  9
$LUNITS
 70
     2
  9
$LUPREC
 70
     4
  9
$SKETCHINC
 40
0.1
  9
$FILLETRAD
 40
0.5
  9
$AUNITS
 70
     0
  9
$AUPREC
 70
     0
  9
$MENU
  1
.
  9
$ELEVATION
 40
0.0
  9
$PELEVATION
 40
0.0
  9
$THICKNESS
 40
0.0
  9
$LIMCHECK
 70
     0
  9
$CHAMFERA
 40
0.5
  9
$CHAMFERB
 40
0.5
  9
$CHAMFERC
 40
1.0
  9
$CHAMFERD
 40
0.0
  9
$SKPOLY
 70
     0
  9
$TDCREATE
 40
2456748.734626111
  9
$TDUCREATE
 40
2456748.651292778
  9
$TDUPDATE
 40
2456748.734626123
  9
$TDUUPDATE
 40
2456748.651292789
  9
$TDINDWG
 40
0.0000000116
  9
$TDUSRTIMER
 40
0.0000000116
  9
$USRTIMER
 70
     1
  9
$ANGBASE
 50
0.0
  9
$ANGDIR
 70
     0
  9
$PDMODE
 70
     0
  9
$PDSIZE
 40
0.0
  9
$PLINEWID
 40
0.0
  9
$SPLFRAME
 70
     0
  9
$SPLINETYPE
 70
     6
  9
$SPLINESEGS
 70
     8
  9
$HANDSEED
  5
14A
  9
$SURFTAB1
 70
     6
  9
$SURFTAB2
 70
     6
  9
$SURFTYPE
 70
     6
  9
$SURFU
 70
     6
  9
$SURFV
 70
     6
  9
$UCSBASE
  2

  9
$UCSNAME
  2

  9
$UCSORG
 10
0.0
 20
0.0
 30
0.0
  9
$UCSXDIR
 10
1.0
 20
0.0
 30
0.0
  9
$UCSYDIR
 10
0.0
 20
1.0
 30
0.0
  9
$UCSORTHOREF
  2

  9
$UCSORTHOVIEW
 70
     0
  9
$UCSORGTOP
 10
0.0
 20
0.0
 30
0.0
  9
$UCSORGBOTTOM
 10
0.0
 20
0.0
 30
0.0
  9
$UCSORGLEFT
 10
0.0
 20
0.0
 30
0.0
  9
$UCSORGRIGHT
 10
0.0
 20
0.0
 30
0.0
  9
$UCSORGFRONT
 10
0.0
 20
0.0
 30
0.0
  9
$UCSORGBACK
 10
0.0
 20
0.0
 30
0.0
  9
$PUCSBASE
  2

  9
$PUCSNAME
  2

  9
$PUCSORG
 10
0.0
 20
0.0
 30
0.0
  9
$PUCSXDIR
 10
1.0
 20
0.0
 30
0.0
  9
$PUCSYDIR
 10
0.0
 20
1.0
 30
0.0
  9
$PUCSORTHOREF
  2

  9
$PUCSORTHOVIEW
 70
     0
  9
$PUCSORGTOP
 10
0.0
 20
0.0
 30
0.0
  9
$PUCSORGBOTTOM
 10
0.0
 20
0.0
 30
0.0
  9
$PUCSORGLEFT
 10
0.0
 20
0.0
 30
0.0
  9
$PUCSORGRIGHT
 10
0.0
 20
0.0
 30
0.0
  9
$PUCSORGFRONT
 10
0.0
 20
0.0
 30
0.0
  9
$PUCSORGBACK
 10
0.0
 20
0.0
 30
0.0
  9
$USERI1
 70
     0
  9
$USERI2
 70
     0
  9
$USERI3
 70
     0
  9
$USERI4
 70
     0
  9
$USERI5
 70
     0
  9
$USERR1
 40
16.5
  9
$USERR2
 40
0.0
  9
$USERR3
 40
0.0
  9
$USERR4
 40
0.0
  9
$USERR5
 40
0.0
  9
$WORLDVIEW
 70
     1
  9
$SHADEDGE
 70
     3
  9
$SHADEDIF
 70
    70
  9
$TILEMODE
 70
     1
  9
$MAXACTVP
 70
    64
  9
$PINSBASE
 10
0.0
 20
0.0
 30
0.0
  9
$PLIMCHECK
 70
     0
  9
$PEXTMIN
 10
1.00000000000000E+20
 20
1.00000000000000E+20
 30
1.00000000000000E+20
  9
$PEXTMAX
 10
-1.00000000000000E+20
 20
-1.00000000000000E+20
 30
-1.00000000000000E+20
  9
$PLIMMIN
 10
0.0
 20
0.0
  9
$PLIMMAX
 10
12.0
 20
9.0
  9
$UNITMODE
 70
     0
  9
$VISRETAIN
 70
     1
  9
$PLINEGEN
 70
     0
  9
$PSLTSCALE
 70
     1
  9
$TREEDEPTH
 70
  3020
  9
$CMLSTYLE
  2
Standard
  9
$CMLJUST
 70
     0
  9
$CMLSCALE
 40
1.0
  9
$PROXYGRAPHICS
 70
     1
  9
$MEASUREMENT
 70
     1
  9
$CELWEIGHT
370
    -1
  9
$ENDCAPS
280
     0
  9
$JOINSTYLE
280
     0
  9
$LWDISPLAY
290
     0
  9
$INSUNITS
 70
     1
  9
$HYPERLINKBASE
  1

  9
$STYLESHEET
  1

  9
$XEDIT
290
     1
  9
$CEPSNTYPE
380
     0
  9
$PSTYLEMODE
290
     1
  9
$FINGERPRINTGUID
  2
{F1C5BB5C-B69B-407F-8782-148A10737F23}
  9
$VERSIONGUID
  2
{FAEB1C32-E019-11D5-929B-00C0DF256EC4}
  9
$EXTNAMES
290
     1
  9
$PSVPSCALE
 40
0.0
  9
$OLESTARTUP
290
     0
  0
ENDSEC
  0
SECTION
  2
CLASSES
  0
CLASS
  1
ACDBDICTIONARYWDFLT
  2
AcDbDictionaryWithDefault
  3
ObjectDBX Classes
 90
        0
280
     0
281
     0
  0
CLASS
  1
VISUALSTYLE
  2
AcDbVisualStyle
  3
ObjectDBX Classes
 90
     4095
280
     0
281
     0
  0
CLASS
  1
SCALE
  2
AcDbScale
  3
ObjectDBX Classes
 90
     1153
280
     0
281
     0
  0
CLASS
  1

  2
exOdDbPolyline
  3

 90
        0
280
     0
281
     1
  0
CLASS
  1

  2
exOdDbCircle
  3

 90
        0
280
     0
281
     1
  0
CLASS
  1

  2
exOdDbSpline
  3

 90
        0
280
     0
281
     1
  0
CLASS
  1
DICTIONARYVAR
  2
AcDbDictionaryVar
  3
ObjectDBX Classes
 90
        0
280
     0
281
     0
  0
CLASS
  1
ACDBPLACEHOLDER
  2
AcDbPlaceHolder
  3
ObjectDBX Classes
 90
        0
280
     0
281
     0
  0
CLASS
  1
LAYOUT
  2
AcDbLayout
  3
ObjectDBX Classes
 90
        0
280
     0
281
     0
  0
ENDSEC
  0
SECTION
  2
TABLES
  0
TABLE
  2
VPORT
  5
8
330
0
100
AcDbSymbolTable
 70
     1
  0
VPORT
  5
29
330
8
100
AcDbSymbolTableRecord
100
AcDbViewportTableRecord
  2
*Active
 70
     0
 10
0.0
 20
0.0
 11
1.0
 21
1.0
 12
107.0586805967552
 22
344.0941290088775
 13
0.0
 23
0.0
 14
0.5
 24
0.5
 15
0.5
 25
0.5
 16
0.0
 26
0.0
 36
1.0
 17
0.0
 27
0.0
 37
0.0
 40
174.3120986021442
 41
1.60267857142857
 42
50.0
 43
0.0
 44
0.0
 50
0.0
 51
0.0
 71
     0
 72
   100
 73
     1
 74
     3
 75
     0
 76
     0
 77
     0
 78
     0
281
     0
 65
     1
110
0.0
120
0.0
130
0.0
111
1.0
121
0.0
131
0.0
112
0.0
122
1.0
132
0.0
 79
     0
146
0.0
  0
ENDTAB
  0
TABLE
  2
LTYPE
  5
5
330
0
100
AcDbSymbolTable
 70
     8
  0
LTYPE
  5
14
330
5
100
AcDbSymbolTableRecord
100
AcDbLinetypeTableRecord
  2
ByBlock
 70
     0
  3

 72
    65
 73
     0
 40
0.0
  0
LTYPE
  5
15
330
5
100
AcDbSymbolTableRecord
100
AcDbLinetypeTableRecord
  2
ByLayer
 70
     0
  3

 72
    65
 73
     0
 40
0.0
  0
LTYPE
  5
16
330
5
100
AcDbSymbolTableRecord
100
AcDbLinetypeTableRecord
  2
Continuous
 70
     0
  3
Solid line
 72
    65
 73
     0
 40
0.0
  0
LTYPE
  5
3B
330
5
100
AcDbSymbolTableRecord
100
AcDbLinetypeTableRecord
  2
DASHED
 70
     0
  3
Dashed
 72
    65
 73
     2
 40
15.0
 49
7.0
 74
     0
 49
-8.0
 74
     0
  0
LTYPE
  5
3C
330
5
100
AcDbSymbolTableRecord
100
AcDbLinetypeTableRecord
  2
DOTTED
 70
     0
  3
Dotted
 72
    65
 73
     2
 40
1.0
 49
0.0
 74
     0
 49
-1.0
 74
     0
  0
LTYPE
  5
3D
330
5
100
AcDbSymbolTableRecord
100
AcDbLinetypeTableRecord
  2
DOT_CENTER
 70
     0
  3
Dot_Center
 72
    65
 73
     4
 40
14.0
 49
12.0
 74
     0
 49
-1.0
 74
     0
 49
0.0
 74
     0
 49
-1.0
 74
     0
  0
LTYPE
  5
3E
330
5
100
AcDbSymbolTableRecord
100
AcDbLinetypeTableRecord
  2
LONG_DASHED
 70
     0
  3
Long_Dashed
 72
    65
 73
     2
 40
15.0
 49
10.0
 74
     0
 49
-5.0
 74
     0
  0
LTYPE
  5
3F
330
5
100
AcDbSymbolTableRecord
100
AcDbLinetypeTableRecord
  2
DASH_CENTER
 70
     0
  3
Dash_Center
 72
    65
 73
     4
 40
14.0
 49
11.0
 74
     0
 49
-1.0
 74
     0
 49
1.0
 74
     0
 49
-1.0
 74
     0
  0
LTYPE
  5
40
330
5
100
AcDbSymbolTableRecord
100
AcDbLinetypeTableRecord
  2
PHANTOM
 70
     0
  3
Phantom
 72
    65
 73
     6
 40
13.0
 49
10.0
 74
     0
 49
-1.0
 74
     0
 49
0.0
 74
     0
 49
-1.0
 74
     0
 49
0.0
 74
     0
 49
-1.0
 74
     0
  0
LTYPE
  5
41
330
5
100
AcDbSymbolTableRecord
100
AcDbLinetypeTableRecord
  2
CENTER_DASH_DASH
 70
     0
  3
Center_Dash_Dash
 72
    65
 73
     6
 40
14.0
 49
9.0
 74
     0
 49
-1.0
 74
     0
 49
1.0
 74
     0
 49
-1.0
 74
     0
 49
1.0
 74
     0
 49
-1.0
 74
     0
  0
ENDTAB
  0
TABLE
  2
LAYER
  5
2
330
0
100
AcDbSymbolTable
 70
     7
  0
LAYER
  5
10
330
2
100
AcDbSymbolTableRecord
100
AcDbLayerTableRecord
  2
0
 70
     0
 62
     7
  6
Continuous
370
    -3
390
F
  0
LAYER
  5
42
330
2
100
AcDbSymbolTableRecord
100
AcDbLayerTableRecord
  2
1
 70
     0
 62
     7
  6
Continuous
370
    -3
390
F
  0
LAYER
  5
43
330
2
100
AcDbSymbolTableRecord
100
AcDbLayerTableRecord
  2
BEZUGSACHSEN
 70
     0
 62
     7
  6
Continuous
370
    -3
390
F
  0
LAYER
  5
44
330
2
100
AcDbSymbolTableRecord
100
AcDbLayerTableRecord
  2
DEFAULT_2
 70
     0
 62
     7
  6
Continuous
370
    -3
390
F
  0
LAYER
  5
45
330
2
100
AcDbSymbolTableRecord
100
AcDbLayerTableRecord
  2
FASEN
 70
     0
 62
     7
  6
Continuous
370
    -3
390
F
  0
LAYER
  5
46
330
2
100
AcDbSymbolTableRecord
100
AcDbLayerTableRecord
  2
GEWINDE
 70
     0
 62
     7
  6
Continuous
370
    -3
390
F
  0
LAYER
  5
47
330
2
100
AcDbSymbolTableRecord
100
AcDbLayerTableRecord
  2
RUNDUNGEN
 70
     0
 62
     7
  6
Continuous
370
    -3
390
F
  0
ENDTAB
  0
TABLE
  2
STYLE
  5
3
330
0
100
AcDbSymbolTable
 70
     2
  0
STYLE
  5
11
330
3
100
AcDbSymbolTableRecord
100
AcDbTextStyleTableRecord
  2
Standard
 70
     0
 40
0.0
 41
1.0
 50
0.0
 71
     0
 42
0.2
  3
txt
  4

  0
STYLE
  5
6E
330
3
100
AcDbSymbolTableRecord
100
AcDbTextStyleTableRecord
  2
CONVERTER_11
 70
     0
 40
0.0
 41
0.72
 50
0.0
 71
     0
 42
0.2
  3
txt.shx
  4

  0
ENDTAB
  0
TABLE
  2
VIEW
  5
6
330
0
100
AcDbSymbolTable
 70
     0
  0
ENDTAB
  0
TABLE
  2
UCS
  5
7
330
0
100
AcDbSymbolTable
 70
     0
  0
ENDTAB
  0
TABLE
  2
APPID
  5
9
330
0
100
AcDbSymbolTable
 70
     1
  0
APPID
  5
12
330
9
100
AcDbSymbolTableRecord
100
AcDbRegAppTableRecord
  2
ACAD
 70
     0
  0
ENDTAB
  0
TABLE
  2
DIMSTYLE
  5
A
330
0
100
AcDbSymbolTable
 70
     6
100
AcDbDimStyleTable
  0
DIMSTYLE
105
27
330
A
100
AcDbSymbolTableRecord
100
AcDbDimStyleTableRecord
  2
Standard
 70
     0
340
11
  0
DIMSTYLE
105
111
102
{ACAD_REACTORS
330
112
102
}
330
A
100
AcDbSymbolTableRecord
100
AcDbDimStyleTableRecord
  2
ME10_DIM_10
 70
     0
  3
\U+2300<>
 41
3.5
 42
2.0
 44
2.0
 71
     1
 73
     0
 74
     0
 77
     1
 78
     8
140
3.5
146
0.7
147
2.0
172
     1
173
     1
176
     2
177
     2
178
     3
271
     2
272
     0
340
6E
  0
DIMSTYLE
105
11C
102
{ACAD_REACTORS
330
11D
102
}
330
A
100
AcDbSymbolTableRecord
100
AcDbDimStyleTableRecord
  2
ME10_DIM_11
 70
     0
  3
\U+2300<>
 41
3.5
 42
2.0
 44
2.0
 71
     1
 73
     0
 74
     0
 77
     1
 78
     8
140
3.5
146
0.7
147
2.0
172
     1
173
     1
176
     2
177
     2
178
     3
271
     2
272
     0
340
6E
  0
DIMSTYLE
105
127
102
{ACAD_REACTORS
330
128
102
}
330
A
100
AcDbSymbolTableRecord
100
AcDbDimStyleTableRecord
  2
ME10_DIM_12
 70
     0
  3
<>
 41
3.5
 42
2.0
 44
2.0
 71
     1
 73
     0
 74
     0
 77
     1
 78
     8
140
3.5
146
0.7
147
2.0
172
     1
173
     1
176
     2
177
     2
178
     3
271
     2
272
     0
340
6E
  0
DIMSTYLE
105
132
102
{ACAD_REACTORS
330
133
102
}
330
A
100
AcDbSymbolTableRecord
100
AcDbDimStyleTableRecord
  2
ME10_DIM_13
 70
     0
  3
<>
 41
3.5
 42
2.0
 44
2.0
 71
     1
 73
     0
 74
     0
 77
     1
 78
     8
140
3.5
146
0.7
147
2.0
172
     1
173
     1
176
     2
177
     2
178
     3
271
     2
272
     0
340
6E
  0
DIMSTYLE
105
13D
102
{ACAD_REACTORS
330
13E
102
}
330
A
100
AcDbSymbolTableRecord
100
AcDbDimStyleTableRecord
  2
ME10_DIM_14
 70
     0
  3
<>
 41
3.5
 42
2.0
 44
2.0
 71
     1
 73
     0
 74
     0
 77
     1
 78
     8
140
3.5
146
0.7
147
2.0
172
     1
173
     1
176
     2
177
     2
178
     3
271
     2
272
     0
340
6E
  0
ENDTAB
  0
TABLE
  2
BLOCK_RECORD
  5
1
330
0
100
AcDbSymbolTable
 70
     8
  0
BLOCK_RECORD
  5
1F
330
1
100
AcDbSymbolTableRecord
100
AcDbBlockTableRecord
  2
*Model_Space
340
22
  0
BLOCK_RECORD
  5
1B
330
1
100
AcDbSymbolTableRecord
100
AcDbBlockTableRecord
  2
*Paper_Space
340
1E
  0
BLOCK_RECORD
  5
23
330
1
100
AcDbSymbolTableRecord
100
AcDbBlockTableRecord
  2
*Paper_Space0
340
26
  0
BLOCK_RECORD
  5
48
330
1
100
AcDbSymbolTableRecord
100
AcDbBlockTableRecord
  2
Urheberrecht_DE-EN
340
0
102
{BLKREFS
331
6D
102
}
  0
BLOCK_RECORD
  5
108
330
1
100
AcDbSymbolTableRecord
100
AcDbBlockTableRecord
  2
*D2
340
0
  0
BLOCK_RECORD
  5
113
330
1
100
AcDbSymbolTableRecord
100
AcDbBlockTableRecord
  2
*D3
340
0
  0
BLOCK_RECORD
  5
11E
330
1
100
AcDbSymbolTableRecord
100
AcDbBlockTableRecord
  2
*D4
340
0
  0
BLOCK_RECORD
  5
129
330
1
100
AcDbSymbolTableRecord
100
AcDbBlockTableRecord
  2
*D5
340
0
  0
BLOCK_RECORD
  5
134
330
1
100
AcDbSymbolTableRecord
100
AcDbBlockTableRecord
  2
*D6
340
0
  0
BLOCK_RECORD
  5
13F
330
1
100
AcDbSymbolTableRecord
100
AcDbBlockTableRecord
  2
*D7
340
0
102
{BLKREFS
331
145
102
}
  0
ENDTAB
  0
ENDSEC
  0
SECTION
  2
BLOCKS
  0
BLOCK
  5
20
330
1F
100
AcDbEntity
  8
0
100
AcDbBlockBegin
  2
*Model_Space
 70
     0
 10
0.0
 20
0.0
 30
0.0
  3
*Model_Space
  1

  0
ENDBLK
  5
21
330
1F
100
AcDbEntity
  8
0
100
AcDbBlockEnd
  0
BLOCK
  5
1C
330
1B
100
AcDbEntity
 67
     1
  8
0
100
AcDbBlockBegin
  2
*Paper_Space
 70
     0
 10
0.0
 20
0.0
 30
0.0
  3
*Paper_Space
  1

  0
ENDBLK
  5
1D
330
1B
100
AcDbEntity
 67
     1
  8
0
100
AcDbBlockEnd
  0
BLOCK
  5
24
330
23
100
AcDbEntity
  8
0
100
AcDbBlockBegin
  2
*Paper_Space0
 70
     0
 10
0.0
 20
0.0
 30
0.0
  3
*Paper_Space0
  1

  0
ENDBLK
  5
25
330
23
100
AcDbEntity
  8
0
100
AcDbBlockEnd
  0
BLOCK
  5
49
330
48
100
AcDbEntity
  8
0
100
AcDbBlockBegin
  2
Urheberrecht_DE-EN
 70
     0
 10
-5.92598538979053
 20
340.545484946714
 30
0.0
  3
Urheberrecht_DE-EN
  1

  0
MTEXT
  5
6F
330
48
100
AcDbEntity
  8
1
 62
     1
100
AcDbMText
 10
-5.92598538979053
 20
340.545484946714
 30
0.0
 40
2.0
 41
0.0
 71
     7
 72
     1
  1
We own the copyright of this document. It \Pdetermined and may neither be copied or \Pmade accessible to outsiders without our\Ppermission.
  7
CONVERTER_11
 11
0.0
 21
1.0
 31
0.0
 73
     1
 44
0.90036014405762
  0
MTEXT
  5
70
330
48
100
AcDbEntity
  8
1
 62
     1
100
AcDbMText
 10
-5.92598538979053
 20
284.2560980294078
 30
0.0
 40
2.0
 41
0.0
 71
     7
 72
     1
  1
F\U+00fcr diese Unterlage behalten wir das Ur-\Pheberrecht. Sie darf nur f\U+00fcr den von uns \Pbestimmten Zweck benutzt und ohne unsere \PZustimmung weder vervielf\U+00e4ltigt noch\PDritten zug\U+00e4nglich gemacht werden.
  7
CONVERTER_11
 11
0.0
 21
1.0
 31
0.0
 73
     1
 44
0.90036014405762
  0
ENDBLK
  5
4A
330
48
100
AcDbEntity
  8
0
100
AcDbBlockEnd
  0
BLOCK
  5
10F
330
108
100
AcDbEntity
  8
0
100
AcDbBlockBegin
  2
*D2
 70
     1
 10
0.0
 20
0.0
 30
0.0
  3
*D2
  1

  0
LINE
  5
109
330
108
100
AcDbEntity
  8
1
  6
Continuous
 62
     2
100
AcDbLine
 10
222.966603232249
 20
335.6249268101
 30
0.0
 11
222.966603232249
 21
325.6249268101
 31
0.0
  0
LINE
  5
10A
330
108
100
AcDbEntity
  8
1
  6
Continuous
 62
     2
100
AcDbLine
 10
214.4833837995
 20
335.6249268101
 30
0.0
 11
224.966603232249
 21
335.6249268101
 31
0.0
  0
LINE
  5
10B
330
108
100
AcDbEntity
  8
1
  6
Continuous
 62
     2
100
AcDbLine
 10
214.4833837995
 20
325.6249268101
 30
0.0
 11
224.966603232249
 21
325.6249268101
 31
0.0
  0
SOLID
  5
10C
330
108
100
AcDbEntity
  8
1
 62
     2
100
AcDbTrace
 10
223.4273869738049
 20
332.1249268101
 30
0.0
 11
222.5058194906931
 21
332.1249268101
 31
0.0
 12
222.966603232249
 22
335.6249268101
 32
0.0
 13
222.966603232249
 23
335.6249268101
 33
0.0
  0
SOLID
  5
10D
330
108
100
AcDbEntity
  8
1
 62
     2
100
AcDbTrace
 10
222.5058194906931
 20
329.1249268101
 30
0.0
 11
223.4273869738049
 21
329.1249268101
 31
0.0
 12
222.966603232249
 22
325.6249268101
 32
0.0
 13
222.966603232249
 23
325.6249268101
 33
0.0
  0
MTEXT
  5
10E
330
108
100
AcDbEntity
  8
1
 62
     3
100
AcDbMText
 10
220.966603232249
 20
322.186957284765
 30
0.0
 40
3.5
 41
0.0
 71
     7
 72
     1
  1
\C3;%%c\C3;\C3;10\C2;\H2.45;\S^ ;\C3;
  7
CONVERTER_11
 11
0.0
 21
1.0
 31
0.0
 73
     1
 44
0.60024009603842
  0
ENDBLK
  5
110
330
108
100
AcDbEntity
  8
0
100
AcDbBlockEnd
  0
BLOCK
  5
11A
330
113
100
AcDbEntity
  8
0
100
AcDbBlockBegin
  2
*D3
 70
     1
 10
0.0
 20
0.0
 30
0.0
  3
*D3
  1

  0
LINE
  5
114
330
113
100
AcDbEntity
  8
1
  6
Continuous
 62
     2
100
AcDbLine
 10
232.043346583301
 20
348.1249268101
 30
0.0
 11
232.043346583301
 21
313.1249268101
 31
0.0
  0
LINE
  5
115
330
113
100
AcDbEntity
  8
1
  6
Continuous
 62
     2
100
AcDbLine
 10
203.5391545343
 20
348.1249268101
 30
0.0
 11
234.043346583301
 21
348.1249268101
 31
0.0
  0
LINE
  5
116
330
113
100
AcDbEntity
  8
1
  6
Continuous
 62
     2
100
AcDbLine
 10
203.5391545343
 20
313.1249268101
 30
0.0
 11
234.043346583301
 21
313.1249268101
 31
0.0
  0
SOLID
  5
117
330
113
100
AcDbEntity
  8
1
 62
     2
100
AcDbTrace
 10
232.5041303248569
 20
344.6249268101
 30
0.0
 11
231.5825628417451
 21
344.6249268101
 31
0.0
 12
232.043346583301
 22
348.1249268101
 32
0.0
 13
232.043346583301
 23
348.1249268101
 33
0.0
  0
SOLID
  5
118
330
113
100
AcDbEntity
  8
1
 62
     2
100
AcDbTrace
 10
231.5825628417451
 20
316.6249268101
 30
0.0
 11
232.5041303248569
 21
316.6249268101
 31
0.0
 12
232.043346583301
 22
313.1249268101
 32
0.0
 13
232.043346583301
 23
313.1249268101
 33
0.0
  0
MTEXT
  5
119
330
113
100
AcDbEntity
  8
1
 62
     3
100
AcDbMText
 10
230.043346583301
 20
322.328405327098
 30
0.0
 40
3.5
 41
0.0
 71
     7
 72
     1
  1
\C3;%%c\C3;\C3;35\C2;\H2.45;\S^ ;\C3;
  7
CONVERTER_11
 11
0.0
 21
1.0
 31
0.0
 73
     1
 44
0.60024009603842
  0
ENDBLK
  5
11B
330
113
100
AcDbEntity
  8
0
100
AcDbBlockEnd
  0
BLOCK
  5
125
330
11E
100
AcDbEntity
  8
0
100
AcDbBlockBegin
  2
*D4
 70
     1
 10
0.0
 20
0.0
 30
0.0
  3
*D4
  1

  0
LINE
  5
11F
330
11E
100
AcDbEntity
  8
1
  6
Continuous
 62
     2
100
AcDbLine
 10
212.4833837995
 20
387.498919579793
 30
0.0
 11
81.4833837995
 21
387.498919579793
 31
0.0
  0
LINE
  5
120
330
11E
100
AcDbEntity
  8
1
  6
Continuous
 62
     2
100
AcDbLine
 10
212.4833837995
 20
344.4878565493
 30
0.0
 11
212.4833837995
 21
389.498919579793
 31
0.0
  0
LINE
  5
121
330
11E
100
AcDbEntity
  8
1
  6
Continuous
 62
     2
100
AcDbLine
 10
81.4833837995
 20
382.624889889
 30
0.0
 11
81.4833837995
 21
389.498919579793
 31
0.0
  0
SOLID
  5
122
330
11E
100
AcDbEntity
  8
1
 62
     2
100
AcDbTrace
 10
208.9833837995
 20
387.0381358382371
 30
0.0
 11
208.9833837995
 21
387.9597033213489
 31
0.0
 12
212.4833837995
 22
387.498919579793
 32
0.0
 13
212.4833837995
 23
387.498919579793
 33
0.0
  0
SOLID
  5
123
330
11E
100
AcDbEntity
  8
1
 62
     2
100
AcDbTrace
 10
84.9833837995
 20
387.9597033213489
 30
0.0
 11
84.9833837995
 21
387.0381358382371
 31
0.0
 12
81.4833837995
 22
387.498919579793
 32
0.0
 13
81.4833837995
 23
387.498919579793
 33
0.0
  0
MTEXT
  5
124
330
11E
100
AcDbEntity
  8
1
 62
     3
100
AcDbMText
 10
146.800805919475
 20
389.498919579793
 30
0.0
 40
3.5
 41
0.0
 71
     7
 72
     1
  1
\C3;\C3;\C3;131\C2;\H2.45;\S^ ;\C3;
  7
CONVERTER_11
 11
0.9999999999970619
 21
2.424068405545306E-6
 31
0.0
 73
     1
 44
0.60024009603842
  0
ENDBLK
  5
126
330
11E
100
AcDbEntity
  8
0
100
AcDbBlockEnd
  0
BLOCK
  5
130
330
129
100
AcDbEntity
  8
0
100
AcDbBlockBegin
  2
*D5
 70
     1
 10
0.0
 20
0.0
 30
0.0
  3
*D5
  1

  0
LINE
  5
12A
330
129
100
AcDbEntity
  8
1
  6
Continuous
 62
     2
100
AcDbLine
 10
212.4833837995
 20
394.613053594292
 30
0.0
 11
52.48338379949999
 21
394.613053594292
 31
0.0
  0
LINE
  5
12B
330
129
100
AcDbEntity
  8
1
  6
Continuous
 62
     2
100
AcDbLine
 10
212.4833837995
 20
344.4878565493
 30
0.0
 11
212.4833837995
 21
396.613053594292
 31
0.0
  0
LINE
  5
12C
330
129
100
AcDbEntity
  8
1
  6
Continuous
 62
     2
100
AcDbLine
 10
52.48338379949999
 20
382.6249268101
 30
0.0
 11
52.48338379949999
 21
396.613053594292
 31
0.0
  0
SOLID
  5
12D
330
129
100
AcDbEntity
  8
1
 62
     2
100
AcDbTrace
 10
208.9833837995
 20
394.1522698527361
 30
0.0
 11
208.9833837995
 21
395.0738373358479
 31
0.0
 12
212.4833837995
 22
394.613053594292
 32
0.0
 13
212.4833837995
 23
394.613053594292
 33
0.0
  0
SOLID
  5
12E
330
129
100
AcDbEntity
  8
1
 62
     2
100
AcDbTrace
 10
55.98338379949999
 20
395.0738373358479
 30
0.0
 11
55.98338379949999
 21
394.1522698527361
 31
0.0
 12
52.48338379949999
 22
394.613053594292
 32
0.0
 13
52.48338379949999
 23
394.613053594292
 33
0.0
  0
MTEXT
  5
12F
330
129
100
AcDbEntity
  8
1
 62
     3
100
AcDbMText
 10
129.331415781279
 20
396.613053594292
 30
0.0
 40
3.5
 41
0.0
 71
     7
 72
     1
  1
\C3;\C3;\C3;160\C2;\H2.45;\S^ ;\C3;
  7
CONVERTER_11
 11
0.9999999999970619
 21
2.424068405545306E-6
 31
0.0
 73
     1
 44
0.60024009603842
  0
ENDBLK
  5
131
330
129
100
AcDbEntity
  8
0
100
AcDbBlockEnd
  0
BLOCK
  5
13B
330
134
100
AcDbEntity
  8
0
100
AcDbBlockBegin
  2
*D6
 70
     1
 10
0.0
 20
0.0
 30
0.0
  3
*D6
  1

  0
LINE
  5
135
330
134
100
AcDbEntity
  8
1
  6
Continuous
 62
     2
100
AcDbLine
 10
212.4833837995
 20
402.063331207655
 30
0.0
 11
2.4833837995
 21
402.063331207655
 31
0.0
  0
LINE
  5
136
330
134
100
AcDbEntity
  8
1
  6
Continuous
 62
     2
100
AcDbLine
 10
212.4833837995
 20
344.4878565493
 30
0.0
 11
212.4833837995
 21
404.063331207655
 31
0.0
  0
LINE
  5
137
330
134
100
AcDbEntity
  8
1
  6
Continuous
 62
     2
100
AcDbLine
 10
2.4833837995
 20
366.2251183727
 30
0.0
 11
2.4833837995
 21
404.063331207655
 31
0.0
  0
SOLID
  5
138
330
134
100
AcDbEntity
  8
1
 62
     2
100
AcDbTrace
 10
208.9833837995
 20
401.6025474660991
 30
0.0
 11
208.9833837995
 21
402.5241149492109
 31
0.0
 12
212.4833837995
 22
402.063331207655
 32
0.0
 13
212.4833837995
 23
402.063331207655
 33
0.0
  0
SOLID
  5
139
330
134
100
AcDbEntity
  8
1
 62
     2
100
AcDbTrace
 10
5.9833837995
 20
402.5241149492109
 30
0.0
 11
5.9833837995
 21
401.6025474660991
 31
0.0
 12
2.4833837995
 22
402.063331207655
 32
0.0
 13
2.4833837995
 23
402.063331207655
 33
0.0
  0
MTEXT
  5
13A
330
134
100
AcDbEntity
  8
1
 62
     3
100
AcDbMText
 10
117.895688078325
 20
404.063331207655
 30
0.0
 40
3.5
 41
0.0
 71
     7
 72
     1
  1
\C3;\C3;\C3;210\C2;\H2.45;\S^ ;\C3;
  7
CONVERTER_11
 11
0.9999999999970619
 21
2.424068405545306E-6
 31
0.0
 73
     1
 44
0.60024009603842
  0
ENDBLK
  5
13C
330
134
100
AcDbEntity
  8
0
100
AcDbBlockEnd
  0
BLOCK
  5
143
330
13F
100
AcDbEntity
  8
0
100
AcDbBlockBegin
  2
*D7
 70
     1
 10
0.0
 20
0.0
 30
0.0
  3
*D7
  1

  0
LINE
  5
140
330
13F
100
AcDbEntity
  8
1
  6
Continuous
 62
     2
100
AcDbLine
 10
97.5431915400486
 20
366.4694475679023
 30
0.0
 11
86.5622983867979
 21
356.6685337354659
 31
0.0
  0
SOLID
  5
141
330
13F
100
AcDbEntity
  8
1
 62
     2
100
AcDbTrace
 10
88.8666592858274
 20
359.342901418397
 30
0.0
 11
89.48031738221046
 21
358.6553620619435
 31
0.0
 12
86.5622983867979
 22
356.6685337354659
 32
0.0
 13
86.5622983867979
 23
356.6685337354659
 33
0.0
  0
MTEXT
  5
142
330
13F
100
AcDbEntity
  8
1
 62
     3
100
AcDbMText
 10
88.7956418015384
 20
361.3426577758111
 30
0.0
 40
3.5
 41
0.0
 71
     7
 72
     1
  1
\C3; R\C3;\C3;20\C2;\H2.45;\S^ ;\C3;
  7
CONVERTER_11
 11
0.7460542706345802
 21
0.6658851442012388
 31
0.0
 73
     1
 44
0.60024009603842
  0
ENDBLK
  5
144
330
13F
100
AcDbEntity
  8
0
100
AcDbBlockEnd
  0
ENDSEC
  0
SECTION
  2
ENTITIES
  0
INSERT
  5
6D
330
1F
100
AcDbEntity
  8
0
100
AcDbBlockReference
  2
Urheberrecht_DE-EN
 10
-5.92598538979053
 20
340.545484946714
 30
0.0
  0
LINE
  5
71
330
1F
100
AcDbEntity
  8
BEZUGSACHSEN
  6
Continuous
 62
     7
100
AcDbLine
 10
2.4833837995
 20
297.0247352471
 30
0.0
 11
2.4833837995
 21
318.6149268101
 31
0.0
  0
LINE
  5
72
330
1F
100
AcDbEntity
  8
BEZUGSACHSEN
  6
Continuous
 62
     7
100
AcDbLine
 10
2.4833837995
 20
342.6349268101
 30
0.0
 11
2.4833837995
 21
364.2251183727
 31
0.0
  0
LINE
  5
73
330
1F
100
AcDbEntity
  8
BEZUGSACHSEN
  6
Continuous
 62
     9
100
AcDbLine
 10
4.3833093148
 20
366.2226130784
 30
0.0
 11
4.3833093148
 21
346.3014591963
 31
0.0
  0
LINE
  5
74
330
1F
100
AcDbEntity
  8
BEZUGSACHSEN
  6
Continuous
 62
     9
100
AcDbLine
 10
4.3833093148
 20
314.9483944238
 30
0.0
 11
4.3833093148
 21
295.0272405418
 31
0.0
  0
LINE
  5
75
330
1F
100
AcDbEntity
  8
BEZUGSACHSEN
  6
Continuous
 62
     7
100
AcDbLine
 10
4.4833837995
 20
318.2212868617
 30
0.0
 11
4.4833837995
 21
320.6149268101
 31
0.0
  0
LINE
  5
76
330
1F
100
AcDbEntity
  8
BEZUGSACHSEN
  6
Continuous
 62
     7
100
AcDbLine
 10
4.4833837995
 20
340.6349268101
 30
0.0
 11
4.4833837995
 21
343.0285667585
 31
0.0
  0
LINE
  5
77
330
1F
100
AcDbEntity
  8
BEZUGSACHSEN
  6
Continuous
 62
     9
100
AcDbLine
 10
10.4833837995
 20
314.2662792227
 30
0.0
 11
10.4833837995
 21
320.6149268101
 31
0.0
  0
LINE
  5
78
330
1F
100
AcDbEntity
  8
BEZUGSACHSEN
  6
Continuous
 62
     9
100
AcDbLine
 10
10.4833837995
 20
340.6349268101
 30
0.0
 11
10.4833837995
 21
346.9835743975
 31
0.0
  0
LINE
  5
79
330
1F
100
AcDbEntity
  8
BEZUGSACHSEN
  6
Continuous
 62
     7
100
AcDbLine
 10
12.4833837995
 20
343.4945823359
 30
0.0
 11
12.4833837995
 21
317.7552712843
 31
0.0
  0
LINE
  5
7A
330
1F
100
AcDbEntity
  8
BEZUGSACHSEN
  6
Continuous
 62
     7
100
AcDbLine
 10
3.7503367265
 20
315.6149268101
 30
0.0
 11
3.6292264751
 21
315.3825908146
 31
0.0
  0
LINE
  5
7B
330
1F
100
AcDbEntity
  8
BEZUGSACHSEN
  6
Continuous
 62
     7
100
AcDbLine
 10
3.6292264751
 20
345.8672628055
 30
0.0
 11
3.7503367265
 21
345.6349268101
 31
0.0
  0
LWPOLYLINE
  5
7C
330
1F
100
AcDbEntity
  8
BEZUGSACHSEN
  6
DOT_CENTER
 62
     7
100
AcDbPolyline
 90
        2
 70
     0
 43
0.25
 10
37.4833837995
 20
330.6249268101
 10
37.4833837995
 20
321.6249268101
  0
LWPOLYLINE
  5
7D
330
1F
100
AcDbEntity
  8
BEZUGSACHSEN
  6
DOT_CENTER
 62
     7
100
AcDbPolyline
 90
        2
 70
     0
 43
0.25
 10
37.4833837995
 20
330.6249268101
 10
37.4833837995
 20
339.6249268101
  0
LINE
  5
7E
330
1F
100
AcDbEntity
  8
BEZUGSACHSEN
  6
Continuous
 62
     7
100
AcDbLine
 10
2.4833837995
 20
318.6149268101
 30
0.0
 11
4.4833837995
 21
320.6149268101
 31
0.0
  0
LINE
  5
7F
330
1F
100
AcDbEntity
  8
BEZUGSACHSEN
  6
Continuous
 62
     7
100
AcDbLine
 10
4.4833837995
 20
340.6349268101
 30
0.0
 11
2.4833837995
 21
342.6349268101
 31
0.0
  0
LINE
  5
80
330
1F
100
AcDbEntity
  8
BEZUGSACHSEN
  6
Continuous
 62
     7
100
AcDbLine
 10
49.9833837995
 20
368.5071768101
 30
0.0
 11
49.9833837995
 21
292.7426768101
 31
0.0
  0
LINE
  5
81
330
1F
100
AcDbEntity
  8
BEZUGSACHSEN
  6
Continuous
 62
     9
100
AcDbLine
 10
50.6026274135
 20
292.9086026364
 30
0.0
 11
50.6026274135
 21
368.3412509838
 31
0.0
  0
LINE
  5
82
330
1F
100
AcDbEntity
  8
BEZUGSACHSEN
  6
Continuous
 62
     9
100
AcDbLine
 10
50.8614464586
 20
292.9426768101
 30
0.0
 11
50.8614464586
 21
368.3071768101
 31
0.0
  0
LINE
  5
83
330
1F
100
AcDbEntity
  8
BEZUGSACHSEN
  6
Continuous
 62
     9
100
AcDbLine
 10
51.7828125108
 20
292.9426768101
 30
0.0
 11
51.7828125108
 21
368.3071768101
 31
0.0
  0
LINE
  5
84
330
1F
100
AcDbEntity
  8
BEZUGSACHSEN
  6
Continuous
 62
     7
100
AcDbLine
 10
52.4833837995
 20
380.6249268101
 30
0.0
 11
52.4833837995
 21
280.6249268101
 31
0.0
  0
LWPOLYLINE
  5
85
330
1F
100
AcDbEntity
  8
BEZUGSACHSEN
  6
DOT_CENTER
 62
     7
100
AcDbPolyline
 90
        2
 70
     0
 43
0.25
 10
59.4833837995
 20
372.7742986654
 10
59.4833837995
 20
383.6249268101
  0
LINE
  5
86
330
1F
100
AcDbEntity
  8
BEZUGSACHSEN
  6
Continuous
 62
     7
100
AcDbLine
 10
74.3583837995
 20
378.2475220743
 30
0.0
 11
75.7309790637
 21
380.6249268101
 31
0.0
  0
LINE
  5
87
330
1F
100
AcDbEntity
  8
BEZUGSACHSEN
  6
Continuous
 62
     7
100
AcDbLine
 10
69.2357885353
 20
280.6249268101
 30
0.0
 11
52.4833837995
 21
280.6249268101
 31
0.0
  0
LINE
  5
88
330
1F
100
AcDbEntity
  8
BEZUGSACHSEN
  6
Continuous
 62
     7
100
AcDbLine
 10
75.7309790637
 20
280.6249268101
 30
0.0
 11
81.4833837995
 21
280.6249268101
 31
0.0
  0
LINE
  5
89
330
1F
100
AcDbEntity
  8
BEZUGSACHSEN
  6
Continuous
 62
     7
100
AcDbLine
 10
71.6083837995
 20
284.6249268101
 30
0.0
 11
73.3583837995
 21
284.6249268101
 31
0.0
  0
LINE
  5
8A
330
1F
100
AcDbEntity
  8
BEZUGSACHSEN
  6
Continuous
 62
     7
100
AcDbLine
 10
74.3583837995
 20
283.0023315459
 30
0.0
 11
75.7309790637
 21
280.6249268101
 31
0.0
  0
LINE
  5
8B
330
1F
100
AcDbEntity
  8
FASEN
  6
Continuous
 62
     9
100
AcDbLine
 10
65.4552577214
 20
298.7249268101
 30
0.0
 11
65.4552577214
 21
299.1249268101
 31
0.0
  0
LINE
  5
8C
330
1F
100
AcDbEntity
  8
FASEN
  6
Continuous
 62
     9
100
AcDbLine
 10
67.4833837995
 20
321.0249268101
 30
0.0
 11
67.4833837995
 21
320.6249268101
 31
0.0
  0
LINE
  5
8D
330
1F
100
AcDbEntity
  8
FASEN
  6
Continuous
 62
     9
100
AcDbLine
 10
67.4833837995
 20
340.2249268101
 30
0.0
 11
67.4833837995
 21
340.6249268101
 31
0.0
  0
LINE
  5
8E
330
1F
100
AcDbEntity
  8
0
  6
Continuous
 62
     7
100
AcDbLine
 10
69.2357885353
 20
380.6249268101
 30
0.0
 11
69.2357885353
 21
340.6249268101
 31
0.0
  0
LINE
  5
8F
330
1F
100
AcDbEntity
  8
0
  6
Continuous
 62
     7
100
AcDbLine
 10
69.2357885353
 20
320.6249268101
 30
0.0
 11
69.2357885353
 21
299.1249268101
 31
0.0
  0
LINE
  5
90
330
1F
100
AcDbEntity
  8
0
  6
Continuous
 62
     7
100
AcDbLine
 10
69.2357885353
 20
291.7951701794
 30
0.0
 11
69.2357885353
 21
280.6249268101
 31
0.0
  0
LINE
  5
91
330
1F
100
AcDbEntity
  8
FASEN
  6
Continuous
 62
     7
100
AcDbLine
 10
57.8848697639
 20
291.7951701794
 30
0.0
 11
69.2357885353
 21
291.7951701794
 31
0.0
  0
LINE
  5
92
330
1F
100
AcDbEntity
  8
0
  6
Continuous
 62
     7
100
AcDbLine
 10
75.7309790637
 20
291.7951701794
 30
0.0
 11
81.4833837995
 21
291.7951701794
 31
0.0
  0
LINE
  5
93
330
1F
100
AcDbEntity
  8
BEZUGSACHSEN
  6
Continuous
 62
     7
100
AcDbLine
 10
4.3833093148
 20
295.0272405418
 30
0.0
 11
49.9833837995
 21
292.7426768101
 31
0.0
  0
LINE
  5
94
330
1F
100
AcDbEntity
  8
0
  6
Continuous
 62
     7
100
AcDbLine
 10
70.6083837995
 20
378.2474886478
 30
0.0
 11
70.6083837995
 21
340.6249268101
 31
0.0
  0
LINE
  5
95
330
1F
100
AcDbEntity
  8
0
  6
Continuous
 62
     7
100
AcDbLine
 10
70.6083837995
 20
320.6249268101
 30
0.0
 11
70.6083837995
 21
299.1249268101
 31
0.0
  0
LINE
  5
96
330
1F
100
AcDbEntity
  8
0
  6
Continuous
 62
     7
100
AcDbLine
 10
70.6083837995
 20
283.0023690799
 30
0.0
 11
70.6083837995
 21
295.7429830569
 31
0.0
  0
LINE
  5
97
330
1F
100
AcDbEntity
  8
0
  6
Continuous
 62
     9
100
AcDbLine
 10
71.6083837995
 20
284.6249268101
 30
0.0
 11
71.6083837995
 21
297.1025462264
 31
0.0
  0
LINE
  5
98
330
1F
100
AcDbEntity
  8
0
  6
Continuous
 62
     9
100
AcDbLine
 10
71.6083837995
 20
299.1249268101
 30
0.0
 11
71.6083837995
 21
320.6249268101
 31
0.0
  0
LINE
  5
99
330
1F
100
AcDbEntity
  8
0
  6
Continuous
 62
     9
100
AcDbLine
 10
71.6083837995
 20
340.6249268101
 30
0.0
 11
71.6083837995
 21
376.6249268101
 31
0.0
  0
LINE
  5
9A
330
1F
100
AcDbEntity
  8
0
  6
Continuous
 62
     9
100
AcDbLine
 10
73.3583837995
 20
284.6249268101
 30
0.0
 11
73.3583837995
 21
297.1025462264
 31
0.0
  0
LINE
  5
9B
330
1F
100
AcDbEntity
  8
0
  6
Continuous
 62
     9
100
AcDbLine
 10
73.3583837995
 20
299.1249268101
 30
0.0
 11
73.3583837995
 21
320.6249268101
 31
0.0
  0
LINE
  5
9C
330
1F
100
AcDbEntity
  8
0
  6
Continuous
 62
     9
100
AcDbLine
 10
73.3583837995
 20
340.6249268101
 30
0.0
 11
73.3583837995
 21
376.6249268101
 31
0.0
  0
LINE
  5
9D
330
1F
100
AcDbEntity
  8
0
  6
Continuous
 62
     7
100
AcDbLine
 10
74.3583837995
 20
283.0023690799
 30
0.0
 11
74.3583837995
 21
295.7429830569
 31
0.0
  0
LINE
  5
9E
330
1F
100
AcDbEntity
  8
0
  6
Continuous
 62
     7
100
AcDbLine
 10
74.3583837995
 20
299.1249268101
 30
0.0
 11
74.3583837995
 21
320.6249268101
 31
0.0
  0
LINE
  5
9F
330
1F
100
AcDbEntity
  8
0
  6
Continuous
 62
     7
100
AcDbLine
 10
74.3583837995
 20
340.6249268101
 30
0.0
 11
74.3583837995
 21
378.2474886478
 31
0.0
  0
LINE
  5
A0
330
1F
100
AcDbEntity
  8
0
  6
Continuous
 62
     7
100
AcDbLine
 10
75.7309790637
 20
380.6249268101
 30
0.0
 11
75.7309790637
 21
340.6249268101
 31
0.0
  0
LINE
  5
A1
330
1F
100
AcDbEntity
  8
0
  6
Continuous
 62
     7
100
AcDbLine
 10
75.7309790637
 20
320.6249268101
 30
0.0
 11
75.7309790637
 21
299.1249268101
 31
0.0
  0
LINE
  5
A2
330
1F
100
AcDbEntity
  8
0
  6
Continuous
 62
     7
100
AcDbLine
 10
75.7309790637
 20
291.7951701794
 30
0.0
 11
75.7309790637
 21
280.6249268101
 31
0.0
  0
LINE
  5
A3
330
1F
100
AcDbEntity
  8
BEZUGSACHSEN
  6
Continuous
 62
     9
100
AcDbLine
 10
2.4833837995
 20
317.1787428411
 30
0.0
 11
4.4833837995
 21
318.2212868617
 31
0.0
  0
LINE
  5
A4
330
1F
100
AcDbEntity
  8
BEZUGSACHSEN
  6
Continuous
 62
     7
100
AcDbLine
 10
51.7828125108
 20
292.9426768101
 30
0.0
 11
50.8614464586
 21
292.9426768101
 31
0.0
  0
LINE
  5
A5
330
1F
100
AcDbEntity
  8
0
  6
Continuous
 62
     7
100
AcDbLine
 10
71.6083837995
 20
297.1025462264
 30
0.0
 11
73.3583837995
 21
297.1025462264
 31
0.0
  0
LINE
  5
A6
330
1F
100
AcDbEntity
  8
FASEN
  6
Continuous
 62
     7
100
AcDbLine
 10
65.4552577214
 20
298.7249268101
 30
0.0
 11
81.4833837995
 21
298.7249268101
 31
0.0
  0
LINE
  5
A7
330
1F
100
AcDbEntity
  8
0
  6
Continuous
 62
     7
100
AcDbLine
 10
65.4552577214
 20
299.1249268101
 30
0.0
 11
81.4833837995
 21
299.1249268101
 31
0.0
  0
LINE
  5
A8
330
1F
100
AcDbEntity
  8
BEZUGSACHSEN
  6
Continuous
 62
     9
100
AcDbLine
 10
4.4833837995
 20
343.0285667585
 30
0.0
 11
2.4833837995
 21
344.0711107791
 31
0.0
  0
LINE
  5
A9
330
1F
100
AcDbEntity
  8
0
  6
Continuous
 62
     7
100
AcDbLine
 10
81.4833837995
 20
380.624889889
 30
0.0
 11
81.4833837995
 21
340.6249268101
 31
0.0
  0
LINE
  5
AA
330
1F
100
AcDbEntity
  8
0
  6
Continuous
 62
     7
100
AcDbLine
 10
81.4833837995
 20
320.6249268101
 30
0.0
 11
81.4833837995
 21
299.1249268101
 31
0.0
  0
LINE
  5
AB
330
1F
100
AcDbEntity
  8
0
  6
Continuous
 62
     7
100
AcDbLine
 10
81.4833837995
 20
291.7951701794
 30
0.0
 11
81.4833837995
 21
280.6249286779
 31
0.0
  0
LINE
  5
AC
330
1F
100
AcDbEntity
  8
FASEN
  6
Continuous
 62
     7
100
AcDbLine
 10
81.4833837995
 20
291.7951701794
 30
0.0
 11
81.4833837995
 21
299.1249268101
 31
0.0
  0
LINE
  5
AD
330
1F
100
AcDbEntity
  8
FASEN
  6
Continuous
 62
     7
100
AcDbLine
 10
81.4833837995
 20
320.6249268101
 30
0.0
 11
81.4833837995
 21
340.6249268101
 31
0.0
  0
LINE
  5
AE
330
1F
100
AcDbEntity
  8
BEZUGSACHSEN
  6
Continuous
 62
     7
100
AcDbLine
 10
50.6026274135
 20
292.9086026364
 30
0.0
 11
49.9833837995
 21
292.7426768101
 31
0.0
  0
LINE
  5
AF
330
1F
100
AcDbEntity
  8
0
  6
Continuous
 62
     7
100
AcDbLine
 10
136.4833837995
 20
313.1249268101
 30
0.0
 11
188.2333837995
 21
313.1249268101
 31
0.0
  0
LINE
  5
B0
330
1F
100
AcDbEntity
  8
0
  6
Continuous
 62
     7
100
AcDbLine
 10
196.7333837995
 20
313.1249268101
 30
0.0
 11
201.5391545343
 21
313.1249268101
 31
0.0
  0
LINE
  5
B1
330
1F
100
AcDbEntity
  8
BEZUGSACHSEN
  6
Continuous
 62
     9
100
AcDbLine
 10
12.0372297464
 20
315.6149268101
 30
0.0
 11
3.7503367265
 21
315.6149268101
 31
0.0
  0
LINE
  5
B2
330
1F
100
AcDbEntity
  8
RUNDUNGEN
  6
Continuous
 62
     9
100
AcDbLine
 10
99.3621716783
 20
350.0990432746
 30
0.0
 11
99.3621716783
 21
311.1508103456
 31
0.0
  0
LINE
  5
B3
330
1F
100
AcDbEntity
  8
BEZUGSACHSEN
  6
Continuous
 62
     7
100
AcDbLine
 10
69.2357885353
 20
280.6249268101
 30
0.0
 11
70.6083837995
 21
283.0023315459
 31
0.0
  0
LINE
  5
B4
330
1F
100
AcDbEntity
  8
BEZUGSACHSEN
  6
Continuous
 62
     7
100
AcDbLine
 10
10.4833837995
 20
320.6149268101
 30
0.0
 11
4.4833837995
 21
320.6149268101
 31
0.0
  0
LINE
  5
B5
330
1F
100
AcDbEntity
  8
0
  6
Continuous
 62
     7
100
AcDbLine
 10
67.4833837995
 20
320.6249268101
 30
0.0
 11
81.4833837995
 21
320.6249268101
 31
0.0
  0
LINE
  5
B6
330
1F
100
AcDbEntity
  8
FASEN
  6
Continuous
 62
     7
100
AcDbLine
 10
81.4833837995
 20
321.0249268101
 30
0.0
 11
67.4833837995
 21
321.0249268101
 31
0.0
  0
LINE
  5
B7
330
1F
100
AcDbEntity
  8
BEZUGSACHSEN
  6
Continuous
 62
     7
100
AcDbLine
 10
69.2357885353
 20
380.6249268101
 30
0.0
 11
70.6083837995
 21
378.2475220743
 31
0.0
  0
LWPOLYLINE
  5
B8
330
1F
100
AcDbEntity
  8
DEFAULT_2
  6
DASHED
 62
     8
100
AcDbPolyline
 90
        2
 70
     0
 43
0.35
 10
177.4833837995
 20
325.6249268101
 10
188.2333837995
 20
325.6249268101
  0
LWPOLYLINE
  5
B9
330
1F
100
AcDbEntity
  8
DEFAULT_2
  6
DASHED
 62
     8
100
AcDbPolyline
 90
        2
 70
     0
 43
0.35
 10
188.2333837995
 20
325.6249268101
 10
212.4833837995
 20
325.6249268101
  0
LWPOLYLINE
  5
BA
330
1F
100
AcDbEntity
  8
BEZUGSACHSEN
  6
DOT_CENTER
 62
     7
100
AcDbPolyline
 90
        2
 70
     0
 43
0.25
 10
215.4833837995
 20
330.6249268101
 10
-0.5166162005
 20
330.6249268101
  0
LWPOLYLINE
  5
BB
330
1F
100
AcDbEntity
  8
DEFAULT_2
  6
DASHED
 62
     8
100
AcDbPolyline
 90
        2
 70
     0
 43
0.35
 10
212.4833837995
 20
335.6249268101
 10
177.4833837995
 20
335.6249268101
  0
LINE
  5
BC
330
1F
100
AcDbEntity
  8
FASEN
  6
Continuous
 62
     7
100
AcDbLine
 10
67.4833837995
 20
340.2249268101
 30
0.0
 11
81.4833837995
 21
340.2249268101
 31
0.0
  0
LINE
  5
BD
330
1F
100
AcDbEntity
  8
0
  6
Continuous
 62
     7
100
AcDbLine
 10
67.4833837995
 20
340.6249268101
 30
0.0
 11
81.4833837995
 21
340.6249268101
 31
0.0
  0
LINE
  5
BE
330
1F
100
AcDbEntity
  8
BEZUGSACHSEN
  6
Continuous
 62
     7
100
AcDbLine
 10
10.4833837995
 20
340.6349268101
 30
0.0
 11
4.4833837995
 21
340.6349268101
 31
0.0
  0
LINE
  5
BF
330
1F
100
AcDbEntity
  8
BEZUGSACHSEN
  6
Continuous
 62
     9
100
AcDbLine
 10
3.7503367265
 20
345.6349268101
 30
0.0
 11
12.0372297464
 21
345.6349268101
 31
0.0
  0
LINE
  5
C0
330
1F
100
AcDbEntity
  8
0
  6
Continuous
 62
     7
100
AcDbLine
 10
201.5391545343
 20
348.1249268101
 30
0.0
 11
136.4833837995
 21
348.1249268101
 31
0.0
  0
LINE
  5
C1
330
1F
100
AcDbEntity
  8
BEZUGSACHSEN
  6
Continuous
 62
     7
100
AcDbLine
 10
50.6026274135
 20
368.3412509838
 30
0.0
 11
49.9833837995
 21
368.5071768101
 31
0.0
  0
LINE
  5
C2
330
1F
100
AcDbEntity
  8
0
  6
Continuous
 62
     9
100
AcDbLine
 10
136.4833837995
 20
348.1249268101
 30
0.0
 11
136.4833837995
 21
313.1249268101
 31
0.0
  0
LINE
  5
C3
330
1F
100
AcDbEntity
  8
BEZUGSACHSEN
  6
Continuous
 62
     7
100
AcDbLine
 10
51.7828125108
 20
368.3071768101
 30
0.0
 11
50.8614464586
 21
368.3071768101
 31
0.0
  0
LINE
  5
C4
330
1F
100
AcDbEntity
  8
BEZUGSACHSEN
  6
Continuous
 62
     7
100
AcDbLine
 10
49.9833837995
 20
368.5071768101
 30
0.0
 11
4.3833093148
 21
366.2226130784
 31
0.0
  0
LINE
  5
C5
330
1F
100
AcDbEntity
  8
BEZUGSACHSEN
  6
Continuous
 62
     7
100
AcDbLine
 10
71.6083837995
 20
376.6249268101
 30
0.0
 11
73.3583837995
 21
376.6249268101
 31
0.0
  0
LINE
  5
C6
330
1F
100
AcDbEntity
  8
BEZUGSACHSEN
  6
Continuous
 62
     7
100
AcDbLine
 10
69.2357885353
 20
380.6249268101
 30
0.0
 11
64.4833837995
 21
380.6249268101
 31
0.0
  0
LINE
  5
C7
330
1F
100
AcDbEntity
  8
BEZUGSACHSEN
  6
Continuous
 62
     7
100
AcDbLine
 10
54.4833837995
 20
380.6249268101
 30
0.0
 11
52.4833837995
 21
380.6249268101
 31
0.0
  0
LINE
  5
C8
330
1F
100
AcDbEntity
  8
BEZUGSACHSEN
  6
Continuous
 62
     7
100
AcDbLine
 10
75.7309790637
 20
380.6249268101
 30
0.0
 11
81.4833837995
 21
380.6249268101
 31
0.0
  0
LINE
  5
C9
330
1F
100
AcDbEntity
  8
0
  6
Continuous
 62
     7
100
AcDbLine
 10
201.9617727961
 20
313.2186190231
 30
0.0
 11
211.9060020613
 21
317.8556892839
 31
0.0
  0
LINE
  5
CA
330
1F
100
AcDbEntity
  8
RUNDUNGEN
  6
Continuous
 62
     7
100
AcDbLine
 10
211.9060020613
 20
343.3941643363
 30
0.0
 11
201.9617727961
 21
348.0312345971
 31
0.0
  0
LINE
  5
CB
330
1F
100
AcDbEntity
  8
0
  6
Continuous
 62
     7
100
AcDbLine
 10
201.9617727961
 20
348.0312345971
 30
0.0
 11
211.9060020613
 21
343.3941643363
 31
0.0
  0
LWPOLYLINE
  5
CC
330
1F
100
AcDbEntity
  8
DEFAULT_2
  6
DASHED
 62
     8
100
AcDbPolyline
 90
        2
 70
     0
 43
0.35
 10
177.4833837995
 20
335.6249268101
 10
177.4833837995
 20
325.6249268101
  0
LWPOLYLINE
  5
CD
330
1F
100
AcDbEntity
  8
GEWINDE
  6
DASHED
 62
     8
100
AcDbPolyline
 90
        2
 70
     0
 43
0.35
 10
188.2333837995
 20
325.6249268101
 10
188.2333837995
 20
313.1249268101
  0
LWPOLYLINE
  5
CE
330
1F
100
AcDbEntity
  8
GEWINDE
  6
DOT_CENTER
 62
     7
100
AcDbPolyline
 90
        2
 70
     0
 43
0.25
 10
192.4833837995
 20
310.1249268101
 10
192.4833837995
 20
330.991016553
  0
LWPOLYLINE
  5
CF
330
1F
100
AcDbEntity
  8
GEWINDE
  6
DASHED
 62
     8
100
AcDbPolyline
 90
        2
 70
     0
 43
0.35
 10
196.7333837995
 20
325.6249268101
 10
196.7333837995
 20
313.1249268101
  0
LINE
  5
D0
330
1F
100
AcDbEntity
  8
RUNDUNGEN
  6
Continuous
 62
     9
100
AcDbLine
 10
201.5391545343
 20
313.1249268101
 30
0.0
 11
201.5391545343
 21
348.1249268101
 31
0.0
  0
LINE
  5
D1
330
1F
100
AcDbEntity
  8
RUNDUNGEN
  6
Continuous
 62
     9
100
AcDbLine
 10
201.9617727961
 20
313.2186190231
 30
0.0
 11
201.9617727961
 21
348.0312345971
 31
0.0
  0
LINE
  5
D2
330
1F
100
AcDbEntity
  8
RUNDUNGEN
  6
Continuous
 62
     9
100
AcDbLine
 10
211.9060020613
 20
317.8556892839
 30
0.0
 11
211.9060020613
 21
343.3941643363
 31
0.0
  0
LINE
  5
D3
330
1F
100
AcDbEntity
  8
RUNDUNGEN
  6
Continuous
 62
     7
100
AcDbLine
 10
212.4833837995
 20
318.7619970709
 30
0.0
 11
212.4833837995
 21
342.4878565493
 31
0.0
  0
LWPOLYLINE
  5
D4
330
1F
100
AcDbEntity
  8
GEWINDE
  6
DASHED
 62
     8
100
AcDbPolyline
 90
        2
 70
     0
 43
0.35
 10
187.4833837995
 20
325.6249268101
 10
187.4833837995
 20
313.1249268101
  0
LWPOLYLINE
  5
D5
330
1F
100
AcDbEntity
  8
GEWINDE
  6
DASHED
 62
     8
100
AcDbPolyline
 90
        2
 70
     0
 43
0.35
 10
197.4833837995
 20
325.6249268101
 10
197.4833837995
 20
313.1249268101
  0
ARC
  5
D6
330
1F
100
AcDbEntity
  8
FASEN
  6
Continuous
 62
     7
100
AcDbCircle
 10
70.384037822
 20
306.1561900796
 30
0.0
 40
19.03859487249982
100
AcDbArc
 50
227.4837701982995
 51
228.9651953372221
  0
ARC
  5
D7
330
1F
100
AcDbEntity
  8
FASEN
  6
Continuous
 62
     7
100
AcDbCircle
 10
65.4552577214
 20
291.1249268101
 30
0.0
 40
8.0
100
AcDbArc
 50
90.0
 51
172.8323734889971
  0
ARC
  5
D8
330
1F
100
AcDbEntity
  8
FASEN
  6
Continuous
 62
     7
100
AcDbCircle
 10
65.4552577214
 20
291.1249268101
 30
0.0
 40
7.599982194899951
100
AcDbArc
 50
90.0
 51
174.9405171273017
  0
ARC
  5
D9
330
1F
100
AcDbEntity
  8
BEZUGSACHSEN
  6
Continuous
 62
     7
100
AcDbCircle
 10
10.4833837995
 20
322.6149268101
 30
0.0
 40
2.0
100
AcDbArc
 50
270.0
 51
355.2355361864946
  0
ARC
  5
DA
330
1F
100
AcDbEntity
  8
BEZUGSACHSEN
  6
Continuous
 62
     7
100
AcDbCircle
 10
4.4833837995
 20
297.024735247
 30
0.0
 40
2.0
100
AcDbArc
 50
179.9999999971356
 51
267.1318795127
  0
ARC
  5
DB
330
1F
100
AcDbEntity
  8
BEZUGSACHSEN
  6
Continuous
 62
     7
100
AcDbCircle
 10
71.6083837995
 20
283.6249268101
 30
0.0
 40
1.0
100
AcDbArc
 50
90.0
 51
180.0
  0
ARC
  5
DC
330
1F
100
AcDbEntity
  8
BEZUGSACHSEN
  6
Continuous
 62
     7
100
AcDbCircle
 10
50.8614464586
 20
291.9426768101
 30
0.0
 40
1.0
100
AcDbArc
 50
90.0
 51
104.9999999996981
  0
ARC
  5
DD
330
1F
100
AcDbEntity
  8
BEZUGSACHSEN
  6
Continuous
 62
     7
100
AcDbCircle
 10
51.7828125108
 20
291.9426768101
 30
0.0
 40
0.9999999999998127
100
AcDbArc
 50
45.49026120128689
 51
90.0
  0
ARC
  5
DE
330
1F
100
AcDbEntity
  8
0
  6
Continuous
 62
     7
100
AcDbCircle
 10
-172.1143960842
 20
400.059394401
 30
0.0
 40
264.5204223914888
100
AcDbArc
 50
335.8400764706066
 51
336.5770705491
  0
ARC
  5
DF
330
1F
100
AcDbEntity
  8
BEZUGSACHSEN
  6
Continuous
 62
     7
100
AcDbCircle
 10
59.4985918107
 20
430.677696577
 30
0.0
 40
50.30340021039987
100
AcDbArc
 50
264.2781515101999
 51
269.9826780125999
  0
ARC
  5
E0
330
1F
100
AcDbEntity
  8
BEZUGSACHSEN
  6
Continuous
 62
     7
100
AcDbCircle
 10
59.4681757984
 20
430.6776963762
 30
0.0
 40
50.30340000970041
100
AcDbArc
 50
270.0173219759999
 51
275.7218485012679
  0
ARC
  5
E1
330
1F
100
AcDbEntity
  8
0
  6
Continuous
 62
     7
100
AcDbCircle
 10
67.4833837995
 20
330.6249268101
 30
0.0
 40
10.0
100
AcDbArc
 50
90.0
 51
270.0
  0
ARC
  5
E2
330
1F
100
AcDbEntity
  8
FASEN
  6
Continuous
 62
     7
100
AcDbCircle
 10
67.4833837995
 20
330.6249268101
 30
0.0
 40
9.599999195899954
100
AcDbArc
 50
90.0
 51
270.0
  0
ARC
  5
E3
330
1F
100
AcDbEntity
  8
BEZUGSACHSEN
  6
Continuous
 62
     7
100
AcDbCircle
 10
10.4833837995
 20
338.6349268101
 30
0.0
 40
1.999999999999988
100
AcDbArc
 50
4.76446378498878
 51
90.0
  0
ARC
  5
E4
330
1F
100
AcDbEntity
  8
BEZUGSACHSEN
  6
Continuous
 62
     7
100
AcDbCircle
 10
4.4833837995
 20
364.2251183732
 30
0.0
 40
2.000000000000039
100
AcDbArc
 50
92.86812048730005
 51
180.0000000143238
  0
ARC
  5
E5
330
1F
100
AcDbEntity
  8
BEZUGSACHSEN
  6
Continuous
 62
     7
100
AcDbCircle
 10
71.6083837995
 20
377.6249268101
 30
0.0
 40
1.0
100
AcDbArc
 50
180.0
 51
270.0
  0
ARC
  5
E6
330
1F
100
AcDbEntity
  8
BEZUGSACHSEN
  6
Continuous
 62
     7
100
AcDbCircle
 10
50.8614464586
 20
369.3071768101
 30
0.0
 40
1.000000000009859
100
AcDbArc
 50
255.000000000301
 51
270.0
  0
ARC
  5
E7
330
1F
100
AcDbEntity
  8
BEZUGSACHSEN
  6
Continuous
 62
     7
100
AcDbCircle
 10
51.7828125108
 20
369.3071768101
 30
0.0
 40
1.0
100
AcDbArc
 50
270.0
 51
314.5097387987131
  0
ARC
  5
E8
330
1F
100
AcDbEntity
  8
BEZUGSACHSEN
  6
Continuous
 62
     7
100
AcDbCircle
 10
188.8134303977
 20
-1275.4178324799
 30
0.0
 40
1632.172763698
100
AcDbArc
 50
96.2726189838
 51
96.48809068979999
  0
ARC
  5
E9
330
1F
100
AcDbEntity
  8
0
  6
Continuous
 62
     7
100
AcDbCircle
 10
136.4833837995
 20
-36.8750731899
 30
0.0
 40
350.0
100
AcDbArc
 50
90.0
 51
96.08827604411468
  0
ARC
  5
EA
330
1F
100
AcDbEntity
  8
RUNDUNGEN
  6
Continuous
 62
     7
100
AcDbCircle
 10
136.4833837995
 20
-36.8750731899
 30
0.0
 40
350.0
100
AcDbArc
 50
90.0
 51
96.08827604411468
  0
ARC
  5
EB
330
1F
100
AcDbEntity
  8
RUNDUNGEN
  6
Continuous
 62
     7
100
AcDbCircle
 10
101.4833837995
 20
291.2636170007
 30
0.0
 40
20.00000000001404
100
AcDbArc
 50
96.08827604407779
 51
178.4774477717995
  0
ARC
  5
EC
330
1F
100
AcDbEntity
  8
BEZUGSACHSEN
  6
Continuous
 62
     7
100
AcDbCircle
 10
73.3583837995
 20
283.6249268101
 30
0.0
 40
1.0
100
AcDbArc
 50
0.0
 51
90.0
  0
ARC
  5
ED
330
1F
100
AcDbEntity
  8
RUNDUNGEN
  6
Continuous
 62
     7
100
AcDbCircle
 10
211.4833837995
 20
318.7619970709
 30
0.0
 40
0.9999999999918526
100
AcDbArc
 50
295.0000000039673
 51
0.0
  0
ARC
  5
EE
330
1F
100
AcDbEntity
  8
RUNDUNGEN
  6
Continuous
 62
     7
100
AcDbCircle
 10
201.5391545343
 20
314.1249268101
 30
0.0
 40
1.0
100
AcDbArc
 50
270.0
 51
295.0000000039673
  0
ARC
  5
EF
330
1F
100
AcDbEntity
  8
BEZUGSACHSEN
  6
Continuous
 62
     7
100
AcDbCircle
 10
188.8134303977
 20
1936.6676861001
 30
0.0
 40
1632.172763698
100
AcDbArc
 50
263.5119093102
 51
263.7273810162
  0
ARC
  5
F0
330
1F
100
AcDbEntity
  8
0
  6
Continuous
 62
     7
100
AcDbCircle
 10
136.4833837995
 20
698.1249268101
 30
0.0
 40
350.0000000000179
100
AcDbArc
 50
263.9117239558853
 51
270.0
  0
ARC
  5
F1
330
1F
100
AcDbEntity
  8
RUNDUNGEN
  6
Continuous
 62
     7
100
AcDbCircle
 10
136.4833837995
 20
698.1249268101
 30
0.0
 40
350.0000000000179
100
AcDbArc
 50
263.9117239558853
 51
270.0
  0
ARC
  5
F2
330
1F
100
AcDbEntity
  8
0
  6
Continuous
 62
     7
100
AcDbCircle
 10
317.0811636832
 20
400.059394401
 30
0.0
 40
264.5204223914999
100
AcDbArc
 50
203.4229294509
 51
204.1599235293934
  0
ARC
  5
F3
330
1F
100
AcDbEntity
  8
RUNDUNGEN
  6
Continuous
 62
     7
100
AcDbCircle
 10
101.4833837995
 20
369.9862366195
 30
0.0
 40
20.0
100
AcDbArc
 50
180.0
 51
263.9117239559222
  0
ARC
  5
F4
330
1F
100
AcDbEntity
  8
BEZUGSACHSEN
  6
Continuous
 62
     7
100
AcDbCircle
 10
73.3583837995
 20
377.6249268101
 30
0.0
 40
1.0
100
AcDbArc
 50
270.0
 51
0.0
  0
ARC
  5
F5
330
1F
100
AcDbEntity
  8
RUNDUNGEN
  6
Continuous
 62
     7
100
AcDbCircle
 10
211.4833837995
 20
342.4878565493
 30
0.0
 40
1.0
100
AcDbArc
 50
0.0
 51
64.99999999603273
  0
ARC
  5
F6
330
1F
100
AcDbEntity
  8
RUNDUNGEN
  6
Continuous
 62
     7
100
AcDbCircle
 10
201.5391545343
 20
347.1249268101
 30
0.0
 40
0.9999999999918526
100
AcDbArc
 50
64.99999999603273
 51
90.0
  0
CIRCLE
  5
F7
330
1F
100
AcDbEntity
  8
BEZUGSACHSEN
  6
Continuous
 62
     7
100
AcDbCircle
 10
37.4833837995
 20
330.6249268101
 30
0.0
 40
6.0
  0
SPLINE
  5
F8
330
1F
100
AcDbEntity
  8
0
  6
Continuous
 62
     2
100
AcDbSpline
210
0.0
220
0.0
230
1.0
 70
     8
 71
     3
 72
    59
 73
    55
 74
    53
 42
0.0000000001
 43
0.0000000001
 44
0.00000001
 40
0.0
 40
0.0
 40
0.0
 40
0.0
 40
0.0092012900561058
 40
0.0368612466646322
 40
0.083012228482711
 40
0.1474794176870111
 40
0.2300757816808595
 40
0.330771471163674
 40
0.449461272983976
 40
0.5855771121516079
 40
0.7385338693110353
 40
0.9081332227770393
 40
1.094036846478783
 40
1.294945354880797
 40
1.509520033046721
 40
1.737206928699981
 40
1.977367523855183
 40
2.228214862020538
 40
2.487957383115258
 40
2.75590671767866
 40
3.031414738807015
 40
3.31286433318055
 40
3.598658504457699
 40
3.888226028117226
 40
4.181108989028945
 40
4.476260980592595
 40
4.772600259447856
 40
5.069479334852376
 40
5.366359098532759
 40
5.66269896041273
 40
5.957849809595609
 40
6.250730689903511
 40
6.540296401098902
 40
6.826089516316551
 40
7.107538779796156
 40
7.383045790274209
 40
7.650992551190972
 40
7.910733524306576
 40
8.161582397360954
 40
8.401744059454858
 40
8.629428402110628
 40
8.844000963124888
 40
9.044911600112362
 40
9.230817215723127
 40
9.400414071324223
 40
9.553367795379652
 40
9.689484332140076
 40
9.808175769626814
 40
9.90887069405138
 40
9.991465423868922
 40
10.05593207452645
 40
10.10208244270754
 40
10.12974052892225
 40
10.13894059992429
 40
10.13894059992429
 40
10.13894059992429
 40
10.13894059992429
 10
197.4833837995
 20
313.124914563
 30
0.0
 10
197.4804352874799
 20
313.1257591697158
 30
0.0
 10
197.468623266752
 20
313.1291427448775
 30
0.0
 10
197.4420082145724
 20
313.1367130844214
 30
0.0
 10
197.3976557070247
 20
313.1492588300363
 30
0.0
 10
197.3356316514078
 20
313.1666085950646
 30
0.0
 10
197.2560267293673
 20
313.1885996214513
 30
0.0
 10
197.158879262983
 20
313.2149626877576
 30
0.0
 10
197.044355642244
 20
313.2454068270456
 30
0.0
 10
196.9127814182003
 20
313.2795089712359
 30
0.0
 10
196.7645150431831
 20
313.3168329070848
 30
0.0
 10
196.5998236785314
 20
313.3568723329043
 30
0.0
 10
196.419216890688
 20
313.3990800515707
 30
0.0
 10
196.2235736489744
 20
313.4427864999894
 30
0.0
 10
196.0138473499612
 20
313.4872824605716
 30
0.0
 10
195.7907840771381
 20
313.5318892510852
 30
0.0
 10
195.5552949339032
 20
313.5759274288737
 30
0.0
 10
195.3087186837632
 20
313.6186960132361
 30
0.0
 10
195.0524163212022
 20
313.6594489657891
 30
0.0
 10
194.7874035253491
 20
313.6975905737339
 30
0.0
 10
194.5146577057724
 20
313.7325728264574
 30
0.0
 10
194.2354829010469
 20
313.7639217711177
 30
0.0
 10
193.9511640488202
 20
313.7911219314748
 30
0.0
 10
193.6626283886008
 20
313.8138422486919
 30
0.0
 10
193.3706316649358
 20
313.8318032513311
 30
0.0
 10
193.0761125762646
 20
313.844816256074
 30
0.0
 10
192.7800777110515
 20
313.8526645693345
 30
0.0
 10
192.4833745160246
 20
313.855294073112
 30
0.0
 10
192.1866711302346
 20
313.8526642009365
 30
0.0
 10
191.8906362300019
 20
313.8448155944523
 30
0.0
 10
191.596118033881
 20
313.8318023198132
 30
0.0
 10
191.3041230059535
 20
313.8138410934554
 30
0.0
 10
191.0155890101408
 20
313.7911206604635
 30
0.0
 10
190.7312712410242
 20
313.7639203758363
 30
0.0
 10
190.4520972586906
 20
313.7325712703677
 30
0.0
 10
190.1793527556485
 20
313.6975890163667
 30
0.0
 10
189.9143416666124
 20
313.6594475584731
 30
0.0
 10
189.6580401827069
 20
313.6186945681507
 30
0.0
 10
189.4114636205331
 20
313.5759257289665
 30
0.0
 10
189.1759744722577
 20
313.5318874922884
 30
0.0
 10
188.9529123820984
 20
313.4872809113185
 30
0.0
 10
188.7431869432299
 20
313.442784976909
 30
0.0
 10
188.5475430819678
 20
313.3990782403109
 30
0.0
 10
188.3669357700899
 20
313.3568703882972
 30
0.0
 10
188.2022455547734
 20
313.3168312277365
 30
0.0
 10
188.053980767369
 20
313.2795075845937
 30
0.0
 10
187.9224067860824
 20
313.2454054342563
 30
0.0
 10
187.8078826587408
 20
313.2149611661463
 30
0.0
 10
187.7107354423123
 20
313.1885981502776
 30
0.0
 10
187.6311314753395
 20
313.1666073443359
 30
0.0
 10
187.569108313337
 20
313.1492578325986
 30
0.0
 10
187.5247567744706
 20
313.1367123640505
 30
0.0
 10
187.4981429250377
 20
313.1291423074659
 30
0.0
 10
187.4863319155723
 20
313.125758941648
 30
0.0
 10
187.4833837995
 20
313.1249144283
 30
0.0
 11
197.4833837995
 21
313.124914563
 31
0.0
 11
197.4745378717406
 21
313.1274470125598
 31
0.0
 11
197.4479353605211
 21
313.1350219446653
 31
0.0
 11
197.4035255437988
 21
313.1475790662087
 31
0.0
 11
197.3414431782691
 21
313.1649514113049
 31
0.0
 11
197.2618271390916
 21
313.1869388088475
 31
0.0
 11
197.1646472974636
 21
313.2133149393745
 31
0.0
 11
197.0499402519868
 21
313.2438036712951
 31
0.0
 11
196.9181785139309
 21
313.277955773087
 31
0.0
 11
196.7698475668336
 21
313.3152880606399
 31
0.0
 11
196.6050488715238
 21
313.3553546392347
 31
0.0
 11
196.4240223129904
 21
313.3976576227109
 31
0.0
 11
196.2279454975852
 21
313.4414538692265
 31
0.0
 11
196.018041002013
 21
313.4859779666187
 31
0.0
 11
195.7947735597189
 21
313.530620677823
 31
0.0
 11
195.5587052484054
 21
313.5747666160157
 31
0.0
 11
195.3115453667614
 21
313.6176196202321
 31
0.0
 11
195.0550238624423
 21
313.6583982308817
 31
0.0
 11
194.7898060614354
 21
313.6965605673145
 31
0.0
 11
194.5165367033595
 21
313.731610925984
 31
0.0
 11
194.2368427997411
 21
313.7629987333576
 31
0.0
 11
193.9523470403298
 21
313.790210334063
 31
0.0
 11
193.6636725561969
 21
313.8129346155461
 31
0.0
 11
193.37134220482
 21
313.8309177870203
 31
0.0
 11
193.076477307763
 21
313.8439328017167
 31
0.0
 11
192.7802421924821
 21
313.8517893064753
 31
0.0
 11
192.48337474605
 21
313.8544169788136
 31
0.0
 11
192.1865066144908
 21
313.8517889477212
 31
0.0
 11
191.8902709246204
 21
313.8439321171834
 31
0.0
 11
191.5954071826696
 21
313.830916839387
 31
0.0
 11
191.3030789271365
 21
313.8129334841128
 31
0.0
 11
191.014406269889
 21
313.7902090906609
 31
0.0
 11
190.7299115838756
 21
313.7629973590742
 31
0.0
 11
190.4502180351738
 21
313.7316093561465
 31
0.0
 11
190.1769497015146
 21
313.6965589546978
 31
0.0
 11
189.9117344652368
 21
313.6583968644525
 31
0.0
 11
189.6552145151219
 21
313.6176183369154
 31
0.0
 11
189.4080531496487
 21
313.5747649061303
 31
0.0
 11
189.1719838039311
 21
313.5306186950563
 31
0.0
 11
188.9487188763911
 21
313.485976427852
 31
0.0
 11
188.7388164785982
 21
313.4414526438599
 31
0.0
 11
188.54273761172
 21
313.3976558172798
 31
0.0
 11
188.3617091214762
 21
313.3553523465513
 31
0.0
 11
188.1969128615143
 21
313.3152863243836
 31
0.0
 11
188.0485848759524
 21
313.2779546970204
 31
0.0
 11
187.9168224764882
 21
313.2438023666889
 31
0.0
 11
187.8021138526531
 21
313.2133132054912
 31
0.0
 11
187.7049347549063
 21
313.1869372549683
 31
0.0
 11
187.6253202986977
 21
313.1649502643548
 31
0.0
 11
187.5632384522606
 21
313.1475780627109
 31
0.0
 11
187.5188292308871
 21
313.135021090932
 31
0.0
 11
187.4922285402416
 21
313.1274465948932
 31
0.0
 11
187.4833837995
 21
313.1249144283
 31
0.0
  0
SPLINE
  5
F9
330
1F
100
AcDbEntity
  8
GEWINDE
  6
Continuous
 62
     7
100
AcDbSpline
210
0.0
220
0.0
230
1.0
 70
     8
 71
     3
 72
    23
 73
    19
 74
    17
 42
0.0000000001
 43
0.0000000001
 44
0.00000001
 40
0.0
 40
0.0
 40
0.0
 40
0.0
 40
0.1669336716720659
 40
0.333872634047465
 40
0.8029187614118621
 40
1.271991544921047
 40
1.965866670097999
 40
2.659783779987261
 40
3.475968644401131
 40
4.292172355463928
 40
5.108374690247029
 40
5.92455817760679
 40
6.618471639796811
 40
7.312343119339798
 40
7.781409544035998
 40
8.250449310468191
 40
8.417382617432612
 40
8.58431063471413
 40
8.58431063471413
 40
8.58431063471413
 40
8.58431063471413
 10
188.2333837995
 20
313.1249268101
 30
0.0
 10
188.2874881062633
 20
313.1379299694647
 30
0.0
 10
188.3956984345417
 20
313.1639367003089
 30
0.0
 10
188.6565729999276
 20
313.2237463046023
 30
0.0
 10
189.016880597511
 20
313.3004971241513
 30
0.0
 10
189.5516301681092
 20
313.4006548032056
 30
0.0
 10
190.1634269632162
 20
313.4955539001338
 30
0.0
 10
190.8933935900796
 20
313.580046195964
 30
0.0
 10
191.6671287544729
 20
313.6356806125112
 30
0.0
 10
192.4834003808421
 20
313.6554168622495
 30
0.0
 10
193.2996715042578
 20
313.6356788862499
 30
0.0
 10
194.0734044284729
 20
313.5800431166701
 30
0.0
 10
194.8033680435858
 20
313.4955499759834
 30
0.0
 10
195.4151602209582
 20
313.4006508265277
 30
0.0
 10
195.9499043481933
 20
313.3004937281022
 30
0.0
 10
196.3102059048153
 20
313.2237439503212
 30
0.0
 10
196.5710746872875
 20
313.163935481295
 30
0.0
 10
196.6792813335695
 20
313.1379295631529
 30
0.0
 10
196.7333837995
 20
313.1249268101
 30
0.0
 11
188.2333837995
 21
313.1249268101
 31
0.0
 11
188.3957635910449
 21
313.1636521769254
 31
0.0
 11
188.5584662155353
 21
313.2010215914631
 31
0.0
 11
189.017250234643
 21
313.2985997314688
 31
0.0
 11
189.4783128216748
 21
313.3849163988546
 31
0.0
 11
190.1640119037267
 21
313.4911211925907
 31
0.0
 11
190.8533438469668
 21
313.5707605511134
 31
0.0
 11
191.6674331588982
 21
313.6292098889816
 31
0.0
 11
192.4834008323283
 21
313.6488377739864
 31
0.0
 11
193.2993670884256
 21
313.6292081989537
 31
0.0
 11
194.1134549140383
 21
313.5707573886257
 31
0.0
 11
194.8027831052329
 21
313.4911173369378
 31
0.0
 11
195.488478454404
 21
313.3849122605603
 31
0.0
 11
195.9495347179754
 21
313.2985963721106
 31
0.0
 11
196.4083124464971
 21
313.2010192318205
 31
0.0
 11
196.5710095329343
 21
313.1636509693651
 31
0.0
 11
196.7333837995
 21
313.1249268101
 31
0.0
  0
SPLINE
  5
FA
330
1F
100
AcDbEntity
  8
BEZUGSACHSEN
  6
Continuous
 62
     7
100
AcDbSpline
210
0.0
220
0.0
230
1.0
 70
     8
 71
     3
 72
    47
 73
    43
 74
    41
 42
0.0000000001
 43
0.0000000001
 44
0.00000001
 40
0.0
 40
0.0
 40
0.0
 40
0.0
 40
0.6302393214445833
 40
1.260854867298407
 40
1.577476088391225
 40
1.893930800232215
 40
2.210999113882288
 40
2.528183472218692
 40
3.164887038244778
 40
3.801951183384125
 40
4.442851001615132
 40
5.083381259775442
 40
5.404527292279342
 40
5.72557383871245
 40
6.046670709992194
 40
6.367871027129801
 40
7.009090242527479
 40
7.650619763935979
 40
8.290330346486654
 40
8.929958764490983
 40
9.568647011361637
 40
10.2073592301349
 40
10.84445705813731
 40
11.48152626492074
 40
12.11643462217953
 40
12.75141965574671
 40
13.38691908733388
 40
14.02211738528142
 40
14.34050449140788
 40
14.65879153790405
 40
14.97761586866916
 40
15.29653774943439
 40
15.93537694100741
 40
16.57458694068051
 40
17.21386274992148
 40
17.85277859075321
 40
18.17219860084804
 40
18.49150024079463
 40
18.81067156638433
 40
19.13001452423713
 40
19.76719627025147
 40
20.40398968275108
 40
20.40398968275108
 40
20.40398968275108
 40
20.40398968275108
 10
43.9827974373
 20
330.6249268288
 30
0.0
 10
43.97692823556544
 20
330.414770806915
 30
0.0
 10
43.96518632844801
 20
329.994333309492
 30
0.0
 10
43.88573958592416
 20
329.4731698672343
 30
0.0
 10
43.79500808083277
 20
329.0617783998079
 30
0.0
 10
43.71140269851381
 20
328.756140559507
 30
0.0
 10
43.61305075713818
 20
328.4547567133114
 30
0.0
 10
43.46203194628333
 20
328.0587835337211
 30
0.0
 10
43.23674935867629
 20
327.5776767250501
 30
0.0
 10
42.91037132392356
 20
327.0280425000582
 30
0.0
 10
42.53050426190595
 20
326.5123146373839
 30
0.0
 10
42.17224982263394
 20
326.1147892351719
 30
0.0
 10
41.86306908495571
 20
325.8192358802598
 30
0.0
 10
41.62014412892056
 20
325.6090509718407
 30
0.0
 10
41.36709522559903
 20
325.4111415075112
 30
0.0
 10
41.01731271714378
 20
325.1645181560164
 30
0.0
 10
40.55782747938865
 20
324.8893115467194
 30
0.0
 10
39.97743177241097
 20
324.615271440016
 30
0.0
 10
39.37327746455151
 20
324.4000829627001
 30
0.0
 10
38.75186231713502
 20
324.2454211236872
 30
0.0
 10
38.11859310570873
 20
324.1526107506276
 30
0.0
 10
37.48013364128917
 20
324.1221000007815
 30
0.0
 10
36.84230062774875
 20
324.1542017431518
 30
0.0
 10
36.21187064076138
 20
324.2480148055277
 30
0.0
 10
35.59429697126498
 20
324.4027286218169
 30
0.0
 10
34.99515355983208
 20
324.6165251938901
 30
0.0
 10
34.41969633836587
 20
324.8878465623467
 30
0.0
 10
33.96401094541083
 20
325.1596914459956
 30
0.0
 10
33.61675504766016
 20
325.403151998587
 30
0.0
 10
33.36513546635533
 20
325.5986345249067
 30
0.0
 10
33.12326041607996
 20
325.8063275835965
 30
0.0
 10
32.81432413239397
 20
326.0991651317295
 30
0.0
 10
32.45548137550614
 20
326.4936227806819
 30
0.0
 10
32.07325447026908
 20
327.0071074466483
 30
0.0
 10
31.74363002500354
 20
327.5558752253673
 30
0.0
 10
31.51514257908068
 20
328.0379386418626
 30
0.0
 10
31.36164107912032
 20
328.4353482010397
 30
0.0
 10
31.26138427619709
 20
328.7386305643319
 30
0.0
 10
31.17606778327204
 20
329.0464544360349
 30
0.0
 10
31.0833053279134
 20
329.4614953031378
 30
0.0
 10
31.00201296102635
 20
329.9877681021993
 30
0.0
 10
30.98997316148361
 20
330.4125837518804
 30
0.0
 10
30.9839550967
 20
330.6249268305
 30
0.0
 11
43.9827974373
 21
330.6249268288
 31
0.0
 11
43.95225785861069
 21
329.9954278721461
 31
0.0
 11
43.86092658310759
 21
329.3714610743215
 31
0.0
 11
43.79243184440217
 21
329.0623373637848
 31
0.0
 11
43.70901301954124
 21
328.7570753708915
 31
0.0
 11
43.61062627569118
 21
328.4556581116718
 31
0.0
 11
43.49759564458707
 21
328.1592968564351
 31
0.0
 11
43.22761550807473
 21
327.5826668564532
 31
0.0
 11
42.90227888622138
 21
327.0349380846116
 31
0.0
 11
42.52224239142943
 21
326.5188713838501
 31
0.0
 11
42.09339189376872
 21
326.043091747595
 31
0.0
 11
41.8612547593987
 21
325.8211748148488
 31
0.0
 11
41.61847226606236
 21
325.6111092395967
 31
0.0
 11
41.36554265776402
 21
325.4132966667109
 31
0.0
 11
41.10302826192969
 21
325.22821334572
 31
0.0
 11
40.55297008032878
 21
324.8986711192161
 31
0.0
 11
39.97282924866316
 21
324.6248157882968
 31
0.0
 11
39.37022393834035
 21
324.4101149047446
 31
0.0
 11
38.74952466800037
 21
324.2556580210581
 31
0.0
 11
38.1175958540968
 21
324.1629830468249
 31
0.0
 11
37.47960972694686
 21
324.1325363725485
 31
0.0
 11
36.84331473883653
 21
324.1645102767685
 31
0.0
 11
36.21319146473094
 21
324.2583283649078
 31
0.0
 11
35.59730755648948
 21
324.41258669916
 31
0.0
 11
34.99927508667051
 21
324.626041982291
 31
0.0
 11
34.4244393381238
 21
324.8970094890891
 31
0.0
 11
33.87897265058242
 21
325.2224983068664
 31
0.0
 11
33.61827035780551
 21
325.4052677350771
 31
0.0
 11
33.36692110599717
 21
325.6005372861665
 31
0.0
 11
33.12503780764761
 21
325.8082424230008
 31
0.0
 11
32.89358197634742
 21
326.0276492692658
 31
0.0
 11
32.4636589454672
 21
326.5001761999358
 31
0.0
 11
32.0820378060094
 21
327.0129673168645
 31
0.0
 11
31.75280633183036
 21
327.5609455980862
 31
0.0
 11
31.47919202468632
 21
328.1383091426504
 31
0.0
 11
31.36409977222636
 21
328.4362737651691
 31
0.0
 11
31.26386008379948
 21
328.7394330337667
 31
0.0
 11
31.17869300358224
 21
329.0470316415756
 31
0.0
 11
31.10872997610856
 21
329.358616460713
 31
0.0
 11
31.01524107916833
 21
329.9889024304147
 31
0.0
 11
30.9839550967
 21
330.6249268305
 31
0.0
  0
SPLINE
  5
FB
330
1F
100
AcDbEntity
  8
BEZUGSACHSEN
  6
Continuous
 62
     7
100
AcDbSpline
210
0.0
220
0.0
230
1.0
 70
     8
 71
     3
 72
    27
 73
    23
 74
    21
 42
0.0000000001
 43
0.0000000001
 44
0.00000001
 40
0.0
 40
0.0
 40
0.0
 40
0.0
 40
0.1219765139516157
 40
0.2439857714748793
 40
0.3566831398307615
 40
0.4694418149413843
 40
0.5721317672392642
 40
0.6745445880581021
 40
0.7225206520876608
 40
0.7704888797598937
 40
0.8171412936034038
 40
0.863789873426934
 40
0.9102318000827476
 40
0.9566751324137199
 40
1.00417517574911
 40
1.05168310013909
 40
1.153672388740221
 40
1.256049376677893
 40
1.370745138102896
 40
1.48538540189009
 40
1.611534903927692
 40
1.737631875972582
 40
1.737631875972582
 40
1.737631875972582
 40
1.737631875972582
 10
3.6292264751
 20
315.3825908146
 30
0.0
 10
3.59397145749661
 20
315.3623112893351
 30
0.0
 10
3.523451958376186
 20
315.3217467949371
 30
0.0
 10
3.415799555191115
 20
315.2709509340457
 30
0.0
 10
3.307641539326712
 20
315.2291992981789
 30
0.0
 10
3.202062318378017
 20
315.1997847130372
 30
0.0
 10
3.097230773251258
 20
315.1828701256441
 30
0.0
 10
3.012503103406088
 20
315.1810049024202
 30
0.0
 10
2.946679166987408
 20
315.1879602104383
 30
0.0
 10
2.899971963753803
 20
315.1971573375898
 30
0.0
 10
2.854791346437605
 20
315.2106907825773
 30
0.0
 10
2.811651735782313
 20
315.2284840413846
 30
0.0
 10
2.770697259203839
 20
315.2507123990887
 30
0.0
 10
2.732049832733023
 20
315.2772474307906
 30
0.0
 10
2.696143754100946
 20
315.3079427083208
 30
0.0
 10
2.650704432570421
 20
315.3554801814387
 30
0.0
 10
2.602161292509858
 20
315.4246495485486
 30
0.0
 10
2.555935583576906
 20
315.5208076032773
 30
0.0
 10
2.52196970977861
 20
315.626383036267
 30
0.0
 10
2.499014285561685
 20
315.7428007271726
 30
0.0
 10
2.48556972719756
 20
315.8645480358301
 30
0.0
 10
2.484112340899601
 20
315.948651399348
 30
0.0
 10
2.4833837995
 20
315.9906943239
 30
0.0
 11
3.6292264751
 21
315.3825908146
 31
0.0
 11
3.522681851039457
 21
315.3232063634399
 31
0.0
 11
3.41238896187079
 21
315.2710360891431
 31
0.0
 11
3.307070954021161
 21
315.2309260647486
 31
0.0
 11
3.198347225497755
 21
315.2010317564497
 31
0.0
 11
3.096883073411045
 21
315.1852123966565
 31
0.0
 11
2.994483532828548
 21
315.1835631675744
 31
0.0
 11
2.946779676592906
 21
315.1886665801599
 31
0.0
 11
2.899728906307433
 21
315.1980033826939
 31
0.0
 11
2.855049338863802
 21
315.2114266449828
 31
0.0
 11
2.811943202266411
 21
315.2292578251793
 31
0.0
 11
2.771120609469554
 21
315.2514020900992
 31
0.0
 11
2.732833352923402
 21
315.2776902833459
 31
0.0
 11
2.696696255913561
 21
315.3085182631137
 31
0.0
 11
2.66384375554668
 21
315.3428361316298
 31
0.0
 11
2.604671361323702
 21
315.4259050352658
 31
0.0
 11
2.559771637749107
 21
315.5179108094439
 31
0.0
 11
2.524133478169029
 21
315.6269293366336
 31
0.0
 11
2.501281914771639
 21
315.7392689829367
 31
0.0
 11
2.487515158432204
 21
315.8646650486015
 31
0.0
 11
2.4833837995
 21
315.9906943239
 31
0.0
  0
SPLINE
  5
FC
330
1F
100
AcDbEntity
  8
BEZUGSACHSEN
  6
Continuous
 62
     7
100
AcDbSpline
210
0.0
220
0.0
230
1.0
 70
     8
 71
     3
 72
    15
 73
    11
 74
     9
 42
0.0000000001
 43
0.0000000001
 44
0.00000001
 40
0.0
 40
0.0
 40
0.0
 40
0.0
 40
0.1110371613799305
 40
0.2222522337398211
 40
0.3333980191846914
 40
0.4445069474869427
 40
0.5556201065347133
 40
0.6667525642417591
 40
0.7778876033781905
 40
0.8889820915624801
 40
0.8889820915624801
 40
0.8889820915624801
 40
0.8889820915624801
 10
4.3833093148
 20
314.9483944238
 30
0.0
 10
4.346667587920207
 20
314.9539265766473
 30
0.0
 10
4.27332542439665
 20
314.9649997463179
 30
0.0
 10
4.166808874383439
 20
314.9980183098352
 30
0.0
 10
4.064395966636607
 20
315.0416085972855
 30
0.0
 10
3.966946001009507
 20
315.0953881050978
 30
0.0
 10
3.87464120527756
 20
315.1574832404622
 30
0.0
 10
3.787644577151103
 20
315.2267699141142
 30
0.0
 10
3.705391821706721
 20
315.3016518657267
 30
0.0
 10
3.654611835305244
 20
315.3556144472188
 30
0.0
 10
3.6292264751
 20
315.3825908146
 30
0.0
 11
4.3833093148
 21
314.9483944238
 31
0.0
 11
4.273967029689777
 21
314.9677209830951
 31
0.0
 11
4.167475076121479
 21
314.9997874164051
 31
0.0
 11
4.06520689551432
 21
315.0433144753163
 31
0.0
 11
3.967804029059775
 21
315.0967735770195
 31
0.0
 11
3.87553226227315
 21
315.1586771727765
 31
0.0
 11
3.788435158864376
 21
315.2277026588944
 31
0.0
 11
3.706395254377832
 21
315.3026723260651
 31
0.0
 11
3.6292264751
 21
315.3825908146
 31
0.0
  0
SPLINE
  5
FD
330
1F
100
AcDbEntity
  8
BEZUGSACHSEN
  6
Continuous
 62
     7
100
AcDbSpline
210
0.0
220
0.0
230
1.0
 70
     8
 71
     3
 72
    15
 73
    11
 74
     9
 42
0.0000000001
 43
0.0000000001
 44
0.00000001
 40
0.0
 40
0.0
 40
0.0
 40
0.0
 40
0.1110944831772348
 40
0.2222295181664002
 40
0.333362040194754
 40
0.4444752610226
 40
0.5555842178353552
 40
0.6667300354298242
 40
0.7779450181900739
 40
0.8889820871972575
 40
0.8889820871972575
 40
0.8889820871972575
 40
0.8889820871972575
 10
3.6292264751
 20
345.8672628055
 30
0.0
 10
3.654611834665035
 20
345.8942391712059
 30
0.0
 10
3.705391819982746
 20
345.948201749556
 30
0.0
 10
3.787644589222222
 20
346.0230837129751
 30
0.0
 10
3.874641241162988
 20
346.0923704218762
 30
0.0
 10
3.9669460815974
 20
346.1544655849468
 30
0.0
 10
4.064396103592261
 20
346.2082450770675
 30
0.0
 10
4.166809017466734
 20
346.2518353226591
 30
0.0
 10
4.273325516061348
 20
346.2848538784635
 30
0.0
 10
4.346667618779943
 20
346.2959270450609
 30
0.0
 10
4.3833093148
 20
346.3014591963
 30
0.0
 11
3.6292264751
 21
345.8672628055
 31
0.0
 11
3.706395252186273
 21
345.9471812891907
 31
0.0
 11
3.788435152403274
 21
346.0221509548858
 31
0.0
 11
3.875532300994554
 21
346.0911764875505
 31
0.0
 11
3.9678041225786
 21
346.1530801125195
 31
0.0
 11
4.065207030674063
 21
346.2065391976086
 31
0.0
 11
4.167475254074336
 21
346.2500662380696
 31
0.0
 11
4.273967122178997
 21
346.2821326444467
 31
0.0
 11
4.3833093148
 21
346.3014591963
 31
0.0
  0
SPLINE
  5
FE
330
1F
100
AcDbEntity
  8
BEZUGSACHSEN
  6
Continuous
 62
     7
100
AcDbSpline
210
0.0
220
0.0
230
1.0
 70
     8
 71
     3
 72
    27
 73
    23
 74
    21
 42
0.0000000001
 43
0.0000000001
 44
0.00000001
 40
0.0
 40
0.0
 40
0.0
 40
0.0
 40
0.1260969825525566
 40
0.2522464959213911
 40
0.3668867952556956
 40
0.4815825893854495
 40
0.58395960063706
 40
0.6859489160842878
 40
0.7334568410224194
 40
0.7809568848852276
 40
0.8274002264423608
 40
0.87384216071959
 40
0.9204907318997252
 40
0.9671431399242473
 40
1.01511140179756
 40
1.063087497095353
 40
1.165500418698199
 40
1.268190478932508
 40
1.380949153876302
 40
1.493646517757447
 40
1.615655563730229
 40
1.73763186759319
 40
1.73763186759319
 40
1.73763186759319
 40
1.73763186759319
 10
2.4833837995
 20
345.2591592963
 30
0.0
 10
2.484112340976277
 20
345.301202224361
 30
0.0
 10
2.485569727432354
 20
345.3853055951712
 30
0.0
 10
2.499014289395116
 20
345.5070529227348
 30
0.0
 10
2.521969722718231
 20
345.6234706391026
 30
0.0
 10
2.555935623067389
 20
345.7290460968713
 30
0.0
 10
2.60216138189481
 20
345.8252041591221
 30
0.0
 10
2.650704550448445
 20
345.8943735247883
 30
0.0
 10
2.696143876033711
 20
345.9419110063949
 30
0.0
 10
2.732049954146476
 20
345.9726062898731
 30
0.0
 10
2.770697385249131
 20
345.9991413255868
 30
0.0
 10
2.811651872457008
 20
346.0213696714834
 30
0.0
 10
2.854791498629471
 20
346.0391628883596
 30
0.0
 10
2.899972133230688
 20
346.0526962954207
 30
0.0
 10
2.9466793562008
 20
346.0618934207563
 30
0.0
 10
3.012503347389337
 20
346.0688487411384
 30
0.0
 10
3.097231099390562
 20
346.0669834845004
 30
0.0
 10
3.202062702898658
 20
346.0500688235638
 30
0.0
 10
3.30764194526469
 20
346.0206541907056
 30
0.0
 10
3.415799883365076
 20
345.9789025532363
 30
0.0
 10
3.523452144619688
 20
345.9281067260619
 30
0.0
 10
3.59397151943683
 20
345.8875422978119
 30
0.0
 10
3.6292264751
 20
345.8672628055
 30
0.0
 11
2.4833837995
 21
345.2591592963
 31
0.0
 11
2.487515159067054
 21
345.385188582091
 31
0.0
 11
2.501281918204948
 21
345.510584658848
 31
0.0
 11
2.524133494318239
 21
345.6229243388395
 31
0.0
 11
2.559771683701686
 21
345.7319428906943
 31
0.0
 11
2.604671448479801
 21
345.8239486707067
 31
0.0
 11
2.663843877434165
 21
345.9070175825632
 31
0.0
 11
2.696696377618784
 21
345.9413354520127
 31
0.0
 11
2.732833472569565
 21
345.9721634350068
 31
0.0
 11
2.771120737441252
 21
345.9984516324276
 31
0.0
 11
2.811943345379986
 21
346.0205958854178
 31
0.0
 11
2.855049488996579
 21
346.0384270260334
 31
0.0
 11
2.899729061030708
 21
346.0518502528188
 31
0.0
 11
2.946779866761821
 21
346.0611870524418
 31
0.0
 11
2.9944837540128
 21
346.066290469059
 31
0.0
 11
3.096883394872443
 21
346.064641207695
 31
0.0
 11
3.198347645207583
 21
346.0488217774001
 31
0.0
 11
3.307071361664414
 21
346.0189274258451
 31
0.0
 11
3.41238935396172
 21
345.9788173731872
 31
0.0
 11
3.522682039867119
 21
345.9266471639202
 31
0.0
 11
3.6292264751
 21
345.8672628055
 31
0.0
  0
SPLINE
  5
FF
330
1F
100
AcDbEntity
  8
0
  6
Continuous
 62
     7
100
AcDbSpline
210
0.0
220
0.0
230
1.0
 70
     8
 71
     3
 72
    19
 73
    15
 74
    13
 42
0.0000000001
 43
0.0000000001
 44
0.00000001
 40
0.0
 40
0.0
 40
0.0
 40
0.0
 40
0.1162460235718655
 40
0.2327881717960441
 40
0.3491890045888442
 40
0.4655468550526551
 40
0.5819071369671209
 40
0.6982738488833574
 40
0.8146206072289122
 40
0.9309998277653313
 40
1.163276323381233
 40
1.396138921715539
 40
1.629013178045503
 40
1.861351539731089
 40
1.861351539731089
 40
1.861351539731089
 40
1.861351539731089
 10
71.6083837995
 20
297.1025462264
 30
0.0
 10
71.56959972865906
 20
297.1007052795047
 30
0.0
 10
71.49193278859127
 20
297.0970186960935
 30
0.0
 10
71.37832270353454
 20
297.0686132110893
 30
0.0
 10
71.2701350155886
 20
297.0247592968731
 30
0.0
 10
71.169159149625
 20
296.9661626086489
 30
0.0
 10
71.07639069290164
 20
296.8954777473218
 30
0.0
 10
70.99230331391843
 20
296.8147201422357
 30
0.0
 10
70.91699967054484
 20
296.7257525034955
 30
0.0
 10
70.82834842637948
 20
296.5983930557555
 30
0.0
 10
70.7383516806371
 20
296.4256076776869
 30
0.0
 10
70.66345816146938
 20
296.2046826875044
 30
0.0
 10
70.61692123613474
 20
295.9756627679007
 30
0.0
 10
70.61122742541185
 20
295.8204833750481
 30
0.0
 10
70.6083837995
 20
295.7429830569
 30
0.0
 11
71.6083837995
 21
297.1025462264
 31
0.0
 11
71.49251244794958
 21
297.093220568989
 31
0.0
 11
71.37918792326153
 21
297.0660245322017
 31
0.0
 11
71.27131479065238
 21
297.0222919226758
 31
0.0
 11
71.1705260511422
 21
296.9641474530118
 31
0.0
 11
71.07783874609466
 21
296.8937998966204
 31
0.0
 11
70.99376338046918
 21
296.8133477708739
 31
0.0
 11
70.91846462253751
 21
296.7246535476602
 31
0.0
 11
70.85183789322222
 21
296.6292334139703
 31
0.0
 11
70.74394810711367
 21
296.4235342052478
 31
0.0
 11
70.66818997026192
 21
296.2033395313709
 31
0.0
 11
70.6232299564453
 21
295.9748466071504
 31
0.0
 11
70.6083837995
 21
295.7429830569
 31
0.0
  0
SPLINE
  5
100
330
1F
100
AcDbEntity
  8
0
  6
Continuous
 62
     7
100
AcDbSpline
210
0.0
220
0.0
230
1.0
 70
     8
 71
     3
 72
    19
 73
    15
 74
    13
 42
0.0000000001
 43
0.0000000001
 44
0.00000001
 40
0.0
 40
0.0
 40
0.0
 40
0.0
 40
0.2323383481415025
 40
0.4652125957553858
 40
0.6980761133052528
 40
0.9303535187359449
 40
1.04673346181351
 40
1.163080940900984
 40
1.279447997475851
 40
1.39580862957907
 40
1.512165904557289
 40
1.628566140401503
 40
1.745106920594212
 40
1.861351602857205
 40
1.861351602857205
 40
1.861351602857205
 40
1.861351602857205
 10
74.3583837995
 20
295.7429830569
 30
0.0
 10
74.35554017389413
 20
295.8204833705673
 30
0.0
 10
74.34984636372441
 20
295.9756627560689
 30
0.0
 10
74.30330938789237
 20
296.2046829700979
 30
0.0
 10
74.2284156421284
 20
296.4256085319867
 30
0.0
 10
74.13841833787149
 20
296.5983945961853
 30
0.0
 10
74.04976640006942
 20
296.725754521909
 30
0.0
 10
73.97446213571634
 20
296.814722420837
 30
0.0
 10
73.8903741618978
 20
296.895480090808
 30
0.0
 10
73.79760542806686
 20
296.9661646571918
 30
0.0
 10
73.69662961582125
 20
297.0247608813652
 30
0.0
 10
73.58844256630819
 20
297.0686141325221
 30
0.0
 10
73.4748334569539
 20
297.0970188919724
 30
0.0
 10
73.3971674221618
 20
297.1007053446194
 30
0.0
 10
73.3583837995
 20
297.1025462264
 30
0.0
 11
74.3583837995
 21
295.7429830569
 31
0.0
 11
74.34353764538221
 21
295.9748465937596
 31
0.0
 11
74.29857764379359
 21
296.203339511503
 31
0.0
 11
74.22281916511122
 21
296.4235350398714
 31
0.0
 11
74.1149287539336
 21
296.6292349481104
 31
0.0
 11
74.0483014300894
 21
296.7246555479203
 31
0.0
 11
73.97300197352259
 21
296.8133501234634
 31
0.0
 11
73.88892610719215
 21
296.8938022244719
 31
0.0
 11
73.79623828122277
 21
296.9641496737542
 31
0.0
 11
73.69544984631818
 21
297.0222935197729
 31
0.0
 11
73.5875771175266
 21
297.0660255365071
 31
0.0
 11
73.4742538289727
 21
297.093220861827
 31
0.0
 11
73.3583837995
 21
297.1025462264
 31
0.0
  0
SPLINE
  5
101
330
1F
100
AcDbEntity
  8
BEZUGSACHSEN
  6
Continuous
 62
     7
100
AcDbSpline
210
0.0
220
0.0
230
1.0
 70
     8
 71
     3
 72
    11
 73
     7
 74
     5
 42
0.0000000001
 43
0.0000000001
 44
0.00000001
 40
0.0
 40
0.0
 40
0.0
 40
0.0
 40
0.5462907431305873
 40
1.093000863661024
 40
1.646070107200486
 40
2.198197048713484
 40
2.198197048713484
 40
2.198197048713484
 40
2.198197048713484
 10
12.0372297464
 20
345.6349268101
 30
0.0
 10
12.10030054826601
 20
345.4639951808654
 30
0.0
 10
12.22649057029769
 20
345.1220007013145
 30
0.0
 10
12.3661278833146
 20
344.5907265720795
 30
0.0
 10
12.4636162473274
 20
344.0473021671289
 30
0.0
 10
12.47679836184617
 20
343.678717526581
 30
0.0
 10
12.4833837995
 20
343.4945823359
 30
0.0
 11
12.0372297464
 21
345.6349268101
 31
0.0
 11
12.21808107902919
 21
345.1194402714626
 31
0.0
 11
12.35857256372751
 21
344.5910899155266
 31
0.0
 11
12.45063921695792
 21
344.045737442797
 31
0.0
 11
12.4833837995
 21
343.4945823359
 31
0.0
  0
SPLINE
  5
102
330
1F
100
AcDbEntity
  8
BEZUGSACHSEN
  6
Continuous
 62
     7
100
AcDbSpline
210
0.0
220
0.0
230
1.0
 70
     8
 71
     3
 72
    19
 73
    15
 74
    13
 42
0.0000000001
 43
0.0000000001
 44
0.00000001
 40
0.0
 40
0.0
 40
0.0
 40
0.0
 40
0.1462385988370394
 40
0.2927479275070156
 40
0.4364790706343888
 40
0.5801659236722724
 40
0.7203799973230389
 40
0.8606059383094713
 40
0.9980411884241487
 40
1.135484020452089
 40
1.405415631095956
 40
1.675815514093639
 40
1.943997429529537
 40
2.211934834756336
 40
2.211934834756336
 40
2.211934834756336
 40
2.211934834756336
 10
10.4833837995
 20
346.9835743975
 30
0.0
 10
10.53209860485807
 20
346.9868824748474
 30
0.0
 10
10.62961840073203
 20
346.9935047537481
 30
0.0
 10
10.77495466105052
 20
346.9771454409726
 30
0.0
 10
10.91561159815752
 20
346.941973674865
 30
0.0
 10
11.04846373160873
 20
346.8891679882208
 30
0.0
 10
11.17291819469098
 20
346.821496200499
 30
0.0
 10
11.28772075186877
 20
346.742195999124
 30
0.0
 10
11.39383068963513
 20
346.6531113595433
 30
0.0
 10
11.522933154783
 20
346.5251638239643
 30
0.0
 10
11.66597300466121
 20
346.3493615350558
 30
0.0
 10
11.81088060635635
 20
346.1216760691769
 30
0.0
 10
11.93551735479886
 20
345.8830134497067
 30
0.0
 10
12.00333592596728
 20
345.7175972092739
 30
0.0
 10
12.0372297464
 20
345.6349268101
 30
0.0
 11
10.4833837995
 21
346.9835743975
 31
0.0
 11
10.6295176613782
 21
346.9891081306328
 31
0.0
 11
10.77522702219025
 21
346.9738187369538
 31
0.0
 11
10.91465710372802
 21
346.938920400789
 31
0.0
 11
11.04828944066896
 21
346.8861159477606
 31
0.0
 11
11.17160323150043
 21
346.8193799346903
 31
0.0
 11
11.28713434283014
 21
346.7399074435978
 31
0.0
 11
11.39254689259299
 21
346.6517221708671
 31
0.0
 11
11.4903353962605
 21
346.5551409065022
 31
0.0
 11
11.66158379212176
 21
346.3464855415107
 31
0.0
 11
11.80792621265233
 21
346.1191092175928
 31
0.0
 11
11.9317938384591
 21
345.8812471755519
 31
0.0
 11
12.0372297464
 21
345.6349268101
 31
0.0
  0
SPLINE
  5
103
330
1F
100
AcDbEntity
  8
BEZUGSACHSEN
  6
Continuous
 62
     7
100
AcDbSpline
210
0.0
220
0.0
230
1.0
 70
     8
 71
     3
 72
    11
 73
     7
 74
     5
 42
0.0000000001
 43
0.0000000001
 44
0.00000001
 40
0.0
 40
0.0
 40
0.0
 40
0.0
 40
0.5521269407036403
 40
1.105196183339711
 40
1.651906304698668
 40
2.198197048720092
 40
2.198197048720092
 40
2.198197048720092
 40
2.198197048720092
 10
12.4833837995
 20
317.7552712843
 30
0.0
 10
12.47679836187225
 20
317.5711360938891
 30
0.0
 10
12.4636162474068
 20
317.2025514539123
 30
0.0
 10
12.36612788360955
 20
316.6591270492271
 30
0.0
 10
12.22649057057706
 20
316.1278529197099
 30
0.0
 10
12.10030054836154
 20
315.7858584396159
 30
0.0
 10
12.0372297464
 20
315.6149268101
 30
0.0
 11
12.4833837995
 21
317.7552712843
 31
0.0
 11
12.4506392170732
 21
317.204116178207
 31
0.0
 11
12.35857256412982
 21
316.6587637063451
 31
0.0
 11
12.21808107929641
 21
316.1304133495877
 31
0.0
 11
12.0372297464
 21
315.6149268101
 31
0.0
  0
SPLINE
  5
104
330
1F
100
AcDbEntity
  8
BEZUGSACHSEN
  6
Continuous
 62
     7
100
AcDbSpline
210
0.0
220
0.0
230
1.0
 70
     8
 71
     3
 72
    19
 73
    15
 74
    13
 42
0.0000000001
 43
0.0000000001
 44
0.00000001
 40
0.0
 40
0.0
 40
0.0
 40
0.0
 40
0.2679411643010101
 40
0.5361267936528441
 40
0.8065304773370373
 40
1.076465993228363
 40
1.213913376165456
 40
1.351353104909304
 40
1.491586367091629
 40
1.631807897571304
 40
1.775491562760395
 40
1.919219204729511
 40
2.065713007390386
 40
2.211936409341221
 40
2.211936409341221
 40
2.211936409341221
 40
2.211936409341221
 10
12.0372297464
 20
315.6149268101
 30
0.0
 10
12.00333550263535
 20
315.5322552303939
 30
0.0
 10
11.93551609056316
 20
315.3668366428109
 30
0.0
 10
11.81087758427075
 20
315.1281706691553
 30
0.0
 10
11.66596678492877
 20
314.9004826731404
 30
0.0
 10
11.52292315338351
 20
314.7246781818144
 30
0.0
 10
11.39381676645453
 20
314.5967284626796
 30
0.0
 10
11.28770166737166
 20
314.5076414418662
 30
0.0
 10
11.1728922397165
 20
314.4283398015484
 30
0.0
 10
11.04843262749353
 20
314.3606693341185
 30
0.0
 10
10.91557907237917
 20
314.3078666474299
 30
0.0
 10
10.77492827350551
 20
314.2727003834411
 30
0.0
 10
10.62960289039667
 20
314.2563481815623
 30
0.0
 10
10.5320934713358
 20
314.2629709149282
 30
0.0
 10
10.4833837995
 20
314.2662792227
 30
0.0
 11
12.0372297464
 21
315.6149268101
 31
0.0
 11
11.93179248676856
 21
315.3686029342609
 31
0.0
 11
11.80792297120444
 21
315.1307376889964
 31
0.0
 11
11.66157748488708
 21
314.9033588184201
 31
0.0
 11
11.49032529373
 21
314.6947015162153
 31
0.0
 11
11.39253285502199
 21
314.5981177597766
 31
0.0
 11
11.28711586574157
 21
314.509930813984
 31
0.0
 11
11.17157722201886
 21
314.4304563550112
 31
0.0
 11
11.04825521213798
 21
314.3637198620782
 31
0.0
 11
10.91462452396829
 21
314.3109199111174
 31
0.0
 11
10.77519682277252
 21
314.2760264847269
 31
0.0
 11
10.62950238422226
 21
314.2607436579737
 31
0.0
 11
10.4833837995
 21
314.2662792227
 31
0.0
  0
SPLINE
  5
105
330
1F
100
AcDbEntity
  8
BEZUGSACHSEN
  6
Continuous
 62
     7
100
AcDbSpline
210
0.0
220
0.0
230
1.0
 70
     8
 71
     3
 72
    47
 73
    43
 74
    41
 42
0.0000000001
 43
0.0000000001
 44
0.00000001
 40
0.0
 40
0.0
 40
0.0
 40
0.0
 40
0.6366022432335555
 40
1.273595002182746
 40
1.592921746402411
 40
1.912076344897137
 40
2.23139229044996
 40
2.550826842773444
 40
3.189774321199117
 40
3.829081697019233
 40
4.468337152530816
 40
5.10722174480876
 40
5.426176341299858
 40
5.745033356846677
 40
6.063356731625455
 40
6.381780214938521
 40
7.017059195731568
 40
7.652639341047712
 40
8.28753221428733
 40
8.922347946549268
 40
9.55922674863362
 40
10.19613435943236
 40
10.83451785509274
 40
11.47287689978886
 40
12.112344873678
 40
12.75189588949499
 40
13.39354300521159
 40
14.03487957357695
 40
14.35615205773479
 40
14.67732107714195
 40
14.99840882476248
 40
15.3195960412738
 40
15.96011121034805
 40
16.60099592097439
 40
17.23809108087153
 40
17.87482555209758
 40
18.19205670342569
 40
18.50917199109417
 40
18.82571084635713
 40
19.14241581832474
 40
19.77338975000353
 40
20.40398930747163
 40
20.40398930747163
 40
20.40398930747163
 40
20.40398930747163
 10
30.9839682052
 20
330.6249267906
 30
0.0
 10
30.98997384908529
 20
330.8372066003126
 30
0.0
 10
31.00198882094327
 20
331.2618964401423
 30
0.0
 10
31.08325416615813
 20
331.7880392012582
 30
0.0
 10
31.17597376275967
 20
332.2030135773692
 30
0.0
 10
31.26126672690392
 20
332.5108375530675
 30
0.0
 10
31.36150534034137
 20
332.8141302298623
 30
0.0
 10
31.51499088948913
 20
333.2115675924169
 30
0.0
 10
31.74346283626327
 20
333.6936671693011
 30
0.0
 10
32.07307779682439
 20
334.2424830421322
 30
0.0
 10
32.45530501391621
 20
334.7560185814755
 30
0.0
 10
32.81415971104164
 20
335.1505213435599
 30
0.0
 10
33.12311306460836
 20
335.4433946416065
 30
0.0
 10
33.3650081735835
 20
335.6511164627215
 30
0.0
 10
33.61665142706921
 20
335.8466258598542
 30
0.0
 10
33.963945534226
 20
336.0901210625289
 30
0.0
 10
34.41968586898649
 20
336.3620031325735
 30
0.0
 10
34.99516529367619
 20
336.6333322450893
 30
0.0
 10
35.5942760588389
 20
336.8471158759031
 30
0.0
 10
36.21172646130177
 20
337.0018056072751
 30
0.0
 10
36.84199702300116
 20
337.0956125909265
 30
0.0
 10
37.47959095773088
 20
337.1277393157322
 30
0.0
 10
38.11776960195807
 20
337.0973097427834
 30
0.0
 10
38.75078202313593
 20
337.0046384876206
 30
0.0
 10
39.37201570754813
 20
336.8501465263909
 30
0.0
 10
39.97615145950004
 20
336.6351093938458
 30
0.0
 10
40.55663053306304
 20
336.3611860281169
 30
0.0
 10
41.0162595572847
 20
336.0860191500595
 30
0.0
 10
41.36615854595028
 20
335.8394094512004
 30
0.0
 10
41.61929017511036
 20
335.6415052588279
 30
0.0
 10
41.86228881448866
 20
335.4313267294294
 30
0.0
 10
42.17153315802776
 20
335.1358073892815
 30
0.0
 10
42.52985334884499
 20
334.738336406518
 30
0.0
 10
42.90980376717781
 20
334.2226696449583
 30
0.0
 10
43.23627679674928
 20
333.6730734884801
 30
0.0
 10
43.46164793671105
 20
333.1919679467683
 30
0.0
 10
43.61273891986201
 20
332.7959777591514
 30
0.0
 10
43.71115183741099
 20
332.4945514083688
 30
0.0
 10
43.79481861558311
 20
332.1888560404519
 30
0.0
 10
43.88563797302637
 20
331.7773040227363
 30
0.0
 10
43.96515294869977
 20
331.2558788062142
 30
0.0
 10
43.9769252333155
 20
330.8352025170553
 30
0.0
 10
43.9828096289
 20
330.6249267907
 30
0.0
 11
30.9839682052
 21
330.6249267906
 31
0.0
 11
31.01521687623981
 21
331.2607616250093
 31
0.0
 11
31.10865807861341
 21
331.8908636140973
 31
0.0
 11
31.17859858564784
 21
332.2024368720154
 31
0.0
 11
31.26373992462399
 21
332.5100252497829
 31
0.0
 11
31.36396446276193
 21
332.8132045944608
 31
0.0
 11
31.47904435251398
 21
333.1111895809833
 31
0.0
 11
31.7526402467583
 21
333.6885968608466
 31
0.0
 11
32.08185976043644
 21
334.2366191529037
 31
0.0
 11
32.46348401578382
 21
334.7494646122108
 31
0.0
 11
32.89341865191263
 21
335.2220423633872
 31
0.0
 11
33.12489091297375
 21
335.4414794317736
 31
0.0
 11
33.36679331400103
 21
335.6492124930342
 31
0.0
 11
33.61816712115552
 21
335.8445096512501
 31
0.0
 11
33.87889639944743
 21
336.0273039568687
 31
0.0
 11
34.42443004365727
 21
336.3528380203284
 31
0.0
 11
34.99933986377597
 21
336.6238376879503
 31
0.0
 11
35.59728605152286
 21
336.8372605476665
 31
0.0
 11
36.21307858374634
 21
336.9915024718799
 31
0.0
 11
36.84301086572398
 21
337.0853104068685
 31
0.0
 11
37.47911398746164
 21
337.1173123319506
 31
0.0
 11
38.11677494647829
 21
337.0869480621991
 31
0.0
 11
38.74839247937432
 21
336.9944193526886
 31
0.0
 11
39.3689653514659
 21
336.8401189960659
 31
0.0
 11
39.97146615858637
 21
336.6256002806779
 31
0.0
 11
40.55177335495286
 21
336.3518219415919
 31
0.0
 11
41.1019983429988
 21
336.0223298226384
 31
0.0
 11
41.36460564714783
 21
335.8372530469896
 31
0.0
 11
41.61762610455064
 21
335.6394395308624
 31
0.0
 11
41.86047440594051
 21
335.4293870512672
 31
0.0
 11
42.09267684137622
 21
335.2074788336906
 31
0.0
 11
42.52159289913703
 21
334.7317786158968
 31
0.0
 11
42.90170355779664
 21
334.2157853024827
 31
0.0
 11
43.22714270348267
 21
333.6680813630962
 31
0.0
 11
43.49722356157827
 21
333.0914644045025
 31
0.0
 11
43.61031400675667
 21
332.7950758848492
 31
0.0
 11
43.70875811009501
 21
332.4936279387773
 31
0.0
 11
43.79224091547063
 21
332.188296204269
 31
0.0
 11
43.86079033891467
 21
331.8790988307121
 31
0.0
 11
43.95221741683921
 21
331.2547838526118
 31
0.0
 11
43.9828096289
 21
330.6249267907
 31
0.0
  0
SPLINE
  5
106
330
1F
100
AcDbEntity
  8
BEZUGSACHSEN
  6
Continuous
 62
     7
100
AcDbSpline
210
0.0
220
0.0
230
1.0
 70
     8
 71
     3
 72
    11
 73
     7
 74
     5
 42
0.0000000001
 43
0.0000000001
 44
0.00000001
 40
0.0
 40
0.0
 40
0.0
 40
0.0
 40
0.9140556660003301
 40
1.828030949185871
 40
2.279806974872709
 40
2.730944124783997
 40
2.730944124783997
 40
2.730944124783997
 40
2.730944124783997
 10
3.75033672638544
 20
315.614926810285
 30
0.0
 10
3.882991433349164
 20
315.8896434079517
 30
0.0
 10
4.148289181511453
 20
316.4390524444791
 30
0.0
 10
4.363644394819818
 20
317.1717633655834
 30
0.0
 10
4.467338608492442
 20
317.7697085716986
 30
0.0
 10
4.478037925948335
 20
318.0708317871361
 30
0.0
 10
4.48338379940937
 20
318.221286861728
 30
0.0
 11
3.75033672638544
 21
315.614926810285
 31
0.0
 11
4.125144256160892
 21
316.4486036518555
 31
0.0
 11
4.384435616558749
 21
317.3250275268709
 31
0.0
 11
4.457152590046042
 21
317.7709129596362
 31
0.0
 11
4.48338379940937
 21
318.221286861728
 31
0.0
  0
SPLINE
  5
107
330
1F
100
AcDbEntity
  8
BEZUGSACHSEN
  6
Continuous
 62
     7
100
AcDbSpline
210
0.0
220
0.0
230
1.0
 70
     8
 71
     3
 72
    11
 73
     7
 74
     5
 42
0.0000000001
 43
0.0000000001
 44
0.00000001
 40
0.0
 40
0.0
 40
0.0
 40
0.0
 40
0.8249192366888127
 40
1.650116891947737
 40
2.190492152310179
 40
2.730585915394927
 40
2.730585915394927
 40
2.730585915394927
 40
2.730585915394927
 10
4.48338379940937
 20
343.028566758472
 30
0.0
 10
4.46565049510388
 20
343.3037570504575
 30
0.0
 10
4.430177901323676
 20
343.8542305139301
 30
0.0
 10
4.221743084679469
 20
344.5589640990908
 30
0.0
 10
3.99151665370098
 20
345.1511778241708
 30
0.0
 10
3.830716070898908
 20
345.4737051576159
 30
0.0
 10
3.75033672638544
 20
345.634926809915
 30
0.0
 11
4.48338379940937
 21
343.028566758472
 31
0.0
 11
4.399808345372951
 21
343.8492414141924
 31
0.0
 11
4.181846903272488
 21
344.6451333540953
 31
0.0
 11
3.983911824713302
 21
345.147952533013
 31
0.0
 11
3.75033672638544
 21
345.634926809915
 31
0.0
  0
DIMENSION
  5
112
330
1F
100
AcDbEntity
  8
1
100
AcDbDimension
  2
*D2
 10
222.966603232249
 20
335.6249268101
 30
0.0
 11
219.216603232249
 21
330.621957284765
 31
0.0
 70
    32
  1
<>
 71
     5
 42
-1.0
 53
90.0
  3
ME10_DIM_10
100
AcDbAlignedDimension
 13
212.4833837995
 23
325.6249268101
 33
0.0
 14
212.4833837995
 24
335.6249268101
 34
0.0
 50
90.0
100
AcDbRotatedDimension
  0
DIMENSION
  5
11D
330
1F
100
AcDbEntity
  8
1
100
AcDbDimension
  2
*D3
 10
232.043346583301
 20
348.1249268101
 30
0.0
 11
228.293346583301
 21
331.183405327098
 31
0.0
 70
    32
  1
<>
 71
     5
 42
-1.0
 53
90.0
  3
ME10_DIM_11
100
AcDbAlignedDimension
 13
201.5391545343
 23
313.1249268101
 33
0.0
 14
201.5391545343
 24
348.1249268101
 34
0.0
 50
90.0
100
AcDbRotatedDimension
  0
DIMENSION
  5
128
330
1F
100
AcDbEntity
  8
1
100
AcDbDimension
  2
*D4
 10
212.4833837995
 20
387.498919579793
 30
0.0
 11
149.320805919475
 21
391.248919579793
 31
0.0
 70
    32
  1
<>
 71
     5
 42
-1.0
 53
0.00013888888889
  3
ME10_DIM_12
100
AcDbAlignedDimension
 13
81.4833837995
 23
380.624889889
 33
0.0
 14
212.4833837995
 24
342.4878565493
 34
0.0
100
AcDbRotatedDimension
  0
DIMENSION
  5
133
330
1F
100
AcDbEntity
  8
1
100
AcDbDimension
  2
*D5
 10
212.4833837995
 20
394.613053594292
 30
0.0
 11
132.271415781279
 21
398.363053594292
 31
0.0
 70
    32
  1
<>
 71
     5
 42
-1.0
 53
0.00013888888889
  3
ME10_DIM_13
100
AcDbAlignedDimension
 13
52.4833837995
 23
380.6249268101
 33
0.0
 14
212.4833837995
 24
342.4878565493
 34
0.0
100
AcDbRotatedDimension
  0
DIMENSION
  5
13E
330
1F
100
AcDbEntity
  8
1
100
AcDbDimension
  2
*D6
 10
212.4833837995
 20
402.063331207655
 30
0.0
 11
120.835688078325
 21
405.813331207655
 31
0.0
 70
    32
  1
<>
 71
     5
 42
-1.0
 53
0.00013888888889
  3
ME10_DIM_14
100
AcDbAlignedDimension
 13
2.4833837995
 23
364.2251183727
 33
0.0
 14
212.4833837995
 24
342.4878565493
 34
0.0
100
AcDbRotatedDimension
  0
INSERT
  5
145
330
1F
100
AcDbEntity
  8
1
100
AcDbBlockReference
  2
*D7
 10
0.0
 20
0.0
 30
0.0
  0
ENDSEC
  0
SECTION
  2
OBJECTS
  0
DICTIONARY
  5
C
330
0
100
AcDbDictionary
281
     1
  3
ACAD_GROUP
350
D
  3
ACAD_LAYOUT
350
1A
  3
ACAD_MLEADERSTYLE
350
148
  3
ACAD_MLINESTYLE
350
17
  3
ACAD_PLOTSETTINGS
350
19
  3
ACAD_PLOTSTYLENAME
350
E
  3
ACAD_SCALELIST
350
4B
  3
ACAD_VISUALSTYLE
350
2A
  3
AcDbVariableDictionary
350
146
  0
DICTIONARY
  5
D
102
{ACAD_REACTORS
330
C
102
}
330
C
100
AcDbDictionary
281
     1
  0
DICTIONARY
  5
1A
102
{ACAD_REACTORS
330
C
102
}
330
C
100
AcDbDictionary
281
     1
  3
Layout1
350
1E
  3
Layout2
350
26
  3
Model
350
22
  0
DICTIONARY
  5
148
102
{ACAD_REACTORS
330
C
102
}
330
C
100
AcDbDictionary
281
     1
  0
DICTIONARY
  5
17
102
{ACAD_REACTORS
330
C
102
}
330
C
100
AcDbDictionary
281
     1
  3
Standard
350
18
  0
DICTIONARY
  5
19
102
{ACAD_REACTORS
330
C
102
}
330
C
100
AcDbDictionary
281
     1
  0
ACDBDICTIONARYWDFLT
  5
E
102
{ACAD_REACTORS
330
C
102
}
330
C
100
AcDbDictionary
281
     1
  3
Normal
350
F
100
AcDbDictionaryWithDefault
340
F
  0
DICTIONARY
  5
4B
102
{ACAD_REACTORS
330
C
102
}
330
C
100
AcDbDictionary
281
     1
  3
A0
350
4C
  3
A1
350
4D
  3
A2
350
4E
  3
A3
350
4F
  3
A4
350
50
  3
A5
350
51
  3
A6
350
52
  3
A7
350
53
  3
A8
350
54
  3
A9
350
55
  3
B0
350
56
  3
B1
350
57
  3
B2
350
58
  3
B3
350
59
  3
B4
350
5A
  3
B5
350
5B
  3
B6
350
5C
  3
B7
350
5D
  3
B8
350
5E
  3
B9
350
5F
  3
C0
350
60
  3
C1
350
61
  3
C2
350
62
  3
C3
350
63
  3
C4
350
64
  3
C5
350
65
  3
C6
350
66
  3
C7
350
67
  3
C8
350
68
  3
C9
350
69
  3
D0
350
6A
  3
D1
350
6B
  3
D2
350
6C
  0
DICTIONARY
  5
2A
102
{ACAD_REACTORS
330
C
102
}
330
C
100
AcDbDictionary
281
     1
  3
2dWireframe
350
2F
  3
3D Hidden
350
31
  3
3dWireframe
350
30
  3
Basic
350
32
  3
Brighten
350
36
  3
ColorChange
350
3A
  3
Conceptual
350
34
  3
Dim
350
35
  3
Facepattern
350
39
  3
Flat
350
2B
  3
FlatWithEdges
350
2C
  3
Gouraud
350
2D
  3
GouraudWithEdges
350
2E
  3
Linepattern
350
38
  3
Realistic
350
33
  3
Thicken
350
37
  0
DICTIONARY
  5
146
102
{ACAD_REACTORS
330
C
102
}
330
C
100
AcDbDictionary
281
     1
  3
CANNOSCALE
350
149
  0
LAYOUT
  5
1E
102
{ACAD_REACTORS
330
1A
102
}
330
1A
100
AcDbPlotSettings
  1

  2
none_device
  4

  6

 40
0.0
 41
0.0
 42
0.0
 43
0.0
 44
0.0
 45
0.0
 46
0.0
 47
0.0
 48
0.0
 49
0.0
140
0.0
141
0.0
142
1.0
143
1.0
 70
   688
 72
     0
 73
     0
 74
     5
  7

 75
    16
147
1.0
148
0.0
149
0.0
100
AcDbLayout
  1
Layout1
 70
     1
 71
     1
 10
0.0
 20
0.0
 11
12.0
 21
9.0
 12
0.0
 22
0.0
 32
0.0
 14
1.00000000000000E+20
 24
1.00000000000000E+20
 34
1.00000000000000E+20
 15
-1.00000000000000E+20
 25
-1.00000000000000E+20
 35
-1.00000000000000E+20
146
0.0
 13
0.0
 23
0.0
 33
0.0
 16
1.0
 26
0.0
 36
0.0
 17
0.0
 27
1.0
 37
0.0
 76
     0
330
1B
  0
LAYOUT
  5
26
102
{ACAD_REACTORS
330
1A
102
}
330
1A
100
AcDbPlotSettings
  1

  2
none_device
  4

  6

 40
0.0
 41
0.0
 42
0.0
 43
0.0
 44
0.0
 45
0.0
 46
0.0
 47
0.0
 48
0.0
 49
0.0
140
0.0
141
0.0
142
1.0
143
1.0
 70
   688
 72
     0
 73
     0
 74
     5
  7

 75
    16
147
1.0
148
0.0
149
0.0
100
AcDbLayout
  1
Layout2
 70
     1
 71
     2
 10
0.0
 20
0.0
 11
0.0
 21
0.0
 12
0.0
 22
0.0
 32
0.0
 14
0.0
 24
0.0
 34
0.0
 15
0.0
 25
0.0
 35
0.0
146
0.0
 13
0.0
 23
0.0
 33
0.0
 16
1.0
 26
0.0
 36
0.0
 17
0.0
 27
1.0
 37
0.0
 76
     0
330
23
  0
LAYOUT
  5
22
102
{ACAD_REACTORS
330
1A
102
}
330
1A
100
AcDbPlotSettings
  1

  2
none_device
  4

  6

 40
0.0
 41
0.0
 42
0.0
 43
0.0
 44
0.0
 45
0.0
 46
0.0
 47
0.0
 48
0.0
 49
0.0
140
0.0
141
0.0
142
1.0
143
1.0
 70
  1712
 72
     0
 73
     0
 74
     0
  7

 75
     0
147
1.0
148
0.0
149
0.0
100
AcDbLayout
  1
Model
 70
     1
 71
     0
 10
0.0
 20
0.0
 11
12.0
 21
9.0
 12
0.0
 22
0.0
 32
0.0
 14
-19.92598538979053
 24
280.6249268101
 34
0.0
 15
234.043346583301
 25
407.563331207655
 35
0.0
146
0.0
 13
0.0
 23
0.0
 33
0.0
 16
1.0
 26
0.0
 36
0.0
 17
0.0
 27
1.0
 37
0.0
 76
     0
330
1F
331
29
  0
MLINESTYLE
  5
18
102
{ACAD_REACTORS
330
17
102
}
330
17
100
AcDbMlineStyle
  2
Standard
 70
     0
  3

 62
   256
 51
90.0
 52
90.0
 71
     2
 49
0.5
 62
   256
  6
BYLAYER
 49
-0.5
 62
   256
  6
BYLAYER
  0
ACDBPLACEHOLDER
  5
F
102
{ACAD_REACTORS
330
E
102
}
330
E
  0
SCALE
  5
4C
102
{ACAD_REACTORS
330
4B
102
}
330
4B
100
AcDbScale
 70
     0
300
1:1
140
1.0
141
1.0
290
     1
  0
SCALE
  5
4D
102
{ACAD_REACTORS
330
4B
102
}
330
4B
100
AcDbScale
 70
     0
300
1:2
140
1.0
141
2.0
290
     0
  0
SCALE
  5
4E
102
{ACAD_REACTORS
330
4B
102
}
330
4B
100
AcDbScale
 70
     0
300
1:4
140
1.0
141
4.0
290
     0
  0
SCALE
  5
4F
102
{ACAD_REACTORS
330
4B
102
}
330
4B
100
AcDbScale
 70
     0
300
1:5
140
1.0
141
5.0
290
     0
  0
SCALE
  5
50
102
{ACAD_REACTORS
330
4B
102
}
330
4B
100
AcDbScale
 70
     0
300
1:8
140
1.0
141
8.0
290
     0
  0
SCALE
  5
51
102
{ACAD_REACTORS
330
4B
102
}
330
4B
100
AcDbScale
 70
     0
300
1:10
140
1.0
141
10.0
290
     0
  0
SCALE
  5
52
102
{ACAD_REACTORS
330
4B
102
}
330
4B
100
AcDbScale
 70
     0
300
1:16
140
1.0
141
16.0
290
     0
  0
SCALE
  5
53
102
{ACAD_REACTORS
330
4B
102
}
330
4B
100
AcDbScale
 70
     0
300
1:20
140
1.0
141
20.0
290
     0
  0
SCALE
  5
54
102
{ACAD_REACTORS
330
4B
102
}
330
4B
100
AcDbScale
 70
     0
300
1:30
140
1.0
141
30.0
290
     0
  0
SCALE
  5
55
102
{ACAD_REACTORS
330
4B
102
}
330
4B
100
AcDbScale
 70
     0
300
1:40
140
1.0
141
40.0
290
     0
  0
SCALE
  5
56
102
{ACAD_REACTORS
330
4B
102
}
330
4B
100
AcDbScale
 70
     0
300
1:50
140
1.0
141
50.0
290
     0
  0
SCALE
  5
57
102
{ACAD_REACTORS
330
4B
102
}
330
4B
100
AcDbScale
 70
     0
300
1:100
140
1.0
141
100.0
290
     0
  0
SCALE
  5
58
102
{ACAD_REACTORS
330
4B
102
}
330
4B
100
AcDbScale
 70
     0
300
2:1
140
2.0
141
1.0
290
     0
  0
SCALE
  5
59
102
{ACAD_REACTORS
330
4B
102
}
330
4B
100
AcDbScale
 70
     0
300
4:1
140
4.0
141
1.0
290
     0
  0
SCALE
  5
5A
102
{ACAD_REACTORS
330
4B
102
}
330
4B
100
AcDbScale
 70
     0
300
8:1
140
8.0
141
1.0
290
     0
  0
SCALE
  5
5B
102
{ACAD_REACTORS
330
4B
102
}
330
4B
100
AcDbScale
 70
     0
300
10:1
140
10.0
141
1.0
290
     0
  0
SCALE
  5
5C
102
{ACAD_REACTORS
330
4B
102
}
330
4B
100
AcDbScale
 70
     0
300
100:1
140
100.0
141
1.0
290
     0
  0
SCALE
  5
5D
102
{ACAD_REACTORS
330
4B
102
}
330
4B
100
AcDbScale
 70
     0
300
1/128" = 1'-0"
140
0.0078125
141
12.0
290
     0
  0
SCALE
  5
5E
102
{ACAD_REACTORS
330
4B
102
}
330
4B
100
AcDbScale
 70
     0
300
1/64" = 1'-0"
140
0.015625
141
12.0
290
     0
  0
SCALE
  5
5F
102
{ACAD_REACTORS
330
4B
102
}
330
4B
100
AcDbScale
 70
     0
300
1/32" = 1'-0"
140
0.03125
141
12.0
290
     0
  0
SCALE
  5
60
102
{ACAD_REACTORS
330
4B
102
}
330
4B
100
AcDbScale
 70
     0
300
1/16" = 1'-0"
140
0.0625
141
12.0
290
     0
  0
SCALE
  5
61
102
{ACAD_REACTORS
330
4B
102
}
330
4B
100
AcDbScale
 70
     0
300
3/32" = 1'-0"
140
0.09375
141
12.0
290
     0
  0
SCALE
  5
62
102
{ACAD_REACTORS
330
4B
102
}
330
4B
100
AcDbScale
 70
     0
300
1/8" = 1'-0"
140
0.125
141
12.0
290
     0
  0
SCALE
  5
63
102
{ACAD_REACTORS
330
4B
102
}
330
4B
100
AcDbScale
 70
     0
300
3/16" = 1'-0"
140
0.1875
141
12.0
290
     0
  0
SCALE
  5
64
102
{ACAD_REACTORS
330
4B
102
}
330
4B
100
AcDbScale
 70
     0
300
1/4" = 1'-0"
140
0.25
141
12.0
290
     0
  0
SCALE
  5
65
102
{ACAD_REACTORS
330
4B
102
}
330
4B
100
AcDbScale
 70
     0
300
3/8" = 1'-0"
140
0.375
141
12.0
290
     0
  0
SCALE
  5
66
102
{ACAD_REACTORS
330
4B
102
}
330
4B
100
AcDbScale
 70
     0
300
1/2" = 1'-0"
140
0.5
141
12.0
290
     0
  0
SCALE
  5
67
102
{ACAD_REACTORS
330
4B
102
}
330
4B
100
AcDbScale
 70
     0
300
3/4" = 1'-0"
140
0.75
141
12.0
290
     0
  0
SCALE
  5
68
102
{ACAD_REACTORS
330
4B
102
}
330
4B
100
AcDbScale
 70
     0
300
1" = 1'-0"
140
1.0
141
12.0
290
     0
  0
SCALE
  5
69
102
{ACAD_REACTORS
330
4B
102
}
330
4B
100
AcDbScale
 70
     0
300
1-1/2" = 1'-0"
140
1.5
141
12.0
290
     0
  0
SCALE
  5
6A
102
{ACAD_REACTORS
330
4B
102
}
330
4B
100
AcDbScale
 70
     0
300
3" = 1'-0"
140
3.0
141
12.0
290
     0
  0
SCALE
  5
6B
102
{ACAD_REACTORS
330
4B
102
}
330
4B
100
AcDbScale
 70
     0
300
6" = 1'-0"
140
6.0
141
12.0
290
     0
  0
SCALE
  5
6C
102
{ACAD_REACTORS
330
4B
102
}
330
4B
100
AcDbScale
 70
     0
300
1'-0" = 1'-0"
140
12.0
141
12.0
290
     0
  0
VISUALSTYLE
  5
2F
102
{ACAD_REACTORS
330
2A
102
}
330
2A
100
AcDbVisualStyle
  2
2dWireframe
 70
     4
 71
     0
 72
     2
 73
     0
 90
        0
 40
-0.6
 41
-30.0
 62
     5
 63
     7
 74
     1
 91
        4
 64
     7
 65
   257
 75
     1
175
     1
 42
1.0
 92
        0
 66
   257
 43
1.0
 76
     1
 77
     6
 78
     2
 67
     7
 79
     5
170
     0
171
     0
290
     0
174
     0
 93
        1
 44
0.0
173
     0
291
     0
 45
0.0
1001
ACAD
1000
AcDbSavedByObjectVersion
1070
     0
  0
VISUALSTYLE
  5
31
102
{ACAD_REACTORS
330
2A
102
}
330
2A
100
AcDbVisualStyle
  2
3D Hidden
 70
     6
 71
     1
 72
     2
 73
     2
 90
        0
 40
-0.6
 41
-30.0
 62
     5
 63
     7
 74
     2
 91
        2
 64
     7
 65
   257
 75
     2
175
     1
 42
40.0
 92
        0
 66
   257
 43
1.0
 76
     1
 77
     6
 78
     2
 67
     7
 79
     3
170
     0
171
     0
290
     0
174
     0
 93
        1
 44
0.0
173
     0
291
     0
 45
0.0
1001
ACAD
1000
AcDbSavedByObjectVersion
1070
     0
  0
VISUALSTYLE
  5
30
102
{ACAD_REACTORS
330
2A
102
}
330
2A
100
AcDbVisualStyle
  2
3dWireframe
 70
     5
 71
     0
 72
     2
 73
     0
 90
        0
 40
-0.6
 41
-30.0
 62
     5
 63
     7
 74
     1
 91
        4
 64
     7
 65
   257
 75
     1
175
     1
 42
1.0
 92
        0
 66
   257
 43
1.0
 76
     1
 77
     6
 78
     2
 67
     7
 79
     5
170
     0
171
     0
290
     0
174
     0
 93
        1
 44
0.0
173
     0
291
     0
 45
0.0
1001
ACAD
1000
AcDbSavedByObjectVersion
1070
     0
  0
VISUALSTYLE
  5
32
102
{ACAD_REACTORS
330
2A
102
}
330
2A
100
AcDbVisualStyle
  2
Basic
 70
     7
 71
     1
 72
     0
 73
     1
 90
        0
 40
-0.6
 41
-30.0
 62
     5
 63
     7
 74
     0
 91
        4
 64
     7
 65
   257
 75
     1
175
     1
 42
1.0
 92
        8
 66
     7
 43
1.0
 76
     1
 77
     6
 78
     2
 67
     7
 79
     5
170
     0
171
     0
290
     0
174
     0
 93
        1
 44
0.0
173
     0
291
     1
 45
0.0
1001
ACAD
1000
AcDbSavedByObjectVersion
1070
     0
  0
VISUALSTYLE
  5
36
102
{ACAD_REACTORS
330
2A
102
}
330
2A
100
AcDbVisualStyle
  2
Brighten
 70
    12
 71
     2
 72
     2
 73
     0
 90
        0
 40
-0.6
 41
-30.0
 62
     5
 63
     7
 74
     1
 91
        4
 64
     7
 65
   257
 75
     1
175
     1
 42
1.0
 92
        8
 66
     7
 43
1.0
 76
     1
 77
     6
 78
     2
 67
     7
 79
     5
170
     0
171
     0
290
     0
174
     0
 93
        1
 44
50.0
173
     0
291
     1
 45
0.0
1001
ACAD
1000
AcDbSavedByObjectVersion
1070
     0
  0
VISUALSTYLE
  5
3A
102
{ACAD_REACTORS
330
2A
102
}
330
2A
100
AcDbVisualStyle
  2
ColorChange
 70
    16
 71
     2
 72
     2
 73
     3
 90
        0
 40
-0.6
 41
-30.0
 62
     5
 63
     8
 74
     1
 91
        4
 64
     7
 65
   257
 75
     1
175
     1
 42
1.0
 92
        8
 66
     8
 43
1.0
 76
     1
 77
     6
 78
     2
 67
     7
 79
     5
170
     0
171
     0
290
     0
174
     0
 93
        1
 44
0.0
173
     0
291
     1
 45
0.0
1001
ACAD
1000
AcDbSavedByObjectVersion
1070
     0
  0
VISUALSTYLE
  5
34
102
{ACAD_REACTORS
330
2A
102
}
330
2A
100
AcDbVisualStyle
  2
Conceptual
 70
     9
 71
     3
 72
     2
 73
     0
 90
        0
 40
-0.6
 41
-30.0
 62
     5
 63
     7
 74
     2
 91
        2
 64
     7
 65
   257
 75
     1
175
     1
 42
40.0
 92
        8
 66
     7
 43
1.0
 76
     1
 77
     6
 78
     2
 67
     7
 79
     3
170
     0
171
     0
290
     0
174
     0
 93
        1
 44
0.0
173
     0
291
     0
 45
0.0
1001
ACAD
1000
AcDbSavedByObjectVersion
1070
     0
  0
VISUALSTYLE
  5
35
102
{ACAD_REACTORS
330
2A
102
}
330
2A
100
AcDbVisualStyle
  2
Dim
 70
    11
 71
     2
 72
     2
 73
     0
 90
        0
 40
-0.6
 41
-30.0
 62
     5
 63
     7
 74
     1
 91
        4
 64
     7
 65
   257
 75
     1
175
     1
 42
1.0
 92
        8
 66
     7
 43
1.0
 76
     1
 77
     6
 78
     2
 67
     7
 79
     5
170
     0
171
     0
290
     0
174
     0
 93
        1
 44
-50.0
173
     0
291
     1
 45
0.0
1001
ACAD
1000
AcDbSavedByObjectVersion
1070
     0
  0
VISUALSTYLE
  5
39
102
{ACAD_REACTORS
330
2A
102
}
330
2A
100
AcDbVisualStyle
  2
Facepattern
 70
    15
 71
     2
 72
     2
 73
     0
 90
        0
 40
-0.6
 41
-30.0
 62
     5
 63
     7
 74
     1
 91
        4
 64
     7
 65
   257
 75
     1
175
     1
 42
1.0
 92
        8
 66
     7
 43
1.0
 76
     1
 77
     6
 78
     2
 67
     7
 79
     5
170
     0
171
     0
290
     0
174
     0
 93
        1
 44
0.0
173
     0
291
     1
 45
0.0
1001
ACAD
1000
AcDbSavedByObjectVersion
1070
     0
  0
VISUALSTYLE
  5
2B
102
{ACAD_REACTORS
330
2A
102
}
330
2A
100
AcDbVisualStyle
  2
Flat
 70
     0
 71
     2
 72
     1
 73
     1
 90
        2
 40
-0.6
 41
30.0
 62
     5
 63
     7
 74
     0
 91
        4
 64
     7
 65
   257
 75
     1
175
     1
 42
1.0
 92
        8
 66
     7
 43
1.0
 76
     1
 77
     6
 78
     2
 67
     7
 79
     5
170
     0
171
     0
290
     0
174
     0
 93
       13
 44
0.0
173
     0
291
     1
 45
0.0
1001
ACAD
1000
AcDbSavedByObjectVersion
1070
     0
  0
VISUALSTYLE
  5
2C
102
{ACAD_REACTORS
330
2A
102
}
330
2A
100
AcDbVisualStyle
  2
FlatWithEdges
 70
     1
 71
     2
 72
     1
 73
     1
 90
        2
 40
-0.6
 41
30.0
 62
     5
 63
     7
 74
     1
 91
        4
 64
     7
 65
   257
 75
     1
175
     1
 42
1.0
 92
        0
 66
   257
 43
1.0
 76
     1
 77
     6
 78
     2
 67
     7
 79
     5
170
     0
171
     0
290
     0
174
     0
 93
       13
 44
0.0
173
     0
291
     1
 45
0.0
1001
ACAD
1000
AcDbSavedByObjectVersion
1070
     0
  0
VISUALSTYLE
  5
2D
102
{ACAD_REACTORS
330
2A
102
}
330
2A
100
AcDbVisualStyle
  2
Gouraud
 70
     2
 71
     2
 72
     2
 73
     1
 90
        2
 40
-0.6
 41
30.0
 62
     5
 63
     7
 74
     0
 91
        4
 64
     7
 65
   257
 75
     1
175
     1
 42
1.0
 92
        0
 66
     7
 43
1.0
 76
     1
 77
     6
 78
     2
 67
     7
 79
     5
170
     0
171
     0
290
     0
174
     0
 93
       13
 44
0.0
173
     0
291
     1
 45
0.0
1001
ACAD
1000
AcDbSavedByObjectVersion
1070
     0
  0
VISUALSTYLE
  5
2E
102
{ACAD_REACTORS
330
2A
102
}
330
2A
100
AcDbVisualStyle
  2
GouraudWithEdges
 70
     3
 71
     2
 72
     2
 73
     1
 90
        2
 40
-0.6
 41
30.0
 62
     5
 63
     7
 74
     1
 91
        4
 64
     7
 65
   257
 75
     1
175
     1
 42
1.0
 92
        0
 66
   257
 43
1.0
 76
     1
 77
     6
 78
     2
 67
     7
 79
     5
170
     0
171
     0
290
     0
174
     0
 93
       13
 44
0.0
173
     0
291
     1
 45
0.0
1001
ACAD
1000
AcDbSavedByObjectVersion
1070
     0
  0
VISUALSTYLE
  5
38
102
{ACAD_REACTORS
330
2A
102
}
330
2A
100
AcDbVisualStyle
  2
Linepattern
 70
    14
 71
     2
 72
     2
 73
     0
 90
        0
 40
-0.6
 41
-30.0
 62
     5
 63
     7
 74
     1
 91
        4
 64
     7
 65
   257
 75
     7
175
     7
 42
1.0
 92
        8
 66
     7
 43
1.0
 76
     1
 77
     6
 78
     2
 67
     7
 79
     5
170
     0
171
     0
290
     0
174
     0
 93
        1
 44
0.0
173
     0
291
     1
 45
0.0
1001
ACAD
1000
AcDbSavedByObjectVersion
1070
     0
  0
VISUALSTYLE
  5
33
102
{ACAD_REACTORS
330
2A
102
}
330
2A
100
AcDbVisualStyle
  2
Realistic
 70
     8
 71
     2
 72
     2
 73
     0
 90
        0
 40
-0.6
 41
-30.0
 62
     5
 63
     7
 74
     1
 91
        0
 64
     7
 65
   257
 75
     1
175
     1
 42
1.0
 92
        8
 66
     8
 43
1.0
 76
     1
 77
     6
 78
     2
 67
     7
 79
     5
170
     0
171
     0
290
     0
174
     0
 93
       13
 44
0.0
173
     0
291
     0
 45
0.0
1001
ACAD
1000
AcDbSavedByObjectVersion
1070
     0
  0
VISUALSTYLE
  5
37
102
{ACAD_REACTORS
330
2A
102
}
330
2A
100
AcDbVisualStyle
  2
Thicken
 70
    13
 71
     2
 72
     2
 73
     0
 90
        0
 40
-0.6
 41
-30.0
 62
     5
 63
     7
 74
     1
 91
        4
 64
     7
 65
   257
 75
     1
175
     1
 42
1.0
 92
       12
 66
     7
 43
1.0
 76
     1
 77
     6
 78
     2
 67
     7
 79
     5
170
     0
171
     0
290
     0
174
     0
 93
        1
 44
0.0
173
     0
291
     1
 45
0.0
1001
ACAD
1000
AcDbSavedByObjectVersion
1070
     0
  0
DICTIONARYVAR
  5
149
102
{ACAD_REACTORS
330
146
102
}
330
146
100
DictionaryVariables
280
     0
  1
1:1
  0
ENDSEC
  0
EOF
