  0
SECTION
  2
HEADER
  9
$ACADVER
  1
AC1015
  9
$ACADMAINTVER
 70
     6
  9
$DWGCODEPAGE
  3
ANSI_1252
  9
$INSBASE
 10
0.0
 20
0.0
 30
0.0
  9
$EXTMIN
 10
17.0752543821729
 20
258.2385070931
 30
0.0
  9
$EXTMAX
 10
270.046794797691
 20
387.970620248996
 30
0.0
  9
$LIMMIN
 10
0.0
 20
0.0
  9
$LIMMAX
 10
12.0
 20
9.0
  9
$ORTHOMODE
 70
     0
  9
$REGENMODE
 70
     1
  9
$FILLMODE
 70
     1
  9
$QTEXTMODE
 70
     0
  9
$MIRRTEXT
 70
     1
  9
$LTSCALE
 40
1.0
  9
$ATTMODE
 70
     1
  9
$TEXTSIZE
 40
0.2
  9
$TRACEWID
 40
0.05
  9
$TEXTSTYLE
  7
Standard
  9
$CLAYER
  8
0
  9
$CELTYPE
  6
ByLayer
  9
$CECOLOR
 62
   256
  9
$CELTSCALE
 40
1.0
  9
$DISPSILH
 70
     0
  9
$DIMSCALE
 40
1.0
  9
$DIMASZ
 40
0.18
  9
$DIMEXO
 40
0.0625
  9
$DIMDLI
 40
0.38
  9
$DIMRND
 40
0.0
  9
$DIMDLE
 40
0.0
  9
$DIMEXE
 40
0.18
  9
$DIMTP
 40
0.0
  9
$DIMTM
 40
0.0
  9
$DIMTXT
 40
0.18
  9
$DIMCEN
 40
0.09
  9
$DIMTSZ
 40
0.0
  9
$DIMTOL
 70
     0
  9
$DIMLIM
 70
     0
  9
$DIMTIH
 70
     1
  9
$DIMTOH
 70
     1
  9
$DIMSE1
 70
     0
  9
$DIMSE2
 70
     0
  9
$DIMTAD
 70
     0
  9
$DIMZIN
 70
     0
  9
$DIMBLK
  1

  9
$DIMASO
 70
     1
  9
$DIMSHO
 70
     1
  9
$DIMPOST
  1

  9
$DIMAPOST
  1

  9
$DIMALT
 70
     0
  9
$DIMALTD
 70
     2
  9
$DIMALTF
 40
25.4
  9
$DIMLFAC
 40
1.0
  9
$DIMTOFL
 70
     0
  9
$DIMTVP
 40
0.0
  9
$DIMTIX
 70
     0
  9
$DIMSOXD
 70
     0
  9
$DIMSAH
 70
     0
  9
$DIMBLK1
  1

  9
$DIMBLK2
  1

  9
$DIMSTYLE
  2
Standard
  9
$DIMCLRD
 70
     0
  9
$DIMCLRE
 70
     0
  9
$DIMCLRT
 70
     0
  9
$DIMTFAC
 40
1.0
  9
$DIMGAP
 40
0.09
  9
$DIMJUST
 70
     0
  9
$DIMSD1
 70
     0
  9
$DIMSD2
 70
     0
  9
$DIMTOLJ
 70
     1
  9
$DIMTZIN
 70
     0
  9
$DIMALTZ
 70
     0
  9
$DIMALTTZ
 70
     0
  9
$DIMUPT
 70
     0
  9
$DIMDEC
 70
     4
  9
$DIMTDEC
 70
     4
  9
$DIMALTU
 70
     2
  9
$DIMALTTD
 70
     2
  9
$DIMTXSTY
  7
Standard
  9
$DIMAUNIT
 70
     0
  9
$DIMADEC
 70
     0
  9
$DIMALTRND
 40
0.0
  9
$DIMAZIN
 70
     0
  9
$DIMDSEP
 70
    46
  9
$DIMATFIT
 70
     3
  9
$DIMFRAC
 70
     0
  9
$DIMLDRBLK
  1

  9
$DIMLUNIT
 70
     2
  9
$DIMLWD
 70
    -2
  9
$DIMLWE
 70
    -2
  9
$DIMTMOVE
 70
     0
  9
$LUNITS
 70
     2
  9
$LUPREC
 70
     4
  9
$SKETCHINC
 40
0.1
  9
$FILLETRAD
 40
0.5
  9
$AUNITS
 70
     0
  9
$AUPREC
 70
     0
  9
$MENU
  1
.
  9
$ELEVATION
 40
0.0
  9
$PELEVATION
 40
0.0
  9
$THICKNESS
 40
0.0
  9
$LIMCHECK
 70
     0
  9
$CHAMFERA
 40
0.5
  9
$CHAMFERB
 40
0.5
  9
$CHAMFERC
 40
1.0
  9
$CHAMFERD
 40
0.0
  9
$SKPOLY
 70
     0
  9
$TDCREATE
 40
2456748.734708206
  9
$TDUCREATE
 40
2456748.651374873
  9
$TDUPDATE
 40
2456748.734708217
  9
$TDUUPDATE
 40
2456748.651374884
  9
$TDINDWG
 40
0.0000000116
  9
$TDUSRTIMER
 40
0.0000000116
  9
$USRTIMER
 70
     1
  9
$ANGBASE
 50
0.0
  9
$ANGDIR
 70
     0
  9
$PDMODE
 70
     0
  9
$PDSIZE
 40
0.0
  9
$PLINEWID
 40
0.0
  9
$SPLFRAME
 70
     0
  9
$SPLINETYPE
 70
     6
  9
$SPLINESEGS
 70
     8
  9
$HANDSEED
  5
14C
  9
$SURFTAB1
 70
     6
  9
$SURFTAB2
 70
     6
  9
$SURFTYPE
 70
     6
  9
$SURFU
 70
     6
  9
$SURFV
 70
     6
  9
$UCSBASE
  2

  9
$UCSNAME
  2

  9
$UCSORG
 10
0.0
 20
0.0
 30
0.0
  9
$UCSXDIR
 10
1.0
 20
0.0
 30
0.0
  9
$UCSYDIR
 10
0.0
 20
1.0
 30
0.0
  9
$UCSORTHOREF
  2

  9
$UCSORTHOVIEW
 70
     0
  9
$UCSORGTOP
 10
0.0
 20
0.0
 30
0.0
  9
$UCSORGBOTTOM
 10
0.0
 20
0.0
 30
0.0
  9
$UCSORGLEFT
 10
0.0
 20
0.0
 30
0.0
  9
$UCSORGRIGHT
 10
0.0
 20
0.0
 30
0.0
  9
$UCSORGFRONT
 10
0.0
 20
0.0
 30
0.0
  9
$UCSORGBACK
 10
0.0
 20
0.0
 30
0.0
  9
$PUCSBASE
  2

  9
$PUCSNAME
  2

  9
$PUCSORG
 10
0.0
 20
0.0
 30
0.0
  9
$PUCSXDIR
 10
1.0
 20
0.0
 30
0.0
  9
$PUCSYDIR
 10
0.0
 20
1.0
 30
0.0
  9
$PUCSORTHOREF
  2

  9
$PUCSORTHOVIEW
 70
     0
  9
$PUCSORGTOP
 10
0.0
 20
0.0
 30
0.0
  9
$PUCSORGBOTTOM
 10
0.0
 20
0.0
 30
0.0
  9
$PUCSORGLEFT
 10
0.0
 20
0.0
 30
0.0
  9
$PUCSORGRIGHT
 10
0.0
 20
0.0
 30
0.0
  9
$PUCSORGFRONT
 10
0.0
 20
0.0
 30
0.0
  9
$PUCSORGBACK
 10
0.0
 20
0.0
 30
0.0
  9
$USERI1
 70
     0
  9
$USERI2
 70
     0
  9
$USERI3
 70
     0
  9
$USERI4
 70
     0
  9
$USERI5
 70
     0
  9
$USERR1
 40
16.5
  9
$USERR2
 40
0.0
  9
$USERR3
 40
0.0
  9
$USERR4
 40
0.0
  9
$USERR5
 40
0.0
  9
$WORLDVIEW
 70
     1
  9
$SHADEDGE
 70
     3
  9
$SHADEDIF
 70
    70
  9
$TILEMODE
 70
     1
  9
$MAXACTVP
 70
    64
  9
$PINSBASE
 10
0.0
 20
0.0
 30
0.0
  9
$PLIMCHECK
 70
     0
  9
$PEXTMIN
 10
1.00000000000000E+20
 20
1.00000000000000E+20
 30
1.00000000000000E+20
  9
$PEXTMAX
 10
-1.00000000000000E+20
 20
-1.00000000000000E+20
 30
-1.00000000000000E+20
  9
$PLIMMIN
 10
0.0
 20
0.0
  9
$PLIMMAX
 10
12.0
 20
9.0
  9
$UNITMODE
 70
     0
  9
$VISRETAIN
 70
     1
  9
$PLINEGEN
 70
     0
  9
$PSLTSCALE
 70
     1
  9
$TREEDEPTH
 70
  3020
  9
$CMLSTYLE
  2
Standard
  9
$CMLJUST
 70
     0
  9
$CMLSCALE
 40
1.0
  9
$PROXYGRAPHICS
 70
     1
  9
$MEASUREMENT
 70
     1
  9
$CELWEIGHT
370
    -1
  9
$ENDCAPS
280
     0
  9
$JOINSTYLE
280
     0
  9
$LWDISPLAY
290
     0
  9
$INSUNITS
 70
     1
  9
$HYPERLINKBASE
  1

  9
$STYLESHEET
  1

  9
$XEDIT
290
     1
  9
$CEPSNTYPE
380
     0
  9
$PSTYLEMODE
290
     1
  9
$FINGERPRINTGUID
  2
{2C2EE417-B507-4579-A64A-544798369DC2}
  9
$VERSIONGUID
  2
{FAEB1C32-E019-11D5-929B-00C0DF256EC4}
  9
$EXTNAMES
290
     1
  9
$PSVPSCALE
 40
0.0
  9
$OLESTARTUP
290
     0
  0
ENDSEC
  0
SECTION
  2
CLASSES
  0
CLASS
  1
ACDBDICTIONARYWDFLT
  2
AcDbDictionaryWithDefault
  3
ObjectDBX Classes
 90
        0
280
     0
281
     0
  0
CLASS
  1
VISUALSTYLE
  2
AcDbVisualStyle
  3
ObjectDBX Classes
 90
     4095
280
     0
281
     0
  0
CLASS
  1
SCALE
  2
AcDbScale
  3
ObjectDBX Classes
 90
     1153
280
     0
281
     0
  0
CLASS
  1

  2
exOdDbPolyline
  3

 90
        0
280
     0
281
     1
  0
CLASS
  1

  2
exOdDbCircle
  3

 90
        0
280
     0
281
     1
  0
CLASS
  1

  2
exOdDbSpline
  3

 90
        0
280
     0
281
     1
  0
CLASS
  1
DICTIONARYVAR
  2
AcDbDictionaryVar
  3
ObjectDBX Classes
 90
        0
280
     0
281
     0
  0
CLASS
  1
ACDBPLACEHOLDER
  2
AcDbPlaceHolder
  3
ObjectDBX Classes
 90
        0
280
     0
281
     0
  0
CLASS
  1
LAYOUT
  2
AcDbLayout
  3
ObjectDBX Classes
 90
        0
280
     0
281
     0
  0
ENDSEC
  0
SECTION
  2
TABLES
  0
TABLE
  2
VPORT
  5
8
330
0
100
AcDbSymbolTable
 70
     1
  0
VPORT
  5
29
330
8
100
AcDbSymbolTableRecord
100
AcDbViewportTableRecord
  2
*Active
 70
     0
 10
0.0
 20
0.0
 11
1.0
 21
1.0
 12
143.5610245899319
 22
323.104563671048
 13
0.0
 23
0.0
 14
0.5
 24
0.5
 15
0.5
 25
0.5
 16
0.0
 26
0.0
 36
1.0
 17
0.0
 27
0.0
 37
0.0
 40
173.6272633938264
 41
1.60267857142857
 42
50.0
 43
0.0
 44
0.0
 50
0.0
 51
0.0
 71
     0
 72
   100
 73
     1
 74
     3
 75
     0
 76
     0
 77
     0
 78
     0
281
     0
 65
     1
110
0.0
120
0.0
130
0.0
111
1.0
121
0.0
131
0.0
112
0.0
122
1.0
132
0.0
 79
     0
146
0.0
  0
ENDTAB
  0
TABLE
  2
LTYPE
  5
5
330
0
100
AcDbSymbolTable
 70
     8
  0
LTYPE
  5
14
330
5
100
AcDbSymbolTableRecord
100
AcDbLinetypeTableRecord
  2
ByBlock
 70
     0
  3

 72
    65
 73
     0
 40
0.0
  0
LTYPE
  5
15
330
5
100
AcDbSymbolTableRecord
100
AcDbLinetypeTableRecord
  2
ByLayer
 70
     0
  3

 72
    65
 73
     0
 40
0.0
  0
LTYPE
  5
16
330
5
100
AcDbSymbolTableRecord
100
AcDbLinetypeTableRecord
  2
Continuous
 70
     0
  3
Solid line
 72
    65
 73
     0
 40
0.0
  0
LTYPE
  5
3B
330
5
100
AcDbSymbolTableRecord
100
AcDbLinetypeTableRecord
  2
DASHED
 70
     0
  3
Dashed
 72
    65
 73
     2
 40
15.0
 49
7.0
 74
     0
 49
-8.0
 74
     0
  0
LTYPE
  5
3C
330
5
100
AcDbSymbolTableRecord
100
AcDbLinetypeTableRecord
  2
DOTTED
 70
     0
  3
Dotted
 72
    65
 73
     2
 40
1.0
 49
0.0
 74
     0
 49
-1.0
 74
     0
  0
LTYPE
  5
3D
330
5
100
AcDbSymbolTableRecord
100
AcDbLinetypeTableRecord
  2
DOT_CENTER
 70
     0
  3
Dot_Center
 72
    65
 73
     4
 40
14.0
 49
12.0
 74
     0
 49
-1.0
 74
     0
 49
0.0
 74
     0
 49
-1.0
 74
     0
  0
LTYPE
  5
3E
330
5
100
AcDbSymbolTableRecord
100
AcDbLinetypeTableRecord
  2
LONG_DASHED
 70
     0
  3
Long_Dashed
 72
    65
 73
     2
 40
15.0
 49
10.0
 74
     0
 49
-5.0
 74
     0
  0
LTYPE
  5
3F
330
5
100
AcDbSymbolTableRecord
100
AcDbLinetypeTableRecord
  2
DASH_CENTER
 70
     0
  3
Dash_Center
 72
    65
 73
     4
 40
14.0
 49
11.0
 74
     0
 49
-1.0
 74
     0
 49
1.0
 74
     0
 49
-1.0
 74
     0
  0
LTYPE
  5
40
330
5
100
AcDbSymbolTableRecord
100
AcDbLinetypeTableRecord
  2
PHANTOM
 70
     0
  3
Phantom
 72
    65
 73
     6
 40
13.0
 49
10.0
 74
     0
 49
-1.0
 74
     0
 49
0.0
 74
     0
 49
-1.0
 74
     0
 49
0.0
 74
     0
 49
-1.0
 74
     0
  0
LTYPE
  5
41
330
5
100
AcDbSymbolTableRecord
100
AcDbLinetypeTableRecord
  2
CENTER_DASH_DASH
 70
     0
  3
Center_Dash_Dash
 72
    65
 73
     6
 40
14.0
 49
9.0
 74
     0
 49
-1.0
 74
     0
 49
1.0
 74
     0
 49
-1.0
 74
     0
 49
1.0
 74
     0
 49
-1.0
 74
     0
  0
ENDTAB
  0
TABLE
  2
LAYER
  5
2
330
0
100
AcDbSymbolTable
 70
     7
  0
LAYER
  5
10
330
2
100
AcDbSymbolTableRecord
100
AcDbLayerTableRecord
  2
0
 70
     0
 62
     7
  6
Continuous
370
    -3
390
F
  0
LAYER
  5
42
330
2
100
AcDbSymbolTableRecord
100
AcDbLayerTableRecord
  2
1
 70
     0
 62
     7
  6
Continuous
370
    -3
390
F
  0
LAYER
  5
43
330
2
100
AcDbSymbolTableRecord
100
AcDbLayerTableRecord
  2
BEZUGSACHSEN
 70
     0
 62
     7
  6
Continuous
370
    -3
390
F
  0
LAYER
  5
44
330
2
100
AcDbSymbolTableRecord
100
AcDbLayerTableRecord
  2
DEFAULT_2
 70
     0
 62
     7
  6
Continuous
370
    -3
390
F
  0
LAYER
  5
45
330
2
100
AcDbSymbolTableRecord
100
AcDbLayerTableRecord
  2
FASEN
 70
     0
 62
     7
  6
Continuous
370
    -3
390
F
  0
LAYER
  5
46
330
2
100
AcDbSymbolTableRecord
100
AcDbLayerTableRecord
  2
GEWINDE
 70
     0
 62
     7
  6
Continuous
370
    -3
390
F
  0
LAYER
  5
47
330
2
100
AcDbSymbolTableRecord
100
AcDbLayerTableRecord
  2
RUNDUNGEN
 70
     0
 62
     7
  6
Continuous
370
    -3
390
F
  0
ENDTAB
  0
TABLE
  2
STYLE
  5
3
330
0
100
AcDbSymbolTable
 70
     2
  0
STYLE
  5
11
330
3
100
AcDbSymbolTableRecord
100
AcDbTextStyleTableRecord
  2
Standard
 70
     0
 40
0.0
 41
1.0
 50
0.0
 71
     0
 42
0.2
  3
txt
  4

  0
STYLE
  5
6E
330
3
100
AcDbSymbolTableRecord
100
AcDbTextStyleTableRecord
  2
CONVERTER_11
 70
     0
 40
0.0
 41
0.72
 50
0.0
 71
     0
 42
0.2
  3
txt.shx
  4

  0
ENDTAB
  0
TABLE
  2
VIEW
  5
6
330
0
100
AcDbSymbolTable
 70
     0
  0
ENDTAB
  0
TABLE
  2
UCS
  5
7
330
0
100
AcDbSymbolTable
 70
     0
  0
ENDTAB
  0
TABLE
  2
APPID
  5
9
330
0
100
AcDbSymbolTable
 70
     1
  0
APPID
  5
12
330
9
100
AcDbSymbolTableRecord
100
AcDbRegAppTableRecord
  2
ACAD
 70
     0
  0
ENDTAB
  0
TABLE
  2
DIMSTYLE
  5
A
330
0
100
AcDbSymbolTable
 70
     6
100
AcDbDimStyleTable
  0
DIMSTYLE
105
27
330
A
100
AcDbSymbolTableRecord
100
AcDbDimStyleTableRecord
  2
Standard
 70
     0
340
11
  0
DIMSTYLE
105
113
102
{ACAD_REACTORS
330
114
102
}
330
A
100
AcDbSymbolTableRecord
100
AcDbDimStyleTableRecord
  2
ME10_DIM_10
 70
     0
  3
\U+2300<>
 41
3.5
 42
2.0
 44
2.0
 71
     1
 73
     0
 74
     0
 77
     1
 78
     8
140
3.5
146
0.7
147
2.0
172
     1
173
     1
176
     2
177
     2
178
     3
271
     2
272
     0
340
6E
  0
DIMSTYLE
105
11E
102
{ACAD_REACTORS
330
11F
102
}
330
A
100
AcDbSymbolTableRecord
100
AcDbDimStyleTableRecord
  2
ME10_DIM_11
 70
     0
  3
\U+2300<>
 41
3.5
 42
2.0
 44
2.0
 71
     1
 73
     0
 74
     0
 77
     1
 78
     8
140
3.5
146
0.7
147
2.0
172
     1
173
     1
176
     2
177
     2
178
     3
271
     2
272
     0
340
6E
  0
DIMSTYLE
105
129
102
{ACAD_REACTORS
330
12A
102
}
330
A
100
AcDbSymbolTableRecord
100
AcDbDimStyleTableRecord
  2
ME10_DIM_12
 70
     0
  3
<>
 41
3.5
 42
2.0
 44
2.0
 71
     1
 73
     0
 74
     0
 77
     1
 78
     8
140
3.5
146
0.7
147
2.0
172
     1
173
     1
176
     2
177
     2
178
     3
271
     2
272
     0
340
6E
  0
DIMSTYLE
105
134
102
{ACAD_REACTORS
330
135
102
}
330
A
100
AcDbSymbolTableRecord
100
AcDbDimStyleTableRecord
  2
ME10_DIM_13
 70
     0
  3
<>
 41
3.5
 42
2.0
 44
2.0
 71
     1
 73
     0
 74
     0
 77
     1
 78
     8
140
3.5
146
0.7
147
2.0
172
     1
173
     1
176
     2
177
     2
178
     3
271
     2
272
     0
340
6E
  0
DIMSTYLE
105
13F
102
{ACAD_REACTORS
330
140
102
}
330
A
100
AcDbSymbolTableRecord
100
AcDbDimStyleTableRecord
  2
ME10_DIM_14
 70
     0
  3
<>
 41
3.5
 42
2.0
 44
2.0
 71
     1
 73
     0
 74
     0
 77
     1
 78
     8
140
3.5
146
0.7
147
2.0
172
     1
173
     1
176
     2
177
     2
178
     3
271
     2
272
     0
340
6E
  0
ENDTAB
  0
TABLE
  2
BLOCK_RECORD
  5
1
330
0
100
AcDbSymbolTable
 70
     8
  0
BLOCK_RECORD
  5
1F
330
1
100
AcDbSymbolTableRecord
100
AcDbBlockTableRecord
  2
*Model_Space
340
22
  0
BLOCK_RECORD
  5
1B
330
1
100
AcDbSymbolTableRecord
100
AcDbBlockTableRecord
  2
*Paper_Space
340
1E
  0
BLOCK_RECORD
  5
23
330
1
100
AcDbSymbolTableRecord
100
AcDbBlockTableRecord
  2
*Paper_Space0
340
26
  0
BLOCK_RECORD
  5
48
330
1
100
AcDbSymbolTableRecord
100
AcDbBlockTableRecord
  2
Urheberrecht_DE-EN
340
0
102
{BLKREFS
331
6D
102
}
  0
BLOCK_RECORD
  5
108
330
1
100
AcDbSymbolTableRecord
100
AcDbBlockTableRecord
  2
*D2
340
0
  0
BLOCK_RECORD
  5
115
330
1
100
AcDbSymbolTableRecord
100
AcDbBlockTableRecord
  2
*D3
340
0
  0
BLOCK_RECORD
  5
120
330
1
100
AcDbSymbolTableRecord
100
AcDbBlockTableRecord
  2
*D4
340
0
  0
BLOCK_RECORD
  5
12B
330
1
100
AcDbSymbolTableRecord
100
AcDbBlockTableRecord
  2
*D5
340
0
  0
BLOCK_RECORD
  5
136
330
1
100
AcDbSymbolTableRecord
100
AcDbBlockTableRecord
  2
*D6
340
0
  0
BLOCK_RECORD
  5
141
330
1
100
AcDbSymbolTableRecord
100
AcDbBlockTableRecord
  2
*D7
340
0
102
{BLKREFS
331
147
102
}
  0
ENDTAB
  0
ENDSEC
  0
SECTION
  2
BLOCKS
  0
BLOCK
  5
20
330
1F
100
AcDbEntity
  8
0
100
AcDbBlockBegin
  2
*Model_Space
 70
     0
 10
0.0
 20
0.0
 30
0.0
  3
*Model_Space
  1

  0
ENDBLK
  5
21
330
1F
100
AcDbEntity
  8
0
100
AcDbBlockEnd
  0
BLOCK
  5
1C
330
1B
100
AcDbEntity
 67
     1
  8
0
100
AcDbBlockBegin
  2
*Paper_Space
 70
     0
 10
0.0
 20
0.0
 30
0.0
  3
*Paper_Space
  1

  0
ENDBLK
  5
1D
330
1B
100
AcDbEntity
 67
     1
  8
0
100
AcDbBlockEnd
  0
BLOCK
  5
24
330
23
100
AcDbEntity
  8
0
100
AcDbBlockBegin
  2
*Paper_Space0
 70
     0
 10
0.0
 20
0.0
 30
0.0
  3
*Paper_Space0
  1

  0
ENDBLK
  5
25
330
23
100
AcDbEntity
  8
0
100
AcDbBlockEnd
  0
BLOCK
  5
49
330
48
100
AcDbEntity
  8
0
100
AcDbBlockBegin
  2
Urheberrecht_DE-EN
 70
     0
 10
31.0752543821729
 20
322.925938770645
 30
0.0
  3
Urheberrecht_DE-EN
  1

  0
MTEXT
  5
6F
330
48
100
AcDbEntity
  8
1
 62
     1
100
AcDbMText
 10
31.0752543821729
 20
322.925938770645
 30
0.0
 40
2.0
 41
0.0
 71
     7
 72
     1
  1
We own the copyright of this document. It \Pdetermined and may neither be copied or \Pmade accessible to outsiders without our\Ppermission.
  7
CONVERTER_11
 11
0.0
 21
1.0
 31
0.0
 73
     1
 44
0.90036014405762
  0
MTEXT
  5
70
330
48
100
AcDbEntity
  8
1
 62
     1
100
AcDbMText
 10
31.0752543821729
 20
266.6365518533388
 30
0.0
 40
2.0
 41
0.0
 71
     7
 72
     1
  1
F\U+00fcr diese Unterlage behalten wir das Ur-\Pheberrecht. Sie darf nur f\U+00fcr den von uns \Pbestimmten Zweck benutzt und ohne unsere \PZustimmung weder vervielf\U+00e4ltigt noch\PDritten zug\U+00e4nglich gemacht werden.
  7
CONVERTER_11
 11
0.0
 21
1.0
 31
0.0
 73
     1
 44
0.90036014405762
  0
ENDBLK
  5
4A
330
48
100
AcDbEntity
  8
0
100
AcDbBlockEnd
  0
BLOCK
  5
111
330
108
100
AcDbEntity
  8
0
100
AcDbBlockBegin
  2
*D2
 70
     1
 10
0.0
 20
0.0
 30
0.0
  3
*D2
  1

  0
LINE
  5
109
330
108
100
AcDbEntity
  8
1
  6
Continuous
 62
     2
100
AcDbLine
 10
258.018814988581
 20
319.2385070931
 30
0.0
 11
258.018814988581
 21
312.2385070931
 31
0.0
  0
LINE
  5
10A
330
108
100
AcDbEntity
  8
1
  6
Continuous
 62
     2
100
AcDbLine
 10
258.018814988581
 20
312.2385070931
 30
0.0
 11
258.018814988581
 21
304.2385070931
 31
0.0
  0
LINE
  5
10B
330
108
100
AcDbEntity
  8
1
  6
Continuous
 62
     2
100
AcDbLine
 10
258.018814988581
 20
304.2385070931
 30
0.0
 11
258.018814988581
 21
297.2385070931
 31
0.0
  0
LINE
  5
10C
330
108
100
AcDbEntity
  8
1
  6
Continuous
 62
     2
100
AcDbLine
 10
249.5302880755
 20
312.2385070931
 30
0.0
 11
260.018814988581
 21
312.2385070931
 31
0.0
  0
LINE
  5
10D
330
108
100
AcDbEntity
  8
1
  6
Continuous
 62
     2
100
AcDbLine
 10
249.5302880755
 20
304.2385070931
 30
0.0
 11
260.018814988581
 21
304.2385070931
 31
0.0
  0
SOLID
  5
10E
330
108
100
AcDbEntity
  8
1
 62
     2
100
AcDbTrace
 10
257.5580312470251
 20
315.7385070931
 30
0.0
 11
258.4795987301368
 21
315.7385070931
 31
0.0
 12
258.018814988581
 22
312.2385070931
 32
0.0
 13
258.018814988581
 23
312.2385070931
 33
0.0
  0
SOLID
  5
10F
330
108
100
AcDbEntity
  8
1
 62
     2
100
AcDbTrace
 10
258.4795987301368
 20
300.7385070931
 30
0.0
 11
257.5580312470251
 21
300.7385070931
 31
0.0
 12
258.018814988581
 22
304.2385070931
 32
0.0
 13
258.018814988581
 23
304.2385070931
 33
0.0
  0
MTEXT
  5
110
330
108
100
AcDbEntity
  8
1
 62
     3
100
AcDbMText
 10
256.018814988581
 20
300.780154654864
 30
0.0
 40
3.5
 41
0.0
 71
     7
 72
     1
  1
\C3;%%c\C3;\C3;8\C2;\H2.45;\S^ ;\C3;
  7
CONVERTER_11
 11
0.0
 21
1.0
 31
0.0
 73
     1
 44
0.60024009603842
  0
ENDBLK
  5
112
330
108
100
AcDbEntity
  8
0
100
AcDbBlockEnd
  0
BLOCK
  5
11C
330
115
100
AcDbEntity
  8
0
100
AcDbBlockBegin
  2
*D3
 70
     1
 10
0.0
 20
0.0
 30
0.0
  3
*D3
  1

  0
LINE
  5
116
330
115
100
AcDbEntity
  8
1
  6
Continuous
 62
     2
100
AcDbLine
 10
268.046794797691
 20
322.2385070931
 30
0.0
 11
268.046794797691
 21
294.2385070931
 31
0.0
  0
LINE
  5
117
330
115
100
AcDbEntity
  8
1
  6
Continuous
 62
     2
100
AcDbLine
 10
240.7305657308
 20
322.2385070931
 30
0.0
 11
270.046794797691
 21
322.2385070931
 31
0.0
  0
LINE
  5
118
330
115
100
AcDbEntity
  8
1
  6
Continuous
 62
     2
100
AcDbLine
 10
240.7305657308
 20
294.2385070931
 30
0.0
 11
270.046794797691
 21
294.2385070931
 31
0.0
  0
SOLID
  5
119
330
115
100
AcDbEntity
  8
1
 62
     2
100
AcDbTrace
 10
268.5075785392469
 20
318.7385070931
 30
0.0
 11
267.5860110561351
 21
318.7385070931
 31
0.0
 12
268.046794797691
 22
322.2385070931
 32
0.0
 13
268.046794797691
 23
322.2385070931
 33
0.0
  0
SOLID
  5
11A
330
115
100
AcDbEntity
  8
1
 62
     2
100
AcDbTrace
 10
267.5860110561351
 20
297.7385070931
 30
0.0
 11
268.5075785392469
 21
297.7385070931
 31
0.0
 12
268.046794797691
 22
294.2385070931
 32
0.0
 13
268.046794797691
 23
294.2385070931
 33
0.0
  0
MTEXT
  5
11B
330
115
100
AcDbEntity
  8
1
 62
     3
100
AcDbMText
 10
266.046794797691
 20
299.644725832617
 30
0.0
 40
3.5
 41
0.0
 71
     7
 72
     1
  1
\C3;%%c\C3;\C3;28\C2;\H2.45;\S^ ;\C3;
  7
CONVERTER_11
 11
0.0
 21
1.0
 31
0.0
 73
     1
 44
0.60024009603842
  0
ENDBLK
  5
11D
330
115
100
AcDbEntity
  8
0
100
AcDbBlockEnd
  0
BLOCK
  5
127
330
120
100
AcDbEntity
  8
0
100
AcDbBlockBegin
  2
*D4
 70
     1
 10
0.0
 20
0.0
 30
0.0
  3
*D4
  1

  0
LINE
  5
121
330
120
100
AcDbEntity
  8
1
  6
Continuous
 62
     2
100
AcDbLine
 10
247.5302880755
 20
366.4158615266
 30
0.0
 11
116.5302880755
 21
366.4158615266
 31
0.0
  0
LINE
  5
122
330
120
100
AcDbEntity
  8
1
  6
Continuous
 62
     2
100
AcDbLine
 10
247.5302880755
 20
319.6014368323
 30
0.0
 11
247.5302880755
 21
368.4158615266
 31
0.0
  0
LINE
  5
123
330
120
100
AcDbEntity
  8
1
  6
Continuous
 62
     2
100
AcDbLine
 10
116.5302880755
 20
360.238470172
 30
0.0
 11
116.5302880755
 21
368.4158615266
 31
0.0
  0
SOLID
  5
124
330
120
100
AcDbEntity
  8
1
 62
     2
100
AcDbTrace
 10
244.0302880755
 20
365.9550777850441
 30
0.0
 11
244.0302880755
 21
366.8766452681559
 31
0.0
 12
247.5302880755
 22
366.4158615266
 32
0.0
 13
247.5302880755
 23
366.4158615266
 33
0.0
  0
SOLID
  5
125
330
120
100
AcDbEntity
  8
1
 62
     2
100
AcDbTrace
 10
120.0302880755
 20
366.8766452681559
 30
0.0
 11
120.0302880755
 21
365.9550777850441
 31
0.0
 12
116.5302880755
 22
366.4158615266
 32
0.0
 13
116.5302880755
 23
366.4158615266
 33
0.0
  0
MTEXT
  5
126
330
120
100
AcDbEntity
  8
1
 62
     3
100
AcDbMText
 10
182.616688758324
 20
368.4158615266
 30
0.0
 40
3.5
 41
0.0
 71
     7
 72
     1
  1
\C3;\C3;\C3;131\C2;\H2.45;\S^ ;\C3;
  7
CONVERTER_11
 11
0.9999999999970619
 21
2.424068405545306E-6
 31
0.0
 73
     1
 44
0.60024009603842
  0
ENDBLK
  5
128
330
120
100
AcDbEntity
  8
0
100
AcDbBlockEnd
  0
BLOCK
  5
132
330
12B
100
AcDbEntity
  8
0
100
AcDbBlockBegin
  2
*D5
 70
     1
 10
0.0
 20
0.0
 30
0.0
  3
*D5
  1

  0
LINE
  5
12C
330
12B
100
AcDbEntity
  8
1
  6
Continuous
 62
     2
100
AcDbLine
 10
247.5302880755
 20
374.609384211124
 30
0.0
 11
87.5302880755
 21
374.609384211124
 31
0.0
  0
LINE
  5
12D
330
12B
100
AcDbEntity
  8
1
  6
Continuous
 62
     2
100
AcDbLine
 10
247.5302880755
 20
319.6014368323
 30
0.0
 11
247.5302880755
 21
376.609384211124
 31
0.0
  0
LINE
  5
12E
330
12B
100
AcDbEntity
  8
1
  6
Continuous
 62
     2
100
AcDbLine
 10
87.5302880755
 20
360.2385070931
 30
0.0
 11
87.5302880755
 21
376.609384211124
 31
0.0
  0
SOLID
  5
12F
330
12B
100
AcDbEntity
  8
1
 62
     2
100
AcDbTrace
 10
244.0302880755
 20
374.1486004695681
 30
0.0
 11
244.0302880755
 21
375.0701679526799
 31
0.0
 12
247.5302880755
 22
374.609384211124
 32
0.0
 13
247.5302880755
 23
374.609384211124
 33
0.0
  0
SOLID
  5
130
330
12B
100
AcDbEntity
  8
1
 62
     2
100
AcDbTrace
 10
91.0302880755
 20
375.0701679526799
 30
0.0
 11
91.0302880755
 21
374.1486004695681
 31
0.0
 12
87.5302880755
 22
374.609384211124
 32
0.0
 13
87.5302880755
 23
374.609384211124
 33
0.0
  0
MTEXT
  5
131
330
12B
100
AcDbEntity
  8
1
 62
     3
100
AcDbMText
 10
165.45599453309
 20
376.609384211124
 30
0.0
 40
3.5
 41
0.0
 71
     7
 72
     1
  1
\C3;\C3;\C3;160\C2;\H2.45;\S^ ;\C3;
  7
CONVERTER_11
 11
0.9999999999970619
 21
2.424068405545306E-6
 31
0.0
 73
     1
 44
0.60024009603842
  0
ENDBLK
  5
133
330
12B
100
AcDbEntity
  8
0
100
AcDbBlockEnd
  0
BLOCK
  5
13D
330
136
100
AcDbEntity
  8
0
100
AcDbBlockBegin
  2
*D6
 70
     1
 10
0.0
 20
0.0
 30
0.0
  3
*D6
  1

  0
LINE
  5
137
330
136
100
AcDbEntity
  8
1
  6
Continuous
 62
     2
100
AcDbLine
 10
247.5302880755
 20
382.470620248996
 30
0.0
 11
37.5302880755
 21
382.470620248996
 31
0.0
  0
LINE
  5
138
330
136
100
AcDbEntity
  8
1
  6
Continuous
 62
     2
100
AcDbLine
 10
247.5302880755
 20
319.6014368323
 30
0.0
 11
247.5302880755
 21
384.470620248996
 31
0.0
  0
LINE
  5
139
330
136
100
AcDbEntity
  8
1
  6
Continuous
 62
     2
100
AcDbLine
 10
37.5302880755
 20
343.8386986557
 30
0.0
 11
37.5302880755
 21
384.470620248996
 31
0.0
  0
SOLID
  5
13A
330
136
100
AcDbEntity
  8
1
 62
     2
100
AcDbTrace
 10
244.0302880755
 20
382.0098365074401
 30
0.0
 11
244.0302880755
 21
382.9314039905519
 31
0.0
 12
247.5302880755
 22
382.470620248996
 32
0.0
 13
247.5302880755
 23
382.470620248996
 33
0.0
  0
SOLID
  5
13B
330
136
100
AcDbEntity
  8
1
 62
     2
100
AcDbTrace
 10
41.0302880755
 20
382.9314039905519
 30
0.0
 11
41.0302880755
 21
382.0098365074401
 31
0.0
 12
37.5302880755
 22
382.470620248996
 32
0.0
 13
37.5302880755
 23
382.470620248996
 33
0.0
  0
MTEXT
  5
13C
330
136
100
AcDbEntity
  8
1
 62
     3
100
AcDbMText
 10
150.068043139808
 20
384.470620248996
 30
0.0
 40
3.5
 41
0.0
 71
     7
 72
     1
  1
\C3;\C3;\C3;210\C2;\H2.45;\S^ ;\C3;
  7
CONVERTER_11
 11
0.9999999999970619
 21
2.424068405545306E-6
 31
0.0
 73
     1
 44
0.60024009603842
  0
ENDBLK
  5
13E
330
136
100
AcDbEntity
  8
0
100
AcDbBlockEnd
  0
BLOCK
  5
145
330
141
100
AcDbEntity
  8
0
100
AcDbBlockBegin
  2
*D7
 70
     1
 10
0.0
 20
0.0
 30
0.0
  3
*D7
  1

  0
LINE
  5
142
330
141
100
AcDbEntity
  8
1
  6
Continuous
 62
     2
100
AcDbLine
 10
133.7491573978944
 20
343.2387993426378
 30
0.0
 11
121.4835346390391
 21
332.4985177254723
 31
0.0
  0
SOLID
  5
143
330
141
100
AcDbEntity
  8
1
 62
     2
100
AcDbTrace
 10
123.8131624476112
 20
335.1509045618915
 30
0.0
 11
124.4202705332247
 21
334.4575746272198
 31
0.0
 12
121.4835346390391
 22
332.4985177254723
 32
0.0
 13
121.4835346390391
 23
332.4985177254723
 33
0.0
  0
MTEXT
  5
144
330
141
100
AcDbEntity
  8
1
 62
     3
100
AcDbMText
 10
124.9533655862165
 20
338.1952245780864
 30
0.0
 40
3.5
 41
0.0
 71
     7
 72
     1
  1
\C3; R\C3;\C3;20\C2;\H2.45;\S^ ;\C3;
  7
CONVERTER_11
 11
0.7523376718225361
 21
0.6587776768809384
 31
0.0
 73
     1
 44
0.60024009603842
  0
ENDBLK
  5
146
330
141
100
AcDbEntity
  8
0
100
AcDbBlockEnd
  0
ENDSEC
  0
SECTION
  2
ENTITIES
  0
INSERT
  5
6D
330
1F
100
AcDbEntity
  8
0
100
AcDbBlockReference
  2
Urheberrecht_DE-EN
 10
31.0752543821729
 20
322.925938770645
 30
0.0
  0
LINE
  5
71
330
1F
100
AcDbEntity
  8
BEZUGSACHSEN
  6
Continuous
 62
     7
100
AcDbLine
 10
37.5302880755
 20
274.6383155302
 30
0.0
 11
37.5302880755
 21
296.2285070931
 31
0.0
  0
LINE
  5
72
330
1F
100
AcDbEntity
  8
BEZUGSACHSEN
  6
Continuous
 62
     7
100
AcDbLine
 10
37.5302880755
 20
320.2485070931
 30
0.0
 11
37.5302880755
 21
341.8386986557
 31
0.0
  0
LINE
  5
73
330
1F
100
AcDbEntity
  8
BEZUGSACHSEN
  6
Continuous
 62
     9
100
AcDbLine
 10
39.4302135907
 20
343.8361933615
 30
0.0
 11
39.4302135907
 21
323.9150394794
 31
0.0
  0
LINE
  5
74
330
1F
100
AcDbEntity
  8
BEZUGSACHSEN
  6
Continuous
 62
     9
100
AcDbLine
 10
39.4302135907
 20
292.5619747069
 30
0.0
 11
39.4302135907
 21
272.6408208248
 31
0.0
  0
LINE
  5
75
330
1F
100
AcDbEntity
  8
BEZUGSACHSEN
  6
Continuous
 62
     7
100
AcDbLine
 10
39.5302880755
 20
295.8348671448
 30
0.0
 11
39.5302880755
 21
298.2285070931
 31
0.0
  0
LINE
  5
76
330
1F
100
AcDbEntity
  8
BEZUGSACHSEN
  6
Continuous
 62
     7
100
AcDbLine
 10
39.5302880755
 20
318.2485070931
 30
0.0
 11
39.5302880755
 21
320.6421470415
 31
0.0
  0
LINE
  5
77
330
1F
100
AcDbEntity
  8
BEZUGSACHSEN
  6
Continuous
 62
     9
100
AcDbLine
 10
45.5302880755
 20
291.8798595057
 30
0.0
 11
45.5302880755
 21
298.2285070931
 31
0.0
  0
LINE
  5
78
330
1F
100
AcDbEntity
  8
BEZUGSACHSEN
  6
Continuous
 62
     9
100
AcDbLine
 10
45.5302880755
 20
318.2485070931
 30
0.0
 11
45.5302880755
 21
324.5971546806
 31
0.0
  0
LINE
  5
79
330
1F
100
AcDbEntity
  8
BEZUGSACHSEN
  6
Continuous
 62
     7
100
AcDbLine
 10
47.5302880755
 20
321.1081626189
 30
0.0
 11
47.5302880755
 21
295.3688515674
 31
0.0
  0
LINE
  5
7A
330
1F
100
AcDbEntity
  8
BEZUGSACHSEN
  6
Continuous
 62
     7
100
AcDbLine
 10
38.7972410025
 20
293.2285070931
 30
0.0
 11
38.6761307511
 21
292.9961710977
 31
0.0
  0
LINE
  5
7B
330
1F
100
AcDbEntity
  8
BEZUGSACHSEN
  6
Continuous
 62
     7
100
AcDbLine
 10
38.6761307511
 20
323.4808430886
 30
0.0
 11
38.7972410025
 21
323.2485070931
 31
0.0
  0
LWPOLYLINE
  5
7C
330
1F
100
AcDbEntity
  8
BEZUGSACHSEN
  6
DOT_CENTER
 62
     7
100
AcDbPolyline
 90
        2
 70
     0
 43
0.25
 10
72.5302880755
 20
308.2385070931
 10
72.5302880755
 20
299.2385070931
  0
LWPOLYLINE
  5
7D
330
1F
100
AcDbEntity
  8
BEZUGSACHSEN
  6
DOT_CENTER
 62
     7
100
AcDbPolyline
 90
        2
 70
     0
 43
0.25
 10
72.5302880755
 20
308.2385070931
 10
72.5302880755
 20
317.2385070931
  0
LINE
  5
7E
330
1F
100
AcDbEntity
  8
BEZUGSACHSEN
  6
Continuous
 62
     7
100
AcDbLine
 10
37.5302880755
 20
296.2285070931
 30
0.0
 11
39.5302880755
 21
298.2285070931
 31
0.0
  0
LINE
  5
7F
330
1F
100
AcDbEntity
  8
BEZUGSACHSEN
  6
Continuous
 62
     7
100
AcDbLine
 10
39.5302880755
 20
318.2485070931
 30
0.0
 11
37.5302880755
 21
320.2485070931
 31
0.0
  0
LINE
  5
80
330
1F
100
AcDbEntity
  8
BEZUGSACHSEN
  6
Continuous
 62
     7
100
AcDbLine
 10
85.0302880755
 20
346.1207570931
 30
0.0
 11
85.0302880755
 21
270.3562570931
 31
0.0
  0
LINE
  5
81
330
1F
100
AcDbEntity
  8
BEZUGSACHSEN
  6
Continuous
 62
     9
100
AcDbLine
 10
85.6495316895
 20
270.5221829194
 30
0.0
 11
85.6495316895
 21
345.9548312669
 31
0.0
  0
LINE
  5
82
330
1F
100
AcDbEntity
  8
BEZUGSACHSEN
  6
Continuous
 62
     9
100
AcDbLine
 10
85.9083507346
 20
270.5562570931
 30
0.0
 11
85.9083507346
 21
345.9207570931
 31
0.0
  0
LINE
  5
83
330
1F
100
AcDbEntity
  8
BEZUGSACHSEN
  6
Continuous
 62
     9
100
AcDbLine
 10
86.8297167868
 20
270.5562570931
 30
0.0
 11
86.8297167868
 21
345.9207570931
 31
0.0
  0
LINE
  5
84
330
1F
100
AcDbEntity
  8
BEZUGSACHSEN
  6
Continuous
 62
     7
100
AcDbLine
 10
87.5302880755
 20
358.2385070931
 30
0.0
 11
87.5302880755
 21
258.2385070931
 31
0.0
  0
LWPOLYLINE
  5
85
330
1F
100
AcDbEntity
  8
BEZUGSACHSEN
  6
DOT_CENTER
 62
     7
100
AcDbPolyline
 90
        2
 70
     0
 43
0.25
 10
94.5302880755
 20
350.3878789485
 10
94.5302880755
 20
361.2385070931
  0
LINE
  5
86
330
1F
100
AcDbEntity
  8
BEZUGSACHSEN
  6
Continuous
 62
     7
100
AcDbLine
 10
109.4052880755
 20
355.8611023573
 30
0.0
 11
110.7778833397
 21
358.2385070931
 31
0.0
  0
LINE
  5
87
330
1F
100
AcDbEntity
  8
BEZUGSACHSEN
  6
Continuous
 62
     7
100
AcDbLine
 10
104.2826928113
 20
258.2385070931
 30
0.0
 11
87.5302880755
 21
258.2385070931
 31
0.0
  0
LINE
  5
88
330
1F
100
AcDbEntity
  8
BEZUGSACHSEN
  6
Continuous
 62
     7
100
AcDbLine
 10
110.7778833397
 20
258.2385070931
 30
0.0
 11
116.5302880755
 21
258.2385070931
 31
0.0
  0
LINE
  5
89
330
1F
100
AcDbEntity
  8
BEZUGSACHSEN
  6
Continuous
 62
     7
100
AcDbLine
 10
106.6552880755
 20
262.2385070931
 30
0.0
 11
108.4052880755
 21
262.2385070931
 31
0.0
  0
LINE
  5
8A
330
1F
100
AcDbEntity
  8
BEZUGSACHSEN
  6
Continuous
 62
     7
100
AcDbLine
 10
109.4052880755
 20
260.615911829
 30
0.0
 11
110.7778833397
 21
258.2385070931
 31
0.0
  0
LINE
  5
8B
330
1F
100
AcDbEntity
  8
FASEN
  6
Continuous
 62
     9
100
AcDbLine
 10
100.5021619973
 20
276.3385070931
 30
0.0
 11
100.5021619973
 21
276.7385070931
 31
0.0
  0
LINE
  5
8C
330
1F
100
AcDbEntity
  8
FASEN
  6
Continuous
 62
     9
100
AcDbLine
 10
102.5302880755
 20
298.6385070931
 30
0.0
 11
102.5302880755
 21
298.2385070931
 31
0.0
  0
LINE
  5
8D
330
1F
100
AcDbEntity
  8
FASEN
  6
Continuous
 62
     9
100
AcDbLine
 10
102.5302880755
 20
317.8385070931
 30
0.0
 11
102.5302880755
 21
318.2385070931
 31
0.0
  0
LINE
  5
8E
330
1F
100
AcDbEntity
  8
0
  6
Continuous
 62
     7
100
AcDbLine
 10
104.2826928113
 20
358.2385070931
 30
0.0
 11
104.2826928113
 21
318.2385070931
 31
0.0
  0
LINE
  5
8F
330
1F
100
AcDbEntity
  8
0
  6
Continuous
 62
     7
100
AcDbLine
 10
104.2826928113
 20
298.2385070931
 30
0.0
 11
104.2826928113
 21
276.7385070931
 31
0.0
  0
LINE
  5
90
330
1F
100
AcDbEntity
  8
0
  6
Continuous
 62
     7
100
AcDbLine
 10
104.2826928113
 20
269.4087504624
 30
0.0
 11
104.2826928113
 21
258.2385070931
 31
0.0
  0
LINE
  5
91
330
1F
100
AcDbEntity
  8
FASEN
  6
Continuous
 62
     7
100
AcDbLine
 10
92.9317740399
 20
269.4087504624
 30
0.0
 11
104.2826928113
 21
269.4087504624
 31
0.0
  0
LINE
  5
92
330
1F
100
AcDbEntity
  8
0
  6
Continuous
 62
     7
100
AcDbLine
 10
110.7778833397
 20
269.4087504624
 30
0.0
 11
116.5302880755
 21
269.4087504624
 31
0.0
  0
LINE
  5
93
330
1F
100
AcDbEntity
  8
BEZUGSACHSEN
  6
Continuous
 62
     7
100
AcDbLine
 10
85.0302880755
 20
270.3562570931
 30
0.0
 11
39.4302135907
 21
272.6408208248
 31
0.0
  0
LINE
  5
94
330
1F
100
AcDbEntity
  8
0
  6
Continuous
 62
     7
100
AcDbLine
 10
105.6552880755
 20
355.8610689308
 30
0.0
 11
105.6552880755
 21
318.2385070931
 31
0.0
  0
LINE
  5
95
330
1F
100
AcDbEntity
  8
0
  6
Continuous
 62
     7
100
AcDbLine
 10
105.6552880755
 20
298.2385070931
 30
0.0
 11
105.6552880755
 21
276.7385070931
 31
0.0
  0
LINE
  5
96
330
1F
100
AcDbEntity
  8
0
  6
Continuous
 62
     7
100
AcDbLine
 10
105.6552880755
 20
260.6159493629
 30
0.0
 11
105.6552880755
 21
273.35656334
 31
0.0
  0
LINE
  5
97
330
1F
100
AcDbEntity
  8
0
  6
Continuous
 62
     9
100
AcDbLine
 10
106.6552880755
 20
262.2385070931
 30
0.0
 11
106.6552880755
 21
274.7161265094
 31
0.0
  0
LINE
  5
98
330
1F
100
AcDbEntity
  8
0
  6
Continuous
 62
     9
100
AcDbLine
 10
106.6552880755
 20
276.7385070931
 30
0.0
 11
106.6552880755
 21
298.2385070931
 31
0.0
  0
LINE
  5
99
330
1F
100
AcDbEntity
  8
0
  6
Continuous
 62
     9
100
AcDbLine
 10
106.6552880755
 20
318.2385070931
 30
0.0
 11
106.6552880755
 21
354.2385070931
 31
0.0
  0
LINE
  5
9A
330
1F
100
AcDbEntity
  8
0
  6
Continuous
 62
     9
100
AcDbLine
 10
108.4052880755
 20
262.2385070931
 30
0.0
 11
108.4052880755
 21
274.7161265094
 31
0.0
  0
LINE
  5
9B
330
1F
100
AcDbEntity
  8
0
  6
Continuous
 62
     9
100
AcDbLine
 10
108.4052880755
 20
276.7385070931
 30
0.0
 11
108.4052880755
 21
298.2385070931
 31
0.0
  0
LINE
  5
9C
330
1F
100
AcDbEntity
  8
0
  6
Continuous
 62
     9
100
AcDbLine
 10
108.4052880755
 20
318.2385070931
 30
0.0
 11
108.4052880755
 21
354.2385070931
 31
0.0
  0
LINE
  5
9D
330
1F
100
AcDbEntity
  8
0
  6
Continuous
 62
     7
100
AcDbLine
 10
109.4052880755
 20
260.6159493629
 30
0.0
 11
109.4052880755
 21
273.35656334
 31
0.0
  0
LINE
  5
9E
330
1F
100
AcDbEntity
  8
0
  6
Continuous
 62
     7
100
AcDbLine
 10
109.4052880755
 20
276.7385070931
 30
0.0
 11
109.4052880755
 21
298.2385070931
 31
0.0
  0
LINE
  5
9F
330
1F
100
AcDbEntity
  8
0
  6
Continuous
 62
     7
100
AcDbLine
 10
109.4052880755
 20
318.2385070931
 30
0.0
 11
109.4052880755
 21
355.8610689308
 31
0.0
  0
LINE
  5
A0
330
1F
100
AcDbEntity
  8
0
  6
Continuous
 62
     7
100
AcDbLine
 10
110.7778833397
 20
358.2385070931
 30
0.0
 11
110.7778833397
 21
318.2385070931
 31
0.0
  0
LINE
  5
A1
330
1F
100
AcDbEntity
  8
0
  6
Continuous
 62
     7
100
AcDbLine
 10
110.7778833397
 20
298.2385070931
 30
0.0
 11
110.7778833397
 21
276.7385070931
 31
0.0
  0
LINE
  5
A2
330
1F
100
AcDbEntity
  8
0
  6
Continuous
 62
     7
100
AcDbLine
 10
110.7778833397
 20
269.4087504624
 30
0.0
 11
110.7778833397
 21
258.2385070931
 31
0.0
  0
LINE
  5
A3
330
1F
100
AcDbEntity
  8
BEZUGSACHSEN
  6
Continuous
 62
     9
100
AcDbLine
 10
37.5302880755
 20
294.7923231241
 30
0.0
 11
39.5302880755
 21
295.8348671448
 31
0.0
  0
LINE
  5
A4
330
1F
100
AcDbEntity
  8
BEZUGSACHSEN
  6
Continuous
 62
     7
100
AcDbLine
 10
86.8297167868
 20
270.5562570931
 30
0.0
 11
85.9083507346
 21
270.5562570931
 31
0.0
  0
LINE
  5
A5
330
1F
100
AcDbEntity
  8
0
  6
Continuous
 62
     7
100
AcDbLine
 10
106.6552880755
 20
274.7161265094
 30
0.0
 11
108.4052880755
 21
274.7161265094
 31
0.0
  0
LINE
  5
A6
330
1F
100
AcDbEntity
  8
FASEN
  6
Continuous
 62
     7
100
AcDbLine
 10
100.5021619973
 20
276.3385070931
 30
0.0
 11
116.5302880755
 21
276.3385070931
 31
0.0
  0
LINE
  5
A7
330
1F
100
AcDbEntity
  8
0
  6
Continuous
 62
     7
100
AcDbLine
 10
100.5021619973
 20
276.7385070931
 30
0.0
 11
116.5302880755
 21
276.7385070931
 31
0.0
  0
LINE
  5
A8
330
1F
100
AcDbEntity
  8
BEZUGSACHSEN
  6
Continuous
 62
     9
100
AcDbLine
 10
39.5302880755
 20
320.6421470415
 30
0.0
 11
37.5302880755
 21
321.6846910622
 31
0.0
  0
LINE
  5
A9
330
1F
100
AcDbEntity
  8
0
  6
Continuous
 62
     7
100
AcDbLine
 10
116.5302880755
 20
358.238470172
 30
0.0
 11
116.5302880755
 21
318.2385070931
 31
0.0
  0
LINE
  5
AA
330
1F
100
AcDbEntity
  8
0
  6
Continuous
 62
     7
100
AcDbLine
 10
116.5302880755
 20
298.2385070931
 30
0.0
 11
116.5302880755
 21
276.7385070931
 31
0.0
  0
LINE
  5
AB
330
1F
100
AcDbEntity
  8
0
  6
Continuous
 62
     7
100
AcDbLine
 10
116.5302880755
 20
269.4087504624
 30
0.0
 11
116.5302880755
 21
258.2385089609
 31
0.0
  0
LINE
  5
AC
330
1F
100
AcDbEntity
  8
FASEN
  6
Continuous
 62
     7
100
AcDbLine
 10
116.5302880755
 20
269.4087504624
 30
0.0
 11
116.5302880755
 21
276.7385070931
 31
0.0
  0
LINE
  5
AD
330
1F
100
AcDbEntity
  8
FASEN
  6
Continuous
 62
     7
100
AcDbLine
 10
116.5302880755
 20
298.2385070931
 30
0.0
 11
116.5302880755
 21
318.2385070931
 31
0.0
  0
LINE
  5
AE
330
1F
100
AcDbEntity
  8
BEZUGSACHSEN
  6
Continuous
 62
     7
100
AcDbLine
 10
85.6495316895
 20
270.5221829194
 30
0.0
 11
85.0302880755
 21
270.3562570931
 31
0.0
  0
LINE
  5
AF
330
1F
100
AcDbEntity
  8
BEZUGSACHSEN
  6
Continuous
 62
     9
100
AcDbLine
 10
47.0841340224
 20
293.2285070931
 30
0.0
 11
38.7972410025
 21
293.2285070931
 31
0.0
  0
LINE
  5
B0
330
1F
100
AcDbEntity
  8
RUNDUNGEN
  6
Continuous
 62
     9
100
AcDbLine
 10
132.6413991866
 20
326.0558006153
 30
0.0
 11
132.6413991866
 21
290.421213571
 31
0.0
  0
LINE
  5
B1
330
1F
100
AcDbEntity
  8
BEZUGSACHSEN
  6
Continuous
 62
     7
100
AcDbLine
 10
104.2826928113
 20
258.2385070931
 30
0.0
 11
105.6552880755
 21
260.615911829
 31
0.0
  0
LINE
  5
B2
330
1F
100
AcDbEntity
  8
0
  6
Continuous
 62
     7
100
AcDbLine
 10
171.5302880755
 20
294.2385070931
 30
0.0
 11
226.1302880755
 21
294.2385070931
 31
0.0
  0
LINE
  5
B3
330
1F
100
AcDbEntity
  8
0
  6
Continuous
 62
     7
100
AcDbLine
 10
232.9302880755
 20
294.2385070931
 30
0.0
 11
238.7305657308
 21
294.2385070931
 31
0.0
  0
LINE
  5
B4
330
1F
100
AcDbEntity
  8
BEZUGSACHSEN
  6
Continuous
 62
     7
100
AcDbLine
 10
45.5302880755
 20
298.2285070931
 30
0.0
 11
39.5302880755
 21
298.2285070931
 31
0.0
  0
LINE
  5
B5
330
1F
100
AcDbEntity
  8
0
  6
Continuous
 62
     7
100
AcDbLine
 10
102.5302880755
 20
298.2385070931
 30
0.0
 11
116.5302880755
 21
298.2385070931
 31
0.0
  0
LINE
  5
B6
330
1F
100
AcDbEntity
  8
FASEN
  6
Continuous
 62
     7
100
AcDbLine
 10
116.5302880755
 20
298.6385070931
 30
0.0
 11
102.5302880755
 21
298.6385070931
 31
0.0
  0
LINE
  5
B7
330
1F
100
AcDbEntity
  8
BEZUGSACHSEN
  6
Continuous
 62
     7
100
AcDbLine
 10
104.2826928113
 20
358.2385070931
 30
0.0
 11
105.6552880755
 21
355.8611023573
 31
0.0
  0
LWPOLYLINE
  5
B8
330
1F
100
AcDbEntity
  8
DEFAULT_2
  6
DASHED
 62
     8
100
AcDbPolyline
 90
        2
 70
     0
 43
0.35
 10
214.5302880755
 20
304.2385070931
 10
226.1302880755
 20
304.2385070931
  0
LWPOLYLINE
  5
B9
330
1F
100
AcDbEntity
  8
DEFAULT_2
  6
DASHED
 62
     8
100
AcDbPolyline
 90
        2
 70
     0
 43
0.35
 10
226.1302880755
 20
304.2385070931
 10
247.5302880755
 20
304.2385070931
  0
LWPOLYLINE
  5
BA
330
1F
100
AcDbEntity
  8
BEZUGSACHSEN
  6
DOT_CENTER
 62
     7
100
AcDbPolyline
 90
        2
 70
     0
 43
0.25
 10
250.5302880755
 20
308.2385070931
 10
34.5302880755
 20
308.2385070931
  0
LWPOLYLINE
  5
BB
330
1F
100
AcDbEntity
  8
DEFAULT_2
  6
DASHED
 62
     8
100
AcDbPolyline
 90
        2
 70
     0
 43
0.35
 10
247.5302880755
 20
312.2385070931
 10
214.5302880755
 20
312.2385070931
  0
LINE
  5
BC
330
1F
100
AcDbEntity
  8
FASEN
  6
Continuous
 62
     7
100
AcDbLine
 10
102.5302880755
 20
317.8385070931
 30
0.0
 11
116.5302880755
 21
317.8385070931
 31
0.0
  0
LINE
  5
BD
330
1F
100
AcDbEntity
  8
0
  6
Continuous
 62
     7
100
AcDbLine
 10
102.5302880755
 20
318.2385070931
 30
0.0
 11
116.5302880755
 21
318.2385070931
 31
0.0
  0
LINE
  5
BE
330
1F
100
AcDbEntity
  8
BEZUGSACHSEN
  6
Continuous
 62
     7
100
AcDbLine
 10
45.5302880755
 20
318.2485070931
 30
0.0
 11
39.5302880755
 21
318.2485070931
 31
0.0
  0
LINE
  5
BF
330
1F
100
AcDbEntity
  8
0
  6
Continuous
 62
     7
100
AcDbLine
 10
238.7305657308
 20
322.2385070931
 30
0.0
 11
171.5302880755
 21
322.2385070931
 31
0.0
  0
LINE
  5
C0
330
1F
100
AcDbEntity
  8
BEZUGSACHSEN
  6
Continuous
 62
     9
100
AcDbLine
 10
38.7972410025
 20
323.2485070931
 30
0.0
 11
47.0841340224
 21
323.2485070931
 31
0.0
  0
LINE
  5
C1
330
1F
100
AcDbEntity
  8
BEZUGSACHSEN
  6
Continuous
 62
     7
100
AcDbLine
 10
85.6495316895
 20
345.9548312669
 30
0.0
 11
85.0302880755
 21
346.1207570931
 31
0.0
  0
LINE
  5
C2
330
1F
100
AcDbEntity
  8
0
  6
Continuous
 62
     9
100
AcDbLine
 10
171.5302880755
 20
322.2385070931
 30
0.0
 11
171.5302880755
 21
294.2385070931
 31
0.0
  0
LINE
  5
C3
330
1F
100
AcDbEntity
  8
BEZUGSACHSEN
  6
Continuous
 62
     7
100
AcDbLine
 10
86.8297167868
 20
345.9207570931
 30
0.0
 11
85.9083507346
 21
345.9207570931
 31
0.0
  0
LINE
  5
C4
330
1F
100
AcDbEntity
  8
BEZUGSACHSEN
  6
Continuous
 62
     7
100
AcDbLine
 10
85.0302880755
 20
346.1207570931
 30
0.0
 11
39.4302135907
 21
343.8361933615
 31
0.0
  0
LINE
  5
C5
330
1F
100
AcDbEntity
  8
BEZUGSACHSEN
  6
Continuous
 62
     7
100
AcDbLine
 10
106.6552880755
 20
354.2385070931
 30
0.0
 11
108.4052880755
 21
354.2385070931
 31
0.0
  0
LINE
  5
C6
330
1F
100
AcDbEntity
  8
0
  6
Continuous
 62
     7
100
AcDbLine
 10
239.1531839925
 20
294.3321993061
 30
0.0
 11
246.9529063372
 21
297.9692695669
 31
0.0
  0
LINE
  5
C7
330
1F
100
AcDbEntity
  8
BEZUGSACHSEN
  6
Continuous
 62
     7
100
AcDbLine
 10
104.2826928113
 20
358.2385070931
 30
0.0
 11
99.5302880755
 21
358.2385070931
 31
0.0
  0
LINE
  5
C8
330
1F
100
AcDbEntity
  8
BEZUGSACHSEN
  6
Continuous
 62
     7
100
AcDbLine
 10
89.5302880755
 20
358.2385070931
 30
0.0
 11
87.5302880755
 21
358.2385070931
 31
0.0
  0
LINE
  5
C9
330
1F
100
AcDbEntity
  8
BEZUGSACHSEN
  6
Continuous
 62
     7
100
AcDbLine
 10
110.7778833397
 20
358.2385070931
 30
0.0
 11
116.5302880755
 21
358.2385070931
 31
0.0
  0
LINE
  5
CA
330
1F
100
AcDbEntity
  8
RUNDUNGEN
  6
Continuous
 62
     7
100
AcDbLine
 10
246.9529063372
 20
318.5077446194
 30
0.0
 11
239.1531839925
 21
322.1448148802
 31
0.0
  0
LINE
  5
CB
330
1F
100
AcDbEntity
  8
0
  6
Continuous
 62
     7
100
AcDbLine
 10
239.1531839925
 20
322.1448148802
 30
0.0
 11
246.9529063372
 21
318.5077446194
 31
0.0
  0
LWPOLYLINE
  5
CC
330
1F
100
AcDbEntity
  8
DEFAULT_2
  6
DASHED
 62
     8
100
AcDbPolyline
 90
        2
 70
     0
 43
0.35
 10
214.5302880755
 20
312.2385070931
 10
214.5302880755
 20
304.2385070931
  0
LWPOLYLINE
  5
CD
330
1F
100
AcDbEntity
  8
GEWINDE
  6
DASHED
 62
     8
100
AcDbPolyline
 90
        2
 70
     0
 43
0.35
 10
226.1302880755
 20
304.2385070931
 10
226.1302880755
 20
294.2385070931
  0
LWPOLYLINE
  5
CE
330
1F
100
AcDbEntity
  8
GEWINDE
  6
DOT_CENTER
 62
     7
100
AcDbPolyline
 90
        2
 70
     0
 43
0.25
 10
229.5302880755
 20
291.2385070931
 10
229.5302880755
 20
309.1331056699
  0
LWPOLYLINE
  5
CF
330
1F
100
AcDbEntity
  8
GEWINDE
  6
DASHED
 62
     8
100
AcDbPolyline
 90
        2
 70
     0
 43
0.35
 10
232.9302880755
 20
304.2385070931
 10
232.9302880755
 20
294.2385070931
  0
LINE
  5
D0
330
1F
100
AcDbEntity
  8
RUNDUNGEN
  6
Continuous
 62
     9
100
AcDbLine
 10
238.7305657308
 20
294.2385070931
 30
0.0
 11
238.7305657308
 21
322.2385070931
 31
0.0
  0
LINE
  5
D1
330
1F
100
AcDbEntity
  8
RUNDUNGEN
  6
Continuous
 62
     9
100
AcDbLine
 10
239.1531839925
 20
294.3321993061
 30
0.0
 11
239.1531839925
 21
322.1448148802
 31
0.0
  0
LINE
  5
D2
330
1F
100
AcDbEntity
  8
RUNDUNGEN
  6
Continuous
 62
     9
100
AcDbLine
 10
246.9529063372
 20
297.9692695669
 30
0.0
 11
246.9529063372
 21
318.5077446194
 31
0.0
  0
LINE
  5
D3
330
1F
100
AcDbEntity
  8
RUNDUNGEN
  6
Continuous
 62
     7
100
AcDbLine
 10
247.5302880755
 20
298.875577354
 30
0.0
 11
247.5302880755
 21
317.6014368323
 31
0.0
  0
LWPOLYLINE
  5
D4
330
1F
100
AcDbEntity
  8
GEWINDE
  6
DASHED
 62
     8
100
AcDbPolyline
 90
        2
 70
     0
 43
0.35
 10
233.5302880755
 20
304.2385070931
 10
233.5302880755
 20
294.2385070931
  0
LWPOLYLINE
  5
D5
330
1F
100
AcDbEntity
  8
GEWINDE
  6
DASHED
 62
     8
100
AcDbPolyline
 90
        2
 70
     0
 43
0.35
 10
225.5302880755
 20
304.2385070931
 10
225.5302880755
 20
294.2385070931
  0
ARC
  5
D6
330
1F
100
AcDbEntity
  8
FASEN
  6
Continuous
 62
     7
100
AcDbCircle
 10
105.4309420983
 20
283.7697703631
 30
0.0
 40
19.03859487300018
100
AcDbArc
 50
227.4837701983004
 51
228.965195337529
  0
ARC
  5
D7
330
1F
100
AcDbEntity
  8
FASEN
  6
Continuous
 62
     7
100
AcDbCircle
 10
100.5021619973
 20
268.7385070931
 30
0.0
 40
8.0
100
AcDbArc
 50
90.0
 51
172.8323734889971
  0
ARC
  5
D8
330
1F
100
AcDbEntity
  8
FASEN
  6
Continuous
 62
     7
100
AcDbCircle
 10
100.5021619973
 20
268.7385070931
 30
0.0
 40
7.599982194900008
100
AcDbArc
 50
90.0
 51
174.9405171273017
  0
ARC
  5
D9
330
1F
100
AcDbEntity
  8
BEZUGSACHSEN
  6
Continuous
 62
     7
100
AcDbCircle
 10
45.5302880755
 20
300.2285070931
 30
0.0
 40
2.0
100
AcDbArc
 50
270.0
 51
355.2355361864949
  0
ARC
  5
DA
330
1F
100
AcDbEntity
  8
BEZUGSACHSEN
  6
Continuous
 62
     7
100
AcDbCircle
 10
39.5302880755
 20
274.6383155301
 30
0.0
 40
2.0
100
AcDbArc
 50
179.9999999971356
 51
267.1318795108405
  0
ARC
  5
DB
330
1F
100
AcDbEntity
  8
BEZUGSACHSEN
  6
Continuous
 62
     7
100
AcDbCircle
 10
106.6552880755
 20
261.2385070931
 30
0.0
 40
1.0
100
AcDbArc
 50
90.0
 51
180.0
  0
ARC
  5
DC
330
1F
100
AcDbEntity
  8
BEZUGSACHSEN
  6
Continuous
 62
     7
100
AcDbCircle
 10
85.9083507346
 20
269.5562570931
 30
0.0
 40
1.0
100
AcDbArc
 50
90.0
 51
104.9999999996989
  0
ARC
  5
DD
330
1F
100
AcDbEntity
  8
BEZUGSACHSEN
  6
Continuous
 62
     7
100
AcDbCircle
 10
86.8297167868
 20
269.5562570931
 30
0.0
 40
0.9999999999998028
100
AcDbArc
 50
45.49026120128747
 51
90.0
  0
ARC
  5
DE
330
1F
100
AcDbEntity
  8
0
  6
Continuous
 62
     7
100
AcDbCircle
 10
-137.067491807
 20
377.6729746835
 30
0.0
 40
264.5204223901892
100
AcDbArc
 50
335.840076470599
 51
336.5770705490999
  0
ARC
  5
DF
330
1F
100
AcDbEntity
  8
BEZUGSACHSEN
  6
Continuous
 62
     7
100
AcDbCircle
 10
94.5454960866
 20
408.29127686
 30
0.0
 40
50.30340021045197
100
AcDbArc
 50
264.2781515102013
 51
269.9826780125999
  0
ARC
  5
E0
330
1F
100
AcDbEntity
  8
BEZUGSACHSEN
  6
Continuous
 62
     7
100
AcDbCircle
 10
94.5150800744
 20
408.2912766593
 30
0.0
 40
50.30340000969741
100
AcDbArc
 50
270.017321976058
 51
275.7218485012565
  0
ARC
  5
E1
330
1F
100
AcDbEntity
  8
0
  6
Continuous
 62
     7
100
AcDbCircle
 10
102.5302880755
 20
308.2385070931
 30
0.0
 40
10.0
100
AcDbArc
 50
90.0
 51
270.0
  0
ARC
  5
E2
330
1F
100
AcDbEntity
  8
FASEN
  6
Continuous
 62
     7
100
AcDbCircle
 10
102.5302880755
 20
308.2385070931
 30
0.0
 40
9.599999195900011
100
AcDbArc
 50
90.0
 51
270.0
  0
ARC
  5
E3
330
1F
100
AcDbEntity
  8
BEZUGSACHSEN
  6
Continuous
 62
     7
100
AcDbCircle
 10
45.5302880755
 20
316.2485070931
 30
0.0
 40
1.999999999999984
100
AcDbArc
 50
4.76446378498879
 51
90.0
  0
ARC
  5
E4
330
1F
100
AcDbEntity
  8
BEZUGSACHSEN
  6
Continuous
 62
     7
100
AcDbCircle
 10
39.5302880755
 20
341.8386986562
 30
0.0
 40
2.000000000052408
100
AcDbArc
 50
92.86812048915944
 51
180.0000000143238
  0
ARC
  5
E5
330
1F
100
AcDbEntity
  8
BEZUGSACHSEN
  6
Continuous
 62
     7
100
AcDbCircle
 10
106.6552880755
 20
355.2385070931
 30
0.0
 40
1.0
100
AcDbArc
 50
180.0
 51
270.0
  0
ARC
  5
E6
330
1F
100
AcDbEntity
  8
BEZUGSACHSEN
  6
Continuous
 62
     7
100
AcDbCircle
 10
85.9083507346
 20
346.9207570931
 30
0.0
 40
0.9999999999133372
100
AcDbArc
 50
254.9999999988184
 51
270.0
  0
ARC
  5
E7
330
1F
100
AcDbEntity
  8
BEZUGSACHSEN
  6
Continuous
 62
     7
100
AcDbCircle
 10
86.8297167868
 20
346.9207570931
 30
0.0
 40
1.0
100
AcDbArc
 50
270.0
 51
314.5097387987125
  0
ARC
  5
E8
330
1F
100
AcDbEntity
  8
BEZUGSACHSEN
  6
Continuous
 62
     7
100
AcDbCircle
 10
223.8603346737
 20
-1297.8042521968
 30
0.0
 40
1632.172763698
100
AcDbArc
 50
96.2726189838
 51
96.48809068979999
  0
ARC
  5
E9
330
1F
100
AcDbEntity
  8
0
  6
Continuous
 62
     7
100
AcDbCircle
 10
171.5302880755
 20
94.2385070931
 30
0.0
 40
200.0
100
AcDbArc
 50
90.0
 51
101.2122714176519
  0
ARC
  5
EA
330
1F
100
AcDbEntity
  8
RUNDUNGEN
  6
Continuous
 62
     7
100
AcDbCircle
 10
171.5302880755
 20
94.2385070931
 30
0.0
 40
200.0
100
AcDbArc
 50
90.0
 51
101.2122714176519
  0
ARC
  5
EB
330
1F
100
AcDbEntity
  8
RUNDUNGEN
  6
Continuous
 62
     7
100
AcDbCircle
 10
136.5302880755
 20
270.8029429232
 30
0.0
 40
20.00000000001351
100
AcDbArc
 50
101.2122714176745
 51
180.0
  0
ARC
  5
EC
330
1F
100
AcDbEntity
  8
RUNDUNGEN
  6
Continuous
 62
     7
100
AcDbCircle
 10
246.5302880755
 20
298.875577354
 30
0.0
 40
1.000000000040203
100
AcDbArc
 50
294.9999999963525
 51
0.0
  0
ARC
  5
ED
330
1F
100
AcDbEntity
  8
BEZUGSACHSEN
  6
Continuous
 62
     7
100
AcDbCircle
 10
108.4052880755
 20
261.2385070931
 30
0.0
 40
1.0
100
AcDbArc
 50
0.0
 51
90.0
  0
ARC
  5
EE
330
1F
100
AcDbEntity
  8
RUNDUNGEN
  6
Continuous
 62
     7
100
AcDbCircle
 10
238.7305657308
 20
295.2385070931
 30
0.0
 40
1.0
100
AcDbArc
 50
270.0
 51
294.9999999987737
  0
ARC
  5
EF
330
1F
100
AcDbEntity
  8
BEZUGSACHSEN
  6
Continuous
 62
     7
100
AcDbCircle
 10
223.8603346737
 20
1914.2812663829
 30
0.0
 40
1632.1727636978
100
AcDbArc
 50
263.5119093102
 51
263.7273810162
  0
ARC
  5
F0
330
1F
100
AcDbEntity
  8
0
  6
Continuous
 62
     7
100
AcDbCircle
 10
352.128067958
 20
377.6729746835
 30
0.0
 40
264.5204223902
100
AcDbArc
 50
203.4229294508999
 51
204.1599235294009
  0
ARC
  5
F1
330
1F
100
AcDbEntity
  8
0
  6
Continuous
 62
     7
100
AcDbCircle
 10
171.5302880755
 20
522.2385070931
 30
0.0
 40
199.9999999999196
100
AcDbArc
 50
258.7877285823425
 51
270.0
  0
ARC
  5
F2
330
1F
100
AcDbEntity
  8
RUNDUNGEN
  6
Continuous
 62
     7
100
AcDbCircle
 10
171.5302880755
 20
522.2385070931
 30
0.0
 40
199.9999999999196
100
AcDbArc
 50
258.7877285823425
 51
270.0
  0
ARC
  5
F3
330
1F
100
AcDbEntity
  8
RUNDUNGEN
  6
Continuous
 62
     7
100
AcDbCircle
 10
136.5302880755
 20
345.6740712631
 30
0.0
 40
20.00000000000001
100
AcDbArc
 50
180.0
 51
258.7877285823256
  0
ARC
  5
F4
330
1F
100
AcDbEntity
  8
RUNDUNGEN
  6
Continuous
 62
     7
100
AcDbCircle
 10
246.5302880755
 20
317.6014368323
 30
0.0
 40
1.0
100
AcDbArc
 50
0.0
 51
65.00000000364744
  0
ARC
  5
F5
330
1F
100
AcDbEntity
  8
BEZUGSACHSEN
  6
Continuous
 62
     7
100
AcDbCircle
 10
108.4052880755
 20
355.2385070931
 30
0.0
 40
1.0
100
AcDbArc
 50
270.0
 51
0.0
  0
ARC
  5
F6
330
1F
100
AcDbEntity
  8
RUNDUNGEN
  6
Continuous
 62
     7
100
AcDbCircle
 10
238.7305657308
 20
321.2385070931
 30
0.0
 40
1.000000000040203
100
AcDbArc
 50
65.00000000364744
 51
90.0
  0
CIRCLE
  5
F7
330
1F
100
AcDbEntity
  8
BEZUGSACHSEN
  6
Continuous
 62
     7
100
AcDbCircle
 10
72.5302880755
 20
308.2385070931
 30
0.0
 40
6.0
  0
SPLINE
  5
F8
330
1F
100
AcDbEntity
  8
0
  6
Continuous
 62
     2
100
AcDbSpline
210
0.0
220
0.0
230
1.0
 70
     8
 71
     3
 72
    57
 73
    53
 74
    51
 42
0.0000000001
 43
0.0000000001
 44
0.00000001
 40
0.0
 40
0.0
 40
0.0
 40
0.0
 40
0.0080266563185784
 40
0.0320517741121018
 40
0.071960908415592
 40
0.1275108521358645
 40
0.1984435503883992
 40
0.2845691450129226
 40
0.3856575249959242
 40
0.5012452733548578
 40
0.6309253897993092
 40
0.7747424844008344
 40
0.9326314747252034
 40
1.103623510866871
 40
1.286517480884168
 40
1.480066778961001
 40
1.682993073081902
 40
1.893912352107265
 40
2.111800013638778
 40
2.337155347240171
 40
2.570426880317158
 40
2.810308826740313
 40
3.055135190417566
 40
3.303520718168566
 40
3.554090803960611
 40
3.80521332369039
 40
4.055666093445022
 40
4.306126160525006
 40
4.557267788424976
 40
4.807854796485718
 40
5.056241184940929
 40
5.301050189692344
 40
5.540899102950338
 40
5.774131709486087
 40
5.999453396049171
 40
6.217322216646806
 40
6.428241851050302
 40
6.631173077042293
 40
6.824716259512006
 40
7.00759242244615
 40
7.178558480066445
 40
7.336418570762325
 40
7.48020973470463
 40
7.609873597837774
 40
7.725459043501288
 40
7.826552765845144
 40
7.912684082718781
 40
7.983622353211453
 40
8.039178308966816
 40
8.079092233093606
 40
8.103119352751817
 40
8.111146292407591
 40
8.111146292407591
 40
8.111146292407591
 40
8.111146292407591
 10
233.5302880755
 20
294.2384965199
 30
0.0
 10
233.5277159693018
 20
294.2392333035293
 30
0.0
 10
233.517445121319
 20
294.2421754031428
 30
0.0
 10
233.4943725440296
 20
294.2487352629349
 30
0.0
 10
233.4560457249423
 20
294.2595672606005
 30
0.0
 10
233.4026253368165
 20
294.2744844014562
 30
0.0
 10
233.3343009555674
 20
294.2933067430633
 30
0.0
 10
233.2512322552956
 20
294.3157582606795
 30
0.0
 10
233.1536496556313
 20
294.3415538922279
 30
0.0
 10
233.0418376125582
 20
294.3703196612336
 30
0.0
 10
232.9159945462919
 20
294.401699179141
 30
0.0
 10
232.7761736302155
 20
294.4352818848179
 30
0.0
 10
232.6226209360939
 20
294.4706293842453
 30
0.0
 10
232.45598107261
 20
294.5071513949991
 30
0.0
 10
232.2772906996375
 20
294.5441611177097
 30
0.0
 10
232.087704020925
 20
294.5809788096916
 30
0.0
 10
231.8884468298779
 20
294.6169120603774
 30
0.0
 10
231.6807035583817
 20
294.6513903058845
 30
0.0
 10
231.4650791658511
 20
294.6839081329644
 30
0.0
 10
231.24158490701
 20
294.7140265638192
 30
0.0
 10
231.010348295902
 20
294.7413629107826
 30
0.0
 10
230.7722257901795
 20
294.7654594114063
 30
0.0
 10
230.5286915880899
 20
294.7857460615626
 30
0.0
 10
230.2812752418819
 20
294.8018711016543
 30
0.0
 10
230.0315051488724
 20
294.8134939895551
 30
0.0
 10
229.7808747816914
 20
294.8205399584189
 30
0.0
 10
229.5301926689461
 20
294.8229041993707
 30
0.0
 10
229.2795042167556
 20
294.8205364036015
 30
0.0
 10
229.0288595236614
 20
294.8134860102116
 30
0.0
 10
228.7790773253654
 20
294.8018586905206
 30
0.0
 10
228.5316611081074
 20
294.7857294696076
 30
0.0
 10
228.2881436978872
 20
294.7654401762929
 30
0.0
 10
228.0500511495854
 20
294.7413434002338
 30
0.0
 10
227.8188498297532
 20
294.7140084213445
 30
0.0
 10
227.5953860170386
 20
294.683892260046
 30
0.0
 10
227.3797790407679
 20
294.6513754806824
 30
0.0
 10
227.1720404768154
 20
294.6168964739852
 30
0.0
 10
226.9727837375865
 20
294.5809622784532
 30
0.0
 10
226.7832034815825
 20
294.5441447152562
 30
0.0
 10
226.6045296112568
 20
294.5071373371823
 30
0.0
 10
226.4379135446509
 20
294.4706199277266
 30
0.0
 10
226.2843871701546
 20
294.4352781738405
 30
0.0
 10
226.1445892864648
 20
294.4017010352254
 30
0.0
 10
226.0187605784849
 20
294.3703252264043
 30
0.0
 10
225.9069527668194
 20
294.3415606889386
 30
0.0
 10
225.8093672860644
 20
294.3157645283421
 30
0.0
 10
225.7262932002589
 20
294.2933116814023
 30
0.0
 10
225.6579632458728
 20
294.2744878492239
 30
0.0
 10
225.6045375875699
 20
294.2595692878485
 30
0.0
 10
225.5662066555632
 20
294.2487361502038
 30
0.0
 10
225.5431318248393
 20
294.2421755922997
 30
0.0
 10
225.5328602669012
 20
294.2392332049606
 30
0.0
 10
225.5302880755
 20
294.2384963758
 30
0.0
 11
233.5302880755
 21
294.2384965199
 31
0.0
 11
233.5225713930667
 21
294.2407055975083
 31
0.0
 11
233.4994640957333
 21
294.2472827621666
 31
0.0
 11
233.4610580904479
 21
294.2581325436792
 31
0.0
 11
233.40755641215
 21
294.2730780000667
 31
0.0
 11
233.3391697417875
 21
294.2919117728729
 31
0.0
 11
233.25602821635
 21
294.3143863095166
 31
0.0
 11
233.1582959811813
 21
294.3402178943792
 31
0.0
 11
233.046353759
 21
294.3690183538167
 31
0.0
 11
232.9205246953
 21
294.4003867986208
 31
0.0
 11
232.7806850493
 21
294.43397593535
 31
0.0
 11
232.6268191147354
 21
294.469390726698
 31
0.0
 11
232.4597902096833
 21
294.5059915641334
 31
0.0
 11
232.2806962725
 21
294.5430801868208
 31
0.0
 11
232.0906946983166
 21
294.5799682959333
 31
0.0
 11
231.8909899034292
 21
294.6159832337312
 31
0.0
 11
231.6829149320166
 21
294.6505049448166
 31
0.0
 11
231.4674611532458
 21
294.6829811247188
 31
0.0
 11
231.24412460835
 21
294.7130778703333
 31
0.0
 11
231.0124661263708
 21
294.7404631925187
 31
0.0
 11
230.7738010155166
 21
294.7645943566166
 31
0.0
 11
230.5298197730312
 21
294.7849192592417
 31
0.0
 11
230.2819591731333
 21
294.8010590676166
 31
0.0
 11
230.0316605032937
 21
294.8127185603312
 31
0.0
 11
229.7806368270167
 21
294.8197636908333
 31
0.0
 11
229.530195106425
 21
294.8221162351708
 31
0.0
 11
229.2797461220834
 21
294.8197600849334
 31
0.0
 11
229.0287034545875
 21
294.8127105203521
 31
0.0
 11
228.7783880662167
 21
294.8010462606833
 31
0.0
 11
228.5305268782083
 21
294.7849022386041
 31
0.0
 11
228.28656326595
 21
294.76457480145
 31
0.0
 11
228.0479313594062
 21
294.7404436106312
 31
0.0
 11
227.8163118527
 21
294.7130601692
 31
0.0
 11
227.5930089073791
 21
294.6829660327833
 31
0.0
 11
227.3775739905333
 21
294.6504911256666
 31
0.0
 11
227.1694988998417
 21
294.6159679622749
 31
0.0
 11
226.9697894498
 21
294.5799510489333
 31
0.0
 11
226.7797940899458
 21
294.5430630195146
 31
0.0
 11
226.6007177931666
 21
294.5059770261833
 31
0.0
 11
226.4337143993521
 21
294.4693811341646
 31
0.0
 11
226.27987669305
 21
294.4339725426333
 31
0.0
 11
226.1400622585271
 21
294.4003894706041
 31
0.0
 11
226.0142489342666
 21
294.3690250824999
 31
0.0
 11
225.9023089003958
 21
294.3402253591291
 31
0.0
 11
225.8045714494
 21
294.3143926014333
 31
0.0
 11
225.7214243684166
 21
294.2919166883187
 31
0.0
 11
225.6530323108333
 21
294.2730814904166
 31
0.0
 11
225.599524830352
 21
294.2581344588572
 31
0.0
 11
225.5611142156833
 21
294.2472833750417
 31
0.0
 11
225.5380050145229
 21
294.2407055865989
 31
0.0
 11
225.5302880755
 21
294.2384963758
 31
0.0
  0
SPLINE
  5
F9
330
1F
100
AcDbEntity
  8
GEWINDE
  6
Continuous
 62
     7
100
AcDbSpline
210
0.0
220
0.0
230
1.0
 70
     8
 71
     3
 72
    23
 73
    19
 74
    17
 42
0.0000000001
 43
0.0000000001
 44
0.00000001
 40
0.0
 40
0.0
 40
0.0
 40
0.0
 40
0.1335369405415599
 40
0.2670781132076758
 40
0.6422897653181897
 40
1.017522735533266
 40
1.572606814077472
 40
2.127724498268739
 40
2.780705184902882
 40
3.433700937870255
 40
4.086697606905111
 40
4.739679206977466
 40
5.294805718950023
 40
5.849898630449394
 40
6.225141633279816
 40
6.600363315454803
 40
6.73390822383999
 40
6.867448900165099
 40
6.867448900165099
 40
6.867448900165099
 40
6.867448900165099
 10
226.1302880755
 20
294.2385070931
 30
0.0
 10
226.1735682831513
 20
294.2489088322272
 30
0.0
 10
226.2601300701135
 20
294.2697126401391
 30
0.0
 10
226.4688149853912
 20
294.317557112214
 30
0.0
 10
226.7570412019253
 20
294.3789541711919
 30
0.0
 10
227.1848187212397
 20
294.459077998475
 30
0.0
 10
227.6742368281745
 20
294.5349972287155
 30
0.0
 10
228.258209856199
 20
294.6025955130215
 30
0.0
 10
228.8772141544087
 20
294.6471090201538
 30
0.0
 10
229.5302648758918
 20
294.662902108211
 30
0.0
 10
230.1833159660422
 20
294.6471115676094
 30
0.0
 10
230.8023239715026
 20
294.6025999879032
 30
0.0
 10
231.3863033341577
 20
294.535002496324
 30
0.0
 10
231.8757307034182
 20
294.4590827173229
 30
0.0
 10
232.3035177945539
 20
294.3789576605923
 30
0.0
 10
232.5917518180645
 20
294.3175591654126
 30
0.0
 10
232.8004424411547
 20
294.2697134825831
 30
0.0
 10
232.8870066545979
 20
294.2489091130437
 30
0.0
 10
232.9302880755
 20
294.2385070931
 30
0.0
 11
226.1302880755
 21
294.2385070931
 31
0.0
 11
226.2601821864767
 21
294.2694850598308
 31
0.0
 11
226.3903345209255
 21
294.2993784476377
 31
0.0
 11
226.7573368733622
 21
294.3774364849268
 31
0.0
 11
227.1261618326787
 21
294.4464866936273
 31
0.0
 11
227.6747047628909
 21
294.5314513213704
 31
0.0
 11
228.226153935417
 21
294.5951651614848
 31
0.0
 11
228.8774577434851
 21
294.6419318880454
 31
0.0
 11
229.5302645812015
 21
294.6576381296125
 31
0.0
 11
230.1830723953277
 21
294.6419343852703
 31
0.0
 11
230.8343772768554
 21
294.5951698545736
 31
0.0
 11
231.3858353871214
 21
294.5314564578927
 31
0.0
 11
231.9343872020375
 21
294.4464914842324
 31
0.0
 11
232.3032221110266
 21
294.377439901454
 31
0.0
 11
232.6702343337985
 21
294.2993800583191
 31
0.0
 11
232.8003903222771
 21
294.26948589135
 31
0.0
 11
232.9302880755
 21
294.2385070931
 31
0.0
  0
SPLINE
  5
FA
330
1F
100
AcDbEntity
  8
BEZUGSACHSEN
  6
Continuous
 62
     7
100
AcDbSpline
210
0.0
220
0.0
230
1.0
 70
     8
 71
     3
 72
    47
 73
    43
 74
    41
 42
0.0000000001
 43
0.0000000001
 44
0.00000001
 40
0.0
 40
0.0
 40
0.0
 40
0.0
 40
0.6366022431821741
 40
1.27359500217123
 40
1.592921746398539
 40
1.912076344881141
 40
2.231392290402797
 40
2.550826842696742
 40
3.189774321128054
 40
3.829081696987103
 40
4.46833715250238
 40
5.107221744780476
 40
5.426176341285897
 40
5.745033356835925
 40
6.063356731587525
 40
6.381780214861911
 40
7.017059195616882
 40
7.652639340940681
 40
8.287532214210396
 40
8.92234794649408
 40
9.55922674856486
 40
10.19613435933406
 40
10.83451785498129
 40
11.47287689969153
 40
12.11234487362045
 40
12.75189588947418
 40
13.39354300519357
 40
14.03487957354423
 40
14.3561520576983
 40
14.67732107710306
 40
14.99840882472046
 40
15.31959604122677
 40
15.96011121027938
 40
16.60099592088553
 40
17.23809108078776
 40
17.874825552026
 40
18.19205670335767
 40
18.50917199103683
 40
18.82571084632416
 40
19.14241581831756
 40
19.77338975000689
 40
20.40398930739419
 40
20.40398930739419
 40
20.40398930739419
 40
20.40398930739419
 10
66.0308724812
 20
308.2385070737
 30
0.0
 10
66.03687812508672
 20
308.4507868833952
 30
0.0
 10
66.04889309694845
 20
308.8754767232209
 30
0.0
 10
66.13015844215643
 20
309.4016194843364
 30
0.0
 10
66.22287803875724
 20
309.8165938604597
 30
0.0
 10
66.30817100289151
 20
310.1244178361483
 30
0.0
 10
66.40840961630394
 20
310.4277105129257
 30
0.0
 10
66.56189516542717
 20
310.8251478754703
 30
0.0
 10
66.79036711221231
 20
311.3072474523558
 30
0.0
 10
67.11998207278245
 20
311.8560633251988
 30
0.0
 10
67.50220928985405
 20
312.3695988645743
 30
0.0
 10
67.861063986979
 20
312.7641016266696
 30
0.0
 10
68.17001734056694
 20
313.0569749247027
 30
0.0
 10
68.4119124495517
 20
313.2646967458013
 30
0.0
 10
68.66355570302687
 20
313.4602061429134
 30
0.0
 10
69.01084981016135
 20
313.7037013455596
 30
0.0
 10
69.46659014490672
 20
313.975583415584
 30
0.0
 10
70.04206956959946
 20
314.2469125280934
 30
0.0
 10
70.64118033478519
 20
314.4606961589015
 30
0.0
 10
71.25863073725752
 20
314.6153858902835
 30
0.0
 10
71.88890129894295
 20
314.709192873976
 30
0.0
 10
72.52649523365264
 20
314.74131959882
 30
0.0
 10
73.16467387787168
 20
314.7108900258821
 30
0.0
 10
73.79768629906201
 20
314.6182187707055
 30
0.0
 10
74.41891998349675
 20
314.4637268094406
 30
0.0
 10
75.02305573546988
 20
314.2486896768805
 30
0.0
 10
75.60353480905516
 20
313.9747663111814
 30
0.0
 10
76.0631638332876
 20
313.6995994331509
 30
0.0
 10
76.41306282195077
 20
313.4529897343
 30
0.0
 10
76.66619445110065
 20
313.2550855419187
 30
0.0
 10
76.90919309045046
 20
313.0449070124923
 30
0.0
 10
77.21843743394496
 20
312.7493876723126
 30
0.0
 10
77.57675762474543
 20
312.3519166895582
 30
0.0
 10
77.956708043101
 20
311.8362499280314
 30
0.0
 10
78.28318107271068
 20
311.2866537715769
 30
0.0
 10
78.50855221270325
 20
310.805548229871
 30
0.0
 10
78.6596431958633
 20
310.409558042248
 30
0.0
 10
78.75805611341322
 20
310.1081316914521
 30
0.0
 10
78.84172289158295
 20
309.8024363235135
 30
0.0
 10
78.93254224901298
 20
309.3908843057734
 30
0.0
 10
79.01205722461768
 20
308.8694590892589
 30
0.0
 10
79.02382950928845
 20
308.4487828001268
 30
0.0
 10
79.0297139049
 20
308.2385070738
 30
0.0
 11
66.0308724812
 21
308.2385070737
 31
0.0
 11
66.06212115223981
 21
308.8743419080578
 31
0.0
 11
66.15556235461341
 21
309.5044438971861
 31
0.0
 11
66.22550286164628
 21
309.8160171551124
 31
0.0
 11
66.31064420061148
 21
310.1236055328704
 31
0.0
 11
66.41086873872474
 21
310.4267848775237
 31
0.0
 11
66.52594862845397
 21
310.7247698640232
 31
0.0
 11
66.79954452270078
 21
311.3021771438916
 31
0.0
 11
67.12876403639643
 21
311.8501994359837
 31
0.0
 11
67.51038829172631
 21
312.3630448953083
 31
0.0
 11
67.94032292785266
 21
312.8356226464872
 31
0.0
 11
68.17179518893504
 21
313.0550597148721
 31
0.0
 11
68.41369758997601
 21
313.2627927761216
 31
0.0
 11
68.66507139711587
 21
313.458089934312
 31
0.0
 11
68.92580067538067
 21
313.6408842399019
 31
0.0
 11
69.4713343195635
 21
313.9664183033326
 31
0.0
 11
70.04624413969265
 21
314.2374179709503
 31
0.0
 11
70.64419032747074
 21
314.4508408306685
 31
0.0
 11
71.259982859713
 21
314.6050827548964
 31
0.0
 11
71.88991514167198
 21
314.6988906899184
 31
0.0
 11
72.52601826337838
 21
314.730892615034
 31
0.0
 11
73.16367922238246
 21
314.700528345295
 31
0.0
 11
73.79529675529093
 21
314.607999635772
 31
0.0
 11
74.41586962741583
 21
314.4536992791185
 31
0.0
 11
75.01837043456963
 21
314.2391805637146
 31
0.0
 11
75.59867763095077
 21
313.9654022246531
 31
0.0
 11
76.1489026189988
 21
313.6359101057316
 31
0.0
 11
76.41150992314627
 21
313.4508333300872
 31
0.0
 11
76.66453038053811
 21
313.2530198139498
 31
0.0
 11
76.90737868190241
 21
313.0429673343299
 31
0.0
 11
77.13958111730946
 21
312.8210591167306
 31
0.0
 11
77.5684971750437
 21
312.3453588989419
 31
0.0
 11
77.94860783371679
 21
311.8293655855629
 31
0.0
 11
78.27404697944198
 21
311.2816616461937
 31
0.0
 11
78.54412783757164
 21
310.7050446876025
 31
0.0
 11
78.65721828275585
 21
310.4086561679475
 31
0.0
 11
78.75566238609501
 21
310.1072082218647
 31
0.0
 11
78.83914519146924
 21
309.8018764873308
 31
0.0
 11
78.90769461490349
 21
309.4926791137453
 31
0.0
 11
78.99912169278777
 21
308.8683641356284
 31
0.0
 11
79.0297139049
 21
308.2385070738
 31
0.0
  0
SPLINE
  5
FB
330
1F
100
AcDbEntity
  8
BEZUGSACHSEN
  6
Continuous
 62
     7
100
AcDbSpline
210
0.0
220
0.0
230
1.0
 70
     8
 71
     3
 72
    47
 73
    43
 74
    41
 42
0.0000000001
 43
0.0000000001
 44
0.00000001
 40
0.0
 40
0.0
 40
0.0
 40
0.0
 40
0.6302393214780383
 40
1.260854867358695
 40
1.577476088429001
 40
1.893930800240203
 40
2.210999113877244
 40
2.52818347221708
 40
3.164887038272835
 40
3.801951183439768
 40
4.44285100168001
 40
5.083381259861261
 40
5.404527292382968
 40
5.725573838817516
 40
6.046670710068713
 40
6.367871027172098
 40
7.009090242558443
 40
7.650619763989853
 40
8.29033034653603
 40
8.929958764514978
 40
9.568647011370594
 40
10.2073592301549
 40
10.84445705819136
 40
11.48152626500807
 40
12.11643462228032
 40
12.75141965584356
 40
13.38691908741206
 40
14.02211738533199
 40
14.34050449144806
 40
14.65879153793922
 40
14.9776158687026
 40
15.2965377494638
 40
15.9353769410134
 40
16.57458694066912
 40
17.2138627499251
 40
17.85277859075904
 40
18.17219860083415
 40
18.49150024076767
 40
18.81067156637051
 40
19.13001452424236
 40
19.76719627025147
 40
20.40398968280414
 40
20.40398968280414
 40
20.40398968280414
 40
20.40398968280414
 10
79.0297017133
 20
308.2385071119
 30
0.0
 10
79.02383251155551
 20
308.0283510900039
 30
0.0
 10
79.01209060441826
 20
307.6079135925611
 30
0.0
 10
78.93264386186158
 20
307.0867501502969
 30
0.0
 10
78.84191235679637
 20
306.6753586828739
 30
0.0
 10
78.7583069745017
 20
306.3697208425887
 30
0.0
 10
78.6599550331354
 20
306.0683369964037
 30
0.0
 10
78.50893622227994
 20
305.6723638168065
 30
0.0
 10
78.2836536346766
 20
305.1912570081116
 30
0.0
 10
77.957275599915
 20
304.6416227830975
 30
0.0
 10
77.57740853784223
 20
304.1258949204382
 30
0.0
 10
77.21915409853511
 20
303.7283695182393
 30
0.0
 10
76.9099733608617
 20
303.432816163303
 30
0.0
 10
76.66704840484275
 20
303.2226312548698
 30
0.0
 10
76.41399950153897
 20
303.0247217905504
 30
0.0
 10
76.06421699309544
 20
302.7780984390812
 30
0.0
 10
75.6047317553327
 20
302.502891829812
 30
0.0
 10
75.02433604835359
 20
302.2288517231102
 30
0.0
 10
74.42018174051219
 20
302.0136632457529
 30
0.0
 10
73.79876659311691
 20
301.8590014067107
 30
0.0
 10
73.16549738169529
 20
301.7661910336761
 30
0.0
 10
72.52703791726431
 20
301.7356802838694
 30
0.0
 10
71.88920490369924
 20
301.7677820262521
 30
0.0
 10
71.25877491668442
 20
301.8615950886258
 30
0.0
 10
70.64120124717309
 20
302.0163089049142
 30
0.0
 10
70.04205783573892
 20
302.2301054769724
 30
0.0
 10
69.46660061427039
 20
302.5014268453842
 30
0.0
 10
69.01091522132927
 20
302.7732717290244
 30
0.0
 10
68.66365932362031
 20
303.0167322816511
 30
0.0
 10
68.41203974234459
 20
303.2122148079984
 30
0.0
 10
68.17016469208086
 20
303.4199078666957
 30
0.0
 10
67.86122840839869
 20
303.712745414818
 30
0.0
 10
67.502385651504
 20
304.1072030637437
 30
0.0
 10
67.12015874625843
 20
304.6206877296942
 30
0.0
 10
66.79053430100718
 20
305.1694555084224
 30
0.0
 10
66.56204685508779
 20
305.6515189249172
 30
0.0
 10
66.40854535511903
 20
306.0489284840804
 30
0.0
 10
66.30828855219286
 20
306.3522108473647
 30
0.0
 10
66.22297205927129
 20
306.6600347190756
 30
0.0
 10
66.13020960390762
 20
307.0750755861853
 30
0.0
 10
66.04891723694428
 20
307.6013483852604
 30
0.0
 10
66.03687743745643
 20
308.026164034961
 30
0.0
 10
66.0308593727
 20
308.2385071136
 30
0.0
 11
79.0297017133
 21
308.2385071119
 31
0.0
 11
78.99916213457877
 21
307.6090081552141
 31
0.0
 11
78.90783085905196
 21
306.9850413573658
 31
0.0
 11
78.83933612036543
 21
306.675917646848
 31
0.0
 11
78.75591729552868
 21
306.370655653979
 31
0.0
 11
78.65753055168962
 21
306.0692383947695
 31
0.0
 11
78.54449992058706
 21
305.7728771395285
 31
0.0
 11
78.27451978407225
 21
305.196247139515
 31
0.0
 11
77.94918316220154
 21
304.6485183676515
 31
0.0
 11
77.56914666737039
 21
304.1324516669075
 31
0.0
 11
77.14029616967544
 21
303.656672030655
 31
0.0
 11
76.90815903530111
 21
303.4347550978876
 31
0.0
 11
76.66537654197487
 21
303.2246895226216
 31
0.0
 11
76.41244693370125
 21
303.0268769497505
 31
0.0
 11
76.14993253788971
 21
302.8417936287867
 31
0.0
 11
75.59987435628581
 21
302.5122514023099
 31
0.0
 11
75.01973352459981
 21
302.23839607138
 31
0.0
 11
74.4171282142929
 21
302.0236951877966
 31
0.0
 11
73.79642894398374
 21
301.8692383040914
 31
0.0
 11
73.16450013009262
 21
301.7765633298769
 31
0.0
 11
72.52651400293013
 21
301.7461166556319
 31
0.0
 11
71.89021901478644
 21
301.7780905598664
 31
0.0
 11
71.26009574064751
 21
301.8719086480078
 31
0.0
 11
70.64421183239155
 21
302.0261669822576
 31
0.0
 11
70.04617936257051
 21
302.2396222653711
 31
0.0
 11
69.47134361402796
 21
302.5105897721342
 31
0.0
 11
68.92587692651566
 21
302.8360785899063
 31
0.0
 11
68.6651746337674
 21
303.0188480181397
 31
0.0
 11
68.41382538198464
 21
303.2141175692539
 31
0.0
 11
68.17194208364604
 21
303.4218227060983
 31
0.0
 11
67.94048625234741
 21
303.6412295523591
 31
0.0
 11
67.5105632214672
 21
304.1137564829975
 31
0.0
 11
67.1289420820094
 21
304.6265475999045
 31
0.0
 11
66.79971060783036
 21
305.1745258811437
 31
0.0
 11
66.52609630068632
 21
305.7518894257104
 31
0.0
 11
66.41100404822636
 21
306.0498540482079
 31
0.0
 11
66.31076435979949
 21
306.3530133167918
 31
0.0
 11
66.22559727958085
 21
306.6606119246139
 31
0.0
 11
66.1556342520974
 21
306.9721967437686
 31
0.0
 11
66.06214535511691
 21
307.602482713459
 31
0.0
 11
66.0308593727
 21
308.2385071136
 31
0.0
  0
SPLINE
  5
FC
330
1F
100
AcDbEntity
  8
BEZUGSACHSEN
  6
Continuous
 62
     7
100
AcDbSpline
210
0.0
220
0.0
230
1.0
 70
     8
 71
     3
 72
    27
 73
    23
 74
    21
 42
0.0000000001
 43
0.0000000001
 44
0.00000001
 40
0.0
 40
0.0
 40
0.0
 40
0.0
 40
0.1260969825525345
 40
0.2522464959194702
 40
0.3668867952504061
 40
0.4815825893953769
 40
0.5839596006875
 40
0.6859489161358024
 40
0.7334568410428631
 40
0.7809568848815253
 40
0.8274002264432078
 40
0.8738421607341891
 40
0.9204907319212515
 40
0.9671431399561394
 40
1.015111401853606
 40
1.063087497178878
 40
1.165500418813217
 40
1.268190479057882
 40
1.380949154003354
 40
1.493646517859465
 40
1.615655563779864
 40
1.737631867679623
 40
1.737631867679623
 40
1.737631867679623
 40
1.737631867679623
 10
37.5302880755
 20
322.8727395793
 30
0.0
 10
37.53101661697628
 20
322.914782507361
 30
0.0
 10
37.53247400343236
 20
322.9988858781705
 30
0.0
 10
37.5459185653808
 20
323.1206332057331
 30
0.0
 10
37.56887399866633
 20
323.2370509221114
 30
0.0
 10
37.60283989900194
 20
323.3426263799045
 30
0.0
 10
37.64906565784939
 20
323.4387844421671
 30
0.0
 10
37.69760882640082
 20
323.5079538078381
 30
0.0
 10
37.7430481519718
 20
323.5554912894337
 30
0.0
 10
37.77895423006805
 20
323.5861865729044
 30
0.0
 10
37.81760166115303
 20
323.6127216086391
 30
0.0
 10
37.85855614835295
 20
323.6349499545689
 30
0.0
 10
37.90169577453111
 20
323.6527431714605
 30
0.0
 10
37.94687640914677
 20
323.6662765785223
 30
0.0
 10
37.9935836321383
 20
323.6754737038565
 30
0.0
 10
38.05940762335564
 20
323.6824290242313
 30
0.0
 10
38.14413537538049
 20
323.6805637675641
 30
0.0
 10
38.24896697889525
 20
323.6636491065811
 30
0.0
 10
38.35454622125162
 20
323.6342344737093
 30
0.0
 10
38.46270415933291
 20
323.5924828362615
 30
0.0
 10
38.57035642058425
 20
323.5416870091138
 30
0.0
 10
38.64087579541643
 20
323.501122580901
 30
0.0
 10
38.6761307511
 20
323.4808430886
 30
0.0
 11
37.5302880755
 21
322.8727395793
 31
0.0
 11
37.53441943506465
 21
322.9987688650911
 31
0.0
 11
37.54818619418566
 21
323.1241649418479
 31
0.0
 11
37.5710377702678
 21
323.2365046218424
 31
0.0
 11
37.60667595963866
 21
323.3455231737173
 31
0.0
 11
37.6515757244388
 21
323.437528953764
 31
0.0
 11
37.71074815339294
 21
323.5205978656221
 31
0.0
 11
37.74360065355448
 21
323.5549157350505
 31
0.0
 11
37.77973774848128
 21
323.5857437180356
 31
0.0
 11
37.81802501334272
 21
323.6120319154794
 31
0.0
 11
37.85884762127998
 21
323.6341761685011
 31
0.0
 11
37.90195376489803
 21
323.6520073091313
 31
0.0
 11
37.94663333694237
 21
323.6654305359188
 31
0.0
 11
37.99368414269824
 21
323.6747673355411
 31
0.0
 11
38.0413880299774
 21
323.6798707521532
 31
0.0
 11
38.14378767086802
 21
323.6782214907563
 31
0.0
 11
38.24525192120758
 21
323.6624020604226
 31
0.0
 11
38.35397563766153
 21
323.6325077088508
 31
0.0
 11
38.45929362993867
 21
323.5923976562102
 31
0.0
 11
38.56958631580873
 21
323.540227446991
 31
0.0
 11
38.6761307511
 21
323.4808430886
 31
0.0
  0
SPLINE
  5
FD
330
1F
100
AcDbEntity
  8
BEZUGSACHSEN
  6
Continuous
 62
     7
100
AcDbSpline
210
0.0
220
0.0
230
1.0
 70
     8
 71
     3
 72
    27
 73
    23
 74
    21
 42
0.0000000001
 43
0.0000000001
 44
0.00000001
 40
0.0
 40
0.0
 40
0.0
 40
0.0
 40
0.121976513951634
 40
0.2439857714749121
 40
0.3566831398333667
 40
0.4694418149629588
 40
0.5721317672948615
 40
0.674544588115603
 40
0.7225206521221939
 40
0.7704888797708628
 40
0.8171412936045996
 40
0.8637898734267745
 40
0.9102318000825548
 40
0.9566751324135626
 40
1.004175175748977
 40
1.051683100138811
 40
1.153672388731308
 40
1.256049376645799
 40
1.37074513804787
 40
1.485385401826014
 40
1.611534903874148
 40
1.737631876006394
 40
1.737631876006394
 40
1.737631876006394
 40
1.737631876006394
 10
38.6761307511
 20
292.9961710977
 30
0.0
 10
38.64087573349661
 20
292.9758915724352
 30
0.0
 10
38.5703562343762
 20
292.9353270780371
 30
0.0
 10
38.46270383119038
 20
292.8845312171453
 30
0.0
 10
38.35454581531905
 20
292.8427795812763
 30
0.0
 10
38.24896659435066
 20
292.8133649961349
 30
0.0
 10
38.14413504920491
 20
292.7964504087468
 30
0.0
 10
38.05940737935555
 20
292.7945851855184
 30
0.0
 10
37.99358344295179
 20
292.8015404935381
 30
0.0
 10
37.94687623973772
 20
292.8107376206916
 30
0.0
 10
37.90169562243368
 20
292.8242710656788
 30
0.0
 10
37.85855601178196
 20
292.8420643244849
 30
0.0
 10
37.81760153520381
 20
292.8642926821886
 30
0.0
 10
37.77895410873305
 20
292.8908277138905
 30
0.0
 10
37.74304803010096
 20
292.9215229914207
 30
0.0
 10
37.69760870856676
 20
292.9690604645303
 30
0.0
 10
37.6490655684765
 20
293.0382298316039
 30
0.0
 10
37.60283985950335
 20
293.1343878862957
 30
0.0
 10
37.56887398572331
 20
293.2399633192745
 30
0.0
 10
37.5459185615461
 20
293.3563810101801
 30
0.0
 10
37.53247400319494
 20
293.4781283188684
 30
0.0
 10
37.53101661689888
 20
293.5622316824188
 30
0.0
 10
37.5302880755
 20
293.604274607
 30
0.0
 11
38.6761307511
 21
292.9961710977
 31
0.0
 11
38.56958612703946
 21
292.9367866465399
 31
0.0
 11
38.45929323787078
 21
292.884616372243
 31
0.0
 11
38.35397523001836
 21
292.8445063478487
 31
0.0
 11
38.24525150147531
 21
292.8146120395496
 31
0.0
 11
38.14378734935416
 21
292.7987926797565
 31
0.0
 11
38.04138780876976
 21
292.7971434506745
 31
0.0
 11
37.99368395255721
 21
292.8022468632599
 31
0.0
 11
37.94663318229576
 21
292.8115836657939
 31
0.0
 11
37.90195361486234
 21
292.8250069280828
 31
0.0
 11
37.85884747826641
 21
292.8428381082793
 31
0.0
 11
37.81802488546956
 21
292.8649823731992
 31
0.0
 11
37.77973762892341
 21
292.8912705664459
 31
0.0
 11
37.74360053191285
 21
292.922098546213
 31
0.0
 11
37.71074803154096
 21
292.9564164147241
 31
0.0
 11
37.65157563728714
 21
293.0394853183275
 31
0.0
 11
37.60667591368608
 21
293.1314910924669
 31
0.0
 11
37.57103775411859
 21
293.2405096196366
 31
0.0
 11
37.54818619075235
 21
293.3528492659367
 31
0.0
 11
37.5344194344298
 21
293.478245331614
 31
0.0
 11
37.5302880755
 21
293.604274607
 31
0.0
  0
SPLINE
  5
FE
330
1F
100
AcDbEntity
  8
0
  6
Continuous
 62
     7
100
AcDbSpline
210
0.0
220
0.0
230
1.0
 70
     8
 71
     3
 72
    19
 73
    15
 74
    13
 42
0.0000000001
 43
0.0000000001
 44
0.00000001
 40
0.0
 40
0.0
 40
0.0
 40
0.0
 40
0.1162460235696223
 40
0.2327881717828437
 40
0.3491890045693442
 40
0.46554685504421
 40
0.5819071369852206
 40
0.6982738489255051
 40
0.8146206072806219
 40
0.9309998278197869
 40
1.163276323447293
 40
1.396138921785206
 40
1.629013178082955
 40
1.861351539742798
 40
1.861351539742798
 40
1.861351539742798
 40
1.861351539742798
 10
106.6552880755
 20
274.7161265094
 30
0.0
 10
106.6165040046598
 20
274.7142855625121
 30
0.0
 10
106.5388370645965
 20
274.7105989791158
 30
0.0
 10
106.4252269795321
 20
274.6821934941711
 30
0.0
 10
106.3170392915803
 20
274.6383395799688
 30
0.0
 10
106.2160634256056
 20
274.5797428917442
 30
0.0
 10
106.123294968853
 20
274.5090580304225
 30
0.0
 10
106.0392075898365
 20
274.4283004253418
 30
0.0
 10
105.9639039464468
 20
274.3393327865983
 30
0.0
 10
105.8752527022842
 20
274.211973338846
 30
0.0
 10
105.7852559565791
 20
274.0391879607494
 30
0.0
 10
105.7103624374598
 20
273.8182629705584
 30
0.0
 10
105.6638255121336
 20
273.5892430509729
 30
0.0
 10
105.6581317014115
 20
273.4340636581396
 30
0.0
 10
105.6552880755
 20
273.35656334
 30
0.0
 11
106.6552880755
 21
274.7161265094
 31
0.0
 11
106.5394167239496
 21
274.7068008520171
 31
0.0
 11
106.4260921992615
 21
274.6796048152767
 31
0.0
 11
106.3182190666503
 21
274.6358722057727
 31
0.0
 11
106.2174303271256
 21
274.5777277361118
 31
0.0
 11
106.1247430220447
 21
274.5073801797204
 31
0.0
 11
106.0406676563859
 21
274.4269280539739
 31
0.0
 11
105.9653688984404
 21
274.3382338307595
 31
0.0
 11
105.8987421691289
 21
274.2428136970635
 31
0.0
 11
105.7908523830545
 21
274.03711448831
 31
0.0
 11
105.7150942462419
 21
273.8169198144158
 31
0.0
 11
105.6701342324428
 21
273.5884268902247
 31
0.0
 11
105.6552880755
 21
273.35656334
 31
0.0
  0
SPLINE
  5
FF
330
1F
100
AcDbEntity
  8
0
  6
Continuous
 62
     7
100
AcDbSpline
210
0.0
220
0.0
230
1.0
 70
     8
 71
     3
 72
    19
 73
    15
 74
    13
 42
0.0000000001
 43
0.0000000001
 44
0.00000001
 40
0.0
 40
0.0
 40
0.0
 40
0.0
 40
0.2323383481159176
 40
0.4652125957009685
 40
0.6980761132671758
 40
0.930353518725397
 40
1.046733461805991
 40
1.163080940883031
 40
1.279447997434879
 40
1.395808629517937
 40
1.512165904488868
 40
1.628566140332279
 40
1.745106920524974
 40
1.861351602787995
 40
1.861351602787995
 40
1.861351602787995
 40
1.861351602787995
 10
109.4052880755
 20
273.35656334
 30
0.0
 10
109.4024444498945
 20
273.4340636536589
 30
0.0
 10
109.3967506397255
 20
273.5892430391424
 30
0.0
 10
109.3502136638858
 20
273.818263253157
 30
0.0
 10
109.2753199181253
 20
274.039188815051
 30
0.0
 10
109.1853226138759
 20
274.2119748792715
 30
0.0
 10
109.0966706760735
 20
274.3393348050035
 30
0.0
 10
109.0213664117211
 20
274.4283027039195
 30
0.0
 10
108.9372784378967
 20
274.5090603738593
 30
0.0
 10
108.844509704061
 20
274.5797449402083
 30
0.0
 10
108.7435338918184
 20
274.6383411643665
 30
0.0
 10
108.6353468423079
 20
274.682194415522
 30
0.0
 10
108.5217377329539
 20
274.7105991749723
 30
0.0
 10
108.4440716981618
 20
274.7142856276194
 30
0.0
 10
108.4052880755
 20
274.7161265094
 30
0.0
 11
109.4052880755
 21
273.35656334
 31
0.0
 11
109.3904419213822
 21
273.5884268768339
 31
0.0
 11
109.3454819197936
 21
273.8169197945479
 31
0.0
 11
109.2697234411112
 21
274.0371153229336
 31
0.0
 11
109.1618330299336
 21
274.2428152312037
 31
0.0
 11
109.0952057060894
 21
274.3382358310174
 31
0.0
 11
109.0199062495226
 21
274.4269304065467
 31
0.0
 11
108.9358303831921
 21
274.5073825075219
 31
0.0
 11
108.8431425572228
 21
274.5777299567709
 31
0.0
 11
108.7423541223182
 21
274.6358738027749
 31
0.0
 11
108.6344813935266
 21
274.6796058195071
 31
0.0
 11
108.5211581049727
 21
274.706801144827
 31
0.0
 11
108.4052880755
 21
274.7161265094
 31
0.0
  0
SPLINE
  5
100
330
1F
100
AcDbEntity
  8
BEZUGSACHSEN
  6
Continuous
 62
     7
100
AcDbSpline
210
0.0
220
0.0
230
1.0
 70
     8
 71
     3
 72
    11
 73
     7
 74
     5
 42
0.0000000001
 43
0.0000000001
 44
0.00000001
 40
0.0
 40
0.0
 40
0.0
 40
0.0
 40
0.5462907430959013
 40
1.09300086357473
 40
1.646070107108865
 40
2.198197048707559
 40
2.198197048707559
 40
2.198197048707559
 40
2.198197048707559
 10
47.0841340224
 20
323.2485070931
 30
0.0
 10
47.14720482425834
 20
323.0775754638747
 30
0.0
 10
47.27339484627274
 20
322.7355809843478
 30
0.0
 10
47.41303215925692
 20
322.2043068551368
 30
0.0
 10
47.51052052331051
 20
321.6608824501847
 30
0.0
 10
47.52370263784017
 20
321.2922978096095
 30
0.0
 10
47.5302880755
 20
321.1081626189
 30
0.0
 11
47.0841340224
 21
323.2485070931
 31
0.0
 11
47.26498535500429
 21
322.7330205544906
 31
0.0
 11
47.4054768396775
 21
322.2046701986013
 31
0.0
 11
47.49754349293283
 21
321.6593177258814
 31
0.0
 11
47.5302880755
 21
321.1081626189
 31
0.0
  0
SPLINE
  5
101
330
1F
100
AcDbEntity
  8
BEZUGSACHSEN
  6
Continuous
 62
     7
100
AcDbSpline
210
0.0
220
0.0
230
1.0
 70
     8
 71
     3
 72
    19
 73
    15
 74
    13
 42
0.0000000001
 43
0.0000000001
 44
0.00000001
 40
0.0
 40
0.0
 40
0.0
 40
0.0
 40
0.1462385987747001
 40
0.2927479274788286
 40
0.4364790706168193
 40
0.5801659236312737
 40
0.7203799972473398
 40
0.860605938214674
 40
0.9980411883382022
 40
1.135484020385113
 40
1.40541563104711
 40
1.675815514047007
 40
1.943997429493996
 40
2.211934834801273
 40
2.211934834801273
 40
2.211934834801273
 40
2.211934834801273
 10
45.5302880755
 20
324.5971546806
 30
0.0
 10
45.57900288083876
 20
324.6004627579109
 30
0.0
 10
45.67652267670623
 20
324.6070850367402
 30
0.0
 10
45.8218589370159
 20
324.590725723988
 30
0.0
 10
45.96251587414122
 20
324.5555539579211
 30
0.0
 10
46.09536800759031
 20
324.5027482713118
 30
0.0
 10
46.21982247064739
 20
324.4350764835951
 30
0.0
 10
46.3346250278026
 20
324.3557762822147
 30
0.0
 10
46.44073496557672
 20
324.2666916426397
 30
0.0
 10
46.56983743075615
 20
324.138744107071
 30
0.0
 10
46.71287728065708
 20
323.9629418181621
 30
0.0
 10
46.85778488235768
 20
323.7352563522745
 30
0.0
 10
46.98242163081593
 20
323.4965937327763
 30
0.0
 10
47.05024020197003
 20
323.3311774923041
 30
0.0
 10
47.0841340224
 20
323.2485070931
 30
0.0
 11
45.5302880755
 21
324.5971546806
 31
0.0
 11
45.67642193731905
 21
324.6026884136474
 31
0.0
 11
45.8221312981657
 21
324.5873990199709
 31
0.0
 11
45.96156137972281
 21
324.5525006838396
 31
0.0
 11
46.09519371665172
 21
324.4996962308445
 31
0.0
 11
46.21850750745136
 21
324.4329602177883
 31
0.0
 11
46.33403861875922
 21
324.3534877266977
 31
0.0
 11
46.43945116853366
 21
324.2653024539671
 31
0.0
 11
46.53723967222783
 21
324.1687211896022
 31
0.0
 11
46.70848806811767
 21
323.9600658246107
 31
0.0
 11
46.85483048865233
 21
323.7326895006928
 31
0.0
 11
46.97869811445909
 21
323.4948274586394
 31
0.0
 11
47.0841340224
 21
323.2485070931
 31
0.0
  0
SPLINE
  5
102
330
1F
100
AcDbEntity
  8
BEZUGSACHSEN
  6
Continuous
 62
     7
100
AcDbSpline
210
0.0
220
0.0
230
1.0
 70
     8
 71
     3
 72
    11
 73
     7
 74
     5
 42
0.0000000001
 43
0.0000000001
 44
0.00000001
 40
0.0
 40
0.0
 40
0.0
 40
0.0
 40
0.5521269407067614
 40
1.105196183364636
 40
1.651906304768751
 40
2.198197048816561
 40
2.198197048816561
 40
2.198197048816561
 40
2.198197048816561
 10
47.5302880755
 20
295.3688515674
 30
0.0
 10
47.52370263787213
 20
295.184716376988
 30
0.0
 10
47.51052052340621
 20
294.816131737003
 30
0.0
 10
47.4130321596059
 20
294.2727073322947
 30
0.0
 10
47.27339484658074
 20
293.7414332027437
 30
0.0
 10
47.14720482436205
 20
293.3994387226252
 30
0.0
 10
47.0841340224
 20
293.2285070931
 30
0.0
 11
47.5302880755
 21
295.3688515674
 31
0.0
 11
47.4975434930732
 21
294.8176964613038
 31
0.0
 11
47.40547684012982
 21
294.2723439894198
 31
0.0
 11
47.2649853552964
 21
293.7439936326157
 31
0.0
 11
47.0841340224
 21
293.2285070931
 31
0.0
  0
SPLINE
  5
103
330
1F
100
AcDbEntity
  8
BEZUGSACHSEN
  6
Continuous
 62
     7
100
AcDbSpline
210
0.0
220
0.0
230
1.0
 70
     8
 71
     3
 72
    19
 73
    15
 74
    13
 42
0.0000000001
 43
0.0000000001
 44
0.00000001
 40
0.0
 40
0.0
 40
0.0
 40
0.0
 40
0.2679411643344738
 40
0.5361267936841324
 40
0.8065304773437317
 40
1.076465993191213
 40
1.213913376103819
 40
1.351353104830518
 40
1.491586367008074
 40
1.63180789749941
 40
1.775491562717715
 40
1.919219204703693
 40
2.065713007337572
 40
2.21193640926114
 40
2.21193640926114
 40
2.21193640926114
 40
2.21193640926114
 10
47.0841340224
 20
293.2285070931
 30
0.0
 10
47.05023977860105
 20
293.1458355133964
 30
0.0
 10
46.98242036646475
 20
292.9804169258293
 30
0.0
 10
46.85778186019264
 20
292.7417509521637
 30
0.0
 10
46.71287106089393
 20
292.514062956149
 30
0.0
 10
46.56982742937841
 20
292.3382584648363
 30
0.0
 10
46.44072104245176
 20
292.2103087457389
 30
0.0
 10
46.33460594336664
 20
292.1212217249526
 30
0.0
 10
46.21979651570965
 20
292.0419200846443
 30
0.0
 10
46.09533690347253
 20
291.9742496172145
 30
0.0
 10
45.96248334833503
 20
291.9214469305321
 30
0.0
 10
45.82183254946153
 20
291.8862806665278
 30
0.0
 10
45.67650716637218
 20
291.8699284645836
 30
0.0
 10
45.57899774732761
 20
291.8765511979352
 30
0.0
 10
45.5302880755
 20
291.8798595057
 30
0.0
 11
47.0841340224
 21
293.2285070931
 31
0.0
 11
46.97869676268353
 21
292.9821832172609
 31
0.0
 11
46.85482724712422
 21
292.7443179719963
 31
0.0
 11
46.70848176084594
 21
292.5169391014242
 31
0.0
 11
46.53722956972313
 21
292.3082817992479
 31
0.0
 11
46.43943713102114
 21
292.2116980428381
 31
0.0
 11
46.33402014174158
 21
292.1235110970711
 31
0.0
 11
46.21848149801684
 21
292.0440366381097
 31
0.0
 11
46.09515948812187
 21
291.9773001451782
 31
0.0
 11
45.961528799922
 21
291.9245001942143
 31
0.0
 11
45.82210109871423
 21
291.8896067678023
 31
0.0
 11
45.67640666019605
 21
291.874323941002
 31
0.0
 11
45.5302880755
 21
291.8798595057
 31
0.0
  0
SPLINE
  5
104
330
1F
100
AcDbEntity
  8
BEZUGSACHSEN
  6
Continuous
 62
     7
100
AcDbSpline
210
0.0
220
0.0
230
1.0
 70
     8
 71
     3
 72
    15
 73
    11
 74
     9
 42
0.0000000001
 43
0.0000000001
 44
0.00000001
 40
0.0
 40
0.0
 40
0.0
 40
0.0
 40
0.1110371613045362
 40
0.2222522336839856
 40
0.3333980191313709
 40
0.4445069474231962
 40
0.5556201064652054
 40
0.666752564158338
 40
0.7778876032715694
 40
0.888982091498592
 40
0.888982091498592
 40
0.888982091498592
 40
0.888982091498592
 10
39.4302135907
 20
292.5619747069
 30
0.0
 10
39.39357186384015
 20
292.5675068597145
 30
0.0
 10
39.32022970032515
 20
292.578580029324
 30
0.0
 10
39.21371315032776
 20
292.6115985928456
 30
0.0
 10
39.1113002425918
 20
292.6551888803318
 30
0.0
 10
39.01385027699409
 20
292.7089683881874
 30
0.0
 10
38.92154548128067
 20
292.7710635235597
 30
0.0
 10
38.83454885315805
 20
292.8403501971914
 30
0.0
 10
38.75229609767814
 20
292.91523214877
 30
0.0
 10
38.70151611130073
 20
292.9691947302945
 30
0.0
 10
38.6761307511
 20
292.9961710977
 30
0.0
 11
39.4302135907
 21
292.5619747069
 31
0.0
 11
39.32087130565124
 21
292.5813012661097
 31
0.0
 11
39.21437935206315
 21
292.6133676994218
 31
0.0
 11
39.11211117146743
 21
292.6568947583663
 31
0.0
 11
39.01470830504309
 21
292.7103538601028
 31
0.0
 11
38.92243653827107
 21
292.7722574558713
 31
0.0
 11
38.83533943486437
 21
292.8412829419694
 31
0.0
 11
38.75329953037783
 21
292.9162526091058
 31
0.0
 11
38.6761307511
 21
292.9961710977
 31
0.0
  0
SPLINE
  5
105
330
1F
100
AcDbEntity
  8
BEZUGSACHSEN
  6
Continuous
 62
     7
100
AcDbSpline
210
0.0
220
0.0
230
1.0
 70
     8
 71
     3
 72
    15
 73
    11
 74
     9
 42
0.0000000001
 43
0.0000000001
 44
0.00000001
 40
0.0
 40
0.0
 40
0.0
 40
0.0
 40
0.1110944830745411
 40
0.2222295180904893
 40
0.3333620401553742
 40
0.4444752609962701
 40
0.5555842178015229
 40
0.6667300353923031
 40
0.777945018149872
 40
0.8889820870754336
 40
0.8889820870754336
 40
0.8889820870754336
 40
0.8889820870754336
 10
38.6761307511
 20
323.4808430886
 30
0.0
 10
38.70151611064503
 20
323.507819454278
 30
0.0
 10
38.7522960959523
 20
323.5617820326033
 30
0.0
 10
38.8345488652056
 20
323.6366639959874
 30
0.0
 10
38.92154551715301
 20
323.7059507049191
 30
0.0
 10
39.01385035758782
 20
323.768045868016
 30
0.0
 10
39.11130037959424
 20
323.8218253601192
 30
0.0
 10
39.21371329347065
 20
323.86541560569
 30
0.0
 10
39.32022979202184
 20
323.8984341615313
 30
0.0
 10
39.39357189470878
 20
323.9095073281514
 30
0.0
 10
39.4302135907
 20
323.9150394794
 30
0.0
 11
38.6761307511
 21
323.4808430886
 31
0.0
 11
38.75329952812691
 21
323.5607615722053
 31
0.0
 11
38.83533942837827
 21
323.6357312379025
 31
0.0
 11
38.92243657699143
 21
323.7047567705984
 31
0.0
 11
39.01470839857861
 21
323.7666603955861
 31
0.0
 11
39.11211130667406
 21
323.8201194806597
 31
0.0
 11
39.21437953007434
 21
323.8636465211113
 31
0.0
 11
39.3208713981665
 21
323.8957129275206
 31
0.0
 11
39.4302135907
 21
323.9150394794
 31
0.0
  0
SPLINE
  5
106
330
1F
100
AcDbEntity
  8
BEZUGSACHSEN
  6
Continuous
 62
     7
100
AcDbSpline
210
0.0
220
0.0
230
1.0
 70
     8
 71
     3
 72
    11
 73
     7
 74
     5
 42
0.0000000001
 43
0.0000000001
 44
0.00000001
 40
0.0
 40
0.0
 40
0.0
 40
0.0
 40
0.9140556660003879
 40
1.828030949185929
 40
2.2798069748834
 40
2.730944124862234
 40
2.730944124862234
 40
2.730944124862234
 40
2.730944124862234
 10
38.7972410023854
 20
293.228507093285
 30
0.0
 10
38.92989570934866
 20
293.5032236909516
 30
0.0
 10
39.19519345751002
 20
294.052632727479
 30
0.0
 10
39.41054867082524
 20
294.7853436485875
 30
0.0
 10
39.51424288448975
 20
295.383288854727
 30
0.0
 10
39.52494220200765
 20
295.6844120701872
 30
0.0
 10
39.5302880755
 20
295.8348671448
 30
0.0
 11
38.7972410023854
 21
293.228507093285
 31
0.0
 11
39.17204853216086
 21
294.0621839348555
 31
0.0
 11
39.43133989255873
 21
294.938607809871
 31
0.0
 11
39.50405686605735
 21
295.3844932426451
 31
0.0
 11
39.5302880755
 21
295.8348671448
 31
0.0
  0
SPLINE
  5
107
330
1F
100
AcDbEntity
  8
BEZUGSACHSEN
  6
Continuous
 62
     7
100
AcDbSpline
210
0.0
220
0.0
230
1.0
 70
     8
 71
     3
 72
    11
 73
     7
 74
     5
 42
0.0000000001
 43
0.0000000001
 44
0.00000001
 40
0.0
 40
0.0
 40
0.0
 40
0.0
 40
0.8249192366724755
 40
1.650116891930991
 40
2.19049215229348
 40
2.73058591537825
 40
2.73058591537825
 40
2.73058591537825
 40
2.73058591537825
 10
39.5302880755
 20
320.6421470415
 30
0.0
 10
39.51255477116182
 20
320.9173373334769
 30
0.0
 10
39.47708217731586
 20
321.4678107969377
 30
0.0
 10
39.26864736068041
 20
322.1725443820906
 30
0.0
 10
39.03842092970081
 20
322.7647581071708
 30
0.0
 10
38.87762034689882
 20
323.087285440616
 30
0.0
 10
38.7972410023854
 20
323.248507092915
 30
0.0
 11
39.5302880755
 21
320.6421470415
 31
0.0
 11
39.44671262138426
 21
321.4628216971959
 31
0.0
 11
39.22875117927248
 21
322.2587136370952
 31
0.0
 11
39.03081610071331
 21
322.7615328160131
 31
0.0
 11
38.7972410023854
 21
323.248507092915
 31
0.0
  0
DIMENSION
  5
114
330
1F
100
AcDbEntity
  8
1
100
AcDbDimension
  2
*D2
 10
258.018814988581
 20
312.2385070931
 30
0.0
 11
254.268814988581
 21
308.375154654864
 31
0.0
 70
    32
  1
<>
 71
     5
 42
-1.0
 53
90.0
  3
ME10_DIM_10
100
AcDbAlignedDimension
 13
247.5302880755
 23
304.2385070931
 33
0.0
 14
247.5302880755
 24
312.2385070931
 34
0.0
 50
90.0
100
AcDbRotatedDimension
  0
DIMENSION
  5
11F
330
1F
100
AcDbEntity
  8
1
100
AcDbDimension
  2
*D3
 10
268.046794797691
 20
322.2385070931
 30
0.0
 11
264.296794797691
 21
308.499725832617
 31
0.0
 70
    32
  1
<>
 71
     5
 42
-1.0
 53
90.0
  3
ME10_DIM_11
100
AcDbAlignedDimension
 13
238.7305657308
 23
294.2385070931
 33
0.0
 14
238.7305657308
 24
322.2385070931
 34
0.0
 50
90.0
100
AcDbRotatedDimension
  0
DIMENSION
  5
12A
330
1F
100
AcDbEntity
  8
1
100
AcDbDimension
  2
*D4
 10
247.5302880755
 20
366.4158615266
 30
0.0
 11
185.136688758324
 21
370.1658615266
 31
0.0
 70
    32
  1
<>
 71
     5
 42
-1.0
 53
0.00013888888889
  3
ME10_DIM_12
100
AcDbAlignedDimension
 13
116.5302880755
 23
358.238470172
 33
0.0
 14
247.5302880755
 24
317.6014368323
 34
0.0
100
AcDbRotatedDimension
  0
DIMENSION
  5
135
330
1F
100
AcDbEntity
  8
1
100
AcDbDimension
  2
*D5
 10
247.5302880755
 20
374.609384211124
 30
0.0
 11
168.39599453309
 21
378.359384211124
 31
0.0
 70
    32
  1
<>
 71
     5
 42
-1.0
 53
0.00013888888889
  3
ME10_DIM_13
100
AcDbAlignedDimension
 13
87.5302880755
 23
358.2385070931
 33
0.0
 14
247.5302880755
 24
317.6014368323
 34
0.0
100
AcDbRotatedDimension
  0
DIMENSION
  5
140
330
1F
100
AcDbEntity
  8
1
100
AcDbDimension
  2
*D6
 10
247.5302880755
 20
382.470620248996
 30
0.0
 11
153.008043139808
 21
386.220620248996
 31
0.0
 70
    32
  1
<>
 71
     5
 42
-1.0
 53
0.00013888888889
  3
ME10_DIM_14
100
AcDbAlignedDimension
 13
37.5302880755
 23
341.8386986557
 33
0.0
 14
247.5302880755
 24
317.6014368323
 34
0.0
100
AcDbRotatedDimension
  0
INSERT
  5
147
330
1F
100
AcDbEntity
  8
1
100
AcDbBlockReference
  2
*D7
 10
0.0
 20
0.0
 30
0.0
  0
ENDSEC
  0
SECTION
  2
OBJECTS
  0
DICTIONARY
  5
C
330
0
100
AcDbDictionary
281
     1
  3
ACAD_GROUP
350
D
  3
ACAD_LAYOUT
350
1A
  3
ACAD_MLEADERSTYLE
350
14A
  3
ACAD_MLINESTYLE
350
17
  3
ACAD_PLOTSETTINGS
350
19
  3
ACAD_PLOTSTYLENAME
350
E
  3
ACAD_SCALELIST
350
4B
  3
ACAD_VISUALSTYLE
350
2A
  3
AcDbVariableDictionary
350
148
  0
DICTIONARY
  5
D
102
{ACAD_REACTORS
330
C
102
}
330
C
100
AcDbDictionary
281
     1
  0
DICTIONARY
  5
1A
102
{ACAD_REACTORS
330
C
102
}
330
C
100
AcDbDictionary
281
     1
  3
Layout1
350
1E
  3
Layout2
350
26
  3
Model
350
22
  0
DICTIONARY
  5
14A
102
{ACAD_REACTORS
330
C
102
}
330
C
100
AcDbDictionary
281
     1
  0
DICTIONARY
  5
17
102
{ACAD_REACTORS
330
C
102
}
330
C
100
AcDbDictionary
281
     1
  3
Standard
350
18
  0
DICTIONARY
  5
19
102
{ACAD_REACTORS
330
C
102
}
330
C
100
AcDbDictionary
281
     1
  0
ACDBDICTIONARYWDFLT
  5
E
102
{ACAD_REACTORS
330
C
102
}
330
C
100
AcDbDictionary
281
     1
  3
Normal
350
F
100
AcDbDictionaryWithDefault
340
F
  0
DICTIONARY
  5
4B
102
{ACAD_REACTORS
330
C
102
}
330
C
100
AcDbDictionary
281
     1
  3
A0
350
4C
  3
A1
350
4D
  3
A2
350
4E
  3
A3
350
4F
  3
A4
350
50
  3
A5
350
51
  3
A6
350
52
  3
A7
350
53
  3
A8
350
54
  3
A9
350
55
  3
B0
350
56
  3
B1
350
57
  3
B2
350
58
  3
B3
350
59
  3
B4
350
5A
  3
B5
350
5B
  3
B6
350
5C
  3
B7
350
5D
  3
B8
350
5E
  3
B9
350
5F
  3
C0
350
60
  3
C1
350
61
  3
C2
350
62
  3
C3
350
63
  3
C4
350
64
  3
C5
350
65
  3
C6
350
66
  3
C7
350
67
  3
C8
350
68
  3
C9
350
69
  3
D0
350
6A
  3
D1
350
6B
  3
D2
350
6C
  0
DICTIONARY
  5
2A
102
{ACAD_REACTORS
330
C
102
}
330
C
100
AcDbDictionary
281
     1
  3
2dWireframe
350
2F
  3
3D Hidden
350
31
  3
3dWireframe
350
30
  3
Basic
350
32
  3
Brighten
350
36
  3
ColorChange
350
3A
  3
Conceptual
350
34
  3
Dim
350
35
  3
Facepattern
350
39
  3
Flat
350
2B
  3
FlatWithEdges
350
2C
  3
Gouraud
350
2D
  3
GouraudWithEdges
350
2E
  3
Linepattern
350
38
  3
Realistic
350
33
  3
Thicken
350
37
  0
DICTIONARY
  5
148
102
{ACAD_REACTORS
330
C
102
}
330
C
100
AcDbDictionary
281
     1
  3
CANNOSCALE
350
14B
  0
LAYOUT
  5
1E
102
{ACAD_REACTORS
330
1A
102
}
330
1A
100
AcDbPlotSettings
  1

  2
none_device
  4

  6

 40
0.0
 41
0.0
 42
0.0
 43
0.0
 44
0.0
 45
0.0
 46
0.0
 47
0.0
 48
0.0
 49
0.0
140
0.0
141
0.0
142
1.0
143
1.0
 70
   688
 72
     0
 73
     0
 74
     5
  7

 75
    16
147
1.0
148
0.0
149
0.0
100
AcDbLayout
  1
Layout1
 70
     1
 71
     1
 10
0.0
 20
0.0
 11
12.0
 21
9.0
 12
0.0
 22
0.0
 32
0.0
 14
1.00000000000000E+20
 24
1.00000000000000E+20
 34
1.00000000000000E+20
 15
-1.00000000000000E+20
 25
-1.00000000000000E+20
 35
-1.00000000000000E+20
146
0.0
 13
0.0
 23
0.0
 33
0.0
 16
1.0
 26
0.0
 36
0.0
 17
0.0
 27
1.0
 37
0.0
 76
     0
330
1B
  0
LAYOUT
  5
26
102
{ACAD_REACTORS
330
1A
102
}
330
1A
100
AcDbPlotSettings
  1

  2
none_device
  4

  6

 40
0.0
 41
0.0
 42
0.0
 43
0.0
 44
0.0
 45
0.0
 46
0.0
 47
0.0
 48
0.0
 49
0.0
140
0.0
141
0.0
142
1.0
143
1.0
 70
   688
 72
     0
 73
     0
 74
     5
  7

 75
    16
147
1.0
148
0.0
149
0.0
100
AcDbLayout
  1
Layout2
 70
     1
 71
     2
 10
0.0
 20
0.0
 11
0.0
 21
0.0
 12
0.0
 22
0.0
 32
0.0
 14
0.0
 24
0.0
 34
0.0
 15
0.0
 25
0.0
 35
0.0
146
0.0
 13
0.0
 23
0.0
 33
0.0
 16
1.0
 26
0.0
 36
0.0
 17
0.0
 27
1.0
 37
0.0
 76
     0
330
23
  0
LAYOUT
  5
22
102
{ACAD_REACTORS
330
1A
102
}
330
1A
100
AcDbPlotSettings
  1

  2
none_device
  4

  6

 40
0.0
 41
0.0
 42
0.0
 43
0.0
 44
0.0
 45
0.0
 46
0.0
 47
0.0
 48
0.0
 49
0.0
140
0.0
141
0.0
142
1.0
143
1.0
 70
  1712
 72
     0
 73
     0
 74
     0
  7

 75
     0
147
1.0
148
0.0
149
0.0
100
AcDbLayout
  1
Model
 70
     1
 71
     0
 10
0.0
 20
0.0
 11
12.0
 21
9.0
 12
0.0
 22
0.0
 32
0.0
 14
17.0752543821729
 24
258.2385070931
 34
0.0
 15
270.046794797691
 25
387.970620248996
 35
0.0
146
0.0
 13
0.0
 23
0.0
 33
0.0
 16
1.0
 26
0.0
 36
0.0
 17
0.0
 27
1.0
 37
0.0
 76
     0
330
1F
331
29
  0
MLINESTYLE
  5
18
102
{ACAD_REACTORS
330
17
102
}
330
17
100
AcDbMlineStyle
  2
Standard
 70
     0
  3

 62
   256
 51
90.0
 52
90.0
 71
     2
 49
0.5
 62
   256
  6
BYLAYER
 49
-0.5
 62
   256
  6
BYLAYER
  0
ACDBPLACEHOLDER
  5
F
102
{ACAD_REACTORS
330
E
102
}
330
E
  0
SCALE
  5
4C
102
{ACAD_REACTORS
330
4B
102
}
330
4B
100
AcDbScale
 70
     0
300
1:1
140
1.0
141
1.0
290
     1
  0
SCALE
  5
4D
102
{ACAD_REACTORS
330
4B
102
}
330
4B
100
AcDbScale
 70
     0
300
1:2
140
1.0
141
2.0
290
     0
  0
SCALE
  5
4E
102
{ACAD_REACTORS
330
4B
102
}
330
4B
100
AcDbScale
 70
     0
300
1:4
140
1.0
141
4.0
290
     0
  0
SCALE
  5
4F
102
{ACAD_REACTORS
330
4B
102
}
330
4B
100
AcDbScale
 70
     0
300
1:5
140
1.0
141
5.0
290
     0
  0
SCALE
  5
50
102
{ACAD_REACTORS
330
4B
102
}
330
4B
100
AcDbScale
 70
     0
300
1:8
140
1.0
141
8.0
290
     0
  0
SCALE
  5
51
102
{ACAD_REACTORS
330
4B
102
}
330
4B
100
AcDbScale
 70
     0
300
1:10
140
1.0
141
10.0
290
     0
  0
SCALE
  5
52
102
{ACAD_REACTORS
330
4B
102
}
330
4B
100
AcDbScale
 70
     0
300
1:16
140
1.0
141
16.0
290
     0
  0
SCALE
  5
53
102
{ACAD_REACTORS
330
4B
102
}
330
4B
100
AcDbScale
 70
     0
300
1:20
140
1.0
141
20.0
290
     0
  0
SCALE
  5
54
102
{ACAD_REACTORS
330
4B
102
}
330
4B
100
AcDbScale
 70
     0
300
1:30
140
1.0
141
30.0
290
     0
  0
SCALE
  5
55
102
{ACAD_REACTORS
330
4B
102
}
330
4B
100
AcDbScale
 70
     0
300
1:40
140
1.0
141
40.0
290
     0
  0
SCALE
  5
56
102
{ACAD_REACTORS
330
4B
102
}
330
4B
100
AcDbScale
 70
     0
300
1:50
140
1.0
141
50.0
290
     0
  0
SCALE
  5
57
102
{ACAD_REACTORS
330
4B
102
}
330
4B
100
AcDbScale
 70
     0
300
1:100
140
1.0
141
100.0
290
     0
  0
SCALE
  5
58
102
{ACAD_REACTORS
330
4B
102
}
330
4B
100
AcDbScale
 70
     0
300
2:1
140
2.0
141
1.0
290
     0
  0
SCALE
  5
59
102
{ACAD_REACTORS
330
4B
102
}
330
4B
100
AcDbScale
 70
     0
300
4:1
140
4.0
141
1.0
290
     0
  0
SCALE
  5
5A
102
{ACAD_REACTORS
330
4B
102
}
330
4B
100
AcDbScale
 70
     0
300
8:1
140
8.0
141
1.0
290
     0
  0
SCALE
  5
5B
102
{ACAD_REACTORS
330
4B
102
}
330
4B
100
AcDbScale
 70
     0
300
10:1
140
10.0
141
1.0
290
     0
  0
SCALE
  5
5C
102
{ACAD_REACTORS
330
4B
102
}
330
4B
100
AcDbScale
 70
     0
300
100:1
140
100.0
141
1.0
290
     0
  0
SCALE
  5
5D
102
{ACAD_REACTORS
330
4B
102
}
330
4B
100
AcDbScale
 70
     0
300
1/128" = 1'-0"
140
0.0078125
141
12.0
290
     0
  0
SCALE
  5
5E
102
{ACAD_REACTORS
330
4B
102
}
330
4B
100
AcDbScale
 70
     0
300
1/64" = 1'-0"
140
0.015625
141
12.0
290
     0
  0
SCALE
  5
5F
102
{ACAD_REACTORS
330
4B
102
}
330
4B
100
AcDbScale
 70
     0
300
1/32" = 1'-0"
140
0.03125
141
12.0
290
     0
  0
SCALE
  5
60
102
{ACAD_REACTORS
330
4B
102
}
330
4B
100
AcDbScale
 70
     0
300
1/16" = 1'-0"
140
0.0625
141
12.0
290
     0
  0
SCALE
  5
61
102
{ACAD_REACTORS
330
4B
102
}
330
4B
100
AcDbScale
 70
     0
300
3/32" = 1'-0"
140
0.09375
141
12.0
290
     0
  0
SCALE
  5
62
102
{ACAD_REACTORS
330
4B
102
}
330
4B
100
AcDbScale
 70
     0
300
1/8" = 1'-0"
140
0.125
141
12.0
290
     0
  0
SCALE
  5
63
102
{ACAD_REACTORS
330
4B
102
}
330
4B
100
AcDbScale
 70
     0
300
3/16" = 1'-0"
140
0.1875
141
12.0
290
     0
  0
SCALE
  5
64
102
{ACAD_REACTORS
330
4B
102
}
330
4B
100
AcDbScale
 70
     0
300
1/4" = 1'-0"
140
0.25
141
12.0
290
     0
  0
SCALE
  5
65
102
{ACAD_REACTORS
330
4B
102
}
330
4B
100
AcDbScale
 70
     0
300
3/8" = 1'-0"
140
0.375
141
12.0
290
     0
  0
SCALE
  5
66
102
{ACAD_REACTORS
330
4B
102
}
330
4B
100
AcDbScale
 70
     0
300
1/2" = 1'-0"
140
0.5
141
12.0
290
     0
  0
SCALE
  5
67
102
{ACAD_REACTORS
330
4B
102
}
330
4B
100
AcDbScale
 70
     0
300
3/4" = 1'-0"
140
0.75
141
12.0
290
     0
  0
SCALE
  5
68
102
{ACAD_REACTORS
330
4B
102
}
330
4B
100
AcDbScale
 70
     0
300
1" = 1'-0"
140
1.0
141
12.0
290
     0
  0
SCALE
  5
69
102
{ACAD_REACTORS
330
4B
102
}
330
4B
100
AcDbScale
 70
     0
300
1-1/2" = 1'-0"
140
1.5
141
12.0
290
     0
  0
SCALE
  5
6A
102
{ACAD_REACTORS
330
4B
102
}
330
4B
100
AcDbScale
 70
     0
300
3" = 1'-0"
140
3.0
141
12.0
290
     0
  0
SCALE
  5
6B
102
{ACAD_REACTORS
330
4B
102
}
330
4B
100
AcDbScale
 70
     0
300
6" = 1'-0"
140
6.0
141
12.0
290
     0
  0
SCALE
  5
6C
102
{ACAD_REACTORS
330
4B
102
}
330
4B
100
AcDbScale
 70
     0
300
1'-0" = 1'-0"
140
12.0
141
12.0
290
     0
  0
VISUALSTYLE
  5
2F
102
{ACAD_REACTORS
330
2A
102
}
330
2A
100
AcDbVisualStyle
  2
2dWireframe
 70
     4
 71
     0
 72
     2
 73
     0
 90
        0
 40
-0.6
 41
-30.0
 62
     5
 63
     7
 74
     1
 91
        4
 64
     7
 65
   257
 75
     1
175
     1
 42
1.0
 92
        0
 66
   257
 43
1.0
 76
     1
 77
     6
 78
     2
 67
     7
 79
     5
170
     0
171
     0
290
     0
174
     0
 93
        1
 44
0.0
173
     0
291
     0
 45
0.0
1001
ACAD
1000
AcDbSavedByObjectVersion
1070
     0
  0
VISUALSTYLE
  5
31
102
{ACAD_REACTORS
330
2A
102
}
330
2A
100
AcDbVisualStyle
  2
3D Hidden
 70
     6
 71
     1
 72
     2
 73
     2
 90
        0
 40
-0.6
 41
-30.0
 62
     5
 63
     7
 74
     2
 91
        2
 64
     7
 65
   257
 75
     2
175
     1
 42
40.0
 92
        0
 66
   257
 43
1.0
 76
     1
 77
     6
 78
     2
 67
     7
 79
     3
170
     0
171
     0
290
     0
174
     0
 93
        1
 44
0.0
173
     0
291
     0
 45
0.0
1001
ACAD
1000
AcDbSavedByObjectVersion
1070
     0
  0
VISUALSTYLE
  5
30
102
{ACAD_REACTORS
330
2A
102
}
330
2A
100
AcDbVisualStyle
  2
3dWireframe
 70
     5
 71
     0
 72
     2
 73
     0
 90
        0
 40
-0.6
 41
-30.0
 62
     5
 63
     7
 74
     1
 91
        4
 64
     7
 65
   257
 75
     1
175
     1
 42
1.0
 92
        0
 66
   257
 43
1.0
 76
     1
 77
     6
 78
     2
 67
     7
 79
     5
170
     0
171
     0
290
     0
174
     0
 93
        1
 44
0.0
173
     0
291
     0
 45
0.0
1001
ACAD
1000
AcDbSavedByObjectVersion
1070
     0
  0
VISUALSTYLE
  5
32
102
{ACAD_REACTORS
330
2A
102
}
330
2A
100
AcDbVisualStyle
  2
Basic
 70
     7
 71
     1
 72
     0
 73
     1
 90
        0
 40
-0.6
 41
-30.0
 62
     5
 63
     7
 74
     0
 91
        4
 64
     7
 65
   257
 75
     1
175
     1
 42
1.0
 92
        8
 66
     7
 43
1.0
 76
     1
 77
     6
 78
     2
 67
     7
 79
     5
170
     0
171
     0
290
     0
174
     0
 93
        1
 44
0.0
173
     0
291
     1
 45
0.0
1001
ACAD
1000
AcDbSavedByObjectVersion
1070
     0
  0
VISUALSTYLE
  5
36
102
{ACAD_REACTORS
330
2A
102
}
330
2A
100
AcDbVisualStyle
  2
Brighten
 70
    12
 71
     2
 72
     2
 73
     0
 90
        0
 40
-0.6
 41
-30.0
 62
     5
 63
     7
 74
     1
 91
        4
 64
     7
 65
   257
 75
     1
175
     1
 42
1.0
 92
        8
 66
     7
 43
1.0
 76
     1
 77
     6
 78
     2
 67
     7
 79
     5
170
     0
171
     0
290
     0
174
     0
 93
        1
 44
50.0
173
     0
291
     1
 45
0.0
1001
ACAD
1000
AcDbSavedByObjectVersion
1070
     0
  0
VISUALSTYLE
  5
3A
102
{ACAD_REACTORS
330
2A
102
}
330
2A
100
AcDbVisualStyle
  2
ColorChange
 70
    16
 71
     2
 72
     2
 73
     3
 90
        0
 40
-0.6
 41
-30.0
 62
     5
 63
     8
 74
     1
 91
        4
 64
     7
 65
   257
 75
     1
175
     1
 42
1.0
 92
        8
 66
     8
 43
1.0
 76
     1
 77
     6
 78
     2
 67
     7
 79
     5
170
     0
171
     0
290
     0
174
     0
 93
        1
 44
0.0
173
     0
291
     1
 45
0.0
1001
ACAD
1000
AcDbSavedByObjectVersion
1070
     0
  0
VISUALSTYLE
  5
34
102
{ACAD_REACTORS
330
2A
102
}
330
2A
100
AcDbVisualStyle
  2
Conceptual
 70
     9
 71
     3
 72
     2
 73
     0
 90
        0
 40
-0.6
 41
-30.0
 62
     5
 63
     7
 74
     2
 91
        2
 64
     7
 65
   257
 75
     1
175
     1
 42
40.0
 92
        8
 66
     7
 43
1.0
 76
     1
 77
     6
 78
     2
 67
     7
 79
     3
170
     0
171
     0
290
     0
174
     0
 93
        1
 44
0.0
173
     0
291
     0
 45
0.0
1001
ACAD
1000
AcDbSavedByObjectVersion
1070
     0
  0
VISUALSTYLE
  5
35
102
{ACAD_REACTORS
330
2A
102
}
330
2A
100
AcDbVisualStyle
  2
Dim
 70
    11
 71
     2
 72
     2
 73
     0
 90
        0
 40
-0.6
 41
-30.0
 62
     5
 63
     7
 74
     1
 91
        4
 64
     7
 65
   257
 75
     1
175
     1
 42
1.0
 92
        8
 66
     7
 43
1.0
 76
     1
 77
     6
 78
     2
 67
     7
 79
     5
170
     0
171
     0
290
     0
174
     0
 93
        1
 44
-50.0
173
     0
291
     1
 45
0.0
1001
ACAD
1000
AcDbSavedByObjectVersion
1070
     0
  0
VISUALSTYLE
  5
39
102
{ACAD_REACTORS
330
2A
102
}
330
2A
100
AcDbVisualStyle
  2
Facepattern
 70
    15
 71
     2
 72
     2
 73
     0
 90
        0
 40
-0.6
 41
-30.0
 62
     5
 63
     7
 74
     1
 91
        4
 64
     7
 65
   257
 75
     1
175
     1
 42
1.0
 92
        8
 66
     7
 43
1.0
 76
     1
 77
     6
 78
     2
 67
     7
 79
     5
170
     0
171
     0
290
     0
174
     0
 93
        1
 44
0.0
173
     0
291
     1
 45
0.0
1001
ACAD
1000
AcDbSavedByObjectVersion
1070
     0
  0
VISUALSTYLE
  5
2B
102
{ACAD_REACTORS
330
2A
102
}
330
2A
100
AcDbVisualStyle
  2
Flat
 70
     0
 71
     2
 72
     1
 73
     1
 90
        2
 40
-0.6
 41
30.0
 62
     5
 63
     7
 74
     0
 91
        4
 64
     7
 65
   257
 75
     1
175
     1
 42
1.0
 92
        8
 66
     7
 43
1.0
 76
     1
 77
     6
 78
     2
 67
     7
 79
     5
170
     0
171
     0
290
     0
174
     0
 93
       13
 44
0.0
173
     0
291
     1
 45
0.0
1001
ACAD
1000
AcDbSavedByObjectVersion
1070
     0
  0
VISUALSTYLE
  5
2C
102
{ACAD_REACTORS
330
2A
102
}
330
2A
100
AcDbVisualStyle
  2
FlatWithEdges
 70
     1
 71
     2
 72
     1
 73
     1
 90
        2
 40
-0.6
 41
30.0
 62
     5
 63
     7
 74
     1
 91
        4
 64
     7
 65
   257
 75
     1
175
     1
 42
1.0
 92
        0
 66
   257
 43
1.0
 76
     1
 77
     6
 78
     2
 67
     7
 79
     5
170
     0
171
     0
290
     0
174
     0
 93
       13
 44
0.0
173
     0
291
     1
 45
0.0
1001
ACAD
1000
AcDbSavedByObjectVersion
1070
     0
  0
VISUALSTYLE
  5
2D
102
{ACAD_REACTORS
330
2A
102
}
330
2A
100
AcDbVisualStyle
  2
Gouraud
 70
     2
 71
     2
 72
     2
 73
     1
 90
        2
 40
-0.6
 41
30.0
 62
     5
 63
     7
 74
     0
 91
        4
 64
     7
 65
   257
 75
     1
175
     1
 42
1.0
 92
        0
 66
     7
 43
1.0
 76
     1
 77
     6
 78
     2
 67
     7
 79
     5
170
     0
171
     0
290
     0
174
     0
 93
       13
 44
0.0
173
     0
291
     1
 45
0.0
1001
ACAD
1000
AcDbSavedByObjectVersion
1070
     0
  0
VISUALSTYLE
  5
2E
102
{ACAD_REACTORS
330
2A
102
}
330
2A
100
AcDbVisualStyle
  2
GouraudWithEdges
 70
     3
 71
     2
 72
     2
 73
     1
 90
        2
 40
-0.6
 41
30.0
 62
     5
 63
     7
 74
     1
 91
        4
 64
     7
 65
   257
 75
     1
175
     1
 42
1.0
 92
        0
 66
   257
 43
1.0
 76
     1
 77
     6
 78
     2
 67
     7
 79
     5
170
     0
171
     0
290
     0
174
     0
 93
       13
 44
0.0
173
     0
291
     1
 45
0.0
1001
ACAD
1000
AcDbSavedByObjectVersion
1070
     0
  0
VISUALSTYLE
  5
38
102
{ACAD_REACTORS
330
2A
102
}
330
2A
100
AcDbVisualStyle
  2
Linepattern
 70
    14
 71
     2
 72
     2
 73
     0
 90
        0
 40
-0.6
 41
-30.0
 62
     5
 63
     7
 74
     1
 91
        4
 64
     7
 65
   257
 75
     7
175
     7
 42
1.0
 92
        8
 66
     7
 43
1.0
 76
     1
 77
     6
 78
     2
 67
     7
 79
     5
170
     0
171
     0
290
     0
174
     0
 93
        1
 44
0.0
173
     0
291
     1
 45
0.0
1001
ACAD
1000
AcDbSavedByObjectVersion
1070
     0
  0
VISUALSTYLE
  5
33
102
{ACAD_REACTORS
330
2A
102
}
330
2A
100
AcDbVisualStyle
  2
Realistic
 70
     8
 71
     2
 72
     2
 73
     0
 90
        0
 40
-0.6
 41
-30.0
 62
     5
 63
     7
 74
     1
 91
        0
 64
     7
 65
   257
 75
     1
175
     1
 42
1.0
 92
        8
 66
     8
 43
1.0
 76
     1
 77
     6
 78
     2
 67
     7
 79
     5
170
     0
171
     0
290
     0
174
     0
 93
       13
 44
0.0
173
     0
291
     0
 45
0.0
1001
ACAD
1000
AcDbSavedByObjectVersion
1070
     0
  0
VISUALSTYLE
  5
37
102
{ACAD_REACTORS
330
2A
102
}
330
2A
100
AcDbVisualStyle
  2
Thicken
 70
    13
 71
     2
 72
     2
 73
     0
 90
        0
 40
-0.6
 41
-30.0
 62
     5
 63
     7
 74
     1
 91
        4
 64
     7
 65
   257
 75
     1
175
     1
 42
1.0
 92
       12
 66
     7
 43
1.0
 76
     1
 77
     6
 78
     2
 67
     7
 79
     5
170
     0
171
     0
290
     0
174
     0
 93
        1
 44
0.0
173
     0
291
     1
 45
0.0
1001
ACAD
1000
AcDbSavedByObjectVersion
1070
     0
  0
DICTIONARYVAR
  5
14B
102
{ACAD_REACTORS
330
148
102
}
330
148
100
DictionaryVariables
280
     0
  1
1:1
  0
ENDSEC
  0
EOF
