999
DXF file: 200_a63-009-00-1010-bmg.dxf
999
Pro/ENGINEER 2010430 by Parametric Technology Corporation
  0
SECTION
  2
HEADER
  9
$ACADVER
  1
AC1021
  9
$DWGCODEPAGE
  3
ANSI_1252
  9
$EXTMAX
 10
420.0
 20
297.0
 30
0.0
  9
$EXTMIN
 10
0.0
 20
0.0
 30
0.0
  9
$LIMMIN
 10
0.0
 20
0.0
  9
$LIMMAX
 10
420.0
 20
297.0
  9
$VIEWCTR
 10
210.0
 20
148.5
  9
$VIEWSIZE
 40
297.0
  9
$CLAYER
  8
0
  9
$LTSCALE
 40
23.1
  9
$CELTYPE
  6
BYLAYER
  9
$DIMSCALE
 40
1.0
  9
$DIMASZ
 40
3.5
  9
$DIMEXO
 40
2.625
  9
$DIMDLI
 40
15.96
  9
$DIMEXE
 40
7.56
  9
$DIMCEN
 40
3.78
  9
$DIMLFAC
 40
1.0
  9
$DIMBLK
  1
_FILLED
  9
$DIMTXT
 40
3.5
  9
$DIMTOL
 70
1
  9
$DIMLIM
 70
0
  9
$DIMTFAC
 40
1.0
  9
$DIMTP
 40
0.005
  9
$DIMTM
 40
0.005
  9
$PDMODE
 70
3
  9
$PDSIZE
 40
0.3125
  9
$HANDSEED
  5
31A
  9
$TILEMODE
 70
1
  9
$MEASUREMENT
 70
1
  9
$INSUNITS
 70
4
  0
ENDSEC
  0
SECTION
  2
CLASSES
  0
CLASS
  1
ACDBDICTIONARYWDFLT
  2
AcDbDictionaryWithDefault
  3
AutoCAD 2000
 90
0
 91
1
280
0
281
0
  0
CLASS
  1
ACDBPLACEHOLDER
  2
AcDbPlaceHolder
  3
AutoCAD 2000
 90
0
 91
1
280
0
281
0
  0
CLASS
  1
LAYOUT
  2
AcDbLayout
  3
AutoCAD 2000
 90
0
 91
0
280
0
281
0
  0
ENDSEC
  0
SECTION
  2
TABLES
  0
TABLE
  2
VPORT
  5
8
100
AcDbSymbolTable
 70
2
  0
VPORT
  5
1F4
100
AcDbSymbolTableRecord
100
AcDbViewportTableRecord
  2
*ACTIVE
 70
0
 10
0.0
 20
0.0
 11
1.0
 21
1.0
 12
210.0
 22
148.5
 13
0.0
 23
0.0
 14
1.0
 24
1.0
 15
0.0
 25
0.0
 16
0.0
 26
0.0
 36
1.0
 17
0.0
 27
0.0
 37
0.0
 40
297.0
 41
1.4141414141
 42
50.0
 43
0.0
 44
0.0
 50
0.0
 51
0.0
 71
0
 72
100
 73
1
 74
1
 75
0
 76
0
 77
0
 78
0
  0
ENDTAB
  0
TABLE
  2
LTYPE
  5
5
100
AcDbSymbolTable
 70
6
  0
LTYPE
  5
14
100
AcDbSymbolTableRecord
100
AcDbLinetypeTableRecord
  2
BYBLOCK
 70
0
  3

 72
65
 73
0
 40
0.0
  0
LTYPE
  5
15
100
AcDbSymbolTableRecord
100
AcDbLinetypeTableRecord
  2
BYLAYER
 70
0
  3

 72
65
 73
0
 40
0.0
  0
LTYPE
  5
16
100
AcDbSymbolTableRecord
100
AcDbLinetypeTableRecord
  2
CONTINUOUS
 70
64
  3
Solid line
 72
65
 73
0
 40
0.0
  0
LTYPE
  5
1F5
100
AcDbSymbolTableRecord
100
AcDbLinetypeTableRecord
  2
CENTER
 70
64
  3
____ _ ____ _ ____ _ ____ _ ____ _ ____ _ ____
 72
65
 73
4
 40
0.6
 49
0.375
 74
0
 49
-0.075
 74
0
 49
0.075
 74
0
 49
-0.075
 74
0
  0
LTYPE
  5
1F6
100
AcDbSymbolTableRecord
100
AcDbLinetypeTableRecord
  2
HIDDEN
 70
64
  3
- - - - - - - - - - - - - - - - - - - -
 72
65
 73
2
 40
0.2
 49
0.1
 74
0
 49
-0.1
 74
0
  0
LTYPE
  5
1F7
100
AcDbSymbolTableRecord
100
AcDbLinetypeTableRecord
  2
PHANTOM
 70
64
  3
_____ _ _ _____ _ _ _____ _ _ _____
 72
65
 73
6
 40
0.8
 49
0.45
 74
0
 49
-0.05
 74
0
 49
0.1
 74
0
 49
-0.05
 74
0
 49
0.1
 74
0
 49
-0.05
 74
0
  0
LTYPE
  5
1F8
100
AcDbSymbolTableRecord
100
AcDbLinetypeTableRecord
  2
DOT
 70
64
  3
. . . . . . . . . . . . . . . . . . . .
 72
65
 73
2
 40
0.2
 49
0.1
 74
0
 49
-0.1
 74
0
  0
LTYPE
  5
1F9
100
AcDbSymbolTableRecord
100
AcDbLinetypeTableRecord
  2
DASHED
 70
64
  3
- - - - - - - - - - - - - - - - - - - -
 72
65
 73
2
 40
0.2
 49
0.1
 74
0
 49
-0.1
 74
0
  0
ENDTAB
  0
TABLE
  2
LAYER
  5
2
100
AcDbSymbolTable
 70
36
  0
LAYER
  5
10
100
AcDbSymbolTableRecord
100
AcDbLayerTableRecord
  2
0
 70
0
 62
7
  6
CONTINUOUS
370
-3
390
F
  0
LAYER
  5
1FA
100
AcDbSymbolTableRecord
100
AcDbLayerTableRecord
  2
DEFAULT_1
 70
0
 62
7
  6
CENTER
370
-3
390
F
  0
LAYER
  5
1FB
100
AcDbSymbolTableRecord
100
AcDbLayerTableRecord
  2
DEFAULT_2
 70
0
 62
8
  6
HIDDEN
370
-3
390
F
  0
LAYER
  5
1FC
100
AcDbSymbolTableRecord
100
AcDbLayerTableRecord
  2
DEFAULT_3
 70
0
 62
7
  6
PHANTOM
370
-3
390
F
  0
LAYER
  5
1FD
100
AcDbSymbolTableRecord
100
AcDbLayerTableRecord
  2
1
 70
0
 62
7
  6
CONTINUOUS
370
-3
390
F
  0
LAYER
  5
1FE
100
AcDbSymbolTableRecord
100
AcDbLayerTableRecord
  2
2
 70
0
 62
7
  6
CONTINUOUS
370
-3
390
F
  0
LAYER
  5
1FF
100
AcDbSymbolTableRecord
100
AcDbLayerTableRecord
  2
4
 70
0
 62
7
  6
CONTINUOUS
370
-3
390
F
  0
LAYER
  5
200
100
AcDbSymbolTableRecord
100
AcDbLayerTableRecord
  2
6
 70
0
 62
7
  6
CONTINUOUS
370
-3
390
F
  0
LAYER
  5
201
100
AcDbSymbolTableRecord
100
AcDbLayerTableRecord
  2
ACHSEN
 70
0
 62
7
  6
CONTINUOUS
370
-3
390
F
  0
LAYER
  5
202
100
AcDbSymbolTableRecord
100
AcDbLayerTableRecord
  2
ANALYSEN
 70
0
 62
7
  6
CONTINUOUS
370
-3
390
F
  0
LAYER
  5
203
100
AcDbSymbolTableRecord
100
AcDbLayerTableRecord
  2
AUFMASS_WEICHBEARBEITUNG
 70
0
 62
7
  6
CONTINUOUS
370
-3
390
F
  0
LAYER
  5
204
100
AcDbSymbolTableRecord
100
AcDbLayerTableRecord
  2
AUFMASS_WEICHBE_INNENKONTUR
 70
0
 62
7
  6
CONTINUOUS
370
-3
390
F
  0
LAYER
  5
205
100
AcDbSymbolTableRecord
100
AcDbLayerTableRecord
  2
AUSSENKONTUR
 70
0
 62
7
  6
CONTINUOUS
370
-3
390
F
  0
LAYER
  5
206
100
AcDbSymbolTableRecord
100
AcDbLayerTableRecord
  2
BEZUG
 70
0
 62
7
  6
CONTINUOUS
370
-3
390
F
  0
LAYER
  5
207
100
AcDbSymbolTableRecord
100
AcDbLayerTableRecord
  2
BEZUGSACHSEN
 70
0
 62
7
  6
CONTINUOUS
370
-3
390
F
  0
LAYER
  5
208
100
AcDbSymbolTableRecord
100
AcDbLayerTableRecord
  2
BEZUGSACHSENKENNZEICHEN
 70
0
 62
7
  6
CONTINUOUS
370
-3
390
F
  0
LAYER
  5
209
100
AcDbSymbolTableRecord
100
AcDbLayerTableRecord
  2
BEZUGSEBENEN
 70
0
 62
7
  6
CONTINUOUS
370
-3
390
F
  0
LAYER
  5
20A
100
AcDbSymbolTableRecord
100
AcDbLayerTableRecord
  2
BEZUGSEBENE_B
 70
0
 62
7
  6
CONTINUOUS
370
-3
390
F
  0
LAYER
  5
20B
100
AcDbSymbolTableRecord
100
AcDbLayerTableRecord
  2
BEZUGSPUNKTE
 70
0
 62
7
  6
CONTINUOUS
370
-3
390
F
  0
LAYER
  5
20C
100
AcDbSymbolTableRecord
100
AcDbLayerTableRecord
  2
BOHRUNGEN
 70
0
 62
7
  6
CONTINUOUS
370
-3
390
F
  0
LAYER
  5
20D
100
AcDbSymbolTableRecord
100
AcDbLayerTableRecord
  2
EBENEN
 70
0
 62
7
  6
CONTINUOUS
370
-3
390
F
  0
LAYER
  5
20E
100
AcDbSymbolTableRecord
100
AcDbLayerTableRecord
  2
EINZELHEIT_Z
 70
0
 62
7
  6
CONTINUOUS
370
-3
390
F
  0
LAYER
  5
20F
100
AcDbSymbolTableRecord
100
AcDbLayerTableRecord
  2
FASEN
 70
0
 62
7
  6
CONTINUOUS
370
-3
390
F
  0
LAYER
  5
210
100
AcDbSymbolTableRecord
100
AcDbLayerTableRecord
  2
FLAECHEN
 70
0
 62
7
  6
CONTINUOUS
370
-3
390
F
  0
LAYER
  5
211
100
AcDbSymbolTableRecord
100
AcDbLayerTableRecord
  2
FORM_LAGE_TOLERANZEN
 70
0
 62
7
  6
CONTINUOUS
370
-3
390
F
  0
LAYER
  5
212
100
AcDbSymbolTableRecord
100
AcDbLayerTableRecord
  2
GEWINDE
 70
0
 62
7
  6
CONTINUOUS
370
-3
390
F
  0
LAYER
  5
213
100
AcDbSymbolTableRecord
100
AcDbLayerTableRecord
  2
HILFEN
 70
0
 62
7
  6
CONTINUOUS
370
-3
390
F
  0
LAYER
  5
214
100
AcDbSymbolTableRecord
100
AcDbLayerTableRecord
  2
INNENKONTUR
 70
0
 62
7
  6
CONTINUOUS
370
-3
390
F
  0
LAYER
  5
215
100
AcDbSymbolTableRecord
100
AcDbLayerTableRecord
  2
KOORDINATENSYSTEME
 70
0
 62
7
  6
CONTINUOUS
370
-3
390
F
  0
LAYER
  5
216
100
AcDbSymbolTableRecord
100
AcDbLayerTableRecord
  2
KOORDSYS
 70
0
 62
7
  6
CONTINUOUS
370
-3
390
F
  0
LAYER
  5
217
100
AcDbSymbolTableRecord
100
AcDbLayerTableRecord
  2
KOSMETIK_KEGEL
 70
0
 62
7
  6
CONTINUOUS
370
-3
390
F
  0
LAYER
  5
218
100
AcDbSymbolTableRecord
100
AcDbLayerTableRecord
  2
KOSMETIK_KEGEL_BEWEGT
 70
0
 62
7
  6
CONTINUOUS
370
-3
390
F
  0
LAYER
  5
219
100
AcDbSymbolTableRecord
100
AcDbLayerTableRecord
  2
KURVEN
 70
0
 62
7
  6
CONTINUOUS
370
-3
390
F
  0
LAYER
  5
21A
100
AcDbSymbolTableRecord
100
AcDbLayerTableRecord
  2
KURVE_FUER_GTOL_DETAILANSICHT
 70
0
 62
7
  6
CONTINUOUS
370
-3
390
F
  0
LAYER
  5
21B
100
AcDbSymbolTableRecord
100
AcDbLayerTableRecord
  2
KURVE_GAUGE2_POLIGON_INNENEINST
 70
0
 62
7
  6
CONTINUOUS
370
-3
390
F
  0
LAYER
  5
21C
100
AcDbSymbolTableRecord
100
AcDbLayerTableRecord
  2
KURVE_PHANTOM1_GAUGE_PIN_1
 70
0
 62
7
  6
CONTINUOUS
370
-3
390
F
  0
LAYER
  5
21D
100
AcDbSymbolTableRecord
100
AcDbLayerTableRecord
  2
KURVE_PHANTOM2_GAUGE_PIN1
 70
0
 62
7
  6
CONTINUOUS
370
-3
390
F
  0
LAYER
  5
21E
100
AcDbSymbolTableRecord
100
AcDbLayerTableRecord
  2
KURVE_POLIGON_BEMASUNG
 70
0
 62
7
  6
CONTINUOUS
370
-3
390
F
  0
LAYER
  5
21F
100
AcDbSymbolTableRecord
100
AcDbLayerTableRecord
  2
NOCUT
 70
0
 62
7
  6
CONTINUOUS
370
-3
390
F
  0
LAYER
  5
220
100
AcDbSymbolTableRecord
100
AcDbLayerTableRecord
  2
PLATZIERUNG
 70
0
 62
7
  6
CONTINUOUS
370
-3
390
F
  0
LAYER
  5
221
100
AcDbSymbolTableRecord
100
AcDbLayerTableRecord
  2
PUNKTE
 70
0
 62
7
  6
CONTINUOUS
370
-3
390
F
  0
LAYER
  5
222
100
AcDbSymbolTableRecord
100
AcDbLayerTableRecord
  2
RUNDUNGEN
 70
0
 62
7
  6
CONTINUOUS
370
-3
390
F
  0
LAYER
  5
223
100
AcDbSymbolTableRecord
100
AcDbLayerTableRecord
  2
SK1
 70
0
 62
7
  6
CONTINUOUS
370
-3
390
F
  0
LAYER
  5
224
100
AcDbSymbolTableRecord
100
AcDbLayerTableRecord
  2
SK2
 70
0
 62
7
  6
CONTINUOUS
370
-3
390
F
  0
LAYER
  5
225
100
AcDbSymbolTableRecord
100
AcDbLayerTableRecord
  2
SK4
 70
0
 62
7
  6
CONTINUOUS
370
-3
390
F
  0
LAYER
  5
226
100
AcDbSymbolTableRecord
100
AcDbLayerTableRecord
  2
S_ACHSEN
 70
0
 62
7
  6
CONTINUOUS
370
-3
390
F
  0
LAYER
  5
227
100
AcDbSymbolTableRecord
100
AcDbLayerTableRecord
  2
S_EBENEN
 70
0
 62
7
  6
CONTINUOUS
370
-3
390
F
  0
LAYER
  5
228
100
AcDbSymbolTableRecord
100
AcDbLayerTableRecord
  2
S_KOORDSYS
 70
0
 62
7
  6
CONTINUOUS
370
-3
390
F
  0
LAYER
  5
229
100
AcDbSymbolTableRecord
100
AcDbLayerTableRecord
  2
TEIL_STARTBEZUEGE
 70
0
 62
7
  6
CONTINUOUS
370
-3
390
F
  0
LAYER
  5
22A
100
AcDbSymbolTableRecord
100
AcDbLayerTableRecord
  2
TOL_BEZUEGE
 70
0
 62
7
  6
CONTINUOUS
370
-3
390
F
  0
LAYER
  5
22B
100
AcDbSymbolTableRecord
100
AcDbLayerTableRecord
  2
VD_FREIGABE
 70
0
 62
7
  6
CONTINUOUS
370
-3
390
F
  0
LAYER
  5
22C
100
AcDbSymbolTableRecord
100
AcDbLayerTableRecord
  2
VERBFLAECHE
 70
0
 62
7
  6
CONTINUOUS
370
-3
390
F
  0
LAYER
  5
22D
100
AcDbSymbolTableRecord
100
AcDbLayerTableRecord
  2
VERERBUNG
 70
0
 62
7
  6
CONTINUOUS
370
-3
390
F
  0
LAYER
  5
22E
100
AcDbSymbolTableRecord
100
AcDbLayerTableRecord
  2
VOLUMEN
 70
0
 62
7
  6
CONTINUOUS
370
-3
390
F
  0
LAYER
  5
22F
100
AcDbSymbolTableRecord
100
AcDbLayerTableRecord
  2
ZEICHNUNG
 70
0
 62
7
  6
CONTINUOUS
370
-3
390
F
  0
LAYER
  5
230
100
AcDbSymbolTableRecord
100
AcDbLayerTableRecord
  2
ZEICHNUNG_KURVEN
 70
0
 62
7
  6
CONTINUOUS
370
-3
390
F
  0
LAYER
  5
231
100
AcDbSymbolTableRecord
100
AcDbLayerTableRecord
  2
ZEICHNUNG_TBZ
 70
0
 62
7
  6
CONTINUOUS
370
-3
390
F
  0
ENDTAB
  0
TABLE
  2
STYLE
  5
3
100
AcDbSymbolTable
 70
1
  0
STYLE
  5
11
100
AcDbSymbolTableRecord
100
AcDbTextStyleTableRecord
  2
STANDARD
 70
0
 40
0.0
 41
0.7
 50
0.0
 71
0
 42
0.2
  3
txt
  4

  0
STYLE
  5
232
100
AcDbSymbolTableRecord
100
AcDbTextStyleTableRecord
  2
TEXTSTYLE_1
 70
0
 40
0.0
 41
0.8
 50
0.0
 71
0
 42
0.2
  3
gdt
  4

  0
STYLE
  5
233
100
AcDbSymbolTableRecord
100
AcDbTextStyleTableRecord
  2
TEXTSTYLE_2
 70
0
 40
0.0
 41
0.7
 50
0.0
 71
0
 42
0.2
  3
gdt
  4

  0
ENDTAB
  0
TABLE
  2
VIEW
  5
6
100
AcDbSymbolTable
 70
0
  0
ENDTAB
  0
TABLE
  2
UCS
  5
7
100
AcDbSymbolTable
 70
0
  0
ENDTAB
  0
TABLE
  2
APPID
  5
9
100
AcDbSymbolTable
 70
1
  0
APPID
  5
234
100
AcDbSymbolTableRecord
100
AcDbRegAppTableRecord
  2
ACAD
 70
0
  0
ENDTAB
  0
TABLE
  2
BLOCK_RECORD
  5
1
100
AcDbSymbolTable
 70
0
  0
BLOCK_RECORD
  5
235
100
AcDbSymbolTableRecord
100
AcDbBlockTableRecord
  2
*Model_Space
  0
BLOCK_RECORD
  5
236
100
AcDbSymbolTableRecord
100
AcDbBlockTableRecord
  2
*Paper_Space
  0
BLOCK_RECORD
  5
237
100
AcDbSymbolTableRecord
100
AcDbBlockTableRecord
  2
_FILLED
  0
BLOCK_RECORD
  5
238
100
AcDbSymbolTableRecord
100
AcDbBlockTableRecord
  2
*D0
  0
BLOCK_RECORD
  5
239
100
AcDbSymbolTableRecord
100
AcDbBlockTableRecord
  2
*D1
  0
BLOCK_RECORD
  5
23A
100
AcDbSymbolTableRecord
100
AcDbBlockTableRecord
  2
*D2
  0
BLOCK_RECORD
  5
23B
100
AcDbSymbolTableRecord
100
AcDbBlockTableRecord
  2
*D3
  0
BLOCK_RECORD
  5
23C
100
AcDbSymbolTableRecord
100
AcDbBlockTableRecord
  2
*D4
  0
ENDTAB
  0
TABLE
  2
DIMSTYLE
  5
A
100
AcDbSymbolTable
 70
1
100
AcDbDimStyleTable
 71
0
  0
DIMSTYLE
105
23D
100
AcDbSymbolTableRecord
100
AcDbDimStyleTableRecord
  2
STANDARD
 70
0
  3

  4

 40
1.0
 41
3.5
 42
0.0625
 43
0.38
 44
0.18
 45
0.0
 46
0.0
 47
0.005
 48
0.005
140
3.5
141
0.09
142
0.0
143
25.4
144
1.0
145
0.0
146
1.0
147
0.09
 71
1.0
 72
0.0
 73
0
 74
0
 75
0
 76
0
 77
1
 78
8
170
0
171
2
172
0
173
0
174
0
175
0
176
0
177
0
178
5
270
2
271
3
272
3
273
2
274
2
275
0
280
0
281
0
282
0
283
1
284
8
285
0
286
0
287
3
288
0
340
11
341
237
342
237
343
237
344
237
  0
DIMSTYLE
105
23E
100
AcDbSymbolTableRecord
100
AcDbDimStyleTableRecord
  2
DIMSTYLE_1
 70
0
  3

  4

 40
1.0
 41
3.5
 42
0.0625
 43
0.38
 44
0.18
 45
0.0
 46
0.0
 47
0.3
 48
0.3
140
3.5
141
0.09
142
0.0
143
25.4
144
1.0
145
0.0
146
1.0
147
0.09
 71
0.0
 72
0.0
 73
0
 74
0
 75
0
 76
0
 77
1
 78
8
170
0
171
2
172
0
173
0
174
0
175
0
176
0
177
0
178
5
270
2
271
2
272
2
273
2
274
2
275
0
280
0
281
0
282
0
283
1
284
8
285
0
286
0
287
3
288
0
340
11
341
237
342
237
343
237
344
237
  0
DIMSTYLE
105
23F
100
AcDbSymbolTableRecord
100
AcDbDimStyleTableRecord
  2
DIMSTYLE_2
 70
0
  3

  4

 40
1.0
 41
3.5
 42
0.0625
 43
0.38
 44
0.18
 45
0.0
 46
0.0
 47
0.5
 48
0.5
140
3.5
141
0.09
142
0.0
143
25.4
144
1.0
145
0.0
146
1.0
147
0.09
 71
0.0
 72
0.0
 73
0
 74
0
 75
0
 76
0
 77
1
 78
8
170
0
171
2
172
0
173
0
174
0
175
0
176
0
177
0
178
5
270
2
271
2
272
2
273
2
274
2
275
0
280
0
281
0
282
0
283
1
284
8
285
0
286
0
287
3
288
0
340
11
341
237
342
237
343
237
344
237
  0
ENDTAB
  0
ENDSEC
  0
SECTION
  2
BLOCKS
  0
BLOCK
  5
20
100
AcDbEntity
  8
0
100
AcDbBlockBegin
  2
*Model_Space
 70
0
 10
0.0
 20
0.0
 30
0.0
  3
*Model_Space
  1

  0
ENDBLK
  5
21
100
AcDbEntity
  8
0
100
AcDbBlockEnd
  0
BLOCK
  5
1C
100
AcDbEntity
  8
0
100
AcDbBlockBegin
  2
*Paper_Space
 70
0
 10
0.0
 20
0.0
 30
0.0
  3
*Paper_Space
  1

  0
ENDBLK
  5
1D
100
AcDbEntity
  8
0
100
AcDbBlockEnd
  0
BLOCK
  5
240
100
AcDbEntity
  8
0
100
AcDbBlockBegin
  2
_FILLED
 70
64
 10
0.0
 20
0.0
  3
_FILLED
  1

  0
SOLID
  5
241
100
AcDbEntity
  8
0
  6
BYBLOCK
 62
0
100
AcDbTrace
 10
0.0
 20
0.0
 11
-1.0
 21
0.125
 12
-1.0
 22
-0.125
 13
-1.0
 23
-0.125
  0
ENDBLK
  5
242
100
AcDbEntity
  8
0
  6
BYBLOCK
 62
0
100
AcDbBlockEnd
  0
BLOCK
  5
243
100
AcDbEntity
  8
SK2
100
AcDbBlockBegin
 62
2
  6
CONTINUOUS
  2
*D0
 70
65
 10
0.0
 20
0.0
  3
*D0
  1

  0
MTEXT
  5
244
100
AcDbEntity
  8
SK2
100
AcDbMText
 62
5
  6
CONTINUOUS
  7
STANDARD
 71
2
 72
1
 10
218.0
 20
223.475
 30
0.0
 11
1.0
 21
0.0
 31
0.0
 44
0.9
  1
84
 40
3.5
 41
5.5
  0
LINE
  5
245
100
AcDbEntity
  8
SK2
100
AcDbLine
 62
2
  6
CONTINUOUS
 10
260.0
 20
160.1395650206
 11
260.0
 21
220.6
  0
LINE
  5
246
100
AcDbEntity
  8
SK2
100
AcDbLine
 62
2
  6
CONTINUOUS
 10
176.0
 20
170.0
 11
176.0
 21
220.6
  0
LINE
  5
247
100
AcDbEntity
  8
SK2
100
AcDbLine
 62
2
  6
CONTINUOUS
 10
260.0
 20
219.1
 11
218.0
 21
219.1
  0
LINE
  5
248
100
AcDbEntity
  8
SK2
100
AcDbLine
 62
2
  6
CONTINUOUS
 10
176.0
 20
219.1
 11
218.0
 21
219.1
  0
INSERT
  5
249
100
AcDbEntity
  8
SK2
100
AcDbBlockReference
 62
2
  6
CONTINUOUS
  2
_FILLED
 10
260.0
 20
219.1
 41
3.5
 42
3.5
 43
3.5
  0
INSERT
  5
24A
100
AcDbEntity
  8
SK2
100
AcDbBlockReference
 62
2
  6
CONTINUOUS
  2
_FILLED
 10
176.0
 20
219.1
 41
3.5
 42
3.5
 43
3.5
 50
180.0
  0
ENDBLK
  5
24B
100
AcDbEntity
  8
0
  6
BYBLOCK
 62
0
100
AcDbBlockEnd
  0
BLOCK
  5
24C
100
AcDbEntity
  8
SK2
100
AcDbBlockBegin
 62
2
  6
CONTINUOUS
  2
*D1
 70
65
 10
0.0
 20
0.0
  3
*D1
  1

  0
MTEXT
  5
24D
100
AcDbEntity
  8
SK2
100
AcDbMText
 62
5
  6
CONTINUOUS
  7
STANDARD
 71
2
 72
1
 10
189.0
 20
237.475
 30
0.0
 11
1.0
 21
0.0
 31
0.0
 44
0.9
  1
142
 40
3.5
 41
7.5
  0
LINE
  5
24E
100
AcDbEntity
  8
SK2
100
AcDbLine
 62
2
  6
CONTINUOUS
 10
260.0
 20
169.4159998477
 11
260.0
 21
234.6
  0
LINE
  5
24F
100
AcDbEntity
  8
SK2
100
AcDbLine
 62
2
  6
CONTINUOUS
 10
118.0
 20
170.0
 11
118.0
 21
234.6
  0
LINE
  5
250
100
AcDbEntity
  8
SK2
100
AcDbLine
 62
2
  6
CONTINUOUS
 10
260.0
 20
233.1
 11
189.0
 21
233.1
  0
LINE
  5
251
100
AcDbEntity
  8
SK2
100
AcDbLine
 62
2
  6
CONTINUOUS
 10
118.0
 20
233.1
 11
189.0
 21
233.1
  0
INSERT
  5
252
100
AcDbEntity
  8
SK2
100
AcDbBlockReference
 62
2
  6
CONTINUOUS
  2
_FILLED
 10
260.0
 20
233.1
 41
3.5
 42
3.5
 43
3.5
  0
INSERT
  5
253
100
AcDbEntity
  8
SK2
100
AcDbBlockReference
 62
2
  6
CONTINUOUS
  2
_FILLED
 10
118.0
 20
233.1
 41
3.5
 42
3.5
 43
3.5
 50
180.0
  0
ENDBLK
  5
254
100
AcDbEntity
  8
0
  6
BYBLOCK
 62
0
100
AcDbBlockEnd
  0
BLOCK
  5
255
100
AcDbEntity
  8
2
100
AcDbBlockBegin
 62
2
  6
CONTINUOUS
  2
*D2
 70
65
 10
0.0
 20
0.0
  3
*D2
  1

  0
MTEXT
  5
256
100
AcDbEntity
  8
2
100
AcDbMText
 62
5
  6
CONTINUOUS
  7
STANDARD
 71
2
 72
1
 10
205.0
 20
230.475
 30
0.0
 11
1.0
 21
0.0
 31
0.0
 44
0.9
  1
110
 40
3.5
 41
6.75
  0
LINE
  5
257
100
AcDbEntity
  8
2
100
AcDbLine
 62
2
  6
CONTINUOUS
 10
260.0
 20
201.1
 11
260.0
 21
227.6
  0
LINE
  5
258
100
AcDbEntity
  8
2
100
AcDbLine
 62
2
  6
CONTINUOUS
 10
150.0
 20
170.0
 11
150.0
 21
227.6
  0
LINE
  5
259
100
AcDbEntity
  8
2
100
AcDbLine
 62
2
  6
CONTINUOUS
 10
260.0
 20
226.1
 11
205.0
 21
226.1
  0
LINE
  5
25A
100
AcDbEntity
  8
2
100
AcDbLine
 62
2
  6
CONTINUOUS
 10
150.0
 20
226.1
 11
205.0
 21
226.1
  0
INSERT
  5
25B
100
AcDbEntity
  8
2
100
AcDbBlockReference
 62
2
  6
CONTINUOUS
  2
_FILLED
 10
260.0
 20
226.1
 41
3.5
 42
3.5
 43
3.5
  0
INSERT
  5
25C
100
AcDbEntity
  8
2
100
AcDbBlockReference
 62
2
  6
CONTINUOUS
  2
_FILLED
 10
150.0
 20
226.1
 41
3.5
 42
3.5
 43
3.5
 50
180.0
  0
ENDBLK
  5
25D
100
AcDbEntity
  8
0
  6
BYBLOCK
 62
0
100
AcDbBlockEnd
  0
BLOCK
  5
25E
100
AcDbEntity
  8
2
100
AcDbBlockBegin
 62
2
  6
CONTINUOUS
  2
*D3
 70
65
 10
0.0
 20
0.0
  3
*D3
  1

  0
MTEXT
  5
25F
100
AcDbEntity
  8
2
100
AcDbMText
 62
5
  6
CONTINUOUS
  7
TEXTSTYLE_2
 71
2
 72
1
 10
266.625
 20
160.0
 30
0.0
 11
0.0
 21
1.0
 31
0.0
 44
0.9
  1
{\Fgdt;n}\Ftxt;32
 40
3.5
 41
9.9166666667
  0
LINE
  5
260
100
AcDbEntity
  8
2
100
AcDbLine
 62
2
  6
CONTINUOUS
 10
261.5
 20
144.0
 11
272.5
 21
144.0
  0
LINE
  5
261
100
AcDbEntity
  8
2
100
AcDbLine
 62
2
  6
CONTINUOUS
 10
261.5
 20
176.0
 11
272.5
 21
176.0
  0
LINE
  5
262
100
AcDbEntity
  8
2
100
AcDbLine
 62
2
  6
CONTINUOUS
 10
271.0
 20
144.0
 11
271.0
 21
160.0
  0
LINE
  5
263
100
AcDbEntity
  8
2
100
AcDbLine
 62
2
  6
CONTINUOUS
 10
271.0
 20
176.0
 11
271.0
 21
160.0
  0
INSERT
  5
264
100
AcDbEntity
  8
2
100
AcDbBlockReference
 62
2
  6
CONTINUOUS
  2
_FILLED
 10
271.0
 20
144.0
 41
3.5
 42
3.5
 43
3.5
 50
270.0
  0
INSERT
  5
265
100
AcDbEntity
  8
2
100
AcDbBlockReference
 62
2
  6
CONTINUOUS
  2
_FILLED
 10
271.0
 20
176.0
 41
3.5
 42
3.5
 43
3.5
 50
90.0
  0
ENDBLK
  5
266
100
AcDbEntity
  8
0
  6
BYBLOCK
 62
0
100
AcDbBlockEnd
  0
BLOCK
  5
267
100
AcDbEntity
  8
2
100
AcDbBlockBegin
 62
2
  6
CONTINUOUS
  2
*D4
 70
65
 10
0.0
 20
0.0
  3
*D4
  1

  0
MTEXT
  5
268
100
AcDbEntity
  8
2
100
AcDbMText
 62
5
  6
CONTINUOUS
  7
TEXTSTYLE_2
 71
2
 72
1
 10
273.625
 20
160.0
 30
0.0
 11
0.0
 21
1.0
 31
0.0
 44
0.9
  1
{\Fgdt;n}\Ftxt;72
 40
3.5
 41
10.1666666667
  0
LINE
  5
269
100
AcDbEntity
  8
2
100
AcDbLine
 62
2
  6
CONTINUOUS
 10
252.0113887345
 20
124.0
 11
279.5
 21
124.0
  0
LINE
  5
26A
100
AcDbEntity
  8
2
100
AcDbLine
 62
2
  6
CONTINUOUS
 10
251.175252612
 20
196.0
 11
279.5
 21
196.0
  0
LINE
  5
26B
100
AcDbEntity
  8
2
100
AcDbLine
 62
2
  6
CONTINUOUS
 10
278.0
 20
124.0
 11
278.0
 21
160.0
  0
LINE
  5
26C
100
AcDbEntity
  8
2
100
AcDbLine
 62
2
  6
CONTINUOUS
 10
278.0
 20
196.0
 11
278.0
 21
160.0
  0
INSERT
  5
26D
100
AcDbEntity
  8
2
100
AcDbBlockReference
 62
2
  6
CONTINUOUS
  2
_FILLED
 10
278.0
 20
124.0
 41
3.5
 42
3.5
 43
3.5
 50
270.0
  0
INSERT
  5
26E
100
AcDbEntity
  8
2
100
AcDbBlockReference
 62
2
  6
CONTINUOUS
  2
_FILLED
 10
278.0
 20
196.0
 41
3.5
 42
3.5
 43
3.5
 50
90.0
  0
ENDBLK
  5
26F
100
AcDbEntity
  8
0
  6
BYBLOCK
 62
0
100
AcDbBlockEnd
  0
ENDSEC
  0
SECTION
  2
ENTITIES
  0
DIMENSION
  5
270
100
AcDbEntity
  8
SK2
100
AcDbDimension
 62
2
  6
CONTINUOUS
  2
*D0
 10
176.0
 20
219.1
 11
215.25
 21
221.725
 70
160
 71
2
 42
84.0
  3
DIMSTYLE_1
100
AcDbAlignedDimension
 13
260.0
 23
160.1395650206
 14
176.0
 24
170.0
 50
180.0
100
AcDbRotatedDimension
  0
DIMENSION
  5
271
100
AcDbEntity
  8
SK2
100
AcDbDimension
 62
2
  6
CONTINUOUS
  2
*D1
 10
118.0
 20
233.1
 11
185.25
 21
235.725
 70
160
 71
2
 42
142.0
  3
DIMSTYLE_2
100
AcDbAlignedDimension
 13
260.0
 23
169.4159998477
 14
118.0
 24
170.0
 50
180.0
100
AcDbRotatedDimension
  0
DIMENSION
  5
272
100
AcDbEntity
  8
2
100
AcDbDimension
 62
2
  6
CONTINUOUS
  2
*D2
 10
150.0
 20
226.1
 11
201.625
 21
228.725
 70
160
 71
2
 42
110.0
  3
DIMSTYLE_1
100
AcDbAlignedDimension
 13
260.0
 23
201.1
 14
150.0
 24
170.0
 50
180.0
100
AcDbRotatedDimension
  0
DIMENSION
  5
273
100
AcDbEntity
  8
2
100
AcDbDimension
 62
2
  6
CONTINUOUS
  2
*D3
 10
271.0
 20
176.0
 11
269.4858491733
 21
157.7836332715
 70
160
 71
2
 42
32.0
  1
%%c<>
  3
DIMSTYLE_1
100
AcDbAlignedDimension
 13
261.5
 23
144.0
 14
261.5
 24
176.0
 50
90.0
100
AcDbRotatedDimension
  0
DIMENSION
  5
274
100
AcDbEntity
  8
2
100
AcDbDimension
 62
2
  6
CONTINUOUS
  2
*D4
 10
278.0
 20
196.0
 11
276.5138537743
 21
157.72775848
 70
160
 71
2
 42
72.0
  1
%%c<>
  3
DIMSTYLE_1
100
AcDbAlignedDimension
 13
252.0113887345
 23
124.0
 14
251.175252612
 24
196.0
 50
90.0
100
AcDbRotatedDimension
  0
MTEXT
  5
275
100
AcDbEntity
  8
6
100
AcDbMText
 62
5
  6
CONTINUOUS
  7
STANDARD
 71
1
 72
1
 10
164.0274555389
 20
90.70104426
 30
0.0
 11
1.0
 21
0.0
 31
0.0
 44
0.9
  3
Für diese Unterlage behalten wir das Ur-\Pheberrecht. Sie darf nur für den von uns\Pbestimmten Zweck benutzt und ohne unsere \PZustimmung weder vervielfältigt noch \PDritten zugänglich gemacht werden.\P \PWe own the copyright of this document. It\Pde
  1
termined and may neither be copied or\Pmade accessible to outsiders without our\Ppermission.\P \PCe plan reste notre propriété. Il ne peut\Pétre utilisé, copié ou reproduit sans notre\Paccord.
 40
3.5
 41
103.5833333333
  0
LINE
  5
276
100
AcDbEntity
  8
BOHRUNGEN
100
AcDbLine
 62
7
  6
CONTINUOUS
 10
118.1
 20
138.4189639331
 11
118.1
 21
152.58
  0
LINE
  5
277
100
AcDbEntity
  8
BOHRUNGEN
100
AcDbLine
 62
7
  6
CONTINUOUS
 10
118.1
 20
167.42
 11
118.1
 21
181.5810359473
  0
LINE
  5
278
100
AcDbEntity
  8
BOHRUNGEN
100
AcDbLine
 62
9
  6
CONTINUOUS
 10
119.2399569357
 20
182.7795851214
 11
119.2399569357
 21
169.1299243651
  0
LINE
  5
279
100
AcDbEntity
  8
BOHRUNGEN
100
AcDbLine
 62
9
  6
CONTINUOUS
 10
119.2399569357
 20
150.8700756349
 11
119.2399569357
 21
137.2204148786
  0
LINE
  5
27A
100
AcDbEntity
  8
BOHRUNGEN
100
AcDbLine
 62
7
  6
CONTINUOUS
 10
119.25
 20
152.604074533
 11
119.25
 21
153.73
  0
LINE
  5
27B
100
AcDbEntity
  8
BOHRUNGEN
100
AcDbLine
 62
7
  6
CONTINUOUS
 10
119.25
 20
166.27
 11
119.25
 21
167.395925467
  0
LINE
  5
27C
100
AcDbEntity
  8
BOHRUNGEN
100
AcDbLine
 62
9
  6
CONTINUOUS
 10
122.8
 20
150.4339121266
 11
122.8
 21
153.73
  0
LINE
  5
27D
100
AcDbEntity
  8
BOHRUNGEN
100
AcDbLine
 62
9
  6
CONTINUOUS
 10
122.8
 20
166.27
 11
122.8
 21
169.5660878734
  0
LINE
  5
27E
100
AcDbEntity
  8
BOHRUNGEN
100
AcDbLine
 62
7
  6
CONTINUOUS
 10
124.2
 20
167.288788627
 11
124.2
 21
152.711211373
  0
LINE
  5
27F
100
AcDbEntity
  8
BOHRUNGEN
100
AcDbLine
 62
7
  6
CONTINUOUS
 10
118.1
 20
152.58
 11
119.25
 21
153.73
  0
LINE
  5
280
100
AcDbEntity
  8
BOHRUNGEN
100
AcDbLine
 62
7
  6
CONTINUOUS
 10
119.25
 20
166.27
 11
118.1
 21
167.42
  0
LINE
  5
281
100
AcDbEntity
  8
BOHRUNGEN
100
AcDbLine
 62
7
  6
CONTINUOUS
 10
148.0
 20
184.2204241497
 11
148.0
 21
135.7795758503
  0
LINE
  5
282
100
AcDbEntity
  8
BOHRUNGEN
100
AcDbLine
 62
9
  6
CONTINUOUS
 10
148.670110233
 20
135.9591313461
 11
148.670110233
 21
184.0408686539
  0
LINE
  5
283
100
AcDbEntity
  8
BOHRUNGEN
100
AcDbLine
 62
9
  6
CONTINUOUS
 10
148.8254016601
 20
135.9795758503
 11
148.8254016601
 21
184.0204241497
  0
LINE
  5
284
100
AcDbEntity
  8
BOHRUNGEN
100
AcDbLine
 62
9
  6
CONTINUOUS
 10
149.6978303695
 20
135.9795758503
 11
149.6978303695
 21
184.0204241497
  0
LINE
  5
285
100
AcDbEntity
  8
BOHRUNGEN
100
AcDbLine
 62
7
  6
CONTINUOUS
 10
150.0
 20
191.5
 11
150.0
 21
128.5
  0
LINE
  5
286
100
AcDbEntity
  8
BOHRUNGEN
100
AcDbLine
 62
7
  6
CONTINUOUS
 10
169.9125
 20
188.9375471695
 11
171.3919328315
 21
191.5
  0
LINE
  5
287
100
AcDbEntity
  8
BEZUGSACHSEN
100
AcDbLine
 62
7
  6
CONTINUOUS
 10
251.6107864376
 20
124.025
 11
193.45
 21
124.025
  0
LINE
  5
288
100
AcDbEntity
  8
BOHRUNGEN
100
AcDbLine
 62
7
  6
CONTINUOUS
 10
164.6080671685
 20
128.5
 11
150.0
 21
128.5
  0
LINE
  5
289
100
AcDbEntity
  8
BOHRUNGEN
100
AcDbLine
 62
7
  6
CONTINUOUS
 10
171.3919328315
 20
128.5
 11
175.95
 21
128.5
  0
LINE
  5
28A
100
AcDbEntity
  8
BOHRUNGEN
100
AcDbLine
 62
7
  6
CONTINUOUS
 10
169.9125
 20
131.0624528305
 11
171.3919328315
 21
128.5
  0
LINE
  5
28B
100
AcDbEntity
  8
FASEN
100
AcDbLine
 62
9
  6
CONTINUOUS
 10
162.137010403
 20
140.15
 11
162.137010403
 21
139.75
  0
LINE
  5
28C
100
AcDbEntity
  8
0
100
AcDbLine
 62
9
  6
CONTINUOUS
 10
162.9675
 20
152.3825
 11
162.9675
 21
151.9825
  0
LINE
  5
28D
100
AcDbEntity
  8
0
100
AcDbLine
 62
9
  6
CONTINUOUS
 10
162.9675
 20
167.6175
 11
162.9675
 21
168.0175
  0
LINE
  5
28E
100
AcDbEntity
  8
BOHRUNGEN
100
AcDbLine
 62
9
  6
CONTINUOUS
 10
118.1
 20
151.9036628271
 11
119.25
 21
152.604074533
  0
LINE
  5
28F
100
AcDbEntity
  8
BOHRUNGEN
100
AcDbLine
 62
7
  6
CONTINUOUS
 10
166.8375
 20
132.525
 11
169.1625
 21
132.525
  0
LINE
  5
290
100
AcDbEntity
  8
BOHRUNGEN
100
AcDbLine
 62
7
  6
CONTINUOUS
 10
148.0
 20
135.7795758503
 11
119.2399569357
 21
137.2204148786
  0
LINE
  5
291
100
AcDbEntity
  8
BOHRUNGEN
100
AcDbLine
 62
9
  6
CONTINUOUS
 10
119.25
 20
167.395925467
 11
118.1
 21
168.0963371729
  0
LINE
  5
292
100
AcDbEntity
  8
0
100
AcDbLine
 62
7
  6
CONTINUOUS
 10
164.6080671685
 20
191.5
 11
164.6080671685
 21
168.0175
  0
LINE
  5
293
100
AcDbEntity
  8
0
100
AcDbLine
 62
7
  6
CONTINUOUS
 10
164.6080671685
 20
151.9825
 11
164.6080671685
 21
140.15
  0
LINE
  5
294
100
AcDbEntity
  8
0
100
AcDbLine
 62
7
  6
CONTINUOUS
 10
164.6080671685
 20
135.5413103376
 11
164.6080671685
 21
128.5
  0
LINE
  5
295
100
AcDbEntity
  8
0
100
AcDbLine
 62
7
  6
CONTINUOUS
 10
166.0875
 20
188.9375314131
 11
166.0875
 21
168.0175
  0
LINE
  5
296
100
AcDbEntity
  8
0
100
AcDbLine
 62
7
  6
CONTINUOUS
 10
166.0875
 20
131.0624529585
 11
166.0875
 21
151.9825
  0
LINE
  5
297
100
AcDbEntity
  8
0
100
AcDbLine
 62
9
  6
CONTINUOUS
 10
166.8375
 20
132.525
 11
166.8375
 21
152.3897684004
  0
LINE
  5
298
100
AcDbEntity
  8
0
100
AcDbLine
 62
9
  6
CONTINUOUS
 10
166.8375
 20
167.6102315996
 11
166.8375
 21
187.475
  0
LINE
  5
299
100
AcDbEntity
  8
BEZUGSACHSEN
100
AcDbLine
 62
7
  6
CONTINUOUS
 10
191.45
 20
134.5
 11
176.95
 21
134.5
  0
LINE
  5
29A
100
AcDbEntity
  8
0
100
AcDbLine
 62
7
  6
CONTINUOUS
 10
155.3356130819
 20
135.5413103376
 11
164.6080671685
 21
135.5413103376
  0
LINE
  5
29B
100
AcDbEntity
  8
0
100
AcDbLine
 62
7
  6
CONTINUOUS
 10
171.3919328315
 20
135.5413103376
 11
175.95
 21
135.5413103376
  0
LINE
  5
29C
100
AcDbEntity
  8
BOHRUNGEN
100
AcDbLine
 62
7
  6
CONTINUOUS
 10
149.6978303695
 20
135.9795758503
 11
148.8254016601
 21
135.9795758503
  0
LINE
  5
29D
100
AcDbEntity
  8
0
100
AcDbLine
 62
9
  6
CONTINUOUS
 10
169.1625
 20
132.525
 11
169.1625
 21
152.3897684004
  0
LINE
  5
29E
100
AcDbEntity
  8
0
100
AcDbLine
 62
9
  6
CONTINUOUS
 10
169.1625
 20
167.6102315996
 11
169.1625
 21
187.475
  0
LINE
  5
29F
100
AcDbEntity
  8
0
100
AcDbLine
 62
7
  6
CONTINUOUS
 10
169.9125
 20
131.0624529585
 11
169.9125
 21
151.9825
  0
LINE
  5
2A0
100
AcDbEntity
  8
0
100
AcDbLine
 62
7
  6
CONTINUOUS
 10
169.9125
 20
168.0175
 11
169.9125
 21
188.9375314131
  0
LINE
  5
2A1
100
AcDbEntity
  8
0
100
AcDbLine
 62
7
  6
CONTINUOUS
 10
171.3919328315
 20
191.5
 11
171.3919328315
 21
168.0175
  0
LINE
  5
2A2
100
AcDbEntity
  8
0
100
AcDbLine
 62
7
  6
CONTINUOUS
 10
171.3919328315
 20
151.9825
 11
171.3919328315
 21
140.15
  0
LINE
  5
2A3
100
AcDbEntity
  8
0
100
AcDbLine
 62
7
  6
CONTINUOUS
 10
171.3919328315
 20
135.5413103376
 11
171.3919328315
 21
128.5
  0
LINE
  5
2A4
100
AcDbEntity
  8
0
100
AcDbLine
 62
7
  6
CONTINUOUS
 10
175.95
 20
139.75
 11
169.9125
 21
139.75
  0
LINE
  5
2A5
100
AcDbEntity
  8
0
100
AcDbLine
 62
7
  6
CONTINUOUS
 10
166.0875
 20
139.75
 11
162.137010403
 21
139.75
  0
LINE
  5
2A6
100
AcDbEntity
  8
0
100
AcDbLine
 62
7
  6
CONTINUOUS
 10
162.137010403
 20
140.15
 11
166.0875
 21
140.15
  0
LINE
  5
2A7
100
AcDbEntity
  8
0
100
AcDbLine
 62
7
  6
CONTINUOUS
 10
169.9125
 20
140.15
 11
175.95
 21
140.15
  0
LINE
  5
2A8
100
AcDbEntity
  8
0
100
AcDbLine
 62
7
  6
CONTINUOUS
 10
175.95
 20
128.5000256483
 11
175.95
 21
157.7
  0
LINE
  5
2A9
100
AcDbEntity
  8
0
100
AcDbLine
 62
7
  6
CONTINUOUS
 10
175.95
 20
162.3
 11
175.95
 21
191.499974183
  0
LINE
  5
2AA
100
AcDbEntity
  8
BEZUGSACHSEN
100
AcDbLine
 62
9
  6
CONTINUOUS
 10
176.95
 20
185.5
 11
176.95
 21
134.5
  0
LINE
  5
2AB
100
AcDbEntity
  8
BOHRUNGEN
100
AcDbLine
 62
7
  6
CONTINUOUS
 10
148.670110233
 20
135.9591313461
 11
148.0
 21
135.7795758503
  0
LINE
  5
2AC
100
AcDbEntity
  8
BOHRUNGEN
100
AcDbLine
 62
7
  6
CONTINUOUS
 10
164.6080671685
 20
128.5
 11
166.0875
 21
131.0624528305
  0
LINE
  5
2AD
100
AcDbEntity
  8
BOHRUNGEN
100
AcDbLine
 62
9
  6
CONTINUOUS
 10
123.5650588344
 20
150.85
 11
119.4019913293
 21
150.85
  0
LINE
  5
2AE
100
AcDbEntity
  8
0
100
AcDbLine
 62
7
  6
CONTINUOUS
 10
162.9675
 20
151.9825
 11
166.1309024143
 21
151.9825
  0
LINE
  5
2AF
100
AcDbEntity
  8
0
100
AcDbLine
 62
7
  6
CONTINUOUS
 10
169.8690975857
 20
151.9825
 11
175.95
 21
151.9825
  0
LINE
  5
2B0
100
AcDbEntity
  8
0
100
AcDbLine
 62
7
  6
CONTINUOUS
 10
175.95
 20
152.3825
 11
169.2174286691
 21
152.3825
  0
LINE
  5
2B1
100
AcDbEntity
  8
0
100
AcDbLine
 62
7
  6
CONTINUOUS
 10
166.7825713309
 20
152.3825
 11
162.9675
 21
152.3825
  0
LINE
  5
2B2
100
AcDbEntity
  8
0
100
AcDbLine
 62
7
  6
CONTINUOUS
 10
166.8375
 20
152.3897684004
 11
169.1625
 21
152.3897684004
  0
LINE
  5
2B3
100
AcDbEntity
  8
BOHRUNGEN
100
AcDbLine
 62
7
  6
CONTINUOUS
 10
122.8
 20
153.73
 11
119.25
 21
153.73
  0
LINE
  5
2B4
100
AcDbEntity
  8
BOHRUNGEN
100
AcDbLine
 62
7
  6
CONTINUOUS
 10
164.6080671685
 20
191.5
 11
166.0875
 21
188.9375471695
  0
LINE
  5
2B5
100
AcDbEntity
  8
4
100
AcDbLine
 62
7
  6
CENTER
 10
264.0
 20
160.0
 11
115.1
 21
160.0
  0
LINE
  5
2B6
100
AcDbEntity
  8
BOHRUNGEN
100
AcDbLine
 62
9
  6
CONTINUOUS
 10
145.3492952081
 20
160.00000003
 11
144.7500319151
 21
160.0000000167
  0
LINE
  5
2B7
100
AcDbEntity
  8
BOHRUNGEN
100
AcDbLine
 62
9
  6
CONTINUOUS
 10
136.6507008532
 20
159.9999999599
 11
137.2499614172
 21
159.9999999726
  0
LINE
  5
2B8
100
AcDbEntity
  8
BEZUGSACHSEN
100
AcDbLine
 62
9
  6
CONTINUOUS
 10
191.45
 20
185.5
 11
191.45
 21
134.5
  0
LINE
  5
2B9
100
AcDbEntity
  8
BEZUGSACHSEN
100
AcDbLine
 62
7
  6
CONTINUOUS
 10
192.45
 20
194.975
 11
192.45
 21
125.025
  0
LINE
  5
2BA
100
AcDbEntity
  8
BEZUGSACHSEN
100
AcDbLine
 62
9
  6
CONTINUOUS
 10
193.45
 20
195.975
 11
193.45
 21
124.025
  0
LINE
  5
2BB
100
AcDbEntity
  8
BEZUGSACHSEN
100
AcDbLine
 62
8
  6
HIDDEN
 10
200.0795519578
 20
195.975
 11
200.0708362193
 21
176.0
  0
LINE
  5
2BC
100
AcDbEntity
  8
BOHRUNGEN
100
AcDbLine
 62
7
  6
CONTINUOUS
 10
122.8
 20
166.27
 11
119.25
 21
166.27
  0
LINE
  5
2BD
100
AcDbEntity
  8
0
100
AcDbLine
 62
7
  6
CONTINUOUS
 10
166.8375
 20
167.6102315996
 11
169.1625
 21
167.6102315996
  0
LINE
  5
2BE
100
AcDbEntity
  8
0
100
AcDbLine
 62
7
  6
CONTINUOUS
 10
162.9675
 20
167.6175
 11
166.7825713309
 21
167.6175
  0
LINE
  5
2BF
100
AcDbEntity
  8
0
100
AcDbLine
 62
7
  6
CONTINUOUS
 10
169.2174286691
 20
167.6175
 11
175.95
 21
167.6175
  0
LINE
  5
2C0
100
AcDbEntity
  8
0
100
AcDbLine
 62
7
  6
CONTINUOUS
 10
162.9675
 20
168.0175
 11
166.1309024143
 21
168.0175
  0
LINE
  5
2C1
100
AcDbEntity
  8
0
100
AcDbLine
 62
7
  6
CONTINUOUS
 10
169.8690975857
 20
168.0175
 11
175.95
 21
168.0175
  0
LINE
  5
2C2
100
AcDbEntity
  8
BOHRUNGEN
100
AcDbLine
 62
9
  6
CONTINUOUS
 10
119.4019913293
 20
169.15
 11
123.5650588344
 21
169.15
  0
LINE
  5
2C3
100
AcDbEntity
  8
BOHRUNGEN
100
AcDbLine
 62
7
  6
CONTINUOUS
 10
148.670110233
 20
184.0408686539
 11
148.0
 21
184.2204241497
  0
LINE
  5
2C4
100
AcDbEntity
  8
BEZUGSACHSEN
100
AcDbLine
 62
8
  6
HIDDEN
 10
216.9195535609
 20
195.975
 11
216.9108378224
 21
176.0
  0
LINE
  5
2C5
100
AcDbEntity
  8
BOHRUNGEN
100
AcDbLine
 62
7
  6
CONTINUOUS
 10
148.0
 20
184.2204241497
 11
119.2399569357
 21
182.7795851214
  0
LINE
  5
2C6
100
AcDbEntity
  8
BOHRUNGEN
100
AcDbLine
 62
7
  6
CONTINUOUS
 10
149.6978303695
 20
184.0204241497
 11
148.8254016601
 21
184.0204241497
  0
LINE
  5
2C7
100
AcDbEntity
  8
BEZUGSACHSEN
100
AcDbLine
 62
7
  6
CONTINUOUS
 10
191.45
 20
185.5
 11
176.95
 21
185.5
  0
LINE
  5
2C8
100
AcDbEntity
  8
BOHRUNGEN
100
AcDbLine
 62
7
  6
CONTINUOUS
 10
166.8375
 20
187.475
 11
169.1625
 21
187.475
  0
LINE
  5
2C9
100
AcDbEntity
  8
BEZUGSACHSEN
100
AcDbLine
 62
7
  6
CONTINUOUS
 10
164.6080671685
 20
191.5
 11
162.6754825586
 21
191.5
  0
LINE
  5
2CA
100
AcDbEntity
  8
BEZUGSACHSEN
100
AcDbLine
 62
7
  6
CONTINUOUS
 10
151.3245174414
 20
191.5
 11
150.0
 21
191.5
  0
LINE
  5
2CB
100
AcDbEntity
  8
BOHRUNGEN
100
AcDbLine
 62
7
  6
CONTINUOUS
 10
150.0
 20
191.5
 11
151.3245174414
 21
191.5
  0
LINE
  5
2CC
100
AcDbEntity
  8
BOHRUNGEN
100
AcDbLine
 62
7
  6
CONTINUOUS
 10
162.6754825586
 20
191.5
 11
164.6080671685
 21
191.5
  0
LINE
  5
2CD
100
AcDbEntity
  8
BOHRUNGEN
100
AcDbLine
 62
7
  6
CONTINUOUS
 10
171.3919328315
 20
191.5
 11
175.95
 21
191.5
  0
LINE
  5
2CE
100
AcDbEntity
  8
BEZUGSACHSEN
100
AcDbLine
 62
7
  6
CONTINUOUS
 10
251.6107864376
 20
195.975
 11
244.92
 21
195.975
  0
LINE
  5
2CF
100
AcDbEntity
  8
BEZUGSACHSEN
100
AcDbLine
 62
7
  6
CONTINUOUS
 10
228.08
 20
195.975
 11
216.9195535609
 21
195.975
  0
LINE
  5
2D0
100
AcDbEntity
  8
BEZUGSACHSEN
100
AcDbLine
 62
7
  6
CONTINUOUS
 10
200.0795519578
 20
195.975
 11
193.45
 21
195.975
  0
LINE
  5
2D1
100
AcDbEntity
  8
BEZUGSACHSEN
100
AcDbLine
 62
8
  6
HIDDEN
 10
228.08
 20
195.975
 11
228.08
 21
176.0
  0
LINE
  5
2D2
100
AcDbEntity
  8
BEZUGSACHSEN
100
AcDbLine
 62
8
  6
HIDDEN
 10
244.92
 20
195.975
 11
244.92
 21
176.0
  0
LINE
  5
2D3
100
AcDbEntity
  8
BEZUGSACHSEN
100
AcDbLine
 62
9
  6
CONTINUOUS
 10
251.6107864376
 20
195.975
 11
251.6107864376
 21
124.025
  0
LINE
  5
2D4
100
AcDbEntity
  8
BEZUGSACHSEN
100
AcDbLine
 62
9
  6
CONTINUOUS
 10
252.3178932188
 20
195.6821067812
 11
252.3178932188
 21
124.3178932188
  0
LINE
  5
2D5
100
AcDbEntity
  8
BEZUGSACHSEN
100
AcDbLine
 62
9
  6
CONTINUOUS
 10
259.7071067812
 20
188.2928932188
 11
259.7071067812
 21
131.7071067812
  0
LINE
  5
2D6
100
AcDbEntity
  8
BEZUGSACHSEN
100
AcDbLine
 62
7
  6
CONTINUOUS
 10
259.7071067812
 20
131.7071067812
 11
252.3178932188
 21
124.3178932188
  0
LINE
  5
2D7
100
AcDbEntity
  8
BEZUGSACHSEN
100
AcDbLine
 62
7
  6
CONTINUOUS
 10
259.7071067812
 20
188.2928932188
 11
252.3178932188
 21
195.6821067812
  0
LINE
  5
2D8
100
AcDbEntity
  8
BEZUGSACHSEN
100
AcDbLine
 62
7
  6
CONTINUOUS
 10
260.0
 20
187.5857864376
 11
260.0
 21
132.4142135624
  0
LINE
  5
2D9
100
AcDbEntity
  8
2
100
AcDbLine
 62
8
  6
HIDDEN
 10
260.0
 20
144.0
 11
200.0
 21
144.0
  0
LINE
  5
2DA
100
AcDbEntity
  8
2
100
AcDbLine
 62
8
  6
HIDDEN
 10
200.0
 20
176.0
 11
200.0
 21
144.0
  0
LINE
  5
2DB
100
AcDbEntity
  8
2
100
AcDbLine
 62
8
  6
HIDDEN
 10
260.0
 20
176.0
 11
200.0
 21
176.0
  0
LINE
  5
2DC
100
AcDbEntity
  8
2
100
AcDbLine
 62
8
  6
HIDDEN
 10
260.0
 20
144.0
 11
260.0
 21
176.0
  0
ARC
  5
2DD
100
AcDbEntity
  8
0
100
AcDbCircle
 62
7
  6
CONTINUOUS
 10
165.044007878
 20
144.0693969786
 40
12.9221202314
100
AcDbArc
 50
219.3764460176
 51
221.2968468643
  0
ARC
  5
2DE
100
AcDbEntity
  8
0
100
AcDbCircle
 62
7
  6
CONTINUOUS
 10
162.137010403
 20
132.15
 40
8.0
100
AcDbArc
 50
90.0
 51
152.2781394396
  0
ARC
  5
2DF
100
AcDbEntity
  8
0
100
AcDbCircle
 62
7
  6
CONTINUOUS
 10
162.137010403
 20
132.15
 40
7.5999994293
100
AcDbArc
 50
90.0
 51
153.4982544295
  0
ARC
  5
2E0
100
AcDbEntity
  8
BOHRUNGEN
100
AcDbCircle
 62
7
  6
CONTINUOUS
 10
122.8
 20
155.13
 40
1.4
100
AcDbArc
 50
270.0
 51
356.4445541731
  0
ARC
  5
2E1
100
AcDbEntity
  8
BOHRUNGEN
100
AcDbCircle
 62
7
  6
CONTINUOUS
 10
119.3
 20
138.4189117832
 40
1.2
100
AcDbArc
 50
180.0
 51
267.131957271
  0
ARC
  5
2E2
100
AcDbEntity
  8
BOHRUNGEN
100
AcDbCircle
 62
7
  6
CONTINUOUS
 10
166.8375
 20
131.775
 40
0.75
100
AcDbArc
 50
90.0
 51
180.0
  0
ARC
  5
2E3
100
AcDbEntity
  8
BOHRUNGEN
100
AcDbCircle
 62
7
  6
CONTINUOUS
 10
148.8254016601
 20
135.3795758503
 40
0.6
100
AcDbArc
 50
90.0
 51
105.0
  0
ARC
  5
2E4
100
AcDbEntity
  8
BOHRUNGEN
100
AcDbCircle
 62
7
  6
CONTINUOUS
 10
149.6978303695
 20
135.3795758503
 40
0.6
100
AcDbArc
 50
59.7410919871
 51
90.0
  0
ARC
  5
2E5
100
AcDbEntity
  8
0
100
AcDbCircle
 62
7
  6
CONTINUOUS
 10
21.8903202795
 20
199.617266283
 40
156.4419490014
100
AcDbArc
 50
335.8213605441
 51
337.1802663193
  0
ARC
  5
2E6
100
AcDbEntity
  8
0
100
AcDbCircle
 62
7
  6
CONTINUOUS
 10
162.9675
 20
160.0
 40
8.0175
100
AcDbArc
 50
90.0
 51
270.0
  0
ARC
  5
2E7
100
AcDbEntity
  8
0
100
AcDbCircle
 62
7
  6
CONTINUOUS
 10
162.9675
 20
160.0
 40
7.6175
100
AcDbArc
 50
89.9999999629
 51
270.000000041
  0
CIRCLE
  5
2E8
100
AcDbEntity
  8
BOHRUNGEN
100
AcDbCircle
 62
7
  6
CONTINUOUS
 10
141.0
 20
160.0
 40
3.75
  0
ARC
  5
2E9
100
AcDbEntity
  8
BOHRUNGEN
100
AcDbCircle
 62
7
  6
CONTINUOUS
 10
122.8
 20
164.87
 40
1.4
100
AcDbArc
 50
3.555445787
 51
90.0
  0
ARC
  5
2EA
100
AcDbEntity
  8
BOHRUNGEN
100
AcDbCircle
 62
7
  6
CONTINUOUS
 10
119.3
 20
181.5810882168
 40
1.2
100
AcDbArc
 50
92.868042729
 51
180.0
  0
ARC
  5
2EB
100
AcDbEntity
  8
BOHRUNGEN
100
AcDbCircle
 62
7
  6
CONTINUOUS
 10
166.8375
 20
188.225
 40
0.75
100
AcDbArc
 50
180.0
 51
270.0
  0
ARC
  5
2EC
100
AcDbEntity
  8
BOHRUNGEN
100
AcDbCircle
 62
7
  6
CONTINUOUS
 10
148.8254016601
 20
184.6204241497
 40
0.6
100
AcDbArc
 50
255.0
 51
270.0
  0
ARC
  5
2ED
100
AcDbEntity
  8
BOHRUNGEN
100
AcDbCircle
 62
7
  6
CONTINUOUS
 10
149.6978303695
 20
184.6204241497
 40
0.6
100
AcDbArc
 50
270.0
 51
300.2589080129
  0
ARC
  5
2EE
100
AcDbEntity
  8
BEZUGSACHSEN
100
AcDbCircle
 62
7
  6
CONTINUOUS
 10
191.45
 20
133.5
 40
1.0
100
AcDbArc
 50
0.0
 51
90.0
  0
ARC
  5
2EF
100
AcDbEntity
  8
BEZUGSACHSEN
100
AcDbCircle
 62
7
  6
CONTINUOUS
 10
193.45
 20
125.025
 40
1.0
100
AcDbArc
 50
180.0
 51
270.0
  0
ARC
  5
2F0
100
AcDbEntity
  8
BEZUGSACHSEN
100
AcDbCircle
 62
7
  6
CONTINUOUS
 10
176.95
 20
133.5
 40
1.0
100
AcDbArc
 50
90.0
 51
175.9617150705
  0
ARC
  5
2F1
100
AcDbEntity
  8
BOHRUNGEN
100
AcDbCircle
 62
7
  6
CONTINUOUS
 10
169.1625
 20
131.775
 40
0.75
100
AcDbArc
 50
0.0
 51
90.0
  0
ARC
  5
2F2
100
AcDbEntity
  8
BOHRUNGEN
100
AcDbCircle
 62
7
  6
CONTINUOUS
 10
214.2198760795
 20
-591.1033471663
 40
766.1433176281
100
AcDbArc
 50
96.8531348206
 51
97.1091520674
  0
ARC
  5
2F3
100
AcDbEntity
  8
BEZUGSACHSEN
100
AcDbCircle
 62
7
  6
CONTINUOUS
 10
251.6107864376
 20
125.025
 40
1.0
100
AcDbArc
 50
270.0
 51
315.0
  0
ARC
  5
2F4
100
AcDbEntity
  8
BEZUGSACHSEN
100
AcDbCircle
 62
7
  6
CONTINUOUS
 10
259.0
 20
132.4142135624
 40
1.0
100
AcDbArc
 50
315.0
 51
360.0
  0
ARC
  5
2F5
100
AcDbEntity
  8
BOHRUNGEN
100
AcDbCircle
 62
7
  6
CONTINUOUS
 10
214.2198760795
 20
911.1033471663
 40
766.1433176281
100
AcDbArc
 50
262.8908479326
 51
263.1468651794
  0
ARC
  5
2F6
100
AcDbEntity
  8
0
100
AcDbCircle
 62
7
  6
CONTINUOUS
 10
314.1096797205
 20
199.617266283
 40
156.4419490014
100
AcDbArc
 50
202.8197336807
 51
204.1786394559
  0
ARC
  5
2F7
100
AcDbEntity
  8
BEZUGSACHSEN
100
AcDbCircle
 62
7
  6
CONTINUOUS
 10
259.0
 20
187.5857864376
 40
1.0
100
AcDbArc
 50
0.0
 51
45.0
  0
ARC
  5
2F8
100
AcDbEntity
  8
BEZUGSACHSEN
100
AcDbCircle
 62
7
  6
CONTINUOUS
 10
191.45
 20
186.5
 40
1.0
100
AcDbArc
 50
270.0
 51
360.0
  0
ARC
  5
2F9
100
AcDbEntity
  8
BEZUGSACHSEN
100
AcDbCircle
 62
7
  6
CONTINUOUS
 10
193.45
 20
194.975
 40
1.0
100
AcDbArc
 50
90.0
 51
180.0
  0
ARC
  5
2FA
100
AcDbEntity
  8
BEZUGSACHSEN
100
AcDbCircle
 62
7
  6
CONTINUOUS
 10
251.6107864376
 20
194.975
 40
1.0
100
AcDbArc
 50
45.0
 51
90.0
  0
ARC
  5
2FB
100
AcDbEntity
  8
BEZUGSACHSEN
100
AcDbCircle
 62
7
  6
CONTINUOUS
 10
176.95
 20
186.5
 40
1.0
100
AcDbArc
 50
184.0382849294
 51
270.0
  0
ARC
  5
2FC
100
AcDbEntity
  8
BOHRUNGEN
100
AcDbCircle
 62
7
  6
CONTINUOUS
 10
169.1625
 20
188.225
 40
0.75
100
AcDbArc
 50
270.0
 51
360.0
  0
SPLINE
  5
2FD
100
AcDbEntity
  8
BEZUGSACHSEN
100
AcDbSpline
 62
7
  6
CONTINUOUS
 70
0
 71
3
 72
15
 73
11
 74
0
 42
0.0000001
 43
0.0000001
 44
0.0000000001
 40
0.0
 40
0.0
 40
0.0
 40
0.0
 40
0.038843481
 40
0.1480779096
 40
0.3097824746
 40
0.5000082685
 40
0.690235795
 40
0.8519385659
 40
0.9611630594
 40
1.0
 40
1.0
 40
1.0
 40
1.0
 10
216.9195535609
 20
195.975
 30
0.0
 10
216.7053368776
 20
195.9248641289
 30
0.0
 10
215.8871434512
 20
195.7402801094
 30
0.0
 10
214.1636915378
 20
195.4076400127
 30
0.0
 10
211.5712953062
 20
195.0684561447
 30
0.0
 10
208.4993976091
 20
194.9256849742
 30
0.0
 10
205.4275064684
 20
195.068406232
 30
0.0
 10
202.8351662929
 20
195.4075952934
 30
0.0
 10
201.1118249621
 20
195.7402650076
 30
0.0
 10
200.2937302976
 20
195.9248628559
 30
0.0
 10
200.0795519578
 20
195.975
 30
0.0
  0
SPLINE
  5
2FE
100
AcDbEntity
  8
BEZUGSACHSEN
100
AcDbSpline
 62
7
  6
CONTINUOUS
 70
0
 71
3
 72
15
 73
11
 74
0
 42
0.0000001
 43
0.0000001
 44
0.0000000001
 40
0.0
 40
0.0
 40
0.0
 40
0.0
 40
0.0388402105
 40
0.1480696712
 40
0.3097733388
 40
0.500000009
 40
0.6902266741
 40
0.8519303434
 40
0.9611597951
 40
1.0
 40
1.0
 40
1.0
 40
1.0
 10
244.92
 20
195.975
 30
0.0
 10
244.7058025113
 20
195.9248634929
 30
0.0
 10
243.8876585496
 20
195.7402725607
 30
0.0
 10
242.1642620993
 20
195.4076176585
 30
0.0
 10
239.5718940903
 20
195.0684311822
 30
0.0
 10
236.4999998752
 20
194.9256849682
 30
0.0
 10
233.4281056526
 20
195.0684312069
 30
0.0
 10
230.8357377151
 20
195.4076176872
 30
0.0
 10
229.112341339
 20
195.7402725859
 30
0.0
 10
228.2941974579
 20
195.9248635004
 30
0.0
 10
228.08
 20
195.975
 30
0.0
  0
SPLINE
  5
2FF
100
AcDbEntity
  8
BEZUGSACHSEN
100
AcDbSpline
 62
7
  6
CONTINUOUS
 70
0
 71
3
 72
10
 73
6
 74
0
 42
0.0000001
 43
0.0000001
 44
0.0000000001
 40
0.0
 40
0.0
 40
0.0
 40
0.0
 40
0.3689179936
 40
0.6909978046
 40
1.0
 40
1.0
 40
1.0
 40
1.0
 10
157.0
 20
191.0615996104
 30
0.0
 10
156.2993939275
 20
191.0615996104
 30
0.0
 10
154.9867954624
 20
191.0997019671
 30
0.0
 10
153.0934979231
 20
191.2564571298
 30
0.0
 10
151.9046483038
 20
191.4113440012
 30
0.0
 10
151.3245174414
 20
191.5
 30
0.0
  0
SPLINE
  5
300
100
AcDbEntity
  8
BEZUGSACHSEN
100
AcDbSpline
 62
7
  6
CONTINUOUS
 70
0
 71
3
 72
10
 73
6
 74
0
 42
0.0000001
 43
0.0000001
 44
0.0000000001
 40
0.0
 40
0.0
 40
0.0
 40
0.0
 40
0.3090021852
 40
0.6310819722
 40
1.0
 40
1.0
 40
1.0
 40
1.0
 10
162.6754825586
 20
191.5
 30
0.0
 10
162.0953517159
 20
191.4113439992
 30
0.0
 10
160.9065021615
 20
191.2564571349
 30
0.0
 10
159.013204622
 20
191.0997019749
 30
0.0
 10
157.7006061376
 20
191.0615996104
 30
0.0
 10
157.0
 20
191.0615996104
 30
0.0
  0
SPLINE
  5
301
100
AcDbEntity
  8
BOHRUNGEN
100
AcDbSpline
 62
7
  6
CONTINUOUS
 70
0
 71
3
 72
10
 73
6
 74
0
 42
0.0000001
 43
0.0000001
 44
0.0000000001
 40
0.0
 40
0.0
 40
0.0
 40
0.0
 40
0.2502085961
 40
0.5004921768
 40
1.0
 40
1.0
 40
1.0
 40
1.0
 10
119.2399569357
 20
150.8700756349
 30
0.0
 10
119.19808412
 20
150.8752275771
 30
0.0
 10
119.1154139005
 20
150.8963885578
 30
0.0
 10
118.9636200999
 20
150.9714996294
 30
0.0
 10
118.8643491047
 20
151.0522222639
 30
0.0
 10
118.8034601744
 20
151.1104132173
 30
0.0
  0
SPLINE
  5
302
100
AcDbEntity
  8
BOHRUNGEN
100
AcDbSpline
 62
7
  6
CONTINUOUS
 70
0
 71
3
 72
11
 73
7
 74
0
 42
0.0000001
 43
0.0000001
 44
0.0000000001
 40
0.0
 40
0.0
 40
0.0
 40
0.0
 40
0.248927633
 40
0.4980005472
 40
0.748086818
 40
1.0
 40
1.0
 40
1.0
 40
1.0
 10
123.5650588344
 20
169.15
 30
0.0
 10
123.6622841391
 20
169.0159623233
 30
0.0
 10
123.8357001818
 20
168.7321037404
 30
0.0
 10
124.0359339393
 20
168.2748989286
 30
0.0
 10
124.1674731796
 20
167.7909100435
 30
0.0
 10
124.2
 20
167.4563610196
 30
0.0
 10
124.2
 20
167.288788627
 30
0.0
  0
SPLINE
  5
303
100
AcDbEntity
  8
BOHRUNGEN
100
AcDbSpline
 62
7
  6
CONTINUOUS
 70
0
 71
3
 72
11
 73
7
 74
0
 42
0.0000001
 43
0.0000001
 44
0.0000000001
 40
0.0
 40
0.0
 40
0.0
 40
0.0
 40
0.2575266787
 40
0.5098598655
 40
0.7566594094
 40
1.0
 40
1.0
 40
1.0
 40
1.0
 10
122.8
 20
169.5660878734
 30
0.0
 10
122.8777352251
 20
169.5754342293
 30
0.0
 10
123.0366882968
 20
169.5650067758
 30
0.0
 10
123.249893917
 20
169.4692890128
 30
0.0
 10
123.4257015344
 20
169.3248310151
 30
0.0
 10
123.5216196731
 20
169.2098865107
 30
0.0
 10
123.5650588344
 20
169.15
 30
0.0
  0
SPLINE
  5
304
100
AcDbEntity
  8
BOHRUNGEN
100
AcDbSpline
 62
7
  6
CONTINUOUS
 70
0
 71
3
 72
11
 73
7
 74
0
 42
0.0000001
 43
0.0000001
 44
0.0000000001
 40
0.0
 40
0.0
 40
0.0
 40
0.0
 40
0.2519136956
 40
0.5020002169
 40
0.7510730491
 40
1.0
 40
1.0
 40
1.0
 40
1.0
 10
124.2
 20
152.711211373
 30
0.0
 10
124.2
 20
152.5436386355
 30
0.0
 10
124.1674731137
 20
152.2090890792
 30
0.0
 10
124.0359334377
 20
151.7250998519
 30
0.0
 10
123.8357000561
 20
151.267895221
 30
0.0
 10
123.6622838745
 20
150.9840373119
 30
0.0
 10
123.5650588344
 20
150.85
 30
0.0
  0
SPLINE
  5
305
100
AcDbEntity
  8
BOHRUNGEN
100
AcDbSpline
 62
7
  6
CONTINUOUS
 70
0
 71
3
 72
11
 73
7
 74
0
 42
0.0000001
 43
0.0000001
 44
0.0000000001
 40
0.0
 40
0.0
 40
0.0
 40
0.0
 40
0.2434212854
 40
0.490244526
 40
0.7425150589
 40
1.0
 40
1.0
 40
1.0
 40
1.0
 10
123.5650588344
 20
150.85
 30
0.0
 10
123.5216047983
 20
150.7900929825
 30
0.0
 10
123.4256650739
 20
150.6751215766
 30
0.0
 10
123.2498354074
 20
150.5306680308
 30
0.0
 10
123.0366473674
 20
150.4349591182
 30
0.0
 10
122.8777234668
 20
150.4245671844
 30
0.0
 10
122.8
 20
150.4339121266
 30
0.0
  0
SPLINE
  5
306
100
AcDbEntity
  8
BOHRUNGEN
100
AcDbSpline
 62
7
  6
CONTINUOUS
 70
0
 71
3
 72
15
 73
11
 74
0
 42
0.0000001
 43
0.0000001
 44
0.0000000001
 40
0.0
 40
0.0
 40
0.0
 40
0.0
 40
0.1392837668
 40
0.2624472982
 40
0.3711119227
 40
0.4748383192
 40
0.5860552078
 40
0.7109860539
 40
0.8497116077
 40
1.0
 40
1.0
 40
1.0
 40
1.0
 10
118.1
 20
168.6370882504
 30
0.0
 10
118.1
 20
168.6837889776
 30
0.0
 10
118.106092558
 20
168.7720789702
 30
0.0
 10
118.1415030789
 20
168.8928597959
 30
0.0
 10
118.2092120188
 20
168.9867630704
 30
0.0
 10
118.308714414
 20
169.0388787742
 30
0.0
 10
118.4247789608
 20
169.0462669628
 30
0.0
 10
118.5485480773
 20
169.0193741788
 30
0.0
 10
118.677020645
 20
168.9654942409
 30
0.0
 10
118.7610584676
 20
168.9168135474
 30
0.0
 10
118.8034601744
 20
168.8895867827
 30
0.0
  0
SPLINE
  5
307
100
AcDbEntity
  8
BOHRUNGEN
100
AcDbSpline
 62
7
  6
CONTINUOUS
 70
0
 71
3
 72
23
 73
19
 74
0
 42
0.0000001
 43
0.0000001
 44
0.0000000001
 40
0.0
 40
0.0
 40
0.0
 40
0.0
 40
0.0626490935
 40
0.12518349
 40
0.1875503549
 40
0.2497683936
 40
0.3119309941
 40
0.3741517376
 40
0.436513677
 40
0.4990351895
 40
0.5616692795
 40
0.6243374884
 40
0.6869758249
 40
0.7495645509
 40
0.8121291438
 40
0.8747134194
 40
0.9373381803
 40
1.0
 40
1.0
 40
1.0
 40
1.0
 10
145.3492484523
 20
160.0
 30
0.0
 10
145.3494400784
 20
159.7153273431
 30
0.0
 10
145.2931222776
 20
159.1449359
 30
0.0
 10
145.0447824839
 20
158.3242846819
 30
0.0
 10
144.6417822288
 20
157.5692705273
 30
0.0
 10
144.1000140665
 20
156.9090659311
 30
0.0
 10
143.4402084981
 20
156.36784229
 30
0.0
 10
142.6868667617
 20
155.9655731446
 30
0.0
 10
141.8681170444
 20
155.7171089419
 30
0.0
 10
141.0148633068
 20
155.6320309156
 30
0.0
 10
140.1598972333
 20
155.7139714929
 30
0.0
 10
139.3365215652
 20
155.9603268475
 30
0.0
 10
138.5769350054
 20
156.3620664695
 30
0.0
 10
137.910861906
 20
156.9042454341
 30
0.0
 10
137.3639102524
 20
157.5660916584
 30
0.0
 10
136.9574882823
 20
158.3227219999
 30
0.0
 10
136.7072489373
 20
159.1443914084
 30
0.0
 10
136.6506097566
 20
159.715269487
 30
0.0
 10
136.6507515477
 20
160.0
 30
0.0
  0
LINE
  5
308
100
AcDbEntity
  8
BOHRUNGEN
100
AcDbLine
 62
7
  6
CONTINUOUS
 10
119.2399569357
 20
169.1299243651
 11
119.4019913293
 21
169.15
  0
SPLINE
  5
309
100
AcDbEntity
  8
0
100
AcDbSpline
 62
7
  6
CONTINUOUS
 70
0
 71
3
 72
8
 73
4
 74
0
 42
0.0000001
 43
0.0000001
 44
0.0000000001
 40
0.0
 40
0.0
 40
0.0
 40
0.0
 40
1.0
 40
1.0
 40
1.0
 40
1.0
 10
166.7825713309
 20
167.6175
 30
0.0
 10
166.8004247571
 20
167.6127708364
 30
0.0
 10
166.8190308415
 20
167.6102315996
 30
0.0
 10
166.8375
 20
167.6102315996
 30
0.0
  0
SPLINE
  5
30A
100
AcDbEntity
  8
0
100
AcDbSpline
 62
7
  6
CONTINUOUS
 70
0
 71
3
 72
11
 73
7
 74
0
 42
0.0000001
 43
0.0000001
 44
0.0000000001
 40
0.0
 40
0.0
 40
0.0
 40
0.0
 40
0.21834418
 40
0.4575502974
 40
0.7199489333
 40
1.0
 40
1.0
 40
1.0
 40
1.0
 10
166.1309024143
 20
168.0175
 30
0.0
 10
166.1544936877
 20
167.964234376
 30
0.0
 10
166.2228511707
 20
167.860363154
 30
0.0
 10
166.3722038835
 20
167.7358251924
 30
0.0
 10
166.5638578509
 20
167.6480504437
 30
0.0
 10
166.7079823874
 20
167.6219243277
 30
0.0
 10
166.7825713309
 20
167.6175
 30
0.0
  0
SPLINE
  5
30B
100
AcDbEntity
  8
0
100
AcDbSpline
 62
7
  6
CONTINUOUS
 70
0
 71
3
 72
11
 73
7
 74
0
 42
0.0000001
 43
0.0000001
 44
0.0000000001
 40
0.0
 40
0.0
 40
0.0
 40
0.0
 40
0.2800510667
 40
0.5424497026
 40
0.78165582
 40
1.0
 40
1.0
 40
1.0
 40
1.0
 10
166.7825713309
 20
152.3825
 30
0.0
 10
166.7079823874
 20
152.3780756723
 30
0.0
 10
166.5638578509
 20
152.3519495563
 30
0.0
 10
166.3722038835
 20
152.2641748076
 30
0.0
 10
166.2228511707
 20
152.139636846
 30
0.0
 10
166.1544936877
 20
152.035765624
 30
0.0
 10
166.1309024143
 20
151.9825
 30
0.0
  0
SPLINE
  5
30C
100
AcDbEntity
  8
0
100
AcDbSpline
 62
7
  6
CONTINUOUS
 70
0
 71
3
 72
8
 73
4
 74
0
 42
0.0000001
 43
0.0000001
 44
0.0000000001
 40
0.0
 40
0.0
 40
0.0
 40
0.0
 40
1.0
 40
1.0
 40
1.0
 40
1.0
 10
166.8375
 20
152.3897684004
 30
0.0
 10
166.8190308415
 20
152.3897684004
 30
0.0
 10
166.8004247571
 20
152.3872291636
 30
0.0
 10
166.7825713309
 20
152.3825
 30
0.0
  0
SPLINE
  5
30D
100
AcDbEntity
  8
BOHRUNGEN
100
AcDbSpline
 62
7
  6
CONTINUOUS
 70
0
 71
3
 72
10
 73
6
 74
0
 42
0.0000001
 43
0.0000001
 44
0.0000000001
 40
0.0
 40
0.0
 40
0.0
 40
0.0
 40
0.4995089506
 40
0.7497954098
 40
1.0
 40
1.0
 40
1.0
 40
1.0
 10
118.8034601744
 20
168.8895867827
 30
0.0
 10
118.864349246
 20
168.9477778712
 30
0.0
 10
118.9636206276
 20
169.0285011817
 30
0.0
 10
119.1154147605
 20
169.103611697
 30
0.0
 10
119.1980847877
 20
169.1247725051
 30
0.0
 10
119.2399569357
 20
169.1299243651
 30
0.0
  0
SPLINE
  5
30E
100
AcDbEntity
  8
0
100
AcDbSpline
 62
7
  6
CONTINUOUS
 70
0
 71
3
 72
11
 73
7
 74
0
 42
0.0000001
 43
0.0000001
 44
0.0000000001
 40
0.0
 40
0.0
 40
0.0
 40
0.0
 40
0.2800427059
 40
0.5424451045
 40
0.7816537686
 40
1.0
 40
1.0
 40
1.0
 40
1.0
 10
169.2174286691
 20
167.6175
 30
0.0
 10
169.2920153809
 20
167.6219241954
 30
0.0
 10
169.4361386041
 20
167.6480497819
 30
0.0
 10
169.6277927451
 20
167.7358228936
 30
0.0
 10
169.7771477697
 20
167.8603616753
 30
0.0
 10
169.8455060922
 20
167.964233879
 30
0.0
 10
169.8690975857
 20
168.0175
 30
0.0
  0
SPLINE
  5
30F
100
AcDbEntity
  8
0
100
AcDbSpline
 62
7
  6
CONTINUOUS
 70
0
 71
3
 72
8
 73
4
 74
0
 42
0.0000001
 43
0.0000001
 44
0.0000000001
 40
0.0
 40
0.0
 40
0.0
 40
0.0
 40
1.0
 40
1.0
 40
1.0
 40
1.0
 10
169.1625
 20
167.6102315996
 30
0.0
 10
169.1809691585
 20
167.6102315996
 30
0.0
 10
169.1995752429
 20
167.6127708364
 30
0.0
 10
169.2174286691
 20
167.6175
 30
0.0
  0
SPLINE
  5
310
100
AcDbEntity
  8
0
100
AcDbSpline
 62
7
  6
CONTINUOUS
 70
0
 71
3
 72
8
 73
4
 74
0
 42
0.0000001
 43
0.0000001
 44
0.0000000001
 40
0.0
 40
0.0
 40
0.0
 40
0.0
 40
1.0
 40
1.0
 40
1.0
 40
1.0
 10
169.2174286691
 20
152.3825
 30
0.0
 10
169.1995752429
 20
152.3872291636
 30
0.0
 10
169.1809691585
 20
152.3897684004
 30
0.0
 10
169.1625
 20
152.3897684004
 30
0.0
  0
SPLINE
  5
311
100
AcDbEntity
  8
0
100
AcDbSpline
 62
7
  6
CONTINUOUS
 70
0
 71
3
 72
11
 73
7
 74
0
 42
0.0000001
 43
0.0000001
 44
0.0000000001
 40
0.0
 40
0.0
 40
0.0
 40
0.0
 40
0.2183462314
 40
0.4575548955
 40
0.7199572941
 40
1.0
 40
1.0
 40
1.0
 40
1.0
 10
169.8690975857
 20
151.9825
 30
0.0
 10
169.8455060922
 20
152.035766121
 30
0.0
 10
169.7771477697
 20
152.1396383247
 30
0.0
 10
169.6277927451
 20
152.2641771064
 30
0.0
 10
169.4361386041
 20
152.3519502181
 30
0.0
 10
169.2920153809
 20
152.3780758046
 30
0.0
 10
169.2174286691
 20
152.3825
 30
0.0
  0
SPLINE
  5
312
100
AcDbEntity
  8
0
100
AcDbSpline
 62
7
  6
CONTINUOUS
 70
0
 71
3
 72
11
 73
7
 74
0
 42
0.0000001
 43
0.0000001
 44
0.0000000001
 40
0.0
 40
0.0
 40
0.0
 40
0.0
 40
0.2500000145
 40
0.5000000001
 40
0.7499999858
 40
1.0
 40
1.0
 40
1.0
 40
1.0
 10
175.95
 20
162.3
 30
0.0
 10
175.95
 20
161.9166657211
 30
0.0
 10
175.9531201268
 20
161.1500015214
 30
0.0
 10
175.9559555497
 20
159.9999999993
 30
0.0
 10
175.9531201774
 20
158.8499984776
 30
0.0
 10
175.95
 20
158.0833342783
 30
0.0
 10
175.95
 20
157.7
 30
0.0
  0
LINE
  5
313
100
AcDbEntity
  8
BOHRUNGEN
100
AcDbLine
 62
7
  6
CONTINUOUS
 10
119.4019913293
 20
150.85
 11
119.2399569357
 21
150.8700756349
  0
SPLINE
  5
314
100
AcDbEntity
  8
BOHRUNGEN
100
AcDbSpline
 62
7
  6
CONTINUOUS
 70
0
 71
3
 72
23
 73
19
 74
0
 42
0.0000001
 43
0.0000001
 44
0.0000000001
 40
0.0
 40
0.0
 40
0.0
 40
0.0
 40
0.0626617366
 40
0.1252864813
 40
0.1878708074
 40
0.2504353617
 40
0.3130242922
 40
0.3756625642
 40
0.4383308019
 40
0.5009649291
 40
0.5634864447
 40
0.6258484292
 40
0.6880693061
 40
0.7502315684
 40
0.81244948
 40
0.8748163682
 40
0.9373508008
 40
1.0
 40
1.0
 40
1.0
 40
1.0
 10
136.6507515477
 20
160.0
 30
0.0
 10
136.6505373482
 20
160.2847300782
 30
0.0
 10
136.7072883137
 20
160.8556050713
 30
0.0
 10
136.9574578887
 20
161.6772863123
 30
0.0
 10
137.3639399375
 20
162.4338877479
 30
0.0
 10
137.9108391166
 20
163.095774847
 30
0.0
 10
138.5769429944
 20
163.6379229382
 30
0.0
 10
139.3365190812
 20
164.0396767278
 30
0.0
 10
140.1598977083
 20
164.2860287017
 30
0.0
 10
141.0148631819
 20
164.3679692116
 30
0.0
 10
141.868118201
 20
164.2828907634
 30
0.0
 10
142.6868653011
 20
164.0344225649
 30
0.0
 10
143.4402186183
 20
163.6321682413
 30
0.0
 10
144.0999868426
 20
163.0909091148
 30
0.0
 10
144.6418192668
 20
162.4307562599
 30
0.0
 10
145.0447482867
 20
161.6757055911
 30
0.0
 10
145.2931523155
 20
160.8550680686
 30
0.0
 10
145.3493827326
 20
160.2846731584
 30
0.0
 10
145.3492484523
 20
160.0
 30
0.0
  0
SPLINE
  5
315
100
AcDbEntity
  8
BOHRUNGEN
100
AcDbSpline
 62
7
  6
CONTINUOUS
 70
0
 71
3
 72
15
 73
11
 74
0
 42
0.0000001
 43
0.0000001
 44
0.0000000001
 40
0.0
 40
0.0
 40
0.0
 40
0.0
 40
0.1502897484
 40
0.289015622
 40
0.4139457887
 40
0.5251622843
 40
0.6288886288
 40
0.7375530236
 40
0.8607162671
 40
1.0
 40
1.0
 40
1.0
 40
1.0
 10
118.8034601744
 20
151.1104132173
 30
0.0
 10
118.761058086
 20
151.0831862075
 30
0.0
 10
118.6770197436
 20
151.0345052917
 30
0.0
 10
118.5485468158
 20
150.9806253208
 30
0.0
 10
118.4247778762
 20
150.953732933
 30
0.0
 10
118.3087137219
 20
150.9611213939
 30
0.0
 10
118.2092117403
 20
151.0132373693
 30
0.0
 10
118.1415030532
 20
151.1071405199
 30
0.0
 10
118.106092538
 20
151.2279211483
 30
0.0
 10
118.1
 20
151.3162110348
 30
0.0
 10
118.1
 20
151.3629117496
 30
0.0
  0
ELLIPSE
  5
316
100
AcDbEntity
  8
BOHRUNGEN
100
AcDbEllipse
 62
7
  6
CONTINUOUS
 10
116.37
 20
169.15
 30
0.0
 11
2.5832280827
 21
-2.5832280827
 31
0.0
 40
0.4929164522
 41
0.4579647298
 42
1.0222866714
  0
ELLIPSE
  5
317
100
AcDbEntity
  8
BOHRUNGEN
100
AcDbEllipse
 62
7
  6
CONTINUOUS
 10
116.37
 20
150.85
 30
0.0
 11
2.5832280827
 21
2.5832280827
 31
0.0
 40
0.4929164522
 41
-1.0222866714
 42
-0.4579647298
  0
ENDSEC
  0
SECTION
  2
OBJECTS
  0
DICTIONARY
  5
C
100
AcDbDictionary
280
0
281
1
  3
ACAD_GROUP
350
D
  3
ACAD_MLINESTYLE
350
17
  3
ACAD_LAYOUT
350
1A
  3
ACAD_PLOTSETTINGS
350
19
  3
ACAD_PLOTSTYLENAME
350
E
  0
DICTIONARY
  5
D
102
{ACAD_REACTORS
330
C
102
}
100
AcDbDictionary
280
0
281
1
  0
ACDBDICTIONARYWDFLT
  5
E
102
{ACAD_REACTORS
330
C
102
}
100
AcDbDictionary
281
1
  3
Normal
350
F
100
AcDbDictionaryWithDefault
340
F
  0
DICTIONARY
  5
17
102
{ACAD_REACTORS
330
C
102
}
100
AcDbDictionary
280
0
281
1
  3
Standard
350
18
  0
DICTIONARY
  5
19
102
{ACAD_REACTORS
330
C
102
}
100
AcDbDictionary
281
1
  0
DICTIONARY
  5
1A
102
{ACAD_REACTORS
330
C
102
}
100
AcDbDictionary
281
1
  3
Model
350
318
  3
Layout1
350
319
  0
ACDBPLACEHOLDER
  5
F
102
{ACAD_REACTORS
330
E
102
}
  0
MLINESTYLE
  5
18
102
{ACAD_REACTORS
330
17
102
}
100
AcDbMlineStyle
  2
STANDARD
 70
0
  3

 62
256
 51
90.0
 52
90.0
 71
2
 49
0.5
 62
256
  6
BYLAYER
 49
-0.5
 62
256
  6
BYLAYER
  0
LAYOUT
  5
318
102
{ACAD_REACTORS
330
1A
102
}
100
AcDbPlotSettings
  1

  2
none_device
  4
ISO_A3_(420.00_x_297.00_MM)
  6

 40
0.0
 41
0.0
 42
0.0
 43
0.0
 44
420.0
 45
297.0
 46
0.0
 47
0.0
 48
0.0
 49
0.0
140
0.0
141
0.0
142
1.0
143
1.0
 70
1024
 72
1
 73
0
 74
0
  7

 75
0
147
1.0
148
0.0
149
0.0
100
AcDbLayout
  1
Model
 70
0
 71
0
 10
0.0
 20
0.0
 11
420.0
 21
297.0
 12
0.0
 22
0.0
 32
0.0
 14
0.0
 24
0.0
 34
0.0
 15
0.0
 25
0.0
 35
0.0
146
0.0
 13
0.0
 23
0.0
 33
0.0
 16
1.0
 26
0.0
 36
0.0
 17
0.0
 27
1.0
 37
0.0
 76
0
330
235
345
0
346
0
  0
LAYOUT
  5
319
102
{ACAD_REACTORS
330
1A
102
}
100
AcDbPlotSettings
  1

  2
none_device
  4
ISO_A3_(420.00_x_297.00_MM)
  6

 40
0.0
 41
0.0
 42
0.0
 43
0.0
 44
420.0
 45
297.0
 46
0.0
 47
0.0
 48
0.0
 49
0.0
140
0.0
141
0.0
142
1.0
143
1.0
 70
0
 72
1
 73
0
 74
0
  7

 75
0
147
1.0
148
0.0
149
0.0
100
AcDbLayout
  1
Layout1
 70
0
 71
1
 10
0.0
 20
0.0
 11
420.0
 21
297.0
 12
0.0
 22
0.0
 32
0.0
 14
0.0
 24
0.0
 34
0.0
 15
0.0
 25
0.0
 35
0.0
146
0.0
 13
0.0
 23
0.0
 33
0.0
 16
1.0
 26
0.0
 36
0.0
 17
0.0
 27
1.0
 37
0.0
 76
0
330
236
345
0
346
0
  0
ENDSEC
  0
EOF
