  0
SECTION
  2
HEADER
  9
$ACADVER
  1
AC1015
  9
$ACADMAINTVER
 70
     6
  9
$DWGCODEPAGE
  3
ANSI_1252
  9
$INSBASE
 10
0.0
 20
0.0
 30
0.0
  9
$EXTMIN
 10
69.5622506299745
 20
225.2889831606638
 30
0.0
  9
$EXTMAX
 10
224.109066970086
 20
334.05837007797
 30
0.0
  9
$LIMMIN
 10
0.0
 20
0.0
  9
$LIMMAX
 10
12.0
 20
9.0
  9
$ORTHOMODE
 70
     0
  9
$REGENMODE
 70
     1
  9
$FILLMODE
 70
     1
  9
$QTEXTMODE
 70
     0
  9
$MIRRTEXT
 70
     1
  9
$LTSCALE
 40
1.0
  9
$ATTMODE
 70
     1
  9
$TEXTSIZE
 40
0.2
  9
$TRACEWID
 40
0.05
  9
$TEXTSTYLE
  7
Standard
  9
$CLAYER
  8
0
  9
$CELTYPE
  6
ByLayer
  9
$CECOLOR
 62
   256
  9
$CELTSCALE
 40
1.0
  9
$DISPSILH
 70
     0
  9
$DIMSCALE
 40
1.0
  9
$DIMASZ
 40
0.18
  9
$DIMEXO
 40
0.0625
  9
$DIMDLI
 40
0.38
  9
$DIMRND
 40
0.0
  9
$DIMDLE
 40
0.0
  9
$DIMEXE
 40
0.18
  9
$DIMTP
 40
0.0
  9
$DIMTM
 40
0.0
  9
$DIMTXT
 40
0.18
  9
$DIMCEN
 40
0.09
  9
$DIMTSZ
 40
0.0
  9
$DIMTOL
 70
     0
  9
$DIMLIM
 70
     0
  9
$DIMTIH
 70
     1
  9
$DIMTOH
 70
     1
  9
$DIMSE1
 70
     0
  9
$DIMSE2
 70
     0
  9
$DIMTAD
 70
     0
  9
$DIMZIN
 70
     0
  9
$DIMBLK
  1

  9
$DIMASO
 70
     1
  9
$DIMSHO
 70
     1
  9
$DIMPOST
  1

  9
$DIMAPOST
  1

  9
$DIMALT
 70
     0
  9
$DIMALTD
 70
     2
  9
$DIMALTF
 40
25.4
  9
$DIMLFAC
 40
1.0
  9
$DIMTOFL
 70
     0
  9
$DIMTVP
 40
0.0
  9
$DIMTIX
 70
     0
  9
$DIMSOXD
 70
     0
  9
$DIMSAH
 70
     0
  9
$DIMBLK1
  1

  9
$DIMBLK2
  1

  9
$DIMSTYLE
  2
Standard
  9
$DIMCLRD
 70
     0
  9
$DIMCLRE
 70
     0
  9
$DIMCLRT
 70
     0
  9
$DIMTFAC
 40
1.0
  9
$DIMGAP
 40
0.09
  9
$DIMJUST
 70
     0
  9
$DIMSD1
 70
     0
  9
$DIMSD2
 70
     0
  9
$DIMTOLJ
 70
     1
  9
$DIMTZIN
 70
     0
  9
$DIMALTZ
 70
     0
  9
$DIMALTTZ
 70
     0
  9
$DIMUPT
 70
     0
  9
$DIMDEC
 70
     4
  9
$DIMTDEC
 70
     4
  9
$DIMALTU
 70
     2
  9
$DIMALTTD
 70
     2
  9
$DIMTXSTY
  7
Standard
  9
$DIMAUNIT
 70
     0
  9
$DIMADEC
 70
     0
  9
$DIMALTRND
 40
0.0
  9
$DIMAZIN
 70
     0
  9
$DIMDSEP
 70
    46
  9
$DIMATFIT
 70
     3
  9
$DIMFRAC
 70
     0
  9
$DIMLDRBLK
  1

  9
$DIMLUNIT
 70
     2
  9
$DIMLWD
 70
    -2
  9
$DIMLWE
 70
    -2
  9
$DIMTMOVE
 70
     0
  9
$LUNITS
 70
     2
  9
$LUPREC
 70
     4
  9
$SKETCHINC
 40
0.1
  9
$FILLETRAD
 40
0.5
  9
$AUNITS
 70
     0
  9
$AUPREC
 70
     0
  9
$MENU
  1
.
  9
$ELEVATION
 40
0.0
  9
$PELEVATION
 40
0.0
  9
$THICKNESS
 40
0.0
  9
$LIMCHECK
 70
     0
  9
$CHAMFERA
 40
0.5
  9
$CHAMFERB
 40
0.5
  9
$CHAMFERC
 40
1.0
  9
$CHAMFERD
 40
0.0
  9
$SKPOLY
 70
     0
  9
$TDCREATE
 40
2456749.749098496
  9
$TDUCREATE
 40
2456749.665765162
  9
$TDUPDATE
 40
2456749.749098507
  9
$TDUUPDATE
 40
2456749.665765174
  9
$TDINDWG
 40
0.0000000116
  9
$TDUSRTIMER
 40
0.0000000116
  9
$USRTIMER
 70
     1
  9
$ANGBASE
 50
0.0
  9
$ANGDIR
 70
     0
  9
$PDMODE
 70
     0
  9
$PDSIZE
 40
0.0
  9
$PLINEWID
 40
0.0
  9
$SPLFRAME
 70
     0
  9
$SPLINETYPE
 70
     6
  9
$SPLINESEGS
 70
     8
  9
$HANDSEED
  5
15B
  9
$SURFTAB1
 70
     6
  9
$SURFTAB2
 70
     6
  9
$SURFTYPE
 70
     6
  9
$SURFU
 70
     6
  9
$SURFV
 70
     6
  9
$UCSBASE
  2

  9
$UCSNAME
  2

  9
$UCSORG
 10
0.0
 20
0.0
 30
0.0
  9
$UCSXDIR
 10
1.0
 20
0.0
 30
0.0
  9
$UCSYDIR
 10
0.0
 20
1.0
 30
0.0
  9
$UCSORTHOREF
  2

  9
$UCSORTHOVIEW
 70
     0
  9
$UCSORGTOP
 10
0.0
 20
0.0
 30
0.0
  9
$UCSORGBOTTOM
 10
0.0
 20
0.0
 30
0.0
  9
$UCSORGLEFT
 10
0.0
 20
0.0
 30
0.0
  9
$UCSORGRIGHT
 10
0.0
 20
0.0
 30
0.0
  9
$UCSORGFRONT
 10
0.0
 20
0.0
 30
0.0
  9
$UCSORGBACK
 10
0.0
 20
0.0
 30
0.0
  9
$PUCSBASE
  2

  9
$PUCSNAME
  2

  9
$PUCSORG
 10
0.0
 20
0.0
 30
0.0
  9
$PUCSXDIR
 10
1.0
 20
0.0
 30
0.0
  9
$PUCSYDIR
 10
0.0
 20
1.0
 30
0.0
  9
$PUCSORTHOREF
  2

  9
$PUCSORTHOVIEW
 70
     0
  9
$PUCSORGTOP
 10
0.0
 20
0.0
 30
0.0
  9
$PUCSORGBOTTOM
 10
0.0
 20
0.0
 30
0.0
  9
$PUCSORGLEFT
 10
0.0
 20
0.0
 30
0.0
  9
$PUCSORGRIGHT
 10
0.0
 20
0.0
 30
0.0
  9
$PUCSORGFRONT
 10
0.0
 20
0.0
 30
0.0
  9
$PUCSORGBACK
 10
0.0
 20
0.0
 30
0.0
  9
$USERI1
 70
     0
  9
$USERI2
 70
     0
  9
$USERI3
 70
     0
  9
$USERI4
 70
     0
  9
$USERI5
 70
     0
  9
$USERR1
 40
16.5
  9
$USERR2
 40
0.0
  9
$USERR3
 40
0.0
  9
$USERR4
 40
0.0
  9
$USERR5
 40
0.0
  9
$WORLDVIEW
 70
     1
  9
$SHADEDGE
 70
     3
  9
$SHADEDIF
 70
    70
  9
$TILEMODE
 70
     1
  9
$MAXACTVP
 70
    64
  9
$PINSBASE
 10
0.0
 20
0.0
 30
0.0
  9
$PLIMCHECK
 70
     0
  9
$PEXTMIN
 10
1.00000000000000E+20
 20
1.00000000000000E+20
 30
1.00000000000000E+20
  9
$PEXTMAX
 10
-1.00000000000000E+20
 20
-1.00000000000000E+20
 30
-1.00000000000000E+20
  9
$PLIMMIN
 10
0.0
 20
0.0
  9
$PLIMMAX
 10
12.0
 20
9.0
  9
$UNITMODE
 70
     0
  9
$VISRETAIN
 70
     1
  9
$PLINEGEN
 70
     0
  9
$PSLTSCALE
 70
     1
  9
$TREEDEPTH
 70
  3020
  9
$CMLSTYLE
  2
Standard
  9
$CMLJUST
 70
     0
  9
$CMLSCALE
 40
1.0
  9
$PROXYGRAPHICS
 70
     1
  9
$MEASUREMENT
 70
     1
  9
$CELWEIGHT
370
    -1
  9
$ENDCAPS
280
     0
  9
$JOINSTYLE
280
     0
  9
$LWDISPLAY
290
     0
  9
$INSUNITS
 70
     1
  9
$HYPERLINKBASE
  1

  9
$STYLESHEET
  1

  9
$XEDIT
290
     1
  9
$CEPSNTYPE
380
     0
  9
$PSTYLEMODE
290
     1
  9
$FINGERPRINTGUID
  2
{59231E50-2520-4D3E-A581-5C3FFB3C6E47}
  9
$VERSIONGUID
  2
{FAEB1C32-E019-11D5-929B-00C0DF256EC4}
  9
$EXTNAMES
290
     1
  9
$PSVPSCALE
 40
0.0
  9
$OLESTARTUP
290
     0
  0
ENDSEC
  0
SECTION
  2
CLASSES
  0
CLASS
  1
ACDBDICTIONARYWDFLT
  2
AcDbDictionaryWithDefault
  3
ObjectDBX Classes
 90
        0
280
     0
281
     0
  0
CLASS
  1
VISUALSTYLE
  2
AcDbVisualStyle
  3
ObjectDBX Classes
 90
     4095
280
     0
281
     0
  0
CLASS
  1
SCALE
  2
AcDbScale
  3
ObjectDBX Classes
 90
     1153
280
     0
281
     0
  0
CLASS
  1

  2
exOdDbPolyline
  3

 90
        0
280
     0
281
     1
  0
CLASS
  1

  2
exOdDbCircle
  3

 90
        0
280
     0
281
     1
  0
CLASS
  1

  2
exOdDbSpline
  3

 90
        0
280
     0
281
     1
  0
CLASS
  1
DICTIONARYVAR
  2
AcDbDictionaryVar
  3
ObjectDBX Classes
 90
        0
280
     0
281
     0
  0
CLASS
  1
ACDBPLACEHOLDER
  2
AcDbPlaceHolder
  3
ObjectDBX Classes
 90
        0
280
     0
281
     0
  0
CLASS
  1
LAYOUT
  2
AcDbLayout
  3
ObjectDBX Classes
 90
        0
280
     0
281
     0
  0
ENDSEC
  0
SECTION
  2
TABLES
  0
TABLE
  2
VPORT
  5
8
330
0
100
AcDbSymbolTable
 70
     1
  0
VPORT
  5
29
330
8
100
AcDbSymbolTableRecord
100
AcDbViewportTableRecord
  2
*Active
 70
     0
 10
0.0
 20
0.0
 11
1.0
 21
1.0
 12
146.8356588000302
 22
279.6736766193169
 13
0.0
 23
0.0
 14
0.5
 24
0.5
 15
0.5
 25
0.5
 16
0.0
 26
0.0
 36
1.0
 17
0.0
 27
0.0
 37
0.0
 40
119.6463256090368
 41
1.60267857142857
 42
50.0
 43
0.0
 44
0.0
 50
0.0
 51
0.0
 71
     0
 72
   100
 73
     1
 74
     3
 75
     0
 76
     0
 77
     0
 78
     0
281
     0
 65
     1
110
0.0
120
0.0
130
0.0
111
1.0
121
0.0
131
0.0
112
0.0
122
1.0
132
0.0
 79
     0
146
0.0
  0
ENDTAB
  0
TABLE
  2
LTYPE
  5
5
330
0
100
AcDbSymbolTable
 70
     8
  0
LTYPE
  5
14
330
5
100
AcDbSymbolTableRecord
100
AcDbLinetypeTableRecord
  2
ByBlock
 70
     0
  3

 72
    65
 73
     0
 40
0.0
  0
LTYPE
  5
15
330
5
100
AcDbSymbolTableRecord
100
AcDbLinetypeTableRecord
  2
ByLayer
 70
     0
  3

 72
    65
 73
     0
 40
0.0
  0
LTYPE
  5
16
330
5
100
AcDbSymbolTableRecord
100
AcDbLinetypeTableRecord
  2
Continuous
 70
     0
  3
Solid line
 72
    65
 73
     0
 40
0.0
  0
LTYPE
  5
3B
330
5
100
AcDbSymbolTableRecord
100
AcDbLinetypeTableRecord
  2
DASHED
 70
     0
  3
Dashed
 72
    65
 73
     2
 40
15.0
 49
7.0
 74
     0
 49
-8.0
 74
     0
  0
LTYPE
  5
3C
330
5
100
AcDbSymbolTableRecord
100
AcDbLinetypeTableRecord
  2
DOTTED
 70
     0
  3
Dotted
 72
    65
 73
     2
 40
1.0
 49
0.0
 74
     0
 49
-1.0
 74
     0
  0
LTYPE
  5
3D
330
5
100
AcDbSymbolTableRecord
100
AcDbLinetypeTableRecord
  2
DOT_CENTER
 70
     0
  3
Dot_Center
 72
    65
 73
     4
 40
14.0
 49
12.0
 74
     0
 49
-1.0
 74
     0
 49
0.0
 74
     0
 49
-1.0
 74
     0
  0
LTYPE
  5
3E
330
5
100
AcDbSymbolTableRecord
100
AcDbLinetypeTableRecord
  2
LONG_DASHED
 70
     0
  3
Long_Dashed
 72
    65
 73
     2
 40
15.0
 49
10.0
 74
     0
 49
-5.0
 74
     0
  0
LTYPE
  5
3F
330
5
100
AcDbSymbolTableRecord
100
AcDbLinetypeTableRecord
  2
DASH_CENTER
 70
     0
  3
Dash_Center
 72
    65
 73
     4
 40
14.0
 49
11.0
 74
     0
 49
-1.0
 74
     0
 49
1.0
 74
     0
 49
-1.0
 74
     0
  0
LTYPE
  5
40
330
5
100
AcDbSymbolTableRecord
100
AcDbLinetypeTableRecord
  2
PHANTOM
 70
     0
  3
Phantom
 72
    65
 73
     6
 40
13.0
 49
10.0
 74
     0
 49
-1.0
 74
     0
 49
0.0
 74
     0
 49
-1.0
 74
     0
 49
0.0
 74
     0
 49
-1.0
 74
     0
  0
LTYPE
  5
41
330
5
100
AcDbSymbolTableRecord
100
AcDbLinetypeTableRecord
  2
CENTER_DASH_DASH
 70
     0
  3
Center_Dash_Dash
 72
    65
 73
     6
 40
14.0
 49
9.0
 74
     0
 49
-1.0
 74
     0
 49
1.0
 74
     0
 49
-1.0
 74
     0
 49
1.0
 74
     0
 49
-1.0
 74
     0
  0
ENDTAB
  0
TABLE
  2
LAYER
  5
2
330
0
100
AcDbSymbolTable
 70
     7
  0
LAYER
  5
10
330
2
100
AcDbSymbolTableRecord
100
AcDbLayerTableRecord
  2
0
 70
     0
 62
     7
  6
Continuous
370
    -3
390
F
  0
LAYER
  5
42
330
2
100
AcDbSymbolTableRecord
100
AcDbLayerTableRecord
  2
1
 70
     0
 62
     7
  6
Continuous
370
    -3
390
F
  0
LAYER
  5
43
330
2
100
AcDbSymbolTableRecord
100
AcDbLayerTableRecord
  2
BEZUGSACHSEN
 70
     0
 62
     7
  6
Continuous
370
    -3
390
F
  0
LAYER
  5
44
330
2
100
AcDbSymbolTableRecord
100
AcDbLayerTableRecord
  2
DEFAULT_2
 70
     0
 62
     7
  6
Continuous
370
    -3
390
F
  0
LAYER
  5
45
330
2
100
AcDbSymbolTableRecord
100
AcDbLayerTableRecord
  2
FASEN
 70
     0
 62
     7
  6
Continuous
370
    -3
390
F
  0
LAYER
  5
46
330
2
100
AcDbSymbolTableRecord
100
AcDbLayerTableRecord
  2
RUNDUNGEN
 70
     0
 62
     7
  6
Continuous
370
    -3
390
F
  0
LAYER
  5
47
330
2
100
AcDbSymbolTableRecord
100
AcDbLayerTableRecord
  2
TEIL_STARTBEZUEGE
 70
     0
 62
     7
  6
Continuous
370
    -3
390
F
  0
ENDTAB
  0
TABLE
  2
STYLE
  5
3
330
0
100
AcDbSymbolTable
 70
     2
  0
STYLE
  5
11
330
3
100
AcDbSymbolTableRecord
100
AcDbTextStyleTableRecord
  2
Standard
 70
     0
 40
0.0
 41
1.0
 50
0.0
 71
     0
 42
0.2
  3
txt
  4

  0
STYLE
  5
6E
330
3
100
AcDbSymbolTableRecord
100
AcDbTextStyleTableRecord
  2
CONVERTER_11
 70
     0
 40
0.0
 41
0.72
 50
0.0
 71
     0
 42
0.2
  3
txt.shx
  4

  0
ENDTAB
  0
TABLE
  2
VIEW
  5
6
330
0
100
AcDbSymbolTable
 70
     0
  0
ENDTAB
  0
TABLE
  2
UCS
  5
7
330
0
100
AcDbSymbolTable
 70
     0
  0
ENDTAB
  0
TABLE
  2
APPID
  5
9
330
0
100
AcDbSymbolTable
 70
     1
  0
APPID
  5
12
330
9
100
AcDbSymbolTableRecord
100
AcDbRegAppTableRecord
  2
ACAD
 70
     0
  0
ENDTAB
  0
TABLE
  2
DIMSTYLE
  5
A
330
0
100
AcDbSymbolTable
 70
     6
100
AcDbDimStyleTable
  0
DIMSTYLE
105
27
330
A
100
AcDbSymbolTableRecord
100
AcDbDimStyleTableRecord
  2
Standard
 70
     0
340
11
  0
DIMSTYLE
105
122
102
{ACAD_REACTORS
330
123
102
}
330
A
100
AcDbSymbolTableRecord
100
AcDbDimStyleTableRecord
  2
ME10_DIM_10
 70
     0
  3
<>
 41
3.5
 42
2.0
 44
2.0
 71
     1
 73
     0
 74
     0
 77
     1
 78
     8
140
3.5
146
0.7
147
2.0
172
     1
173
     1
176
     2
177
     2
178
     3
271
     0
272
     0
340
6E
  0
DIMSTYLE
105
12D
102
{ACAD_REACTORS
330
12E
102
}
330
A
100
AcDbSymbolTableRecord
100
AcDbDimStyleTableRecord
  2
ME10_DIM_11
 70
     0
  3
<>
 41
3.5
 42
2.0
 44
2.0
 71
     1
 73
     0
 74
     0
 77
     1
 78
     8
140
3.5
146
0.7
147
2.0
172
     1
173
     1
176
     2
177
     2
178
     3
271
     2
272
     0
340
6E
  0
DIMSTYLE
105
138
102
{ACAD_REACTORS
330
139
102
}
330
A
100
AcDbSymbolTableRecord
100
AcDbDimStyleTableRecord
  2
ME10_DIM_12
 70
     0
  3
<>
 41
3.5
 42
2.0
 44
2.0
 71
     1
 73
     0
 74
     0
 77
     1
 78
     8
140
3.5
146
0.7
147
2.0
172
     1
173
     1
176
     2
177
     2
178
     3
271
     0
272
     0
340
6E
  0
DIMSTYLE
105
143
102
{ACAD_REACTORS
330
144
102
}
330
A
100
AcDbSymbolTableRecord
100
AcDbDimStyleTableRecord
  2
ME10_DIM_13
 70
     0
  3
\U+2300<>
 41
3.5
 42
2.0
 44
2.0
 71
     1
 73
     0
 74
     0
 77
     1
 78
     8
140
3.5
146
0.7
147
2.0
172
     1
173
     1
176
     2
177
     2
178
     3
271
     2
272
     0
340
6E
  0
DIMSTYLE
105
14E
102
{ACAD_REACTORS
330
14F
102
}
330
A
100
AcDbSymbolTableRecord
100
AcDbDimStyleTableRecord
  2
ME10_DIM_14
 70
     0
  3
\U+2300<>
 41
3.5
 42
2.0
 44
2.0
 71
     1
 73
     0
 74
     0
 77
     1
 78
     8
140
3.5
146
0.7
147
2.0
172
     1
173
     1
176
     2
177
     2
178
     3
271
     2
272
     0
340
6E
  0
ENDTAB
  0
TABLE
  2
BLOCK_RECORD
  5
1
330
0
100
AcDbSymbolTable
 70
     8
  0
BLOCK_RECORD
  5
1F
330
1
100
AcDbSymbolTableRecord
100
AcDbBlockTableRecord
  2
*Model_Space
340
22
  0
BLOCK_RECORD
  5
1B
330
1
100
AcDbSymbolTableRecord
100
AcDbBlockTableRecord
  2
*Paper_Space
340
1E
  0
BLOCK_RECORD
  5
23
330
1
100
AcDbSymbolTableRecord
100
AcDbBlockTableRecord
  2
*Paper_Space0
340
26
  0
BLOCK_RECORD
  5
48
330
1
100
AcDbSymbolTableRecord
100
AcDbBlockTableRecord
  2
Urheberrecht_DE-EN
340
0
102
{BLKREFS
331
6D
102
}
  0
BLOCK_RECORD
  5
119
330
1
100
AcDbSymbolTableRecord
100
AcDbBlockTableRecord
  2
*D2
340
0
  0
BLOCK_RECORD
  5
124
330
1
100
AcDbSymbolTableRecord
100
AcDbBlockTableRecord
  2
*D3
340
0
  0
BLOCK_RECORD
  5
12F
330
1
100
AcDbSymbolTableRecord
100
AcDbBlockTableRecord
  2
*D4
340
0
  0
BLOCK_RECORD
  5
13A
330
1
100
AcDbSymbolTableRecord
100
AcDbBlockTableRecord
  2
*D5
340
0
  0
BLOCK_RECORD
  5
145
330
1
100
AcDbSymbolTableRecord
100
AcDbBlockTableRecord
  2
*D6
340
0
  0
BLOCK_RECORD
  5
150
330
1
100
AcDbSymbolTableRecord
100
AcDbBlockTableRecord
  2
*D7
340
0
102
{BLKREFS
331
156
102
}
  0
ENDTAB
  0
ENDSEC
  0
SECTION
  2
BLOCKS
  0
BLOCK
  5
20
330
1F
100
AcDbEntity
  8
0
100
AcDbBlockBegin
  2
*Model_Space
 70
     0
 10
0.0
 20
0.0
 30
0.0
  3
*Model_Space
  1

  0
ENDBLK
  5
21
330
1F
100
AcDbEntity
  8
0
100
AcDbBlockEnd
  0
BLOCK
  5
1C
330
1B
100
AcDbEntity
 67
     1
  8
0
100
AcDbBlockBegin
  2
*Paper_Space
 70
     0
 10
0.0
 20
0.0
 30
0.0
  3
*Paper_Space
  1

  0
ENDBLK
  5
1D
330
1B
100
AcDbEntity
 67
     1
  8
0
100
AcDbBlockEnd
  0
BLOCK
  5
24
330
23
100
AcDbEntity
  8
0
100
AcDbBlockBegin
  2
*Paper_Space0
 70
     0
 10
0.0
 20
0.0
 30
0.0
  3
*Paper_Space0
  1

  0
ENDBLK
  5
25
330
23
100
AcDbEntity
  8
0
100
AcDbBlockEnd
  0
BLOCK
  5
49
330
48
100
AcDbEntity
  8
0
100
AcDbBlockBegin
  2
Urheberrecht_DE-EN
 70
     0
 10
83.5622506299745
 20
281.57837007797
 30
0.0
  3
Urheberrecht_DE-EN
  1

  0
MTEXT
  5
6F
330
48
100
AcDbEntity
  8
1
 62
     1
100
AcDbMText
 10
83.5622506299745
 20
225.2889831606638
 30
0.0
 40
2.0
 41
0.0
 71
     7
 72
     1
  1
F\U+00fcr diese Unterlage behalten wir das Ur-\Pheberrecht. Sie darf nur f\U+00fcr den von uns \Pbestimmten Zweck benutzt und ohne unsere \PZustimmung weder vervielf\U+00e4ltigt noch\PDritten zug\U+00e4nglich gemacht werden.
  7
CONVERTER_11
 11
0.0
 21
1.0
 31
0.0
 73
     1
 44
0.90036014405762
  0
MTEXT
  5
70
330
48
100
AcDbEntity
  8
1
 62
     1
100
AcDbMText
 10
83.5622506299745
 20
281.57837007797
 30
0.0
 40
2.0
 41
0.0
 71
     7
 72
     1
  1
We own the copyright of this document. It \Pdetermined and may neither be copied or \Pmade accessible to outsiders without our\Ppermission.
  7
CONVERTER_11
 11
0.0
 21
1.0
 31
0.0
 73
     1
 44
0.90036014405762
  0
ENDBLK
  5
4A
330
48
100
AcDbEntity
  8
0
100
AcDbBlockEnd
  0
BLOCK
  5
120
330
119
100
AcDbEntity
  8
0
100
AcDbBlockBegin
  2
*D2
 70
     1
 10
0.0
 20
0.0
 30
0.0
  3
*D2
  1

  0
LINE
  5
11A
330
119
100
AcDbEntity
  8
1
  6
Continuous
 62
     2
100
AcDbLine
 10
95.89646425750001
 20
321.649595853821
 30
0.0
 11
200.7964642575
 21
321.649595853821
 31
0.0
  0
LINE
  5
11B
330
119
100
AcDbEntity
  8
1
  6
Continuous
 62
     2
100
AcDbLine
 10
200.7964642575
 20
285.1473565388
 30
0.0
 11
200.7964642575
 21
323.649595853821
 31
0.0
  0
LINE
  5
11C
330
119
100
AcDbEntity
  8
1
  6
Continuous
 62
     2
100
AcDbLine
 10
95.89646425750001
 20
287.8407825808
 30
0.0
 11
95.89646425750001
 21
323.649595853821
 31
0.0
  0
SOLID
  5
11D
330
119
100
AcDbEntity
  8
1
 62
     2
100
AcDbTrace
 10
99.39646425750001
 20
322.1103795953769
 30
0.0
 11
99.39646425750001
 21
321.1888121122651
 31
0.0
 12
95.89646425750001
 22
321.649595853821
 32
0.0
 13
95.89646425750001
 23
321.649595853821
 33
0.0
  0
SOLID
  5
11E
330
119
100
AcDbEntity
  8
1
 62
     2
100
AcDbTrace
 10
197.2964642575
 20
321.1888121122651
 30
0.0
 11
197.2964642575
 21
322.1103795953769
 31
0.0
 12
200.7964642575
 22
321.649595853821
 32
0.0
 13
200.7964642575
 23
321.649595853821
 33
0.0
  0
MTEXT
  5
11F
330
119
100
AcDbEntity
  8
1
 62
     3
100
AcDbMText
 10
147.983574925006
 20
323.649595853821
 30
0.0
 40
3.5
 41
0.0
 71
     7
 72
     1
  1
\C3;\C3;\C3;105\C2;\H2.45;\S^ ;\C3;
  7
CONVERTER_11
 11
0.9999999999970619
 21
2.424068405545306E-6
 31
0.0
 73
     1
 44
0.60024009603842
  0
ENDBLK
  5
121
330
119
100
AcDbEntity
  8
0
100
AcDbBlockEnd
  0
BLOCK
  5
12B
330
124
100
AcDbEntity
  8
0
100
AcDbBlockBegin
  2
*D3
 70
     1
 10
0.0
 20
0.0
 30
0.0
  3
*D3
  1

  0
LINE
  5
125
330
124
100
AcDbEntity
  8
1
  6
Continuous
 62
     2
100
AcDbLine
 10
120.7964642575
 20
313.47376360387
 30
0.0
 11
200.7964642575
 21
313.47376360387
 31
0.0
  0
LINE
  5
126
330
124
100
AcDbEntity
  8
1
  6
Continuous
 62
     2
100
AcDbLine
 10
200.7964642575
 20
285.1473565388
 30
0.0
 11
200.7964642575
 21
315.47376360387
 31
0.0
  0
LINE
  5
127
330
124
100
AcDbEntity
  8
1
  6
Continuous
 62
     2
100
AcDbLine
 10
120.7964642575
 20
295.7844267996
 30
0.0
 11
120.7964642575
 21
315.47376360387
 31
0.0
  0
SOLID
  5
128
330
124
100
AcDbEntity
  8
1
 62
     2
100
AcDbTrace
 10
124.2964642575
 20
313.9345473454259
 30
0.0
 11
124.2964642575
 21
313.0129798623141
 31
0.0
 12
120.7964642575
 22
313.47376360387
 32
0.0
 13
120.7964642575
 23
313.47376360387
 33
0.0
  0
SOLID
  5
129
330
124
100
AcDbEntity
  8
1
 62
     2
100
AcDbTrace
 10
197.2964642575
 20
313.0129798623141
 30
0.0
 11
197.2964642575
 21
313.9345473454259
 31
0.0
 12
200.7964642575
 22
313.47376360387
 32
0.0
 13
200.7964642575
 23
313.47376360387
 33
0.0
  0
MTEXT
  5
12A
330
124
100
AcDbEntity
  8
1
 62
     3
100
AcDbMText
 10
156.999407174957
 20
315.47376360387
 30
0.0
 40
3.5
 41
0.0
 71
     7
 72
     1
  1
\C3;\C3;\C3;80\C2;\H2.45;\S^ ;\C3;
  7
CONVERTER_11
 11
0.9999999999970619
 21
2.424068405545306E-6
 31
0.0
 73
     1
 44
0.60024009603842
  0
ENDBLK
  5
12C
330
124
100
AcDbEntity
  8
0
100
AcDbBlockEnd
  0
BLOCK
  5
136
330
12F
100
AcDbEntity
  8
0
100
AcDbBlockBegin
  2
*D4
 70
     1
 10
0.0
 20
0.0
 30
0.0
  3
*D4
  1

  0
LINE
  5
130
330
12F
100
AcDbEntity
  8
1
  6
Continuous
 62
     2
100
AcDbLine
 10
200.7964642575
 20
304.699699725874
 30
0.0
 11
146.7464642575
 21
304.699699725874
 31
0.0
  0
LINE
  5
131
330
12F
100
AcDbEntity
  8
1
  6
Continuous
 62
     2
100
AcDbLine
 10
146.7464642575
 20
295.7843767811
 30
0.0
 11
146.7464642575
 21
306.699699725874
 31
0.0
  0
LINE
  5
132
330
12F
100
AcDbEntity
  8
1
  6
Continuous
 62
     2
100
AcDbLine
 10
200.7964642575
 20
285.1473565388
 30
0.0
 11
200.7964642575
 21
306.699699725874
 31
0.0
  0
SOLID
  5
133
330
12F
100
AcDbEntity
  8
1
 62
     2
100
AcDbTrace
 10
197.2964642575
 20
304.2389159843181
 30
0.0
 11
197.2964642575
 21
305.1604834674299
 31
0.0
 12
200.7964642575
 22
304.699699725874
 32
0.0
 13
200.7964642575
 23
304.699699725874
 33
0.0
  0
SOLID
  5
134
330
12F
100
AcDbEntity
  8
1
 62
     2
100
AcDbTrace
 10
150.2464642575
 20
305.1604834674299
 30
0.0
 11
150.2464642575
 21
304.2389159843181
 31
0.0
 12
146.7464642575
 22
304.699699725874
 32
0.0
 13
146.7464642575
 23
304.699699725874
 33
0.0
  0
MTEXT
  5
135
330
12F
100
AcDbEntity
  8
1
 62
     3
100
AcDbMText
 10
170.06079772061
 20
306.699699725874
 30
0.0
 40
3.5
 41
0.0
 71
     7
 72
     1
  1
\C3;\C3;\C3;54\C2;\H2.45;\S^ ;\C3;
  7
CONVERTER_11
 11
0.9999999999970619
 21
2.424068405545306E-6
 31
0.0
 73
     1
 44
0.60024009603842
  0
ENDBLK
  5
137
330
12F
100
AcDbEntity
  8
0
100
AcDbBlockEnd
  0
BLOCK
  5
141
330
13A
100
AcDbEntity
  8
0
100
AcDbBlockBegin
  2
*D5
 70
     1
 10
0.0
 20
0.0
 30
0.0
  3
*D5
  1

  0
LINE
  5
13B
330
13A
100
AcDbEntity
  8
1
  6
Continuous
 62
     2
100
AcDbLine
 10
212.031672446058
 20
274.7844267996
 30
0.0
 11
212.031672446058
 21
262.7844267996
 31
0.0
  0
LINE
  5
13C
330
13A
100
AcDbEntity
  8
1
  6
Continuous
 62
     2
100
AcDbLine
 10
202.7964642575
 20
262.7844267996
 30
0.0
 11
214.031672446058
 21
262.7844267996
 31
0.0
  0
LINE
  5
13D
330
13A
100
AcDbEntity
  8
1
  6
Continuous
 62
     2
100
AcDbLine
 10
202.7964642575
 20
274.7844267996
 30
0.0
 11
214.031672446058
 21
274.7844267996
 31
0.0
  0
SOLID
  5
13E
330
13A
100
AcDbEntity
  8
1
 62
     2
100
AcDbTrace
 10
212.4924561876139
 20
271.2844267996
 30
0.0
 11
211.5708887045021
 21
271.2844267996
 31
0.0
 12
212.031672446058
 22
274.7844267996
 32
0.0
 13
212.031672446058
 23
274.7844267996
 33
0.0
  0
SOLID
  5
13F
330
13A
100
AcDbEntity
  8
1
 62
     2
100
AcDbTrace
 10
211.5708887045021
 20
266.2844267996
 30
0.0
 11
212.4924561876139
 21
266.2844267996
 31
0.0
 12
212.031672446058
 22
262.7844267996
 32
0.0
 13
212.031672446058
 23
262.7844267996
 33
0.0
  0
MTEXT
  5
140
330
13A
100
AcDbEntity
  8
1
 62
     3
100
AcDbMText
 10
210.031672446058
 20
260.068192671426
 30
0.0
 40
3.5
 41
0.0
 71
     7
 72
     1
  1
\C3;%%c\C3;\C3;12\C2;\H2.45;\S^ ;\C3;
  7
CONVERTER_11
 11
0.0
 21
1.0
 31
0.0
 73
     1
 44
0.60024009603842
  0
ENDBLK
  5
142
330
13A
100
AcDbEntity
  8
0
100
AcDbBlockEnd
  0
BLOCK
  5
14C
330
145
100
AcDbEntity
  8
0
100
AcDbBlockBegin
  2
*D6
 70
     1
 10
0.0
 20
0.0
 30
0.0
  3
*D6
  1

  0
LINE
  5
146
330
145
100
AcDbEntity
  8
1
  6
Continuous
 62
     2
100
AcDbLine
 10
222.109066970086
 20
289.7844267996
 30
0.0
 11
222.109066970086
 21
247.7844267996
 31
0.0
  0
LINE
  5
147
330
145
100
AcDbEntity
  8
1
  6
Continuous
 62
     2
100
AcDbLine
 10
189.7077280718
 20
247.7844267996
 30
0.0
 11
224.109066970086
 21
247.7844267996
 31
0.0
  0
LINE
  5
148
330
145
100
AcDbEntity
  8
1
  6
Continuous
 62
     2
100
AcDbLine
 10
189.7077280718
 20
289.7844267996
 30
0.0
 11
224.109066970086
 21
289.7844267996
 31
0.0
  0
SOLID
  5
149
330
145
100
AcDbEntity
  8
1
 62
     2
100
AcDbTrace
 10
222.5698507116419
 20
286.2844267996
 30
0.0
 11
221.6482832285301
 21
286.2844267996
 31
0.0
 12
222.109066970086
 22
289.7844267996
 32
0.0
 13
222.109066970086
 23
289.7844267996
 33
0.0
  0
SOLID
  5
14A
330
145
100
AcDbEntity
  8
1
 62
     2
100
AcDbTrace
 10
221.6482832285301
 20
251.2844267996
 30
0.0
 11
222.5698507116419
 21
251.2844267996
 31
0.0
 12
222.109066970086
 22
247.7844267996
 32
0.0
 13
222.109066970086
 23
247.7844267996
 33
0.0
  0
MTEXT
  5
14B
330
145
100
AcDbEntity
  8
1
 62
     3
100
AcDbMText
 10
220.109066970086
 20
260.307461472063
 30
0.0
 40
3.5
 41
0.0
 71
     7
 72
     1
  1
\C3;%%c\C3;\C3;42\C2;\H2.45;\S^ ;\C3;
  7
CONVERTER_11
 11
0.0
 21
1.0
 31
0.0
 73
     1
 44
0.60024009603842
  0
ENDBLK
  5
14D
330
145
100
AcDbEntity
  8
0
100
AcDbBlockEnd
  0
BLOCK
  5
154
330
150
100
AcDbEntity
  8
0
100
AcDbBlockBegin
  2
*D7
 70
     1
 10
0.0
 20
0.0
 30
0.0
  3
*D7
  1

  0
LINE
  5
151
330
150
100
AcDbEntity
  8
1
  6
Continuous
 62
     2
100
AcDbLine
 10
155.9079906050085
 20
295.8118052189672
 30
0.0
 11
146.8950342186651
 21
290.2599586032625
 31
0.0
  0
SOLID
  5
152
330
150
100
AcDbEntity
  8
1
 62
     2
100
AcDbTrace
 10
149.6333729367518
 20
292.4879224094114
 30
0.0
 11
150.1167057724228
 21
291.7032721714766
 31
0.0
 12
146.8950342186651
 22
290.2599586032625
 32
0.0
 13
146.8950342186651
 23
290.2599586032625
 33
0.0
  0
MTEXT
  5
153
330
150
100
AcDbEntity
  8
1
 62
     3
100
AcDbMText
 10
149.2566445567997
 20
294.0636645647356
 30
0.0
 40
3.5
 41
0.0
 71
     7
 72
     1
  1
\C3; R\C3;\C3;1\C2;\H2.45;\S^ ;\C3;
  7
CONVERTER_11
 11
0.8514300388348967
 21
0.5244681963375913
 31
0.0
 73
     1
 44
0.60024009603842
  0
ENDBLK
  5
155
330
150
100
AcDbEntity
  8
0
100
AcDbBlockEnd
  0
ENDSEC
  0
SECTION
  2
ENTITIES
  0
INSERT
  5
6D
330
1F
100
AcDbEntity
  8
0
100
AcDbBlockReference
  2
Urheberrecht_DE-EN
 10
83.5622506299745
 20
281.57837007797
 30
0.0
  0
LWPOLYLINE
  5
71
330
1F
100
AcDbEntity
  8
BEZUGSACHSEN
  6
DASHED
 62
     8
100
AcDbPolyline
 90
        2
 70
     0
 43
0.35
 10
172.2964642575
 20
262.7844267996
 10
172.2964642575
 20
247.7844267996
  0
LWPOLYLINE
  5
72
330
1F
100
AcDbEntity
  8
BEZUGSACHSEN
  6
DASHED
 62
     8
100
AcDbPolyline
 90
        2
 70
     0
 43
0.35
 10
184.2964642575
 20
262.7844267996
 10
184.2964642575
 20
247.7844267996
  0
LINE
  5
73
330
1F
100
AcDbEntity
  8
RUNDUNGEN
  6
Continuous
 62
     7
100
AcDbLine
 10
200.7964642575
 20
254.4214970604
 30
0.0
 11
200.7964642575
 21
283.1473565388
 31
0.0
  0
LINE
  5
74
330
1F
100
AcDbEntity
  8
RUNDUNGEN
  6
Continuous
 62
     9
100
AcDbLine
 10
200.2190825192
 20
253.5151892733
 30
0.0
 11
200.2190825192
 21
284.0536643258
 31
0.0
  0
LINE
  5
75
330
1F
100
AcDbEntity
  8
RUNDUNGEN
  6
Continuous
 62
     9
100
AcDbLine
 10
188.1303463335
 20
247.8781190125
 30
0.0
 11
188.1303463335
 21
289.6907345866
 31
0.0
  0
LINE
  5
76
330
1F
100
AcDbEntity
  8
0
  6
Continuous
 62
     7
100
AcDbLine
 10
188.1303463335
 20
289.6907345866
 30
0.0
 11
200.2190825192
 21
284.0536643258
 31
0.0
  0
LINE
  5
77
330
1F
100
AcDbEntity
  8
RUNDUNGEN
  6
Continuous
 62
     7
100
AcDbLine
 10
200.2190825192
 20
284.0536643258
 30
0.0
 11
188.1303463335
 21
289.6907345866
 31
0.0
  0
LINE
  5
78
330
1F
100
AcDbEntity
  8
RUNDUNGEN
  6
Continuous
 62
     9
100
AcDbLine
 10
187.7077280718
 20
247.7844267996
 30
0.0
 11
187.7077280718
 21
289.7844267996
 31
0.0
  0
LINE
  5
79
330
1F
100
AcDbEntity
  8
0
  6
Continuous
 62
     7
100
AcDbLine
 10
188.1303463335
 20
247.8781190125
 30
0.0
 11
200.2190825192
 21
253.5151892733
 31
0.0
  0
LWPOLYLINE
  5
7A
330
1F
100
AcDbEntity
  8
BEZUGSACHSEN
  6
DASHED
 62
     8
100
AcDbPolyline
 90
        2
 70
     0
 43
0.35
 10
183.3964642575
 20
262.7844267996
 10
183.3964642575
 20
247.7844267996
  0
LWPOLYLINE
  5
7B
330
1F
100
AcDbEntity
  8
BEZUGSACHSEN
  6
DOT_CENTER
 62
     7
100
AcDbPolyline
 90
        2
 70
     0
 43
0.25
 10
178.2964642575
 20
244.7844267996
 10
178.2964642575
 20
268.6266568632
  0
LINE
  5
7C
330
1F
100
AcDbEntity
  8
0
  6
Continuous
 62
     7
100
AcDbLine
 10
142.188397089
 20
293.7844267996
 30
0.0
 11
146.7464642575
 21
293.7844267996
 31
0.0
  0
LINE
  5
7D
330
1F
100
AcDbEntity
  8
0
  6
Continuous
 62
     7
100
AcDbLine
 10
132.7964642575
 20
293.7844267996
 30
0.0
 11
135.404531426
 21
293.7844267996
 31
0.0
  0
LINE
  5
7E
330
1F
100
AcDbEntity
  8
0
  6
Continuous
 62
     7
100
AcDbLine
 10
120.7964642575
 20
293.7844267996
 30
0.0
 11
122.7964642575
 21
293.7844267996
 31
0.0
  0
LINE
  5
7F
330
1F
100
AcDbEntity
  8
BEZUGSACHSEN
  6
Continuous
 62
     7
100
AcDbLine
 10
122.7964642575
 20
293.7844267996
 30
0.0
 11
120.7964642575
 21
293.7844267996
 31
0.0
  0
LINE
  5
80
330
1F
100
AcDbEntity
  8
BEZUGSACHSEN
  6
Continuous
 62
     7
100
AcDbLine
 10
135.404531426
 20
293.7844267996
 30
0.0
 11
132.7964642575
 21
293.7844267996
 31
0.0
  0
LWPOLYLINE
  5
81
330
1F
100
AcDbEntity
  8
BEZUGSACHSEN
  6
DASHED
 62
     8
100
AcDbPolyline
 90
        2
 70
     0
 43
0.35
 10
173.1964642575
 20
262.7844267996
 10
173.1964642575
 20
247.7844267996
  0
LINE
  5
82
330
1F
100
AcDbEntity
  8
0
  6
Continuous
 62
     7
100
AcDbLine
 10
137.6339642575
 20
290.2594267996
 30
0.0
 11
139.9589642575
 21
290.2594267996
 31
0.0
  0
LINE
  5
83
330
1F
100
AcDbEntity
  8
0
  6
Continuous
 62
     7
100
AcDbLine
 10
147.7464642575
 20
289.7844267996
 30
0.0
 11
187.7077280718
 21
289.7844267996
 31
0.0
  0
LINE
  5
84
330
1F
100
AcDbEntity
  8
RUNDUNGEN
  6
Continuous
 62
     7
100
AcDbLine
 10
187.7077280718
 20
289.7844267996
 30
0.0
 11
147.7464642575
 21
289.7844267996
 31
0.0
  0
LINE
  5
85
330
1F
100
AcDbEntity
  8
0
  6
Continuous
 62
     7
100
AcDbLine
 10
120.494294627
 20
287.7392267996
 30
0.0
 11
119.6218659176
 21
287.7392267996
 31
0.0
  0
LINE
  5
86
330
1F
100
AcDbEntity
  8
0
  6
Continuous
 62
     7
100
AcDbLine
 10
118.7964642575
 20
287.9392267996
 30
0.0
 11
96.8464270151
 21
286.8395299337
 31
0.0
  0
LINE
  5
87
330
1F
100
AcDbEntity
  8
0
  6
Continuous
 62
     7
100
AcDbLine
 10
119.4665744905
 20
287.7596713038
 30
0.0
 11
118.7964642575
 21
287.9392267996
 31
0.0
  0
LINE
  5
88
330
1F
100
AcDbEntity
  8
RUNDUNGEN
  6
Continuous
 62
     9
100
AcDbLine
 10
99.0964642575
 20
276.4344267996
 30
0.0
 11
99.9145224337
 21
276.4344267996
 31
0.0
  0
LINE
  5
89
330
1F
100
AcDbEntity
  8
0
  6
Continuous
 62
     9
100
AcDbLine
 10
99.0964642575
 20
276.4344267996
 30
0.0
 11
96.6329544674
 21
276.4344267996
 31
0.0
  0
LINE
  5
8A
330
1F
100
AcDbEntity
  8
0
  6
Continuous
 62
     7
100
AcDbLine
 10
140.7089642575
 20
274.8019267996
 30
0.0
 11
146.7464642575
 21
274.8019267996
 31
0.0
  0
LINE
  5
8B
330
1F
100
AcDbEntity
  8
0
  6
Continuous
 62
     7
100
AcDbLine
 10
133.7639642575
 20
274.8019267996
 30
0.0
 11
136.8839642575
 21
274.8019267996
 31
0.0
  0
LWPOLYLINE
  5
8C
330
1F
100
AcDbEntity
  8
DEFAULT_2
  6
DASHED
 62
     8
100
AcDbPolyline
 90
        2
 70
     0
 43
0.35
 10
200.7964642575
 20
274.7844267996
 10
150.7964642575
 20
274.7844267996
  0
LINE
  5
8D
330
1F
100
AcDbEntity
  8
0
  6
Continuous
 62
     7
100
AcDbLine
 10
133.7639642575
 20
274.4019267996
 30
0.0
 11
137.1624291102
 21
274.4019267996
 31
0.0
  0
LINE
  5
8E
330
1F
100
AcDbEntity
  8
RUNDUNGEN
  6
Continuous
 62
     7
100
AcDbLine
 10
146.8128300244
 20
274.4019267996
 30
0.0
 11
140.4304994048
 21
274.4019267996
 31
0.0
  0
LINE
  5
8F
330
1F
100
AcDbEntity
  8
0
  6
Continuous
 62
     7
100
AcDbLine
 10
99.0964642575
 20
274.0544267996
 30
0.0
 11
97.0464642575
 21
274.0544267996
 31
0.0
  0
LINE
  5
90
330
1F
100
AcDbEntity
  8
0
  6
Continuous
 62
     7
100
AcDbLine
 10
139.9589642575
 20
273.7205816796
 30
0.0
 11
137.6339642575
 21
273.7205816796
 31
0.0
  0
LINE
  5
91
330
1F
100
AcDbEntity
  8
0
  6
Continuous
 62
     7
100
AcDbLine
 10
135.404531426
 20
293.7844267996
 30
0.0
 11
136.8839642575
 21
291.221973969
 31
0.0
  0
LWPOLYLINE
  5
92
330
1F
100
AcDbEntity
  8
TEIL_STARTBEZUEGE
  6
DOT_CENTER
 62
     7
100
AcDbPolyline
 90
        2
 70
     0
 43
0.25
 10
203.7964642575
 20
268.7844267996
 10
92.8964642575
 20
268.7844267996
  0
LINE
  5
93
330
1F
100
AcDbEntity
  8
0
  6
Continuous
 62
     7
100
AcDbLine
 10
135.404531426
 20
243.7844267996
 30
0.0
 11
136.8839642575
 21
246.3468796301
 31
0.0
  0
LWPOLYLINE
  5
94
330
1F
100
AcDbEntity
  8
DEFAULT_2
  6
DASHED
 62
     8
100
AcDbPolyline
 90
        2
 70
     0
 43
0.35
 10
150.7964642575
 20
274.7844267996
 10
150.7964642575
 20
262.7844267996
  0
LINE
  5
95
330
1F
100
AcDbEntity
  8
RUNDUNGEN
  6
Continuous
 62
     9
100
AcDbLine
 10
147.7464642575
 20
289.7844267996
 30
0.0
 11
147.7464642575
 21
247.7844267996
 31
0.0
  0
LINE
  5
96
330
1F
100
AcDbEntity
  8
0
  6
Continuous
 62
     7
100
AcDbLine
 10
146.7464642575
 20
263.1669267996
 30
0.0
 11
146.7464642575
 21
266.7374778505
 31
0.0
  0
LINE
  5
97
330
1F
100
AcDbEntity
  8
FASEN
  6
Continuous
 62
     7
100
AcDbLine
 10
146.7464642575
 20
249.051776192
 30
0.0
 11
146.7464642575
 21
253.4344267996
 31
0.0
  0
LINE
  5
98
330
1F
100
AcDbEntity
  8
0
  6
Continuous
 62
     7
100
AcDbLine
 10
146.7464642575
 20
249.051776192
 30
0.0
 11
146.7464642575
 21
243.7844403437
 31
0.0
  0
LINE
  5
99
330
1F
100
AcDbEntity
  8
0
  6
Continuous
 62
     7
100
AcDbLine
 10
146.7464642575
 20
262.7669267996
 30
0.0
 11
146.7464642575
 21
253.4344267996
 31
0.0
  0
LINE
  5
9A
330
1F
100
AcDbEntity
  8
FASEN
  6
Continuous
 62
     7
100
AcDbLine
 10
146.7464642575
 20
263.1669267996
 30
0.0
 11
146.7464642575
 21
262.7669267996
 31
0.0
  0
LINE
  5
9B
330
1F
100
AcDbEntity
  8
RUNDUNGEN
  6
Continuous
 62
     7
100
AcDbLine
 10
146.7464642575
 20
274.8019267996
 30
0.0
 11
146.7464642575
 21
266.7374778505
 31
0.0
  0
LINE
  5
9C
330
1F
100
AcDbEntity
  8
0
  6
Continuous
 62
     7
100
AcDbLine
 10
146.7464642575
 20
293.7843767811
 30
0.0
 11
146.7464642575
 21
274.8019267996
 31
0.0
  0
LINE
  5
9D
330
1F
100
AcDbEntity
  8
0
  6
Continuous
 62
     7
100
AcDbLine
 10
137.6339642575
 20
263.8482719195
 30
0.0
 11
139.9589642575
 21
263.8482719195
 31
0.0
  0
LINE
  5
9E
330
1F
100
AcDbEntity
  8
0
  6
Continuous
 62
     7
100
AcDbLine
 10
99.0964642575
 20
263.5144267996
 30
0.0
 11
97.0464642575
 21
263.5144267996
 31
0.0
  0
LINE
  5
9F
330
1F
100
AcDbEntity
  8
0
  6
Continuous
 62
     7
100
AcDbLine
 10
137.1624291102
 20
263.1669267996
 30
0.0
 11
133.7639642575
 21
263.1669267996
 31
0.0
  0
LINE
  5
A0
330
1F
100
AcDbEntity
  8
0
  6
Continuous
 62
     7
100
AcDbLine
 10
146.7464642575
 20
263.1669267996
 30
0.0
 11
140.4304994048
 21
263.1669267996
 31
0.0
  0
LWPOLYLINE
  5
A1
330
1F
100
AcDbEntity
  8
DEFAULT_2
  6
DASHED
 62
     8
100
AcDbPolyline
 90
        2
 70
     0
 43
0.35
 10
173.1964642575
 20
262.7844267996
 10
200.7964642575
 20
262.7844267996
  0
LWPOLYLINE
  5
A2
330
1F
100
AcDbEntity
  8
BEZUGSACHSEN
  6
DASHED
 62
     8
100
AcDbPolyline
 90
        2
 70
     0
 43
0.35
 10
173.1964642575
 20
262.7844267996
 10
150.7964642575
 20
262.7844267996
  0
LINE
  5
A3
330
1F
100
AcDbEntity
  8
0
  6
Continuous
 62
     7
100
AcDbLine
 10
140.7089642575
 20
262.7669267996
 30
0.0
 11
146.7464642575
 21
262.7669267996
 31
0.0
  0
LINE
  5
A4
330
1F
100
AcDbEntity
  8
0
  6
Continuous
 62
     7
100
AcDbLine
 10
133.7639642575
 20
262.7669267996
 30
0.0
 11
136.8839642575
 21
262.7669267996
 31
0.0
  0
LINE
  5
A5
330
1F
100
AcDbEntity
  8
0
  6
Continuous
 62
     9
100
AcDbLine
 10
99.0964642575
 20
261.1344267996
 30
0.0
 11
96.6329544674
 21
261.1344267996
 31
0.0
  0
LINE
  5
A6
330
1F
100
AcDbEntity
  8
RUNDUNGEN
  6
Continuous
 62
     9
100
AcDbLine
 10
99.9145224337
 20
261.1344267996
 30
0.0
 11
99.0964642575
 21
261.1344267996
 31
0.0
  0
LINE
  5
A7
330
1F
100
AcDbEntity
  8
0
  6
Continuous
 62
     7
100
AcDbLine
 10
142.188397089
 20
274.8019267996
 30
0.0
 11
142.188397089
 21
293.7844267996
 31
0.0
  0
LINE
  5
A8
330
1F
100
AcDbEntity
  8
0
  6
Continuous
 62
     7
100
AcDbLine
 10
142.188397089
 20
243.7844267996
 30
0.0
 11
142.188397089
 21
249.051776192
 31
0.0
  0
LINE
  5
A9
330
1F
100
AcDbEntity
  8
0
  6
Continuous
 62
     7
100
AcDbLine
 10
142.188397089
 20
262.7669267996
 30
0.0
 11
142.188397089
 21
253.4344267996
 31
0.0
  0
LINE
  5
AA
330
1F
100
AcDbEntity
  8
0
  6
Continuous
 62
     7
100
AcDbLine
 10
119.4665744905
 20
249.8091822953
 30
0.0
 11
118.7964642575
 21
249.6296267996
 31
0.0
  0
LINE
  5
AB
330
1F
100
AcDbEntity
  8
0
  6
Continuous
 62
     7
100
AcDbLine
 10
140.7089642575
 20
274.8019267996
 30
0.0
 11
140.7089642575
 21
291.2219193569
 31
0.0
  0
LINE
  5
AC
330
1F
100
AcDbEntity
  8
0
  6
Continuous
 62
     7
100
AcDbLine
 10
140.7089642575
 20
246.3468934713
 30
0.0
 11
140.7089642575
 21
252.7118375558
 31
0.0
  0
LINE
  5
AD
330
1F
100
AcDbEntity
  8
0
  6
Continuous
 62
     7
100
AcDbLine
 10
140.7089642575
 20
262.7669267996
 30
0.0
 11
140.7089642575
 21
253.4344267996
 31
0.0
  0
LINE
  5
AE
330
1F
100
AcDbEntity
  8
0
  6
Continuous
 62
     9
100
AcDbLine
 10
139.9589642575
 20
273.7205816796
 30
0.0
 11
139.9589642575
 21
290.2594267996
 31
0.0
  0
LINE
  5
AF
330
1F
100
AcDbEntity
  8
0
  6
Continuous
 62
     9
100
AcDbLine
 10
139.9589642575
 20
247.3094267996
 30
0.0
 11
139.9589642575
 21
263.8482719195
 31
0.0
  0
LINE
  5
B0
330
1F
100
AcDbEntity
  8
0
  6
Continuous
 62
     9
100
AcDbLine
 10
137.6339642575
 20
273.7205816796
 30
0.0
 11
137.6339642575
 21
290.2594267996
 31
0.0
  0
LINE
  5
B1
330
1F
100
AcDbEntity
  8
0
  6
Continuous
 62
     9
100
AcDbLine
 10
137.6339642575
 20
247.3094267996
 30
0.0
 11
137.6339642575
 21
263.8482719195
 31
0.0
  0
LINE
  5
B2
330
1F
100
AcDbEntity
  8
0
  6
Continuous
 62
     7
100
AcDbLine
 10
140.6721273633
 20
253.4344267996
 30
0.0
 11
146.7464642575
 21
253.4344267996
 31
0.0
  0
LINE
  5
B3
330
1F
100
AcDbEntity
  8
0
  6
Continuous
 62
     7
100
AcDbLine
 10
133.4901505304
 20
253.4344267996
 30
0.0
 11
136.9208011517
 21
253.4344267996
 31
0.0
  0
LINE
  5
B4
330
1F
100
AcDbEntity
  8
0
  6
Continuous
 62
     7
100
AcDbLine
 10
140.6721273633
 20
253.0344267996
 30
0.0
 11
146.7464642575
 21
253.0344267996
 31
0.0
  0
LINE
  5
B5
330
1F
100
AcDbEntity
  8
0
  6
Continuous
 62
     7
100
AcDbLine
 10
133.4901505304
 20
253.0344267996
 30
0.0
 11
136.9208011517
 21
253.0344267996
 31
0.0
  0
LINE
  5
B6
330
1F
100
AcDbEntity
  8
0
  6
Continuous
 62
     7
100
AcDbLine
 10
136.8839642575
 20
246.3468934713
 30
0.0
 11
136.8839642575
 21
252.7118375558
 31
0.0
  0
LINE
  5
B7
330
1F
100
AcDbEntity
  8
0
  6
Continuous
 62
     7
100
AcDbLine
 10
136.8839642575
 20
262.7669267996
 30
0.0
 11
136.8839642575
 21
253.4344267996
 31
0.0
  0
LINE
  5
B8
330
1F
100
AcDbEntity
  8
0
  6
Continuous
 62
     7
100
AcDbLine
 10
136.8839642575
 20
291.2219193569
 30
0.0
 11
136.8839642575
 21
274.8019267996
 31
0.0
  0
LINE
  5
B9
330
1F
100
AcDbEntity
  8
0
  6
Continuous
 62
     7
100
AcDbLine
 10
135.404531426
 20
249.051776192
 30
0.0
 11
135.404531426
 21
243.7844267996
 31
0.0
  0
LINE
  5
BA
330
1F
100
AcDbEntity
  8
0
  6
Continuous
 62
     7
100
AcDbLine
 10
135.404531426
 20
262.7669267996
 30
0.0
 11
135.404531426
 21
253.4344267996
 31
0.0
  0
LINE
  5
BB
330
1F
100
AcDbEntity
  8
0
  6
Continuous
 62
     7
100
AcDbLine
 10
135.404531426
 20
293.7844267996
 30
0.0
 11
135.404531426
 21
274.8019267996
 31
0.0
  0
LINE
  5
BC
330
1F
100
AcDbEntity
  8
FASEN
  6
Continuous
 62
     9
100
AcDbLine
 10
133.7639642575
 20
274.4019267996
 30
0.0
 11
133.7639642575
 21
274.8019267996
 31
0.0
  0
LINE
  5
BD
330
1F
100
AcDbEntity
  8
FASEN
  6
Continuous
 62
     9
100
AcDbLine
 10
133.7639642575
 20
263.1669267996
 30
0.0
 11
133.7639642575
 21
262.7669267996
 31
0.0
  0
LINE
  5
BE
330
1F
100
AcDbEntity
  8
FASEN
  6
Continuous
 62
     9
100
AcDbLine
 10
133.4901505304
 20
253.0344267996
 30
0.0
 11
133.4901505304
 21
253.4344267996
 31
0.0
  0
LINE
  5
BF
330
1F
100
AcDbEntity
  8
0
  6
Continuous
 62
     7
100
AcDbLine
 10
140.7089642575
 20
246.3468796301
 30
0.0
 11
142.188397089
 21
243.7844267996
 31
0.0
  0
LINE
  5
C0
330
1F
100
AcDbEntity
  8
0
  6
Continuous
 62
     9
100
AcDbLine
 10
97.0464642575
 20
275.0937865591
 30
0.0
 11
95.8964642575
 21
275.7415749106
 31
0.0
  0
LINE
  5
C1
330
1F
100
AcDbEntity
  8
0
  6
Continuous
 62
     7
100
AcDbLine
 10
120.494294627
 20
249.8296267996
 30
0.0
 11
119.6218659176
 21
249.8296267996
 31
0.0
  0
LINE
  5
C2
330
1F
100
AcDbEntity
  8
0
  6
Continuous
 62
     7
100
AcDbLine
 10
142.188397089
 20
249.051776192
 30
0.0
 11
146.7464642575
 21
249.051776192
 31
0.0
  0
LINE
  5
C3
330
1F
100
AcDbEntity
  8
0
  6
Continuous
 62
     7
100
AcDbLine
 10
128.1287905403
 20
249.051776192
 30
0.0
 11
135.404531426
 21
249.051776192
 31
0.0
  0
LINE
  5
C4
330
1F
100
AcDbEntity
  8
0
  6
Continuous
 62
     7
100
AcDbLine
 10
140.7089642575
 20
291.221973969
 30
0.0
 11
142.188397089
 21
293.7844267996
 31
0.0
  0
LINE
  5
C5
330
1F
100
AcDbEntity
  8
0
  6
Continuous
 62
     7
100
AcDbLine
 10
118.7964642575
 20
249.6296267996
 30
0.0
 11
96.8464270151
 21
250.7293236654
 31
0.0
  0
LINE
  5
C6
330
1F
100
AcDbEntity
  8
0
  6
Continuous
 62
     7
100
AcDbLine
 10
183.3964642575
 20
247.7844267996
 30
0.0
 11
187.7077280718
 21
247.7844267996
 31
0.0
  0
LINE
  5
C7
330
1F
100
AcDbEntity
  8
BEZUGSACHSEN
  6
Continuous
 62
     7
100
AcDbLine
 10
173.1964642575
 20
247.7844267996
 30
0.0
 11
147.7464642575
 21
247.7844267996
 31
0.0
  0
LINE
  5
C8
330
1F
100
AcDbEntity
  8
0
  6
Continuous
 62
     7
100
AcDbLine
 10
137.6339642575
 20
247.3094267996
 30
0.0
 11
139.9589642575
 21
247.3094267996
 31
0.0
  0
LINE
  5
C9
330
1F
100
AcDbEntity
  8
0
  6
Continuous
 62
     9
100
AcDbLine
 10
95.8964642575
 20
261.8272786886
 30
0.0
 11
97.0464642575
 21
262.4750670401
 31
0.0
  0
LWPOLYLINE
  5
CA
330
1F
100
AcDbEntity
  8
BEZUGSACHSEN
  6
DOT_CENTER
 62
     7
100
AcDbPolyline
 90
        2
 70
     0
 43
0.25
 10
127.7964642575
 20
299.6793242274
 10
127.7964642575
 20
285.6793242274
  0
LINE
  5
CB
330
1F
100
AcDbEntity
  8
0
  6
Continuous
 62
     7
100
AcDbLine
 10
142.188397089
 20
243.7844267996
 30
0.0
 11
146.7464642575
 21
243.7844267996
 31
0.0
  0
LINE
  5
CC
330
1F
100
AcDbEntity
  8
0
  6
Continuous
 62
     7
100
AcDbLine
 10
135.404531426
 20
243.7844267996
 30
0.0
 11
120.7964642575
 21
243.7844267996
 31
0.0
  0
LINE
  5
CD
330
1F
100
AcDbEntity
  8
0
  6
Continuous
 62
     7
100
AcDbLine
 10
120.7964642575
 20
293.7844267996
 30
0.0
 11
120.7964642575
 21
243.7844267996
 31
0.0
  0
LINE
  5
CE
330
1F
100
AcDbEntity
  8
0
  6
Continuous
 62
     9
100
AcDbLine
 10
120.494294627
 20
249.8296267996
 30
0.0
 11
120.494294627
 21
287.7392267996
 31
0.0
  0
LINE
  5
CF
330
1F
100
AcDbEntity
  8
0
  6
Continuous
 62
     9
100
AcDbLine
 10
119.6218659176
 20
249.8296267996
 30
0.0
 11
119.6218659176
 21
287.7392267996
 31
0.0
  0
LINE
  5
D0
330
1F
100
AcDbEntity
  8
0
  6
Continuous
 62
     9
100
AcDbLine
 10
119.4665744905
 20
249.8091822953
 30
0.0
 11
119.4665744905
 21
287.7596713038
 31
0.0
  0
LINE
  5
D1
330
1F
100
AcDbEntity
  8
0
  6
Continuous
 62
     7
100
AcDbLine
 10
118.7964642575
 20
287.9392267996
 30
0.0
 11
118.7964642575
 21
249.6296267996
 31
0.0
  0
LINE
  5
D2
330
1F
100
AcDbEntity
  8
0
  6
Continuous
 62
     7
100
AcDbLine
 10
97.0464642575
 20
274.0544267996
 30
0.0
 11
95.8964642575
 21
275.2044267996
 31
0.0
  0
LINE
  5
D3
330
1F
100
AcDbEntity
  8
0
  6
Continuous
 62
     7
100
AcDbLine
 10
95.8964642575
 20
262.3644267996
 30
0.0
 11
97.0464642575
 21
263.5144267996
 31
0.0
  0
LWPOLYLINE
  5
D4
330
1F
100
AcDbEntity
  8
BEZUGSACHSEN
  6
DOT_CENTER
 62
     7
100
AcDbPolyline
 90
        2
 70
     0
 43
0.25
 10
113.2964642575
 20
274.7844267996
 10
113.2964642575
 20
262.7844267996
  0
LINE
  5
D5
330
1F
100
AcDbEntity
  8
0
  6
Continuous
 62
     7
100
AcDbLine
 10
96.5845349885
 20
276.5203845056
 30
0.0
 11
96.6329544674
 21
276.4344267996
 31
0.0
  0
LINE
  5
D6
330
1F
100
AcDbEntity
  8
0
  6
Continuous
 62
     7
100
AcDbLine
 10
96.6329544674
 20
261.1344267996
 30
0.0
 11
96.5845349885
 21
261.0484690935
 31
0.0
  0
LINE
  5
D7
330
1F
100
AcDbEntity
  8
RUNDUNGEN
  6
Continuous
 62
     7
100
AcDbLine
 10
100.4964642575
 20
274.7155770464
 30
0.0
 11
100.4964642575
 21
262.8532765528
 31
0.0
  0
LINE
  5
D8
330
1F
100
AcDbEntity
  8
RUNDUNGEN
  6
Continuous
 62
     9
100
AcDbLine
 10
99.0964642575
 20
274.0544267996
 30
0.0
 11
99.0964642575
 21
276.8888975972
 31
0.0
  0
LINE
  5
D9
330
1F
100
AcDbEntity
  8
RUNDUNGEN
  6
Continuous
 62
     9
100
AcDbLine
 10
99.0964642575
 20
260.679956002
 30
0.0
 11
99.0964642575
 21
263.5144267996
 31
0.0
  0
LINE
  5
DA
330
1F
100
AcDbEntity
  8
0
  6
Continuous
 62
     7
100
AcDbLine
 10
97.0464642575
 20
274.0544267996
 30
0.0
 11
97.0464642575
 21
275.0937865591
 31
0.0
  0
LINE
  5
DB
330
1F
100
AcDbEntity
  8
0
  6
Continuous
 62
     7
100
AcDbLine
 10
97.0464642575
 20
262.4750670401
 30
0.0
 11
97.0464642575
 21
263.5144267996
 31
0.0
  0
LINE
  5
DC
330
1F
100
AcDbEntity
  8
0
  6
Continuous
 62
     9
100
AcDbLine
 10
96.8464270151
 20
260.9359142536
 30
0.0
 11
96.8464270151
 21
250.7293236654
 31
0.0
  0
LINE
  5
DD
330
1F
100
AcDbEntity
  8
0
  6
Continuous
 62
     9
100
AcDbLine
 10
96.8464270151
 20
286.8395299337
 30
0.0
 11
96.8464270151
 21
276.6329393456
 31
0.0
  0
LINE
  5
DE
330
1F
100
AcDbEntity
  8
0
  6
Continuous
 62
     7
100
AcDbLine
 10
95.8964642575
 20
275.2044267996
 30
0.0
 11
95.8964642575
 21
285.8407825808
 31
0.0
  0
LINE
  5
DF
330
1F
100
AcDbEntity
  8
0
  6
Continuous
 62
     7
100
AcDbLine
 10
95.8964642575
 20
251.7280710181
 30
0.0
 11
95.8964642575
 21
262.3644267996
 31
0.0
  0
ARC
  5
E0
330
1F
100
AcDbEntity
  8
0
  6
Continuous
 62
     7
100
AcDbCircle
 10
139.9589642575
 20
291.0094267996
 30
0.0
 40
0.75
100
AcDbArc
 50
270.0
 51
0.0
  0
ARC
  5
E1
330
1F
100
AcDbEntity
  8
RUNDUNGEN
  6
Continuous
 62
     7
100
AcDbCircle
 10
187.7077280718
 20
288.7844267996
 30
0.0
 40
0.999999999949584
100
AcDbArc
 50
65.00000000122631
 51
90.0
  0
ARC
  5
E2
330
1F
100
AcDbEntity
  8
RUNDUNGEN
  6
Continuous
 62
     7
100
AcDbCircle
 10
199.7964642575
 20
283.1473565388
 30
0.0
 40
1.0
100
AcDbArc
 50
0.0
 51
65.00000000122631
  0
ARC
  5
E3
330
1F
100
AcDbEntity
  8
RUNDUNGEN
  6
Continuous
 62
     7
100
AcDbCircle
 10
147.7464642575
 20
290.7844267996
 30
0.0
 40
1.0
100
AcDbArc
 50
180.0
 51
270.0
  0
ARC
  5
E4
330
1F
100
AcDbEntity
  8
0
  6
Continuous
 62
     7
100
AcDbCircle
 10
257.4629078454
 20
301.7049623093
 30
0.0
 40
126.7303074975999
100
AcDbArc
 50
202.8862467703002
 51
204.5491891221411
  0
ARC
  5
E5
330
1F
100
AcDbEntity
  8
RUNDUNGEN
  6
Continuous
 62
     7
100
AcDbCircle
 10
186.0665347892
 20
1035.2202865698
 30
0.0
 40
779.4077988091002
100
AcDbArc
 50
263.4268476068
 51
263.5933190568
  0
ARC
  5
E6
330
1F
100
AcDbEntity
  8
0
  6
Continuous
 62
     7
100
AcDbCircle
 10
139.9589642575
 20
246.5594267996
 30
0.0
 40
0.75
100
AcDbArc
 50
0.0
 51
90.0
  0
ARC
  5
E7
330
1F
100
AcDbEntity
  8
RUNDUNGEN
  6
Continuous
 62
     7
100
AcDbCircle
 10
187.7077280718
 20
248.7844267996
 30
0.0
 40
1.0
100
AcDbArc
 50
270.0
 51
294.9999999963525
  0
ARC
  5
E8
330
1F
100
AcDbEntity
  8
RUNDUNGEN
  6
Continuous
 62
     7
100
AcDbCircle
 10
199.7964642575
 20
254.4214970604
 30
0.0
 40
1.000000000040203
100
AcDbArc
 50
294.9999999963525
 51
0.0
  0
ARC
  5
E9
330
1F
100
AcDbEntity
  8
0
  6
Continuous
 62
     7
100
AcDbCircle
 10
139.2836238672
 20
252.7124738924
 30
0.0
 40
1.425340532344775
100
AcDbArc
 50
359.9744205669359
 51
13.05450641546291
  0
ARC
  5
EA
330
1F
100
AcDbEntity
  8
0
  6
Continuous
 62
     7
100
AcDbCircle
 10
174.4518526608
 20
253.2344267996
 30
0.0
 40
33.78031736343756
100
AcDbArc
 50
179.660772196785
 51
180.339227803215
  0
ARC
  5
EB
330
1F
100
AcDbEntity
  8
RUNDUNGEN
  6
Continuous
 62
     7
100
AcDbCircle
 10
186.0665347892
 20
-497.6514329707
 30
0.0
 40
779.4077988090994
100
AcDbArc
 50
96.40668094319999
 51
96.57315239320002
  0
ARC
  5
EC
330
1F
100
AcDbEntity
  8
0
  6
Continuous
 62
     7
100
AcDbCircle
 10
120.494294627
 20
288.3392267996
 30
0.0
 40
0.6000000000000227
100
AcDbArc
 50
270.0
 51
300.2968216182418
  0
ARC
  5
ED
330
1F
100
AcDbEntity
  8
0
  6
Continuous
 62
     7
100
AcDbCircle
 10
119.6218659176
 20
288.3392267996
 30
0.0
 40
0.6000000000355985
100
AcDbArc
 50
254.9999999971049
 51
270.0
  0
ARC
  5
EE
330
1F
100
AcDbEntity
  8
0
  6
Continuous
 62
     7
100
AcDbCircle
 10
137.6339642575
 20
291.0094267996
 30
0.0
 40
0.75
100
AcDbArc
 50
180.0
 51
270.0
  0
ARC
  5
EF
330
1F
100
AcDbEntity
  8
0
  6
Continuous
 62
     7
100
AcDbCircle
 10
96.8964642575
 20
285.8407825811
 30
0.0
 40
0.9999999999763007
100
AcDbArc
 50
92.86812048930226
 51
180.0000000171866
  0
ARC
  5
F0
330
1F
100
AcDbEntity
  8
RUNDUNGEN
  6
Continuous
 62
     7
100
AcDbCircle
 10
99.0964642575
 20
272.6544267996
 30
0.0
 40
1.400000000000457
100
AcDbArc
 50
6.05709561601085
 51
90.0
  0
ARC
  5
F1
330
1F
100
AcDbEntity
  8
FASEN
  6
Continuous
 62
     7
100
AcDbCircle
 10
133.7639642575
 20
268.7844267996
 30
0.0
 40
5.617499843000019
100
AcDbArc
 50
90.0
 51
270.0
  0
ARC
  5
F2
330
1F
100
AcDbEntity
  8
0
  6
Continuous
 62
     7
100
AcDbCircle
 10
133.7639642575
 20
268.7844267996
 30
0.0
 40
6.017499999999984
100
AcDbArc
 50
90.0
 51
270.0
  0
ARC
  5
F3
330
1F
100
AcDbEntity
  8
0
  6
Continuous
 62
     7
100
AcDbCircle
 10
20.1300206696
 20
301.7049623093
 30
0.0
 40
126.730307497577
100
AcDbArc
 50
335.4508108778589
 51
337.1137532296999
  0
ARC
  5
F4
330
1F
100
AcDbEntity
  8
0
  6
Continuous
 62
     7
100
AcDbCircle
 10
137.3875842115
 20
262.6914316666
 30
0.0
 40
0.5037304978997338
100
AcDbArc
 50
166.1596109370713
 51
171.380487033705
  0
ARC
  5
F5
330
1F
100
AcDbEntity
  8
0
  6
Continuous
 62
     7
100
AcDbCircle
 10
120.494294627
 20
249.2296267996
 30
0.0
 40
0.5999999999998945
100
AcDbArc
 50
59.70317838175824
 51
90.0
  0
ARC
  5
F6
330
1F
100
AcDbEntity
  8
0
  6
Continuous
 62
     7
100
AcDbCircle
 10
119.6218659176
 20
249.2296267996
 30
0.0
 40
0.5999999999999943
100
AcDbArc
 50
90.0
 51
105.0000000053664
  0
ARC
  5
F7
330
1F
100
AcDbEntity
  8
0
  6
Continuous
 62
     7
100
AcDbCircle
 10
137.6339642575
 20
246.5594267996
 30
0.0
 40
0.75
100
AcDbArc
 50
90.0
 51
180.0
  0
ARC
  5
F8
330
1F
100
AcDbEntity
  8
0
  6
Continuous
 62
     7
100
AcDbCircle
 10
96.8964642575
 20
251.728071018
 30
0.0
 40
1.0
100
AcDbArc
 50
179.9999999942711
 51
267.1318795106977
  0
ARC
  5
F9
330
1F
100
AcDbEntity
  8
RUNDUNGEN
  6
Continuous
 62
     7
100
AcDbCircle
 10
99.0964642575
 20
264.9144267996
 30
0.0
 40
1.399999999999977
100
AcDbArc
 50
270.0
 51
353.9429041005109
  0
ARC
  5
FA
330
1F
100
AcDbEntity
  8
0
  6
Continuous
 62
     7
100
AcDbCircle
 10
138.3093046478
 20
252.7124738924
 30
0.0
 40
1.425340532341804
100
AcDbArc
 50
166.9454935845368
 51
180.0255794330641
  0
ARC
  5
FB
330
1F
100
AcDbEntity
  8
FASEN
  6
Continuous
 62
     7
100
AcDbCircle
 10
133.4901505304
 20
247.4344267996
 30
0.0
 40
5.599990644599984
100
AcDbArc
 50
90.0
 51
163.2131310087989
  0
ARC
  5
FC
330
1F
100
AcDbEntity
  8
FASEN
  6
Continuous
 62
     7
100
AcDbCircle
 10
133.4901505304
 20
247.4344267996
 30
0.0
 40
6.0
100
AcDbArc
 50
90.0
 51
161.1845969504032
  0
ARC
  5
FD
330
1F
100
AcDbEntity
  8
FASEN
  6
Continuous
 62
     7
100
AcDbCircle
 10
135.9708196053
 20
257.2178186082
 30
0.0
 40
11.32173434590008
100
AcDbArc
 50
223.884257816298
 51
226.1595439822579
  0
ARC
  5
FE
330
1F
100
AcDbEntity
  8
0
  6
Continuous
 62
     7
100
AcDbCircle
 10
103.1410758542
 20
253.2344267996
 30
0.0
 40
33.78031736343758
100
AcDbArc
 50
359.660772196785
 51
0.33922780321501
  0
ARC
  5
FF
330
1F
100
AcDbEntity
  8
RUNDUNGEN
  6
Continuous
 62
     7
100
AcDbCircle
 10
147.7464642575
 20
246.7844267996
 30
0.0
 40
1.0
100
AcDbArc
 50
90.0
 51
180.0
  0
CIRCLE
  5
100
330
1F
100
AcDbEntity
  8
FASEN
  6
Continuous
 62
     7
100
AcDbCircle
 10
113.2964642575
 20
268.7844267996
 30
0.0
 40
3.0
  0
SPLINE
  5
101
330
1F
100
AcDbEntity
  8
0
  6
Continuous
 62
     7
100
AcDbSpline
210
0.0
220
0.0
230
1.0
 70
     8
 71
     3
 72
    11
 73
     7
 74
     5
 42
0.0000000001
 43
0.0000000001
 44
0.00000001
 40
0.0
 40
0.0
 40
0.0
 40
0.0
 40
0.3847579053307454
 40
0.7696659746339465
 40
1.093183244053965
 40
1.416570809308407
 40
1.416570809308407
 40
1.416570809308407
 40
1.416570809308407
 10
97.0464642575
 20
275.0937865591
 30
0.0
 10
97.0378362197138
 20
275.2221331314173
 30
0.0
 10
97.0205767767761
 20
275.4788763673716
 30
0.0
 10
96.91472885878919
 20
275.8299706458847
 30
0.0
 10
96.78595071391153
 20
276.1491633123066
 30
0.0
 10
96.6839463989621
 20
276.3393516813999
 30
0.0
 10
96.6329544674
 20
276.4344267996
 30
0.0
 11
97.0464642575
 21
275.0937865591
 31
0.0
 11
97.00626978422021
 21
275.4764392084209
 31
0.0
 11
96.90293269502898
 21
275.8472163218087
 31
0.0
 11
96.78061598323035
 21
276.1467193195028
 31
0.0
 11
96.6329544674
 21
276.4344267996
 31
0.0
  0
SPLINE
  5
102
330
1F
100
AcDbEntity
  8
0
  6
Continuous
 62
     7
100
AcDbSpline
210
0.0
220
0.0
230
1.0
 70
     8
 71
     3
 72
    11
 73
     7
 74
     5
 42
0.0000000001
 43
0.0000000001
 44
0.00000001
 40
0.0
 40
0.0
 40
0.0
 40
0.0
 40
0.4419689633842084
 40
0.8839020538558469
 40
1.15051856187896
 40
1.416734593058754
 40
1.416734593058754
 40
1.416734593058754
 40
1.416734593058754
 10
96.6329544674
 20
261.1344267996
 30
0.0
 10
96.7016545675283
 20
261.2649510437926
 30
0.0
 10
96.83904919166326
 20
261.5259889380292
 30
0.0
 10
96.96397536323951
 20
261.8901579695906
 30
0.0
 10
97.03401172862564
 20
262.2085437004565
 30
0.0
 10
97.04231549491166
 20
262.3862704533509
 30
0.0
 10
97.0464642575
 20
262.4750670401
 30
0.0
 11
96.6329544674
 21
261.1344267996
 31
0.0
 11
96.82869934299599
 21
261.5306849329838
 31
0.0
 11
96.97288656378933
 21
261.9484347406603
 31
0.0
 11
97.02653424354337
 21
262.2095980780709
 31
0.0
 11
97.0464642575
 21
262.4750670401
 31
0.0
  0
SPLINE
  5
103
330
1F
100
AcDbEntity
  8
0
  6
Continuous
 62
     7
100
AcDbSpline
210
0.0
220
0.0
230
1.0
 70
     8
 71
     3
 72
    11
 73
     7
 74
     5
 42
0.0000000001
 43
0.0000000001
 44
0.00000001
 40
0.0
 40
0.0
 40
0.0
 40
0.0
 40
0.0719820116205914
 40
0.1441794862419484
 40
0.2163078795418546
 40
0.2883301027657828
 40
0.2883301027657828
 40
0.2883301027657828
 40
0.2883301027657828
 10
96.8464270151
 20
260.9359142536
 30
0.0
 10
96.82270018191986
 20
260.9398174407739
 30
0.0
 10
96.77517549427864
 20
260.9476354984913
 30
0.0
 10
96.70730882605582
 20
260.9730692222618
 30
0.0
 10
96.64307200876621
 20
261.0062967524492
 30
0.0
 10
96.60403774539304
 20
261.0344185505892
 30
0.0
 10
96.5845349885
 20
261.0484690935
 30
0.0
 11
96.8464270151
 21
260.9359142536
 31
0.0
 11
96.7758168886146
 21
260.9499006768262
 31
0.0
 11
96.70789520616636
 21
260.9743776128089
 31
0.0
 11
96.6439833976667
 21
261.0078109173768
 31
0.0
 11
96.5845349885
 21
261.0484690935
 31
0.0
  0
SPLINE
  5
104
330
1F
100
AcDbEntity
  8
0
  6
Continuous
 62
     7
100
AcDbSpline
210
0.0
220
0.0
230
1.0
 70
     8
 71
     3
 72
    13
 73
     9
 74
     7
 42
0.0000000001
 43
0.0000000001
 44
0.00000001
 40
0.0
 40
0.0
 40
0.0
 40
0.0
 40
0.131291194383286
 40
0.2626255805764266
 40
0.3227118842676087
 40
0.3827399627415908
 40
0.4404729025974226
 40
0.498136090294517
 40
0.498136090294517
 40
0.498136090294517
 40
0.498136090294517
 10
140.4304994048
 20
263.1669267996
 30
0.0
 10
140.4658260227935
 20
263.1408962087461
 30
0.0
 10
140.5364908804324
 20
263.0888264635673
 30
0.0
 10
140.6059997314645
 20
263.0051471542807
 30
0.0
 10
140.6492548758449
 20
262.9332512727756
 30
0.0
 10
140.6739727786322
 20
262.8792451719557
 30
0.0
 10
140.6928119910124
 20
262.8237001409859
 30
0.0
 10
140.6998623278826
 20
262.7858436191644
 30
0.0
 10
140.7033853655
 20
262.7669267996
 30
0.0
 11
140.4304994048
 21
263.1669267996
 31
0.0
 11
140.5329559219565
 21
263.0848290541088
 31
0.0
 11
140.6174381658671
 21
262.9842732414445
 31
0.0
 11
140.6482717894689
 21
262.9327014318306
 31
0.0
 11
140.6733250968115
 21
262.8781514364459
 31
0.0
 11
140.6914822865332
 21
262.8233480715327
 31
0.0
 11
140.7033853655
 21
262.7669267996
 31
0.0
  0
SPLINE
  5
105
330
1F
100
AcDbEntity
  8
0
  6
Continuous
 62
     7
100
AcDbSpline
210
0.0
220
0.0
230
1.0
 70
     8
 71
     3
 72
    11
 73
     7
 74
     5
 42
0.0000000001
 43
0.0000000001
 44
0.00000001
 40
0.0
 40
0.0
 40
0.0
 40
0.0
 40
0.1068456600821865
 40
0.2142571944376941
 40
0.3333679115769979
 40
0.4521343114499091
 40
0.4521343114499091
 40
0.4521343114499091
 40
0.4521343114499091
 10
136.89847907972
 20
262.811933054894
 30
0.0
 10
136.9091653283112
 20
262.8460417461312
 30
0.0
 10
136.9305944218323
 20
262.9144397745096
 30
0.0
 10
136.9895932573965
 20
263.0096931601427
 30
0.0
 10
137.0660091980294
 20
263.0968316515524
 30
0.0
 10
137.1303201686312
 20
263.1435843077614
 30
0.0
 10
137.1624291102
 20
263.1669267996
 30
0.0
 11
136.89847907972
 21
262.811933054894
 31
0.0
 11
136.93463851571
 21
262.9124740428903
 31
0.0
 11
136.9897806849457
 21
263.0046509319927
 31
0.0
 11
137.0690104260052
 21
263.0935891749992
 31
0.0
 11
137.1624291102
 21
263.1669267996
 31
0.0
  0
SPLINE
  5
106
330
1F
100
AcDbEntity
  8
0
  6
Continuous
 62
     7
100
AcDbSpline
210
0.0
220
0.0
230
1.0
 70
     8
 71
     3
 72
    13
 73
     9
 74
     7
 42
0.0000000001
 43
0.0000000001
 44
0.00000001
 40
0.0
 40
0.0
 40
0.0
 40
0.0
 40
0.0576631897543962
 40
0.1153961316232411
 40
0.1754242232566679
 40
0.2355105401274372
 40
0.3668449112428172
 40
0.4981360904181398
 40
0.4981360904181398
 40
0.4981360904181398
 40
0.4981360904181398
 10
140.7033853655
 20
274.8019267996
 30
0.0
 10
140.6998623277316
 20
274.7830099793632
 30
0.0
 10
140.692811990562
 20
274.7451534562116
 30
0.0
 10
140.6739727759395
 20
274.6896084199105
 30
0.0
 10
140.6492548681249
 20
274.6356023109256
 30
0.0
 10
140.6059997187987
 20
274.563706427936
 30
0.0
 10
140.5364908686486
 20
274.4800271258676
 30
0.0
 10
140.4658260188538
 20
274.4279573871902
 30
0.0
 10
140.4304994048
 20
274.4019267996
 30
0.0
 11
140.7033853655
 21
274.8019267996
 31
0.0
 11
140.6914822859802
 21
274.7455055256814
 31
0.0
 11
140.6733250952641
 21
274.690702158977
 31
0.0
 11
140.6482717813592
 21
274.6361521521252
 31
0.0
 11
140.6174381488878
 21
274.5845803324588
 31
0.0
 11
140.5329559110413
 21
274.4840245343926
 31
0.0
 11
140.4304994048
 21
274.4019267996
 31
0.0
  0
SPLINE
  5
107
330
1F
100
AcDbEntity
  8
0
  6
Continuous
 62
     7
100
AcDbSpline
210
0.0
220
0.0
230
1.0
 70
     8
 71
     3
 72
    13
 73
     9
 74
     7
 42
0.0000000001
 43
0.0000000001
 44
0.00000001
 40
0.0
 40
0.0
 40
0.0
 40
0.0
 40
0.1312848067671855
 40
0.262613191452488
 40
0.3227000710666815
 40
0.3827285902694469
 40
0.4404671081601099
 40
0.4981359434381255
 40
0.4981359434381255
 40
0.4981359434381255
 40
0.4981359434381255
 10
137.1624291102
 20
274.4019267996
 30
0.0
 10
137.1271042978936
 20
274.4279562467998
 30
0.0
 10
137.0564429477672
 20
274.4800237812634
 30
0.0
 10
136.9869361874125
 20
274.5636992829455
 30
0.0
 10
136.9436790581659
 20
274.6355919913487
 30
0.0
 10
136.9189582944269
 20
274.6895992485639
 30
0.0
 10
136.9001174233751
 20
274.7451478968247
 30
0.0
 10
136.8930664883473
 20
274.7830081186376
 30
0.0
 10
136.8895431495
 20
274.8019267996
 30
0.0
 11
137.1624291102
 21
274.4019267996
 31
0.0
 11
137.0599776977141
 21
274.4840207005157
 31
0.0
 11
136.9754979313213
 21
274.5845707561808
 31
0.0
 11
136.9446621424297
 21
274.6361419421784
 31
0.0
 11
136.9196068937425
 21
274.6906915309111
 31
0.0
 11
136.9014473522413
 21
274.7454999928552
 31
0.0
 11
136.8895431495
 21
274.8019267996
 31
0.0
  0
SPLINE
  5
108
330
1F
100
AcDbEntity
  8
0
  6
Continuous
 62
     7
100
AcDbSpline
210
0.0
220
0.0
230
1.0
 70
     8
 71
     3
 72
    27
 73
    23
 74
    21
 42
0.0000000001
 43
0.0000000001
 44
0.00000001
 40
0.0
 40
0.0
 40
0.0
 40
0.0
 40
0.0730306819476823
 40
0.1460817688006238
 40
0.2142068182503118
 40
0.2823160953911176
 40
0.3442738269320756
 40
0.4062919406355359
 40
0.4617913416911246
 40
0.5170559905202288
 40
0.5428520623002441
 40
0.568643224634239
 40
0.5939867602377563
 40
0.6193292497830472
 40
0.6451121206418379
 40
0.6708991015031556
 40
0.6979696845561132
 40
0.7250453874703795
 40
0.7848430773897875
 40
0.8448837206180644
 40
0.9129318640967764
 40
0.980874094514555
 40
0.980874094514555
 40
0.980874094514555
 40
0.980874094514555
 10
96.5845349885
 20
261.0484690935
 30
0.0
 10
96.56470261424585
 20
261.034343759397
 30
0.0
 10
96.52503232453611
 20
261.006089144547
 30
0.0
 10
96.46426431444714
 20
260.9684972665637
 30
0.0
 10
96.40289704599383
 20
260.9352293651125
 30
0.0
 10
96.34257570607485
 20
260.9081097170256
 30
0.0
 10
96.28208585554766
 20
260.8868445168891
 30
0.0
 10
96.22364247673399
 20
260.8733283088449
 30
0.0
 10
96.16613589307516
 20
260.8678169081163
 30
0.0
 10
96.12041689657696
 20
260.8709848128707
 30
0.0
 10
96.08564173981907
 20
260.8789456700788
 30
0.0
 10
96.06134931260681
 20
260.8873332336346
 30
0.0
 10
96.03833092723588
 20
260.8984211183514
 30
0.0
 10
96.01675988164332
 20
260.912113726246
 30
0.0
 10
95.99688654551902
 20
260.9284072427478
 30
0.0
 10
95.97861700316287
 20
260.9472813493047
 30
0.0
 10
95.96231543207972
 20
260.9684264597353
 30
0.0
 10
95.9422949240883
 20
261.0007641613603
 30
0.0
 10
95.92272770388513
 20
261.0459849188125
 30
0.0
 10
95.90698517184308
 20
261.1067493784362
 30
0.0
 10
95.89786826482108
 20
261.1716374125083
 30
0.0
 10
95.89693201688178
 20
261.2169861822611
 30
0.0
 10
95.8964642575
 20
261.2396429077
 30
0.0
 11
96.5845349885
 21
261.0484690935
 31
0.0
 11
96.52459513255533
 21
261.0067474663136
 31
0.0
 11
96.46250645494355
 21
260.96825776116
 31
0.0
 11
96.40251308620014
 21
260.9359805545067
 31
0.0
 11
96.34032703408488
 21
260.9081998317846
 31
0.0
 11
96.28177284383398
 21
260.8879472442521
 31
0.0
 11
96.22128435878464
 21
260.8742582120083
 31
0.0
 11
96.16600316860415
 21
260.8693415536149
 31
0.0
 11
96.11090294881652
 21
260.8736015054408
 31
0.0
 11
96.08576503275201
 21
260.8793913668565
 31
0.0
 11
96.06140031255194
 21
260.8878497629285
 31
0.0
 11
96.03857004448228
 21
260.8988531104534
 31
0.0
 11
96.01718182656833
 21
260.9124467086091
 31
0.0
 11
95.99722368645583
 21
260.928769363815
 31
0.0
 11
95.97927220806326
 21
260.9472818678451
 31
0.0
 11
95.96269860793855
 21
260.9686858918998
 31
0.0
 11
95.9484031181322
 21
260.9916800794153
 31
0.0
 11
95.92423409366502
 21
261.0463758011493
 31
0.0
 11
95.90870529307682
 21
261.104373518273
 31
0.0
 11
95.89921251831456
 21
261.1717562835636
 31
0.0
 11
95.8964642575
 21
261.2396429077
 31
0.0
  0
SPLINE
  5
109
330
1F
100
AcDbEntity
  8
FASEN
  6
Continuous
 62
     7
100
AcDbSpline
210
0.0
220
0.0
230
1.0
 70
     8
 71
     3
 72
    43
 73
    39
 74
    37
 42
0.0000000001
 43
0.0000000001
 44
0.00000001
 40
0.0
 40
0.0
 40
0.0
 40
0.0
 40
0.3536627137950147
 40
0.707708711074798
 40
1.061386016617076
 40
1.414940912948015
 40
1.768273600873982
 40
2.121679340742568
 40
2.474990473718325
 40
2.828124790698763
 40
3.004861640080184
 40
3.181542282390263
 40
3.358289604686702
 40
3.535092627948744
 40
3.888693190938914
 40
4.242467023549541
 40
4.596379402896696
 40
4.950247373391514
 40
5.303947627971702
 40
5.657661399051129
 40
6.010712555460191
 40
6.363747200673026
 40
6.715806091023749
 40
7.067909115857856
 40
7.419215040194717
 40
7.770346273707697
 40
7.945854779181198
 40
8.121308710023788
 40
8.296759233357426
 40
8.472264989766567
 40
8.823345921644055
 40
9.17460159480153
 40
9.526721241937675
 40
9.878775142211753
 40
10.23179857972274
 40
10.58493613212138
 40
10.93889559954321
 40
11.29248564895836
 40
11.29248564895836
 40
11.29248564895836
 40
11.29248564895836
 10
109.6972158459
 20
268.7844267996
 30
0.0
 10
109.7005456727307
 20
268.9023641093219
 30
0.0
 10
109.7072089351061
 20
269.1383665438315
 30
0.0
 10
109.7615448904237
 20
269.4888508510547
 30
0.0
 10
109.84748811597
 20
269.8324633172531
 30
0.0
 10
109.9673752607617
 20
270.1657008202443
 30
0.0
 10
110.1194241221404
 20
270.4853723104439
 30
0.0
 10
110.3022380385577
 20
270.7884401159053
 30
0.0
 10
110.5141012342791
 20
271.0718468648573
 30
0.0
 10
110.713035673489
 20
271.2895614639481
 30
0.0
 10
110.8844161486386
 20
271.4512230330023
 30
0.0
 10
111.0188426723983
 20
271.5660536826637
 30
0.0
 10
111.1587609393423
 20
271.6741610047087
 30
0.0
 10
111.3522152913444
 20
271.8089766124058
 30
0.0
 10
111.6062600899653
 20
271.9594061186911
 30
0.0
 10
111.9272885045391
 20
272.1093346372031
 30
0.0
 10
112.2615473677195
 20
272.2271643169359
 30
0.0
 10
112.605648176534
 20
272.3119245518404
 30
0.0
 10
112.9562999806729
 20
272.3627685675069
 30
0.0
 10
113.3099565097656
 20
272.3793826768781
 30
0.0
 10
113.663328494892
 20
272.3615214143115
 30
0.0
 10
114.0127605628619
 20
272.3095610928769
 30
0.0
 10
114.3551513008626
 20
272.2238475562153
 30
0.0
 10
114.687037712572
 20
272.1054013461423
 30
0.0
 10
115.0054252272518
 20
271.9551462161044
 30
0.0
 10
115.2570616034126
 20
271.8047345679745
 30
0.0
 10
115.4485574968182
 20
271.6700615000403
 30
0.0
 10
115.5870084293862
 20
271.5621404643245
 30
0.0
 10
115.7200065432164
 20
271.4475681793376
 30
0.0
 10
115.8896372558795
 20
271.286248737443
 30
0.0
 10
116.0865080609196
 20
271.0690690662761
 30
0.0
 10
116.2962348014463
 20
270.7863213246313
 30
0.0
 10
116.477195144793
 20
270.4839429169794
 30
0.0
 10
116.627826963039
 20
270.1647522477817
 30
0.0
 10
116.7466587620021
 20
269.831978581853
 30
0.0
 10
116.8319039011627
 20
269.4885939553999
 30
0.0
 10
116.885739061136
 20
269.138283189895
 30
0.0
 10
116.8923892904937
 20
268.9023378666354
 30
0.0
 10
116.8957126691
 20
268.7844267996
 30
0.0
 11
109.6972158459
 21
268.7844267996
 31
0.0
 11
109.7145890097162
 21
269.1376625400169
 31
0.0
 11
109.7668395788376
 21
269.4878317080148
 31
0.0
 11
109.8531684528062
 21
269.830811243811
 31
0.0
 11
109.972769348229
 21
270.1635223655572
 31
0.0
 11
110.1245462015663
 21
270.4825956724132
 31
0.0
 11
110.3071039257468
 21
270.7851982076209
 31
0.0
 11
110.5186156204144
 21
271.068202730029
 31
0.0
 11
110.7568429827741
 21
271.3288779487445
 31
0.0
 11
110.8854017364472
 21
271.450156804211
 31
0.0
 11
111.0197377618888
 21
271.5649169089324
 31
0.0
 11
111.1596021792359
 21
271.6729796717099
 31
0.0
 11
111.3046596474803
 21
271.7740620140905
 31
0.0
 11
111.6088910836314
 21
271.9542746424059
 31
0.0
 11
111.9294372796493
 21
272.1039611844145
 31
0.0
 11
112.2632060371956
 21
272.221657355725
 31
0.0
 11
112.6068057040095
 21
272.3062848306226
 31
0.0
 11
112.9568415986991
 21
272.3570661511932
 31
0.0
 11
113.3101670352799
 21
272.3736362361735
 31
0.0
 11
113.6627687611126
 21
272.3558277555666
 31
0.0
 11
114.0119578382055
 21
272.3038619094792
 31
0.0
 11
114.3534785895075
 21
272.2183689933685
 31
0.0
 11
114.6850809658042
 21
272.0999780978919
 31
0.0
 11
115.0027896055813
 21
271.9500545417537
 31
0.0
 11
115.3041514197606
 21
271.7698485482272
 31
0.0
 11
115.4477173853704
 21
271.6688928697733
 31
0.0
 11
115.586100717726
 21
271.561031221472
 31
0.0
 11
115.7190255954259
 21
271.4465154451506
 31
0.0
 11
115.8461982199415
 21
271.3255634128957
 31
0.0
 11
116.0820163317752
 21
271.0654718158397
 31
0.0
 11
116.2912498289594
 21
270.7833337440001
 31
0.0
 11
116.4721047182002
 21
270.4812083479524
 31
0.0
 11
116.6223822828546
 21
270.1628396901675
 31
0.0
 11
116.7410189966271
 21
269.8303477690968
 31
0.0
 11
116.8266076056751
 21
269.487739069681
 31
0.0
 11
116.8784348105642
 21
269.1375944632526
 31
0.0
 11
116.8957126691
 21
268.7844267996
 31
0.0
  0
SPLINE
  5
10A
330
1F
100
AcDbEntity
  8
0
  6
Continuous
 62
     7
100
AcDbSpline
210
0.0
220
0.0
230
1.0
 70
     8
 71
     3
 72
    25
 73
    21
 74
    19
 42
0.0000000001
 43
0.0000000001
 44
0.00000001
 40
0.0
 40
0.0
 40
0.0
 40
0.0
 40
0.1085285491093447
 40
0.2170554557460481
 40
0.2713241333308063
 40
0.3255921109597178
 40
0.3798650579586593
 40
0.4341347749082967
 40
0.4884007824985937
 40
0.5426855351807162
 40
0.5969918906639079
 40
0.6512511253246596
 40
0.6784124281673928
 40
0.7055751105440892
 40
0.7327602081445734
 40
0.7599421722782536
 40
0.7871532997811661
 40
0.8143760192138416
 40
0.841652575857614
 40
0.8688563236877813
 40
0.8688563236877813
 40
0.8688563236877813
 40
0.8688563236877813
 10
140.4304994048
 20
274.4019267996
 30
0.0
 10
140.4191629813866
 20
274.367569759021
 30
0.0
 10
140.3964903061255
 20
274.2988561978228
 30
0.0
 10
140.3645152862046
 20
274.2142206766147
 30
0.0
 10
140.336968227763
 20
274.147311194193
 30
0.0
 10
140.3150831164032
 20
274.0976427244175
 30
0.0
 10
140.2918526922999
 20
274.0485870652017
 30
0.0
 10
140.2670384602455
 20
274.0003106458611
 30
0.0
 10
140.2404185444189
 20
273.9529954444766
 30
0.0
 10
140.2115911886685
 20
273.906968571774
 30
0.0
 10
140.1802147741364
 20
273.8626278552654
 30
0.0
 10
140.1512778389575
 20
273.827764780375
 30
0.0
 10
140.1261611189555
 20
273.8016812755877
 30
0.0
 10
140.1061754424817
 20
273.7832485382702
 30
0.0
 10
140.0849475753992
 20
273.7662360260567
 30
0.0
 10
140.0623292319629
 20
273.7510761887183
 30
0.0
 10
140.038275186091
 20
273.7382332247323
 30
0.0
 10
140.012812717307
 20
273.7284162465631
 30
0.0
 10
139.9862149272647
 20
273.7218882960692
 30
0.0
 10
139.9680397174898
 20
273.721016830207
 30
0.0
 10
139.9589642575
 20
273.7205816796
 30
0.0
 11
140.4304994048
 21
274.4019267996
 31
0.0
 11
140.3957634018485
 21
274.2991072680375
 31
0.0
 11
140.3574655965315
 21
274.1975623638225
 31
0.0
 11
140.336764258186
 21
274.1473971970481
 31
0.0
 11
140.3148596083903
 21
274.0977464194785
 31
0.0
 11
140.2915881922357
 21
274.048715878322
 31
0.0
 11
140.2667372581245
 21
274.000470326697
 31
0.0
 11
140.2400548972693
 21
273.9532172717801
 31
0.0
 11
140.2111700439796
 21
273.9072553350912
 31
0.0
 11
140.1796480128536
 21
273.8630338267547
 31
0.0
 11
140.1448456107438
 21
273.8214062234924
 31
0.0
 11
140.1259729079705
 21
273.8018727275906
 31
0.0
 11
140.1059749416209
 21
273.7834908708896
 31
0.0
 11
140.0847171669757
 21
273.7665457669159
 31
0.0
 11
140.0621001033066
 21
273.7514683797034
 31
0.0
 11
140.0380487776136
 21
273.7387412750684
 31
0.0
 11
140.0126401586223
 21
273.7289699632698
 31
0.0
 11
139.9860810394123
 21
273.7227551640673
 31
0.0
 11
139.9589642575
 21
273.7205816796
 31
0.0
  0
SPLINE
  5
10B
330
1F
100
AcDbEntity
  8
0
  6
Continuous
 62
     7
100
AcDbSpline
210
0.0
220
0.0
230
1.0
 70
     8
 71
     3
 72
    25
 73
    21
 74
    19
 42
0.0000000001
 43
0.0000000001
 44
0.00000001
 40
0.0
 40
0.0
 40
0.0
 40
0.0
 40
0.0272067661192253
 40
0.0544881809140336
 40
0.0817226175246181
 40
0.1089430469915258
 40
0.1361366761129396
 40
0.163335163236474
 40
0.1904968256671682
 40
0.2176561384405325
 40
0.2719142874063963
 40
0.3262206322599431
 40
0.3804997303634012
 40
0.434759664620474
 40
0.4890233385782703
 40
0.543290387316932
 40
0.5975530058673607
 40
0.6518162746496208
 40
0.7603346281841854
 40
0.8688546603744133
 40
0.8688546603744133
 40
0.8688546603744133
 40
0.8688546603744133
 10
137.6339642575
 20
273.7205816796
 30
0.0
 10
137.6248878011776
 20
273.7210186698872
 30
0.0
 10
137.6067099849689
 20
273.7218938494553
 30
0.0
 10
137.5801085830305
 20
273.7284327720045
 30
0.0
 10
137.5546343435621
 20
273.7382412935293
 30
0.0
 10
137.5305648424831
 20
273.7510797944161
 30
0.0
 10
137.5079419899571
 20
273.7662544151409
 30
0.0
 10
137.4867172926904
 20
273.7832834542357
 30
0.0
 10
137.4667320944946
 20
273.8017215009023
 30
0.0
 10
137.4416161448411
 20
273.82780386966
 30
0.0
 10
137.4126833477103
 20
273.8626692514641
 30
0.0
 10
137.3813139557474
 20
273.9070120858904
 30
0.0
 10
137.3524905347264
 20
273.9530367178749
 30
0.0
 10
137.3258735427312
 20
274.0003467627578
 30
0.0
 10
137.3010625494679
 20
274.0486181011847
 30
0.0
 10
137.2778350883814
 20
274.097668776982
 30
0.0
 10
137.2559522501408
 20
274.1473321729894
 30
0.0
 10
137.2284074770283
 20
274.2142356323883
 30
0.0
 10
137.1964353564756
 20
274.29886424068
 30
0.0
 10
137.1737645840733
 20
274.3675724361551
 30
0.0
 10
137.1624291102
 20
274.4019267996
 30
0.0
 11
137.6339642575
 21
273.7205816796
 31
0.0
 11
137.6068449496728
 21
273.7227614194107
 31
0.0
 11
137.5802823047611
 21
273.728982471452
 31
0.0
 11
137.5548597543774
 21
273.7387501973636
 31
0.0
 11
137.5307965446044
 21
273.7514747294093
 31
0.0
 11
137.5081737034225
 21
273.7665644783023
 31
0.0
 11
137.4869131338715
 21
273.7835275524392
 31
0.0
 11
137.4669195381489
 21
273.8019126560853
 31
0.0
 11
137.4480488556557
 21
273.8214453367145
 31
0.0
 11
137.413250577826
 21
273.863074972664
 31
0.0
 11
137.3817333913684
 21
273.9072999209303
 31
0.0
 11
137.3528537647189
 21
273.9532584637217
 31
0.0
 11
137.3261747951945
 21
274.0005064589246
 31
0.0
 11
137.301327042065
 21
274.0487468514999
 31
0.0
 11
137.2780585709015
 21
274.0977722615289
 31
0.0
 11
137.2561561666899
 21
274.1474181723545
 31
0.0
 11
137.2354568212867
 21
274.197578310301
 31
0.0
 11
137.1971621875149
 21
274.2991152694742
 31
0.0
 11
137.1624291102
 21
274.4019267996
 31
0.0
  0
SPLINE
  5
10C
330
1F
100
AcDbEntity
  8
0
  6
Continuous
 62
     7
100
AcDbSpline
210
0.0
220
0.0
230
1.0
 70
     8
 71
     3
 72
    25
 73
    21
 74
    19
 42
0.0000000001
 43
0.0000000001
 44
0.00000001
 40
0.0
 40
0.0
 40
0.0
 40
0.0
 40
0.1085025557022571
 40
0.21700336206443
 40
0.2712583158178806
 40
0.3255127643265397
 40
0.3797719179362232
 40
0.4340272286554572
 40
0.488278889270772
 40
0.5425511686063513
 40
0.5968541104918661
 40
0.6511051290027547
 40
0.6782579264622914
 40
0.7054161158262152
 40
0.7326228693194963
 40
0.7598194768438818
 40
0.7870692643382445
 40
0.814340477644343
 40
0.841635645881727
 40
0.8688504929986165
 40
0.8688504929986165
 40
0.8688504929986165
 40
0.8688504929986165
 10
137.1624291102
 20
263.1669267996
 30
0.0
 10
137.1737627607502
 20
263.2012756294482
 30
0.0
 10
137.196429879123
 20
263.2699727353531
 30
0.0
 10
137.2283966034629
 20
263.354587926097
 30
0.0
 10
137.2559364877319
 20
263.4214811269437
 30
0.0
 10
137.277815107927
 20
263.4711374915211
 30
0.0
 10
137.3010372714829
 20
263.5201816561439
 30
0.0
 10
137.3258429052088
 20
263.5684465727994
 30
0.0
 10
137.3524557380828
 20
263.6157499810611
 30
0.0
 10
137.3812708093704
 20
263.6617723280621
 30
0.0
 10
137.4126213265334
 20
263.7061212070229
 30
0.0
 10
137.4415461620922
 20
263.7409868482343
 30
0.0
 10
137.4666681425943
 20
263.7670556117677
 30
0.0
 10
137.4866505833339
 20
263.7854948107322
 30
0.0
 10
137.5078524364456
 20
263.80255546174
 30
0.0
 10
137.5304719826399
 20
263.8177618528697
 30
0.0
 10
137.5545788187848
 20
263.8305833319336
 30
0.0
 10
137.5800884711119
 20
263.8403681210618
 30
0.0
 10
137.6067001053521
 20
263.8469423287178
 30
0.0
 10
137.6248851387344
 20
263.847829158157
 30
0.0
 10
137.6339642575
 20
263.8482719195
 30
0.0
 11
137.1624291102
 21
263.1669267996
 31
0.0
 11
137.1971565418923
 21
263.269721790149
 31
0.0
 11
137.2354445812111
 21
263.3712424827509
 31
0.0
 11
137.2561402688072
 21
263.4213951349411
 31
0.0
 11
137.2780383740176
 21
263.4710340125591
 31
0.0
 11
137.3013018254664
 21
263.5200530657643
 31
0.0
 11
137.3261443134533
 21
263.568286762822
 31
0.0
 11
137.3528178780253
 21
263.6155283084418
 31
0.0
 11
137.381687832608
 21
263.6614848751834
 31
0.0
 11
137.413190979015
 21
263.7057156479991
 31
0.0
 11
137.4479822953793
 21
263.7473418094256
 31
0.0
 11
137.4668531882388
 21
263.7668652264566
 31
0.0
 11
137.486839729753
 21
263.785252869259
 31
0.0
 11
137.5080873373234
 21
263.802245414924
 31
0.0
 11
137.530701534475
 21
263.8173534772758
 31
0.0
 11
137.554801178044
 21
263.8300718929922
 31
0.0
 11
137.5802664735408
 21
263.8398308786182
 31
0.0
 11
137.6068384366361
 21
263.8460724318197
 31
0.0
 11
137.6339642575
 21
263.8482719195
 31
0.0
  0
SPLINE
  5
10D
330
1F
100
AcDbEntity
  8
0
  6
Continuous
 62
     7
100
AcDbSpline
210
0.0
220
0.0
230
1.0
 70
     8
 71
     3
 72
    25
 73
    21
 74
    19
 42
0.0000000001
 43
0.0000000001
 44
0.00000001
 40
0.0
 40
0.0
 40
0.0
 40
0.0
 40
0.0272074181306614
 40
0.0544897103862166
 40
0.0817252615892965
 40
0.1089465264524441
 40
0.1361394923251726
 40
0.1633375027461332
 40
0.1904999127925956
 40
0.2176598701190416
 40
0.2719180516886416
 40
0.3262245620903759
 40
0.3805032120022382
 40
0.4347626393612328
 40
0.4890258447274873
 40
0.5432924465386018
 40
0.5975546789507017
 40
0.6518175542133291
 40
0.760335129693721
 40
0.8688543878658352
 40
0.8688543878658352
 40
0.8688543878658352
 40
0.8688543878658352
 10
139.9589642575
 20
263.8482719195
 30
0.0
 10
139.9680409303623
 20
263.8478346790162
 30
0.0
 10
139.9862192548605
 20
263.8469589947738
 30
0.0
 10
140.0128211280904
 20
263.8404184529188
 30
0.0
 10
140.0382965848066
 20
263.8306107143667
 30
0.0
 10
140.0623671083884
 20
263.8177730851442
 30
0.0
 10
140.0849894801281
 20
263.8025978466074
 30
0.0
 10
140.1062133357145
 20
263.7855679977187
 30
0.0
 10
140.1261986910782
 20
263.7671296988515
 30
0.0
 10
140.1513151949251
 20
263.7410471966598
 30
0.0
 10
140.180247792131
 20
263.7061812471181
 30
0.0
 10
140.2116163852675
 20
263.6618379636634
 30
0.0
 10
140.2404395362951
 20
263.6158134866863
 30
0.0
 10
140.2670564158113
 20
263.5685039221044
 30
0.0
 10
140.2918671458563
 20
263.520232979231
 30
0.0
 10
140.3150943214544
 20
263.4711826488647
 30
0.0
 10
140.3369769579668
 20
263.4215196114258
 30
0.0
 10
140.364521525688
 20
263.3546166290843
 30
0.0
 10
140.3964934053386
 20
263.2699886233423
 30
0.0
 10
140.4191640130576
 20
263.2012809184115
 30
0.0
 10
140.4304994048
 20
263.1669267996
 30
0.0
 11
139.9589642575
 21
263.8482719195
 31
0.0
 11
139.9860841485246
 21
263.8460912975362
 31
0.0
 11
140.0126474448723
 21
263.8398691790977
 31
0.0
 11
140.0380713017872
 21
263.8301017460209
 31
0.0
 11
140.0621356609253
 21
263.8173776004693
 31
0.0
 11
140.0847576641243
 21
263.8022877905229
 31
0.0
 11
140.1060172959772
 21
263.7853243054936
 31
0.0
 11
140.126011306461
 21
263.766938548389
 31
0.0
 11
140.1448825190902
 21
263.7474054837069
 31
0.0
 11
140.1796804849914
 21
263.7057755445239
 31
0.0
 11
140.2111971675287
 21
263.6615500338558
 31
0.0
 11
140.2400763612717
 21
263.6155917483676
 31
0.0
 11
140.2667551322166
 21
263.5683442231606
 31
0.0
 11
140.2916026434012
 21
263.5201042330636
 31
0.0
 11
140.3148708427166
 21
263.4710791887215
 31
0.0
 11
140.3367730490249
 21
263.4214336126329
 31
0.0
 11
140.3574722332212
 21
263.3712738338717
 31
0.0
 11
140.3957665807307
 21
263.2697375982857
 31
0.0
 11
140.4304994048
 21
263.1669267996
 31
0.0
  0
SPLINE
  5
10E
330
1F
100
AcDbEntity
  8
0
  6
Continuous
 62
     7
100
AcDbSpline
210
0.0
220
0.0
230
1.0
 70
     8
 71
     3
 72
    27
 73
    23
 74
    21
 42
0.0000000001
 43
0.0000000001
 44
0.00000001
 40
0.0
 40
0.0
 40
0.0
 40
0.0
 40
0.0679422773459755
 40
0.1359904672704982
 40
0.1960311418289713
 40
0.2558288644337141
 40
0.2829045759171629
 40
0.3099751665570318
 40
0.3357621418723053
 40
0.361545007730817
 40
0.386887481329728
 40
0.4122310013044455
 40
0.4380221513936157
 40
0.4638182098561954
 40
0.5190828347596215
 40
0.5745822154569097
 40
0.636600318802947
 40
0.6985580375275611
 40
0.7666673008817353
 40
0.8347923375649006
 40
0.9078434200351252
 40
0.9808740974227235
 40
0.9808740974227235
 40
0.9808740974227235
 40
0.9808740974227235
 10
95.8964642575
 20
276.3292106914
 30
0.0
 10
95.89693201755779
 20
276.3518674325036
 30
0.0
 10
95.89786826684634
 20
276.3972162334249
 30
0.0
 10
95.90698518828385
 20
276.4621043079973
 30
0.0
 10
95.92272774623419
 20
276.5228687993126
 30
0.0
 10
95.94229499005827
 20
276.5680895729158
 30
0.0
 10
95.96231551447568
 20
276.6004272835739
 30
0.0
 10
95.97861709885878
 20
276.6215723888796
 30
0.0
 10
95.99688666118283
 20
276.6404464752977
 30
0.0
 10
96.01676001063821
 20
276.6567399615066
 30
0.0
 10
96.03833105999989
 20
276.6704325401163
 30
0.0
 10
96.06134943932072
 20
276.6815204024969
 30
0.0
 10
96.08564185418669
 20
276.6899079583384
 30
0.0
 10
96.12041699474887
 20
276.6978688130461
 30
0.0
 10
96.16613597436034
 20
276.7010366999459
 30
0.0
 10
96.22364253668056
 20
276.6955252747865
 30
0.0
 10
96.2820858989171
 20
276.6820090628173
 30
0.0
 10
96.3425757380253
 20
276.6607438674558
 30
0.0
 10
96.4028970656107
 20
276.6336242238583
 30
0.0
 10
96.46426432447383
 20
276.6003563264159
 30
0.0
 10
96.52503232824968
 20
276.5627644520052
 30
0.0
 10
96.56470261549975
 20
276.5345098388423
 30
0.0
 10
96.5845349885
 20
276.5203845056
 30
0.0
 11
95.8964642575
 21
276.3292106914
 31
0.0
 11
95.89921252259265
 21
276.3970973623299
 31
0.0
 11
95.90870531320924
 21
276.4644801722914
 31
0.0
 11
95.92423413686996
 21
276.5224779156712
 31
0.0
 11
95.9484031904284
 21
276.5771736602845
 31
0.0
 11
95.96269869158954
 21
276.600167850831
 31
0.0
 11
95.97927230853163
 21
276.6215718714591
 31
0.0
 11
95.99722380191388
 21
276.6400843532284
 31
0.0
 11
96.01718195749812
 21
276.6564069816182
 31
0.0
 11
96.038570175853
 21
276.6700005493514
 31
0.0
 11
96.06140043701303
 21
276.6810038752155
 31
0.0
 11
96.08576514728006
 21
276.6894622625634
 31
0.0
 11
96.11090305057274
 21
276.6952521200964
 31
0.0
 11
96.16600324772887
 21
276.6995120542593
 31
0.0
 11
96.22128441573811
 21
276.6945953763854
 31
0.0
 11
96.28177288850297
 21
276.6809063367838
 31
0.0
 11
96.34032706631284
 21
276.6606537524902
 31
0.0
 11
96.40251310556205
 21
276.6328730347683
 31
0.0
 11
96.46250646266141
 21
276.6005958334176
 31
0.0
 11
96.52459513636377
 21
276.5621061302757
 31
0.0
 11
96.5845349885
 21
276.5203845056
 31
0.0
  0
SPLINE
  5
10F
330
1F
100
AcDbEntity
  8
0
  6
Continuous
 62
     7
100
AcDbSpline
210
0.0
220
0.0
230
1.0
 70
     8
 71
     3
 72
    11
 73
     7
 74
     5
 42
0.0000000001
 43
0.0000000001
 44
0.00000001
 40
0.0
 40
0.0
 40
0.0
 40
0.0
 40
0.0720335617160895
 40
0.144173462042369
 40
0.216359359360702
 40
0.2883296529021716
 40
0.2883296529021716
 40
0.2883296529021716
 40
0.2883296529021716
 10
96.5845349885
 20
276.5203845056
 30
0.0
 10
96.60404104198057
 20
276.5344369756452
 30
0.0
 10
96.64308194449988
 20
276.5625626605121
 30
0.0
 10
96.70732386919025
 20
276.5957886534241
 30
0.0
 10
96.77518706590507
 20
276.6212198470329
 30
0.0
 10
96.82270405458618
 20
276.6290367431291
 30
0.0
 10
96.8464270151
 20
276.6329393456
 30
0.0
 11
96.5845349885
 21
276.5203845056
 31
0.0
 11
96.64399361444991
 21
276.561047828308
 31
0.0
 11
96.70791704119549
 21
276.5944837480978
 31
0.0
 11
96.775828370282
 21
276.6189552652832
 31
0.0
 11
96.8464270151
 21
276.6329393456
 31
0.0
  0
SPLINE
  5
110
330
1F
100
AcDbEntity
  8
FASEN
  6
Continuous
 62
     7
100
AcDbSpline
210
0.0
220
0.0
230
1.0
 70
     8
 71
     3
 72
    41
 73
    37
 74
    35
 42
0.0000000001
 43
0.0000000001
 44
0.00000001
 40
0.0
 40
0.0
 40
0.0
 40
0.0
 40
0.3535888544150501
 40
0.7075507289741416
 40
1.060684840956127
 40
1.413709983437733
 40
1.76577991810294
 40
2.117876005241545
 40
2.469055569702926
 40
2.820227711314033
 40
3.17108442529653
 40
3.521941346661877
 40
3.873160085256361
 40
4.224381765450542
 40
4.576461723113152
 40
4.928542604221216
 40
5.281581803870631
 40
5.634626310512966
 40
5.988339657487911
 40
6.342041478564384
 40
6.69590839707552
 40
7.049820838113522
 40
7.403595216312525
 40
7.757194007914246
 40
7.93399442810475
 40
8.110739696157918
 40
8.287420502908777
 40
8.46415745665714
 40
8.817287503288426
 40
9.170592253370192
 40
9.523997521637686
 40
9.877334047517449
 40
10.2308931070041
 40
10.58456791526707
 40
10.93860935642249
 40
11.29227461520271
 40
11.29227461520271
 40
11.29227461520271
 40
11.29227461520271
 10
116.8957126691
 20
268.7844267996
 30
0.0
 10
116.8924040588903
 20
268.6665152074146
 30
0.0
 10
116.8857833480378
 20
268.4305676316822
 30
0.0
 10
116.8319065151331
 20
268.0802626873776
 30
0.0
 10
116.7466732269881
 20
267.7368766636503
 30
0.0
 10
116.6278447612949
 20
267.4040954567255
 30
0.0
 10
116.4771820762149
 20
267.0849199378562
 30
0.0
 10
116.2962321293192
 20
266.7825741927091
 30
0.0
 10
116.0865309686726
 20
266.4997946342513
 30
0.0
 10
115.850369793802
 20
266.2392609176002
 30
0.0
 10
115.5897503596319
 20
266.0033577420331
 30
0.0
 10
115.3072486060738
 20
265.7941297887205
 30
0.0
 10
115.0054065883918
 20
265.6136855702333
 30
0.0
 10
114.6870083605234
 20
265.4634352117407
 30
0.0
 10
114.3551486920649
 20
265.3450110409386
 30
0.0
 10
114.0127577363519
 20
265.2592905605248
 30
0.0
 10
113.6633191417967
 20
265.2073284631938
 30
0.0
 10
113.30994774485
 20
265.1894716253475
 30
0.0
 10
112.9562932113281
 20
265.2060856831097
 30
0.0
 10
112.6056411976242
 20
265.2569297329688
 30
0.0
 10
112.2615417996411
 20
265.3416970877439
 30
0.0
 10
111.9272843376652
 20
265.4595286913822
 30
0.0
 10
111.6062495936565
 20
265.6094419692344
 30
0.0
 10
111.3522033043541
 20
265.7598684508451
 30
0.0
 10
111.1587616929833
 20
265.8946988695313
 30
0.0
 10
111.0188532356372
 20
266.0028162068154
 30
0.0
 10
110.8844284883858
 20
266.1176477338464
 30
0.0
 10
110.713043733018
 20
266.2793026516879
 30
0.0
 10
110.5140977947371
 20
266.4970016700925
 30
0.0
 10
110.3022240912541
 20
266.7803969949899
 30
0.0
 10
110.1194250671971
 20
267.0834735226734
 30
0.0
 10
109.96739188707
 20
267.4031545102781
 30
0.0
 10
109.847492403268
 20
267.7363884124402
 30
0.0
 10
109.7615419714268
 20
268.0800005611029
 30
0.0
 10
109.7072645324431
 20
268.4304904518381
 30
0.0
 10
109.7005642208947
 20
268.6664898322673
 30
0.0
 10
109.6972158459
 20
268.7844267996
 30
0.0
 11
116.8957126691
 21
268.7844267996
 31
0.0
 11
116.8784648417727
 21
268.4312588644487
 31
0.0
 11
116.82661878128
 21
268.0811146160984
 31
0.0
 11
116.7410328135235
 21
267.7385088030005
 31
0.0
 11
116.6223956531737
 21
267.4060152310201
 31
0.0
 11
116.4720901097274
 21
267.0876420498247
 31
0.0
 11
116.2912427591331
 21
266.7855395997166
 31
0.0
 11
116.0820769676003
 21
266.503446072411
 31
0.0
 11
115.8462063441947
 21
266.2432789683066
 31
0.0
 11
115.5861065351646
 21
266.007803867523
 31
0.0
 11
115.3041424882456
 21
265.7990052671564
 31
0.0
 11
115.002708701664
 21
265.6187491309308
 31
0.0
 11
114.685073578923
 21
265.4688671859217
 31
0.0
 11
114.3534905292998
 21
265.3504907617896
 31
0.0
 11
114.0119491223047
 21
265.2649898018556
 31
0.0
 11
113.6627556425734
 21
265.2130225987154
 31
0.0
 11
113.3101604149921
 21
265.1952172861024
 31
0.0
 11
112.9568354345665
 21
265.2117880445485
 31
0.0
 11
112.6067981649828
 21
265.2625707988576
 31
0.0
 11
112.2632007665028
 21
265.3472030845076
 31
0.0
 11
111.9294319396313
 21
265.4648992447266
 31
0.0
 11
111.6088804937487
 21
265.6145758334525
 31
0.0
 11
111.3046512493852
 21
265.7947886862023
 31
0.0
 11
111.1596031349037
 21
265.8958798978129
 31
0.0
 11
111.0197476783927
 21
266.003950897916
 31
0.0
 11
110.8854131849312
 21
266.1187130490834
 31
0.0
 11
110.7568508132512
 21
266.2399882213499
 31
0.0
 11
110.5186123197807
 21
266.5006474818083
 31
0.0
 11
110.3070955496907
 21
266.7836402421415
 31
0.0
 11
110.1245482501873
 21
267.0862485154641
 31
0.0
 11
109.9727813304353
 21
267.4053307973128
 31
0.0
 11
109.8531728221116
 21
267.7380436063263
 31
0.0
 11
109.7668474188855
 21
268.0810214405338
 31
0.0
 11
109.7146258187178
 21
268.4311903234051
 31
0.0
 11
109.6972158459
 21
268.7844267996
 31
0.0
  0
SPLINE
  5
111
330
1F
100
AcDbEntity
  8
RUNDUNGEN
  6
Continuous
 62
     7
100
AcDbSpline
210
0.0
220
0.0
230
1.0
 70
     8
 71
     3
 72
    17
 73
    13
 74
    11
 42
0.0000000001
 43
0.0000000001
 44
0.00000001
 40
0.0
 40
0.0
 40
0.0
 40
0.0
 40
0.1190059192965873
 40
0.2380814744147321
 40
0.3590691915244199
 40
0.4800850747535622
 40
0.60449064605829
 40
0.7286521944544138
 40
0.7922003881959334
 40
0.8557409872222694
 40
0.919815832197231
 40
0.9838416202226558
 40
0.9838416202226558
 40
0.9838416202226558
 40
0.9838416202226558
 10
99.9145224337
 20
261.1344267996
 30
0.0
 10
99.89117673298573
 20
261.1023302685612
 30
0.0
 10
99.84447167091696
 20
261.038118425331
 30
0.0
 10
99.76440520841811
 20
260.9488606312104
 30
0.0
 10
99.67603427945768
 20
260.8668589382733
 30
0.0
 10
99.57710952140069
 20
260.7946522659476
 30
0.0
 10
99.46827544850021
 20
260.7360383230035
 30
0.0
 10
99.36971339650782
 20
260.7011583661838
 30
0.0
 10
99.28766686733479
 20
260.6838114162192
 30
0.0
 10
99.22430394812812
 20
260.6764183536679
 30
0.0
 10
99.16031664586367
 20
260.6744850221721
 30
0.0
 10
99.11774295233263
 20
260.678132807705
 30
0.0
 10
99.0964642575
 20
260.679956002
 30
0.0
 11
99.9145224337
 21
261.1344267996
 31
0.0
 11
99.84289047737714
 21
261.0393937965906
 31
0.0
 11
99.76354649762933
 21
260.9506046040925
 31
0.0
 11
99.67451428958515
 21
260.8686821186432
 31
0.0
 11
99.57656309480943
 21
260.7976158999754
 31
0.0
 11
99.46687679163315
 21
260.7389161464224
 31
0.0
 11
99.34968831893292
 21
260.6978923488616
 31
0.0
 11
99.28750848942441
 21
260.6847758809643
 31
0.0
 11
99.22440408545532
 21
260.6773433898387
 31
0.0
 11
99.16034979611474
 21
260.6757204987027
 31
0.0
 11
99.0964642575
 21
260.679956002
 31
0.0
  0
SPLINE
  5
112
330
1F
100
AcDbEntity
  8
RUNDUNGEN
  6
Continuous
 62
     7
100
AcDbSpline
210
0.0
220
0.0
230
1.0
 70
     8
 71
     3
 72
    15
 73
    11
 74
     9
 42
0.0000000001
 43
0.0000000001
 44
0.00000001
 40
0.0
 40
0.0
 40
0.0
 40
0.0
 40
0.232494753102359
 40
0.4652174309839324
 40
0.6957353317385925
 40
0.9261855606494699
 40
1.155384407784715
 40
1.384632178808614
 40
1.613395801729648
 40
1.842048806074969
 40
1.842048806074969
 40
1.842048806074969
 40
1.842048806074969
 10
100.4964642575
 20
262.8532765528
 30
0.0
 10
100.4943016505315
 20
262.7757530435719
 30
0.0
 10
100.4899743164964
 20
262.6206300254274
 30
0.0
 10
100.4566349781149
 20
262.3906483132354
 30
0.0
 10
100.4056579193264
 20
262.1649160568334
 30
0.0
 10
100.3368822229542
 20
261.9451223765698
 30
0.0
 10
100.2523818483361
 20
261.7313862941577
 30
0.0
 10
100.1532334731313
 20
261.5247309266928
 30
0.0
 10
100.0417569678243
 20
261.3245496178756
 30
0.0
 10
99.95692710684615
 20
261.1977908541949
 30
0.0
 10
99.9145224337
 20
261.1344267996
 30
0.0
 11
100.4964642575
 21
262.8532765528
 31
0.0
 11
100.4854894151173
 21
262.6210409761654
 31
0.0
 11
100.453540139436
 21
262.3905218043298
 31
0.0
 11
100.4026368578464
 21
262.1656944072187
 31
0.0
 11
100.3340990187689
 21
261.9456719705908
 31
0.0
 11
100.2499109085981
 21
261.7324948760567
 31
0.0
 11
100.1510903698517
 21
261.5256397537095
 31
0.0
 11
100.0390950870843
 21
261.3261658160388
 31
0.0
 11
99.9145224337
 21
261.1344267996
 31
0.0
  0
SPLINE
  5
113
330
1F
100
AcDbEntity
  8
RUNDUNGEN
  6
Continuous
 62
     7
100
AcDbSpline
210
0.0
220
0.0
230
1.0
 70
     8
 71
     3
 72
    15
 73
    11
 74
     9
 42
0.0000000001
 43
0.0000000001
 44
0.00000001
 40
0.0
 40
0.0
 40
0.0
 40
0.0
 40
0.1273079847553895
 40
0.2549893803973674
 40
0.3793073350928029
 40
0.5035989687158021
 40
0.6245667031413651
 40
0.7455591721654601
 40
0.8645937372942519
 40
0.9835510381283687
 40
0.9835510381283687
 40
0.9835510381283687
 40
0.9835510381283687
 10
99.0964642575
 20
276.8888975972
 30
0.0
 10
99.13894342713039
 20
276.8913442413086
 30
0.0
 10
99.22402636332372
 20
276.8962447058513
 30
0.0
 10
99.34967271499345
 20
276.8745805183913
 30
0.0
 10
99.46845873222982
 20
276.832941045942
 30
0.0
 10
99.57722538089888
 20
276.7740695571183
 30
0.0
 10
99.67607558612474
 20
276.7018955205594
 30
0.0
 10
99.76446123031465
 20
276.6199421085915
 30
0.0
 10
99.84450611042843
 20
276.5307034127208
 30
0.0
 10
99.89118871112697
 20
276.4665120573779
 30
0.0
 10
99.9145224337
 20
276.4344267996
 30
0.0
 11
99.0964642575
 21
276.8888975972
 31
0.0
 11
99.22374792590443
 21
276.8913857169699
 31
0.0
 11
99.34977919793249
 21
276.870924601065
 31
0.0
 11
99.46713819989516
 21
276.8299146203532
 31
0.0
 11
99.57666648859296
 21
276.771161202039
 31
0.0
 11
99.67455347927663
 21
276.7000884940074
 31
0.0
 11
99.76360717427407
 21
276.6181823466932
 31
0.0
 11
99.84292633549258
 21
276.5294259477183
 31
0.0
 11
99.9145224337
 21
276.4344267996
 31
0.0
  0
SPLINE
  5
114
330
1F
100
AcDbEntity
  8
RUNDUNGEN
  6
Continuous
 62
     7
100
AcDbSpline
210
0.0
220
0.0
230
1.0
 70
     8
 71
     3
 72
    15
 73
    11
 74
     9
 42
0.0000000001
 43
0.0000000001
 44
0.00000001
 40
0.0
 40
0.0
 40
0.0
 40
0.0
 40
0.2286533797765889
 40
0.457417364917627
 40
0.6866651598055779
 40
0.91586404917428
 40
1.14631405794438
 40
1.376831724070454
 40
1.609554238670919
 40
1.842048835038681
 40
1.842048835038681
 40
1.842048835038681
 40
1.842048835038681
 10
99.9145224337
 20
276.4344267996
 30
0.0
 10
99.95692720216613
 20
276.3710626588241
 30
0.0
 10
100.0417572513466
 20
276.2443037264513
 30
0.0
 10
100.1532340265048
 20
276.0441222731324
 30
0.0
 10
100.252382279057
 20
275.8374666809464
 30
0.0
 10
100.3368823879039
 20
275.6237305522908
 30
0.0
 10
100.4056580013463
 20
275.4039369958385
 30
0.0
 10
100.4566350557808
 20
275.1782049490912
 30
0.0
 10
100.4899743381202
 20
274.9482234148084
 30
0.0
 10
100.4943016577173
 20
274.7931005033677
 30
0.0
 10
100.4964642575
 20
274.7155770464
 30
0.0
 11
99.9145224337
 21
276.4344267996
 31
0.0
 11
100.0390953801254
 21
276.2426875258396
 31
0.0
 11
100.1510909182556
 21
276.0432133161369
 31
0.0
 11
100.2499113261841
 21
275.8363581048469
 31
0.0
 11
100.3340992483943
 21
275.6231808906757
 31
0.0
 11
100.4026369579002
 21
275.40315864426
 31
0.0
 11
100.4535402035309
 21
275.1783314795746
 31
0.0
 11
100.4854894416959
 21
274.9478124673811
 31
0.0
 11
100.4964642575
 21
274.7155770464
 31
0.0
  0
SPLINE
  5
115
330
1F
100
AcDbEntity
  8
BEZUGSACHSEN
  6
Continuous
 62
     7
100
AcDbSpline
210
0.0
220
0.0
230
1.0
 70
     8
 71
     3
 72
    23
 73
    19
 74
    17
 42
0.0000000001
 43
0.0000000001
 44
0.00000001
 40
0.0
 40
0.0
 40
0.0
 40
0.0
 40
0.2003166587389408
 40
0.4006396610790482
 40
0.9634887885835373
 40
1.526369921206176
 40
2.359015747409229
 40
3.191711974886363
 40
4.171137804283306
 40
5.150586139732001
 40
6.130034650865301
 40
7.109460655940402
 40
7.942156961101401
 40
8.774802865002432
 40
9.337684103248266
 40
9.900533336452957
 40
10.10085641770165
 40
10.30117315558667
 40
10.30117315558667
 40
10.30117315558667
 40
10.30117315558667
 10
173.1964642575
 20
247.7844267996
 30
0.0
 10
173.2613881379318
 20
247.8000306041724
 30
0.0
 10
173.3912379547961
 20
247.8312387074565
 30
0.0
 10
173.7042828031773
 20
247.9030099639625
 30
0.0
 10
174.1366466733679
 20
247.9951097345676
 30
0.0
 10
174.7783408677371
 20
248.11529684506
 30
0.0
 10
175.5124921318511
 20
248.2291748899765
 30
0.0
 10
176.3884503336655
 20
248.3305670807568
 30
0.0
 10
177.3169334215679
 20
248.3973323324848
 30
0.0
 10
178.2964638776906
 20
248.4210190966651
 30
0.0
 10
179.275994393405
 20
248.3973323672122
 30
0.0
 10
180.2044776260527
 20
248.3305671320725
 30
0.0
 10
181.0804359399606
 20
248.2291749494628
 30
0.0
 10
181.8145872924643
 20
248.1152969064628
 30
0.0
 10
182.4562815836053
 20
247.9951097891174
 30
0.0
 10
182.888645549327
 20
247.9030100024186
 30
0.0
 10
183.201690483548
 20
247.831238726865
 30
0.0
 10
183.3315403514906
 20
247.8000306106481
 30
0.0
 10
183.3964642575
 20
247.7844267996
 30
0.0
 11
173.1964642575
 21
247.7844267996
 31
0.0
 11
173.3913161616425
 21
247.8308972119111
 31
0.0
 11
173.5865555386207
 21
247.8757401705971
 31
0.0
 11
174.1370902494473
 21
247.9928327515223
 31
0.0
 11
174.6903593778492
 21
248.0964109394766
 31
0.0
 11
175.5131940167896
 21
248.2238559427255
 31
0.0
 11
176.3403878909922
 21
248.3194242519942
 31
0.0
 11
177.3172987930647
 21
248.3895672823095
 31
0.0
 11
178.2964638192949
 21
248.4131234539168
 31
0.0
 11
179.2756290220309
 21
248.3895673143304
 31
0.0
 11
180.2525401013665
 21
248.3194242997906
 31
0.0
 11
181.0797340550129
 21
248.2238560012831
 31
0.0
 11
181.9025687733827
 21
248.0964110032315
 31
0.0
 11
182.4558380073092
 21
247.9928328049485
 31
0.0
 11
183.0063728225817
 21
247.8757402070102
 31
0.0
 11
183.2016122765408
 21
247.8308972309856
 31
0.0
 11
183.3964642575
 21
247.7844267996
 31
0.0
  0
SPLINE
  5
116
330
1F
100
AcDbEntity
  8
BEZUGSACHSEN
  6
Continuous
 62
     7
100
AcDbSpline
210
0.0
220
0.0
230
1.0
 70
     8
 71
     3
 72
    15
 73
    11
 74
     9
 42
0.0000000001
 43
0.0000000001
 44
0.00000001
 40
0.0
 40
0.0
 40
0.0
 40
0.0
 40
0.1942981503598032
 40
0.3886012246037984
 40
0.9369792400326773
 40
1.48537492886572
 40
2.300027372161654
 40
3.114746618656919
 40
4.074175664738888
 40
5.033464878728829
 40
5.033464878728829
 40
5.033464878728829
 40
5.033464878728829
 10
132.7964642575
 20
293.7844267996
 30
0.0
 10
132.7329298915688
 20
293.7718543475751
 30
0.0
 10
132.6058595496249
 20
293.7467091249156
 30
0.0
 10
132.2989422513305
 20
293.6888188509139
 30
0.0
 10
131.8749944683722
 20
293.6146183958872
 30
0.0
 10
131.2451981956874
 20
293.5178938086753
 30
0.0
 10
130.5249267122641
 20
293.426348698668
 30
0.0
 10
129.6656767357502
 20
293.3456252621672
 30
0.0
 10
128.7558587112414
 20
293.2902096580178
 30
0.0
 10
128.1162468708985
 20
293.282952527978
 30
0.0
 10
127.7964642575
 20
293.2793242274
 30
0.0
 11
132.7964642575
 21
293.7844267996
 31
0.0
 11
132.6058061530663
 21
293.7469934128044
 31
0.0
 11
132.4148821488161
 21
293.7109142046402
 31
0.0
 11
131.8746924593072
 21
293.6165026208489
 31
0.0
 11
131.3326517927303
 21
293.5332575170439
 31
0.0
 11
130.5244714605394
 21
293.4307726204599
 31
0.0
 11
129.7133568157629
 21
293.3542188247408
 31
0.0
 11
128.7555693493096
 21
293.2981183472856
 31
0.0
 11
127.7964642575
 21
293.2793242274
 31
0.0
  0
SPLINE
  5
117
330
1F
100
AcDbEntity
  8
BEZUGSACHSEN
  6
Continuous
 62
     7
100
AcDbSpline
210
0.0
220
0.0
230
1.0
 70
     8
 71
     3
 72
    15
 73
    11
 74
     9
 42
0.0000000001
 43
0.0000000001
 44
0.00000001
 40
0.0
 40
0.0
 40
0.0
 40
0.0
 40
0.9592794727455696
 40
1.918698757739428
 40
2.733413612636716
 40
3.548061682607802
 40
4.096465872367678
 40
4.644852382997707
 40
4.839161107601004
 40
5.033464909273841
 40
5.033464909273841
 40
5.033464909273841
 40
5.033464909273841
 10
127.7964642575
 20
293.2793242274
 30
0.0
 10
127.4766848917195
 20
293.2829523903592
 30
0.0
 10
126.8370795532277
 20
293.2902092450719
 30
0.0
 10
125.9272694314865
 20
293.3456234814293
 30
0.0
 10
125.068025561442
 20
293.4263459375771
 30
0.0
 10
124.3477541135383
 20
293.5178905856306
 30
0.0
 10
123.7179535817584
 20
293.6146151626935
 30
0.0
 10
123.293998305481
 20
293.6888166019272
 30
0.0
 10
122.9870745037907
 20
293.7467080016472
 30
0.0
 10
122.8600004696737
 20
293.7718539731318
 30
0.0
 10
122.7964642575
 20
293.7844267996
 30
0.0
 11
127.7964642575
 21
293.2793242274
 31
0.0
 11
126.8373688970925
 21
293.2981177495749
 31
0.0
 11
125.879591131042
 21
293.3542169053393
 31
0.0
 11
125.0684808136523
 21
293.4307698139338
 31
0.0
 11
124.2603047459144
 21
293.5332535757857
 31
0.0
 11
123.7182555959611
 21
293.6164994428373
 31
0.0
 11
123.1780574718937
 21
293.7109121103928
 31
0.0
 11
122.9871279050547
 21
293.7469923122164
 31
0.0
 11
122.7964642575
 21
293.7844267996
 31
0.0
  0
SPLINE
  5
118
330
1F
100
AcDbEntity
  8
0
  6
Continuous
 62
     2
100
AcDbSpline
210
0.0
220
0.0
230
1.0
 70
     8
 71
     3
 72
    53
 73
    49
 74
    47
 42
0.0000000001
 43
0.0000000001
 44
0.00000001
 40
0.0
 40
0.0
 40
0.0
 40
0.0
 40
0.0140667580181286
 40
0.0560579349139224
 40
0.1256324161290195
 40
0.2223390663880212
 40
0.3456235600000538
 40
0.4946258474095557
 40
0.6684922981927804
 40
0.8666915484048162
 40
1.088786032938808
 40
1.334374195688689
 40
1.602875222690476
 40
1.892926163646084
 40
2.202804346473454
 40
2.530084224531434
 40
2.872820332424581
 40
3.231646118605114
 40
3.607309365858685
 40
3.99837795003257
 40
4.402641360120008
 40
4.816871014163119
 40
5.237526706999533
 40
5.660771574259307
 40
6.083567724639742
 40
6.506366776084002
 40
6.929617048296082
 40
7.350264070678322
 40
7.764455670009863
 40
8.168654809522767
 40
8.559642491887562
 40
8.935225204625365
 40
9.293986659302254
 40
9.636678329241338
 40
9.963931667061573
 40
10.27378845703905
 40
10.56381180114631
 40
10.83228402979753
 40
11.07785029988912
 40
11.29993398437153
 40
11.49813534357268
 40
11.67201303324762
 40
11.82103069485733
 40
11.9443304330388
 40
12.04104889077037
 40
12.11063154113705
 40
12.15262769367847
 40
12.16669615652317
 40
12.16669615652317
 40
12.16669615652317
 40
12.16669615652317
 10
184.2964642575
 20
247.7844087958
 30
0.0
 10
184.2919566146003
 20
247.7856999678285
 30
0.0
 10
184.2739930474475
 20
247.7908454631479
 30
0.0
 10
184.2337092107105
 20
247.8022882986665
 30
0.0
 10
184.1668933246781
 20
247.8211391225449
 30
0.0
 10
184.073902109219
 20
247.847007174893
 30
0.0
 10
183.9552696546278
 20
247.879486630601
 30
0.0
 10
183.811613716718
 20
247.9179600827386
 30
0.0
 10
183.6435519177589
 20
247.961820207809
 30
0.0
 10
183.4515362808885
 20
248.0103589371255
 30
0.0
 10
183.2358829458678
 20
248.0629094364736
 30
0.0
 10
182.9968982083296
 20
248.1186494741041
 30
0.0
 10
182.7352063698474
 20
248.176697356608
 30
0.0
 10
182.4518529111742
 20
248.2359605596783
 30
0.0
 10
182.1485074139215
 20
248.2952187850248
 30
0.0
 10
181.8270738310932
 20
248.3533228860038
 30
0.0
 10
181.4886941359495
 20
248.4091961261982
 30
0.0
 10
181.1334889413954
 20
248.4618864729108
 30
0.0
 10
180.7614555401748
 20
248.5105698455602
 30
0.0
 10
180.3735461165721
 20
248.5541943074392
 30
0.0
 10
179.972065158581
 20
248.5915255641071
 30
0.0
 10
179.5600854585667
 20
248.6216300450574
 30
0.0
 10
179.1412495038362
 20
248.6435053881227
 30
0.0
 10
178.7191982172558
 20
248.6568587381972
 30
0.0
 10
178.2962436001008
 20
248.6613410055364
 30
0.0
 10
177.8732872751416
 20
248.6568495234815
 30
0.0
 10
177.4512364160449
 20
248.6434865283889
 30
0.0
 10
177.032414683572
 20
248.6216030571294
 30
0.0
 10
176.6204724990204
 20
248.5914929168776
 30
0.0
 10
176.2190530545947
 20
248.5541599388836
 30
0.0
 10
175.8312190009191
 20
248.5105386299712
 30
0.0
 10
175.4592607504449
 20
248.4618610507094
 30
0.0
 10
175.1041183323709
 20
248.4091776231446
 30
0.0
 10
174.7657833584289
 20
248.3533104215318
 30
0.0
 10
174.4443802528945
 20
248.2952108317835
 30
0.0
 10
174.1410595144692
 20
248.2359571991882
 30
0.0
 10
173.8577314261312
 20
248.1766993564885
 30
0.0
 10
173.5960650363772
 20
248.1186572589489
 30
0.0
 10
173.3571001460701
 20
248.0629223731524
 30
0.0
 10
173.141456566743
 20
248.0103748999299
 30
0.0
 10
172.949439976384
 20
247.9618364771107
 30
0.0
 10
172.7813687937987
 20
247.917974392729
 30
0.0
 10
172.6376993068518
 20
247.8794975965733
 30
0.0
 10
172.5190531667652
 20
247.8470145718936
 30
0.0
 10
172.4260506107341
 20
247.8211434793026
 30
0.0
 10
172.3592267128811
 20
247.8022904211942
 30
0.0
 10
172.3189381292808
 20
247.790846181211
 30
0.0
 10
172.3009724416279
 20
247.7857000020426
 30
0.0
 10
172.2964642575
 20
247.7844086558
 30
0.0
 11
184.2964642575
 21
247.7844087958
 31
0.0
 11
184.2829406159155
 21
247.7882798162642
 31
0.0
 11
184.2425511967362
 21
247.7997669288455
 31
0.0
 11
184.1755879907153
 21
247.8186491288165
 31
0.0
 11
184.082421917186
 21
247.8445770856867
 31
0.0
 11
183.9635109269122
 21
247.8771230955384
 31
0.0
 11
183.8195821690043
 21
247.915674286186
 31
0.0
 11
183.6513482079626
 21
247.9595704939971
 31
0.0
 11
183.4591940727266
 21
248.0081475574767
 31
0.0
 11
183.2434109249876
 21
248.0607174463131
 31
0.0
 11
183.0042419899738
 21
248.1165006535285
 31
0.0
 11
182.7421094371713
 21
248.174632626334
 31
0.0
 11
182.4581991506367
 21
248.2340001052181
 31
0.0
 11
182.1540695701873
 21
248.2934112698936
 31
0.0
 11
181.8320056473617
 21
248.3516087629306
 31
0.0
 11
181.4938440963648
 21
248.4074192017493
 31
0.0
 11
181.1389021703469
 21
248.4600706403123
 31
0.0
 11
180.7664127369385
 21
248.5087994545418
 31
0.0
 11
180.3777905775609
 21
248.5524738723225
 31
0.0
 11
179.9752639138264
 21
248.5899063410929
 31
0.0
 11
179.5621328150631
 21
248.6200543347791
 31
0.0
 11
179.1420512746078
 21
248.6420250262659
 31
0.0
 11
178.7190171394509
 21
248.655379357166
 31
0.0
 11
178.2962445827812
 21
248.6598459110436
 31
0.0
 11
177.8734692230991
 21
248.6553700705827
 31
0.0
 11
177.4504299853443
 21
248.6420060798826
 31
0.0
 11
177.0303575749036
 21
248.6200268299958
 31
0.0
 11
176.61726504303
 21
248.5898732055533
 31
0.0
 11
176.2148030498225
 21
248.5524394185891
 31
0.0
 11
175.826261895072
 21
248.5087686179773
 31
0.0
 11
175.4538528231531
 21
248.460046371929
 31
0.0
 11
175.0989748838206
 21
248.4074020034076
 31
0.0
 11
174.7608574030217
 21
248.3515974352806
 31
0.0
 11
174.4388197539919
 21
248.2934037954061
 31
0.0
 11
174.1347112281133
 21
248.2339964323681
 31
0.0
 11
173.8508279515391
 21
248.1746346146008
 31
0.0
 11
173.5887234713596
 21
248.1165090692118
 31
0.0
 11
173.3495757447062
 21
248.0607313151944
 31
0.0
 11
173.1338029446901
 21
248.0081645796434
 31
0.0
 11
172.9416466292416
 21
247.9595875354514
 31
0.0
 11
172.7734016785124
 21
247.9156889304527
 31
0.0
 11
172.6294579954545
 21
247.8771340399801
 31
0.0
 11
172.5105322550306
 21
247.8445841751533
 31
0.0
 11
172.4173547797097
 21
247.8186531482009
 31
0.0
 11
172.3503837087471
 21
247.7997687396538
 31
0.0
 11
172.3099895237199
 21
247.788280195609
 31
0.0
 11
172.2964642575
 21
247.7844086558
 31
0.0
  0
DIMENSION
  5
123
330
1F
100
AcDbEntity
  8
1
100
AcDbDimension
  2
*D2
 10
95.89646425750001
 20
321.649595853821
 30
0.0
 11
150.923574925006
 21
325.399595853821
 31
0.0
 70
    32
  1
<>
 71
     5
 42
-1.0
 53
0.00013888888889
  3
ME10_DIM_10
100
AcDbAlignedDimension
 13
200.7964642575
 23
283.1473565388
 33
0.0
 14
95.8964642575
 24
285.8407825808
 34
0.0
100
AcDbRotatedDimension
  0
DIMENSION
  5
12E
330
1F
100
AcDbEntity
  8
1
100
AcDbDimension
  2
*D3
 10
120.7964642575
 20
313.47376360387
 30
0.0
 11
159.099407174957
 21
317.22376360387
 31
0.0
 70
    32
  1
<>
 71
     5
 42
-1.0
 53
0.00013888888889
  3
ME10_DIM_11
100
AcDbAlignedDimension
 13
200.7964642575
 23
283.1473565388
 33
0.0
 14
120.7964642575
 24
293.7844267996
 34
0.0
100
AcDbRotatedDimension
  0
DIMENSION
  5
139
330
1F
100
AcDbEntity
  8
1
100
AcDbDimension
  2
*D4
 10
200.7964642575
 20
304.699699725874
 30
0.0
 11
172.16079772061
 21
308.449699725874
 31
0.0
 70
    32
  1
<>
 71
     5
 42
-1.0
 53
0.00013888888889
  3
ME10_DIM_12
100
AcDbAlignedDimension
 13
146.7464642575
 23
293.7843767811
 33
0.0
 14
200.7964642575
 24
283.1473565388
 34
0.0
100
AcDbRotatedDimension
  0
DIMENSION
  5
144
330
1F
100
AcDbEntity
  8
1
100
AcDbDimension
  2
*D5
 10
212.031672446058
 20
274.7844267996
 30
0.0
 11
208.281672446058
 21
268.503192671426
 31
0.0
 70
    32
  1
<>
 71
     5
 42
-1.0
 53
90.0
  3
ME10_DIM_13
100
AcDbAlignedDimension
 13
200.7964642575
 23
262.7844267996
 33
0.0
 14
200.7964642575
 24
274.7844267996
 34
0.0
 50
90.0
100
AcDbRotatedDimension
  0
DIMENSION
  5
14F
330
1F
100
AcDbEntity
  8
1
100
AcDbDimension
  2
*D6
 10
222.109066970086
 20
289.7844267996
 30
0.0
 11
218.359066970086
 21
269.162461472063
 31
0.0
 70
    32
  1
<>
 71
     5
 42
-1.0
 53
90.0
  3
ME10_DIM_14
100
AcDbAlignedDimension
 13
187.7077280718
 23
247.7844267996
 33
0.0
 14
187.7077280718
 24
289.7844267996
 34
0.0
 50
90.0
100
AcDbRotatedDimension
  0
INSERT
  5
156
330
1F
100
AcDbEntity
  8
1
100
AcDbBlockReference
  2
*D7
 10
0.0
 20
0.0
 30
0.0
  0
ENDSEC
  0
SECTION
  2
OBJECTS
  0
DICTIONARY
  5
C
330
0
100
AcDbDictionary
281
     1
  3
ACAD_GROUP
350
D
  3
ACAD_LAYOUT
350
1A
  3
ACAD_MLEADERSTYLE
350
159
  3
ACAD_MLINESTYLE
350
17
  3
ACAD_PLOTSETTINGS
350
19
  3
ACAD_PLOTSTYLENAME
350
E
  3
ACAD_SCALELIST
350
4B
  3
ACAD_VISUALSTYLE
350
2A
  3
AcDbVariableDictionary
350
157
  0
DICTIONARY
  5
D
102
{ACAD_REACTORS
330
C
102
}
330
C
100
AcDbDictionary
281
     1
  0
DICTIONARY
  5
1A
102
{ACAD_REACTORS
330
C
102
}
330
C
100
AcDbDictionary
281
     1
  3
Layout1
350
1E
  3
Layout2
350
26
  3
Model
350
22
  0
DICTIONARY
  5
159
102
{ACAD_REACTORS
330
C
102
}
330
C
100
AcDbDictionary
281
     1
  0
DICTIONARY
  5
17
102
{ACAD_REACTORS
330
C
102
}
330
C
100
AcDbDictionary
281
     1
  3
Standard
350
18
  0
DICTIONARY
  5
19
102
{ACAD_REACTORS
330
C
102
}
330
C
100
AcDbDictionary
281
     1
  0
ACDBDICTIONARYWDFLT
  5
E
102
{ACAD_REACTORS
330
C
102
}
330
C
100
AcDbDictionary
281
     1
  3
Normal
350
F
100
AcDbDictionaryWithDefault
340
F
  0
DICTIONARY
  5
4B
102
{ACAD_REACTORS
330
C
102
}
330
C
100
AcDbDictionary
281
     1
  3
A0
350
4C
  3
A1
350
4D
  3
A2
350
4E
  3
A3
350
4F
  3
A4
350
50
  3
A5
350
51
  3
A6
350
52
  3
A7
350
53
  3
A8
350
54
  3
A9
350
55
  3
B0
350
56
  3
B1
350
57
  3
B2
350
58
  3
B3
350
59
  3
B4
350
5A
  3
B5
350
5B
  3
B6
350
5C
  3
B7
350
5D
  3
B8
350
5E
  3
B9
350
5F
  3
C0
350
60
  3
C1
350
61
  3
C2
350
62
  3
C3
350
63
  3
C4
350
64
  3
C5
350
65
  3
C6
350
66
  3
C7
350
67
  3
C8
350
68
  3
C9
350
69
  3
D0
350
6A
  3
D1
350
6B
  3
D2
350
6C
  0
DICTIONARY
  5
2A
102
{ACAD_REACTORS
330
C
102
}
330
C
100
AcDbDictionary
281
     1
  3
2dWireframe
350
2F
  3
3D Hidden
350
31
  3
3dWireframe
350
30
  3
Basic
350
32
  3
Brighten
350
36
  3
ColorChange
350
3A
  3
Conceptual
350
34
  3
Dim
350
35
  3
Facepattern
350
39
  3
Flat
350
2B
  3
FlatWithEdges
350
2C
  3
Gouraud
350
2D
  3
GouraudWithEdges
350
2E
  3
Linepattern
350
38
  3
Realistic
350
33
  3
Thicken
350
37
  0
DICTIONARY
  5
157
102
{ACAD_REACTORS
330
C
102
}
330
C
100
AcDbDictionary
281
     1
  3
CANNOSCALE
350
15A
  0
LAYOUT
  5
1E
102
{ACAD_REACTORS
330
1A
102
}
330
1A
100
AcDbPlotSettings
  1

  2
none_device
  4

  6

 40
0.0
 41
0.0
 42
0.0
 43
0.0
 44
0.0
 45
0.0
 46
0.0
 47
0.0
 48
0.0
 49
0.0
140
0.0
141
0.0
142
1.0
143
1.0
 70
   688
 72
     0
 73
     0
 74
     5
  7

 75
    16
147
1.0
148
0.0
149
0.0
100
AcDbLayout
  1
Layout1
 70
     1
 71
     1
 10
0.0
 20
0.0
 11
12.0
 21
9.0
 12
0.0
 22
0.0
 32
0.0
 14
1.00000000000000E+20
 24
1.00000000000000E+20
 34
1.00000000000000E+20
 15
-1.00000000000000E+20
 25
-1.00000000000000E+20
 35
-1.00000000000000E+20
146
0.0
 13
0.0
 23
0.0
 33
0.0
 16
1.0
 26
0.0
 36
0.0
 17
0.0
 27
1.0
 37
0.0
 76
     0
330
1B
  0
LAYOUT
  5
26
102
{ACAD_REACTORS
330
1A
102
}
330
1A
100
AcDbPlotSettings
  1

  2
none_device
  4

  6

 40
0.0
 41
0.0
 42
0.0
 43
0.0
 44
0.0
 45
0.0
 46
0.0
 47
0.0
 48
0.0
 49
0.0
140
0.0
141
0.0
142
1.0
143
1.0
 70
   688
 72
     0
 73
     0
 74
     5
  7

 75
    16
147
1.0
148
0.0
149
0.0
100
AcDbLayout
  1
Layout2
 70
     1
 71
     2
 10
0.0
 20
0.0
 11
0.0
 21
0.0
 12
0.0
 22
0.0
 32
0.0
 14
0.0
 24
0.0
 34
0.0
 15
0.0
 25
0.0
 35
0.0
146
0.0
 13
0.0
 23
0.0
 33
0.0
 16
1.0
 26
0.0
 36
0.0
 17
0.0
 27
1.0
 37
0.0
 76
     0
330
23
  0
LAYOUT
  5
22
102
{ACAD_REACTORS
330
1A
102
}
330
1A
100
AcDbPlotSettings
  1

  2
none_device
  4

  6

 40
0.0
 41
0.0
 42
0.0
 43
0.0
 44
0.0
 45
0.0
 46
0.0
 47
0.0
 48
0.0
 49
0.0
140
0.0
141
0.0
142
1.0
143
1.0
 70
  1712
 72
     0
 73
     0
 74
     0
  7

 75
     0
147
1.0
148
0.0
149
0.0
100
AcDbLayout
  1
Model
 70
     1
 71
     0
 10
0.0
 20
0.0
 11
12.0
 21
9.0
 12
0.0
 22
0.0
 32
0.0
 14
69.5622506299745
 24
225.2889831606638
 34
0.0
 15
224.109066970086
 25
334.05837007797
 35
0.0
146
0.0
 13
0.0
 23
0.0
 33
0.0
 16
1.0
 26
0.0
 36
0.0
 17
0.0
 27
1.0
 37
0.0
 76
     0
330
1F
331
29
  0
MLINESTYLE
  5
18
102
{ACAD_REACTORS
330
17
102
}
330
17
100
AcDbMlineStyle
  2
Standard
 70
     0
  3

 62
   256
 51
90.0
 52
90.0
 71
     2
 49
0.5
 62
   256
  6
BYLAYER
 49
-0.5
 62
   256
  6
BYLAYER
  0
ACDBPLACEHOLDER
  5
F
102
{ACAD_REACTORS
330
E
102
}
330
E
  0
SCALE
  5
4C
102
{ACAD_REACTORS
330
4B
102
}
330
4B
100
AcDbScale
 70
     0
300
1:1
140
1.0
141
1.0
290
     1
  0
SCALE
  5
4D
102
{ACAD_REACTORS
330
4B
102
}
330
4B
100
AcDbScale
 70
     0
300
1:2
140
1.0
141
2.0
290
     0
  0
SCALE
  5
4E
102
{ACAD_REACTORS
330
4B
102
}
330
4B
100
AcDbScale
 70
     0
300
1:4
140
1.0
141
4.0
290
     0
  0
SCALE
  5
4F
102
{ACAD_REACTORS
330
4B
102
}
330
4B
100
AcDbScale
 70
     0
300
1:5
140
1.0
141
5.0
290
     0
  0
SCALE
  5
50
102
{ACAD_REACTORS
330
4B
102
}
330
4B
100
AcDbScale
 70
     0
300
1:8
140
1.0
141
8.0
290
     0
  0
SCALE
  5
51
102
{ACAD_REACTORS
330
4B
102
}
330
4B
100
AcDbScale
 70
     0
300
1:10
140
1.0
141
10.0
290
     0
  0
SCALE
  5
52
102
{ACAD_REACTORS
330
4B
102
}
330
4B
100
AcDbScale
 70
     0
300
1:16
140
1.0
141
16.0
290
     0
  0
SCALE
  5
53
102
{ACAD_REACTORS
330
4B
102
}
330
4B
100
AcDbScale
 70
     0
300
1:20
140
1.0
141
20.0
290
     0
  0
SCALE
  5
54
102
{ACAD_REACTORS
330
4B
102
}
330
4B
100
AcDbScale
 70
     0
300
1:30
140
1.0
141
30.0
290
     0
  0
SCALE
  5
55
102
{ACAD_REACTORS
330
4B
102
}
330
4B
100
AcDbScale
 70
     0
300
1:40
140
1.0
141
40.0
290
     0
  0
SCALE
  5
56
102
{ACAD_REACTORS
330
4B
102
}
330
4B
100
AcDbScale
 70
     0
300
1:50
140
1.0
141
50.0
290
     0
  0
SCALE
  5
57
102
{ACAD_REACTORS
330
4B
102
}
330
4B
100
AcDbScale
 70
     0
300
1:100
140
1.0
141
100.0
290
     0
  0
SCALE
  5
58
102
{ACAD_REACTORS
330
4B
102
}
330
4B
100
AcDbScale
 70
     0
300
2:1
140
2.0
141
1.0
290
     0
  0
SCALE
  5
59
102
{ACAD_REACTORS
330
4B
102
}
330
4B
100
AcDbScale
 70
     0
300
4:1
140
4.0
141
1.0
290
     0
  0
SCALE
  5
5A
102
{ACAD_REACTORS
330
4B
102
}
330
4B
100
AcDbScale
 70
     0
300
8:1
140
8.0
141
1.0
290
     0
  0
SCALE
  5
5B
102
{ACAD_REACTORS
330
4B
102
}
330
4B
100
AcDbScale
 70
     0
300
10:1
140
10.0
141
1.0
290
     0
  0
SCALE
  5
5C
102
{ACAD_REACTORS
330
4B
102
}
330
4B
100
AcDbScale
 70
     0
300
100:1
140
100.0
141
1.0
290
     0
  0
SCALE
  5
5D
102
{ACAD_REACTORS
330
4B
102
}
330
4B
100
AcDbScale
 70
     0
300
1/128" = 1'-0"
140
0.0078125
141
12.0
290
     0
  0
SCALE
  5
5E
102
{ACAD_REACTORS
330
4B
102
}
330
4B
100
AcDbScale
 70
     0
300
1/64" = 1'-0"
140
0.015625
141
12.0
290
     0
  0
SCALE
  5
5F
102
{ACAD_REACTORS
330
4B
102
}
330
4B
100
AcDbScale
 70
     0
300
1/32" = 1'-0"
140
0.03125
141
12.0
290
     0
  0
SCALE
  5
60
102
{ACAD_REACTORS
330
4B
102
}
330
4B
100
AcDbScale
 70
     0
300
1/16" = 1'-0"
140
0.0625
141
12.0
290
     0
  0
SCALE
  5
61
102
{ACAD_REACTORS
330
4B
102
}
330
4B
100
AcDbScale
 70
     0
300
3/32" = 1'-0"
140
0.09375
141
12.0
290
     0
  0
SCALE
  5
62
102
{ACAD_REACTORS
330
4B
102
}
330
4B
100
AcDbScale
 70
     0
300
1/8" = 1'-0"
140
0.125
141
12.0
290
     0
  0
SCALE
  5
63
102
{ACAD_REACTORS
330
4B
102
}
330
4B
100
AcDbScale
 70
     0
300
3/16" = 1'-0"
140
0.1875
141
12.0
290
     0
  0
SCALE
  5
64
102
{ACAD_REACTORS
330
4B
102
}
330
4B
100
AcDbScale
 70
     0
300
1/4" = 1'-0"
140
0.25
141
12.0
290
     0
  0
SCALE
  5
65
102
{ACAD_REACTORS
330
4B
102
}
330
4B
100
AcDbScale
 70
     0
300
3/8" = 1'-0"
140
0.375
141
12.0
290
     0
  0
SCALE
  5
66
102
{ACAD_REACTORS
330
4B
102
}
330
4B
100
AcDbScale
 70
     0
300
1/2" = 1'-0"
140
0.5
141
12.0
290
     0
  0
SCALE
  5
67
102
{ACAD_REACTORS
330
4B
102
}
330
4B
100
AcDbScale
 70
     0
300
3/4" = 1'-0"
140
0.75
141
12.0
290
     0
  0
SCALE
  5
68
102
{ACAD_REACTORS
330
4B
102
}
330
4B
100
AcDbScale
 70
     0
300
1" = 1'-0"
140
1.0
141
12.0
290
     0
  0
SCALE
  5
69
102
{ACAD_REACTORS
330
4B
102
}
330
4B
100
AcDbScale
 70
     0
300
1-1/2" = 1'-0"
140
1.5
141
12.0
290
     0
  0
SCALE
  5
6A
102
{ACAD_REACTORS
330
4B
102
}
330
4B
100
AcDbScale
 70
     0
300
3" = 1'-0"
140
3.0
141
12.0
290
     0
  0
SCALE
  5
6B
102
{ACAD_REACTORS
330
4B
102
}
330
4B
100
AcDbScale
 70
     0
300
6" = 1'-0"
140
6.0
141
12.0
290
     0
  0
SCALE
  5
6C
102
{ACAD_REACTORS
330
4B
102
}
330
4B
100
AcDbScale
 70
     0
300
1'-0" = 1'-0"
140
12.0
141
12.0
290
     0
  0
VISUALSTYLE
  5
2F
102
{ACAD_REACTORS
330
2A
102
}
330
2A
100
AcDbVisualStyle
  2
2dWireframe
 70
     4
 71
     0
 72
     2
 73
     0
 90
        0
 40
-0.6
 41
-30.0
 62
     5
 63
     7
 74
     1
 91
        4
 64
     7
 65
   257
 75
     1
175
     1
 42
1.0
 92
        0
 66
   257
 43
1.0
 76
     1
 77
     6
 78
     2
 67
     7
 79
     5
170
     0
171
     0
290
     0
174
     0
 93
        1
 44
0.0
173
     0
291
     0
 45
0.0
1001
ACAD
1000
AcDbSavedByObjectVersion
1070
     0
  0
VISUALSTYLE
  5
31
102
{ACAD_REACTORS
330
2A
102
}
330
2A
100
AcDbVisualStyle
  2
3D Hidden
 70
     6
 71
     1
 72
     2
 73
     2
 90
        0
 40
-0.6
 41
-30.0
 62
     5
 63
     7
 74
     2
 91
        2
 64
     7
 65
   257
 75
     2
175
     1
 42
40.0
 92
        0
 66
   257
 43
1.0
 76
     1
 77
     6
 78
     2
 67
     7
 79
     3
170
     0
171
     0
290
     0
174
     0
 93
        1
 44
0.0
173
     0
291
     0
 45
0.0
1001
ACAD
1000
AcDbSavedByObjectVersion
1070
     0
  0
VISUALSTYLE
  5
30
102
{ACAD_REACTORS
330
2A
102
}
330
2A
100
AcDbVisualStyle
  2
3dWireframe
 70
     5
 71
     0
 72
     2
 73
     0
 90
        0
 40
-0.6
 41
-30.0
 62
     5
 63
     7
 74
     1
 91
        4
 64
     7
 65
   257
 75
     1
175
     1
 42
1.0
 92
        0
 66
   257
 43
1.0
 76
     1
 77
     6
 78
     2
 67
     7
 79
     5
170
     0
171
     0
290
     0
174
     0
 93
        1
 44
0.0
173
     0
291
     0
 45
0.0
1001
ACAD
1000
AcDbSavedByObjectVersion
1070
     0
  0
VISUALSTYLE
  5
32
102
{ACAD_REACTORS
330
2A
102
}
330
2A
100
AcDbVisualStyle
  2
Basic
 70
     7
 71
     1
 72
     0
 73
     1
 90
        0
 40
-0.6
 41
-30.0
 62
     5
 63
     7
 74
     0
 91
        4
 64
     7
 65
   257
 75
     1
175
     1
 42
1.0
 92
        8
 66
     7
 43
1.0
 76
     1
 77
     6
 78
     2
 67
     7
 79
     5
170
     0
171
     0
290
     0
174
     0
 93
        1
 44
0.0
173
     0
291
     1
 45
0.0
1001
ACAD
1000
AcDbSavedByObjectVersion
1070
     0
  0
VISUALSTYLE
  5
36
102
{ACAD_REACTORS
330
2A
102
}
330
2A
100
AcDbVisualStyle
  2
Brighten
 70
    12
 71
     2
 72
     2
 73
     0
 90
        0
 40
-0.6
 41
-30.0
 62
     5
 63
     7
 74
     1
 91
        4
 64
     7
 65
   257
 75
     1
175
     1
 42
1.0
 92
        8
 66
     7
 43
1.0
 76
     1
 77
     6
 78
     2
 67
     7
 79
     5
170
     0
171
     0
290
     0
174
     0
 93
        1
 44
50.0
173
     0
291
     1
 45
0.0
1001
ACAD
1000
AcDbSavedByObjectVersion
1070
     0
  0
VISUALSTYLE
  5
3A
102
{ACAD_REACTORS
330
2A
102
}
330
2A
100
AcDbVisualStyle
  2
ColorChange
 70
    16
 71
     2
 72
     2
 73
     3
 90
        0
 40
-0.6
 41
-30.0
 62
     5
 63
     8
 74
     1
 91
        4
 64
     7
 65
   257
 75
     1
175
     1
 42
1.0
 92
        8
 66
     8
 43
1.0
 76
     1
 77
     6
 78
     2
 67
     7
 79
     5
170
     0
171
     0
290
     0
174
     0
 93
        1
 44
0.0
173
     0
291
     1
 45
0.0
1001
ACAD
1000
AcDbSavedByObjectVersion
1070
     0
  0
VISUALSTYLE
  5
34
102
{ACAD_REACTORS
330
2A
102
}
330
2A
100
AcDbVisualStyle
  2
Conceptual
 70
     9
 71
     3
 72
     2
 73
     0
 90
        0
 40
-0.6
 41
-30.0
 62
     5
 63
     7
 74
     2
 91
        2
 64
     7
 65
   257
 75
     1
175
     1
 42
40.0
 92
        8
 66
     7
 43
1.0
 76
     1
 77
     6
 78
     2
 67
     7
 79
     3
170
     0
171
     0
290
     0
174
     0
 93
        1
 44
0.0
173
     0
291
     0
 45
0.0
1001
ACAD
1000
AcDbSavedByObjectVersion
1070
     0
  0
VISUALSTYLE
  5
35
102
{ACAD_REACTORS
330
2A
102
}
330
2A
100
AcDbVisualStyle
  2
Dim
 70
    11
 71
     2
 72
     2
 73
     0
 90
        0
 40
-0.6
 41
-30.0
 62
     5
 63
     7
 74
     1
 91
        4
 64
     7
 65
   257
 75
     1
175
     1
 42
1.0
 92
        8
 66
     7
 43
1.0
 76
     1
 77
     6
 78
     2
 67
     7
 79
     5
170
     0
171
     0
290
     0
174
     0
 93
        1
 44
-50.0
173
     0
291
     1
 45
0.0
1001
ACAD
1000
AcDbSavedByObjectVersion
1070
     0
  0
VISUALSTYLE
  5
39
102
{ACAD_REACTORS
330
2A
102
}
330
2A
100
AcDbVisualStyle
  2
Facepattern
 70
    15
 71
     2
 72
     2
 73
     0
 90
        0
 40
-0.6
 41
-30.0
 62
     5
 63
     7
 74
     1
 91
        4
 64
     7
 65
   257
 75
     1
175
     1
 42
1.0
 92
        8
 66
     7
 43
1.0
 76
     1
 77
     6
 78
     2
 67
     7
 79
     5
170
     0
171
     0
290
     0
174
     0
 93
        1
 44
0.0
173
     0
291
     1
 45
0.0
1001
ACAD
1000
AcDbSavedByObjectVersion
1070
     0
  0
VISUALSTYLE
  5
2B
102
{ACAD_REACTORS
330
2A
102
}
330
2A
100
AcDbVisualStyle
  2
Flat
 70
     0
 71
     2
 72
     1
 73
     1
 90
        2
 40
-0.6
 41
30.0
 62
     5
 63
     7
 74
     0
 91
        4
 64
     7
 65
   257
 75
     1
175
     1
 42
1.0
 92
        8
 66
     7
 43
1.0
 76
     1
 77
     6
 78
     2
 67
     7
 79
     5
170
     0
171
     0
290
     0
174
     0
 93
       13
 44
0.0
173
     0
291
     1
 45
0.0
1001
ACAD
1000
AcDbSavedByObjectVersion
1070
     0
  0
VISUALSTYLE
  5
2C
102
{ACAD_REACTORS
330
2A
102
}
330
2A
100
AcDbVisualStyle
  2
FlatWithEdges
 70
     1
 71
     2
 72
     1
 73
     1
 90
        2
 40
-0.6
 41
30.0
 62
     5
 63
     7
 74
     1
 91
        4
 64
     7
 65
   257
 75
     1
175
     1
 42
1.0
 92
        0
 66
   257
 43
1.0
 76
     1
 77
     6
 78
     2
 67
     7
 79
     5
170
     0
171
     0
290
     0
174
     0
 93
       13
 44
0.0
173
     0
291
     1
 45
0.0
1001
ACAD
1000
AcDbSavedByObjectVersion
1070
     0
  0
VISUALSTYLE
  5
2D
102
{ACAD_REACTORS
330
2A
102
}
330
2A
100
AcDbVisualStyle
  2
Gouraud
 70
     2
 71
     2
 72
     2
 73
     1
 90
        2
 40
-0.6
 41
30.0
 62
     5
 63
     7
 74
     0
 91
        4
 64
     7
 65
   257
 75
     1
175
     1
 42
1.0
 92
        0
 66
     7
 43
1.0
 76
     1
 77
     6
 78
     2
 67
     7
 79
     5
170
     0
171
     0
290
     0
174
     0
 93
       13
 44
0.0
173
     0
291
     1
 45
0.0
1001
ACAD
1000
AcDbSavedByObjectVersion
1070
     0
  0
VISUALSTYLE
  5
2E
102
{ACAD_REACTORS
330
2A
102
}
330
2A
100
AcDbVisualStyle
  2
GouraudWithEdges
 70
     3
 71
     2
 72
     2
 73
     1
 90
        2
 40
-0.6
 41
30.0
 62
     5
 63
     7
 74
     1
 91
        4
 64
     7
 65
   257
 75
     1
175
     1
 42
1.0
 92
        0
 66
   257
 43
1.0
 76
     1
 77
     6
 78
     2
 67
     7
 79
     5
170
     0
171
     0
290
     0
174
     0
 93
       13
 44
0.0
173
     0
291
     1
 45
0.0
1001
ACAD
1000
AcDbSavedByObjectVersion
1070
     0
  0
VISUALSTYLE
  5
38
102
{ACAD_REACTORS
330
2A
102
}
330
2A
100
AcDbVisualStyle
  2
Linepattern
 70
    14
 71
     2
 72
     2
 73
     0
 90
        0
 40
-0.6
 41
-30.0
 62
     5
 63
     7
 74
     1
 91
        4
 64
     7
 65
   257
 75
     7
175
     7
 42
1.0
 92
        8
 66
     7
 43
1.0
 76
     1
 77
     6
 78
     2
 67
     7
 79
     5
170
     0
171
     0
290
     0
174
     0
 93
        1
 44
0.0
173
     0
291
     1
 45
0.0
1001
ACAD
1000
AcDbSavedByObjectVersion
1070
     0
  0
VISUALSTYLE
  5
33
102
{ACAD_REACTORS
330
2A
102
}
330
2A
100
AcDbVisualStyle
  2
Realistic
 70
     8
 71
     2
 72
     2
 73
     0
 90
        0
 40
-0.6
 41
-30.0
 62
     5
 63
     7
 74
     1
 91
        0
 64
     7
 65
   257
 75
     1
175
     1
 42
1.0
 92
        8
 66
     8
 43
1.0
 76
     1
 77
     6
 78
     2
 67
     7
 79
     5
170
     0
171
     0
290
     0
174
     0
 93
       13
 44
0.0
173
     0
291
     0
 45
0.0
1001
ACAD
1000
AcDbSavedByObjectVersion
1070
     0
  0
VISUALSTYLE
  5
37
102
{ACAD_REACTORS
330
2A
102
}
330
2A
100
AcDbVisualStyle
  2
Thicken
 70
    13
 71
     2
 72
     2
 73
     0
 90
        0
 40
-0.6
 41
-30.0
 62
     5
 63
     7
 74
     1
 91
        4
 64
     7
 65
   257
 75
     1
175
     1
 42
1.0
 92
       12
 66
     7
 43
1.0
 76
     1
 77
     6
 78
     2
 67
     7
 79
     5
170
     0
171
     0
290
     0
174
     0
 93
        1
 44
0.0
173
     0
291
     1
 45
0.0
1001
ACAD
1000
AcDbSavedByObjectVersion
1070
     0
  0
DICTIONARYVAR
  5
15A
102
{ACAD_REACTORS
330
157
102
}
330
157
100
DictionaryVariables
280
     0
  1
1:1
  0
ENDSEC
  0
EOF
