  0
SECTION
  2
HEADER
  9
$ACADVER
  1
AC1015
  9
$ACADMAINTVER
 70
     6
  9
$DWGCODEPAGE
  3
ANSI_1252
  9
$INSBASE
 10
0.0
 20
0.0
 30
0.0
  9
$EXTMIN
 10
70.6285069561909
 20
245.1882725733308
 30
0.0
  9
$EXTMAX
 10
209.552517371519
 20
353.957659490637
 30
0.0
  9
$LIMMIN
 10
0.0
 20
0.0
  9
$LIMMAX
 10
12.0
 20
9.0
  9
$ORTHOMODE
 70
     0
  9
$REGENMODE
 70
     1
  9
$FILLMODE
 70
     1
  9
$QTEXTMODE
 70
     0
  9
$MIRRTEXT
 70
     1
  9
$LTSCALE
 40
1.0
  9
$ATTMODE
 70
     1
  9
$TEXTSIZE
 40
0.2
  9
$TRACEWID
 40
0.05
  9
$TEXTSTYLE
  7
Standard
  9
$CLAYER
  8
0
  9
$CELTYPE
  6
ByLayer
  9
$CECOLOR
 62
   256
  9
$CELTSCALE
 40
1.0
  9
$DISPSILH
 70
     0
  9
$DIMSCALE
 40
1.0
  9
$DIMASZ
 40
0.18
  9
$DIMEXO
 40
0.0625
  9
$DIMDLI
 40
0.38
  9
$DIMRND
 40
0.0
  9
$DIMDLE
 40
0.0
  9
$DIMEXE
 40
0.18
  9
$DIMTP
 40
0.0
  9
$DIMTM
 40
0.0
  9
$DIMTXT
 40
0.18
  9
$DIMCEN
 40
0.09
  9
$DIMTSZ
 40
0.0
  9
$DIMTOL
 70
     0
  9
$DIMLIM
 70
     0
  9
$DIMTIH
 70
     1
  9
$DIMTOH
 70
     1
  9
$DIMSE1
 70
     0
  9
$DIMSE2
 70
     0
  9
$DIMTAD
 70
     0
  9
$DIMZIN
 70
     0
  9
$DIMBLK
  1

  9
$DIMASO
 70
     1
  9
$DIMSHO
 70
     1
  9
$DIMPOST
  1

  9
$DIMAPOST
  1

  9
$DIMALT
 70
     0
  9
$DIMALTD
 70
     2
  9
$DIMALTF
 40
25.4
  9
$DIMLFAC
 40
1.0
  9
$DIMTOFL
 70
     0
  9
$DIMTVP
 40
0.0
  9
$DIMTIX
 70
     0
  9
$DIMSOXD
 70
     0
  9
$DIMSAH
 70
     0
  9
$DIMBLK1
  1

  9
$DIMBLK2
  1

  9
$DIMSTYLE
  2
Standard
  9
$DIMCLRD
 70
     0
  9
$DIMCLRE
 70
     0
  9
$DIMCLRT
 70
     0
  9
$DIMTFAC
 40
1.0
  9
$DIMGAP
 40
0.09
  9
$DIMJUST
 70
     0
  9
$DIMSD1
 70
     0
  9
$DIMSD2
 70
     0
  9
$DIMTOLJ
 70
     1
  9
$DIMTZIN
 70
     0
  9
$DIMALTZ
 70
     0
  9
$DIMALTTZ
 70
     0
  9
$DIMUPT
 70
     0
  9
$DIMDEC
 70
     4
  9
$DIMTDEC
 70
     4
  9
$DIMALTU
 70
     2
  9
$DIMALTTD
 70
     2
  9
$DIMTXSTY
  7
Standard
  9
$DIMAUNIT
 70
     0
  9
$DIMADEC
 70
     0
  9
$DIMALTRND
 40
0.0
  9
$DIMAZIN
 70
     0
  9
$DIMDSEP
 70
    46
  9
$DIMATFIT
 70
     3
  9
$DIMFRAC
 70
     0
  9
$DIMLDRBLK
  1

  9
$DIMLUNIT
 70
     2
  9
$DIMLWD
 70
    -2
  9
$DIMLWE
 70
    -2
  9
$DIMTMOVE
 70
     0
  9
$LUNITS
 70
     2
  9
$LUPREC
 70
     4
  9
$SKETCHINC
 40
0.1
  9
$FILLETRAD
 40
0.5
  9
$AUNITS
 70
     0
  9
$AUPREC
 70
     0
  9
$MENU
  1
.
  9
$ELEVATION
 40
0.0
  9
$PELEVATION
 40
0.0
  9
$THICKNESS
 40
0.0
  9
$LIMCHECK
 70
     0
  9
$CHAMFERA
 40
0.5
  9
$CHAMFERB
 40
0.5
  9
$CHAMFERC
 40
1.0
  9
$CHAMFERD
 40
0.0
  9
$SKPOLY
 70
     0
  9
$TDCREATE
 40
2456749.749201401
  9
$TDUCREATE
 40
2456749.665868067
  9
$TDUPDATE
 40
2456749.749201412
  9
$TDUUPDATE
 40
2456749.665868079
  9
$TDINDWG
 40
0.0000000116
  9
$TDUSRTIMER
 40
0.0000000116
  9
$USRTIMER
 70
     1
  9
$ANGBASE
 50
0.0
  9
$ANGDIR
 70
     0
  9
$PDMODE
 70
     0
  9
$PDSIZE
 40
0.0
  9
$PLINEWID
 40
0.0
  9
$SPLFRAME
 70
     0
  9
$SPLINETYPE
 70
     6
  9
$SPLINESEGS
 70
     8
  9
$HANDSEED
  5
15E
  9
$SURFTAB1
 70
     6
  9
$SURFTAB2
 70
     6
  9
$SURFTYPE
 70
     6
  9
$SURFU
 70
     6
  9
$SURFV
 70
     6
  9
$UCSBASE
  2

  9
$UCSNAME
  2

  9
$UCSORG
 10
0.0
 20
0.0
 30
0.0
  9
$UCSXDIR
 10
1.0
 20
0.0
 30
0.0
  9
$UCSYDIR
 10
0.0
 20
1.0
 30
0.0
  9
$UCSORTHOREF
  2

  9
$UCSORTHOVIEW
 70
     0
  9
$UCSORGTOP
 10
0.0
 20
0.0
 30
0.0
  9
$UCSORGBOTTOM
 10
0.0
 20
0.0
 30
0.0
  9
$UCSORGLEFT
 10
0.0
 20
0.0
 30
0.0
  9
$UCSORGRIGHT
 10
0.0
 20
0.0
 30
0.0
  9
$UCSORGFRONT
 10
0.0
 20
0.0
 30
0.0
  9
$UCSORGBACK
 10
0.0
 20
0.0
 30
0.0
  9
$PUCSBASE
  2

  9
$PUCSNAME
  2

  9
$PUCSORG
 10
0.0
 20
0.0
 30
0.0
  9
$PUCSXDIR
 10
1.0
 20
0.0
 30
0.0
  9
$PUCSYDIR
 10
0.0
 20
1.0
 30
0.0
  9
$PUCSORTHOREF
  2

  9
$PUCSORTHOVIEW
 70
     0
  9
$PUCSORGTOP
 10
0.0
 20
0.0
 30
0.0
  9
$PUCSORGBOTTOM
 10
0.0
 20
0.0
 30
0.0
  9
$PUCSORGLEFT
 10
0.0
 20
0.0
 30
0.0
  9
$PUCSORGRIGHT
 10
0.0
 20
0.0
 30
0.0
  9
$PUCSORGFRONT
 10
0.0
 20
0.0
 30
0.0
  9
$PUCSORGBACK
 10
0.0
 20
0.0
 30
0.0
  9
$USERI1
 70
     0
  9
$USERI2
 70
     0
  9
$USERI3
 70
     0
  9
$USERI4
 70
     0
  9
$USERI5
 70
     0
  9
$USERR1
 40
16.5
  9
$USERR2
 40
0.0
  9
$USERR3
 40
0.0
  9
$USERR4
 40
0.0
  9
$USERR5
 40
0.0
  9
$WORLDVIEW
 70
     1
  9
$SHADEDGE
 70
     3
  9
$SHADEDIF
 70
    70
  9
$TILEMODE
 70
     1
  9
$MAXACTVP
 70
    64
  9
$PINSBASE
 10
0.0
 20
0.0
 30
0.0
  9
$PLIMCHECK
 70
     0
  9
$PEXTMIN
 10
1.00000000000000E+20
 20
1.00000000000000E+20
 30
1.00000000000000E+20
  9
$PEXTMAX
 10
-1.00000000000000E+20
 20
-1.00000000000000E+20
 30
-1.00000000000000E+20
  9
$PLIMMIN
 10
0.0
 20
0.0
  9
$PLIMMAX
 10
12.0
 20
9.0
  9
$UNITMODE
 70
     0
  9
$VISRETAIN
 70
     1
  9
$PLINEGEN
 70
     0
  9
$PSLTSCALE
 70
     1
  9
$TREEDEPTH
 70
  3020
  9
$CMLSTYLE
  2
Standard
  9
$CMLJUST
 70
     0
  9
$CMLSCALE
 40
1.0
  9
$PROXYGRAPHICS
 70
     1
  9
$MEASUREMENT
 70
     1
  9
$CELWEIGHT
370
    -1
  9
$ENDCAPS
280
     0
  9
$JOINSTYLE
280
     0
  9
$LWDISPLAY
290
     0
  9
$INSUNITS
 70
     1
  9
$HYPERLINKBASE
  1

  9
$STYLESHEET
  1

  9
$XEDIT
290
     1
  9
$CEPSNTYPE
380
     0
  9
$PSTYLEMODE
290
     1
  9
$FINGERPRINTGUID
  2
{F727EC43-3FA9-4EEE-BE23-157FFADBCAB2}
  9
$VERSIONGUID
  2
{FAEB1C32-E019-11D5-929B-00C0DF256EC4}
  9
$EXTNAMES
290
     1
  9
$PSVPSCALE
 40
0.0
  9
$OLESTARTUP
290
     0
  0
ENDSEC
  0
SECTION
  2
CLASSES
  0
CLASS
  1
ACDBDICTIONARYWDFLT
  2
AcDbDictionaryWithDefault
  3
ObjectDBX Classes
 90
        0
280
     0
281
     0
  0
CLASS
  1
VISUALSTYLE
  2
AcDbVisualStyle
  3
ObjectDBX Classes
 90
     4095
280
     0
281
     0
  0
CLASS
  1
SCALE
  2
AcDbScale
  3
ObjectDBX Classes
 90
     1153
280
     0
281
     0
  0
CLASS
  1

  2
exOdDbPolyline
  3

 90
        0
280
     0
281
     1
  0
CLASS
  1

  2
exOdDbCircle
  3

 90
        0
280
     0
281
     1
  0
CLASS
  1

  2
exOdDbSpline
  3

 90
        0
280
     0
281
     1
  0
CLASS
  1
DICTIONARYVAR
  2
AcDbDictionaryVar
  3
ObjectDBX Classes
 90
        0
280
     0
281
     0
  0
CLASS
  1
ACDBPLACEHOLDER
  2
AcDbPlaceHolder
  3
ObjectDBX Classes
 90
        0
280
     0
281
     0
  0
CLASS
  1
LAYOUT
  2
AcDbLayout
  3
ObjectDBX Classes
 90
        0
280
     0
281
     0
  0
ENDSEC
  0
SECTION
  2
TABLES
  0
TABLE
  2
VPORT
  5
8
330
0
100
AcDbSymbolTable
 70
     1
  0
VPORT
  5
29
330
8
100
AcDbSymbolTableRecord
100
AcDbViewportTableRecord
  2
*Active
 70
     0
 10
0.0
 20
0.0
 11
1.0
 21
1.0
 12
140.090512163855
 22
299.5729660319839
 13
0.0
 23
0.0
 14
0.5
 24
0.5
 15
0.5
 25
0.5
 16
0.0
 26
0.0
 36
1.0
 17
0.0
 27
0.0
 37
0.0
 40
119.6463256090368
 41
1.60267857142857
 42
50.0
 43
0.0
 44
0.0
 50
0.0
 51
0.0
 71
     0
 72
   100
 73
     1
 74
     3
 75
     0
 76
     0
 77
     0
 78
     0
281
     0
 65
     1
110
0.0
120
0.0
130
0.0
111
1.0
121
0.0
131
0.0
112
0.0
122
1.0
132
0.0
 79
     0
146
0.0
  0
ENDTAB
  0
TABLE
  2
LTYPE
  5
5
330
0
100
AcDbSymbolTable
 70
     8
  0
LTYPE
  5
14
330
5
100
AcDbSymbolTableRecord
100
AcDbLinetypeTableRecord
  2
ByBlock
 70
     0
  3

 72
    65
 73
     0
 40
0.0
  0
LTYPE
  5
15
330
5
100
AcDbSymbolTableRecord
100
AcDbLinetypeTableRecord
  2
ByLayer
 70
     0
  3

 72
    65
 73
     0
 40
0.0
  0
LTYPE
  5
16
330
5
100
AcDbSymbolTableRecord
100
AcDbLinetypeTableRecord
  2
Continuous
 70
     0
  3
Solid line
 72
    65
 73
     0
 40
0.0
  0
LTYPE
  5
3B
330
5
100
AcDbSymbolTableRecord
100
AcDbLinetypeTableRecord
  2
DASHED
 70
     0
  3
Dashed
 72
    65
 73
     2
 40
15.0
 49
7.0
 74
     0
 49
-8.0
 74
     0
  0
LTYPE
  5
3C
330
5
100
AcDbSymbolTableRecord
100
AcDbLinetypeTableRecord
  2
DOTTED
 70
     0
  3
Dotted
 72
    65
 73
     2
 40
1.0
 49
0.0
 74
     0
 49
-1.0
 74
     0
  0
LTYPE
  5
3D
330
5
100
AcDbSymbolTableRecord
100
AcDbLinetypeTableRecord
  2
DOT_CENTER
 70
     0
  3
Dot_Center
 72
    65
 73
     4
 40
14.0
 49
12.0
 74
     0
 49
-1.0
 74
     0
 49
0.0
 74
     0
 49
-1.0
 74
     0
  0
LTYPE
  5
3E
330
5
100
AcDbSymbolTableRecord
100
AcDbLinetypeTableRecord
  2
LONG_DASHED
 70
     0
  3
Long_Dashed
 72
    65
 73
     2
 40
15.0
 49
10.0
 74
     0
 49
-5.0
 74
     0
  0
LTYPE
  5
3F
330
5
100
AcDbSymbolTableRecord
100
AcDbLinetypeTableRecord
  2
DASH_CENTER
 70
     0
  3
Dash_Center
 72
    65
 73
     4
 40
14.0
 49
11.0
 74
     0
 49
-1.0
 74
     0
 49
1.0
 74
     0
 49
-1.0
 74
     0
  0
LTYPE
  5
40
330
5
100
AcDbSymbolTableRecord
100
AcDbLinetypeTableRecord
  2
PHANTOM
 70
     0
  3
Phantom
 72
    65
 73
     6
 40
13.0
 49
10.0
 74
     0
 49
-1.0
 74
     0
 49
0.0
 74
     0
 49
-1.0
 74
     0
 49
0.0
 74
     0
 49
-1.0
 74
     0
  0
LTYPE
  5
41
330
5
100
AcDbSymbolTableRecord
100
AcDbLinetypeTableRecord
  2
CENTER_DASH_DASH
 70
     0
  3
Center_Dash_Dash
 72
    65
 73
     6
 40
14.0
 49
9.0
 74
     0
 49
-1.0
 74
     0
 49
1.0
 74
     0
 49
-1.0
 74
     0
 49
1.0
 74
     0
 49
-1.0
 74
     0
  0
ENDTAB
  0
TABLE
  2
LAYER
  5
2
330
0
100
AcDbSymbolTable
 70
     7
  0
LAYER
  5
10
330
2
100
AcDbSymbolTableRecord
100
AcDbLayerTableRecord
  2
0
 70
     0
 62
     7
  6
Continuous
370
    -3
390
F
  0
LAYER
  5
42
330
2
100
AcDbSymbolTableRecord
100
AcDbLayerTableRecord
  2
1
 70
     0
 62
     7
  6
Continuous
370
    -3
390
F
  0
LAYER
  5
43
330
2
100
AcDbSymbolTableRecord
100
AcDbLayerTableRecord
  2
BEZUGSACHSEN
 70
     0
 62
     7
  6
Continuous
370
    -3
390
F
  0
LAYER
  5
44
330
2
100
AcDbSymbolTableRecord
100
AcDbLayerTableRecord
  2
DEFAULT_2
 70
     0
 62
     7
  6
Continuous
370
    -3
390
F
  0
LAYER
  5
45
330
2
100
AcDbSymbolTableRecord
100
AcDbLayerTableRecord
  2
FASEN
 70
     0
 62
     7
  6
Continuous
370
    -3
390
F
  0
LAYER
  5
46
330
2
100
AcDbSymbolTableRecord
100
AcDbLayerTableRecord
  2
RUNDUNGEN
 70
     0
 62
     7
  6
Continuous
370
    -3
390
F
  0
LAYER
  5
47
330
2
100
AcDbSymbolTableRecord
100
AcDbLayerTableRecord
  2
TEIL_STARTBEZUEGE
 70
     0
 62
     7
  6
Continuous
370
    -3
390
F
  0
ENDTAB
  0
TABLE
  2
STYLE
  5
3
330
0
100
AcDbSymbolTable
 70
     2
  0
STYLE
  5
11
330
3
100
AcDbSymbolTableRecord
100
AcDbTextStyleTableRecord
  2
Standard
 70
     0
 40
0.0
 41
1.0
 50
0.0
 71
     0
 42
0.2
  3
txt
  4

  0
STYLE
  5
6E
330
3
100
AcDbSymbolTableRecord
100
AcDbTextStyleTableRecord
  2
CONVERTER_11
 70
     0
 40
0.0
 41
0.72
 50
0.0
 71
     0
 42
0.2
  3
txt.shx
  4

  0
ENDTAB
  0
TABLE
  2
VIEW
  5
6
330
0
100
AcDbSymbolTable
 70
     0
  0
ENDTAB
  0
TABLE
  2
UCS
  5
7
330
0
100
AcDbSymbolTable
 70
     0
  0
ENDTAB
  0
TABLE
  2
APPID
  5
9
330
0
100
AcDbSymbolTable
 70
     1
  0
APPID
  5
12
330
9
100
AcDbSymbolTableRecord
100
AcDbRegAppTableRecord
  2
ACAD
 70
     0
  0
ENDTAB
  0
TABLE
  2
DIMSTYLE
  5
A
330
0
100
AcDbSymbolTable
 70
     6
100
AcDbDimStyleTable
  0
DIMSTYLE
105
27
330
A
100
AcDbSymbolTableRecord
100
AcDbDimStyleTableRecord
  2
Standard
 70
     0
340
11
  0
DIMSTYLE
105
125
102
{ACAD_REACTORS
330
126
102
}
330
A
100
AcDbSymbolTableRecord
100
AcDbDimStyleTableRecord
  2
ME10_DIM_10
 70
     0
  3
\U+2300<>
 41
3.5
 42
2.0
 44
2.0
 71
     1
 73
     0
 74
     0
 77
     1
 78
     8
140
3.5
146
0.7
147
2.0
172
     1
173
     1
176
     2
177
     2
178
     3
271
     2
272
     0
340
6E
  0
DIMSTYLE
105
130
102
{ACAD_REACTORS
330
131
102
}
330
A
100
AcDbSymbolTableRecord
100
AcDbDimStyleTableRecord
  2
ME10_DIM_11
 70
     0
  3
<>
 41
3.5
 42
2.0
 44
2.0
 71
     1
 73
     0
 74
     0
 77
     1
 78
     8
140
3.5
146
0.7
147
2.0
172
     1
173
     1
176
     2
177
     2
178
     3
271
     0
272
     0
340
6E
  0
DIMSTYLE
105
13B
102
{ACAD_REACTORS
330
13C
102
}
330
A
100
AcDbSymbolTableRecord
100
AcDbDimStyleTableRecord
  2
ME10_DIM_12
 70
     0
  3
<>
 41
3.5
 42
2.0
 44
2.0
 71
     1
 73
     0
 74
     0
 77
     1
 78
     8
140
3.5
146
0.7
147
2.0
172
     1
173
     1
176
     2
177
     2
178
     3
271
     2
272
     0
340
6E
  0
DIMSTYLE
105
146
102
{ACAD_REACTORS
330
147
102
}
330
A
100
AcDbSymbolTableRecord
100
AcDbDimStyleTableRecord
  2
ME10_DIM_13
 70
     0
  3
<>
 41
3.5
 42
2.0
 44
2.0
 71
     1
 73
     0
 74
     0
 77
     1
 78
     8
140
3.5
146
0.7
147
2.0
172
     1
173
     1
176
     2
177
     2
178
     3
271
     0
272
     0
340
6E
  0
DIMSTYLE
105
151
102
{ACAD_REACTORS
330
152
102
}
330
A
100
AcDbSymbolTableRecord
100
AcDbDimStyleTableRecord
  2
ME10_DIM_14
 70
     0
  3
\U+2300<>
 41
3.5
 42
2.0
 44
2.0
 71
     1
 73
     0
 74
     0
 77
     1
 78
     8
140
3.5
146
0.7
147
2.0
172
     1
173
     1
176
     2
177
     2
178
     3
271
     2
272
     0
340
6E
  0
ENDTAB
  0
TABLE
  2
BLOCK_RECORD
  5
1
330
0
100
AcDbSymbolTable
 70
     8
  0
BLOCK_RECORD
  5
1F
330
1
100
AcDbSymbolTableRecord
100
AcDbBlockTableRecord
  2
*Model_Space
340
22
  0
BLOCK_RECORD
  5
1B
330
1
100
AcDbSymbolTableRecord
100
AcDbBlockTableRecord
  2
*Paper_Space
340
1E
  0
BLOCK_RECORD
  5
23
330
1
100
AcDbSymbolTableRecord
100
AcDbBlockTableRecord
  2
*Paper_Space0
340
26
  0
BLOCK_RECORD
  5
48
330
1
100
AcDbSymbolTableRecord
100
AcDbBlockTableRecord
  2
Urheberrecht_DE-EN
340
0
102
{BLKREFS
331
6D
102
}
  0
BLOCK_RECORD
  5
11C
330
1
100
AcDbSymbolTableRecord
100
AcDbBlockTableRecord
  2
*D2
340
0
  0
BLOCK_RECORD
  5
127
330
1
100
AcDbSymbolTableRecord
100
AcDbBlockTableRecord
  2
*D3
340
0
  0
BLOCK_RECORD
  5
132
330
1
100
AcDbSymbolTableRecord
100
AcDbBlockTableRecord
  2
*D4
340
0
  0
BLOCK_RECORD
  5
13D
330
1
100
AcDbSymbolTableRecord
100
AcDbBlockTableRecord
  2
*D5
340
0
  0
BLOCK_RECORD
  5
148
330
1
100
AcDbSymbolTableRecord
100
AcDbBlockTableRecord
  2
*D6
340
0
  0
BLOCK_RECORD
  5
153
330
1
100
AcDbSymbolTableRecord
100
AcDbBlockTableRecord
  2
*D7
340
0
102
{BLKREFS
331
159
102
}
  0
ENDTAB
  0
ENDSEC
  0
SECTION
  2
BLOCKS
  0
BLOCK
  5
20
330
1F
100
AcDbEntity
  8
0
100
AcDbBlockBegin
  2
*Model_Space
 70
     0
 10
0.0
 20
0.0
 30
0.0
  3
*Model_Space
  1

  0
ENDBLK
  5
21
330
1F
100
AcDbEntity
  8
0
100
AcDbBlockEnd
  0
BLOCK
  5
1C
330
1B
100
AcDbEntity
 67
     1
  8
0
100
AcDbBlockBegin
  2
*Paper_Space
 70
     0
 10
0.0
 20
0.0
 30
0.0
  3
*Paper_Space
  1

  0
ENDBLK
  5
1D
330
1B
100
AcDbEntity
 67
     1
  8
0
100
AcDbBlockEnd
  0
BLOCK
  5
24
330
23
100
AcDbEntity
  8
0
100
AcDbBlockBegin
  2
*Paper_Space0
 70
     0
 10
0.0
 20
0.0
 30
0.0
  3
*Paper_Space0
  1

  0
ENDBLK
  5
25
330
23
100
AcDbEntity
  8
0
100
AcDbBlockEnd
  0
BLOCK
  5
49
330
48
100
AcDbEntity
  8
0
100
AcDbBlockBegin
  2
Urheberrecht_DE-EN
 70
     0
 10
84.6285069561909
 20
301.477659490637
 30
0.0
  3
Urheberrecht_DE-EN
  1

  0
MTEXT
  5
6F
330
48
100
AcDbEntity
  8
1
 62
     1
100
AcDbMText
 10
84.6285069561909
 20
301.477659490637
 30
0.0
 40
2.0
 41
0.0
 71
     7
 72
     1
  1
We own the copyright of this document. It \Pdetermined and may neither be copied or \Pmade accessible to outsiders without our\Ppermission.
  7
CONVERTER_11
 11
0.0
 21
1.0
 31
0.0
 73
     1
 44
0.90036014405762
  0
MTEXT
  5
70
330
48
100
AcDbEntity
  8
1
 62
     1
100
AcDbMText
 10
84.6285069561909
 20
245.1882725733308
 30
0.0
 40
2.0
 41
0.0
 71
     7
 72
     1
  1
F\U+00fcr diese Unterlage behalten wir das Ur-\Pheberrecht. Sie darf nur f\U+00fcr den von uns \Pbestimmten Zweck benutzt und ohne unsere \PZustimmung weder vervielf\U+00e4ltigt noch\PDritten zug\U+00e4nglich gemacht werden.
  7
CONVERTER_11
 11
0.0
 21
1.0
 31
0.0
 73
     1
 44
0.90036014405762
  0
ENDBLK
  5
4A
330
48
100
AcDbEntity
  8
0
100
AcDbBlockEnd
  0
BLOCK
  5
123
330
11C
100
AcDbEntity
  8
0
100
AcDbBlockBegin
  2
*D2
 70
     1
 10
0.0
 20
0.0
 30
0.0
  3
*D2
  1

  0
LINE
  5
11D
330
11C
100
AcDbEntity
  8
1
  6
Continuous
 62
     2
100
AcDbLine
 10
207.552517371519
 20
307.9510668303
 30
0.0
 11
207.552517371519
 21
272.9510668303
 31
0.0
  0
LINE
  5
11E
330
11C
100
AcDbEntity
  8
1
  6
Continuous
 62
     2
100
AcDbLine
 10
177.1828915459
 20
307.9510668303
 30
0.0
 11
209.552517371519
 21
307.9510668303
 31
0.0
  0
LINE
  5
11F
330
11C
100
AcDbEntity
  8
1
  6
Continuous
 62
     2
100
AcDbLine
 10
177.1828915459
 20
272.9510668303
 30
0.0
 11
209.552517371519
 21
272.9510668303
 31
0.0
  0
SOLID
  5
120
330
11C
100
AcDbEntity
  8
1
 62
     2
100
AcDbTrace
 10
208.0133011130749
 20
304.4510668303
 30
0.0
 11
207.0917336299631
 21
304.4510668303
 31
0.0
 12
207.552517371519
 22
307.9510668303
 32
0.0
 13
207.552517371519
 23
307.9510668303
 33
0.0
  0
SOLID
  5
121
330
11C
100
AcDbEntity
  8
1
 62
     2
100
AcDbTrace
 10
207.0917336299631
 20
276.4510668303
 30
0.0
 11
208.0133011130749
 21
276.4510668303
 31
0.0
 12
207.552517371519
 22
272.9510668303
 32
0.0
 13
207.552517371519
 23
272.9510668303
 33
0.0
  0
MTEXT
  5
122
330
11C
100
AcDbEntity
  8
1
 62
     3
100
AcDbMText
 10
205.552517371519
 20
281.814080170177
 30
0.0
 40
3.5
 41
0.0
 71
     7
 72
     1
  1
\C3;%%c\C3;\C3;35\C2;\H2.45;\S^ ;\C3;
  7
CONVERTER_11
 11
0.0
 21
1.0
 31
0.0
 73
     1
 44
0.60024009603842
  0
ENDBLK
  5
124
330
11C
100
AcDbEntity
  8
0
100
AcDbBlockEnd
  0
BLOCK
  5
12E
330
127
100
AcDbEntity
  8
0
100
AcDbBlockBegin
  2
*D3
 70
     1
 10
0.0
 20
0.0
 30
0.0
  3
*D3
  1

  0
LINE
  5
128
330
127
100
AcDbEntity
  8
1
  6
Continuous
 62
     2
100
AcDbLine
 10
186.1271208111
 20
325.579335088443
 30
0.0
 11
147.0771208111
 21
325.579335088443
 31
0.0
  0
LINE
  5
129
330
127
100
AcDbEntity
  8
1
  6
Continuous
 62
     2
100
AcDbLine
 10
147.0771208111
 20
317.4510668303
 30
0.0
 11
147.0771208111
 21
327.579335088443
 31
0.0
  0
LINE
  5
12A
330
127
100
AcDbEntity
  8
1
  6
Continuous
 62
     2
100
AcDbLine
 10
186.1271208111
 20
304.3139965695
 30
0.0
 11
186.1271208111
 21
327.579335088443
 31
0.0
  0
SOLID
  5
12B
330
127
100
AcDbEntity
  8
1
 62
     2
100
AcDbTrace
 10
182.6271208111
 20
325.1185513468871
 30
0.0
 11
182.6271208111
 21
326.0401188299988
 31
0.0
 12
186.1271208111
 22
325.579335088443
 32
0.0
 13
186.1271208111
 23
325.579335088443
 33
0.0
  0
SOLID
  5
12C
330
127
100
AcDbEntity
  8
1
 62
     2
100
AcDbTrace
 10
150.5771208111
 20
326.0401188299988
 30
0.0
 11
150.5771208111
 21
325.1185513468871
 31
0.0
 12
147.0771208111
 22
325.579335088443
 32
0.0
 13
147.0771208111
 23
325.579335088443
 33
0.0
  0
MTEXT
  5
12D
330
127
100
AcDbEntity
  8
1
 62
     3
100
AcDbMText
 10
164.689882512493
 20
327.579335088443
 30
0.0
 40
3.5
 41
0.0
 71
     7
 72
     1
  1
\C3;\C3;\C3;39\C2;\H2.45;\S^ ;\C3;
  7
CONVERTER_11
 11
0.9999999999970619
 21
2.424068405545306E-6
 31
0.0
 73
     1
 44
0.60024009603842
  0
ENDBLK
  5
12F
330
127
100
AcDbEntity
  8
0
100
AcDbBlockEnd
  0
BLOCK
  5
139
330
132
100
AcDbEntity
  8
0
100
AcDbBlockBegin
  2
*D4
 70
     1
 10
0.0
 20
0.0
 30
0.0
  3
*D4
  1

  0
LINE
  5
133
330
132
100
AcDbEntity
  8
1
  6
Continuous
 62
     2
100
AcDbLine
 10
121.1271208111
 20
334.688736249584
 30
0.0
 11
186.1271208111
 21
334.688736249584
 31
0.0
  0
LINE
  5
134
330
132
100
AcDbEntity
  8
1
  6
Continuous
 62
     2
100
AcDbLine
 10
121.1271208111
 20
317.4510668303
 30
0.0
 11
121.1271208111
 21
336.688736249584
 31
0.0
  0
LINE
  5
135
330
132
100
AcDbEntity
  8
1
  6
Continuous
 62
     2
100
AcDbLine
 10
186.1271208111
 20
304.3139965695
 30
0.0
 11
186.1271208111
 21
336.688736249584
 31
0.0
  0
SOLID
  5
136
330
132
100
AcDbEntity
  8
1
 62
     2
100
AcDbTrace
 10
124.6271208111
 20
335.1495199911399
 30
0.0
 11
124.6271208111
 21
334.2279525080281
 31
0.0
 12
121.1271208111
 22
334.688736249584
 32
0.0
 13
121.1271208111
 23
334.688736249584
 33
0.0
  0
SOLID
  5
137
330
132
100
AcDbEntity
  8
1
 62
     2
100
AcDbTrace
 10
182.6271208111
 20
334.2279525080281
 30
0.0
 11
182.6271208111
 21
335.1495199911399
 31
0.0
 12
186.1271208111
 22
334.688736249584
 32
0.0
 13
186.1271208111
 23
334.688736249584
 33
0.0
  0
MTEXT
  5
138
330
132
100
AcDbEntity
  8
1
 62
     3
100
AcDbMText
 10
151.329427476153
 20
336.688736249584
 30
0.0
 40
3.5
 41
0.0
 71
     7
 72
     1
  1
\C3;\C3;\C3;65\C2;\H2.45;\S^ ;\C3;
  7
CONVERTER_11
 11
0.9999999999970619
 21
2.424068405545306E-6
 31
0.0
 73
     1
 44
0.60024009603842
  0
ENDBLK
  5
13A
330
132
100
AcDbEntity
  8
0
100
AcDbBlockEnd
  0
BLOCK
  5
144
330
13D
100
AcDbEntity
  8
0
100
AcDbBlockBegin
  2
*D5
 70
     1
 10
0.0
 20
0.0
 30
0.0
  3
*D5
  1

  0
LINE
  5
13E
330
13D
100
AcDbEntity
  8
1
  6
Continuous
 62
     2
100
AcDbLine
 10
96.2271208111
 20
342.988412863067
 30
0.0
 11
186.1271208111
 21
342.988412863067
 31
0.0
  0
LINE
  5
13F
330
13D
100
AcDbEntity
  8
1
  6
Continuous
 62
     2
100
AcDbLine
 10
186.1271208111
 20
304.3139965695
 30
0.0
 11
186.1271208111
 21
344.988412863067
 31
0.0
  0
LINE
  5
140
330
13D
100
AcDbEntity
  8
1
  6
Continuous
 62
     2
100
AcDbLine
 10
96.2271208111
 20
309.5074226115
 30
0.0
 11
96.2271208111
 21
344.988412863067
 31
0.0
  0
SOLID
  5
141
330
13D
100
AcDbEntity
  8
1
 62
     2
100
AcDbTrace
 10
99.7271208111
 20
343.4491966046229
 30
0.0
 11
99.7271208111
 21
342.5276291215112
 31
0.0
 12
96.2271208111
 22
342.988412863067
 32
0.0
 13
96.2271208111
 23
342.988412863067
 33
0.0
  0
SOLID
  5
142
330
13D
100
AcDbEntity
  8
1
 62
     2
100
AcDbTrace
 10
182.6271208111
 20
342.5276291215112
 30
0.0
 11
182.6271208111
 21
343.4491966046229
 31
0.0
 12
186.1271208111
 22
342.988412863067
 32
0.0
 13
186.1271208111
 23
342.988412863067
 33
0.0
  0
MTEXT
  5
143
330
13D
100
AcDbEntity
  8
1
 62
     3
100
AcDbMText
 10
139.48720596667
 20
344.988412863067
 30
0.0
 40
3.5
 41
0.0
 71
     7
 72
     1
  1
\C3;\C3;\C3;90\C2;\H2.45;\S^ ;\C3;
  7
CONVERTER_11
 11
0.9999999999970619
 21
2.424068405545306E-6
 31
0.0
 73
     1
 44
0.60024009603842
  0
ENDBLK
  5
145
330
13D
100
AcDbEntity
  8
0
100
AcDbBlockEnd
  0
BLOCK
  5
14F
330
148
100
AcDbEntity
  8
0
100
AcDbBlockBegin
  2
*D6
 70
     1
 10
0.0
 20
0.0
 30
0.0
  3
*D6
  1

  0
LINE
  5
149
330
148
100
AcDbEntity
  8
1
  6
Continuous
 62
     2
100
AcDbLine
 10
196.610201585355
 20
295.4510668303
 30
0.0
 11
196.610201585355
 21
285.4510668303
 31
0.0
  0
LINE
  5
14A
330
148
100
AcDbEntity
  8
1
  6
Continuous
 62
     2
100
AcDbLine
 10
188.1271208111
 20
295.4510668303
 30
0.0
 11
198.610201585355
 21
295.4510668303
 31
0.0
  0
LINE
  5
14B
330
148
100
AcDbEntity
  8
1
  6
Continuous
 62
     2
100
AcDbLine
 10
188.1271208111
 20
285.4510668303
 30
0.0
 11
198.610201585355
 21
285.4510668303
 31
0.0
  0
SOLID
  5
14C
330
148
100
AcDbEntity
  8
1
 62
     2
100
AcDbTrace
 10
197.0709853269109
 20
291.9510668303
 30
0.0
 11
196.1494178437991
 21
291.9510668303
 31
0.0
 12
196.610201585355
 22
295.4510668303
 32
0.0
 13
196.610201585355
 23
295.4510668303
 33
0.0
  0
SOLID
  5
14D
330
148
100
AcDbEntity
  8
1
 62
     2
100
AcDbTrace
 10
196.1494178437991
 20
288.9510668303
 30
0.0
 11
197.0709853269109
 21
288.9510668303
 31
0.0
 12
196.610201585355
 22
285.4510668303
 32
0.0
 13
196.610201585355
 23
285.4510668303
 33
0.0
  0
MTEXT
  5
14E
330
148
100
AcDbEntity
  8
1
 62
     3
100
AcDbMText
 10
194.610201585355
 20
281.873380671511
 30
0.0
 40
3.5
 41
0.0
 71
     7
 72
     1
  1
\C3;%%c\C3;\C3;10\C2;\H2.45;\S^ ;\C3;
  7
CONVERTER_11
 11
0.0
 21
1.0
 31
0.0
 73
     1
 44
0.60024009603842
  0
ENDBLK
  5
150
330
148
100
AcDbEntity
  8
0
100
AcDbBlockEnd
  0
BLOCK
  5
157
330
153
100
AcDbEntity
  8
0
100
AcDbBlockBegin
  2
*D7
 70
     1
 10
0.0
 20
0.0
 30
0.0
  3
*D7
  1

  0
LINE
  5
154
330
153
100
AcDbEntity
  8
1
  6
Continuous
 62
     2
100
AcDbLine
 10
160.1706865747905
 20
316.3510560069514
 30
0.0
 11
147.4601533473928
 21
309.8590511801916
 31
0.0
  0
SOLID
  5
155
330
153
100
AcDbEntity
  8
1
 62
     2
100
AcDbTrace
 10
150.367527974565
 20
311.8614233817958
 30
0.0
 11
150.786713647635
 21
311.0407102788043
 31
0.0
 12
147.4601533473928
 22
309.8590511801916
 32
0.0
 13
147.4601533473928
 23
309.8590511801916
 33
0.0
  0
MTEXT
  5
156
330
153
100
AcDbEntity
  8
1
 62
     3
100
AcDbMText
 10
149.5983642086646
 20
313.1969317565907
 30
0.0
 40
3.5
 41
0.0
 71
     7
 72
     1
  1
\C3; R\C3;\C3;3.5\C2;\H2.45;\S^ ;\C3;
  7
CONVERTER_11
 11
0.8905621324877898
 21
0.4548616143167066
 31
0.0
 73
     1
 44
0.60024009603842
  0
ENDBLK
  5
158
330
153
100
AcDbEntity
  8
0
100
AcDbBlockEnd
  0
ENDSEC
  0
SECTION
  2
ENTITIES
  0
INSERT
  5
6D
330
1F
100
AcDbEntity
  8
0
100
AcDbBlockReference
  2
Urheberrecht_DE-EN
 10
84.6285069561909
 20
301.477659490637
 30
0.0
  0
LINE
  5
71
330
1F
100
AcDbEntity
  8
0
  6
Continuous
 62
     7
100
AcDbLine
 10
96.2271208111
 20
273.3947110489
 30
0.0
 11
96.2271208111
 21
284.0310668303
 31
0.0
  0
LINE
  5
72
330
1F
100
AcDbEntity
  8
0
  6
Continuous
 62
     7
100
AcDbLine
 10
96.2271208111
 20
296.8710668303
 30
0.0
 11
96.2271208111
 21
307.5074226115
 31
0.0
  0
LINE
  5
73
330
1F
100
AcDbEntity
  8
0
  6
Continuous
 62
     9
100
AcDbLine
 10
97.1770835687
 20
308.5061699644
 30
0.0
 11
97.1770835687
 21
298.2995793763
 31
0.0
  0
LINE
  5
74
330
1F
100
AcDbEntity
  8
0
  6
Continuous
 62
     9
100
AcDbLine
 10
97.1770835687
 20
282.6025542843
 30
0.0
 11
97.1770835687
 21
272.3959636961
 31
0.0
  0
LINE
  5
75
330
1F
100
AcDbEntity
  8
0
  6
Continuous
 62
     7
100
AcDbLine
 10
97.3771208111
 20
284.1417070708
 30
0.0
 11
97.3771208111
 21
285.1810668303
 31
0.0
  0
LINE
  5
76
330
1F
100
AcDbEntity
  8
0
  6
Continuous
 62
     7
100
AcDbLine
 10
97.3771208111
 20
295.7210668303
 30
0.0
 11
97.3771208111
 21
296.7604265898
 31
0.0
  0
LINE
  5
77
330
1F
100
AcDbEntity
  8
RUNDUNGEN
  6
Continuous
 62
     9
100
AcDbLine
 10
99.4271208111
 20
282.3465960327
 30
0.0
 11
99.4271208111
 21
285.1810668303
 31
0.0
  0
LINE
  5
78
330
1F
100
AcDbEntity
  8
RUNDUNGEN
  6
Continuous
 62
     9
100
AcDbLine
 10
99.4271208111
 20
295.7210668303
 30
0.0
 11
99.4271208111
 21
298.5555376279
 31
0.0
  0
LINE
  5
79
330
1F
100
AcDbEntity
  8
RUNDUNGEN
  6
Continuous
 62
     7
100
AcDbLine
 10
100.8271208111
 20
296.3822170771
 30
0.0
 11
100.8271208111
 21
284.5199165835
 31
0.0
  0
LINE
  5
7A
330
1F
100
AcDbEntity
  8
0
  6
Continuous
 62
     7
100
AcDbLine
 10
96.9636110209
 20
282.8010668303
 30
0.0
 11
96.9151915421
 21
282.7151091243
 31
0.0
  0
LINE
  5
7B
330
1F
100
AcDbEntity
  8
0
  6
Continuous
 62
     7
100
AcDbLine
 10
96.9151915421
 20
298.1870245363
 30
0.0
 11
96.9636110209
 21
298.1010668303
 31
0.0
  0
LWPOLYLINE
  5
7C
330
1F
100
AcDbEntity
  8
BEZUGSACHSEN
  6
DOT_CENTER
 62
     7
100
AcDbPolyline
 90
        2
 70
     0
 43
0.25
 10
113.6271208111
 20
284.4510668303
 10
113.6271208111
 20
296.4510668303
  0
LINE
  5
7D
330
1F
100
AcDbEntity
  8
0
  6
Continuous
 62
     7
100
AcDbLine
 10
96.2271208111
 20
284.0310668303
 30
0.0
 11
97.3771208111
 21
285.1810668303
 31
0.0
  0
LINE
  5
7E
330
1F
100
AcDbEntity
  8
0
  6
Continuous
 62
     7
100
AcDbLine
 10
135.7351879796
 20
265.4510668303
 30
0.0
 11
121.1271208111
 21
265.4510668303
 31
0.0
  0
LINE
  5
7F
330
1F
100
AcDbEntity
  8
0
  6
Continuous
 62
     7
100
AcDbLine
 10
142.5190536425
 20
265.4510668303
 30
0.0
 11
147.0771208111
 21
265.4510668303
 31
0.0
  0
LINE
  5
80
330
1F
100
AcDbEntity
  8
0
  6
Continuous
 62
     7
100
AcDbLine
 10
97.3771208111
 20
295.7210668303
 30
0.0
 11
96.2271208111
 21
296.8710668303
 31
0.0
  0
LINE
  5
81
330
1F
100
AcDbEntity
  8
0
  6
Continuous
 62
     7
100
AcDbLine
 10
119.1271208111
 20
309.6058668303
 30
0.0
 11
119.1271208111
 21
271.2962668303
 31
0.0
  0
LINE
  5
82
330
1F
100
AcDbEntity
  8
0
  6
Continuous
 62
     9
100
AcDbLine
 10
119.7972310441
 20
271.4758223261
 30
0.0
 11
119.7972310441
 21
309.4263113345
 31
0.0
  0
LINE
  5
83
330
1F
100
AcDbEntity
  8
0
  6
Continuous
 62
     9
100
AcDbLine
 10
119.9525224711
 20
271.4962668303
 30
0.0
 11
119.9525224711
 21
309.4058668303
 31
0.0
  0
LINE
  5
84
330
1F
100
AcDbEntity
  8
0
  6
Continuous
 62
     9
100
AcDbLine
 10
120.8249511805
 20
271.4962668303
 30
0.0
 11
120.8249511805
 21
309.4058668303
 31
0.0
  0
LINE
  5
85
330
1F
100
AcDbEntity
  8
0
  6
Continuous
 62
     7
100
AcDbLine
 10
121.1271208111
 20
315.4510668303
 30
0.0
 11
121.1271208111
 21
265.4510668303
 31
0.0
  0
LINE
  5
86
330
1F
100
AcDbEntity
  8
0
  6
Continuous
 62
     9
100
AcDbLine
 10
96.2271208111
 20
283.4939187193
 30
0.0
 11
97.3771208111
 21
284.1417070708
 31
0.0
  0
LINE
  5
87
330
1F
100
AcDbEntity
  8
0
  6
Continuous
 62
     7
100
AcDbLine
 10
137.9646208111
 20
268.9760668303
 30
0.0
 11
140.2896208111
 21
268.9760668303
 31
0.0
  0
LINE
  5
88
330
1F
100
AcDbEntity
  8
0
  6
Continuous
 62
     7
100
AcDbLine
 10
128.4594470939
 20
270.7184162227
 30
0.0
 11
135.7351879796
 21
270.7184162227
 31
0.0
  0
LINE
  5
89
330
1F
100
AcDbEntity
  8
0
  6
Continuous
 62
     7
100
AcDbLine
 10
142.5190536425
 20
270.7184162227
 30
0.0
 11
147.0771208111
 21
270.7184162227
 31
0.0
  0
LINE
  5
8A
330
1F
100
AcDbEntity
  8
0
  6
Continuous
 62
     7
100
AcDbLine
 10
120.8249511805
 20
271.4962668303
 30
0.0
 11
119.9525224711
 21
271.4962668303
 31
0.0
  0
LINE
  5
8B
330
1F
100
AcDbEntity
  8
0
  6
Continuous
 62
     7
100
AcDbLine
 10
119.1271208111
 20
271.2962668303
 30
0.0
 11
97.1770835687
 21
272.3959636961
 31
0.0
  0
LINE
  5
8C
330
1F
100
AcDbEntity
  8
0
  6
Continuous
 62
     7
100
AcDbLine
 10
150.5771208111
 20
272.9510668303
 30
0.0
 11
161.8771208111
 21
272.9510668303
 31
0.0
  0
LINE
  5
8D
330
1F
100
AcDbEntity
  8
0
  6
Continuous
 62
     7
100
AcDbLine
 10
170.3771208111
 20
272.9510668303
 30
0.0
 11
175.1828915459
 21
272.9510668303
 31
0.0
  0
LINE
  5
8E
330
1F
100
AcDbEntity
  8
0
  6
Continuous
 62
     7
100
AcDbLine
 10
133.8208070839
 20
274.7010668303
 30
0.0
 11
137.2514577053
 21
274.7010668303
 31
0.0
  0
LINE
  5
8F
330
1F
100
AcDbEntity
  8
0
  6
Continuous
 62
     7
100
AcDbLine
 10
141.0027839169
 20
274.7010668303
 30
0.0
 11
147.0771208111
 21
274.7010668303
 31
0.0
  0
LINE
  5
90
330
1F
100
AcDbEntity
  8
0
  6
Continuous
 62
     7
100
AcDbLine
 10
133.8208070839
 20
275.1010668303
 30
0.0
 11
137.2514577053
 21
275.1010668303
 31
0.0
  0
LINE
  5
91
330
1F
100
AcDbEntity
  8
0
  6
Continuous
 62
     7
100
AcDbLine
 10
141.0027839169
 20
275.1010668303
 30
0.0
 11
147.0771208111
 21
275.1010668303
 31
0.0
  0
LINE
  5
92
330
1F
100
AcDbEntity
  8
0
  6
Continuous
 62
     9
100
AcDbLine
 10
97.3771208111
 20
296.7604265898
 30
0.0
 11
96.2271208111
 21
297.4082149413
 31
0.0
  0
LWPOLYLINE
  5
93
330
1F
100
AcDbEntity
  8
BEZUGSACHSEN
  6
DOT_CENTER
 62
     7
100
AcDbPolyline
 90
        2
 70
     0
 43
0.25
 10
128.1271208111
 20
321.3459642581
 10
128.1271208111
 20
307.3459642581
  0
LINE
  5
94
330
1F
100
AcDbEntity
  8
0
  6
Continuous
 62
     7
100
AcDbLine
 10
141.0396208111
 20
312.8886139998
 30
0.0
 11
142.5190536425
 21
315.4510668303
 31
0.0
  0
LINE
  5
95
330
1F
100
AcDbEntity
  8
0
  6
Continuous
 62
     7
100
AcDbLine
 10
119.7972310441
 20
271.4758223261
 30
0.0
 11
119.1271208111
 21
271.2962668303
 31
0.0
  0
LINE
  5
96
330
1F
100
AcDbEntity
  8
0
  6
Continuous
 62
     7
100
AcDbLine
 10
141.0396208111
 20
268.0135196608
 30
0.0
 11
142.5190536425
 21
265.4510668303
 31
0.0
  0
LINE
  5
97
330
1F
100
AcDbEntity
  8
FASEN
  6
Continuous
 62
     9
100
AcDbLine
 10
133.8208070839
 20
274.7010668303
 30
0.0
 11
133.8208070839
 21
275.1010668303
 31
0.0
  0
LINE
  5
98
330
1F
100
AcDbEntity
  8
FASEN
  6
Continuous
 62
     9
100
AcDbLine
 10
134.0946208111
 20
284.8335668303
 30
0.0
 11
134.0946208111
 21
284.4335668303
 31
0.0
  0
LINE
  5
99
330
1F
100
AcDbEntity
  8
FASEN
  6
Continuous
 62
     9
100
AcDbLine
 10
134.0946208111
 20
296.0685668303
 30
0.0
 11
134.0946208111
 21
296.4685668303
 31
0.0
  0
LINE
  5
9A
330
1F
100
AcDbEntity
  8
RUNDUNGEN
  6
Continuous
 62
     9
100
AcDbLine
 10
100.2451789873
 20
282.8010668303
 30
0.0
 11
99.4271208111
 21
282.8010668303
 31
0.0
  0
LINE
  5
9B
330
1F
100
AcDbEntity
  8
0
  6
Continuous
 62
     9
100
AcDbLine
 10
99.4271208111
 20
282.8010668303
 30
0.0
 11
96.9636110209
 21
282.8010668303
 31
0.0
  0
LINE
  5
9C
330
1F
100
AcDbEntity
  8
0
  6
Continuous
 62
     7
100
AcDbLine
 10
135.7351879796
 20
315.4510668303
 30
0.0
 11
135.7351879796
 21
296.4685668303
 31
0.0
  0
LINE
  5
9D
330
1F
100
AcDbEntity
  8
0
  6
Continuous
 62
     7
100
AcDbLine
 10
135.7351879796
 20
284.4335668303
 30
0.0
 11
135.7351879796
 21
275.1010668303
 31
0.0
  0
LINE
  5
9E
330
1F
100
AcDbEntity
  8
0
  6
Continuous
 62
     7
100
AcDbLine
 10
135.7351879796
 20
270.7184162227
 30
0.0
 11
135.7351879796
 21
265.4510668303
 31
0.0
  0
LINE
  5
9F
330
1F
100
AcDbEntity
  8
0
  6
Continuous
 62
     7
100
AcDbLine
 10
137.2146208111
 20
312.8885593876
 30
0.0
 11
137.2146208111
 21
296.4685668303
 31
0.0
  0
LINE
  5
A0
330
1F
100
AcDbEntity
  8
0
  6
Continuous
 62
     7
100
AcDbLine
 10
137.2146208111
 20
284.4335668303
 30
0.0
 11
137.2146208111
 21
275.1010668303
 31
0.0
  0
LINE
  5
A1
330
1F
100
AcDbEntity
  8
0
  6
Continuous
 62
     7
100
AcDbLine
 10
137.2146208111
 20
268.013533502
 30
0.0
 11
137.2146208111
 21
274.3784775865
 31
0.0
  0
LINE
  5
A2
330
1F
100
AcDbEntity
  8
0
  6
Continuous
 62
     9
100
AcDbLine
 10
137.9646208111
 20
268.9760668303
 30
0.0
 11
137.9646208111
 21
285.5149119502
 31
0.0
  0
LINE
  5
A3
330
1F
100
AcDbEntity
  8
0
  6
Continuous
 62
     9
100
AcDbLine
 10
137.9646208111
 20
295.3872217103
 30
0.0
 11
137.9646208111
 21
311.9260668303
 31
0.0
  0
LINE
  5
A4
330
1F
100
AcDbEntity
  8
0
  6
Continuous
 62
     7
100
AcDbLine
 10
134.0946208111
 20
284.4335668303
 30
0.0
 11
137.2146208111
 21
284.4335668303
 31
0.0
  0
LINE
  5
A5
330
1F
100
AcDbEntity
  8
0
  6
Continuous
 62
     7
100
AcDbLine
 10
141.0396208111
 20
284.4335668303
 30
0.0
 11
147.0771208111
 21
284.4335668303
 31
0.0
  0
LINE
  5
A6
330
1F
100
AcDbEntity
  8
0
  6
Continuous
 62
     7
100
AcDbLine
 10
147.0771208111
 20
284.8335668303
 30
0.0
 11
140.7611559583
 21
284.8335668303
 31
0.0
  0
LINE
  5
A7
330
1F
100
AcDbEntity
  8
0
  6
Continuous
 62
     7
100
AcDbLine
 10
137.4930856638
 20
284.8335668303
 30
0.0
 11
134.0946208111
 21
284.8335668303
 31
0.0
  0
LINE
  5
A8
330
1F
100
AcDbEntity
  8
0
  6
Continuous
 62
     7
100
AcDbLine
 10
99.4271208111
 20
285.1810668303
 30
0.0
 11
97.3771208111
 21
285.1810668303
 31
0.0
  0
LWPOLYLINE
  5
A9
330
1F
100
AcDbEntity
  8
DEFAULT_2
  6
DASHED
 62
     8
100
AcDbPolyline
 90
        2
 70
     0
 43
0.35
 10
145.1271208111
 20
285.4510668303
 10
161.8771208111
 20
285.4510668303
  0
LINE
  5
AA
330
1F
100
AcDbEntity
  8
0
  6
Continuous
 62
     7
100
AcDbLine
 10
137.9646208111
 20
285.5149119502
 30
0.0
 11
140.2896208111
 21
285.5149119502
 31
0.0
  0
LINE
  5
AB
330
1F
100
AcDbEntity
  8
0
  6
Continuous
 62
     9
100
AcDbLine
 10
140.2896208111
 20
268.9760668303
 30
0.0
 11
140.2896208111
 21
285.5149119502
 31
0.0
  0
LINE
  5
AC
330
1F
100
AcDbEntity
  8
0
  6
Continuous
 62
     9
100
AcDbLine
 10
140.2896208111
 20
295.3872217103
 30
0.0
 11
140.2896208111
 21
311.9260668303
 31
0.0
  0
LINE
  5
AD
330
1F
100
AcDbEntity
  8
0
  6
Continuous
 62
     7
100
AcDbLine
 10
141.0396208111
 20
284.4335668303
 30
0.0
 11
141.0396208111
 21
275.1010668303
 31
0.0
  0
LINE
  5
AE
330
1F
100
AcDbEntity
  8
0
  6
Continuous
 62
     7
100
AcDbLine
 10
141.0396208111
 20
268.013533502
 30
0.0
 11
141.0396208111
 21
274.3784775865
 31
0.0
  0
LINE
  5
AF
330
1F
100
AcDbEntity
  8
0
  6
Continuous
 62
     7
100
AcDbLine
 10
141.0396208111
 20
296.4685668303
 30
0.0
 11
141.0396208111
 21
312.8885593876
 31
0.0
  0
LINE
  5
B0
330
1F
100
AcDbEntity
  8
0
  6
Continuous
 62
     7
100
AcDbLine
 10
142.5190536425
 20
284.4335668303
 30
0.0
 11
142.5190536425
 21
275.1010668303
 31
0.0
  0
LINE
  5
B1
330
1F
100
AcDbEntity
  8
0
  6
Continuous
 62
     7
100
AcDbLine
 10
142.5190536425
 20
265.4510668303
 30
0.0
 11
142.5190536425
 21
270.7184162227
 31
0.0
  0
LINE
  5
B2
330
1F
100
AcDbEntity
  8
0
  6
Continuous
 62
     7
100
AcDbLine
 10
142.5190536425
 20
296.4685668303
 30
0.0
 11
142.5190536425
 21
315.4510668303
 31
0.0
  0
LWPOLYLINE
  5
B3
330
1F
100
AcDbEntity
  8
TEIL_STARTBEZUEGE
  6
DOT_CENTER
 62
     7
100
AcDbPolyline
 90
        2
 70
     0
 43
0.25
 10
189.1271208111
 20
290.4510668303
 10
93.2271208111
 20
290.4510668303
  0
LWPOLYLINE
  5
B4
330
1F
100
AcDbEntity
  8
DEFAULT_2
  6
DASHED
 62
     8
100
AcDbPolyline
 90
        2
 70
     0
 43
0.35
 10
145.1271208111
 20
295.4510668303
 10
145.1271208111
 20
285.4510668303
  0
LINE
  5
B5
330
1F
100
AcDbEntity
  8
0
  6
Continuous
 62
     7
100
AcDbLine
 10
147.0771208111
 20
315.4510168118
 30
0.0
 11
147.0771208111
 21
296.4685668303
 31
0.0
  0
LINE
  5
B6
330
1F
100
AcDbEntity
  8
FASEN
  6
Continuous
 62
     7
100
AcDbLine
 10
147.0771208111
 20
296.4685668303
 30
0.0
 11
147.0771208111
 21
296.0685668303
 31
0.0
  0
LINE
  5
B7
330
1F
100
AcDbEntity
  8
FASEN
  6
Continuous
 62
     7
100
AcDbLine
 10
147.0771208111
 20
284.8335668303
 30
0.0
 11
147.0771208111
 21
284.4335668303
 31
0.0
  0
LINE
  5
B8
330
1F
100
AcDbEntity
  8
0
  6
Continuous
 62
     7
100
AcDbLine
 10
147.0771208111
 20
284.4335668303
 30
0.0
 11
147.0771208111
 21
275.1010668303
 31
0.0
  0
LINE
  5
B9
330
1F
100
AcDbEntity
  8
0
  6
Continuous
 62
     7
100
AcDbLine
 10
147.0771208111
 20
270.7184162227
 30
0.0
 11
147.0771208111
 21
265.4510803744
 31
0.0
  0
LINE
  5
BA
330
1F
100
AcDbEntity
  8
FASEN
  6
Continuous
 62
     7
100
AcDbLine
 10
147.0771208111
 20
270.7184162227
 30
0.0
 11
147.0771208111
 21
275.1010668303
 31
0.0
  0
LINE
  5
BB
330
1F
100
AcDbEntity
  8
RUNDUNGEN
  6
Continuous
 62
     7
100
AcDbLine
 10
147.0771208111
 20
284.8335668303
 30
0.0
 11
147.0771208111
 21
288.4041311597
 31
0.0
  0
LINE
  5
BC
330
1F
100
AcDbEntity
  8
RUNDUNGEN
  6
Continuous
 62
     7
100
AcDbLine
 10
147.0771208111
 20
292.4980314857
 30
0.0
 11
147.0771208111
 21
296.0685668303
 31
0.0
  0
LINE
  5
BD
330
1F
100
AcDbEntity
  8
0
  6
Continuous
 62
     7
100
AcDbLine
 10
135.7351879796
 20
265.4510668303
 30
0.0
 11
137.2146208111
 21
268.0135196608
 31
0.0
  0
LINE
  5
BE
330
1F
100
AcDbEntity
  8
0
  6
Continuous
 62
     7
100
AcDbLine
 10
140.2896208111
 20
295.3872217103
 30
0.0
 11
137.9646208111
 21
295.3872217103
 31
0.0
  0
LWPOLYLINE
  5
BF
330
1F
100
AcDbEntity
  8
DEFAULT_2
  6
DASHED
 62
     8
100
AcDbPolyline
 90
        2
 70
     0
 43
0.35
 10
186.1271208111
 20
295.4510668303
 10
145.1271208111
 20
295.4510668303
  0
LINE
  5
C0
330
1F
100
AcDbEntity
  8
0
  6
Continuous
 62
     7
100
AcDbLine
 10
99.4271208111
 20
295.7210668303
 30
0.0
 11
97.3771208111
 21
295.7210668303
 31
0.0
  0
LINE
  5
C1
330
1F
100
AcDbEntity
  8
0
  6
Continuous
 62
     7
100
AcDbLine
 10
134.0946208111
 20
296.0685668303
 30
0.0
 11
137.4930856638
 21
296.0685668303
 31
0.0
  0
LINE
  5
C2
330
1F
100
AcDbEntity
  8
0
  6
Continuous
 62
     7
100
AcDbLine
 10
140.7611559583
 20
296.0685668303
 30
0.0
 11
147.0771208111
 21
296.0685668303
 31
0.0
  0
LINE
  5
C3
330
1F
100
AcDbEntity
  8
0
  6
Continuous
 62
     7
100
AcDbLine
 10
134.0946208111
 20
296.4685668303
 30
0.0
 11
137.2146208111
 21
296.4685668303
 31
0.0
  0
LINE
  5
C4
330
1F
100
AcDbEntity
  8
0
  6
Continuous
 62
     7
100
AcDbLine
 10
141.0396208111
 20
296.4685668303
 30
0.0
 11
147.0771208111
 21
296.4685668303
 31
0.0
  0
LINE
  5
C5
330
1F
100
AcDbEntity
  8
RUNDUNGEN
  6
Continuous
 62
     9
100
AcDbLine
 10
150.5771208111
 20
307.9510668303
 30
0.0
 11
150.5771208111
 21
272.9510668303
 31
0.0
  0
LINE
  5
C6
330
1F
100
AcDbEntity
  8
0
  6
Continuous
 62
     9
100
AcDbLine
 10
99.4271208111
 20
298.1010668303
 30
0.0
 11
96.9636110209
 21
298.1010668303
 31
0.0
  0
LINE
  5
C7
330
1F
100
AcDbEntity
  8
RUNDUNGEN
  6
Continuous
 62
     9
100
AcDbLine
 10
99.4271208111
 20
298.1010668303
 30
0.0
 11
100.2451789873
 21
298.1010668303
 31
0.0
  0
LINE
  5
C8
330
1F
100
AcDbEntity
  8
0
  6
Continuous
 62
     7
100
AcDbLine
 10
135.7351879796
 20
315.4510668303
 30
0.0
 11
137.2146208111
 21
312.8886139998
 31
0.0
  0
LINE
  5
C9
330
1F
100
AcDbEntity
  8
0
  6
Continuous
 62
     7
100
AcDbLine
 10
119.7972310441
 20
309.4263113345
 30
0.0
 11
119.1271208111
 21
309.6058668303
 31
0.0
  0
LWPOLYLINE
  5
CA
330
1F
100
AcDbEntity
  8
BEZUGSACHSEN
  6
DASHED
 62
     8
100
AcDbPolyline
 90
        2
 70
     0
 43
0.35
 10
161.8771208111
 20
285.4510668303
 10
161.8771208111
 20
272.9510668303
  0
LINE
  5
CB
330
1F
100
AcDbEntity
  8
RUNDUNGEN
  6
Continuous
 62
     7
100
AcDbLine
 10
175.1828915459
 20
307.9510668303
 30
0.0
 11
150.5771208111
 21
307.9510668303
 31
0.0
  0
LINE
  5
CC
330
1F
100
AcDbEntity
  8
0
  6
Continuous
 62
     7
100
AcDbLine
 10
150.5771208111
 20
307.9510668303
 30
0.0
 11
175.1828915459
 21
307.9510668303
 31
0.0
  0
LINE
  5
CD
330
1F
100
AcDbEntity
  8
0
  6
Continuous
 62
     7
100
AcDbLine
 10
120.8249511805
 20
309.4058668303
 30
0.0
 11
119.9525224711
 21
309.4058668303
 31
0.0
  0
LINE
  5
CE
330
1F
100
AcDbEntity
  8
0
  6
Continuous
 62
     7
100
AcDbLine
 10
119.1271208111
 20
309.6058668303
 30
0.0
 11
97.1770835687
 21
308.5061699644
 31
0.0
  0
LINE
  5
CF
330
1F
100
AcDbEntity
  8
0
  6
Continuous
 62
     7
100
AcDbLine
 10
137.9646208111
 20
311.9260668303
 30
0.0
 11
140.2896208111
 21
311.9260668303
 31
0.0
  0
LWPOLYLINE
  5
D0
330
1F
100
AcDbEntity
  8
BEZUGSACHSEN
  6
DOT_CENTER
 62
     7
100
AcDbPolyline
 90
        2
 70
     0
 43
0.25
 10
166.1271208111
 20
269.9510668303
 10
166.1271208111
 20
290.8194678431
  0
LINE
  5
D1
330
1F
100
AcDbEntity
  8
BEZUGSACHSEN
  6
Continuous
 62
     7
100
AcDbLine
 10
135.7351879796
 20
315.4510668303
 30
0.0
 11
133.1271208111
 21
315.4510668303
 31
0.0
  0
LINE
  5
D2
330
1F
100
AcDbEntity
  8
BEZUGSACHSEN
  6
Continuous
 62
     7
100
AcDbLine
 10
123.1271208111
 20
315.4510668303
 30
0.0
 11
121.1271208111
 21
315.4510668303
 31
0.0
  0
LINE
  5
D3
330
1F
100
AcDbEntity
  8
0
  6
Continuous
 62
     7
100
AcDbLine
 10
121.1271208111
 20
315.4510668303
 30
0.0
 11
123.1271208111
 21
315.4510668303
 31
0.0
  0
LINE
  5
D4
330
1F
100
AcDbEntity
  8
0
  6
Continuous
 62
     7
100
AcDbLine
 10
133.1271208111
 20
315.4510668303
 30
0.0
 11
135.7351879796
 21
315.4510668303
 31
0.0
  0
LINE
  5
D5
330
1F
100
AcDbEntity
  8
0
  6
Continuous
 62
     7
100
AcDbLine
 10
142.5190536425
 20
315.4510668303
 30
0.0
 11
147.0771208111
 21
315.4510668303
 31
0.0
  0
LWPOLYLINE
  5
D6
330
1F
100
AcDbEntity
  8
BEZUGSACHSEN
  6
DASHED
 62
     8
100
AcDbPolyline
 90
        2
 70
     0
 43
0.35
 10
170.3771208111
 20
285.4510668303
 10
170.3771208111
 20
272.9510668303
  0
LINE
  5
D7
330
1F
100
AcDbEntity
  8
0
  6
Continuous
 62
     7
100
AcDbLine
 10
175.6055098076
 20
273.0447590432
 30
0.0
 11
185.5497390728
 21
277.6818293041
 31
0.0
  0
LINE
  5
D8
330
1F
100
AcDbEntity
  8
RUNDUNGEN
  6
Continuous
 62
     7
100
AcDbLine
 10
185.5497390728
 20
303.2203043565
 30
0.0
 11
175.6055098076
 21
307.8573746173
 31
0.0
  0
LINE
  5
D9
330
1F
100
AcDbEntity
  8
0
  6
Continuous
 62
     7
100
AcDbLine
 10
175.6055098076
 20
307.8573746173
 30
0.0
 11
185.5497390728
 21
303.2203043565
 31
0.0
  0
LINE
  5
DA
330
1F
100
AcDbEntity
  8
RUNDUNGEN
  6
Continuous
 62
     9
100
AcDbLine
 10
175.1828915459
 20
272.9510668303
 30
0.0
 11
175.1828915459
 21
307.9510668303
 31
0.0
  0
LINE
  5
DB
330
1F
100
AcDbEntity
  8
RUNDUNGEN
  6
Continuous
 62
     9
100
AcDbLine
 10
175.6055098076
 20
273.0447590432
 30
0.0
 11
175.6055098076
 21
307.8573746173
 31
0.0
  0
LINE
  5
DC
330
1F
100
AcDbEntity
  8
RUNDUNGEN
  6
Continuous
 62
     9
100
AcDbLine
 10
185.5497390728
 20
277.6818293041
 30
0.0
 11
185.5497390728
 21
303.2203043565
 31
0.0
  0
LINE
  5
DD
330
1F
100
AcDbEntity
  8
RUNDUNGEN
  6
Continuous
 62
     7
100
AcDbLine
 10
186.1271208111
 20
278.5881370911
 30
0.0
 11
186.1271208111
 21
302.3139965695
 31
0.0
  0
LWPOLYLINE
  5
DE
330
1F
100
AcDbEntity
  8
BEZUGSACHSEN
  6
DASHED
 62
     8
100
AcDbPolyline
 90
        2
 70
     0
 43
0.35
 10
171.1271208111
 20
285.4510668303
 10
171.1271208111
 20
272.9510668303
  0
LWPOLYLINE
  5
DF
330
1F
100
AcDbEntity
  8
BEZUGSACHSEN
  6
DASHED
 62
     8
100
AcDbPolyline
 90
        2
 70
     0
 43
0.35
 10
161.1271208111
 20
285.4510668303
 10
161.1271208111
 20
272.9510668303
  0
LWPOLYLINE
  5
E0
330
1F
100
AcDbEntity
  8
DEFAULT_2
  6
DASHED
 62
     8
100
AcDbPolyline
 90
        2
 70
     0
 43
0.35
 10
161.8771208111
 20
285.4510668303
 10
186.1271208111
 20
285.4510668303
  0
ARC
  5
E1
330
1F
100
AcDbEntity
  8
0
  6
Continuous
 62
     7
100
AcDbCircle
 10
103.4717324077
 20
274.9010668303
 30
0.0
 40
33.78031736353756
100
AcDbArc
 50
359.6607721967861
 51
0.33922780321396
  0
ARC
  5
E2
330
1F
100
AcDbEntity
  8
FASEN
  6
Continuous
 62
     7
100
AcDbCircle
 10
136.3014761587
 20
278.8844586388
 30
0.0
 40
11.32173434569994
100
AcDbArc
 50
223.8842578163035
 51
226.1595439826374
  0
ARC
  5
E3
330
1F
100
AcDbEntity
  8
FASEN
  6
Continuous
 62
     7
100
AcDbCircle
 10
133.8208070839
 20
269.1010668303
 30
0.0
 40
6.0
100
AcDbArc
 50
90.0
 51
161.1845969504029
  0
ARC
  5
E4
330
1F
100
AcDbEntity
  8
FASEN
  6
Continuous
 62
     7
100
AcDbCircle
 10
133.8208070839
 20
269.1010668303
 30
0.0
 40
5.599990644599984
100
AcDbArc
 50
90.0
 51
163.2131310087987
  0
ARC
  5
E5
330
1F
100
AcDbEntity
  8
0
  6
Continuous
 62
     7
100
AcDbCircle
 10
138.6399612013
 20
274.3791139231
 30
0.0
 40
1.4253405322444
100
AcDbArc
 50
166.945493583629
 51
180.0255794330658
  0
ARC
  5
E6
330
1F
100
AcDbEntity
  8
RUNDUNGEN
  6
Continuous
 62
     7
100
AcDbCircle
 10
99.4271208111
 20
286.5810668303
 30
0.0
 40
1.400000000000034
100
AcDbArc
 50
270.0
 51
353.9429041005109
  0
ARC
  5
E7
330
1F
100
AcDbEntity
  8
0
  6
Continuous
 62
     7
100
AcDbCircle
 10
97.2271208111
 20
273.3947110488
 30
0.0
 40
1.0
100
AcDbArc
 50
179.9999999942711
 51
267.1318795109842
  0
ARC
  5
E8
330
1F
100
AcDbEntity
  8
0
  6
Continuous
 62
     7
100
AcDbCircle
 10
137.9646208111
 20
268.2260668303
 30
0.0
 40
0.75
100
AcDbArc
 50
90.0
 51
180.0
  0
ARC
  5
E9
330
1F
100
AcDbEntity
  8
0
  6
Continuous
 62
     7
100
AcDbCircle
 10
119.9525224711
 20
270.8962668303
 30
0.0
 40
0.5999999999999659
100
AcDbArc
 50
90.0
 51
104.9999999936697
  0
ARC
  5
EA
330
1F
100
AcDbEntity
  8
0
  6
Continuous
 62
     7
100
AcDbCircle
 10
120.8249511805
 20
270.8962668303
 30
0.0
 40
0.5999999999998945
100
AcDbArc
 50
59.70317838175824
 51
90.0
  0
ARC
  5
EB
330
1F
100
AcDbEntity
  8
0
  6
Continuous
 62
     7
100
AcDbCircle
 10
137.718240765
 20
284.3580716973
 30
0.0
 40
0.503730497899951
100
AcDbArc
 50
166.1596109369576
 51
171.3804870338132
  0
ARC
  5
EC
330
1F
100
AcDbEntity
  8
0
  6
Continuous
 62
     7
100
AcDbCircle
 10
20.4606772232
 20
323.3716023399
 30
0.0
 40
126.7303074975354
100
AcDbArc
 50
335.4508108778999
 51
337.1137532296999
  0
ARC
  5
ED
330
1F
100
AcDbEntity
  8
0
  6
Continuous
 62
     7
100
AcDbCircle
 10
134.0946208111
 20
290.4510668303
 30
0.0
 40
6.017499999999984
100
AcDbArc
 50
90.0
 51
270.0
  0
ARC
  5
EE
330
1F
100
AcDbEntity
  8
FASEN
  6
Continuous
 62
     7
100
AcDbCircle
 10
134.0946208111
 20
290.4510668303
 30
0.0
 40
5.617499842999962
100
AcDbArc
 50
90.0
 51
270.0
  0
ARC
  5
EF
330
1F
100
AcDbEntity
  8
RUNDUNGEN
  6
Continuous
 62
     7
100
AcDbCircle
 10
99.4271208111
 20
294.3210668303
 30
0.0
 40
1.400000000000465
100
AcDbArc
 50
6.05709561600847
 51
90.0
  0
ARC
  5
F0
330
1F
100
AcDbEntity
  8
0
  6
Continuous
 62
     7
100
AcDbCircle
 10
97.2271208111
 20
307.5074226118
 30
0.0
 40
0.999999999976244
100
AcDbArc
 50
92.86812048930244
 51
180.0000000171898
  0
ARC
  5
F1
330
1F
100
AcDbEntity
  8
0
  6
Continuous
 62
     7
100
AcDbCircle
 10
137.9646208111
 20
312.6760668303
 30
0.0
 40
0.75
100
AcDbArc
 50
180.0
 51
270.0
  0
ARC
  5
F2
330
1F
100
AcDbEntity
  8
0
  6
Continuous
 62
     7
100
AcDbCircle
 10
119.9525224711
 20
310.0058668303
 30
0.0
 40
0.6000000000097674
100
AcDbArc
 50
255.0000000063317
 51
270.0
  0
ARC
  5
F3
330
1F
100
AcDbEntity
  8
0
  6
Continuous
 62
     7
100
AcDbCircle
 10
120.8249511805
 20
310.0058668303
 30
0.0
 40
0.6000000000000227
100
AcDbArc
 50
270.0
 51
300.2968216182418
  0
ARC
  5
F4
330
1F
100
AcDbEntity
  8
RUNDUNGEN
  6
Continuous
 62
     7
100
AcDbCircle
 10
186.3971913462
 20
-475.9847929697
 30
0.0
 40
779.4077988390998
100
AcDbArc
 50
96.40668094319999
 51
96.57315239320002
  0
ARC
  5
F5
330
1F
100
AcDbEntity
  8
0
  6
Continuous
 62
     7
100
AcDbCircle
 10
174.7825092144
 20
274.9010668303
 30
0.0
 40
33.78031736343756
100
AcDbArc
 50
179.660772196785
 51
180.339227803215
  0
ARC
  5
F6
330
1F
100
AcDbEntity
  8
RUNDUNGEN
  6
Continuous
 62
     7
100
AcDbCircle
 10
150.5771208111
 20
269.4510668303
 30
0.0
 40
3.5
100
AcDbArc
 50
90.0
 51
175.2355360336049
  0
ARC
  5
F7
330
1F
100
AcDbEntity
  8
0
  6
Continuous
 62
     7
100
AcDbCircle
 10
139.6142804208
 20
274.3791139231
 30
0.0
 40
1.425340532344775
100
AcDbArc
 50
359.9744205669359
 51
13.05450641546291
  0
ARC
  5
F8
330
1F
100
AcDbEntity
  8
RUNDUNGEN
  6
Continuous
 62
     7
100
AcDbCircle
 10
185.1271208111
 20
278.5881370911
 30
0.0
 40
0.999999999949584
100
AcDbArc
 50
294.9999999987737
 51
0.0
  0
ARC
  5
F9
330
1F
100
AcDbEntity
  8
RUNDUNGEN
  6
Continuous
 62
     7
100
AcDbCircle
 10
175.1828915459
 20
273.9510668303
 30
0.0
 40
1.0
100
AcDbArc
 50
270.0
 51
294.9999999963512
  0
ARC
  5
FA
330
1F
100
AcDbEntity
  8
0
  6
Continuous
 62
     7
100
AcDbCircle
 10
140.2896208111
 20
268.2260668303
 30
0.0
 40
0.75
100
AcDbArc
 50
0.0
 51
90.0
  0
ARC
  5
FB
330
1F
100
AcDbEntity
  8
RUNDUNGEN
  6
Continuous
 62
     7
100
AcDbCircle
 10
186.3971913429
 20
1056.8869266014
 30
0.0
 40
779.4077988099004
100
AcDbArc
 50
263.4268476068
 51
263.5933190568001
  0
ARC
  5
FC
330
1F
100
AcDbEntity
  8
0
  6
Continuous
 62
     7
100
AcDbCircle
 10
257.793564399
 20
323.37160234
 30
0.0
 40
126.7303074975999
100
AcDbArc
 50
202.8862467703001
 51
204.5491891221224
  0
ARC
  5
FD
330
1F
100
AcDbEntity
  8
RUNDUNGEN
  6
Continuous
 62
     7
100
AcDbCircle
 10
150.5771208111
 20
311.4510668303
 30
0.0
 40
3.5
100
AcDbArc
 50
180.0
 51
270.0
  0
ARC
  5
FE
330
1F
100
AcDbEntity
  8
RUNDUNGEN
  6
Continuous
 62
     7
100
AcDbCircle
 10
185.1271208111
 20
302.3139965695
 30
0.0
 40
1.0
100
AcDbArc
 50
0.0
 51
65.00000000122631
  0
ARC
  5
FF
330
1F
100
AcDbEntity
  8
RUNDUNGEN
  6
Continuous
 62
     7
100
AcDbCircle
 10
175.1828915459
 20
306.9510668303
 30
0.0
 40
0.999999999949584
100
AcDbArc
 50
65.00000000122631
 51
90.0
  0
ARC
  5
100
330
1F
100
AcDbEntity
  8
0
  6
Continuous
 62
     7
100
AcDbCircle
 10
140.2896208111
 20
312.6760668303
 30
0.0
 40
0.75
100
AcDbArc
 50
270.0
 51
0.0
  0
CIRCLE
  5
101
330
1F
100
AcDbEntity
  8
FASEN
  6
Continuous
 62
     7
100
AcDbCircle
 10
113.6271208111
 20
290.4510668303
 30
0.0
 40
3.0
  0
SPLINE
  5
102
330
1F
100
AcDbEntity
  8
0
  6
Continuous
 62
     2
100
AcDbSpline
210
0.0
220
0.0
230
1.0
 70
     8
 71
     3
 72
    49
 73
    45
 74
    43
 42
0.0000000001
 43
0.0000000001
 44
0.00000001
 40
0.0
 40
0.0
 40
0.0
 40
0.0
 40
0.0140894765024872
 40
0.0565058543545947
 40
0.127348186675217
 40
0.2262238707572621
 40
0.3526539151912839
 40
0.5063010976975714
 40
0.6866631336895838
 40
0.8924202888058451
 40
1.1221607247629
 40
1.374893134913108
 40
1.649330777450564
 40
1.942534693275226
 40
2.251565304426511
 40
2.575074521546156
 40
2.911661301236863
 40
3.258052473279149
 40
3.611132604459056
 40
3.970234924548548
 40
4.334782394001339
 40
4.70206444140341
 40
5.069465990369878
 40
5.4368676289745
 40
5.804149686456608
 40
6.168695781739364
 40
6.527794595904329
 40
6.880871644083359
 40
7.227262264531666
 40
7.563848028354498
 40
7.887353171030237
 40
8.196380774502364
 40
8.489586404823807
 40
8.76402553058346
 40
9.016754391003866
 40
9.246490656232307
 40
9.452247854612294
 40
9.632611469879297
 40
9.786258260759212
 40
9.912686622790346
 40
10.011560532172
 40
10.08240008837636
 40
10.12481221181805
 40
10.13889931161044
 40
10.13889931161044
 40
10.13889931161044
 40
10.13889931161044
 10
171.1271208111
 20
272.9510480376
 30
0.0
 10
171.122606008573
 20
272.9523417162618
 30
0.0
 10
171.104499390205
 20
272.9575300153465
 30
0.0
 10
171.0636609297803
 20
272.9691134657197
 30
0.0
 10
170.9955920403453
 20
272.9882642596068
 30
0.0
 10
170.9004465684134
 20
273.0145752625385
 30
0.0
 10
170.7785308256766
 20
273.0476340252725
 30
0.0
 10
170.6301213732843
 20
273.0867635719809
 30
0.0
 10
170.4557813839304
 20
273.131242371291
 30
0.0
 10
170.2563859129906
 20
273.1800837200852
 30
0.0
 10
170.0329804951332
 20
273.2322501371872
 30
0.0
 10
169.7865829255346
 20
273.2865547139896
 30
0.0
 10
169.5187409948441
 20
273.3417366736144
 30
0.0
 10
169.2316730529959
 20
273.3964523137214
 30
0.0
 10
168.9276333163656
 20
273.4492851067106
 30
0.0
 10
168.6084248793735
 20
273.499021104891
 30
0.0
 10
168.2760067569864
 20
273.5445059305669
 30
0.0
 10
167.9329898467539
 20
273.5847952545068
 30
0.0
 10
167.5817546917828
 20
273.6188573993381
 30
0.0
 10
167.2238476307844
 20
273.6460288206401
 30
0.0
 10
166.8607129938422
 20
273.6657849215484
 30
0.0
 10
166.4944736933274
 20
273.677879649165
 30
0.0
 10
166.1271044226724
 20
273.6819360317896
 30
0.0
 10
165.7597351560171
 20
273.6778789416684
 30
0.0
 10
165.3934963053951
 20
273.6657834629592
 30
0.0
 10
165.0303633264949
 20
273.6460267910171
 30
0.0
 10
164.6724589531044
 20
273.6188550365724
 30
0.0
 10
164.3212262258162
 20
273.5847925125146
 30
0.0
 10
163.9782109252534
 20
273.5445027808294
 30
0.0
 10
163.6457947159499
 20
273.4990178564964
 30
0.0
 10
163.3265889852362
 20
273.4492820211672
 30
0.0
 10
163.0225510807814
 20
273.3964491312157
 30
0.0
 10
162.7354831506699
 20
273.3417330953735
 30
0.0
 10
162.4676413659045
 20
273.2865510125136
 30
0.0
 10
162.221245854293
 20
273.2322467555909
 30
0.0
 10
161.9978429874447
 20
273.1800806671208
 30
0.0
 10
161.7984483837424
 20
273.1312393500164
 30
0.0
 10
161.6241080084284
 20
273.0867604041068
 30
0.0
 10
161.4756987356697
 20
273.0476308221906
 30
0.0
 10
161.3537842582479
 20
273.0145722954456
 30
0.0
 10
161.2586407964419
 20
272.9882618192489
 30
0.0
 10
161.1905747366769
 20
272.9691118050483
 30
0.0
 10
161.1497393127849
 20
272.9575291400195
 30
0.0
 10
161.1316348455011
 20
272.9523413582584
 30
0.0
 10
161.1271208111
 20
272.951047875
 30
0.0
 11
171.1271208111
 21
272.9510480376
 31
0.0
 11
171.1135755408055
 21
272.9549260526546
 31
0.0
 11
171.0727736017942
 21
272.9665170354863
 31
0.0
 11
171.0045754357668
 21
272.9856911377894
 31
0.0
 11
170.909280019996
 21
273.0120574920265
 31
0.0
 11
170.7872525775058
 21
273.0451310375713
 31
0.0
 11
170.6386847803507
 21
273.0843109602434
 31
0.0
 11
170.4639184025312
 21
273.1288887261255
 31
0.0
 11
170.2640691756894
 21
273.1778406761611
 31
0.0
 11
170.0403430258987
 21
273.2300640216451
 31
0.0
 11
169.7935326975
 21
273.2844545809
 31
0.0
 11
169.5247400091508
 21
273.339830661761
 31
0.0
 11
169.2367162585063
 21
273.3947019230879
 31
0.0
 11
168.9322450747738
 21
273.447590644996
 31
0.0
 11
168.6125899343711
 21
273.4973782415987
 31
0.0
 11
168.2791116633665
 21
273.5430170740811
 31
0.0
 11
167.9350806434611
 21
273.5833841573508
 31
0.0
 11
167.5836475678173
 21
273.6174483963339
 31
0.0
 11
167.2255748193672
 21
273.6446216020905
 31
0.0
 11
166.8615667236438
 21
273.6644449149384
 31
0.0
 11
166.4944836824833
 21
273.6765338866167
 31
0.0
 11
166.1271044537792
 21
273.6805836396562
 31
0.0
 11
165.75972514335
 21
273.6765331683333
 31
0.0
 11
165.3926421165749
 21
273.6644434536155
 31
0.0
 11
165.0286354291495
 21
273.6446195514906
 31
0.0
 11
164.6705662199203
 21
273.6174460398173
 31
0.0
 11
164.3191362700222
 21
273.5833815089175
 31
0.0
 11
163.9751058625043
 21
273.5430139397853
 31
0.0
 11
163.6416286501123
 21
273.4973748641653
 31
0.0
 11
163.3219775823095
 21
273.4475875948064
 31
0.0
 11
163.017509426177
 21
273.3946990175045
 31
0.0
 11
162.729484056045
 21
273.3398270956089
 31
0.0
 11
162.4606899533833
 21
273.2844505290666
 31
0.0
 11
162.2138831272471
 21
273.2300605717035
 31
0.0
 11
161.9901610898939
 21
273.1778379562611
 31
0.0
 11
161.7903118587146
 21
273.1288858420859
 31
0.0
 11
161.6155439684327
 21
273.0843076160268
 31
0.0
 11
161.4669765714441
 21
273.0451277117421
 31
0.0
 11
161.3449507753207
 21
273.0120545231098
 31
0.0
 11
161.2496570794894
 21
272.985688607779
 31
0.0
 11
161.1814615967392
 21
272.9665152185196
 31
0.0
 11
161.1406637779111
 21
272.9549253007586
 31
0.0
 11
161.1271208111
 21
272.951047875
 31
0.0
  0
SPLINE
  5
103
330
1F
100
AcDbEntity
  8
BEZUGSACHSEN
  6
Continuous
 62
     7
100
AcDbSpline
210
0.0
220
0.0
230
1.0
 70
     8
 71
     3
 72
    15
 73
    11
 74
     9
 42
0.0000000001
 43
0.0000000001
 44
0.00000001
 40
0.0
 40
0.0
 40
0.0
 40
0.0
 40
0.9592794728029278
 40
1.918698757760582
 40
2.733413612643771
 40
3.548061682642784
 40
4.096465872437284
 40
4.644852383044881
 40
4.839161107616488
 40
5.033464909271602
 40
5.033464909271602
 40
5.033464909271602
 40
5.033464909271602
 10
128.1271208111
 20
314.9459642581
 30
0.0
 10
127.8073414453004
 20
314.9495924210586
 30
0.0
 10
127.1677361068014
 20
314.9568492757698
 30
0.0
 10
126.257925985058
 20
315.0122635121298
 30
0.0
 10
125.3986821150212
 20
315.0929859682793
 30
0.0
 10
124.6784106671035
 20
315.184530616354
 30
0.0
 10
124.0486101353165
 20
315.2812551934586
 30
0.0
 10
123.6246548590453
 20
315.355456632687
 30
0.0
 10
123.3177310573705
 20
315.4133480323604
 30
0.0
 10
123.1906570232685
 20
315.438494003836
 30
0.0
 10
123.1271208111
 20
315.4510668303
 30
0.0
 11
128.1271208111
 21
314.9459642581
 31
0.0
 11
127.1680254506351
 21
314.9647577802749
 31
0.0
 11
126.2102476846209
 21
315.0208569360393
 31
0.0
 11
125.3991373672457
 21
315.0974098446378
 31
0.0
 11
124.5909612994831
 21
315.199893606517
 31
0.0
 11
124.0489121494995
 21
315.2831394735989
 31
0.0
 11
123.5087140254514
 21
315.377552141135
 31
0.0
 11
123.3177844586396
 21
315.4136323429316
 31
0.0
 11
123.1271208111
 21
315.4510668303
 31
0.0
  0
SPLINE
  5
104
330
1F
100
AcDbEntity
  8
BEZUGSACHSEN
  6
Continuous
 62
     7
100
AcDbSpline
210
0.0
220
0.0
230
1.0
 70
     8
 71
     3
 72
    15
 73
    11
 74
     9
 42
0.0000000001
 43
0.0000000001
 44
0.00000001
 40
0.0
 40
0.0
 40
0.0
 40
0.0
 40
0.1942981503602385
 40
0.3886012246070475
 40
0.9369792400626079
 40
1.485374928924184
 40
2.300027372215268
 40
3.114746618678649
 40
4.074175664741126
 40
5.033464878728267
 40
5.033464878728267
 40
5.033464878728267
 40
5.033464878728267
 10
133.1271208111
 20
315.4510668303
 30
0.0
 10
133.0635864451687
 20
315.4384943782752
 30
0.0
 10
132.9365161032237
 20
315.4133491556156
 30
0.0
 10
132.6295988049193
 20
315.3554588816123
 30
0.0
 10
132.2056510219412
 20
315.2812584265871
 30
0.0
 10
131.5758547492389
 20
315.1845338393785
 30
0.0
 10
130.8555832658187
 20
315.0929887293693
 30
0.0
 10
129.9963332893238
 20
315.0122652928661
 30
0.0
 10
129.0865152648331
 20
314.9568496887177
 30
0.0
 10
128.4469034244976
 20
314.9495925586779
 30
0.0
 10
128.1271208111
 20
314.9459642581
 30
0.0
 11
133.1271208111
 21
315.4510668303
 31
0.0
 11
132.9364627066658
 21
315.4136334435045
 31
0.0
 11
132.7455387024129
 21
315.3775542353402
 31
0.0
 11
132.2053490128769
 21
315.2831426515489
 31
0.0
 11
131.6633083462711
 21
315.1998975477439
 31
0.0
 11
130.855128014085
 21
315.09741265116
 31
0.0
 11
130.0440133693406
 21
315.0208588554408
 31
0.0
 11
129.0862259029068
 21
314.9647583779856
 31
0.0
 11
128.1271208111
 21
314.9459642581
 31
0.0
  0
SPLINE
  5
105
330
1F
100
AcDbEntity
  8
BEZUGSACHSEN
  6
Continuous
 62
     7
100
AcDbSpline
210
0.0
220
0.0
230
1.0
 70
     8
 71
     3
 72
    23
 73
    19
 74
    17
 42
0.0000000001
 43
0.0000000001
 44
0.00000001
 40
0.0
 40
0.0
 40
0.0
 40
0.0
 40
0.1669325061752579
 40
0.3338702783224734
 40
0.8028963822042008
 40
1.271949241207981
 40
1.965815690670126
 40
2.659723889939353
 40
3.47591798607294
 40
4.292131279538167
 40
5.10834637928782
 40
5.924542285823737
 40
6.618458165811348
 40
7.312332294747505
 40
7.781395668520339
 40
8.250432284824052
 40
8.417374092033592
 40
8.584310633075535
 40
8.584310633075535
 40
8.584310633075535
 40
8.584310633075535
 10
161.8771208111
 20
272.9510668303
 30
0.0
 10
161.9312246157616
 20
272.9640704179246
 30
0.0
 10
162.0394339318173
 20
272.9900780033786
 30
0.0
 10
162.3003010049429
 20
273.0498869250017
 30
0.0
 10
162.6605953602104
 20
273.1266341709888
 30
0.0
 10
163.1953293083103
 20
273.2267871117833
 30
0.0
 10
163.807113270567
 20
273.3216869795182
 30
0.0
 10
164.5370766652068
 20
273.406183285457
 30
0.0
 10
165.3108152393018
 20
273.461817365722
 30
0.0
 10
166.1270973483998
 20
273.4815529292543
 30
0.0
 10
166.943380109681
 20
273.461819326817
 30
0.0
 10
167.7171225764975
 20
273.4061868941269
 30
0.0
 10
168.4470918726524
 20
273.3216917624985
 30
0.0
 10
169.0588845687369
 20
273.2267918941505
 30
0.0
 10
169.5936280836681
 20
273.1266380315924
 30
0.0
 10
169.9539306694273
 20
273.0498893072205
 30
0.0
 10
170.2148037843274
 20
272.9900790182357
 30
0.0
 10
170.323015704441
 20
272.9640707562049
 30
0.0
 10
170.3771208111
 20
272.9510668303
 30
0.0
 11
161.8771208111
 21
272.9510668303
 31
0.0
 11
162.0394991350728
 21
272.9897933266784
 31
0.0
 11
162.2022004426062
 21
273.0271631580455
 31
0.0
 11
162.660964957126
 21
273.1247367525262
 31
0.0
 11
163.1220081284486
 21
273.2110488531634
 31
0.0
 11
163.8076982964128
 21
273.3172545180144
 31
0.0
 11
164.4970210106984
 21
273.3968961188453
 31
0.0
 11
165.3111195027936
 21
273.4553465057703
 31
0.0
 11
166.1270967543601
 21
273.4749746833573
 31
0.0
 11
166.9430758597339
 21
273.4553484597584
 31
0.0
 11
167.7571763040787
 21
273.396899983615
 31
0.0
 11
168.4465068457964
 21
273.3172592104259
 31
0.0
 11
169.1322048290559
 21
273.2110538312742
 31
0.0
 11
169.5932584684517
 21
273.1247405054485
 31
0.0
 11
170.0520333345159
 21
273.0271650489988
 31
0.0
 11
170.214738576215
 21
272.989794320908
 31
0.0
 11
170.3771208111
 21
272.9510668303
 31
0.0
  0
SPLINE
  5
106
330
1F
100
AcDbEntity
  8
RUNDUNGEN
  6
Continuous
 62
     7
100
AcDbSpline
210
0.0
220
0.0
230
1.0
 70
     8
 71
     3
 72
    15
 73
    11
 74
     9
 42
0.0000000001
 43
0.0000000001
 44
0.00000001
 40
0.0
 40
0.0
 40
0.0
 40
0.0
 40
0.2286533797624129
 40
0.4574173648876303
 40
0.6866651597804818
 40
0.9158640491602762
 40
1.146314057934697
 40
1.376831724061339
 40
1.609554238661751
 40
1.842048835029568
 40
1.842048835029568
 40
1.842048835029568
 40
1.842048835029568
 10
100.2451789873
 20
298.1010668303
 30
0.0
 10
100.2875837557587
 20
298.0377026895247
 30
0.0
 10
100.3724138049239
 20
297.9109437571534
 30
0.0
 10
100.4838905800409
 20
297.7107623038214
 30
0.0
 10
100.583038832608
 20
297.5041067116438
 30
0.0
 10
100.66753894149
 20
297.2903705829946
 30
0.0
 10
100.7363145549459
 20
297.0705770265403
 30
0.0
 10
100.7872916093808
 20
296.8448449797914
 30
0.0
 10
100.8206308917203
 20
296.6148634455083
 30
0.0
 10
100.8249582113173
 20
296.4597405340677
 30
0.0
 10
100.8271208111
 20
296.3822170771
 30
0.0
 11
100.2451789873
 21
298.1010668303
 31
0.0
 11
100.3697519336994
 21
297.9093275565397
 31
0.0
 11
100.4817474717973
 21
297.7098533468369
 31
0.0
 11
100.5805678797371
 21
297.5029981355469
 31
0.0
 11
100.6647558019775
 21
297.2898209213757
 31
0.0
 11
100.7332935114981
 21
297.0697986749601
 31
0.0
 11
100.7841967571309
 21
296.8449715102745
 31
0.0
 11
100.8161459952959
 21
296.6144524980812
 31
0.0
 11
100.8271208111
 21
296.3822170771
 31
0.0
  0
SPLINE
  5
107
330
1F
100
AcDbEntity
  8
RUNDUNGEN
  6
Continuous
 62
     7
100
AcDbSpline
210
0.0
220
0.0
230
1.0
 70
     8
 71
     3
 72
    15
 73
    11
 74
     9
 42
0.0000000001
 43
0.0000000001
 44
0.00000001
 40
0.0
 40
0.0
 40
0.0
 40
0.0
 40
0.1273079846700543
 40
0.2549893803146181
 40
0.3793073350416871
 40
0.5035989686939004
 40
0.6245667031282375
 40
0.745559172137459
 40
0.8645937372434863
 40
0.9835510381134487
 40
0.9835510381134487
 40
0.9835510381134487
 40
0.9835510381134487
 10
99.4271208111
 20
298.5555376279
 30
0.0
 10
99.46959998070193
 20
298.5579842720073
 30
0.0
 10
99.55468291686769
 20
298.5628847365491
 30
0.0
 10
99.68032926851956
 20
298.5412205490863
 30
0.0
 10
99.79911528577914
 20
298.4995810766422
 30
0.0
 10
99.90788193447798
 20
298.440709587824
 30
0.0
 10
100.006732139715
 20
298.3685355512667
 30
0.0
 10
100.0951177838935
 20
298.2865821392976
 30
0.0
 10
100.1751626639655
 20
298.1973434433934
 30
0.0
 10
100.2218452647022
 20
298.1331520880741
 30
0.0
 10
100.2451789873
 20
298.1010668303
 30
0.0
 11
99.4271208111
 21
298.5555376279
 31
0.0
 11
99.55440447941908
 21
298.5580257476698
 31
0.0
 11
99.68043575144976
 21
298.537564631765
 31
0.0
 11
99.79779475344594
 21
298.4965546510532
 31
0.0
 11
99.90732304217693
 21
298.437801232739
 31
0.0
 11
100.0052100328714
 21
298.3667285247074
 31
0.0
 11
100.0942637278487
 21
298.2848223773933
 31
0.0
 11
100.173582889033
 21
298.1960659784183
 31
0.0
 11
100.2451789873
 21
298.1010668303
 31
0.0
  0
SPLINE
  5
108
330
1F
100
AcDbEntity
  8
RUNDUNGEN
  6
Continuous
 62
     7
100
AcDbSpline
210
0.0
220
0.0
230
1.0
 70
     8
 71
     3
 72
    15
 73
    11
 74
     9
 42
0.0000000001
 43
0.0000000001
 44
0.00000001
 40
0.0
 40
0.0
 40
0.0
 40
0.0
 40
0.232494753103579
 40
0.4652174309916042
 40
0.6957353317505884
 40
0.9261855606581256
 40
1.155384407781125
 40
1.384632178790626
 40
1.613395801704592
 40
1.842048806048791
 40
1.842048806048791
 40
1.842048806048791
 40
1.842048806048791
 10
100.8271208111
 20
284.5199165835
 30
0.0
 10
100.8249582041242
 20
284.4423930742714
 30
0.0
 10
100.8206308700744
 20
284.2872700561244
 30
0.0
 10
100.7872915316327
 20
284.0572883439365
 30
0.0
 10
100.7363144728276
 20
283.8315560875373
 30
0.0
 10
100.6675387764683
 20
283.6117624072742
 30
0.0
 10
100.5830384018868
 20
283.3980263248587
 30
0.0
 10
100.4838900267169
 20
283.1913709573891
 30
0.0
 10
100.3724135214226
 20
282.991189648573
 30
0.0
 10
100.287583660446
 20
282.8644308848945
 30
0.0
 10
100.2451789873
 20
282.8010668303
 30
0.0
 11
100.8271208111
 21
284.5199165835
 31
0.0
 11
100.8161459686891
 21
284.2876810068655
 31
0.0
 11
100.7841966929607
 21
284.0571618350298
 31
0.0
 11
100.7332934113516
 21
283.8323344379187
 31
0.0
 11
100.6647555722856
 21
283.6123120012908
 31
0.0
 11
100.5805674621482
 21
283.3991349067567
 31
0.0
 11
100.4817469234351
 21
283.1922797844095
 31
0.0
 11
100.3697516406823
 21
282.9928058467388
 31
0.0
 11
100.2451789873
 21
282.8010668303
 31
0.0
  0
SPLINE
  5
109
330
1F
100
AcDbEntity
  8
RUNDUNGEN
  6
Continuous
 62
     7
100
AcDbSpline
210
0.0
220
0.0
230
1.0
 70
     8
 71
     3
 72
    17
 73
    13
 74
    11
 42
0.0000000001
 43
0.0000000001
 44
0.00000001
 40
0.0
 40
0.0
 40
0.0
 40
0.0
 40
0.1190059193336055
 40
0.2380814744384366
 40
0.3590691915544268
 40
0.4800850747943238
 40
0.6044906460778267
 40
0.7286521944433908
 40
0.7922003881789452
 40
0.8557409872044137
 40
0.9198158321793767
 40
0.9838416202048015
 40
0.9838416202048015
 40
0.9838416202048015
 40
0.9838416202048015
 10
100.2451789873
 20
282.8010668303
 30
0.0
 10
100.2218332865607
 20
282.7689702992648
 30
0.0
 10
100.1751282244516
 20
282.7047584560555
 30
0.0
 10
100.0950617619797
 20
282.6155006618991
 30
0.0
 10
100.0066908330052
 20
282.5334989689724
 30
0.0
 10
99.90776607494384
 20
282.4612922966576
 30
0.0
 10
99.79893200206443
 20
282.4026783537048
 30
0.0
 10
99.700369950093
 20
282.3677983968817
 30
0.0
 10
99.61832342093224
 20
282.3504514469188
 30
0.0
 10
99.55496050172778
 20
282.343058384368
 30
0.0
 10
99.49097319946371
 20
282.3411250528722
 30
0.0
 10
99.4483995059326
 20
282.3447728384049
 30
0.0
 10
99.4271208111
 20
282.3465960327
 30
0.0
 11
100.2451789873
 21
282.8010668303
 31
0.0
 11
100.1735470309156
 21
282.7060338272906
 31
0.0
 11
100.0942030511877
 21
282.6172446347925
 31
0.0
 11
100.005170843135
 21
282.5353221493431
 31
0.0
 11
99.90721964834603
 21
282.4642559306753
 31
0.0
 11
99.79753334519383
 21
282.4055561771224
 31
0.0
 11
99.68034487252595
 21
282.3645323795616
 31
0.0
 11
99.61816504302354
 21
282.3514159116643
 31
0.0
 11
99.55506063905531
 21
282.3439834205388
 31
0.0
 11
99.49100634971474
 21
282.3423605294028
 31
0.0
 11
99.4271208111
 21
282.3465960327
 31
0.0
  0
SPLINE
  5
10A
330
1F
100
AcDbEntity
  8
FASEN
  6
Continuous
 62
     7
100
AcDbSpline
210
0.0
220
0.0
230
1.0
 70
     8
 71
     3
 72
    43
 73
    39
 74
    37
 42
0.0000000001
 43
0.0000000001
 44
0.00000001
 40
0.0
 40
0.0
 40
0.0
 40
0.0
 40
0.3536627138529054
 40
0.7077087110917561
 40
1.061386016607979
 40
1.41494091293987
 40
1.768273600879135
 40
2.121679340755891
 40
2.474990473716931
 40
2.828124790675731
 40
3.004861640054031
 40
3.181542282371792
 40
3.35828960468825
 40
3.535092627972344
 40
3.888693190976347
 40
4.242467023578922
 40
4.596379402935669
 40
4.950247373453076
 40
5.303947628043544
 40
5.657661399110324
 40
6.010712555488188
 40
6.363747200682547
 40
6.715806091051522
 40
7.067909115915046
 40
7.419215040259481
 40
7.77034627373429
 40
7.94585477917007
 40
8.121308709992123
 40
8.296759233346402
 40
8.472264989793844
 40
8.823345921712543
 40
9.174601594875814
 40
9.526721242011966
 40
9.878775142286043
 40
10.23179857979691
 40
10.58493613219567
 40
10.93889559961567
 40
11.29248564902649
 40
11.29248564902649
 40
11.29248564902649
 40
11.29248564902649
 10
110.0278723995
 20
290.4510668303
 30
0.0
 10
110.0312022263219
 20
290.5690041400413
 30
0.0
 10
110.037865488679
 20
290.8050065745568
 30
0.0
 10
110.0922014439429
 20
291.1554908817851
 30
0.0
 10
110.1781446694744
 20
291.4991033479661
 30
0.0
 10
110.2980318142767
 20
291.8323408509499
 30
0.0
 10
110.4500806756896
 20
292.1520123411419
 30
0.0
 10
110.6328945921231
 20
292.4550801465946
 30
0.0
 10
110.8447577878164
 20
292.7384868955545
 30
0.0
 10
111.043692227
 20
292.9562014946525
 30
0.0
 10
111.2150727021426
 20
293.1178630637058
 30
0.0
 10
111.3494992259129
 20
293.232693713368
 30
0.0
 10
111.4894174928807
 20
293.3408010354093
 30
0.0
 10
111.682871844906
 20
293.4756166431049
 30
0.0
 10
111.9369166435147
 20
293.626046149426
 30
0.0
 10
112.2579450580765
 20
293.7759746679801
 30
0.0
 10
112.5922039212763
 20
293.8938043476874
 30
0.0
 10
112.9363047301147
 20
293.9785645825513
 30
0.0
 10
113.2869565342613
 20
294.0294085982057
 30
0.0
 10
113.6406130633426
 20
294.0460227075783
 30
0.0
 10
113.9939850484484
 20
294.0281614450114
 30
0.0
 10
114.343417116407
 20
293.976201123573
 30
0.0
 10
114.6858078544179
 20
293.8904875869134
 30
0.0
 10
115.017694266149
 20
293.7720413768463
 30
0.0
 10
115.3360817808316
 20
293.621786246815
 30
0.0
 10
115.5877181569775
 20
293.4713745987051
 30
0.0
 10
115.7792140503627
 20
293.3367015307979
 30
0.0
 10
115.9176649829223
 20
293.2287804950914
 30
0.0
 10
116.0506630967604
 20
293.114208210094
 30
0.0
 10
116.2202938094466
 20
292.9528887681753
 30
0.0
 10
116.4171646145087
 20
292.73570909699
 30
0.0
 10
116.6268913550454
 20
292.4529613553331
 30
0.0
 10
116.8078516983931
 20
292.1505829476794
 30
0.0
 10
116.9584835166389
 20
291.8313922784816
 30
0.0
 10
117.0773153156025
 20
291.4986186125529
 30
0.0
 10
117.1625604547606
 20
291.1552339861009
 30
0.0
 10
117.2163956147427
 20
290.8049232205964
 30
0.0
 10
117.2230458440292
 20
290.5689778973356
 30
0.0
 10
117.2263692226
 20
290.4510668303
 30
0.0
 11
110.0278723995
 21
290.4510668303
 31
0.0
 11
110.0452455632881
 21
290.8043025707763
 31
0.0
 11
110.0974961323626
 21
291.1544717387397
 31
0.0
 11
110.1838250063113
 21
291.497451274514
 31
0.0
 11
110.3034259017457
 21
291.8301623962572
 31
0.0
 11
110.4552027551138
 21
292.1492357031132
 31
0.0
 11
110.6377604793101
 21
292.4518382383209
 31
0.0
 11
110.8492721739531
 21
292.734842760729
 31
0.0
 11
111.0874995362807
 21
292.9955179794445
 31
0.0
 11
111.2160582899496
 21
293.116796834911
 31
0.0
 11
111.3503943154013
 21
293.2315569396324
 31
0.0
 11
111.4902587327731
 21
293.3396197024107
 31
0.0
 11
111.6353162010403
 21
293.4407020447971
 31
0.0
 11
111.9395476371885
 21
293.6209146731446
 31
0.0
 11
112.260093833186
 21
293.7706012151778
 31
0.0
 11
112.5938625907481
 21
293.8882973864724
 31
0.0
 11
112.9374622575928
 21
293.9729248613393
 31
0.0
 11
113.287498152295
 21
294.0237061818954
 31
0.0
 11
113.6408235888631
 21
294.0402762668735
 31
0.0
 11
113.9934253146647
 21
294.0224677862666
 31
0.0
 11
114.3426143917389
 21
293.9705019401792
 31
0.0
 11
114.6841351430597
 21
293.8850090240686
 31
0.0
 11
115.0157375193876
 21
293.766618128592
 31
0.0
 11
115.333446159175
 21
293.6166945724579
 31
0.0
 11
115.6348079733273
 21
293.4364885789605
 31
0.0
 11
115.77837393891
 21
293.3355329005337
 31
0.0
 11
115.916757271251
 21
293.2276712522471
 31
0.0
 11
116.0496821489655
 21
293.113155475911
 31
0.0
 11
116.1768547735082
 21
292.992203443629
 31
0.0
 11
116.4126728853711
 21
292.7321118465438
 31
0.0
 11
116.6219063825593
 21
292.4499737747
 31
0.0
 11
116.8027612718002
 21
292.1478483786523
 31
0.0
 11
116.9530388364546
 21
291.8294797208675
 31
0.0
 11
117.0716755502271
 21
291.4969877997968
 31
0.0
 11
117.1572641592751
 21
291.154379100381
 31
0.0
 11
117.2090913641517
 21
290.8042344939525
 31
0.0
 11
117.2263692226
 21
290.4510668303
 31
0.0
  0
SPLINE
  5
10B
330
1F
100
AcDbEntity
  8
0
  6
Continuous
 62
     7
100
AcDbSpline
210
0.0
220
0.0
230
1.0
 70
     8
 71
     3
 72
    27
 73
    23
 74
    21
 42
0.0000000001
 43
0.0000000001
 44
0.00000001
 40
0.0
 40
0.0
 40
0.0
 40
0.0
 40
0.073030682019564
 40
0.1460817689058175
 40
0.2142068183435271
 40
0.2823160954569556
 40
0.3442738269859205
 40
0.4062919406875928
 40
0.4617913417431673
 40
0.5170559905722716
 40
0.5428520623523008
 40
0.5686432246862823
 40
0.5939867602916055
 40
0.6193292498487338
 40
0.6451121207319594
 40
0.6708991016096695
 40
0.6979696846572416
 40
0.7250453875578565
 40
0.7848430774643931
 40
0.8448837206914316
 40
0.9129318641701959
 40
0.9808740945879756
 40
0.9808740945879756
 40
0.9808740945879756
 40
0.9808740945879756
 10
96.9151915421
 20
282.7151091243
 30
0.0
 10
96.89535916784044
 20
282.7009837901628
 30
0.0
 10
96.85568887813038
 20
282.6727291752518
 30
0.0
 10
96.79492086799823
 20
282.6351372972769
 30
0.0
 10
96.73355359955409
 20
282.6018693958154
 30
0.0
 10
96.6732322596561
 20
282.5747497477226
 30
0.0
 10
96.61274240914267
 20
282.5534845475877
 30
0.0
 10
96.55429903033338
 20
282.5399683395448
 30
0.0
 10
96.49679244667516
 20
282.5344569388163
 30
0.0
 10
96.451073450177
 20
282.5376248435709
 30
0.0
 10
96.41629829341905
 20
282.5455857007788
 30
0.0
 10
96.39200586620625
 20
282.5539732643348
 30
0.0
 10
96.36898748083128
 20
282.5650611490537
 30
0.0
 10
96.34741643522553
 20
282.5787537569503
 30
0.0
 10
96.32754309907355
 20
282.5950472734452
 30
0.0
 10
96.30927355669243
 20
282.6139213799955
 30
0.0
 10
96.2929719856165
 20
282.6350664904319
 30
0.0
 10
96.27295147766185
 20
282.6674041920672
 30
0.0
 10
96.25338425748389
 20
282.7126249495177
 30
0.0
 10
96.23764172544297
 20
282.7733894091365
 30
0.0
 10
96.22852481842114
 20
282.8382774432083
 30
0.0
 10
96.22758857048179
 20
282.8836262129611
 30
0.0
 10
96.2271208111
 20
282.9062829384
 30
0.0
 11
96.9151915421
 21
282.7151091243
 31
0.0
 11
96.85525168612865
 21
282.6733874970262
 31
0.0
 11
96.79316300848546
 21
282.6348977918599
 31
0.0
 11
96.73316963975563
 21
282.6026205852067
 31
0.0
 11
96.67098358767035
 21
282.5748398624846
 31
0.0
 11
96.61242939743214
 21
282.5545872749521
 31
0.0
 11
96.55194091238464
 21
282.5408982427083
 31
0.0
 11
96.49665972220416
 21
282.5359815843149
 31
0.0
 11
96.44155950241652
 21
282.5402415361408
 31
0.0
 11
96.416421586352
 21
282.5460313975565
 31
0.0
 11
96.39205686615195
 21
282.5544897936285
 31
0.0
 11
96.36922659808026
 21
282.5654931411534
 31
0.0
 11
96.34783838015228
 21
282.5790867393091
 31
0.0
 11
96.32788024000826
 21
282.5954093945151
 31
0.0
 11
96.30992876159215
 21
282.6139218985451
 31
0.0
 11
96.29335516147623
 21
282.6353259225998
 31
0.0
 11
96.27905967169565
 21
282.6583201101153
 31
0.0
 11
96.25489064726044
 21
282.7130158318493
 31
0.0
 11
96.23936184667681
 21
282.7710135489729
 31
0.0
 11
96.22986907191458
 21
282.8383963142636
 31
0.0
 11
96.2271208111
 21
282.9062829384
 31
0.0
  0
SPLINE
  5
10C
330
1F
100
AcDbEntity
  8
0
  6
Continuous
 62
     7
100
AcDbSpline
210
0.0
220
0.0
230
1.0
 70
     8
 71
     3
 72
    11
 73
     7
 74
     5
 42
0.0000000001
 43
0.0000000001
 44
0.00000001
 40
0.0
 40
0.0
 40
0.0
 40
0.0
 40
0.0719820116788496
 40
0.1441794862678857
 40
0.2163078795541453
 40
0.2883301028249106
 40
0.2883301028249106
 40
0.2883301028249106
 40
0.2883301028249106
 10
97.1770835687
 20
282.6025542843
 30
0.0
 10
97.15335673549922
 20
282.6064574714708
 30
0.0
 10
97.10583204784648
 20
282.6142755291768
 30
0.0
 10
97.03796537962613
 20
282.6397092529667
 30
0.0
 10
96.9737285623375
 20
282.6729367831608
 30
0.0
 10
96.93469429898892
 20
282.7010585813558
 30
0.0
 10
96.9151915421
 20
282.7151091243
 30
0.0
 11
97.1770835687
 21
282.6025542843
 31
0.0
 11
97.10647344215519
 21
282.6165407075262
 31
0.0
 11
97.03855175974132
 21
282.6410176435089
 31
0.0
 11
96.97463995126358
 21
282.6744509480893
 31
0.0
 11
96.9151915421
 21
282.7151091243
 31
0.0
  0
SPLINE
  5
10D
330
1F
100
AcDbEntity
  8
FASEN
  6
Continuous
 62
     7
100
AcDbSpline
210
0.0
220
0.0
230
1.0
 70
     8
 71
     3
 72
    41
 73
    37
 74
    35
 42
0.0000000001
 43
0.0000000001
 44
0.00000001
 40
0.0
 40
0.0
 40
0.0
 40
0.0
 40
0.3535888544107821
 40
0.7075507289680438
 40
1.060684840950077
 40
1.413709983431635
 40
1.765779918096842
 40
2.117876005235446
 40
2.469055569696882
 40
2.820227711307927
 40
3.171084425292011
 40
3.521941346669041
 40
3.873160085290328
 40
4.2243817655015
 40
4.57646172314651
 40
4.92854260422426
 40
5.281581803861254
 40
5.634626310515998
 40
5.98833965752217
 40
6.342041478617243
 40
6.69590839711018
 40
7.04982083811871
 40
7.403595216308275
 40
7.757194007933288
 40
7.933994428145993
 40
8.110739696210722
 40
8.287420502951651
 40
8.464157456688557
 40
8.817287503345552
 40
9.170592253459205
 40
9.523997521704942
 40
9.877334047543645
 40
10.23089310701161
 40
10.58456791527204
 40
10.93860935642751
 40
11.29227461520773
 40
11.29227461520773
 40
11.29227461520773
 40
11.29227461520773
 10
117.2263692226
 20
290.4510668303
 30
0.0
 10
117.2230606124259
 20
290.3331552381145
 30
0.0
 10
117.2164399016445
 20
290.0972076623809
 30
0.0
 10
117.162563068731
 20
289.7469027180766
 30
0.0
 10
117.0773297805886
 20
289.4035166943505
 30
0.0
 10
116.9585013148947
 20
289.0707354874254
 30
0.0
 10
116.807838629815
 20
288.7515599685563
 30
0.0
 10
116.6268886829191
 20
288.4492142234091
 30
0.0
 10
116.4171875222726
 20
288.1664346649513
 30
0.0
 10
116.1810263474016
 20
287.9059009482997
 30
0.0
 10
115.9204069132282
 20
287.6699977727299
 30
0.0
 10
115.637905159654
 20
287.4607698194157
 30
0.0
 10
115.3360631419458
 20
287.2803256009358
 30
0.0
 10
115.0176649140662
 20
287.1300752424481
 30
0.0
 10
114.6858052456212
 20
287.01165107164
 30
0.0
 10
114.3434142899296
 20
286.9259305912227
 30
0.0
 10
113.9939756953843
 20
286.8739684938926
 30
0.0
 10
113.6406042984271
 20
286.8561116560477
 30
0.0
 10
113.2869497648846
 20
286.8727257138095
 30
0.0
 10
112.9362977511693
 20
286.9235697636648
 30
0.0
 10
112.5921983531963
 20
287.0083371184419
 30
0.0
 10
112.2579408912427
 20
287.1261687220859
 30
0.0
 10
111.9369061472418
 20
287.276081999942
 30
0.0
 10
111.6828598579252
 20
287.4265084815509
 30
0.0
 10
111.4894182465252
 20
287.5613389002281
 30
0.0
 10
111.3495097891654
 20
287.669456237508
 30
0.0
 10
111.2150850419237
 20
287.7842877645458
 30
0.0
 10
111.0437002865751
 20
287.9459426824098
 30
0.0
 10
110.844754348296
 20
288.1636417008353
 30
0.0
 10
110.6328806447989
 20
288.447037025737
 30
0.0
 10
110.4500816207509
 20
288.7501135534147
 30
0.0
 10
110.2980484406522
 20
289.0697945410028
 30
0.0
 10
110.1781489568659
 20
289.4030284431479
 30
0.0
 10
110.0921985250266
 20
289.7466405918037
 30
0.0
 10
110.0379210860431
 20
290.0971304825381
 30
0.0
 10
110.0312207744947
 20
290.3331298629673
 30
0.0
 10
110.0278723995
 20
290.4510668303
 30
0.0
 11
117.2263692226
 21
290.4510668303
 31
0.0
 11
117.2091213953602
 21
290.0978988951487
 31
0.0
 11
117.15727533488
 21
289.7477546467985
 31
0.0
 11
117.0716893671235
 21
289.4051488337005
 31
0.0
 11
116.9530522067737
 21
289.0726552617201
 31
0.0
 11
116.8027466633274
 21
288.7542820805247
 31
0.0
 11
116.6218993127331
 21
288.4521796304166
 31
0.0
 11
116.4127335212002
 21
288.1700861031109
 31
0.0
 11
116.1768628977947
 21
287.9099189990067
 31
0.0
 11
115.9167630887625
 21
287.6744438982229
 31
0.0
 11
115.634799041829
 21
287.4656452978563
 31
0.0
 11
115.3333652552161
 21
287.2853891616309
 31
0.0
 11
115.0157301324563
 21
287.1355072166217
 31
0.0
 11
114.6841470828519
 21
287.0171307924896
 31
0.0
 11
114.342605675888
 21
286.9316298325556
 31
0.0
 11
113.9934121961692
 21
286.8796626294155
 31
0.0
 11
113.6408169685755
 21
286.8618573168024
 31
0.0
 11
113.2874919881187
 21
286.8784280752485
 31
0.0
 11
112.9374547185162
 21
286.9292108295576
 31
0.0
 11
112.5938573200549
 21
287.0138431152076
 31
0.0
 11
112.2600884932147
 21
287.1315392754266
 31
0.0
 11
111.9395370473424
 21
287.2812158641525
 31
0.0
 11
111.6353078029519
 21
287.4614287169023
 31
0.0
 11
111.4902596884433
 21
287.5625199285129
 31
0.0
 11
111.3504042319177
 21
287.670590928616
 31
0.0
 11
111.2160697384699
 21
287.7853530797842
 31
0.0
 11
111.0875073668112
 21
287.9066282520566
 31
0.0
 11
110.8492688733378
 21
288.1672875125471
 31
0.0
 11
110.6377521032273
 21
288.4502802729049
 31
0.0
 11
110.4552048037398
 21
288.7528885462116
 31
0.0
 11
110.3034378840186
 21
289.0719708280295
 31
0.0
 11
110.1838293757095
 21
289.4046836370284
 31
0.0
 11
110.0975039724855
 21
289.7476614712338
 31
0.0
 11
110.0452823723178
 21
290.0978303541052
 31
0.0
 11
110.0278723995
 21
290.4510668303
 31
0.0
  0
SPLINE
  5
10E
330
1F
100
AcDbEntity
  8
RUNDUNGEN
  6
Continuous
 62
     7
100
AcDbSpline
210
0.0
220
0.0
230
1.0
 70
     8
 71
     3
 72
     9
 73
     5
 74
     3
 42
0.0000000001
 43
0.0000000001
 44
0.00000001
 40
0.0
 40
0.0
 40
0.0
 40
0.0
 40
1.023355456990068
 40
2.04671091386358
 40
2.04671091386358
 40
2.04671091386358
 40
2.04671091386358
 10
147.0785496741
 20
290.4508282963
 30
0.0
 10
147.0783114885479
 20
290.109709893793
 30
0.0
 10
147.0778351174438
 20
289.4274730888179
 30
0.0
 10
147.0773589132146
 20
288.7452362837264
 30
0.0
 10
147.0771208111
 20
288.4041178812
 30
0.0
 11
147.0785496741
 21
290.4508282963
 31
0.0
 11
147.0778351591625
 21
289.42747308875
 31
0.0
 11
147.0771208111
 21
288.4041178812
 31
0.0
  0
SPLINE
  5
10F
330
1F
100
AcDbEntity
  8
0
  6
Continuous
 62
     7
100
AcDbSpline
210
0.0
220
0.0
230
1.0
 70
     8
 71
     3
 72
    25
 73
    21
 74
    19
 42
0.0000000001
 43
0.0000000001
 44
0.00000001
 40
0.0
 40
0.0
 40
0.0
 40
0.0
 40
0.0272074181285887
 40
0.0544897103699608
 40
0.0817252615438219
 40
0.1089465263904146
 40
0.1361394922774715
 40
0.1633375027142722
 40
0.1904999127532659
 40
0.217659870065355
 40
0.2719180516382251
 40
0.326224562060264
 40
0.3805032119814263
 40
0.4347626393415872
 40
0.4890258447079052
 40
0.5432924465189561
 40
0.5975546789310676
 40
0.6518175541937477
 40
0.7603351296696834
 40
0.868854387813789
 40
0.868854387813789
 40
0.868854387813789
 40
0.868854387813789
 10
140.2896208111
 20
285.5149119502
 30
0.0
 10
140.2986974839616
 20
285.5144747097163
 30
0.0
 10
140.3168758084545
 20
285.5135990254745
 30
0.0
 10
140.3434776816694
 20
285.5070584836215
 30
0.0
 10
140.3689531383629
 20
285.4972507450648
 30
0.0
 10
140.3930236619283
 20
285.4844131158351
 30
0.0
 10
140.4156460336783
 20
285.4692378773069
 30
0.0
 10
140.4368698892825
 20
285.4522080284275
 30
0.0
 10
140.4568552446384
 20
285.433769729554
 30
0.0
 10
140.4819717484625
 20
285.4076872273491
 30
0.0
 10
140.5109043456756
 20
285.3728212778115
 30
0.0
 10
140.5422729388488
 20
285.3284779943689
 30
0.0
 10
140.5710960898931
 20
285.2824535173897
 30
0.0
 10
140.5977129694111
 20
285.2351439528047
 30
0.0
 10
140.6225236994563
 20
285.186873009931
 30
0.0
 10
140.6457508750544
 20
285.1378226795648
 30
0.0
 10
140.6676335115669
 20
285.0881596421258
 30
0.0
 10
140.6951780792866
 20
285.0212566597855
 30
0.0
 10
140.7271499589409
 20
284.9366286540552
 30
0.0
 10
140.7498205665925
 20
284.8679209491135
 30
0.0
 10
140.7611559583
 20
284.8335668303
 30
0.0
 11
140.2896208111
 21
285.5149119502
 31
0.0
 11
140.3167407021226
 21
285.5127313282362
 31
0.0
 11
140.3433039984557
 21
285.5065092097977
 31
0.0
 11
140.3687278553393
 21
285.4967417767211
 31
0.0
 11
140.3927922144587
 21
285.4840176311694
 31
0.0
 11
140.4154142176749
 21
285.4689278212229
 31
0.0
 11
140.436673849548
 21
285.4519643361936
 31
0.0
 11
140.4566678600216
 21
285.433578579089
 31
0.0
 11
140.4755390726302
 21
285.4140455144069
 31
0.0
 11
140.5103370385364
 21
285.3724155752239
 31
0.0
 11
140.5418537211087
 21
285.3281900645558
 31
0.0
 11
140.5707329148692
 21
285.2822317790676
 31
0.0
 11
140.5974116858166
 21
285.2349842538606
 31
0.0
 11
140.6222591970012
 21
285.1867442637636
 31
0.0
 11
140.6455273963166
 21
285.1377192194216
 31
0.0
 11
140.6674296026249
 21
285.0880736433329
 31
0.0
 11
140.6881287868212
 21
285.0379138645716
 31
0.0
 11
140.7264231343182
 21
284.9363776289857
 31
0.0
 11
140.7611559583
 21
284.8335668303
 31
0.0
  0
SPLINE
  5
110
330
1F
100
AcDbEntity
  8
0
  6
Continuous
 62
     7
100
AcDbSpline
210
0.0
220
0.0
230
1.0
 70
     8
 71
     3
 72
    25
 73
    21
 74
    19
 42
0.0000000001
 43
0.0000000001
 44
0.00000001
 40
0.0
 40
0.0
 40
0.0
 40
0.0
 40
0.1085025556844375
 40
0.2170033620505218
 40
0.2712583157975543
 40
0.3255127643023589
 40
0.3797719179215689
 40
0.4340272286554289
 40
0.4882788892778984
 40
0.5425511686145814
 40
0.5968541105000962
 40
0.6511051290110285
 40
0.6782579264720365
 40
0.7054161158458128
 40
0.7326228693585626
 40
0.7598194768934475
 40
0.787069264379083
 40
0.8143404776739795
 40
0.8416356459080083
 40
0.8688504930247278
 40
0.8688504930247278
 40
0.8688504930247278
 40
0.8688504930247278
 10
137.4930856638
 20
284.8335668303
 30
0.0
 10
137.5044193143251
 20
284.8679156601505
 30
0.0
 10
137.5270864326499
 20
284.9366127660669
 30
0.0
 10
137.5590531570293
 20
285.0212279567891
 30
0.0
 10
137.5865930412696
 20
285.0881211576449
 30
0.0
 10
137.6084716614521
 20
285.1377775222279
 30
0.0
 10
137.6316938250341
 20
285.1868216868462
 30
0.0
 10
137.6564994587943
 20
285.2350866034955
 30
0.0
 10
137.6831122916812
 20
285.2823900117584
 30
0.0
 10
137.7119273629703
 20
285.3284123587619
 30
0.0
 10
137.7432778801333
 20
285.3727612377228
 30
0.0
 10
137.7722027156925
 20
285.4076268789347
 30
0.0
 10
137.7973246961973
 20
285.4336956424708
 30
0.0
 10
137.8173071369384
 20
285.4521348414485
 30
0.0
 10
137.8385089900418
 20
285.4691954924867
 30
0.0
 10
137.8611285362307
 20
285.4844018836392
 30
0.0
 10
137.8852353723838
 20
285.4972233626835
 30
0.0
 10
137.9107450247163
 20
285.5070081517757
 30
0.0
 10
137.9373566589534
 20
285.5135823594177
 30
0.0
 10
137.9555416923345
 20
285.5144691888569
 30
0.0
 10
137.9646208111
 20
285.5149119502
 30
0.0
 11
137.4930856638
 21
284.8335668303
 31
0.0
 11
137.5278130954368
 21
284.936361820849
 31
0.0
 11
137.5661011347667
 21
285.0378825134509
 31
0.0
 11
137.586796822346
 21
285.0880351656411
 31
0.0
 11
137.6086949275468
 21
285.1376740432591
 31
0.0
 11
137.6319583790179
 21
285.1866930964642
 31
0.0
 11
137.6568008670367
 21
285.234926793522
 31
0.0
 11
137.6834744316233
 21
285.2821683391417
 31
0.0
 11
137.712344386208
 21
285.3281249058833
 31
0.0
 11
137.743847532615
 21
285.3723556786991
 31
0.0
 11
137.7786388489793
 21
285.4139818401256
 31
0.0
 11
137.7975097418388
 21
285.4335052571587
 31
0.0
 11
137.817496283353
 21
285.4518928999756
 31
0.0
 11
137.8387438909234
 21
285.4688854456718
 31
0.0
 11
137.861358088075
 21
285.4839935080424
 31
0.0
 11
137.885457731644
 21
285.4967119237402
 31
0.0
 11
137.9109230271408
 21
285.5064709093348
 31
0.0
 11
137.9374949902361
 21
285.5127124625217
 31
0.0
 11
137.9646208111
 21
285.5149119502
 31
0.0
  0
SPLINE
  5
111
330
1F
100
AcDbEntity
  8
0
  6
Continuous
 62
     7
100
AcDbSpline
210
0.0
220
0.0
230
1.0
 70
     8
 71
     3
 72
    25
 73
    21
 74
    19
 42
0.0000000001
 43
0.0000000001
 44
0.00000001
 40
0.0
 40
0.0
 40
0.0
 40
0.0
 40
0.0272067661472617
 40
0.0544881809808966
 40
0.0817226175785812
 40
0.1089430470175853
 40
0.1361366761452292
 40
0.1633351632833502
 40
0.1904968257065579
 40
0.2176561384655063
 40
0.2719142874333277
 40
0.3262206322986088
 40
0.3804997303936769
 40
0.4347596646355517
 40
0.4890233385874638
 40
0.5432903873299034
 40
0.5975530058906225
 40
0.6518162746837693
 40
0.7603346282242014
 40
0.8688546603878207
 40
0.8688546603878207
 40
0.8688546603878207
 40
0.8688546603878207
 10
137.9646208111
 20
295.3872217103
 30
0.0
 10
137.9555443547685
 20
295.387658700595
 30
0.0
 10
137.9373665385378
 20
295.3885338801792
 30
0.0
 10
137.9107651365907
 20
295.3950728027653
 30
0.0
 10
137.8852908971188
 20
295.4048813242748
 30
0.0
 10
137.8612213960406
 20
295.4177198251391
 30
0.0
 10
137.8385985435041
 20
295.4328944458438
 30
0.0
 10
137.8173738462221
 20
295.4499234849274
 30
0.0
 10
137.7973886480344
 20
295.4683615316
 30
0.0
 10
137.7722726984041
 20
295.4944439003704
 30
0.0
 10
137.743339901268
 20
295.529309282168
 30
0.0
 10
137.7119705092814
 20
295.5736521165805
 30
0.0
 10
137.6831470882779
 20
295.619676748572
 30
0.0
 10
137.6565300963161
 20
295.6669867934624
 30
0.0
 10
137.6317191030657
 20
295.7152581318891
 30
0.0
 10
137.6084916419706
 20
295.764308807685
 30
0.0
 10
137.5866088037031
 20
295.8139722036897
 30
0.0
 10
137.5590640305523
 20
295.8808756630824
 30
0.0
 10
137.5270919099749
 20
295.9655042713626
 30
0.0
 10
137.5044211376386
 20
296.0342124668528
 30
0.0
 10
137.4930856638
 20
296.0685668303
 30
0.0
 11
137.9646208111
 21
295.3872217103
 31
0.0
 11
137.9375015032468
 21
295.3894014501368
 31
0.0
 11
137.9109388583028
 21
295.3956225022103
 31
0.0
 11
137.8855163079285
 21
295.4053902281104
 31
0.0
 11
137.861453098171
 21
295.4181147601259
 31
0.0
 11
137.838830256972
 21
295.4332045090044
 31
0.0
 11
137.8175696874007
 21
295.4501675831393
 31
0.0
 11
137.7975760916882
 21
295.4685526867854
 31
0.0
 11
137.7787054092157
 21
295.4880853674146
 31
0.0
 11
137.743907131383
 21
295.5297150033641
 31
0.0
 11
137.7123899449051
 21
295.5739399516302
 31
0.0
 11
137.6835103182714
 21
295.6198984944217
 31
0.0
 11
137.6568313487778
 21
295.6671464896246
 31
0.0
 11
137.6319835956613
 21
295.7153868821999
 31
0.0
 11
137.608715124489
 21
295.7644122922289
 31
0.0
 11
137.5868127202519
 21
295.8140582030545
 31
0.0
 11
137.56611337482
 21
295.864218341001
 31
0.0
 11
137.5278187410316
 21
295.9657553001742
 31
0.0
 11
137.4930856638
 21
296.0685668303
 31
0.0
  0
SPLINE
  5
112
330
1F
100
AcDbEntity
  8
0
  6
Continuous
 62
     7
100
AcDbSpline
210
0.0
220
0.0
230
1.0
 70
     8
 71
     3
 72
    25
 73
    21
 74
    19
 42
0.0000000001
 43
0.0000000001
 44
0.00000001
 40
0.0
 40
0.0
 40
0.0
 40
0.0
 40
0.1085285490977828
 40
0.2170554557159142
 40
0.2713241332978303
 40
0.3255921109320533
 40
0.3798650579452508
 40
0.4341347749101544
 40
0.4884007825063272
 40
0.5426855351803012
 40
0.5969918906406968
 40
0.6512511252795543
 40
0.6784124281182602
 40
0.7055751104943497
 40
0.7327602080947763
 40
0.7599421722285431
 40
0.7871532997313774
 40
0.8143760191640732
 40
0.8416525758078327
 40
0.8688563236380283
 40
0.8688563236380283
 40
0.8688563236380283
 40
0.8688563236380283
 10
140.7611559583
 20
296.0685668303
 30
0.0
 10
140.7498195348966
 20
296.0342097897218
 30
0.0
 10
140.727146859656
 20
295.9654962285277
 30
0.0
 10
140.6951718397922
 20
295.8808607073098
 30
0.0
 10
140.6676247813612
 20
295.8139512248892
 30
0.0
 10
140.6457396699888
 20
295.7642827551131
 30
0.0
 10
140.6225092458495
 20
295.715227095901
 30
0.0
 10
140.5976950137603
 20
295.6669506765655
 30
0.0
 10
140.5710750979224
 20
295.6196354751827
 30
0.0
 10
140.5422477421878
 20
295.5736086024806
 30
0.0
 10
140.5108713276965
 20
295.5292678859651
 30
0.0
 10
140.4819343925469
 20
295.4944048110708
 30
0.0
 10
140.4568176725543
 20
295.4683213062865
 30
0.0
 10
140.4368319960816
 20
295.44988856897
 30
0.0
 10
140.4156041289991
 20
295.4328760567569
 30
0.0
 10
140.392985785563
 20
295.4177162194182
 30
0.0
 10
140.368931739691
 20
295.4048732554323
 30
0.0
 10
140.343469270907
 20
295.3950562772631
 30
0.0
 10
140.3168714808647
 20
295.3885283267692
 30
0.0
 10
140.2986962710897
 20
295.387656860907
 30
0.0
 10
140.2896208111
 20
295.3872217103
 30
0.0
 11
140.7611559583
 21
296.0685668303
 31
0.0
 11
140.7264199553846
 21
295.9657472987375
 31
0.0
 11
140.6881221501204
 21
295.8642023945225
 31
0.0
 11
140.6674208117824
 21
295.814037227748
 31
0.0
 11
140.6455161619737
 21
295.7643864501784
 31
0.0
 11
140.6222447457857
 21
295.7153559090219
 31
0.0
 11
140.5973938116411
 21
295.667110357397
 31
0.0
 11
140.5707114507739
 21
295.6198573024801
 31
0.0
 11
140.5418265974996
 21
295.5738953657912
 31
0.0
 11
140.5103045664127
 21
295.5296738574547
 31
0.0
 11
140.4755021643371
 21
295.4880462541925
 31
0.0
 11
140.4566294615697
 21
295.4685127582906
 31
0.0
 11
140.4366314952209
 21
295.4501309015896
 31
0.0
 11
140.4153737205757
 21
295.4331857976159
 31
0.0
 11
140.3927566569066
 21
295.4181084104033
 31
0.0
 11
140.3687053312136
 21
295.4053813057685
 31
0.0
 11
140.3432967122224
 21
295.3956099939698
 31
0.0
 11
140.3167375930123
 21
295.3893951947674
 31
0.0
 11
140.2896208111
 21
295.3872217103
 31
0.0
  0
SPLINE
  5
113
330
1F
100
AcDbEntity
  8
RUNDUNGEN
  6
Continuous
 62
     7
100
AcDbSpline
210
0.0
220
0.0
230
1.0
 70
     8
 71
     3
 72
     9
 73
     5
 74
     3
 42
0.0000000001
 43
0.0000000001
 44
0.00000001
 40
0.0
 40
0.0
 40
0.0
 40
0.0
 40
1.023593990881892
 40
2.047187981647316
 40
2.047187981647316
 40
2.047187981647316
 40
2.047187981647316
 10
147.0771208111
 20
292.4980157793
 30
0.0
 10
147.0773589966708
 20
292.1568178654763
 30
0.0
 10
147.0778353678124
 20
291.474422037868
 30
0.0
 10
147.0783115720042
 20
290.7920262101431
 30
0.0
 10
147.0785496741
 20
290.4508282963
 30
0.0
 11
147.0771208111
 21
292.4980157793
 31
0.0
 11
147.077835326075
 21
291.4744220378
 31
0.0
 11
147.0785496741
 21
290.4508282963
 31
0.0
  0
SPLINE
  5
114
330
1F
100
AcDbEntity
  8
0
  6
Continuous
 62
     7
100
AcDbSpline
210
0.0
220
0.0
230
1.0
 70
     8
 71
     3
 72
    11
 73
     7
 74
     5
 42
0.0000000001
 43
0.0000000001
 44
0.00000001
 40
0.0
 40
0.0
 40
0.0
 40
0.0
 40
0.0720335617178661
 40
0.1441734620542763
 40
0.2163593593842871
 40
0.2883296529142009
 40
0.2883296529142009
 40
0.2883296529142009
 40
0.2883296529142009
 10
96.9151915421
 20
298.1870245363
 30
0.0
 10
96.93469759558107
 20
298.2010770063457
 30
0.0
 10
96.97373849810363
 20
298.2292026912152
 30
0.0
 10
97.03798042279236
 20
298.2624286841404
 30
0.0
 10
97.1058436194916
 20
298.2878598778144
 30
0.0
 10
97.15336060818427
 20
298.2956767738568
 30
0.0
 10
97.1770835687
 20
298.2995793763
 30
0.0
 11
96.9151915421
 21
298.1870245363
 31
0.0
 11
96.97465016804993
 21
298.2276878590111
 31
0.0
 11
97.0385735947955
 21
298.2611237788228
 31
0.0
 11
97.10648492388201
 21
298.2855952960426
 31
0.0
 11
97.1770835687
 21
298.2995793763
 31
0.0
  0
SPLINE
  5
115
330
1F
100
AcDbEntity
  8
0
  6
Continuous
 62
     7
100
AcDbSpline
210
0.0
220
0.0
230
1.0
 70
     8
 71
     3
 72
    27
 73
    23
 74
    21
 42
0.0000000001
 43
0.0000000001
 44
0.00000001
 40
0.0
 40
0.0
 40
0.0
 40
0.0
 40
0.0679422773460317
 40
0.1359904672705584
 40
0.1960311418290389
 40
0.2558288644337123
 40
0.2829045759171129
 40
0.3099751665569818
 40
0.335762141870832
 40
0.3615450077178922
 40
0.3868874812896752
 40
0.4122310012390694
 40
0.4380221513228294
 40
0.4638182097933863
 40
0.5190828347292491
 40
0.574582215468137
 40
0.6366003188381062
 40
0.6985580375664263
 40
0.7666673009205541
 40
0.8347923376037858
 40
0.9078434200739564
 40
0.9808740974615987
 40
0.9808740974615987
 40
0.9808740974615987
 40
0.9808740974615987
 10
96.2271208111
 20
297.9958507221
 30
0.0
 10
96.22758857115777
 20
298.0185074632036
 30
0.0
 10
96.22852482044632
 20
298.0638562641249
 30
0.0
 10
96.23764174188386
 20
298.1287443386973
 30
0.0
 10
96.25338429983421
 20
298.1895088300126
 30
0.0
 10
96.27295154365825
 20
298.2347296036157
 30
0.0
 10
96.29297206807566
 20
298.267067314274
 30
0.0
 10
96.30927365245853
 20
298.2882124195792
 30
0.0
 10
96.32754321477934
 20
298.3070865059942
 30
0.0
 10
96.34741656421824
 20
298.3233799922012
 30
0.0
 10
96.36898761355049
 20
298.3370725708172
 30
0.0
 10
96.39200599284368
 20
298.34816043321
 30
0.0
 10
96.41629840769306
 20
298.356547989076
 30
0.0
 10
96.4510735482599
 20
298.3645088438192
 30
0.0
 10
96.49679252790354
 20
298.367676730708
 30
0.0
 10
96.55429909025156
 20
298.3621653055048
 30
0.0
 10
96.6127424525072
 20
298.3486490935207
 30
0.0
 10
96.67323229162413
 20
298.3273838981563
 30
0.0
 10
96.7335536192108
 20
298.3002642545583
 30
0.0
 10
96.79492087807378
 20
298.2669963571158
 30
0.0
 10
96.85568888184973
 20
298.2294044827052
 30
0.0
 10
96.89535916909975
 20
298.2011498695423
 30
0.0
 10
96.9151915421
 20
298.1870245363
 30
0.0
 11
96.2271208111
 21
297.9958507221
 31
0.0
 11
96.22986907619263
 21
298.0637373930299
 31
0.0
 11
96.23936186680925
 21
298.1311202029914
 31
0.0
 11
96.25489069046999
 21
298.1891179463713
 31
0.0
 11
96.27905974402839
 21
298.2438136909845
 31
0.0
 11
96.29335524518953
 21
298.2668078815309
 31
0.0
 11
96.30992886213163
 21
298.288211902159
 31
0.0
 11
96.32788035551177
 21
298.3067243839283
 31
0.0
 11
96.34783851108122
 21
298.3230470123182
 31
0.0
 11
96.36922672940301
 21
298.3366405800528
 31
0.0
 11
96.39205699052995
 21
298.3476439059273
 31
0.0
 11
96.41642170078292
 21
298.3561022932992
 31
0.0
 11
96.44155960407848
 21
298.3618921508552
 31
0.0
 11
96.49665980126726
 21
298.3661520850166
 31
0.0
 11
96.55194096931521
 21
298.3612354071083
 31
0.0
 11
96.61242944210008
 21
298.3475463674867
 31
0.0
 11
96.67098361991285
 21
298.3272937831902
 31
0.0
 11
96.73316965916206
 21
298.2995130654684
 31
0.0
 11
96.79316301626143
 21
298.2672358641176
 31
0.0
 11
96.85525168996377
 21
298.2287461609757
 31
0.0
 11
96.9151915421
 21
298.1870245363
 31
0.0
  0
SPLINE
  5
116
330
1F
100
AcDbEntity
  8
0
  6
Continuous
 62
     7
100
AcDbSpline
210
0.0
220
0.0
230
1.0
 70
     8
 71
     3
 72
    13
 73
     9
 74
     7
 42
0.0000000001
 43
0.0000000001
 44
0.00000001
 40
0.0
 40
0.0
 40
0.0
 40
0.0
 40
0.131284806767221
 40
0.26261319145248
 40
0.3227000710711172
 40
0.3827285903040587
 40
0.4404671082375186
 40
0.4981359434446114
 40
0.4981359434446114
 40
0.4981359434446114
 40
0.4981359434446114
 10
137.4930856638
 20
296.0685668303
 30
0.0
 10
137.4577608514936
 20
296.0945962774999
 30
0.0
 10
137.3870995013671
 20
296.1466638119633
 30
0.0
 10
137.3175927410119
 20
296.2303393136467
 30
0.0
 10
137.2743356117586
 20
296.3022320220599
 30
0.0
 10
137.2496148480068
 20
296.3562392792954
 30
0.0
 10
137.2307739769069
 20
296.4117879275435
 30
0.0
 10
137.2237230419223
 20
296.4496481493564
 30
0.0
 10
137.2201997031
 20
296.4685668303
 30
0.0
 11
137.4930856638
 21
296.0685668303
 31
0.0
 11
137.3906342513141
 21
296.1506607312157
 31
0.0
 11
137.3061544849213
 21
296.2512107868808
 31
0.0
 11
137.2753186960264
 21
296.3027819728817
 31
0.0
 11
137.2502634473165
 21
296.3573315616371
 31
0.0
 11
137.2321039057815
 21
296.4121400236151
 31
0.0
 11
137.2201997031
 21
296.4685668303
 31
0.0
  0
SPLINE
  5
117
330
1F
100
AcDbEntity
  8
0
  6
Continuous
 62
     7
100
AcDbSpline
210
0.0
220
0.0
230
1.0
 70
     8
 71
     3
 72
    13
 73
     9
 74
     7
 42
0.0000000001
 43
0.0000000001
 44
0.00000001
 40
0.0
 40
0.0
 40
0.0
 40
0.0
 40
0.0576631896521245
 40
0.1153961315145633
 40
0.1754242231703054
 40
0.2355105400651616
 40
0.3668449112127842
 40
0.4981360904591703
 40
0.4981360904591703
 40
0.4981360904591703
 40
0.4981360904591703
 10
141.034041919
 20
296.4685668303
 30
0.0
 10
141.0305188812646
 20
296.4496500100913
 30
0.0
 10
141.0234685441552
 20
296.4117934869643
 30
0.0
 10
141.0046293295324
 20
296.356248450691
 30
0.0
 10
140.9799114217249
 20
296.3022423416896
 30
0.0
 10
140.9366562724037
 20
296.2303464586665
 30
0.0
 10
140.8671474222373
 20
296.1466671565497
 30
0.0
 10
140.7964825723869
 20
296.0945974178869
 30
0.0
 10
140.7611559583
 20
296.0685668303
 30
0.0
 11
141.034041919
 21
296.4685668303
 31
0.0
 11
141.0221388395678
 21
296.4121455564675
 31
0.0
 11
141.0039816488641
 21
296.3573421897657
 31
0.0
 11
140.9789283349592
 21
296.3027921828894
 31
0.0
 11
140.9480947024878
 21
296.2512203631948
 31
0.0
 11
140.8636124646288
 21
296.150664565097
 31
0.0
 11
140.7611559583
 21
296.0685668303
 31
0.0
  0
SPLINE
  5
118
330
1F
100
AcDbEntity
  8
0
  6
Continuous
 62
     7
100
AcDbSpline
210
0.0
220
0.0
230
1.0
 70
     8
 71
     3
 72
    11
 73
     7
 74
     5
 42
0.0000000001
 43
0.0000000001
 44
0.00000001
 40
0.0
 40
0.0
 40
0.0
 40
0.0
 40
0.1068456601100574
 40
0.2142571944618051
 40
0.3333679115773825
 40
0.4521343114959667
 40
0.4521343114959667
 40
0.4521343114959667
 40
0.4521343114959667
 10
137.22913563322
 20
284.478573085595
 30
0.0
 10
137.2398218818456
 20
284.5126817768299
 30
0.0
 10
137.2612509754324
 20
284.5810798051936
 30
0.0
 10
137.3202498109697
 20
284.6763331908335
 30
0.0
 10
137.3966657515775
 20
284.763471682281
 30
0.0
 10
137.4609767222076
 20
284.8102243384664
 30
0.0
 10
137.4930856638
 20
284.8335668303
 30
0.0
 11
137.22913563322
 21
284.478573085595
 31
0.0
 11
137.2652950692948
 21
284.5791140735905
 31
0.0
 11
137.3204372385233
 21
284.6712909626927
 31
0.0
 11
137.3996669795472
 21
284.7602292056992
 31
0.0
 11
137.4930856638
 21
284.8335668303
 31
0.0
  0
SPLINE
  5
119
330
1F
100
AcDbEntity
  8
0
  6
Continuous
 62
     7
100
AcDbSpline
210
0.0
220
0.0
230
1.0
 70
     8
 71
     3
 72
    13
 73
     9
 74
     7
 42
0.0000000001
 43
0.0000000001
 44
0.00000001
 40
0.0
 40
0.0
 40
0.0
 40
0.0
 40
0.131291194431281
 40
0.2626255806159711
 40
0.3227118843237901
 40
0.3827399628189113
 40
0.4404729026802439
 40
0.4981360903607202
 40
0.4981360903607202
 40
0.4981360903607202
 40
0.4981360903607202
 10
140.7611559583
 20
284.8335668303
 30
0.0
 10
140.7964825763252
 20
284.8075362394611
 30
0.0
 10
140.8671474340123
 20
284.7554664943237
 30
0.0
 10
140.9366562850757
 20
284.6717871850319
 30
0.0
 10
140.9799114294462
 20
284.5998913035086
 30
0.0
 10
141.0046293322272
 20
284.5458852026715
 30
0.0
 10
141.0234685446163
 20
284.490340171698
 30
0.0
 10
141.0305188814177
 20
284.4524836498661
 30
0.0
 10
141.034041919
 20
284.4335668303
 30
0.0
 11
140.7611559583
 21
284.8335668303
 31
0.0
 11
140.863612475544
 21
284.7514690848412
 31
0.0
 11
140.9480947194671
 21
284.6509132721985
 31
0.0
 11
140.9789283430689
 21
284.5993414625652
 31
0.0
 11
141.0039816504116
 21
284.5447914671573
 31
0.0
 11
141.0221388401207
 21
284.4899881022341
 31
0.0
 11
141.034041919
 21
284.4335668303
 31
0.0
  0
SPLINE
  5
11A
330
1F
100
AcDbEntity
  8
0
  6
Continuous
 62
     7
100
AcDbSpline
210
0.0
220
0.0
230
1.0
 70
     8
 71
     3
 72
    11
 73
     7
 74
     5
 42
0.0000000001
 43
0.0000000001
 44
0.00000001
 40
0.0
 40
0.0
 40
0.0
 40
0.0
 40
0.4419689634229026
 40
0.8839020538983526
 40
1.150518561921134
 40
1.416734593101665
 40
1.416734593101665
 40
1.416734593101665
 40
1.416734593101665
 10
96.9636110209
 20
282.8010668303
 30
0.0
 10
97.03231112106295
 20
282.9315910744897
 30
0.0
 10
97.16970574526175
 20
283.1926289687103
 30
0.0
 10
97.29463191683857
 20
283.5567980002895
 30
0.0
 10
97.36466828222588
 20
283.875183731156
 30
0.0
 10
97.37297204851171
 20
284.0529104840507
 30
0.0
 10
97.3771208111
 20
284.1417070708
 30
0.0
 11
96.9636110209
 21
282.8010668303
 31
0.0
 11
97.15935589658348
 21
283.1973249636837
 31
0.0
 11
97.30354311738932
 21
283.6150747713599
 31
0.0
 11
97.35719079714337
 21
283.8762381087702
 31
0.0
 11
97.3771208111
 21
284.1417070708
 31
0.0
  0
SPLINE
  5
11B
330
1F
100
AcDbEntity
  8
0
  6
Continuous
 62
     7
100
AcDbSpline
210
0.0
220
0.0
230
1.0
 70
     8
 71
     3
 72
    11
 73
     7
 74
     5
 42
0.0000000001
 43
0.0000000001
 44
0.00000001
 40
0.0
 40
0.0
 40
0.0
 40
0.0
 40
0.3847579053303005
 40
0.7696659746338264
 40
1.093183244058657
 40
1.416570809353094
 40
1.416570809353094
 40
1.416570809353094
 40
1.416570809353094
 10
97.3771208111
 20
296.7604265898
 30
0.0
 10
97.36849277331385
 20
296.8887731621173
 30
0.0
 10
97.35123333037626
 20
297.1455163980717
 30
0.0
 10
97.2453854123874
 20
297.4966106765849
 30
0.0
 10
97.1166072675093
 20
297.8158033430253
 30
0.0
 10
97.01460295249657
 20
298.0059917121029
 30
0.0
 10
96.9636110209
 20
298.1010668303
 30
0.0
 11
97.3771208111
 21
296.7604265898
 31
0.0
 11
97.33692633782013
 21
297.1430792391204
 31
0.0
 11
97.23358924862892
 21
297.5138563525085
 31
0.0
 11
97.11127253681784
 21
297.8133593502027
 31
0.0
 11
96.9636110209
 21
298.1010668303
 31
0.0
  0
DIMENSION
  5
126
330
1F
100
AcDbEntity
  8
1
100
AcDbDimension
  2
*D2
 10
207.552517371519
 20
307.9510668303
 30
0.0
 11
203.802517371519
 21
290.669080170177
 31
0.0
 70
    32
  1
<>
 71
     5
 42
-1.0
 53
90.0
  3
ME10_DIM_10
100
AcDbAlignedDimension
 13
175.1828915459
 23
272.9510668303
 33
0.0
 14
175.1828915459
 24
307.9510668303
 34
0.0
 50
90.0
100
AcDbRotatedDimension
  0
DIMENSION
  5
131
330
1F
100
AcDbEntity
  8
1
100
AcDbDimension
  2
*D3
 10
186.1271208111
 20
325.579335088443
 30
0.0
 11
166.789882512493
 21
329.329335088443
 31
0.0
 70
    32
  1
<>
 71
     5
 42
-1.0
 53
0.00013888888889
  3
ME10_DIM_11
100
AcDbAlignedDimension
 13
147.0771208111
 23
315.4510668303
 33
0.0
 14
186.1271208111
 24
302.3139965695
 34
0.0
100
AcDbRotatedDimension
  0
DIMENSION
  5
13C
330
1F
100
AcDbEntity
  8
1
100
AcDbDimension
  2
*D4
 10
121.1271208111
 20
334.688736249584
 30
0.0
 11
153.429427476153
 21
338.438736249584
 31
0.0
 70
    32
  1
<>
 71
     5
 42
-1.0
 53
0.00013888888889
  3
ME10_DIM_12
100
AcDbAlignedDimension
 13
186.1271208111
 23
302.3139965695
 33
0.0
 14
121.1271208111
 24
315.4510668303
 34
0.0
100
AcDbRotatedDimension
  0
DIMENSION
  5
147
330
1F
100
AcDbEntity
  8
1
100
AcDbDimension
  2
*D5
 10
96.2271208111
 20
342.988412863067
 30
0.0
 11
141.58720596667
 21
346.738412863067
 31
0.0
 70
    32
  1
<>
 71
     5
 42
-1.0
 53
0.00013888888889
  3
ME10_DIM_13
100
AcDbAlignedDimension
 13
186.1271208111
 23
302.3139965695
 33
0.0
 14
96.2271208111
 24
307.5074226115
 34
0.0
100
AcDbRotatedDimension
  0
DIMENSION
  5
152
330
1F
100
AcDbEntity
  8
1
100
AcDbDimension
  2
*D6
 10
196.610201585355
 20
295.4510668303
 30
0.0
 11
192.860201585355
 21
290.308380671511
 31
0.0
 70
    32
  1
<>
 71
     5
 42
-1.0
 53
90.0
  3
ME10_DIM_14
100
AcDbAlignedDimension
 13
186.1271208111
 23
285.4510668303
 33
0.0
 14
186.1271208111
 24
295.4510668303
 34
0.0
 50
90.0
100
AcDbRotatedDimension
  0
INSERT
  5
159
330
1F
100
AcDbEntity
  8
1
100
AcDbBlockReference
  2
*D7
 10
0.0
 20
0.0
 30
0.0
  0
ENDSEC
  0
SECTION
  2
OBJECTS
  0
DICTIONARY
  5
C
330
0
100
AcDbDictionary
281
     1
  3
ACAD_GROUP
350
D
  3
ACAD_LAYOUT
350
1A
  3
ACAD_MLEADERSTYLE
350
15C
  3
ACAD_MLINESTYLE
350
17
  3
ACAD_PLOTSETTINGS
350
19
  3
ACAD_PLOTSTYLENAME
350
E
  3
ACAD_SCALELIST
350
4B
  3
ACAD_VISUALSTYLE
350
2A
  3
AcDbVariableDictionary
350
15A
  0
DICTIONARY
  5
D
102
{ACAD_REACTORS
330
C
102
}
330
C
100
AcDbDictionary
281
     1
  0
DICTIONARY
  5
1A
102
{ACAD_REACTORS
330
C
102
}
330
C
100
AcDbDictionary
281
     1
  3
Layout1
350
1E
  3
Layout2
350
26
  3
Model
350
22
  0
DICTIONARY
  5
15C
102
{ACAD_REACTORS
330
C
102
}
330
C
100
AcDbDictionary
281
     1
  0
DICTIONARY
  5
17
102
{ACAD_REACTORS
330
C
102
}
330
C
100
AcDbDictionary
281
     1
  3
Standard
350
18
  0
DICTIONARY
  5
19
102
{ACAD_REACTORS
330
C
102
}
330
C
100
AcDbDictionary
281
     1
  0
ACDBDICTIONARYWDFLT
  5
E
102
{ACAD_REACTORS
330
C
102
}
330
C
100
AcDbDictionary
281
     1
  3
Normal
350
F
100
AcDbDictionaryWithDefault
340
F
  0
DICTIONARY
  5
4B
102
{ACAD_REACTORS
330
C
102
}
330
C
100
AcDbDictionary
281
     1
  3
A0
350
4C
  3
A1
350
4D
  3
A2
350
4E
  3
A3
350
4F
  3
A4
350
50
  3
A5
350
51
  3
A6
350
52
  3
A7
350
53
  3
A8
350
54
  3
A9
350
55
  3
B0
350
56
  3
B1
350
57
  3
B2
350
58
  3
B3
350
59
  3
B4
350
5A
  3
B5
350
5B
  3
B6
350
5C
  3
B7
350
5D
  3
B8
350
5E
  3
B9
350
5F
  3
C0
350
60
  3
C1
350
61
  3
C2
350
62
  3
C3
350
63
  3
C4
350
64
  3
C5
350
65
  3
C6
350
66
  3
C7
350
67
  3
C8
350
68
  3
C9
350
69
  3
D0
350
6A
  3
D1
350
6B
  3
D2
350
6C
  0
DICTIONARY
  5
2A
102
{ACAD_REACTORS
330
C
102
}
330
C
100
AcDbDictionary
281
     1
  3
2dWireframe
350
2F
  3
3D Hidden
350
31
  3
3dWireframe
350
30
  3
Basic
350
32
  3
Brighten
350
36
  3
ColorChange
350
3A
  3
Conceptual
350
34
  3
Dim
350
35
  3
Facepattern
350
39
  3
Flat
350
2B
  3
FlatWithEdges
350
2C
  3
Gouraud
350
2D
  3
GouraudWithEdges
350
2E
  3
Linepattern
350
38
  3
Realistic
350
33
  3
Thicken
350
37
  0
DICTIONARY
  5
15A
102
{ACAD_REACTORS
330
C
102
}
330
C
100
AcDbDictionary
281
     1
  3
CANNOSCALE
350
15D
  0
LAYOUT
  5
1E
102
{ACAD_REACTORS
330
1A
102
}
330
1A
100
AcDbPlotSettings
  1

  2
none_device
  4

  6

 40
0.0
 41
0.0
 42
0.0
 43
0.0
 44
0.0
 45
0.0
 46
0.0
 47
0.0
 48
0.0
 49
0.0
140
0.0
141
0.0
142
1.0
143
1.0
 70
   688
 72
     0
 73
     0
 74
     5
  7

 75
    16
147
1.0
148
0.0
149
0.0
100
AcDbLayout
  1
Layout1
 70
     1
 71
     1
 10
0.0
 20
0.0
 11
12.0
 21
9.0
 12
0.0
 22
0.0
 32
0.0
 14
1.00000000000000E+20
 24
1.00000000000000E+20
 34
1.00000000000000E+20
 15
-1.00000000000000E+20
 25
-1.00000000000000E+20
 35
-1.00000000000000E+20
146
0.0
 13
0.0
 23
0.0
 33
0.0
 16
1.0
 26
0.0
 36
0.0
 17
0.0
 27
1.0
 37
0.0
 76
     0
330
1B
  0
LAYOUT
  5
26
102
{ACAD_REACTORS
330
1A
102
}
330
1A
100
AcDbPlotSettings
  1

  2
none_device
  4

  6

 40
0.0
 41
0.0
 42
0.0
 43
0.0
 44
0.0
 45
0.0
 46
0.0
 47
0.0
 48
0.0
 49
0.0
140
0.0
141
0.0
142
1.0
143
1.0
 70
   688
 72
     0
 73
     0
 74
     5
  7

 75
    16
147
1.0
148
0.0
149
0.0
100
AcDbLayout
  1
Layout2
 70
     1
 71
     2
 10
0.0
 20
0.0
 11
0.0
 21
0.0
 12
0.0
 22
0.0
 32
0.0
 14
0.0
 24
0.0
 34
0.0
 15
0.0
 25
0.0
 35
0.0
146
0.0
 13
0.0
 23
0.0
 33
0.0
 16
1.0
 26
0.0
 36
0.0
 17
0.0
 27
1.0
 37
0.0
 76
     0
330
23
  0
LAYOUT
  5
22
102
{ACAD_REACTORS
330
1A
102
}
330
1A
100
AcDbPlotSettings
  1

  2
none_device
  4

  6

 40
0.0
 41
0.0
 42
0.0
 43
0.0
 44
0.0
 45
0.0
 46
0.0
 47
0.0
 48
0.0
 49
0.0
140
0.0
141
0.0
142
1.0
143
1.0
 70
  1712
 72
     0
 73
     0
 74
     0
  7

 75
     0
147
1.0
148
0.0
149
0.0
100
AcDbLayout
  1
Model
 70
     1
 71
     0
 10
0.0
 20
0.0
 11
12.0
 21
9.0
 12
0.0
 22
0.0
 32
0.0
 14
70.6285069561909
 24
245.1882725733308
 34
0.0
 15
209.552517371519
 25
353.957659490637
 35
0.0
146
0.0
 13
0.0
 23
0.0
 33
0.0
 16
1.0
 26
0.0
 36
0.0
 17
0.0
 27
1.0
 37
0.0
 76
     0
330
1F
331
29
  0
MLINESTYLE
  5
18
102
{ACAD_REACTORS
330
17
102
}
330
17
100
AcDbMlineStyle
  2
Standard
 70
     0
  3

 62
   256
 51
90.0
 52
90.0
 71
     2
 49
0.5
 62
   256
  6
BYLAYER
 49
-0.5
 62
   256
  6
BYLAYER
  0
ACDBPLACEHOLDER
  5
F
102
{ACAD_REACTORS
330
E
102
}
330
E
  0
SCALE
  5
4C
102
{ACAD_REACTORS
330
4B
102
}
330
4B
100
AcDbScale
 70
     0
300
1:1
140
1.0
141
1.0
290
     1
  0
SCALE
  5
4D
102
{ACAD_REACTORS
330
4B
102
}
330
4B
100
AcDbScale
 70
     0
300
1:2
140
1.0
141
2.0
290
     0
  0
SCALE
  5
4E
102
{ACAD_REACTORS
330
4B
102
}
330
4B
100
AcDbScale
 70
     0
300
1:4
140
1.0
141
4.0
290
     0
  0
SCALE
  5
4F
102
{ACAD_REACTORS
330
4B
102
}
330
4B
100
AcDbScale
 70
     0
300
1:5
140
1.0
141
5.0
290
     0
  0
SCALE
  5
50
102
{ACAD_REACTORS
330
4B
102
}
330
4B
100
AcDbScale
 70
     0
300
1:8
140
1.0
141
8.0
290
     0
  0
SCALE
  5
51
102
{ACAD_REACTORS
330
4B
102
}
330
4B
100
AcDbScale
 70
     0
300
1:10
140
1.0
141
10.0
290
     0
  0
SCALE
  5
52
102
{ACAD_REACTORS
330
4B
102
}
330
4B
100
AcDbScale
 70
     0
300
1:16
140
1.0
141
16.0
290
     0
  0
SCALE
  5
53
102
{ACAD_REACTORS
330
4B
102
}
330
4B
100
AcDbScale
 70
     0
300
1:20
140
1.0
141
20.0
290
     0
  0
SCALE
  5
54
102
{ACAD_REACTORS
330
4B
102
}
330
4B
100
AcDbScale
 70
     0
300
1:30
140
1.0
141
30.0
290
     0
  0
SCALE
  5
55
102
{ACAD_REACTORS
330
4B
102
}
330
4B
100
AcDbScale
 70
     0
300
1:40
140
1.0
141
40.0
290
     0
  0
SCALE
  5
56
102
{ACAD_REACTORS
330
4B
102
}
330
4B
100
AcDbScale
 70
     0
300
1:50
140
1.0
141
50.0
290
     0
  0
SCALE
  5
57
102
{ACAD_REACTORS
330
4B
102
}
330
4B
100
AcDbScale
 70
     0
300
1:100
140
1.0
141
100.0
290
     0
  0
SCALE
  5
58
102
{ACAD_REACTORS
330
4B
102
}
330
4B
100
AcDbScale
 70
     0
300
2:1
140
2.0
141
1.0
290
     0
  0
SCALE
  5
59
102
{ACAD_REACTORS
330
4B
102
}
330
4B
100
AcDbScale
 70
     0
300
4:1
140
4.0
141
1.0
290
     0
  0
SCALE
  5
5A
102
{ACAD_REACTORS
330
4B
102
}
330
4B
100
AcDbScale
 70
     0
300
8:1
140
8.0
141
1.0
290
     0
  0
SCALE
  5
5B
102
{ACAD_REACTORS
330
4B
102
}
330
4B
100
AcDbScale
 70
     0
300
10:1
140
10.0
141
1.0
290
     0
  0
SCALE
  5
5C
102
{ACAD_REACTORS
330
4B
102
}
330
4B
100
AcDbScale
 70
     0
300
100:1
140
100.0
141
1.0
290
     0
  0
SCALE
  5
5D
102
{ACAD_REACTORS
330
4B
102
}
330
4B
100
AcDbScale
 70
     0
300
1/128" = 1'-0"
140
0.0078125
141
12.0
290
     0
  0
SCALE
  5
5E
102
{ACAD_REACTORS
330
4B
102
}
330
4B
100
AcDbScale
 70
     0
300
1/64" = 1'-0"
140
0.015625
141
12.0
290
     0
  0
SCALE
  5
5F
102
{ACAD_REACTORS
330
4B
102
}
330
4B
100
AcDbScale
 70
     0
300
1/32" = 1'-0"
140
0.03125
141
12.0
290
     0
  0
SCALE
  5
60
102
{ACAD_REACTORS
330
4B
102
}
330
4B
100
AcDbScale
 70
     0
300
1/16" = 1'-0"
140
0.0625
141
12.0
290
     0
  0
SCALE
  5
61
102
{ACAD_REACTORS
330
4B
102
}
330
4B
100
AcDbScale
 70
     0
300
3/32" = 1'-0"
140
0.09375
141
12.0
290
     0
  0
SCALE
  5
62
102
{ACAD_REACTORS
330
4B
102
}
330
4B
100
AcDbScale
 70
     0
300
1/8" = 1'-0"
140
0.125
141
12.0
290
     0
  0
SCALE
  5
63
102
{ACAD_REACTORS
330
4B
102
}
330
4B
100
AcDbScale
 70
     0
300
3/16" = 1'-0"
140
0.1875
141
12.0
290
     0
  0
SCALE
  5
64
102
{ACAD_REACTORS
330
4B
102
}
330
4B
100
AcDbScale
 70
     0
300
1/4" = 1'-0"
140
0.25
141
12.0
290
     0
  0
SCALE
  5
65
102
{ACAD_REACTORS
330
4B
102
}
330
4B
100
AcDbScale
 70
     0
300
3/8" = 1'-0"
140
0.375
141
12.0
290
     0
  0
SCALE
  5
66
102
{ACAD_REACTORS
330
4B
102
}
330
4B
100
AcDbScale
 70
     0
300
1/2" = 1'-0"
140
0.5
141
12.0
290
     0
  0
SCALE
  5
67
102
{ACAD_REACTORS
330
4B
102
}
330
4B
100
AcDbScale
 70
     0
300
3/4" = 1'-0"
140
0.75
141
12.0
290
     0
  0
SCALE
  5
68
102
{ACAD_REACTORS
330
4B
102
}
330
4B
100
AcDbScale
 70
     0
300
1" = 1'-0"
140
1.0
141
12.0
290
     0
  0
SCALE
  5
69
102
{ACAD_REACTORS
330
4B
102
}
330
4B
100
AcDbScale
 70
     0
300
1-1/2" = 1'-0"
140
1.5
141
12.0
290
     0
  0
SCALE
  5
6A
102
{ACAD_REACTORS
330
4B
102
}
330
4B
100
AcDbScale
 70
     0
300
3" = 1'-0"
140
3.0
141
12.0
290
     0
  0
SCALE
  5
6B
102
{ACAD_REACTORS
330
4B
102
}
330
4B
100
AcDbScale
 70
     0
300
6" = 1'-0"
140
6.0
141
12.0
290
     0
  0
SCALE
  5
6C
102
{ACAD_REACTORS
330
4B
102
}
330
4B
100
AcDbScale
 70
     0
300
1'-0" = 1'-0"
140
12.0
141
12.0
290
     0
  0
VISUALSTYLE
  5
2F
102
{ACAD_REACTORS
330
2A
102
}
330
2A
100
AcDbVisualStyle
  2
2dWireframe
 70
     4
 71
     0
 72
     2
 73
     0
 90
        0
 40
-0.6
 41
-30.0
 62
     5
 63
     7
 74
     1
 91
        4
 64
     7
 65
   257
 75
     1
175
     1
 42
1.0
 92
        0
 66
   257
 43
1.0
 76
     1
 77
     6
 78
     2
 67
     7
 79
     5
170
     0
171
     0
290
     0
174
     0
 93
        1
 44
0.0
173
     0
291
     0
 45
0.0
1001
ACAD
1000
AcDbSavedByObjectVersion
1070
     0
  0
VISUALSTYLE
  5
31
102
{ACAD_REACTORS
330
2A
102
}
330
2A
100
AcDbVisualStyle
  2
3D Hidden
 70
     6
 71
     1
 72
     2
 73
     2
 90
        0
 40
-0.6
 41
-30.0
 62
     5
 63
     7
 74
     2
 91
        2
 64
     7
 65
   257
 75
     2
175
     1
 42
40.0
 92
        0
 66
   257
 43
1.0
 76
     1
 77
     6
 78
     2
 67
     7
 79
     3
170
     0
171
     0
290
     0
174
     0
 93
        1
 44
0.0
173
     0
291
     0
 45
0.0
1001
ACAD
1000
AcDbSavedByObjectVersion
1070
     0
  0
VISUALSTYLE
  5
30
102
{ACAD_REACTORS
330
2A
102
}
330
2A
100
AcDbVisualStyle
  2
3dWireframe
 70
     5
 71
     0
 72
     2
 73
     0
 90
        0
 40
-0.6
 41
-30.0
 62
     5
 63
     7
 74
     1
 91
        4
 64
     7
 65
   257
 75
     1
175
     1
 42
1.0
 92
        0
 66
   257
 43
1.0
 76
     1
 77
     6
 78
     2
 67
     7
 79
     5
170
     0
171
     0
290
     0
174
     0
 93
        1
 44
0.0
173
     0
291
     0
 45
0.0
1001
ACAD
1000
AcDbSavedByObjectVersion
1070
     0
  0
VISUALSTYLE
  5
32
102
{ACAD_REACTORS
330
2A
102
}
330
2A
100
AcDbVisualStyle
  2
Basic
 70
     7
 71
     1
 72
     0
 73
     1
 90
        0
 40
-0.6
 41
-30.0
 62
     5
 63
     7
 74
     0
 91
        4
 64
     7
 65
   257
 75
     1
175
     1
 42
1.0
 92
        8
 66
     7
 43
1.0
 76
     1
 77
     6
 78
     2
 67
     7
 79
     5
170
     0
171
     0
290
     0
174
     0
 93
        1
 44
0.0
173
     0
291
     1
 45
0.0
1001
ACAD
1000
AcDbSavedByObjectVersion
1070
     0
  0
VISUALSTYLE
  5
36
102
{ACAD_REACTORS
330
2A
102
}
330
2A
100
AcDbVisualStyle
  2
Brighten
 70
    12
 71
     2
 72
     2
 73
     0
 90
        0
 40
-0.6
 41
-30.0
 62
     5
 63
     7
 74
     1
 91
        4
 64
     7
 65
   257
 75
     1
175
     1
 42
1.0
 92
        8
 66
     7
 43
1.0
 76
     1
 77
     6
 78
     2
 67
     7
 79
     5
170
     0
171
     0
290
     0
174
     0
 93
        1
 44
50.0
173
     0
291
     1
 45
0.0
1001
ACAD
1000
AcDbSavedByObjectVersion
1070
     0
  0
VISUALSTYLE
  5
3A
102
{ACAD_REACTORS
330
2A
102
}
330
2A
100
AcDbVisualStyle
  2
ColorChange
 70
    16
 71
     2
 72
     2
 73
     3
 90
        0
 40
-0.6
 41
-30.0
 62
     5
 63
     8
 74
     1
 91
        4
 64
     7
 65
   257
 75
     1
175
     1
 42
1.0
 92
        8
 66
     8
 43
1.0
 76
     1
 77
     6
 78
     2
 67
     7
 79
     5
170
     0
171
     0
290
     0
174
     0
 93
        1
 44
0.0
173
     0
291
     1
 45
0.0
1001
ACAD
1000
AcDbSavedByObjectVersion
1070
     0
  0
VISUALSTYLE
  5
34
102
{ACAD_REACTORS
330
2A
102
}
330
2A
100
AcDbVisualStyle
  2
Conceptual
 70
     9
 71
     3
 72
     2
 73
     0
 90
        0
 40
-0.6
 41
-30.0
 62
     5
 63
     7
 74
     2
 91
        2
 64
     7
 65
   257
 75
     1
175
     1
 42
40.0
 92
        8
 66
     7
 43
1.0
 76
     1
 77
     6
 78
     2
 67
     7
 79
     3
170
     0
171
     0
290
     0
174
     0
 93
        1
 44
0.0
173
     0
291
     0
 45
0.0
1001
ACAD
1000
AcDbSavedByObjectVersion
1070
     0
  0
VISUALSTYLE
  5
35
102
{ACAD_REACTORS
330
2A
102
}
330
2A
100
AcDbVisualStyle
  2
Dim
 70
    11
 71
     2
 72
     2
 73
     0
 90
        0
 40
-0.6
 41
-30.0
 62
     5
 63
     7
 74
     1
 91
        4
 64
     7
 65
   257
 75
     1
175
     1
 42
1.0
 92
        8
 66
     7
 43
1.0
 76
     1
 77
     6
 78
     2
 67
     7
 79
     5
170
     0
171
     0
290
     0
174
     0
 93
        1
 44
-50.0
173
     0
291
     1
 45
0.0
1001
ACAD
1000
AcDbSavedByObjectVersion
1070
     0
  0
VISUALSTYLE
  5
39
102
{ACAD_REACTORS
330
2A
102
}
330
2A
100
AcDbVisualStyle
  2
Facepattern
 70
    15
 71
     2
 72
     2
 73
     0
 90
        0
 40
-0.6
 41
-30.0
 62
     5
 63
     7
 74
     1
 91
        4
 64
     7
 65
   257
 75
     1
175
     1
 42
1.0
 92
        8
 66
     7
 43
1.0
 76
     1
 77
     6
 78
     2
 67
     7
 79
     5
170
     0
171
     0
290
     0
174
     0
 93
        1
 44
0.0
173
     0
291
     1
 45
0.0
1001
ACAD
1000
AcDbSavedByObjectVersion
1070
     0
  0
VISUALSTYLE
  5
2B
102
{ACAD_REACTORS
330
2A
102
}
330
2A
100
AcDbVisualStyle
  2
Flat
 70
     0
 71
     2
 72
     1
 73
     1
 90
        2
 40
-0.6
 41
30.0
 62
     5
 63
     7
 74
     0
 91
        4
 64
     7
 65
   257
 75
     1
175
     1
 42
1.0
 92
        8
 66
     7
 43
1.0
 76
     1
 77
     6
 78
     2
 67
     7
 79
     5
170
     0
171
     0
290
     0
174
     0
 93
       13
 44
0.0
173
     0
291
     1
 45
0.0
1001
ACAD
1000
AcDbSavedByObjectVersion
1070
     0
  0
VISUALSTYLE
  5
2C
102
{ACAD_REACTORS
330
2A
102
}
330
2A
100
AcDbVisualStyle
  2
FlatWithEdges
 70
     1
 71
     2
 72
     1
 73
     1
 90
        2
 40
-0.6
 41
30.0
 62
     5
 63
     7
 74
     1
 91
        4
 64
     7
 65
   257
 75
     1
175
     1
 42
1.0
 92
        0
 66
   257
 43
1.0
 76
     1
 77
     6
 78
     2
 67
     7
 79
     5
170
     0
171
     0
290
     0
174
     0
 93
       13
 44
0.0
173
     0
291
     1
 45
0.0
1001
ACAD
1000
AcDbSavedByObjectVersion
1070
     0
  0
VISUALSTYLE
  5
2D
102
{ACAD_REACTORS
330
2A
102
}
330
2A
100
AcDbVisualStyle
  2
Gouraud
 70
     2
 71
     2
 72
     2
 73
     1
 90
        2
 40
-0.6
 41
30.0
 62
     5
 63
     7
 74
     0
 91
        4
 64
     7
 65
   257
 75
     1
175
     1
 42
1.0
 92
        0
 66
     7
 43
1.0
 76
     1
 77
     6
 78
     2
 67
     7
 79
     5
170
     0
171
     0
290
     0
174
     0
 93
       13
 44
0.0
173
     0
291
     1
 45
0.0
1001
ACAD
1000
AcDbSavedByObjectVersion
1070
     0
  0
VISUALSTYLE
  5
2E
102
{ACAD_REACTORS
330
2A
102
}
330
2A
100
AcDbVisualStyle
  2
GouraudWithEdges
 70
     3
 71
     2
 72
     2
 73
     1
 90
        2
 40
-0.6
 41
30.0
 62
     5
 63
     7
 74
     1
 91
        4
 64
     7
 65
   257
 75
     1
175
     1
 42
1.0
 92
        0
 66
   257
 43
1.0
 76
     1
 77
     6
 78
     2
 67
     7
 79
     5
170
     0
171
     0
290
     0
174
     0
 93
       13
 44
0.0
173
     0
291
     1
 45
0.0
1001
ACAD
1000
AcDbSavedByObjectVersion
1070
     0
  0
VISUALSTYLE
  5
38
102
{ACAD_REACTORS
330
2A
102
}
330
2A
100
AcDbVisualStyle
  2
Linepattern
 70
    14
 71
     2
 72
     2
 73
     0
 90
        0
 40
-0.6
 41
-30.0
 62
     5
 63
     7
 74
     1
 91
        4
 64
     7
 65
   257
 75
     7
175
     7
 42
1.0
 92
        8
 66
     7
 43
1.0
 76
     1
 77
     6
 78
     2
 67
     7
 79
     5
170
     0
171
     0
290
     0
174
     0
 93
        1
 44
0.0
173
     0
291
     1
 45
0.0
1001
ACAD
1000
AcDbSavedByObjectVersion
1070
     0
  0
VISUALSTYLE
  5
33
102
{ACAD_REACTORS
330
2A
102
}
330
2A
100
AcDbVisualStyle
  2
Realistic
 70
     8
 71
     2
 72
     2
 73
     0
 90
        0
 40
-0.6
 41
-30.0
 62
     5
 63
     7
 74
     1
 91
        0
 64
     7
 65
   257
 75
     1
175
     1
 42
1.0
 92
        8
 66
     8
 43
1.0
 76
     1
 77
     6
 78
     2
 67
     7
 79
     5
170
     0
171
     0
290
     0
174
     0
 93
       13
 44
0.0
173
     0
291
     0
 45
0.0
1001
ACAD
1000
AcDbSavedByObjectVersion
1070
     0
  0
VISUALSTYLE
  5
37
102
{ACAD_REACTORS
330
2A
102
}
330
2A
100
AcDbVisualStyle
  2
Thicken
 70
    13
 71
     2
 72
     2
 73
     0
 90
        0
 40
-0.6
 41
-30.0
 62
     5
 63
     7
 74
     1
 91
        4
 64
     7
 65
   257
 75
     1
175
     1
 42
1.0
 92
       12
 66
     7
 43
1.0
 76
     1
 77
     6
 78
     2
 67
     7
 79
     5
170
     0
171
     0
290
     0
174
     0
 93
        1
 44
0.0
173
     0
291
     1
 45
0.0
1001
ACAD
1000
AcDbSavedByObjectVersion
1070
     0
  0
DICTIONARYVAR
  5
15D
102
{ACAD_REACTORS
330
15A
102
}
330
15A
100
DictionaryVariables
280
     0
  1
1:1
  0
ENDSEC
  0
EOF
