  0
SECTION
  2
HEADER
  9
$ACADVER
  1
AC1015
  9
$ACADMAINTVER
 70
     6
  9
$DWGCODEPAGE
  3
ANSI_1252
  9
$INSBASE
 10
0.0
 20
0.0
 30
0.0
  9
$EXTMIN
 10
73.6460700163572
 20
238.2352094694048
 30
0.0
  9
$EXTMAX
 10
213.498788550056
 20
347.004596386711
 30
0.0
  9
$LIMMIN
 10
0.0
 20
0.0
  9
$LIMMAX
 10
12.0
 20
9.0
  9
$ORTHOMODE
 70
     0
  9
$REGENMODE
 70
     1
  9
$FILLMODE
 70
     1
  9
$QTEXTMODE
 70
     0
  9
$MIRRTEXT
 70
     1
  9
$LTSCALE
 40
1.0
  9
$ATTMODE
 70
     1
  9
$TEXTSIZE
 40
0.2
  9
$TRACEWID
 40
0.05
  9
$TEXTSTYLE
  7
Standard
  9
$CLAYER
  8
0
  9
$CELTYPE
  6
ByLayer
  9
$CECOLOR
 62
   256
  9
$CELTSCALE
 40
1.0
  9
$DISPSILH
 70
     0
  9
$DIMSCALE
 40
1.0
  9
$DIMASZ
 40
0.18
  9
$DIMEXO
 40
0.0625
  9
$DIMDLI
 40
0.38
  9
$DIMRND
 40
0.0
  9
$DIMDLE
 40
0.0
  9
$DIMEXE
 40
0.18
  9
$DIMTP
 40
0.0
  9
$DIMTM
 40
0.0
  9
$DIMTXT
 40
0.18
  9
$DIMCEN
 40
0.09
  9
$DIMTSZ
 40
0.0
  9
$DIMTOL
 70
     0
  9
$DIMLIM
 70
     0
  9
$DIMTIH
 70
     1
  9
$DIMTOH
 70
     1
  9
$DIMSE1
 70
     0
  9
$DIMSE2
 70
     0
  9
$DIMTAD
 70
     0
  9
$DIMZIN
 70
     0
  9
$DIMBLK
  1

  9
$DIMASO
 70
     1
  9
$DIMSHO
 70
     1
  9
$DIMPOST
  1

  9
$DIMAPOST
  1

  9
$DIMALT
 70
     0
  9
$DIMALTD
 70
     2
  9
$DIMALTF
 40
25.4
  9
$DIMLFAC
 40
1.0
  9
$DIMTOFL
 70
     0
  9
$DIMTVP
 40
0.0
  9
$DIMTIX
 70
     0
  9
$DIMSOXD
 70
     0
  9
$DIMSAH
 70
     0
  9
$DIMBLK1
  1

  9
$DIMBLK2
  1

  9
$DIMSTYLE
  2
Standard
  9
$DIMCLRD
 70
     0
  9
$DIMCLRE
 70
     0
  9
$DIMCLRT
 70
     0
  9
$DIMTFAC
 40
1.0
  9
$DIMGAP
 40
0.09
  9
$DIMJUST
 70
     0
  9
$DIMSD1
 70
     0
  9
$DIMSD2
 70
     0
  9
$DIMTOLJ
 70
     1
  9
$DIMTZIN
 70
     0
  9
$DIMALTZ
 70
     0
  9
$DIMALTTZ
 70
     0
  9
$DIMUPT
 70
     0
  9
$DIMDEC
 70
     4
  9
$DIMTDEC
 70
     4
  9
$DIMALTU
 70
     2
  9
$DIMALTTD
 70
     2
  9
$DIMTXSTY
  7
Standard
  9
$DIMAUNIT
 70
     0
  9
$DIMADEC
 70
     0
  9
$DIMALTRND
 40
0.0
  9
$DIMAZIN
 70
     0
  9
$DIMDSEP
 70
    46
  9
$DIMATFIT
 70
     3
  9
$DIMFRAC
 70
     0
  9
$DIMLDRBLK
  1

  9
$DIMLUNIT
 70
     2
  9
$DIMLWD
 70
    -2
  9
$DIMLWE
 70
    -2
  9
$DIMTMOVE
 70
     0
  9
$LUNITS
 70
     2
  9
$LUPREC
 70
     4
  9
$SKETCHINC
 40
0.1
  9
$FILLETRAD
 40
0.5
  9
$AUNITS
 70
     0
  9
$AUPREC
 70
     0
  9
$MENU
  1
.
  9
$ELEVATION
 40
0.0
  9
$PELEVATION
 40
0.0
  9
$THICKNESS
 40
0.0
  9
$LIMCHECK
 70
     0
  9
$CHAMFERA
 40
0.5
  9
$CHAMFERB
 40
0.5
  9
$CHAMFERC
 40
1.0
  9
$CHAMFERD
 40
0.0
  9
$SKPOLY
 70
     0
  9
$TDCREATE
 40
2456749.749278079
  9
$TDUCREATE
 40
2456749.665944745
  9
$TDUPDATE
 40
2456749.74927809
  9
$TDUUPDATE
 40
2456749.665944757
  9
$TDINDWG
 40
0.0000000116
  9
$TDUSRTIMER
 40
0.0000000116
  9
$USRTIMER
 70
     1
  9
$ANGBASE
 50
0.0
  9
$ANGDIR
 70
     0
  9
$PDMODE
 70
     0
  9
$PDSIZE
 40
0.0
  9
$PLINEWID
 40
0.0
  9
$SPLFRAME
 70
     0
  9
$SPLINETYPE
 70
     6
  9
$SPLINESEGS
 70
     8
  9
$HANDSEED
  5
161
  9
$SURFTAB1
 70
     6
  9
$SURFTAB2
 70
     6
  9
$SURFTYPE
 70
     6
  9
$SURFU
 70
     6
  9
$SURFV
 70
     6
  9
$UCSBASE
  2

  9
$UCSNAME
  2

  9
$UCSORG
 10
0.0
 20
0.0
 30
0.0
  9
$UCSXDIR
 10
1.0
 20
0.0
 30
0.0
  9
$UCSYDIR
 10
0.0
 20
1.0
 30
0.0
  9
$UCSORTHOREF
  2

  9
$UCSORTHOVIEW
 70
     0
  9
$UCSORGTOP
 10
0.0
 20
0.0
 30
0.0
  9
$UCSORGBOTTOM
 10
0.0
 20
0.0
 30
0.0
  9
$UCSORGLEFT
 10
0.0
 20
0.0
 30
0.0
  9
$UCSORGRIGHT
 10
0.0
 20
0.0
 30
0.0
  9
$UCSORGFRONT
 10
0.0
 20
0.0
 30
0.0
  9
$UCSORGBACK
 10
0.0
 20
0.0
 30
0.0
  9
$PUCSBASE
  2

  9
$PUCSNAME
  2

  9
$PUCSORG
 10
0.0
 20
0.0
 30
0.0
  9
$PUCSXDIR
 10
1.0
 20
0.0
 30
0.0
  9
$PUCSYDIR
 10
0.0
 20
1.0
 30
0.0
  9
$PUCSORTHOREF
  2

  9
$PUCSORTHOVIEW
 70
     0
  9
$PUCSORGTOP
 10
0.0
 20
0.0
 30
0.0
  9
$PUCSORGBOTTOM
 10
0.0
 20
0.0
 30
0.0
  9
$PUCSORGLEFT
 10
0.0
 20
0.0
 30
0.0
  9
$PUCSORGRIGHT
 10
0.0
 20
0.0
 30
0.0
  9
$PUCSORGFRONT
 10
0.0
 20
0.0
 30
0.0
  9
$PUCSORGBACK
 10
0.0
 20
0.0
 30
0.0
  9
$USERI1
 70
     0
  9
$USERI2
 70
     0
  9
$USERI3
 70
     0
  9
$USERI4
 70
     0
  9
$USERI5
 70
     0
  9
$USERR1
 40
16.5
  9
$USERR2
 40
0.0
  9
$USERR3
 40
0.0
  9
$USERR4
 40
0.0
  9
$USERR5
 40
0.0
  9
$WORLDVIEW
 70
     1
  9
$SHADEDGE
 70
     3
  9
$SHADEDIF
 70
    70
  9
$TILEMODE
 70
     1
  9
$MAXACTVP
 70
    64
  9
$PINSBASE
 10
0.0
 20
0.0
 30
0.0
  9
$PLIMCHECK
 70
     0
  9
$PEXTMIN
 10
1.00000000000000E+20
 20
1.00000000000000E+20
 30
1.00000000000000E+20
  9
$PEXTMAX
 10
-1.00000000000000E+20
 20
-1.00000000000000E+20
 30
-1.00000000000000E+20
  9
$PLIMMIN
 10
0.0
 20
0.0
  9
$PLIMMAX
 10
12.0
 20
9.0
  9
$UNITMODE
 70
     0
  9
$VISRETAIN
 70
     1
  9
$PLINEGEN
 70
     0
  9
$PSLTSCALE
 70
     1
  9
$TREEDEPTH
 70
  3020
  9
$CMLSTYLE
  2
Standard
  9
$CMLJUST
 70
     0
  9
$CMLSCALE
 40
1.0
  9
$PROXYGRAPHICS
 70
     1
  9
$MEASUREMENT
 70
     1
  9
$CELWEIGHT
370
    -1
  9
$ENDCAPS
280
     0
  9
$JOINSTYLE
280
     0
  9
$LWDISPLAY
290
     0
  9
$INSUNITS
 70
     1
  9
$HYPERLINKBASE
  1

  9
$STYLESHEET
  1

  9
$XEDIT
290
     1
  9
$CEPSNTYPE
380
     0
  9
$PSTYLEMODE
290
     1
  9
$FINGERPRINTGUID
  2
{DAB93553-B6CD-4583-8034-7C205701B994}
  9
$VERSIONGUID
  2
{FAEB1C32-E019-11D5-929B-00C0DF256EC4}
  9
$EXTNAMES
290
     1
  9
$PSVPSCALE
 40
0.0
  9
$OLESTARTUP
290
     0
  0
ENDSEC
  0
SECTION
  2
CLASSES
  0
CLASS
  1
ACDBDICTIONARYWDFLT
  2
AcDbDictionaryWithDefault
  3
ObjectDBX Classes
 90
        0
280
     0
281
     0
  0
CLASS
  1
VISUALSTYLE
  2
AcDbVisualStyle
  3
ObjectDBX Classes
 90
     4095
280
     0
281
     0
  0
CLASS
  1
SCALE
  2
AcDbScale
  3
ObjectDBX Classes
 90
     1153
280
     0
281
     0
  0
CLASS
  1

  2
exOdDbPolyline
  3

 90
        0
280
     0
281
     1
  0
CLASS
  1

  2
exOdDbCircle
  3

 90
        0
280
     0
281
     1
  0
CLASS
  1

  2
exOdDbSpline
  3

 90
        0
280
     0
281
     1
  0
CLASS
  1
DICTIONARYVAR
  2
AcDbDictionaryVar
  3
ObjectDBX Classes
 90
        0
280
     0
281
     0
  0
CLASS
  1
ACDBPLACEHOLDER
  2
AcDbPlaceHolder
  3
ObjectDBX Classes
 90
        0
280
     0
281
     0
  0
CLASS
  1
LAYOUT
  2
AcDbLayout
  3
ObjectDBX Classes
 90
        0
280
     0
281
     0
  0
ENDSEC
  0
SECTION
  2
TABLES
  0
TABLE
  2
VPORT
  5
8
330
0
100
AcDbSymbolTable
 70
     1
  0
VPORT
  5
29
330
8
100
AcDbSymbolTableRecord
100
AcDbViewportTableRecord
  2
*Active
 70
     0
 10
0.0
 20
0.0
 11
1.0
 21
1.0
 12
143.5724292832066
 22
292.6199029280579
 13
0.0
 23
0.0
 14
0.5
 24
0.5
 15
0.5
 25
0.5
 16
0.0
 26
0.0
 36
1.0
 17
0.0
 27
0.0
 37
0.0
 40
119.6463256090368
 41
1.60267857142857
 42
50.0
 43
0.0
 44
0.0
 50
0.0
 51
0.0
 71
     0
 72
   100
 73
     1
 74
     3
 75
     0
 76
     0
 77
     0
 78
     0
281
     0
 65
     1
110
0.0
120
0.0
130
0.0
111
1.0
121
0.0
131
0.0
112
0.0
122
1.0
132
0.0
 79
     0
146
0.0
  0
ENDTAB
  0
TABLE
  2
LTYPE
  5
5
330
0
100
AcDbSymbolTable
 70
     9
  0
LTYPE
  5
14
330
5
100
AcDbSymbolTableRecord
100
AcDbLinetypeTableRecord
  2
ByBlock
 70
     0
  3

 72
    65
 73
     0
 40
0.0
  0
LTYPE
  5
15
330
5
100
AcDbSymbolTableRecord
100
AcDbLinetypeTableRecord
  2
ByLayer
 70
     0
  3

 72
    65
 73
     0
 40
0.0
  0
LTYPE
  5
16
330
5
100
AcDbSymbolTableRecord
100
AcDbLinetypeTableRecord
  2
Continuous
 70
     0
  3
Solid line
 72
    65
 73
     0
 40
0.0
  0
LTYPE
  5
3B
330
5
100
AcDbSymbolTableRecord
100
AcDbLinetypeTableRecord
  2
DASHED
 70
     0
  3
Dashed
 72
    65
 73
     2
 40
15.0
 49
7.0
 74
     0
 49
-8.0
 74
     0
  0
LTYPE
  5
3C
330
5
100
AcDbSymbolTableRecord
100
AcDbLinetypeTableRecord
  2
DOTTED
 70
     0
  3
Dotted
 72
    65
 73
     2
 40
1.0
 49
0.0
 74
     0
 49
-1.0
 74
     0
  0
LTYPE
  5
3D
330
5
100
AcDbSymbolTableRecord
100
AcDbLinetypeTableRecord
  2
DOT_CENTER
 70
     0
  3
Dot_Center
 72
    65
 73
     4
 40
14.0
 49
12.0
 74
     0
 49
-1.0
 74
     0
 49
0.0
 74
     0
 49
-1.0
 74
     0
  0
LTYPE
  5
3E
330
5
100
AcDbSymbolTableRecord
100
AcDbLinetypeTableRecord
  2
LONG_DASHED
 70
     0
  3
Long_Dashed
 72
    65
 73
     2
 40
15.0
 49
10.0
 74
     0
 49
-5.0
 74
     0
  0
LTYPE
  5
3F
330
5
100
AcDbSymbolTableRecord
100
AcDbLinetypeTableRecord
  2
DASH_CENTER
 70
     0
  3
Dash_Center
 72
    65
 73
     4
 40
14.0
 49
11.0
 74
     0
 49
-1.0
 74
     0
 49
1.0
 74
     0
 49
-1.0
 74
     0
  0
LTYPE
  5
40
330
5
100
AcDbSymbolTableRecord
100
AcDbLinetypeTableRecord
  2
PHANTOM
 70
     0
  3
Phantom
 72
    65
 73
     6
 40
13.0
 49
10.0
 74
     0
 49
-1.0
 74
     0
 49
0.0
 74
     0
 49
-1.0
 74
     0
 49
0.0
 74
     0
 49
-1.0
 74
     0
  0
LTYPE
  5
41
330
5
100
AcDbSymbolTableRecord
100
AcDbLinetypeTableRecord
  2
CENTER_DASH_DASH
 70
     0
  3
Center_Dash_Dash
 72
    65
 73
     6
 40
14.0
 49
9.0
 74
     0
 49
-1.0
 74
     0
 49
1.0
 74
     0
 49
-1.0
 74
     0
 49
1.0
 74
     0
 49
-1.0
 74
     0
  0
LTYPE
  5
42
330
5
100
AcDbSymbolTableRecord
100
AcDbLinetypeTableRecord
  2
HIDDEN
 70
     0
  3
HIDDEN
 72
    65
 73
     2
 40
4.0
 49
2.0
 74
     0
 49
-2.0
 74
     0
  0
ENDTAB
  0
TABLE
  2
LAYER
  5
2
330
0
100
AcDbSymbolTable
 70
     7
  0
LAYER
  5
10
330
2
100
AcDbSymbolTableRecord
100
AcDbLayerTableRecord
  2
0
 70
     0
 62
     7
  6
Continuous
370
    -3
390
F
  0
LAYER
  5
43
330
2
100
AcDbSymbolTableRecord
100
AcDbLayerTableRecord
  2
1
 70
     0
 62
     7
  6
Continuous
370
    -3
390
F
  0
LAYER
  5
44
330
2
100
AcDbSymbolTableRecord
100
AcDbLayerTableRecord
  2
BEZUGSACHSEN
 70
     0
 62
     7
  6
Continuous
370
    -3
390
F
  0
LAYER
  5
45
330
2
100
AcDbSymbolTableRecord
100
AcDbLayerTableRecord
  2
DEFAULT_2
 70
     0
 62
     7
  6
Continuous
370
    -3
390
F
  0
LAYER
  5
46
330
2
100
AcDbSymbolTableRecord
100
AcDbLayerTableRecord
  2
FASEN
 70
     0
 62
     7
  6
Continuous
370
    -3
390
F
  0
LAYER
  5
47
330
2
100
AcDbSymbolTableRecord
100
AcDbLayerTableRecord
  2
RUNDUNGEN
 70
     0
 62
     7
  6
Continuous
370
    -3
390
F
  0
LAYER
  5
48
330
2
100
AcDbSymbolTableRecord
100
AcDbLayerTableRecord
  2
TEIL_STARTBEZUEGE
 70
     0
 62
     7
  6
Continuous
370
    -3
390
F
  0
ENDTAB
  0
TABLE
  2
STYLE
  5
3
330
0
100
AcDbSymbolTable
 70
     2
  0
STYLE
  5
11
330
3
100
AcDbSymbolTableRecord
100
AcDbTextStyleTableRecord
  2
Standard
 70
     0
 40
0.0
 41
1.0
 50
0.0
 71
     0
 42
0.2
  3
txt
  4

  0
STYLE
  5
6F
330
3
100
AcDbSymbolTableRecord
100
AcDbTextStyleTableRecord
  2
CONVERTER_11
 70
     0
 40
0.0
 41
0.72
 50
0.0
 71
     0
 42
0.2
  3
txt.shx
  4

  0
ENDTAB
  0
TABLE
  2
VIEW
  5
6
330
0
100
AcDbSymbolTable
 70
     0
  0
ENDTAB
  0
TABLE
  2
UCS
  5
7
330
0
100
AcDbSymbolTable
 70
     0
  0
ENDTAB
  0
TABLE
  2
APPID
  5
9
330
0
100
AcDbSymbolTable
 70
     1
  0
APPID
  5
12
330
9
100
AcDbSymbolTableRecord
100
AcDbRegAppTableRecord
  2
ACAD
 70
     0
  0
ENDTAB
  0
TABLE
  2
DIMSTYLE
  5
A
330
0
100
AcDbSymbolTable
 70
     6
100
AcDbDimStyleTable
  0
DIMSTYLE
105
27
330
A
100
AcDbSymbolTableRecord
100
AcDbDimStyleTableRecord
  2
Standard
 70
     0
340
11
  0
DIMSTYLE
105
128
102
{ACAD_REACTORS
330
129
102
}
330
A
100
AcDbSymbolTableRecord
100
AcDbDimStyleTableRecord
  2
ME10_DIM_10
 70
     0
  3
\U+2300<>
 41
3.5
 42
2.0
 44
2.0
 71
     1
 73
     0
 74
     0
 77
     1
 78
     8
140
3.5
146
0.7
147
2.0
172
     1
173
     1
176
     2
177
     2
178
     3
271
     2
272
     0
340
6F
  0
DIMSTYLE
105
133
102
{ACAD_REACTORS
330
134
102
}
330
A
100
AcDbSymbolTableRecord
100
AcDbDimStyleTableRecord
  2
ME10_DIM_11
 70
     0
  3
\U+2300<>
 41
3.5
 42
2.0
 44
2.0
 71
     1
 73
     0
 74
     0
 77
     1
 78
     8
140
3.5
146
0.7
147
2.0
172
     1
173
     1
176
     2
177
     2
178
     3
271
     2
272
     0
340
6F
  0
DIMSTYLE
105
13E
102
{ACAD_REACTORS
330
13F
102
}
330
A
100
AcDbSymbolTableRecord
100
AcDbDimStyleTableRecord
  2
ME10_DIM_12
 70
     0
  3
<>
 41
3.5
 42
2.0
 44
2.0
 71
     1
 73
     0
 74
     0
 77
     1
 78
     8
140
3.5
146
0.7
147
2.0
172
     1
173
     1
176
     2
177
     2
178
     3
271
     0
272
     0
340
6F
  0
DIMSTYLE
105
149
102
{ACAD_REACTORS
330
14A
102
}
330
A
100
AcDbSymbolTableRecord
100
AcDbDimStyleTableRecord
  2
ME10_DIM_13
 70
     0
  3
<>
 41
3.5
 42
2.0
 44
2.0
 71
     1
 73
     0
 74
     0
 77
     1
 78
     8
140
3.5
146
0.7
147
2.0
172
     1
173
     1
176
     2
177
     2
178
     3
271
     2
272
     0
340
6F
  0
DIMSTYLE
105
154
102
{ACAD_REACTORS
330
155
102
}
330
A
100
AcDbSymbolTableRecord
100
AcDbDimStyleTableRecord
  2
ME10_DIM_14
 70
     0
  3
<>
 41
3.5
 42
2.0
 44
2.0
 71
     1
 73
     0
 74
     0
 77
     1
 78
     8
140
3.5
146
0.7
147
2.0
172
     1
173
     1
176
     2
177
     2
178
     3
271
     0
272
     0
340
6F
  0
ENDTAB
  0
TABLE
  2
BLOCK_RECORD
  5
1
330
0
100
AcDbSymbolTable
 70
     8
  0
BLOCK_RECORD
  5
1F
330
1
100
AcDbSymbolTableRecord
100
AcDbBlockTableRecord
  2
*Model_Space
340
22
  0
BLOCK_RECORD
  5
1B
330
1
100
AcDbSymbolTableRecord
100
AcDbBlockTableRecord
  2
*Paper_Space
340
1E
  0
BLOCK_RECORD
  5
23
330
1
100
AcDbSymbolTableRecord
100
AcDbBlockTableRecord
  2
*Paper_Space0
340
26
  0
BLOCK_RECORD
  5
49
330
1
100
AcDbSymbolTableRecord
100
AcDbBlockTableRecord
  2
Urheberrecht_DE-EN
340
0
102
{BLKREFS
331
6E
102
}
  0
BLOCK_RECORD
  5
11D
330
1
100
AcDbSymbolTableRecord
100
AcDbBlockTableRecord
  2
*D2
340
0
  0
BLOCK_RECORD
  5
12A
330
1
100
AcDbSymbolTableRecord
100
AcDbBlockTableRecord
  2
*D3
340
0
  0
BLOCK_RECORD
  5
135
330
1
100
AcDbSymbolTableRecord
100
AcDbBlockTableRecord
  2
*D4
340
0
  0
BLOCK_RECORD
  5
140
330
1
100
AcDbSymbolTableRecord
100
AcDbBlockTableRecord
  2
*D5
340
0
  0
BLOCK_RECORD
  5
14B
330
1
100
AcDbSymbolTableRecord
100
AcDbBlockTableRecord
  2
*D6
340
0
  0
BLOCK_RECORD
  5
156
330
1
100
AcDbSymbolTableRecord
100
AcDbBlockTableRecord
  2
*D7
340
0
102
{BLKREFS
331
15C
102
}
  0
ENDTAB
  0
ENDSEC
  0
SECTION
  2
BLOCKS
  0
BLOCK
  5
20
330
1F
100
AcDbEntity
  8
0
100
AcDbBlockBegin
  2
*Model_Space
 70
     0
 10
0.0
 20
0.0
 30
0.0
  3
*Model_Space
  1

  0
ENDBLK
  5
21
330
1F
100
AcDbEntity
  8
0
100
AcDbBlockEnd
  0
BLOCK
  5
1C
330
1B
100
AcDbEntity
 67
     1
  8
0
100
AcDbBlockBegin
  2
*Paper_Space
 70
     0
 10
0.0
 20
0.0
 30
0.0
  3
*Paper_Space
  1

  0
ENDBLK
  5
1D
330
1B
100
AcDbEntity
 67
     1
  8
0
100
AcDbBlockEnd
  0
BLOCK
  5
24
330
23
100
AcDbEntity
  8
0
100
AcDbBlockBegin
  2
*Paper_Space0
 70
     0
 10
0.0
 20
0.0
 30
0.0
  3
*Paper_Space0
  1

  0
ENDBLK
  5
25
330
23
100
AcDbEntity
  8
0
100
AcDbBlockEnd
  0
BLOCK
  5
4A
330
49
100
AcDbEntity
  8
0
100
AcDbBlockBegin
  2
Urheberrecht_DE-EN
 70
     0
 10
87.6460700163572
 20
294.524596386711
 30
0.0
  3
Urheberrecht_DE-EN
  1

  0
MTEXT
  5
70
330
49
100
AcDbEntity
  8
1
 62
     1
100
AcDbMText
 10
87.6460700163572
 20
294.524596386711
 30
0.0
 40
2.0
 41
0.0
 71
     7
 72
     1
  1
We own the copyright of this document. It \Pdetermined and may neither be copied or \Pmade accessible to outsiders without our\Ppermission.
  7
CONVERTER_11
 11
0.0
 21
1.0
 31
0.0
 73
     1
 44
0.90036014405762
  0
MTEXT
  5
71
330
49
100
AcDbEntity
  8
1
 62
     1
100
AcDbMText
 10
87.6460700163572
 20
238.2352094694048
 30
0.0
 40
2.0
 41
0.0
 71
     7
 72
     1
  1
F\U+00fcr diese Unterlage behalten wir das Ur-\Pheberrecht. Sie darf nur f\U+00fcr den von uns \Pbestimmten Zweck benutzt und ohne unsere \PZustimmung weder vervielf\U+00e4ltigt noch\PDritten zug\U+00e4nglich gemacht werden.
  7
CONVERTER_11
 11
0.0
 21
1.0
 31
0.0
 73
     1
 44
0.90036014405762
  0
ENDBLK
  5
4B
330
49
100
AcDbEntity
  8
0
100
AcDbBlockEnd
  0
BLOCK
  5
126
330
11D
100
AcDbEntity
  8
0
100
AcDbBlockBegin
  2
*D2
 70
     1
 10
0.0
 20
0.0
 30
0.0
  3
*D2
  1

  0
LINE
  5
11E
330
11D
100
AcDbEntity
  8
1
  6
Continuous
 62
     2
100
AcDbLine
 10
201.348220326522
 20
292.7907319797
 30
0.0
 11
201.348220326522
 21
285.7907319797
 31
0.0
  0
LINE
  5
11F
330
11D
100
AcDbEntity
  8
1
  6
Continuous
 62
     2
100
AcDbLine
 10
201.348220326522
 20
285.7907319797
 30
0.0
 11
201.348220326522
 21
277.7907319797
 31
0.0
  0
LINE
  5
120
330
11D
100
AcDbEntity
  8
1
  6
Continuous
 62
     2
100
AcDbLine
 10
201.348220326522
 20
277.7907319797
 30
0.0
 11
201.348220326522
 21
270.7907319797
 31
0.0
  0
LINE
  5
121
330
11D
100
AcDbEntity
  8
1
  6
Continuous
 62
     2
100
AcDbLine
 10
192.9384490457
 20
285.7907319797
 30
0.0
 11
203.348220326522
 21
285.7907319797
 31
0.0
  0
LINE
  5
122
330
11D
100
AcDbEntity
  8
1
  6
Continuous
 62
     2
100
AcDbLine
 10
192.9384490457
 20
277.7907319797
 30
0.0
 11
203.348220326522
 21
277.7907319797
 31
0.0
  0
SOLID
  5
123
330
11D
100
AcDbEntity
  8
1
 62
     2
100
AcDbTrace
 10
200.8874365849661
 20
289.2907319797
 30
0.0
 11
201.8090040680779
 21
289.2907319797
 31
0.0
 12
201.348220326522
 22
285.7907319797
 32
0.0
 13
201.348220326522
 23
285.7907319797
 33
0.0
  0
SOLID
  5
124
330
11D
100
AcDbEntity
  8
1
 62
     2
100
AcDbTrace
 10
201.8090040680779
 20
274.2907319797
 30
0.0
 11
200.8874365849661
 21
274.2907319797
 31
0.0
 12
201.348220326522
 22
277.7907319797
 32
0.0
 13
201.348220326522
 23
277.7907319797
 33
0.0
  0
MTEXT
  5
125
330
11D
100
AcDbEntity
  8
1
 62
     3
100
AcDbMText
 10
199.348220326522
 20
274.398301128602
 30
0.0
 40
3.5
 41
0.0
 71
     7
 72
     1
  1
\C3;%%c\C3;\C3;8\C2;\H2.45;\S^ ;\C3;
  7
CONVERTER_11
 11
0.0
 21
1.0
 31
0.0
 73
     1
 44
0.60024009603842
  0
ENDBLK
  5
127
330
11D
100
AcDbEntity
  8
0
100
AcDbBlockEnd
  0
BLOCK
  5
131
330
12A
100
AcDbEntity
  8
0
100
AcDbBlockBegin
  2
*D3
 70
     1
 10
0.0
 20
0.0
 30
0.0
  3
*D3
  1

  0
LINE
  5
12B
330
12A
100
AcDbEntity
  8
1
  6
Continuous
 62
     2
100
AcDbLine
 10
211.498788550056
 20
295.7907319797
 30
0.0
 11
211.498788550056
 21
267.7907319797
 31
0.0
  0
LINE
  5
12C
330
12A
100
AcDbEntity
  8
1
  6
Continuous
 62
     2
100
AcDbLine
 10
184.1387267011
 20
295.7907319797
 30
0.0
 11
213.498788550056
 21
295.7907319797
 31
0.0
  0
LINE
  5
12D
330
12A
100
AcDbEntity
  8
1
  6
Continuous
 62
     2
100
AcDbLine
 10
184.1387267011
 20
267.7907319797
 30
0.0
 11
213.498788550056
 21
267.7907319797
 31
0.0
  0
SOLID
  5
12E
330
12A
100
AcDbEntity
  8
1
 62
     2
100
AcDbTrace
 10
211.9595722916119
 20
292.2907319797
 30
0.0
 11
211.0380048085001
 21
292.2907319797
 31
0.0
 12
211.498788550056
 22
295.7907319797
 32
0.0
 13
211.498788550056
 23
295.7907319797
 33
0.0
  0
SOLID
  5
12F
330
12A
100
AcDbEntity
  8
1
 62
     2
100
AcDbTrace
 10
211.0380048085001
 20
271.2907319797
 30
0.0
 11
211.9595722916119
 21
271.2907319797
 31
0.0
 12
211.498788550056
 22
267.7907319797
 32
0.0
 13
211.498788550056
 23
267.7907319797
 33
0.0
  0
MTEXT
  5
130
330
12A
100
AcDbEntity
  8
1
 62
     3
100
AcDbMText
 10
209.498788550056
 20
273.191725171883
 30
0.0
 40
3.5
 41
0.0
 71
     7
 72
     1
  1
\C3;%%c\C3;\C3;28\C2;\H2.45;\S^ ;\C3;
  7
CONVERTER_11
 11
0.0
 21
1.0
 31
0.0
 73
     1
 44
0.60024009603842
  0
ENDBLK
  5
132
330
12A
100
AcDbEntity
  8
0
100
AcDbBlockEnd
  0
BLOCK
  5
13C
330
135
100
AcDbEntity
  8
0
100
AcDbBlockBegin
  2
*D4
 70
     1
 10
0.0
 20
0.0
 30
0.0
  3
*D4
  1

  0
LINE
  5
136
330
135
100
AcDbEntity
  8
1
  6
Continuous
 62
     2
100
AcDbLine
 10
190.9384490457
 20
314.226190085407
 30
0.0
 11
151.8884490457
 21
314.226190085407
 31
0.0
  0
LINE
  5
137
330
135
100
AcDbEntity
  8
1
  6
Continuous
 62
     2
100
AcDbLine
 10
151.8884490457
 20
308.7907319797
 30
0.0
 11
151.8884490457
 21
316.226190085407
 31
0.0
  0
LINE
  5
138
330
135
100
AcDbEntity
  8
1
  6
Continuous
 62
     2
100
AcDbLine
 10
190.9384490457
 20
293.1536617188
 30
0.0
 11
190.9384490457
 21
316.226190085407
 31
0.0
  0
SOLID
  5
139
330
135
100
AcDbEntity
  8
1
 62
     2
100
AcDbTrace
 10
187.4384490457
 20
313.7654063438511
 30
0.0
 11
187.4384490457
 21
314.6869738269629
 31
0.0
 12
190.9384490457
 22
314.226190085407
 32
0.0
 13
190.9384490457
 23
314.226190085407
 33
0.0
  0
SOLID
  5
13A
330
135
100
AcDbEntity
  8
1
 62
     2
100
AcDbTrace
 10
155.3884490457
 20
314.6869738269629
 30
0.0
 11
155.3884490457
 21
313.7654063438511
 31
0.0
 12
151.8884490457
 22
314.226190085407
 32
0.0
 13
151.8884490457
 23
314.226190085407
 33
0.0
  0
MTEXT
  5
13B
330
135
100
AcDbEntity
  8
1
 62
     3
100
AcDbMText
 10
170.339310299742
 20
316.226190085407
 30
0.0
 40
3.5
 41
0.0
 71
     7
 72
     1
  1
\C3;\C3;\C3;39\C2;\H2.45;\S^ ;\C3;
  7
CONVERTER_11
 11
0.9999999999970619
 21
2.424068405545306E-6
 31
0.0
 73
     1
 44
0.60024009603842
  0
ENDBLK
  5
13D
330
135
100
AcDbEntity
  8
0
100
AcDbBlockEnd
  0
BLOCK
  5
147
330
140
100
AcDbEntity
  8
0
100
AcDbBlockBegin
  2
*D5
 70
     1
 10
0.0
 20
0.0
 30
0.0
  3
*D5
  1

  0
LINE
  5
141
330
140
100
AcDbEntity
  8
1
  6
Continuous
 62
     2
100
AcDbLine
 10
190.9384490457
 20
323.428336413996
 30
0.0
 11
125.9384490457
 21
323.428336413996
 31
0.0
  0
LINE
  5
142
330
140
100
AcDbEntity
  8
1
  6
Continuous
 62
     2
100
AcDbLine
 10
190.9384490457
 20
293.1536617188
 30
0.0
 11
190.9384490457
 21
325.428336413996
 31
0.0
  0
LINE
  5
143
330
140
100
AcDbEntity
  8
1
  6
Continuous
 62
     2
100
AcDbLine
 10
125.9384490457
 20
308.7907319797
 30
0.0
 11
125.9384490457
 21
325.428336413996
 31
0.0
  0
SOLID
  5
144
330
140
100
AcDbEntity
  8
1
 62
     2
100
AcDbTrace
 10
187.4384490457
 20
322.9675526724401
 30
0.0
 11
187.4384490457
 21
323.8891201555519
 31
0.0
 12
190.9384490457
 22
323.428336413996
 32
0.0
 13
190.9384490457
 23
323.428336413996
 33
0.0
  0
SOLID
  5
145
330
140
100
AcDbEntity
  8
1
 62
     2
100
AcDbTrace
 10
129.4384490457
 20
323.8891201555519
 30
0.0
 11
129.4384490457
 21
322.9675526724401
 31
0.0
 12
125.9384490457
 22
323.428336413996
 32
0.0
 13
125.9384490457
 23
323.428336413996
 33
0.0
  0
MTEXT
  5
146
330
140
100
AcDbEntity
  8
1
 62
     3
100
AcDbMText
 10
157.193386973186
 20
325.428336413996
 30
0.0
 40
3.5
 41
0.0
 71
     7
 72
     1
  1
\C3;\C3;\C3;65\C2;\H2.45;\S^ ;\C3;
  7
CONVERTER_11
 11
0.9999999999970619
 21
2.424068405545306E-6
 31
0.0
 73
     1
 44
0.60024009603842
  0
ENDBLK
  5
148
330
140
100
AcDbEntity
  8
0
100
AcDbBlockEnd
  0
BLOCK
  5
152
330
14B
100
AcDbEntity
  8
0
100
AcDbBlockBegin
  2
*D6
 70
     1
 10
0.0
 20
0.0
 30
0.0
  3
*D6
  1

  0
LINE
  5
14C
330
14B
100
AcDbEntity
  8
1
  6
Continuous
 62
     2
100
AcDbLine
 10
101.0384490457
 20
332.327115281204
 30
0.0
 11
190.9384490457
 21
332.327115281204
 31
0.0
  0
LINE
  5
14D
330
14B
100
AcDbEntity
  8
1
  6
Continuous
 62
     2
100
AcDbLine
 10
190.9384490457
 20
293.1536617188
 30
0.0
 11
190.9384490457
 21
334.327115281204
 31
0.0
  0
LINE
  5
14E
330
14B
100
AcDbEntity
  8
1
  6
Continuous
 62
     2
100
AcDbLine
 10
101.0384490457
 20
300.8470877608
 30
0.0
 11
101.0384490457
 21
334.327115281204
 31
0.0
  0
SOLID
  5
14F
330
14B
100
AcDbEntity
  8
1
 62
     2
100
AcDbTrace
 10
104.5384490457
 20
332.7878990227599
 30
0.0
 11
104.5384490457
 21
331.8663315396481
 31
0.0
 12
101.0384490457
 22
332.327115281204
 32
0.0
 13
101.0384490457
 23
332.327115281204
 33
0.0
  0
SOLID
  5
150
330
14B
100
AcDbEntity
  8
1
 62
     2
100
AcDbTrace
 10
187.4384490457
 20
331.8663315396481
 30
0.0
 11
187.4384490457
 21
332.7878990227599
 31
0.0
 12
190.9384490457
 22
332.327115281204
 32
0.0
 13
190.9384490457
 23
332.327115281204
 33
0.0
  0
MTEXT
  5
151
330
14B
100
AcDbEntity
  8
1
 62
     3
100
AcDbMText
 10
146.980015773323
 20
334.327115281204
 30
0.0
 40
3.5
 41
0.0
 71
     7
 72
     1
  1
\C3;\C3;\C3;90\C2;\H2.45;\S^ ;\C3;
  7
CONVERTER_11
 11
0.9999999999970619
 21
2.424068405545306E-6
 31
0.0
 73
     1
 44
0.60024009603842
  0
ENDBLK
  5
153
330
14B
100
AcDbEntity
  8
0
100
AcDbBlockEnd
  0
BLOCK
  5
15A
330
156
100
AcDbEntity
  8
0
100
AcDbBlockBegin
  2
*D7
 70
     1
 10
0.0
 20
0.0
 30
0.0
  3
*D7
  1

  0
LINE
  5
157
330
156
100
AcDbEntity
  8
1
  6
Continuous
 62
     2
100
AcDbLine
 10
163.2959157177894
 20
306.2794645748637
 30
0.0
 11
153.3998180854607
 21
298.4462032155758
 31
0.0
  0
SOLID
  5
158
330
156
100
AcDbEntity
  8
1
 62
     2
100
AcDbTrace
 10
155.8581495342617
 20
300.9797635847634
 30
0.0
 11
156.430117596899
 21
300.2571716105124
 31
0.0
 12
153.3998180854607
 22
298.4462032155758
 32
0.0
 13
153.3998180854607
 23
298.4462032155758
 33
0.0
  0
MTEXT
  5
159
330
156
100
AcDbEntity
  8
1
 62
     3
100
AcDbMText
 10
156.2366729673288
 20
303.2424443592461
 30
0.0
 40
3.5
 41
0.0
 71
     7
 72
     1
  1
\C3; R\C3;\C3;7\C2;\H2.45;\S^ ;\C3;
  7
CONVERTER_11
 11
0.7840901371770393
 21
0.6206469663034627
 31
0.0
 73
     1
 44
0.60024009603842
  0
ENDBLK
  5
15B
330
156
100
AcDbEntity
  8
0
100
AcDbBlockEnd
  0
ENDSEC
  0
SECTION
  2
ENTITIES
  0
INSERT
  5
6E
330
1F
100
AcDbEntity
  8
0
100
AcDbBlockReference
  2
Urheberrecht_DE-EN
 10
87.6460700163572
 20
294.524596386711
 30
0.0
  0
LINE
  5
72
330
1F
100
AcDbEntity
  8
0
  6
Continuous
 62
     7
100
AcDbLine
 10
101.0384490457
 20
264.7343761982
 30
0.0
 11
101.0384490457
 21
275.3707319797
 31
0.0
  0
LINE
  5
73
330
1F
100
AcDbEntity
  8
0
  6
Continuous
 62
     7
100
AcDbLine
 10
101.0384490457
 20
288.2107319797
 30
0.0
 11
101.0384490457
 21
298.8470877608
 31
0.0
  0
LINE
  5
74
330
1F
100
AcDbEntity
  8
0
  6
Continuous
 62
     9
100
AcDbLine
 10
101.9884118034
 20
299.8458351138
 30
0.0
 11
101.9884118034
 21
289.6392445257
 31
0.0
  0
LINE
  5
75
330
1F
100
AcDbEntity
  8
0
  6
Continuous
 62
     9
100
AcDbLine
 10
101.9884118034
 20
273.9422194336
 30
0.0
 11
101.9884118034
 21
263.7356288455
 31
0.0
  0
LINE
  5
76
330
1F
100
AcDbEntity
  8
0
  6
Continuous
 62
     7
100
AcDbLine
 10
102.1884490457
 20
275.4813722202
 30
0.0
 11
102.1884490457
 21
276.5207319797
 31
0.0
  0
LINE
  5
77
330
1F
100
AcDbEntity
  8
0
  6
Continuous
 62
     7
100
AcDbLine
 10
102.1884490457
 20
287.0607319797
 30
0.0
 11
102.1884490457
 21
288.1000917391
 31
0.0
  0
LINE
  5
78
330
1F
100
AcDbEntity
  8
RUNDUNGEN
  6
Continuous
 62
     9
100
AcDbLine
 10
104.2384490457
 20
273.6862611821
 30
0.0
 11
104.2384490457
 21
276.5207319797
 31
0.0
  0
LINE
  5
79
330
1F
100
AcDbEntity
  8
RUNDUNGEN
  6
Continuous
 62
     9
100
AcDbLine
 10
104.2384490457
 20
287.0607319797
 30
0.0
 11
104.2384490457
 21
289.8952027772
 31
0.0
  0
LINE
  5
7A
330
1F
100
AcDbEntity
  8
RUNDUNGEN
  6
Continuous
 62
     7
100
AcDbLine
 10
105.6384490457
 20
287.7218822264
 30
0.0
 11
105.6384490457
 21
275.8595817329
 31
0.0
  0
LINE
  5
7B
330
1F
100
AcDbEntity
  8
0
  6
Continuous
 62
     7
100
AcDbLine
 10
101.7749392556
 20
274.1407319797
 30
0.0
 11
101.7265197767
 21
274.0547742736
 31
0.0
  0
LINE
  5
7C
330
1F
100
AcDbEntity
  8
0
  6
Continuous
 62
     7
100
AcDbLine
 10
101.7265197767
 20
289.5266896857
 30
0.0
 11
101.7749392556
 21
289.4407319797
 31
0.0
  0
LWPOLYLINE
  5
7D
330
1F
100
AcDbEntity
  8
BEZUGSACHSEN
  6
DOT_CENTER
 62
     7
100
AcDbPolyline
 90
        2
 70
     0
 43
0.25
 10
118.4384490457
 20
275.7907319797
 10
118.4384490457
 20
287.7907319797
  0
LINE
  5
7E
330
1F
100
AcDbEntity
  8
0
  6
Continuous
 62
     7
100
AcDbLine
 10
101.0384490457
 20
275.3707319797
 30
0.0
 11
102.1884490457
 21
276.5207319797
 31
0.0
  0
LINE
  5
7F
330
1F
100
AcDbEntity
  8
0
  6
Continuous
 62
     7
100
AcDbLine
 10
140.5465162142
 20
256.7907319797
 30
0.0
 11
125.9384490457
 21
256.7907319797
 31
0.0
  0
LINE
  5
80
330
1F
100
AcDbEntity
  8
0
  6
Continuous
 62
     7
100
AcDbLine
 10
147.3303818772
 20
256.7907319797
 30
0.0
 11
151.8884490457
 21
256.7907319797
 31
0.0
  0
LINE
  5
81
330
1F
100
AcDbEntity
  8
0
  6
Continuous
 62
     7
100
AcDbLine
 10
102.1884490457
 20
287.0607319797
 30
0.0
 11
101.0384490457
 21
288.2107319797
 31
0.0
  0
LINE
  5
82
330
1F
100
AcDbEntity
  8
0
  6
Continuous
 62
     7
100
AcDbLine
 10
123.9384490457
 20
300.9455319797
 30
0.0
 11
123.9384490457
 21
262.6359319797
 31
0.0
  0
LINE
  5
83
330
1F
100
AcDbEntity
  8
0
  6
Continuous
 62
     9
100
AcDbLine
 10
124.6085592787
 20
262.8154874754
 30
0.0
 11
124.6085592787
 21
300.7659764839
 31
0.0
  0
LINE
  5
84
330
1F
100
AcDbEntity
  8
0
  6
Continuous
 62
     9
100
AcDbLine
 10
124.7638507058
 20
262.8359319797
 30
0.0
 11
124.7638507058
 21
300.7455319797
 31
0.0
  0
LINE
  5
85
330
1F
100
AcDbEntity
  8
0
  6
Continuous
 62
     9
100
AcDbLine
 10
125.6362794152
 20
262.8359319797
 30
0.0
 11
125.6362794152
 21
300.7455319797
 31
0.0
  0
LINE
  5
86
330
1F
100
AcDbEntity
  8
0
  6
Continuous
 62
     7
100
AcDbLine
 10
125.9384490457
 20
306.7907319797
 30
0.0
 11
125.9384490457
 21
256.7907319797
 31
0.0
  0
LINE
  5
87
330
1F
100
AcDbEntity
  8
0
  6
Continuous
 62
     9
100
AcDbLine
 10
101.0384490457
 20
274.8335838687
 30
0.0
 11
102.1884490457
 21
275.4813722202
 31
0.0
  0
LINE
  5
88
330
1F
100
AcDbEntity
  8
0
  6
Continuous
 62
     7
100
AcDbLine
 10
142.7759490457
 20
260.3157319797
 30
0.0
 11
145.1009490457
 21
260.3157319797
 31
0.0
  0
LINE
  5
89
330
1F
100
AcDbEntity
  8
0
  6
Continuous
 62
     7
100
AcDbLine
 10
133.2707753286
 20
262.0580813721
 30
0.0
 11
140.5465162142
 21
262.0580813721
 31
0.0
  0
LINE
  5
8A
330
1F
100
AcDbEntity
  8
0
  6
Continuous
 62
     7
100
AcDbLine
 10
147.3303818772
 20
262.0580813721
 30
0.0
 11
151.8884490457
 21
262.0580813721
 31
0.0
  0
LINE
  5
8B
330
1F
100
AcDbEntity
  8
0
  6
Continuous
 62
     7
100
AcDbLine
 10
125.6362794152
 20
262.8359319797
 30
0.0
 11
124.7638507058
 21
262.8359319797
 31
0.0
  0
LINE
  5
8C
330
1F
100
AcDbEntity
  8
0
  6
Continuous
 62
     7
100
AcDbLine
 10
123.9384490457
 20
262.6359319797
 30
0.0
 11
101.9884118034
 21
263.7356288455
 31
0.0
  0
LINE
  5
8D
330
1F
100
AcDbEntity
  8
0
  6
Continuous
 62
     7
100
AcDbLine
 10
138.6321353186
 20
266.0407319797
 30
0.0
 11
142.0627859399
 21
266.0407319797
 31
0.0
  0
LINE
  5
8E
330
1F
100
AcDbEntity
  8
0
  6
Continuous
 62
     7
100
AcDbLine
 10
145.8141121515
 20
266.0407319797
 30
0.0
 11
151.8884490457
 21
266.0407319797
 31
0.0
  0
LINE
  5
8F
330
1F
100
AcDbEntity
  8
0
  6
Continuous
 62
     7
100
AcDbLine
 10
138.6321353186
 20
266.4407319797
 30
0.0
 11
142.0627859399
 21
266.4407319797
 31
0.0
  0
LINE
  5
90
330
1F
100
AcDbEntity
  8
0
  6
Continuous
 62
     7
100
AcDbLine
 10
145.8141121515
 20
266.4407319797
 30
0.0
 11
151.8884490457
 21
266.4407319797
 31
0.0
  0
LINE
  5
91
330
1F
100
AcDbEntity
  8
0
  6
Continuous
 62
     9
100
AcDbLine
 10
102.1884490457
 20
288.1000917391
 30
0.0
 11
101.0384490457
 21
288.7478800906
 31
0.0
  0
LWPOLYLINE
  5
92
330
1F
100
AcDbEntity
  8
BEZUGSACHSEN
  6
DOT_CENTER
 62
     7
100
AcDbPolyline
 90
        2
 70
     0
 43
0.25
 10
132.9384490457
 20
312.6856294075
 10
132.9384490457
 20
298.6856294075
  0
LINE
  5
93
330
1F
100
AcDbEntity
  8
0
  6
Continuous
 62
     7
100
AcDbLine
 10
145.8509490457
 20
304.2282791491
 30
0.0
 11
147.3303818772
 21
306.7907319797
 31
0.0
  0
LINE
  5
94
330
1F
100
AcDbEntity
  8
0
  6
Continuous
 62
     7
100
AcDbLine
 10
124.6085592787
 20
262.8154874754
 30
0.0
 11
123.9384490457
 21
262.6359319797
 31
0.0
  0
LINE
  5
95
330
1F
100
AcDbEntity
  8
0
  6
Continuous
 62
     7
100
AcDbLine
 10
158.8884490457
 20
267.7907319797
 30
0.0
 11
169.5384490457
 21
267.7907319797
 31
0.0
  0
LINE
  5
96
330
1F
100
AcDbEntity
  8
0
  6
Continuous
 62
     7
100
AcDbLine
 10
176.3384490457
 20
267.7907319797
 30
0.0
 11
182.1387267011
 21
267.7907319797
 31
0.0
  0
LINE
  5
97
330
1F
100
AcDbEntity
  8
0
  6
Continuous
 62
     7
100
AcDbLine
 10
145.8509490457
 20
259.3531848102
 30
0.0
 11
147.3303818772
 21
256.7907319797
 31
0.0
  0
LINE
  5
98
330
1F
100
AcDbEntity
  8
FASEN
  6
Continuous
 62
     9
100
AcDbLine
 10
138.6321353186
 20
266.0407319797
 30
0.0
 11
138.6321353186
 21
266.4407319797
 31
0.0
  0
LINE
  5
99
330
1F
100
AcDbEntity
  8
FASEN
  6
Continuous
 62
     9
100
AcDbLine
 10
138.9059490457
 20
276.1732319797
 30
0.0
 11
138.9059490457
 21
275.7732319797
 31
0.0
  0
LINE
  5
9A
330
1F
100
AcDbEntity
  8
FASEN
  6
Continuous
 62
     9
100
AcDbLine
 10
138.9059490457
 20
287.4082319797
 30
0.0
 11
138.9059490457
 21
287.8082319797
 31
0.0
  0
LINE
  5
9B
330
1F
100
AcDbEntity
  8
RUNDUNGEN
  6
Continuous
 62
     9
100
AcDbLine
 10
105.0565072219
 20
274.1407319797
 30
0.0
 11
104.2384490457
 21
274.1407319797
 31
0.0
  0
LINE
  5
9C
330
1F
100
AcDbEntity
  8
0
  6
Continuous
 62
     9
100
AcDbLine
 10
104.2384490457
 20
274.1407319797
 30
0.0
 11
101.7749392556
 21
274.1407319797
 31
0.0
  0
LINE
  5
9D
330
1F
100
AcDbEntity
  8
0
  6
Continuous
 62
     7
100
AcDbLine
 10
140.5465162142
 20
306.7907319797
 30
0.0
 11
140.5465162142
 21
287.8082319797
 31
0.0
  0
LINE
  5
9E
330
1F
100
AcDbEntity
  8
0
  6
Continuous
 62
     7
100
AcDbLine
 10
140.5465162142
 20
275.7732319797
 30
0.0
 11
140.5465162142
 21
266.4407319797
 31
0.0
  0
LINE
  5
9F
330
1F
100
AcDbEntity
  8
0
  6
Continuous
 62
     7
100
AcDbLine
 10
140.5465162142
 20
262.0580813721
 30
0.0
 11
140.5465162142
 21
256.7907319797
 31
0.0
  0
LINE
  5
A0
330
1F
100
AcDbEntity
  8
0
  6
Continuous
 62
     7
100
AcDbLine
 10
142.0259490457
 20
304.2282245369
 30
0.0
 11
142.0259490457
 21
287.8082319797
 31
0.0
  0
LINE
  5
A1
330
1F
100
AcDbEntity
  8
0
  6
Continuous
 62
     7
100
AcDbLine
 10
142.0259490457
 20
275.7732319797
 30
0.0
 11
142.0259490457
 21
266.4407319797
 31
0.0
  0
LINE
  5
A2
330
1F
100
AcDbEntity
  8
0
  6
Continuous
 62
     7
100
AcDbLine
 10
142.0259490457
 20
259.3531986514
 30
0.0
 11
142.0259490457
 21
265.7181427358
 31
0.0
  0
LINE
  5
A3
330
1F
100
AcDbEntity
  8
0
  6
Continuous
 62
     9
100
AcDbLine
 10
142.7759490457
 20
260.3157319797
 30
0.0
 11
142.7759490457
 21
276.8545770996
 31
0.0
  0
LINE
  5
A4
330
1F
100
AcDbEntity
  8
0
  6
Continuous
 62
     9
100
AcDbLine
 10
142.7759490457
 20
286.7268868597
 30
0.0
 11
142.7759490457
 21
303.2657319797
 31
0.0
  0
LINE
  5
A5
330
1F
100
AcDbEntity
  8
0
  6
Continuous
 62
     7
100
AcDbLine
 10
138.9059490457
 20
275.7732319797
 30
0.0
 11
142.0259490457
 21
275.7732319797
 31
0.0
  0
LINE
  5
A6
330
1F
100
AcDbEntity
  8
0
  6
Continuous
 62
     7
100
AcDbLine
 10
145.8509490457
 20
275.7732319797
 30
0.0
 11
151.8884490457
 21
275.7732319797
 31
0.0
  0
LINE
  5
A7
330
1F
100
AcDbEntity
  8
0
  6
Continuous
 62
     7
100
AcDbLine
 10
151.8884490457
 20
276.1732319797
 30
0.0
 11
145.572484193
 21
276.1732319797
 31
0.0
  0
LINE
  5
A8
330
1F
100
AcDbEntity
  8
0
  6
Continuous
 62
     7
100
AcDbLine
 10
142.3044138985
 20
276.1732319797
 30
0.0
 11
138.9059490457
 21
276.1732319797
 31
0.0
  0
LINE
  5
A9
330
1F
100
AcDbEntity
  8
0
  6
Continuous
 62
     7
100
AcDbLine
 10
104.2384490457
 20
276.5207319797
 30
0.0
 11
102.1884490457
 21
276.5207319797
 31
0.0
  0
LINE
  5
AA
330
1F
100
AcDbEntity
  8
0
  6
Continuous
 62
     7
100
AcDbLine
 10
142.7759490457
 20
276.8545770996
 30
0.0
 11
145.1009490457
 21
276.8545770996
 31
0.0
  0
LINE
  5
AB
330
1F
100
AcDbEntity
  8
0
  6
Continuous
 62
     9
100
AcDbLine
 10
145.1009490457
 20
260.3157319797
 30
0.0
 11
145.1009490457
 21
276.8545770996
 31
0.0
  0
LINE
  5
AC
330
1F
100
AcDbEntity
  8
0
  6
Continuous
 62
     9
100
AcDbLine
 10
145.1009490457
 20
286.7268868597
 30
0.0
 11
145.1009490457
 21
303.2657319797
 31
0.0
  0
LINE
  5
AD
330
1F
100
AcDbEntity
  8
0
  6
Continuous
 62
     7
100
AcDbLine
 10
145.8509490457
 20
275.7732319797
 30
0.0
 11
145.8509490457
 21
266.4407319797
 31
0.0
  0
LINE
  5
AE
330
1F
100
AcDbEntity
  8
0
  6
Continuous
 62
     7
100
AcDbLine
 10
145.8509490457
 20
259.3531986514
 30
0.0
 11
145.8509490457
 21
265.7181427358
 31
0.0
  0
LINE
  5
AF
330
1F
100
AcDbEntity
  8
0
  6
Continuous
 62
     7
100
AcDbLine
 10
145.8509490457
 20
287.8082319797
 30
0.0
 11
145.8509490457
 21
304.2282245369
 31
0.0
  0
LWPOLYLINE
  5
B0
330
1F
100
AcDbEntity
  8
DEFAULT_2
  6
DASHED
 62
     8
100
AcDbPolyline
 90
        2
 70
     0
 43
0.35
 10
151.9384490457
 20
277.7907319797
 10
176.3384490457
 20
277.7907319797
  0
LINE
  5
B1
330
1F
100
AcDbEntity
  8
DEFAULT_2
  6
HIDDEN
 62
     8
100
AcDbLine
 10
176.3384490457
 20
277.7907319797
 30
0.0
 11
190.9384490457
 21
277.7907319797
 31
0.0
  0
LINE
  5
B2
330
1F
100
AcDbEntity
  8
0
  6
Continuous
 62
     7
100
AcDbLine
 10
147.3303818772
 20
275.7732319797
 30
0.0
 11
147.3303818772
 21
266.4407319797
 31
0.0
  0
LINE
  5
B3
330
1F
100
AcDbEntity
  8
0
  6
Continuous
 62
     7
100
AcDbLine
 10
147.3303818772
 20
256.7907319797
 30
0.0
 11
147.3303818772
 21
262.0580813721
 31
0.0
  0
LINE
  5
B4
330
1F
100
AcDbEntity
  8
0
  6
Continuous
 62
     7
100
AcDbLine
 10
147.3303818772
 20
287.8082319797
 30
0.0
 11
147.3303818772
 21
306.7907319797
 31
0.0
  0
LWPOLYLINE
  5
B5
330
1F
100
AcDbEntity
  8
TEIL_STARTBEZUEGE
  6
DOT_CENTER
 62
     7
100
AcDbPolyline
 90
        2
 70
     0
 43
0.25
 10
193.9384490457
 20
281.7907319797
 10
98.0384490457
 20
281.7907319797
  0
LINE
  5
B6
330
1F
100
AcDbEntity
  8
0
  6
Continuous
 62
     7
100
AcDbLine
 10
151.8884490457
 20
306.7906819611
 30
0.0
 11
151.8884490457
 21
287.8082319797
 31
0.0
  0
LINE
  5
B7
330
1F
100
AcDbEntity
  8
FASEN
  6
Continuous
 62
     7
100
AcDbLine
 10
151.8884490457
 20
287.8082319797
 30
0.0
 11
151.8884490457
 21
287.4082319797
 31
0.0
  0
LINE
  5
B8
330
1F
100
AcDbEntity
  8
FASEN
  6
Continuous
 62
     7
100
AcDbLine
 10
151.8884490457
 20
276.1732319797
 30
0.0
 11
151.8884490457
 21
275.7732319797
 31
0.0
  0
LINE
  5
B9
330
1F
100
AcDbEntity
  8
0
  6
Continuous
 62
     7
100
AcDbLine
 10
151.8884490457
 20
275.7732319797
 30
0.0
 11
151.8884490457
 21
266.4407319797
 31
0.0
  0
LINE
  5
BA
330
1F
100
AcDbEntity
  8
0
  6
Continuous
 62
     7
100
AcDbLine
 10
151.8884490457
 20
262.0580813721
 30
0.0
 11
151.8884490457
 21
256.7907455238
 31
0.0
  0
LINE
  5
BB
330
1F
100
AcDbEntity
  8
FASEN
  6
Continuous
 62
     7
100
AcDbLine
 10
151.8884490457
 20
262.0580813721
 30
0.0
 11
151.8884490457
 21
266.4407319797
 31
0.0
  0
LINE
  5
BC
330
1F
100
AcDbEntity
  8
RUNDUNGEN
  6
Continuous
 62
     7
100
AcDbLine
 10
151.8884490457
 20
276.1732319797
 30
0.0
 11
151.8884490457
 21
279.7437233394
 31
0.0
  0
LINE
  5
BD
330
1F
100
AcDbEntity
  8
RUNDUNGEN
  6
Continuous
 62
     7
100
AcDbLine
 10
151.8884490457
 20
283.8377150055
 30
0.0
 11
151.8884490457
 21
287.4082319797
 31
0.0
  0
LWPOLYLINE
  5
BE
330
1F
100
AcDbEntity
  8
DEFAULT_2
  6
DASHED
 62
     8
100
AcDbPolyline
 90
        2
 70
     0
 43
0.35
 10
151.9384490457
 20
285.7907319797
 10
151.9384490457
 20
277.7907319797
  0
LINE
  5
BF
330
1F
100
AcDbEntity
  8
0
  6
Continuous
 62
     7
100
AcDbLine
 10
140.5465162142
 20
256.7907319797
 30
0.0
 11
142.0259490457
 21
259.3531848102
 31
0.0
  0
LWPOLYLINE
  5
C0
330
1F
100
AcDbEntity
  8
DEFAULT_2
  6
DASHED
 62
     8
100
AcDbPolyline
 90
        2
 70
     0
 43
0.35
 10
190.9384490457
 20
285.7907319797
 10
151.9384490457
 20
285.7907319797
  0
LINE
  5
C1
330
1F
100
AcDbEntity
  8
0
  6
Continuous
 62
     7
100
AcDbLine
 10
145.1009490457
 20
286.7268868597
 30
0.0
 11
142.7759490457
 21
286.7268868597
 31
0.0
  0
LINE
  5
C2
330
1F
100
AcDbEntity
  8
0
  6
Continuous
 62
     7
100
AcDbLine
 10
104.2384490457
 20
287.0607319797
 30
0.0
 11
102.1884490457
 21
287.0607319797
 31
0.0
  0
LINE
  5
C3
330
1F
100
AcDbEntity
  8
0
  6
Continuous
 62
     7
100
AcDbLine
 10
138.9059490457
 20
287.4082319797
 30
0.0
 11
142.3044138985
 21
287.4082319797
 31
0.0
  0
LINE
  5
C4
330
1F
100
AcDbEntity
  8
0
  6
Continuous
 62
     7
100
AcDbLine
 10
145.572484193
 20
287.4082319797
 30
0.0
 11
151.8884490457
 21
287.4082319797
 31
0.0
  0
LINE
  5
C5
330
1F
100
AcDbEntity
  8
0
  6
Continuous
 62
     7
100
AcDbLine
 10
138.9059490457
 20
287.8082319797
 30
0.0
 11
142.0259490457
 21
287.8082319797
 31
0.0
  0
LINE
  5
C6
330
1F
100
AcDbEntity
  8
0
  6
Continuous
 62
     7
100
AcDbLine
 10
145.8509490457
 20
287.8082319797
 30
0.0
 11
151.8884490457
 21
287.8082319797
 31
0.0
  0
LINE
  5
C7
330
1F
100
AcDbEntity
  8
0
  6
Continuous
 62
     9
100
AcDbLine
 10
104.2384490457
 20
289.4407319797
 30
0.0
 11
101.7749392556
 21
289.4407319797
 31
0.0
  0
LINE
  5
C8
330
1F
100
AcDbEntity
  8
RUNDUNGEN
  6
Continuous
 62
     9
100
AcDbLine
 10
104.2384490457
 20
289.4407319797
 30
0.0
 11
105.0565072219
 21
289.4407319797
 31
0.0
  0
LINE
  5
C9
330
1F
100
AcDbEntity
  8
0
  6
Continuous
 62
     7
100
AcDbLine
 10
140.5465162142
 20
306.7907319797
 30
0.0
 11
142.0259490457
 21
304.2282791491
 31
0.0
  0
LINE
  5
CA
330
1F
100
AcDbEntity
  8
RUNDUNGEN
  6
Continuous
 62
     9
100
AcDbLine
 10
158.8884490457
 20
295.7907319797
 30
0.0
 11
158.8884490457
 21
267.7907319797
 31
0.0
  0
LINE
  5
CB
330
1F
100
AcDbEntity
  8
0
  6
Continuous
 62
     7
100
AcDbLine
 10
124.6085592787
 20
300.7659764839
 30
0.0
 11
123.9384490457
 21
300.9455319797
 31
0.0
  0
LINE
  5
CC
330
1F
100
AcDbEntity
  8
RUNDUNGEN
  6
Continuous
 62
     7
100
AcDbLine
 10
182.1387267011
 20
295.7907319797
 30
0.0
 11
158.8884490457
 21
295.7907319797
 31
0.0
  0
LINE
  5
CD
330
1F
100
AcDbEntity
  8
0
  6
Continuous
 62
     7
100
AcDbLine
 10
158.8884490457
 20
295.7907319797
 30
0.0
 11
182.1387267011
 21
295.7907319797
 31
0.0
  0
LINE
  5
CE
330
1F
100
AcDbEntity
  8
0
  6
Continuous
 62
     7
100
AcDbLine
 10
125.6362794152
 20
300.7455319797
 30
0.0
 11
124.7638507058
 21
300.7455319797
 31
0.0
  0
LWPOLYLINE
  5
CF
330
1F
100
AcDbEntity
  8
BEZUGSACHSEN
  6
DASHED
 62
     8
100
AcDbPolyline
 90
        2
 70
     0
 43
0.35
 10
169.5384490457
 20
277.7907319797
 10
169.5384490457
 20
267.7907319797
  0
LINE
  5
D0
330
1F
100
AcDbEntity
  8
0
  6
Continuous
 62
     7
100
AcDbLine
 10
123.9384490457
 20
300.9455319797
 30
0.0
 11
101.9884118034
 21
299.8458351138
 31
0.0
  0
LINE
  5
D1
330
1F
100
AcDbEntity
  8
0
  6
Continuous
 62
     7
100
AcDbLine
 10
142.7759490457
 20
303.2657319797
 30
0.0
 11
145.1009490457
 21
303.2657319797
 31
0.0
  0
LWPOLYLINE
  5
D2
330
1F
100
AcDbEntity
  8
BEZUGSACHSEN
  6
DOT_CENTER
 62
     7
100
AcDbPolyline
 90
        2
 70
     0
 43
0.25
 10
172.9384490457
 20
264.7907319797
 10
172.9384490457
 20
282.6836632941
  0
LINE
  5
D3
330
1F
100
AcDbEntity
  8
0
  6
Continuous
 62
     7
100
AcDbLine
 10
182.5613449628
 20
267.8844241926
 30
0.0
 11
190.3610673075
 21
271.5214944534
 31
0.0
  0
LINE
  5
D4
330
1F
100
AcDbEntity
  8
BEZUGSACHSEN
  6
Continuous
 62
     7
100
AcDbLine
 10
140.5465162142
 20
306.7907319797
 30
0.0
 11
137.9384490457
 21
306.7907319797
 31
0.0
  0
LINE
  5
D5
330
1F
100
AcDbEntity
  8
BEZUGSACHSEN
  6
Continuous
 62
     7
100
AcDbLine
 10
127.9384490457
 20
306.7907319797
 30
0.0
 11
125.9384490457
 21
306.7907319797
 31
0.0
  0
LINE
  5
D6
330
1F
100
AcDbEntity
  8
0
  6
Continuous
 62
     7
100
AcDbLine
 10
125.9384490457
 20
306.7907319797
 30
0.0
 11
127.9384490457
 21
306.7907319797
 31
0.0
  0
LINE
  5
D7
330
1F
100
AcDbEntity
  8
0
  6
Continuous
 62
     7
100
AcDbLine
 10
137.9384490457
 20
306.7907319797
 30
0.0
 11
140.5465162142
 21
306.7907319797
 31
0.0
  0
LINE
  5
D8
330
1F
100
AcDbEntity
  8
0
  6
Continuous
 62
     7
100
AcDbLine
 10
147.3303818772
 20
306.7907319797
 30
0.0
 11
151.8884490457
 21
306.7907319797
 31
0.0
  0
LWPOLYLINE
  5
D9
330
1F
100
AcDbEntity
  8
BEZUGSACHSEN
  6
DASHED
 62
     8
100
AcDbPolyline
 90
        2
 70
     0
 43
0.35
 10
176.3384490457
 20
277.7907319797
 10
176.3384490457
 20
267.7907319797
  0
LINE
  5
DA
330
1F
100
AcDbEntity
  8
RUNDUNGEN
  6
Continuous
 62
     7
100
AcDbLine
 10
190.3610673075
 20
292.0599695059
 30
0.0
 11
182.5613449628
 21
295.6970397667
 31
0.0
  0
LINE
  5
DB
330
1F
100
AcDbEntity
  8
0
  6
Continuous
 62
     7
100
AcDbLine
 10
182.5613449628
 20
295.6970397667
 30
0.0
 11
190.3610673075
 21
292.0599695059
 31
0.0
  0
LINE
  5
DC
330
1F
100
AcDbEntity
  8
RUNDUNGEN
  6
Continuous
 62
     9
100
AcDbLine
 10
182.1387267011
 20
267.7907319797
 30
0.0
 11
182.1387267011
 21
295.7907319797
 31
0.0
  0
LINE
  5
DD
330
1F
100
AcDbEntity
  8
RUNDUNGEN
  6
Continuous
 62
     9
100
AcDbLine
 10
182.5613449628
 20
267.8844241926
 30
0.0
 11
182.5613449628
 21
295.6970397667
 31
0.0
  0
LINE
  5
DE
330
1F
100
AcDbEntity
  8
RUNDUNGEN
  6
Continuous
 62
     9
100
AcDbLine
 10
190.3610673075
 20
271.5214944534
 30
0.0
 11
190.3610673075
 21
292.0599695059
 31
0.0
  0
LINE
  5
DF
330
1F
100
AcDbEntity
  8
RUNDUNGEN
  6
Continuous
 62
     7
100
AcDbLine
 10
190.9384490457
 20
272.4278022405
 30
0.0
 11
190.9384490457
 21
291.1536617188
 31
0.0
  0
LINE
  5
E0
330
1F
100
AcDbEntity
  8
RUNDUNGEN
  6
Continuous
 62
     7
100
AcDbLine
 10
151.8891633679
 20
281.7909471381
 30
0.0
 11
151.8884490457
 21
279.7437830306
 31
0.0
  0
LINE
  5
E1
330
1F
100
AcDbEntity
  8
RUNDUNGEN
  6
Continuous
 62
     7
100
AcDbLine
 10
151.8884490457
 20
283.8376809287
 30
0.0
 11
151.8891633679
 21
281.7909471381
 31
0.0
  0
LWPOLYLINE
  5
E2
330
1F
100
AcDbEntity
  8
BEZUGSACHSEN
  6
DASHED
 62
     8
100
AcDbPolyline
 90
        2
 70
     0
 43
0.35
 10
176.9384490457
 20
277.7907319797
 10
176.9384490457
 20
267.7907319797
  0
LWPOLYLINE
  5
E3
330
1F
100
AcDbEntity
  8
BEZUGSACHSEN
  6
DASHED
 62
     8
100
AcDbPolyline
 90
        2
 70
     0
 43
0.35
 10
168.9384490457
 20
277.7907319797
 10
168.9384490457
 20
267.7907319797
  0
ARC
  5
E4
330
1F
100
AcDbEntity
  8
0
  6
Continuous
 62
     7
100
AcDbCircle
 10
108.2830606424
 20
266.2407319797
 30
0.0
 40
33.78031736343758
100
AcDbArc
 50
359.660772196785
 51
0.33922780321496
  0
ARC
  5
E5
330
1F
100
AcDbEntity
  8
FASEN
  6
Continuous
 62
     7
100
AcDbCircle
 10
141.1128043935
 20
270.2241237883
 30
0.0
 40
11.32173434580038
100
AcDbArc
 50
223.8842578162991
 51
226.159543982623
  0
ARC
  5
E6
330
1F
100
AcDbEntity
  8
FASEN
  6
Continuous
 62
     7
100
AcDbCircle
 10
138.6321353186
 20
260.4407319797
 30
0.0
 40
6.0
100
AcDbArc
 50
90.0
 51
161.1845969504029
  0
ARC
  5
E7
330
1F
100
AcDbEntity
  8
FASEN
  6
Continuous
 62
     7
100
AcDbCircle
 10
138.6321353186
 20
260.4407319797
 30
0.0
 40
5.599990644599984
100
AcDbArc
 50
90.0
 51
163.2131310087987
  0
ARC
  5
E8
330
1F
100
AcDbEntity
  8
0
  6
Continuous
 62
     7
100
AcDbCircle
 10
143.451289436
 20
265.7187790725
 30
0.0
 40
1.425340532341804
100
AcDbArc
 50
166.9454935845368
 51
180.0255794370856
  0
ARC
  5
E9
330
1F
100
AcDbEntity
  8
RUNDUNGEN
  6
Continuous
 62
     7
100
AcDbCircle
 10
104.2384490457
 20
277.9207319797
 30
0.0
 40
1.400000000000034
100
AcDbArc
 50
270.0
 51
353.9429041005109
  0
ARC
  5
EA
330
1F
100
AcDbEntity
  8
0
  6
Continuous
 62
     7
100
AcDbCircle
 10
102.0384490457
 20
264.7343761981
 30
0.0
 40
1.0
100
AcDbArc
 50
179.9999999942711
 51
267.1318795164192
  0
ARC
  5
EB
330
1F
100
AcDbEntity
  8
0
  6
Continuous
 62
     7
100
AcDbCircle
 10
142.7759490457
 20
259.5657319797
 30
0.0
 40
0.75
100
AcDbArc
 50
90.0
 51
180.0
  0
ARC
  5
EC
330
1F
100
AcDbEntity
  8
0
  6
Continuous
 62
     7
100
AcDbCircle
 10
124.7638507058
 20
262.2359319797
 30
0.0
 40
0.5999999999999659
100
AcDbArc
 50
90.0
 51
105.000000005365
  0
ARC
  5
ED
330
1F
100
AcDbEntity
  8
0
  6
Continuous
 62
     7
100
AcDbCircle
 10
125.6362794152
 20
262.2359319797
 30
0.0
 40
0.5999999999998945
100
AcDbArc
 50
59.70317838175824
 51
90.0
  0
ARC
  5
EE
330
1F
100
AcDbEntity
  8
0
  6
Continuous
 62
     7
100
AcDbCircle
 10
142.5295689997
 20
275.6977368467
 30
0.0
 40
0.503730497899951
100
AcDbArc
 50
166.1596109369576
 51
171.3804870338195
  0
ARC
  5
EF
330
1F
100
AcDbEntity
  8
0
  6
Continuous
 62
     7
100
AcDbCircle
 10
25.2720054579
 20
314.7112674893
 30
0.0
 40
126.7303074974445
100
AcDbArc
 50
335.4508108778812
 51
337.1137532296999
  0
ARC
  5
F0
330
1F
100
AcDbEntity
  8
0
  6
Continuous
 62
     7
100
AcDbCircle
 10
138.9059490457
 20
281.7907319797
 30
0.0
 40
6.017499999999984
100
AcDbArc
 50
90.0
 51
270.0
  0
ARC
  5
F1
330
1F
100
AcDbEntity
  8
FASEN
  6
Continuous
 62
     7
100
AcDbCircle
 10
138.9059490457
 20
281.7907319797
 30
0.0
 40
5.617499842999962
100
AcDbArc
 50
90.0
 51
270.0
  0
ARC
  5
F2
330
1F
100
AcDbEntity
  8
RUNDUNGEN
  6
Continuous
 62
     7
100
AcDbCircle
 10
104.2384490457
 20
285.6607319797
 30
0.0
 40
1.400000000000465
100
AcDbArc
 50
6.05709561600847
 51
90.0
  0
ARC
  5
F3
330
1F
100
AcDbEntity
  8
0
  6
Continuous
 62
     7
100
AcDbCircle
 10
102.0384490457
 20
298.8470877612
 30
0.0
 40
0.9999999999712409
100
AcDbArc
 50
92.86812048358074
 51
180.0000000229187
  0
ARC
  5
F4
330
1F
100
AcDbEntity
  8
0
  6
Continuous
 62
     7
100
AcDbCircle
 10
142.7759490457
 20
304.0157319797
 30
0.0
 40
0.75
100
AcDbArc
 50
180.0
 51
270.0
  0
ARC
  5
F5
330
1F
100
AcDbEntity
  8
0
  6
Continuous
 62
     7
100
AcDbCircle
 10
124.7638507058
 20
301.3455319797
 30
0.0
 40
0.6000000000356498
100
AcDbArc
 50
254.9999999971076
 51
270.0
  0
ARC
  5
F6
330
1F
100
AcDbEntity
  8
0
  6
Continuous
 62
     7
100
AcDbCircle
 10
125.6362794152
 20
301.3455319797
 30
0.0
 40
0.6000000000000227
100
AcDbArc
 50
270.0
 51
300.2968216182418
  0
ARC
  5
F7
330
1F
100
AcDbEntity
  8
RUNDUNGEN
  6
Continuous
 62
     7
100
AcDbCircle
 10
191.2085195844
 20
-484.645127852
 30
0.0
 40
779.4077988708458
100
AcDbArc
 50
96.40668094322616
 51
96.57315239320904
  0
ARC
  5
F8
330
1F
100
AcDbEntity
  8
0
  6
Continuous
 62
     7
100
AcDbCircle
 10
179.5938374491
 20
266.2407319797
 30
0.0
 40
33.78031736353754
100
AcDbArc
 50
179.660772196786
 51
180.339227803214
  0
ARC
  5
F9
330
1F
100
AcDbEntity
  8
RUNDUNGEN
  6
Continuous
 62
     7
100
AcDbCircle
 10
158.8884490457
 20
260.7907319797
 30
0.0
 40
7.0
100
AcDbArc
 50
90.0
 51
180.0
  0
ARC
  5
FA
330
1F
100
AcDbEntity
  8
0
  6
Continuous
 62
     7
100
AcDbCircle
 10
144.4256086555
 20
265.7187790725
 30
0.0
 40
1.425340532244775
100
AcDbArc
 50
359.9744205629125
 51
13.05450641637104
  0
ARC
  5
FB
330
1F
100
AcDbEntity
  8
RUNDUNGEN
  6
Continuous
 62
     7
100
AcDbCircle
 10
189.9384490457
 20
272.4278022405
 30
0.0
 40
1.000000000082472
100
AcDbArc
 50
295.0000000015462
 51
0.0
  0
ARC
  5
FC
330
1F
100
AcDbEntity
  8
RUNDUNGEN
  6
Continuous
 62
     7
100
AcDbCircle
 10
182.1387267011
 20
268.7907319797
 30
0.0
 40
1.0
100
AcDbArc
 50
270.0
 51
294.9999999963525
  0
ARC
  5
FD
330
1F
100
AcDbEntity
  8
0
  6
Continuous
 62
     7
100
AcDbCircle
 10
145.1009490457
 20
259.5657319797
 30
0.0
 40
0.75
100
AcDbArc
 50
0.0
 51
90.0
  0
ARC
  5
FE
330
1F
100
AcDbEntity
  8
RUNDUNGEN
  6
Continuous
 62
     7
100
AcDbCircle
 10
191.2085195776
 20
1048.2265917508
 30
0.0
 40
779.4077988100198
100
AcDbArc
 50
263.4268476067784
 51
263.5933190567744
  0
ARC
  5
FF
330
1F
100
AcDbEntity
  8
0
  6
Continuous
 62
     7
100
AcDbCircle
 10
262.6048926337
 20
314.7112674893
 30
0.0
 40
126.7303074975999
100
AcDbArc
 50
202.8862467703001
 51
204.5491891220812
  0
ARC
  5
100
330
1F
100
AcDbEntity
  8
RUNDUNGEN
  6
Continuous
 62
     7
100
AcDbCircle
 10
158.8884490457
 20
302.7907319797
 30
0.0
 40
7.0
100
AcDbArc
 50
180.0
 51
270.0
  0
ARC
  5
101
330
1F
100
AcDbEntity
  8
RUNDUNGEN
  6
Continuous
 62
     7
100
AcDbCircle
 10
189.9384490457
 20
291.1536617188
 30
0.0
 40
1.0
100
AcDbArc
 50
0.0
 51
64.99999999845522
  0
ARC
  5
102
330
1F
100
AcDbEntity
  8
RUNDUNGEN
  6
Continuous
 62
     7
100
AcDbCircle
 10
182.1387267011
 20
294.7907319797
 30
0.0
 40
0.999999999949584
100
AcDbArc
 50
65.00000000122631
 51
90.0
  0
ARC
  5
103
330
1F
100
AcDbEntity
  8
0
  6
Continuous
 62
     7
100
AcDbCircle
 10
145.1009490457
 20
304.0157319797
 30
0.0
 40
0.75
100
AcDbArc
 50
270.0
 51
0.0
  0
CIRCLE
  5
104
330
1F
100
AcDbEntity
  8
FASEN
  6
Continuous
 62
     7
100
AcDbCircle
 10
118.4384490457
 20
281.7907319797
 30
0.0
 40
3.0
  0
SPLINE
  5
105
330
1F
100
AcDbEntity
  8
0
  6
Continuous
 62
     2
100
AcDbSpline
210
0.0
220
0.0
230
1.0
 70
     8
 71
     3
 72
    49
 73
    45
 74
    43
 42
0.0000000001
 43
0.0000000001
 44
0.00000001
 40
0.0
 40
0.0
 40
0.0
 40
0.0
 40
0.0117780877267741
 40
0.0468570728993944
 40
0.1047998672251022
 40
0.1849524893649214
 40
0.2866649836749932
 40
0.4095167106541445
 40
0.5530271682016877
 40
0.7162350512368973
 40
0.898165223394806
 40
1.098246397885346
 40
1.315718597597301
 40
1.548625257142744
 40
1.794967312618851
 40
2.053725638005536
 40
2.3236983706237
 40
2.601912913788589
 40
2.88551056601604
 40
3.173812860110313
 40
3.46629616673911
 40
3.760842709375096
 40
4.055434971855686
 40
4.350035532264739
 40
4.644605663294106
 40
4.93712123889223
 40
5.22545751539112
 40
5.509087733043886
 40
5.787330233919398
 40
6.057319060018154
 40
6.316076577437349
 40
6.562408929275951
 40
6.795306048710355
 40
7.012769144883341
 40
7.212841376797584
 40
7.394769058906756
 40
7.557986408887714
 40
7.701514067235088
 40
7.824385162543872
 40
7.926117969261793
 40
8.006290965421783
 40
8.06425034531005
 40
8.09933860096976
 40
8.111119378978733
 40
8.111119378978733
 40
8.111119378978733
 40
8.111119378978733
 10
176.9384490457
 20
267.7907167372
 30
0.0
 10
176.9346748767505
 20
267.7917981066435
 30
0.0
 10
176.9196600022053
 20
267.7961001468405
 30
0.0
 10
176.88605175971
 20
267.8056303239258
 30
0.0
 10
176.8304818919315
 20
267.8212557198146
 30
0.0
 10
176.7534331718235
 20
267.8425467035473
 30
0.0
 10
176.6553932654398
 20
267.8691027991555
 30
0.0
 10
176.5367467462305
 20
267.9003519559714
 30
0.0
 10
176.3979903469236
 20
267.9357152584208
 30
0.0
 10
176.2397744623596
 20
267.9744381120394
 30
0.0
 10
176.0627881208378
 20
268.0157494647777
 30
0.0
 10
175.8676394323062
 20
268.0587659909147
 30
0.0
 10
175.6552810876628
 20
268.1025608028885
 30
0.0
 10
175.4271510070751
 20
268.1461099475593
 30
0.0
 10
175.1847864467271
 20
268.188327004715
 30
0.0
 10
174.9295122129188
 20
268.2282155813224
 30
0.0
 10
174.6630124301387
 20
268.2647898724619
 30
0.0
 10
174.3876383763645
 20
268.2972414434068
 30
0.0
 10
174.1055776021924
 20
268.3246757573815
 30
0.0
 10
173.818259464142
 20
268.3465492494865
 30
0.0
 10
173.5268929534506
 20
268.3624442096602
 30
0.0
 10
173.2331567983374
 20
268.3721689521676
 30
0.0
 10
172.9385709905131
 20
268.3754324717238
 30
0.0
 10
172.6439772569556
 20
268.3721742782628
 30
0.0
 10
172.3502195623824
 20
268.3624536949451
 30
0.0
 10
172.0588228996893
 20
268.3465615633045
 30
0.0
 10
171.7714716371729
 20
268.3246891432515
 30
0.0
 10
171.4893792349023
 20
268.2972545150934
 30
0.0
 10
171.2139795899755
 20
268.2648018445852
 30
0.0
 10
170.9474652951588
 20
268.2282272743186
 30
0.0
 10
170.692188982633
 20
268.1883399372027
 30
0.0
 10
170.449830811179
 20
268.1461251516041
 30
0.0
 10
170.2217097672483
 20
268.1025790732187
 30
0.0
 10
170.009360126238
 20
268.0587875906459
 30
0.0
 10
169.8142178014488
 20
268.0157739953435
 30
0.0
 10
169.6372318199351
 20
267.9744639806402
 30
0.0
 10
169.4790078593952
 20
267.9357402235141
 30
0.0
 10
169.3402363579661
 20
267.9003740398277
 30
0.0
 10
169.2215713517056
 20
267.8691206272279
 30
0.0
 10
169.123512035268
 20
267.8425596218169
 30
0.0
 10
169.0464448621703
 20
267.8212637405195
 30
0.0
 10
168.9908601369912
 20
267.805634253694
 30
0.0
 10
168.9572427514026
 20
267.79610143971
 30
0.0
 10
168.9422240701803
 20
267.7917982104876
 30
0.0
 10
168.9384490457
 20
267.7907165712
 30
0.0
 11
176.9384490457
 21
267.7907167372
 31
0.0
 11
176.9271257990988
 21
267.7939582548859
 31
0.0
 11
176.8933813047406
 21
267.8035417981373
 31
0.0
 11
176.837598976282
 21
267.8192165946595
 31
0.0
 11
176.7603444093347
 21
267.8405748418176
 31
0.0
 11
176.6621668628791
 21
267.8671568069582
 31
0.0
 11
176.5433680686979
 21
267.8984520673479
 31
0.0
 11
176.4043011311211
 21
267.9338870542748
 31
0.0
 11
176.2457721709985
 21
267.9726863053921
 31
0.0
 11
176.0686011024477
 21
268.0140263587302
 31
0.0
 11
175.8732099946834
 21
268.05709364785
 31
0.0
 11
175.660219243801
 21
268.10101514243
 31
0.0
 11
175.4314403983249
 21
268.1446700610903
 31
0.0
 11
175.1887497560547
 21
268.1869271368368
 31
0.0
 11
174.9330914594638
 21
268.2268609112787
 31
0.0
 11
174.6656271093485
 21
268.2635773622879
 31
0.0
 11
174.389320298524
 21
268.2961024037243
 31
0.0
 11
174.1070534542742
 21
268.323544287519
 31
0.0
 11
173.8195823493668
 21
268.3454206817225
 31
0.0
 11
173.5275341187271
 21
268.3613679585028
 31
0.0
 11
173.23314799695
 21
268.3710878908
 31
0.0
 11
172.9385737460833
 21
268.3743454726875
 31
0.0
 11
172.6439911383166
 21
268.371093182
 31
0.0
 11
172.3495812776562
 21
268.3613774195195
 31
0.0
 11
172.0575005852332
 21
268.3454327940558
 31
0.0
 11
171.7699953233404
 21
268.3235574031065
 31
0.0
 11
171.4876958017927
 21
268.2961150908909
 31
0.0
 11
171.2113609924702
 21
268.2635887561733
 31
0.0
 11
170.9438804714695
 21
268.2268717695953
 31
0.0
 11
170.6882227473162
 21
268.1869395657783
 31
0.0
 11
170.4455414544084
 21
268.1446853632069
 31
0.0
 11
170.2167717303073
 21
268.1010335410738
 31
0.0
 11
170.00378959595
 21
268.0571153370833
 31
0.0
 11
169.8084069076293
 21
268.0140513952323
 31
0.0
 11
169.6312379796849
 21
267.9727131261754
 31
0.0
 11
169.4726995683851
 21
267.9339126689956
 31
0.0
 11
169.3336157396687
 21
267.8984743098312
 31
0.0
 11
169.2147980637772
 21
267.8671746938894
 31
0.0
 11
169.1166008199486
 21
267.8405877559841
 31
0.0
 11
169.0393265643106
 21
267.8192242654251
 31
0.0
 11
168.9835282524177
 21
267.8035450400956
 31
0.0
 11
168.9497748603647
 21
267.7939588933119
 31
0.0
 11
168.9384490457
 21
267.7907165712
 31
0.0
  0
SPLINE
  5
106
330
1F
100
AcDbEntity
  8
BEZUGSACHSEN
  6
Continuous
 62
     7
100
AcDbSpline
210
0.0
220
0.0
230
1.0
 70
     8
 71
     3
 72
    15
 73
    11
 74
     9
 42
0.0000000001
 43
0.0000000001
 44
0.00000001
 40
0.0
 40
0.0
 40
0.0
 40
0.0
 40
0.9592794727455544
 40
1.918698757739431
 40
2.73341361263669
 40
3.548061682607798
 40
4.096465872360946
 40
4.64485238294399
 40
4.839161107530115
 40
5.033464909273595
 40
5.033464909273595
 40
5.033464909273595
 40
5.033464909273595
 10
132.9384490457
 20
306.2856294075
 30
0.0
 10
132.6186696799195
 20
306.2892575704591
 30
0.0
 10
131.9790643414276
 20
306.2965144251717
 30
0.0
 10
131.0692542196865
 20
306.3519286615294
 30
0.0
 10
130.210010349642
 20
306.432651117677
 30
0.0
 10
129.4897389017405
 20
306.5241957657304
 30
0.0
 10
128.8599383699784
 20
306.6209203427909
 30
0.0
 10
128.4359830937247
 20
306.6951217820236
 30
0.0
 10
128.1290592920348
 20
306.7530131817571
 30
0.0
 10
128.001985257898
 20
306.7781591532333
 30
0.0
 10
127.9384490457
 20
306.7907319797
 30
0.0
 11
132.9384490457
 21
306.2856294075
 31
0.0
 11
131.9793536852925
 21
306.3044229296748
 31
0.0
 11
131.021575919242
 21
306.3605220854392
 31
0.0
 11
130.2104656018523
 21
306.4370749940338
 31
0.0
 11
129.4022895341144
 21
306.5395587558857
 31
0.0
 11
128.860240384168
 21
306.6228046229373
 31
0.0
 11
128.3200422601482
 21
306.7172172904928
 31
0.0
 11
128.1291126933266
 21
306.7532974923164
 31
0.0
 11
127.9384490457
 21
306.7907319797
 31
0.0
  0
SPLINE
  5
107
330
1F
100
AcDbEntity
  8
BEZUGSACHSEN
  6
Continuous
 62
     7
100
AcDbSpline
210
0.0
220
0.0
230
1.0
 70
     8
 71
     3
 72
    23
 73
    19
 74
    17
 42
0.0000000001
 43
0.0000000001
 44
0.00000001
 40
0.0
 40
0.0
 40
0.0
 40
0.0
 40
0.1335399299775299
 40
0.2670840819254549
 40
0.6422798097418188
 40
1.017496891426954
 40
1.572567265658376
 40
2.12767124956329
 40
2.780672171327258
 40
3.43368805120725
 40
4.086708926511727
 40
4.739714855766322
 40
5.294833585354001
 40
5.849918693053362
 40
6.225147517118292
 40
6.600354989015903
 40
6.733903844129278
 40
6.86744847579576
 40
6.86744847579576
 40
6.86744847579576
 40
6.86744847579576
 10
169.5384490457
 20
267.7907319797
 30
0.0
 10
169.5817300953646
 20
267.8011344811585
 30
0.0
 10
169.6682935630584
 20
267.8219398129588
 30
0.0
 10
169.8769749909978
 20
267.8697846642767
 30
0.0
 10
170.1651919339412
 20
267.9311792140039
 30
0.0
 10
170.5929549881635
 20
268.0112978377795
 30
0.0
 10
171.0823589323169
 20
268.087213998217
 30
0.0
 10
171.6663293673112
 20
268.1548135646131
 30
0.0
 10
172.2853422382234
 20
268.1993316713222
 30
0.0
 10
172.9384144843021
 20
268.2151279478937
 30
0.0
 10
173.5914884721371
 20
268.1993345041753
 30
0.0
 10
174.2105097684881
 20
268.1548185718943
 30
0.0
 10
174.7944919391211
 20
268.0872203521224
 30
0.0
 10
175.2839097399505
 20
268.0113037899598
 30
0.0
 10
175.7116854720159
 20
267.9311836204559
 30
0.0
 10
175.9999116546942
 20
267.8697873286118
 30
0.0
 10
176.2085999625591
 20
267.8219409380204
 30
0.0
 10
176.2951664742674
 20
267.8011348561406
 30
0.0
 10
176.3384490457
 20
267.7907319797
 30
0.0
 11
169.5384490457
 21
267.7907319797
 31
0.0
 11
169.6683457210873
 21
267.8217120801149
 31
0.0
 11
169.7985007851919
 21
267.8516068924982
 31
0.0
 11
170.1654876183283
 21
267.9296613508985
 31
0.0
 11
170.5342972657427
 21
267.9987070050872
 31
0.0
 11
171.0828268005515
 21
268.0836685834145
 31
0.0
 11
171.6342621907467
 21
268.1473823447803
 31
0.0
 11
172.2855859227588
 21
268.194154130532
 31
0.0
 11
172.9384128310818
 21
268.2098629543237
 31
0.0
 11
173.5912448036412
 21
268.1941569303968
 31
0.0
 11
174.2425737427831
 21
268.1473877452645
 31
0.0
 11
174.7940240642548
 21
268.0836747411933
 31
0.0
 11
175.3425684442499
 21
267.9987127498946
 31
0.0
 11
175.711389765682
 21
267.9296656408583
 31
0.0
 11
176.0783881483483
 21
267.8516090326303
 31
0.0
 11
176.2085478012046
 21
267.8217131889323
 31
0.0
 11
176.3384490457
 21
267.7907319797
 31
0.0
  0
SPLINE
  5
108
330
1F
100
AcDbEntity
  8
BEZUGSACHSEN
  6
Continuous
 62
     7
100
AcDbSpline
210
0.0
220
0.0
230
1.0
 70
     8
 71
     3
 72
    15
 73
    11
 74
     9
 42
0.0000000001
 43
0.0000000001
 44
0.00000001
 40
0.0
 40
0.0
 40
0.0
 40
0.0
 40
0.194298150344994
 40
0.3886012245623849
 40
0.9369792399709658
 40
1.485374928825744
 40
2.300027372119457
 40
3.114746618601219
 40
4.074175664712388
 40
5.033464878729679
 40
5.033464878729679
 40
5.033464878729679
 40
5.033464878729679
 10
137.9384490457
 20
306.7907319797
 30
0.0
 10
137.8749146797738
 20
306.7781595276754
 30
0.0
 10
137.7478443378437
 20
306.7530143050171
 30
0.0
 10
137.4409270395714
 20
306.695124031009
 30
0.0
 10
137.0169792566213
 20
306.6209235759841
 30
0.0
 10
136.3871829839358
 20
306.5241989887782
 30
0.0
 10
135.6669115005109
 20
306.4326538787682
 30
0.0
 10
134.8076615239926
 20
306.3519304422652
 30
0.0
 10
133.8978434994694
 20
306.296514838118
 30
0.0
 10
133.2582316591077
 20
306.289257708078
 30
0.0
 10
132.9384490457
 20
306.2856294075
 30
0.0
 11
137.9384490457
 21
306.7907319797
 31
0.0
 11
137.7477909412814
 21
306.7532985929045
 31
0.0
 11
137.5568669370583
 21
306.7172193847402
 31
0.0
 11
137.01667724757
 21
306.6228078009489
 31
0.0
 11
136.4746365809711
 21
306.5395626971439
 31
0.0
 11
135.6664562487824
 21
306.4370778005599
 31
0.0
 11
134.8553416040195
 21
306.3605240048408
 31
0.0
 11
133.897554137537
 21
306.3044235273856
 31
0.0
 11
132.9384490457
 21
306.2856294075
 31
0.0
  0
SPLINE
  5
109
330
1F
100
AcDbEntity
  8
RUNDUNGEN
  6
Continuous
 62
     7
100
AcDbSpline
210
0.0
220
0.0
230
1.0
 70
     8
 71
     3
 72
    15
 73
    11
 74
     9
 42
0.0000000001
 43
0.0000000001
 44
0.00000001
 40
0.0
 40
0.0
 40
0.0
 40
0.0
 40
0.2286533797777193
 40
0.4574173649258676
 40
0.6866651598282103
 40
0.9158640492091106
 40
1.146314057982606
 40
1.376831724104462
 40
1.609554238710866
 40
1.842048835164678
 40
1.842048835164678
 40
1.842048835164678
 40
1.842048835164678
 10
105.0565072219
 20
289.4407319797
 30
0.0
 10
105.0989119903663
 20
289.3773678389238
 30
0.0
 10
105.1837420395483
 20
289.2506089065487
 30
0.0
 10
105.2952188147192
 20
289.0504274532288
 30
0.0
 10
105.3943670673062
 20
288.8437718610474
 30
0.0
 10
105.4788671761899
 20
288.6300357323952
 30
0.0
 10
105.547642789645
 20
288.4102421759424
 30
0.0
 10
105.5986198440642
 20
288.1845101291885
 30
0.0
 10
105.6319591263458
 20
287.9545285948677
 30
0.0
 10
105.6362864459256
 20
287.7994056833965
 30
0.0
 10
105.6384490457
 20
287.7218822264
 30
0.0
 11
105.0565072219
 21
289.4407319797
 31
0.0
 11
105.1810801683275
 21
289.2489927059397
 31
0.0
 11
105.2930757064722
 21
289.0495184962369
 31
0.0
 11
105.3918961144339
 21
288.8426632849468
 31
0.0
 11
105.4760840366775
 21
288.6294860707757
 31
0.0
 11
105.544621746195
 21
288.40946382436
 31
0.0
 11
105.5955249918061
 21
288.1846366596745
 31
0.0
 11
105.6274742299241
 21
287.9541176474686
 31
0.0
 11
105.6384490457
 21
287.7218822264
 31
0.0
  0
SPLINE
  5
10A
330
1F
100
AcDbEntity
  8
RUNDUNGEN
  6
Continuous
 62
     7
100
AcDbSpline
210
0.0
220
0.0
230
1.0
 70
     8
 71
     3
 72
    15
 73
    11
 74
     9
 42
0.0000000001
 43
0.0000000001
 44
0.00000001
 40
0.0
 40
0.0
 40
0.0
 40
0.0
 40
0.1273079847592458
 40
0.2549893804141355
 40
0.3793073351399235
 40
0.5035989687859868
 40
0.624566703213655
 40
0.7455591722221934
 40
0.8645937373173427
 40
0.9835510381295276
 40
0.9835510381295276
 40
0.9835510381295276
 40
0.9835510381295276
 10
104.2384490457
 20
289.8952027772
 30
0.0
 10
104.2809282153307
 20
289.8976494213442
 30
0.0
 10
104.3660111515278
 20
289.9025498859583
 30
0.0
 10
104.4916575032167
 20
289.8808856984868
 30
0.0
 10
104.6104435204765
 20
289.8392462260437
 30
0.0
 10
104.7192101691646
 20
289.7803747372113
 30
0.0
 10
104.8180603743678
 20
289.7082007006141
 30
0.0
 10
104.9064460185191
 20
289.6262472886299
 30
0.0
 10
104.9864908986337
 20
289.5370085927931
 30
0.0
 10
105.0331734993279
 20
289.4728172374697
 30
0.0
 10
105.0565072219
 20
289.4407319797
 30
0.0
 11
104.2384490457
 21
289.8952027772
 31
0.0
 11
104.3657327141066
 21
289.8976908970574
 31
0.0
 11
104.4917639861497
 21
289.8772297811651
 31
0.0
 11
104.6091229881438
 21
289.8362198004511
 31
0.0
 11
104.7186512768597
 21
289.7774663821218
 31
0.0
 11
104.816538267524
 21
289.7063936740599
 31
0.0
 11
104.9055919624903
 21
289.6244875267349
 31
0.0
 11
104.9849111236946
 21
289.5357311277924
 31
0.0
 11
105.0565072219
 21
289.4407319797
 31
0.0
  0
SPLINE
  5
10B
330
1F
100
AcDbEntity
  8
FASEN
  6
Continuous
 62
     7
100
AcDbSpline
210
0.0
220
0.0
230
1.0
 70
     8
 71
     3
 72
    41
 73
    37
 74
    35
 42
0.0000000001
 43
0.0000000001
 44
0.00000001
 40
0.0
 40
0.0
 40
0.0
 40
0.0
 40
0.3535888544368415
 40
0.7075507290259859
 40
1.060684840996827
 40
1.413709983449952
 40
1.765779918102006
 40
2.117876005238813
 40
2.469055569700331
 40
2.820227711311387
 40
3.171084425296784
 40
3.52194134668252
 40
3.873160085319782
 40
4.22438176553902
 40
4.576461723177743
 40
4.928542604247887
 40
5.28158180388304
 40
5.634626310538422
 40
5.988339657543031
 40
6.342041478633314
 40
6.695908397125784
 40
7.049820838155968
 40
7.403595216392025
 40
7.757194008023891
 40
7.93399442820701
 40
8.110739696252443
 40
8.287420503012825
 40
8.464157456779736
 40
8.817287503431146
 40
9.170592253507552
 40
9.523997521757785
 40
9.877334047623242
 40
10.23089310710495
 40
10.58456791536742
 40
10.93860935652289
 40
11.29227461530311
 40
11.29227461530311
 40
11.29227461530311
 40
11.29227461530311
 10
122.0376974573
 20
281.7907319797
 30
0.0
 10
122.0343888471256
 20
281.6728203875059
 30
0.0
 10
122.0277681363436
 20
281.4368728117531
 30
0.0
 10
121.9738913034357
 20
281.0865678674321
 30
0.0
 10
121.8886580152916
 20
280.7431818437085
 30
0.0
 10
121.7698295495913
 20
280.4104006368044
 30
0.0
 10
121.6191668645122
 20
280.0912251179515
 30
0.0
 10
121.4382169176186
 20
279.7888793728087
 30
0.0
 10
121.2285157569727
 20
279.5060998143512
 30
0.0
 10
120.9923545821013
 20
279.2455660976995
 30
0.0
 10
120.7317351479253
 20
279.0096629221273
 30
0.0
 10
120.4492333943503
 20
278.8004349688008
 30
0.0
 10
120.1473913766495
 20
278.6199907502883
 30
0.0
 10
119.8289931487737
 20
278.4697403917761
 30
0.0
 10
119.4971334803215
 20
278.3513162209898
 30
0.0
 10
119.1547425246264
 20
278.2655957406095
 30
0.0
 10
118.8053039300831
 20
278.2136336432924
 30
0.0
 10
118.4519325331282
 20
278.1957768054352
 30
0.0
 10
118.0982779995865
 20
278.2123908631594
 30
0.0
 10
117.7476259858675
 20
278.2632349129776
 30
0.0
 10
117.4035265878856
 20
278.3480022677447
 30
0.0
 10
117.0692691259137
 20
278.465833871407
 30
0.0
 10
116.7482343818997
 20
278.6157471492937
 30
0.0
 10
116.4941880925773
 20
278.7661736309068
 30
0.0
 10
116.3007464811834
 20
278.9010040495685
 30
0.0
 10
116.1608380238297
 20
279.0091213868403
 30
0.0
 10
116.0264132765824
 20
279.123952913887
 30
0.0
 10
115.8550285212238
 20
279.2856078317615
 30
0.0
 10
115.6560825829453
 20
279.5033068501823
 30
0.0
 10
115.4442088794698
 20
279.7867021750849
 30
0.0
 10
115.2614098554461
 20
280.0897787027748
 30
0.0
 10
115.1093766753554
 20
280.4094596903828
 30
0.0
 10
114.9894771915674
 20
280.742693592542
 30
0.0
 10
114.9035267597267
 20
281.0863057412031
 30
0.0
 10
114.849249320743
 20
281.436795631938
 30
0.0
 10
114.8425490091947
 20
281.6727950123672
 30
0.0
 10
114.8392006342
 20
281.7907319797
 30
0.0
 11
122.0376974573
 21
281.7907319797
 31
0.0
 11
122.0204496300602
 21
281.4375640445226
 31
0.0
 11
121.96860356958
 21
281.0874197961401
 31
0.0
 11
121.8830176018235
 21
280.7448139830537
 31
0.0
 11
121.7643804414737
 21
280.4123204111035
 31
0.0
 11
121.6140748980274
 21
280.0939472299227
 31
0.0
 11
121.4332275474331
 21
279.7918447798166
 31
0.0
 11
121.2240617559002
 21
279.5097512525109
 31
0.0
 11
120.9881911324947
 21
279.2495841484066
 31
0.0
 11
120.7280913234625
 21
279.0141090476209
 31
0.0
 11
120.446127276529
 21
278.8053104472397
 31
0.0
 11
120.1446934899161
 21
278.625054310983
 31
0.0
 11
119.8270583671563
 21
278.475172365955
 31
0.0
 11
119.4954753175519
 21
278.3567959418416
 31
0.0
 11
119.153933910588
 21
278.2712949819389
 31
0.0
 11
118.8047404308692
 21
278.2193277788113
 31
0.0
 11
118.4521452032755
 21
278.2015224661858
 31
0.0
 11
118.0988202228187
 21
278.2180932245985
 31
0.0
 11
117.7487829532162
 21
278.2688759788742
 31
0.0
 11
117.4051855547524
 21
278.3535082645121
 31
0.0
 11
117.0714167278947
 21
278.4712044247466
 31
0.0
 11
116.7508652819874
 21
278.6208810135075
 31
0.0
 11
116.4466360375919
 21
278.8010938662622
 31
0.0
 11
116.3015879231045
 21
278.9021850778516
 31
0.0
 11
116.1617324665927
 21
279.0102560779409
 31
0.0
 11
116.0273979731312
 21
279.125018229123
 31
0.0
 11
115.8988356014512
 21
279.2462934014166
 31
0.0
 11
115.6605971079828
 21
279.5069526619041
 31
0.0
 11
115.4490803379073
 21
279.7899454222415
 31
0.0
 11
115.2665330384373
 21
280.092553695564
 31
0.0
 11
115.1147661187186
 21
280.4116359774127
 31
0.0
 11
114.9951576104095
 21
280.7443487864263
 31
0.0
 11
114.9088322071855
 21
281.0873266206338
 31
0.0
 11
114.8566106070177
 21
281.4374955035051
 31
0.0
 11
114.8392006342
 21
281.7907319797
 31
0.0
  0
SPLINE
  5
10C
330
1F
100
AcDbEntity
  8
RUNDUNGEN
  6
Continuous
 62
     7
100
AcDbSpline
210
0.0
220
0.0
230
1.0
 70
     8
 71
     3
 72
    15
 73
    11
 74
     9
 42
0.0000000001
 43
0.0000000001
 44
0.00000001
 40
0.0
 40
0.0
 40
0.0
 40
0.0
 40
0.2324947531023022
 40
0.4652174309838795
 40
0.6957353317385395
 40
0.9261855606494169
 40
1.155384407783508
 40
1.384632178797955
 40
1.613395801702174
 40
1.842048806079898
 40
1.842048806079898
 40
1.842048806079898
 40
1.842048806079898
 10
105.6384490457
 20
275.8595817329
 30
0.0
 10
105.6362864387315
 20
275.7820582236718
 30
0.0
 10
105.6319591046964
 20
275.6269352055274
 30
0.0
 10
105.5986197663149
 20
275.3969534933353
 30
0.0
 10
105.5476427075264
 20
275.1712212369333
 30
0.0
 10
105.4788670111542
 20
274.9514275566703
 30
0.0
 10
105.394366636538
 20
274.7376914742611
 30
0.0
 10
105.2952182613512
 20
274.5310361067991
 30
0.0
 10
105.1837417560937
 20
274.3308547979502
 30
0.0
 10
105.0989118950723
 20
274.204096034291
 30
0.0
 10
105.0565072219
 20
274.1407319797
 30
0.0
 11
105.6384490457
 21
275.8595817329
 31
0.0
 11
105.6274742033173
 21
275.6273461562654
 31
0.0
 11
105.5955249276359
 21
275.3968269844298
 31
0.0
 11
105.5446216460464
 21
275.1719995873187
 31
0.0
 11
105.4760838069688
 21
274.9519771506908
 31
0.0
 11
105.3918956968012
 21
274.7388000561567
 31
0.0
 11
105.2930751580767
 21
274.5319449338095
 31
0.0
 11
105.1810798753437
 21
274.3324709961389
 31
0.0
 11
105.0565072219
 21
274.1407319797
 31
0.0
  0
SPLINE
  5
10D
330
1F
100
AcDbEntity
  8
RUNDUNGEN
  6
Continuous
 62
     7
100
AcDbSpline
210
0.0
220
0.0
230
1.0
 70
     8
 71
     3
 72
    17
 73
    13
 74
    11
 42
0.0000000001
 43
0.0000000001
 44
0.00000001
 40
0.0
 40
0.0
 40
0.0
 40
0.0
 40
0.1190059193441503
 40
0.2380814744367885
 40
0.3590691915313426
 40
0.4800850747548085
 40
0.6044906460415949
 40
0.7286521944070923
 40
0.7922003881379515
 40
0.855740987160501
 40
0.9198158321476819
 40
0.9838416202605307
 40
0.9838416202605307
 40
0.9838416202605307
 40
0.9838416202605307
 10
105.0565072219
 20
274.1407319797
 30
0.0
 10
105.0331615211903
 20
274.1086354486376
 30
0.0
 10
104.9864564591449
 20
274.0444236053804
 30
0.0
 10
104.9063899966111
 20
273.9551658112856
 30
0.0
 10
104.818019067654
 20
273.8731641183701
 30
0.0
 10
104.7190943096207
 20
273.8009574460369
 30
0.0
 10
104.6102602367666
 20
273.7423435030469
 30
0.0
 10
104.5116981847971
 20
273.70746354621
 30
0.0
 10
104.4296516556312
 20
273.6901165962806
 30
0.0
 10
104.3662887364222
 20
273.6827235337572
 30
0.0
 10
104.3023014341262
 20
273.6807902022737
 30
0.0
 10
104.2597277405618
 20
273.6844379878046
 30
0.0
 10
104.2384490457
 20
273.6862611821
 30
0.0
 11
105.0565072219
 21
274.1407319797
 31
0.0
 11
104.9848752655772
 21
274.045698976631
 31
0.0
 11
104.9055312858293
 21
273.9569097841671
 31
0.0
 11
104.8164990777876
 21
273.8749872987375
 31
0.0
 11
104.7185478830288
 21
273.8039210800561
 31
0.0
 11
104.6088615798917
 21
273.7452213264679
 31
0.0
 11
104.4916731072259
 21
273.7041975289012
 31
0.0
 11
104.4294932777236
 21
273.6910810610265
 31
0.0
 11
104.3663888737553
 21
273.683648569926
 31
0.0
 11
104.3023345844022
 21
273.6820256788012
 31
0.0
 11
104.2384490457
 21
273.6862611821
 31
0.0
  0
SPLINE
  5
10E
330
1F
100
AcDbEntity
  8
0
  6
Continuous
 62
     7
100
AcDbSpline
210
0.0
220
0.0
230
1.0
 70
     8
 71
     3
 72
    11
 73
     7
 74
     5
 42
0.0000000001
 43
0.0000000001
 44
0.00000001
 40
0.0
 40
0.0
 40
0.0
 40
0.0
 40
0.072033561736714
 40
0.1441734620851572
 40
0.216359359391731
 40
0.2883296529945088
 40
0.2883296529945088
 40
0.2883296529945088
 40
0.2883296529945088
 10
101.7265197767
 20
289.5266896857
 30
0.0
 10
101.7460258301889
 20
289.5407421557455
 30
0.0
 10
101.7850667327253
 20
289.5688678406134
 30
0.0
 10
101.8493086574318
 20
289.6020938335147
 30
0.0
 10
101.9171718541644
 20
289.6275250271452
 30
0.0
 10
101.9646888428646
 20
289.635341923232
 30
0.0
 10
101.9884118034
 20
289.6392445257
 30
0.0
 11
101.7265197767
 21
289.5266896857
 31
0.0
 11
101.7859784026749
 21
289.5673530084079
 31
0.0
 11
101.8499018294455
 21
289.6007889281977
 31
0.0
 11
101.9178131585195
 21
289.6252604453832
 31
0.0
 11
101.9884118034
 21
289.6392445257
 31
0.0
  0
SPLINE
  5
10F
330
1F
100
AcDbEntity
  8
0
  6
Continuous
 62
     7
100
AcDbSpline
210
0.0
220
0.0
230
1.0
 70
     8
 71
     3
 72
    27
 73
    23
 74
    21
 42
0.0000000001
 43
0.0000000001
 44
0.00000001
 40
0.0
 40
0.0
 40
0.0
 40
0.0
 40
0.0679422773175295
 40
0.1359904672009016
 40
0.1960311417502176
 40
0.2558288643827877
 40
0.2829045758899394
 40
0.3099751665490982
 40
0.3357621418699575
 40
0.3615450077178454
 40
0.3868874812888475
 40
0.4122310012337492
 40
0.4380221513089709
 40
0.4638182097694467
 40
0.5190828346729099
 40
0.574582215370194
 40
0.6366003187183944
 40
0.6985580374591772
 40
0.7666673008555971
 40
0.8347923375751504
 40
0.9078434200319955
 40
0.9808740973344963
 40
0.9808740973344963
 40
0.9808740973344963
 40
0.9808740973344963
 10
101.0384490457
 20
289.3355158715
 30
0.0
 10
101.0389168057652
 20
289.3581726125942
 30
0.0
 10
101.0398530550684
 20
289.4035214134925
 30
0.0
 10
101.0489699765702
 20
289.4684094880295
 30
0.0
 10
101.0647125345398
 20
289.5291739793304
 30
0.0
 10
101.0842797783636
 20
289.5743947529472
 30
0.0
 10
101.1043003027745
 20
289.6067324636371
 30
0.0
 10
101.1206018871544
 20
289.6278775689659
 30
0.0
 10
101.1388714494771
 20
289.6467516553924
 30
0.0
 10
101.1587447989178
 20
289.6630451416008
 30
0.0
 10
101.1803158482488
 20
289.6767377202162
 30
0.0
 10
101.2033342275417
 20
289.6878255826003
 30
0.0
 10
101.2276266423926
 20
289.69621313844
 30
0.0
 10
101.2624017829496
 20
289.704173993146
 30
0.0
 10
101.3081207625603
 20
289.7073418800461
 30
0.0
 10
101.3656273248813
 20
289.7018304548863
 30
0.0
 10
101.4240706871239
 20
289.6883142429157
 30
0.0
 10
101.4845605262487
 20
289.6670490475394
 30
0.0
 10
101.5448818538556
 20
289.6399294039123
 30
0.0
 10
101.6062491127361
 20
289.606661506459
 30
0.0
 10
101.6670171165237
 20
289.5690696321051
 30
0.0
 10
101.7066874037309
 20
289.5408150189376
 30
0.0
 10
101.7265197767
 20
289.5266896857
 30
0.0
 11
101.0384490457
 21
289.3355158715
 31
0.0
 11
101.0411973108224
 21
289.4034025424002
 31
0.0
 11
101.0506901014873
 21
289.4707853523133
 31
0.0
 11
101.0662189251672
 21
289.5287830956785
 31
0.0
 11
101.0903879787284
 21
289.583478840321
 31
0.0
 11
101.1046834798895
 21
289.6064730308954
 31
0.0
 11
101.1212570968316
 21
289.6278770515479
 31
0.0
 11
101.1392085902118
 21
289.646389533327
 31
0.0
 11
101.1591667457812
 21
289.6627121617182
 31
0.0
 11
101.180554964103
 21
289.6763057294513
 31
0.0
 11
101.2033852252299
 21
289.6873090553156
 31
0.0
 11
101.2277499354822
 21
289.6957674426634
 31
0.0
 11
101.2528878387727
 21
289.7015573001963
 31
0.0
 11
101.3079880359289
 21
289.7058172343594
 31
0.0
 11
101.3632692039381
 21
289.7009005564854
 31
0.0
 11
101.4237576767048
 21
289.687211516882
 31
0.0
 11
101.4823118545274
 21
289.6669589325757
 31
0.0
 11
101.5444978938095
 21
289.6391782148239
 31
0.0
 11
101.6044912509428
 21
289.6069010134595
 31
0.0
 11
101.6665799246489
 21
289.5684113103491
 31
0.0
 11
101.7265197767
 21
289.5266896857
 31
0.0
  0
SPLINE
  5
110
330
1F
100
AcDbEntity
  8
FASEN
  6
Continuous
 62
     7
100
AcDbSpline
210
0.0
220
0.0
230
1.0
 70
     8
 71
     3
 72
    43
 73
    39
 74
    37
 42
0.0000000001
 43
0.0000000001
 44
0.00000001
 40
0.0
 40
0.0
 40
0.0
 40
0.0
 40
0.3536627137675168
 40
0.7077087110085019
 40
1.061386016557086
 40
1.414940912920372
 40
1.768273600872778
 40
2.121679340751287
 40
2.474990473712335
 40
2.828124790671126
 40
3.004861640049436
 40
3.181542282367174
 40
3.358289604683123
 40
3.535092627963902
 40
3.888693190949769
 40
4.242467023528719
 40
4.596379402859317
 40
4.950247373351707
 40
5.303947627931615
 40
5.657661399010357
 40
6.01071255542308
 40
6.363747200653167
 40
6.715806091029208
 40
7.067909115867663
 40
7.419215040176068
 40
7.7703462736605
 40
7.945854779129202
 40
8.121308709971096
 40
8.296759233304781
 40
8.472264989713922
 40
8.823345921591462
 40
9.174601594748928
 40
9.52672124188506
 40
9.878775142159157
 40
10.23179857967112
 40
10.58493613207512
 40
10.93889559950204
 40
11.29248564891417
 40
11.29248564891417
 40
11.29248564891417
 40
11.29248564891417
 10
114.8392006342
 20
281.7907319797
 30
0.0
 10
114.842530461023
 20
281.9086692894127
 30
0.0
 10
114.8491937233831
 20
282.1446717239003
 30
0.0
 10
114.9035296786465
 20
282.4951560311115
 30
0.0
 10
114.9894729041745
 20
282.8387684973154
 30
0.0
 10
115.1093600489728
 20
283.1720060003281
 30
0.0
 10
115.2614089103868
 20
283.491677490537
 30
0.0
 10
115.4442228268227
 20
283.7947452959941
 30
0.0
 10
115.6560860225164
 20
284.0781520449546
 30
0.0
 10
115.8550204616999
 20
284.2958666440524
 30
0.0
 10
116.0264009368426
 20
284.4575282131059
 30
0.0
 10
116.1608274606127
 20
284.5723588627678
 30
0.0
 10
116.3007457275796
 20
284.6804661848084
 30
0.0
 10
116.494200079602
 20
284.8152817924956
 30
0.0
 10
116.7482448782126
 20
284.9657112987851
 30
0.0
 10
117.0692732927628
 20
285.1156398173069
 30
0.0
 10
117.4035321559264
 20
285.2334694970377
 30
0.0
 10
117.7476329647346
 20
285.3182297319403
 30
0.0
 10
118.0982847688726
 20
285.3690737476068
 30
0.0
 10
118.4519412979676
 20
285.3856878569658
 30
0.0
 10
118.8053132830992
 20
285.3678265943608
 30
0.0
 10
119.1547453510794
 20
285.3158662729007
 30
0.0
 10
119.497136089102
 20
285.2301527362683
 30
0.0
 10
119.8290225008276
 20
285.111706526237
 30
0.0
 10
120.1474100154924
 20
284.9614513962048
 30
0.0
 10
120.3990463916259
 20
284.8110397480699
 30
0.0
 10
120.5905422850198
 20
284.676366680139
 30
0.0
 10
120.7289932175864
 20
284.5684456444245
 30
0.0
 10
120.8619913314164
 20
284.4538733594375
 30
0.0
 10
121.0316220440796
 20
284.292553917543
 30
0.0
 10
121.2284928491196
 20
284.0753742463761
 30
0.0
 10
121.4382195896463
 20
283.7926265047313
 30
0.0
 10
121.6191799329931
 20
283.4902480970793
 30
0.0
 10
121.769811751239
 20
283.1710574278814
 30
0.0
 10
121.8886435502035
 20
282.8382837619507
 30
0.0
 10
121.9738886893786
 20
282.4948991354997
 30
0.0
 10
122.0277238494207
 20
282.1445883699997
 30
0.0
 10
122.0343740787219
 20
281.9086430467361
 30
0.0
 10
122.0376974573
 20
281.7907319797
 30
0.0
 11
114.8392006342
 21
281.7907319797
 31
0.0
 11
114.8565737979881
 21
282.1439677200908
 31
0.0
 11
114.9088243670626
 21
282.4941368880564
 31
0.0
 11
114.9951532410114
 21
282.8371164238641
 31
0.0
 11
115.1147541364457
 21
283.1698275456405
 31
0.0
 11
115.2665309898138
 21
283.4889008525112
 31
0.0
 11
115.4490887140101
 21
283.7915033877209
 31
0.0
 11
115.6606004086531
 21
284.074507910129
 31
0.0
 11
115.8988277709807
 21
284.3351831288445
 31
0.0
 11
116.0273865246496
 21
284.456461984311
 31
0.0
 11
116.1617225501013
 21
284.5712220890324
 31
0.0
 11
116.3015869674731
 21
284.6792848518099
 31
0.0
 11
116.4466444357403
 21
284.7803671941904
 31
0.0
 11
116.7508758718864
 21
284.9605798225059
 31
0.0
 11
117.0714220678694
 21
285.1102663645145
 31
0.0
 11
117.4051908253981
 21
285.227962535825
 31
0.0
 11
117.7487904922095
 21
285.3125900107226
 31
0.0
 11
118.0988263868991
 21
285.3633713312911
 31
0.0
 11
118.4521518234799
 21
285.3799414162568
 31
0.0
 11
118.8047535493147
 21
285.3621329356187
 31
0.0
 11
119.1539426264223
 21
285.3101670895125
 31
0.0
 11
119.4954633777551
 21
285.2246741734207
 31
0.0
 11
119.8270657540675
 21
285.1062832779754
 31
0.0
 11
120.14477439382
 21
284.9563597218516
 31
0.0
 11
120.4461362079673
 21
284.7761537283271
 31
0.0
 11
120.5897021735713
 21
284.6751980498734
 31
0.0
 11
120.728085505926
 21
284.5673364015721
 31
0.0
 11
120.861010383626
 21
284.4528206252506
 31
0.0
 11
120.9881830081415
 21
284.3318685929958
 31
0.0
 11
121.2240011199752
 21
284.0717769959397
 31
0.0
 11
121.4332346171594
 21
283.7896389241
 31
0.0
 11
121.6140895064001
 21
283.4875135280523
 31
0.0
 11
121.7643670710546
 21
283.1691448702675
 31
0.0
 11
121.8830037848303
 21
282.8366529491968
 31
0.0
 11
121.9685923939001
 21
282.494044249781
 31
0.0
 11
122.0204195988235
 21
282.1438996433525
 31
0.0
 11
122.0376974573
 21
281.7907319797
 31
0.0
  0
SPLINE
  5
111
330
1F
100
AcDbEntity
  8
0
  6
Continuous
 62
     7
100
AcDbSpline
210
0.0
220
0.0
230
1.0
 70
     8
 71
     3
 72
    27
 73
    23
 74
    21
 42
0.0000000001
 43
0.0000000001
 44
0.00000001
 40
0.0
 40
0.0
 40
0.0
 40
0.0
 40
0.0730306818996752
 40
0.1460817687825646
 40
0.2142068182480565
 40
0.2823160953761468
 40
0.3442738268849799
 40
0.4062919405565336
 40
0.4617913416042946
 40
0.5170559904625436
 40
0.542852062269937
 40
0.568643224627251
 40
0.5939867602391747
 40
0.6193292497781883
 40
0.6451121206151117
 40
0.6708991014456689
 40
0.6979696844720545
 40
0.7250453873736789
 40
0.7848430773110123
 40
0.8448837205804498
 40
0.9129318640861173
 40
0.9808740945080519
 40
0.9808740945080519
 40
0.9808740945080519
 40
0.9808740945080519
 10
101.7265197767
 20
274.0547742736
 30
0.0
 10
101.7066874024679
 20
274.0406489394933
 30
0.0
 10
101.667017112781
 20
274.0123943246209
 30
0.0
 10
101.6062491026717
 20
273.9748024466697
 30
0.0
 10
101.5448818342069
 20
273.9415345452185
 30
0.0
 10
101.4845604942996
 20
273.9144148971299
 30
0.0
 10
101.4240706438012
 20
273.8931496969888
 30
0.0
 10
101.3656272650122
 20
273.8796334889428
 30
0.0
 10
101.3081206813564
 20
273.8741220882156
 30
0.0
 10
101.2624016848427
 20
273.8772899929734
 30
0.0
 10
101.227626528057
 20
273.8852508501784
 30
0.0
 10
101.203334100823
 20
273.8936384137318
 30
0.0
 10
101.1803157154421
 20
273.9047262984478
 30
0.0
 10
101.1587446698498
 20
273.9184189063292
 30
0.0
 10
101.1388713337224
 20
273.9347124227957
 30
0.0
 10
101.1206017913692
 20
273.95358652932
 30
0.0
 10
101.1043002203104
 20
273.9747316397412
 30
0.0
 10
101.0842797123572
 20
274.0070693413817
 30
0.0
 10
101.0647124921822
 20
274.0522900988607
 30
0.0
 10
101.0489699601293
 20
274.1130545585085
 30
0.0
 10
101.0398530530448
 20
274.1779425925962
 30
0.0
 10
101.0389168050896
 20
274.2232913623596
 30
0.0
 10
101.0384490457
 20
274.2459480878
 30
0.0
 11
101.7265197767
 21
274.0547742736
 31
0.0
 11
101.6665799208138
 21
274.0130526464137
 31
0.0
 11
101.6044912431668
 21
273.9745629412599
 31
0.0
 11
101.5444978744055
 21
273.9422857346067
 31
0.0
 11
101.4823118223041
 21
273.9145050118846
 31
0.0
 11
101.4237576320872
 21
273.8942524243521
 31
0.0
 11
101.3632691470706
 21
273.8805633921083
 31
0.0
 11
101.307987956898
 21
273.8756467337149
 31
0.0
 11
101.2528877370811
 21
273.8799066855408
 31
0.0
 11
101.2277498209885
 21
273.8856965469565
 31
0.0
 11
101.2033851007637
 21
273.8941549430285
 31
0.0
 11
101.1805548326837
 21
273.9051582905514
 31
0.0
 11
101.1591666147683
 21
273.9187518886931
 31
0.0
 11
101.1392084746572
 21
273.9350745438661
 31
0.0
 11
101.1212569962744
 21
273.9535870478628
 31
0.0
 11
101.104683396174
 21
273.9749910719027
 31
0.0
 11
101.0903879063956
 21
273.9979852594207
 31
0.0
 11
101.0662188819577
 21
274.0526809811872
 31
0.0
 11
101.0506900813549
 21
274.1106786983496
 31
0.0
 11
101.0411973065443
 21
274.1780614636606
 31
0.0
 11
101.0384490457
 21
274.2459480878
 31
0.0
  0
SPLINE
  5
112
330
1F
100
AcDbEntity
  8
0
  6
Continuous
 62
     7
100
AcDbSpline
210
0.0
220
0.0
230
1.0
 70
     8
 71
     3
 72
    25
 73
    21
 74
    19
 42
0.0000000001
 43
0.0000000001
 44
0.00000001
 40
0.0
 40
0.0
 40
0.0
 40
0.0
 40
0.0272074181899046
 40
0.0544897104119758
 40
0.081725261597324
 40
0.1089465264773741
 40
0.1361394923942011
 40
0.1633375028465789
 40
0.1904999128787239
 40
0.2176598701758915
 40
0.2719180517510112
 40
0.3262245621896688
 40
0.3805032120963141
 40
0.4347626394224783
 40
0.4890258447613094
 40
0.5432924465609208
 40
0.5975546789785932
 40
0.6518175542604263
 40
0.7603351297843516
 40
0.8688543878811201
 40
0.8688543878811201
 40
0.8688543878811201
 40
0.8688543878811201
 10
145.1009490457
 20
276.8545770996
 30
0.0
 10
145.1100257185824
 20
276.8541398591183
 30
0.0
 10
145.1282040430899
 20
276.8532641748817
 30
0.0
 10
145.1548059163206
 20
276.8467236330166
 30
0.0
 10
145.1802813730222
 20
276.8369158944593
 30
0.0
 10
145.2043518966137
 20
276.8240782652239
 30
0.0
 10
145.2269742683727
 20
276.8089030266606
 30
0.0
 10
145.2481981239733
 20
276.7918731777574
 30
0.0
 10
145.2681834793356
 20
276.7734348788946
 30
0.0
 10
145.2932999831725
 20
276.7473523767108
 30
0.0
 10
145.3222325803798
 20
276.7124864271651
 30
0.0
 10
145.3536011735387
 20
276.6681431437113
 30
0.0
 10
145.3824243245882
 20
276.6221186667484
 30
0.0
 10
145.4090412041006
 20
276.5748091021887
 30
0.0
 10
145.4338519341098
 20
276.5265381593236
 30
0.0
 10
145.4570791096799
 20
276.4774878289567
 30
0.0
 10
145.4789617462071
 20
276.4278247915198
 30
0.0
 10
145.5065063139677
 20
276.3609218091698
 30
0.0
 10
145.5384781936214
 20
276.2762938034323
 30
0.0
 10
145.5611488012894
 20
276.2075860984957
 30
0.0
 10
145.572484193
 20
276.1732319797
 30
0.0
 11
145.1009490457
 21
276.8545770996
 31
0.0
 11
145.128068936784
 21
276.8523964776361
 31
0.0
 11
145.1546322330973
 21
276.8461743591977
 31
0.0
 11
145.1800560899924
 21
276.8364069261189
 31
0.0
 11
145.204120449142
 21
276.8236827805527
 31
0.0
 11
145.2267424523728
 21
276.8085929705744
 31
0.0
 11
145.248002084248
 21
276.7916294855228
 31
0.0
 11
145.2679960947216
 21
276.7732437284283
 31
0.0
 11
145.2868673073302
 21
276.7537106637669
 31
0.0
 11
145.3216652732364
 21
276.712080724581
 31
0.0
 11
145.3531819558087
 21
276.6678552138924
 31
0.0
 11
145.3820611495671
 21
276.6218969284201
 31
0.0
 11
145.4087399205
 21
276.5746494032439
 31
0.0
 11
145.4335874316528
 21
276.5264094131615
 31
0.0
 11
145.4568556309458
 21
276.4773843688215
 31
0.0
 11
145.478757837265
 21
276.4277387927316
 31
0.0
 11
145.4994570214879
 21
276.3775790139605
 31
0.0
 11
145.537751369014
 21
276.2760427783343
 31
0.0
 11
145.572484193
 21
276.1732319797
 31
0.0
  0
SPLINE
  5
113
330
1F
100
AcDbEntity
  8
0
  6
Continuous
 62
     7
100
AcDbSpline
210
0.0
220
0.0
230
1.0
 70
     8
 71
     3
 72
    25
 73
    21
 74
    19
 42
0.0000000001
 43
0.0000000001
 44
0.00000001
 40
0.0
 40
0.0
 40
0.0
 40
0.0
 40
0.1085025556015482
 40
0.2170033619559416
 40
0.2712583157029631
 40
0.3255127642077678
 40
0.3797719178289659
 40
0.4340272285757236
 40
0.4882788892271637
 40
0.5425511685921012
 40
0.5968541104860723
 40
0.6511051289762619
 40
0.6782579264152288
 40
0.7054161157610155
 40
0.7326228692408768
 40
0.7598194767471877
 40
0.787069264224101
 40
0.8143404775453474
 40
0.8416356458235512
 40
0.868850492883366
 40
0.868850492883366
 40
0.868850492883366
 40
0.868850492883366
 10
142.3044138985
 20
276.1732319797
 30
0.0
 10
142.3157475490273
 20
276.2075808095207
 30
0.0
 10
142.3384146673638
 20
276.2762779153998
 30
0.0
 10
142.3703813917306
 20
276.3608931060927
 30
0.0
 10
142.3979212759696
 20
276.4277863069448
 30
0.0
 10
142.4197998961523
 20
276.4774426715286
 30
0.0
 10
142.4430220597365
 20
276.5264868361512
 30
0.0
 10
142.4678276934985
 20
276.5747517528159
 30
0.0
 10
142.4944405263812
 20
276.6220551611081
 30
0.0
 10
142.5232555976646
 20
276.6680775081406
 30
0.0
 10
142.5546061148245
 20
276.7124263871111
 30
0.0
 10
142.5835309503861
 20
276.7472920283069
 30
0.0
 10
142.6086529308953
 20
276.7733607918063
 30
0.0
 10
142.6286353716237
 20
276.791799990756
 30
0.0
 10
142.6498372246934
 20
276.808860641788
 30
0.0
 10
142.6724567708517
 20
276.8240670329444
 30
0.0
 10
142.6965636069999
 20
276.8368885119916
 30
0.0
 10
142.7220732593482
 20
276.8466733010958
 30
0.0
 10
142.7486848935777
 20
276.8532475087874
 30
0.0
 10
142.7668699269539
 20
276.8541343382474
 30
0.0
 10
142.7759490457
 20
276.8545770996
 30
0.0
 11
142.3044138985
 21
276.1732319797
 31
0.0
 11
142.3391413301367
 21
276.2760269701615
 31
0.0
 11
142.3774293694667
 21
276.3775476627509
 31
0.0
 11
142.3981250570459
 21
276.4277003149411
 31
0.0
 11
142.4200231622467
 21
276.4773391925591
 31
0.0
 11
142.443286613718
 21
276.5263582457663
 31
0.0
 11
142.4681291017367
 21
276.5745919428387
 31
0.0
 11
142.4948026663233
 21
276.6218334884917
 31
0.0
 11
142.523672620908
 21
276.6677900552667
 31
0.0
 11
142.555175767315
 21
276.7120208280928
 31
0.0
 11
142.5899670836793
 21
276.7536469894923
 31
0.0
 11
142.6088379765367
 21
276.7731704064967
 31
0.0
 11
142.6288245180363
 21
276.7915580492881
 31
0.0
 11
142.6500721255734
 21
276.8085505949733
 31
0.0
 11
142.6726863226917
 21
276.8236586573424
 31
0.0
 11
142.6967859662492
 21
276.8363770730433
 31
0.0
 11
142.7222512617658
 21
276.8461360586598
 31
0.0
 11
142.7488232248955
 21
276.8523776118936
 31
0.0
 11
142.7759490457
 21
276.8545770996
 31
0.0
  0
SPLINE
  5
114
330
1F
100
AcDbEntity
  8
0
  6
Continuous
 62
     7
100
AcDbSpline
210
0.0
220
0.0
230
1.0
 70
     8
 71
     3
 72
    25
 73
    21
 74
    19
 42
0.0000000001
 43
0.0000000001
 44
0.00000001
 40
0.0
 40
0.0
 40
0.0
 40
0.0
 40
0.0272067661191969
 40
0.0544881809140606
 40
0.0817226175238377
 40
0.1089430469839415
 40
0.1361366760865094
 40
0.1633351631875001
 40
0.1904968256073802
 40
0.2176561383840392
 40
0.2719142873754775
 40
0.3262206322526459
 40
0.3804997303654521
 40
0.4347596646237051
 40
0.4890233385815405
 40
0.5432903873202292
 40
0.5975530058706059
 40
0.6518162746529292
 40
0.7603346281830177
 40
0.8688546603452998
 40
0.8688546603452998
 40
0.8688546603452998
 40
0.8688546603452998
 10
142.7759490457
 20
286.7268868597
 30
0.0
 10
142.7668725893777
 20
286.7273238499872
 30
0.0
 10
142.7486947731689
 20
286.7281990295554
 30
0.0
 10
142.7220933712308
 20
286.7347379521044
 30
0.0
 10
142.6966191317648
 20
286.7445464736282
 30
0.0
 10
142.6725496306888
 20
286.7573849745002
 30
0.0
 10
142.6499267781587
 20
286.7725595951896
 30
0.0
 10
142.6287020808948
 20
286.7895886342618
 30
0.0
 10
142.6087168827271
 20
286.8080266809451
 30
0.0
 10
142.5836009331088
 20
286.8341090497445
 30
0.0
 10
142.5546681359714
 20
286.8689744315631
 30
0.0
 10
142.5232987439667
 20
286.9133172659838
 30
0.0
 10
142.4944753229284
 20
286.9593418979714
 30
0.0
 10
142.4678583309313
 20
287.0066519428573
 30
0.0
 10
142.4430473376678
 20
287.0549232812847
 30
0.0
 10
142.4198198765814
 20
287.103973957082
 30
0.0
 10
142.3979370383406
 20
287.1536373530894
 30
0.0
 10
142.3703922652297
 20
287.2205408124872
 30
0.0
 10
142.3384201446734
 20
287.3051694207668
 30
0.0
 10
142.3157493723384
 20
287.3738776162531
 30
0.0
 10
142.3044138985
 20
287.4082319797
 30
0.0
 11
142.7759490457
 21
286.7268868597
 31
0.0
 11
142.7488297378729
 21
286.7290665995108
 31
0.0
 11
142.7222670929611
 21
286.735287651552
 31
0.0
 11
142.6968445425775
 21
286.7450553774615
 31
0.0
 11
142.6727813328044
 21
286.7577799094926
 31
0.0
 11
142.6501584916241
 21
286.7728696583539
 31
0.0
 11
142.628897922084
 21
286.7898327324684
 31
0.0
 11
142.6089043263861
 21
286.8082178361255
 31
0.0
 11
142.5900336439157
 21
286.8277505167813
 31
0.0
 11
142.555235366081
 21
286.8693801527599
 31
0.0
 11
142.5237181795884
 21
286.9136051010302
 31
0.0
 11
142.4948385529214
 21
286.9595636438217
 31
0.0
 11
142.4681595833945
 21
287.0068116390246
 31
0.0
 11
142.4433118302649
 21
287.0550520315998
 31
0.0
 11
142.4200433591015
 21
287.1040774416289
 31
0.0
 11
142.3981409548899
 21
287.1537233524544
 31
0.0
 11
142.3774416094867
 21
287.203883490401
 31
0.0
 11
142.3391469757274
 21
287.3054204495742
 31
0.0
 11
142.3044138985
 21
287.4082319797
 31
0.0
  0
SPLINE
  5
115
330
1F
100
AcDbEntity
  8
0
  6
Continuous
 62
     7
100
AcDbSpline
210
0.0
220
0.0
230
1.0
 70
     8
 71
     3
 72
    25
 73
    21
 74
    19
 42
0.0000000001
 43
0.0000000001
 44
0.00000001
 40
0.0
 40
0.0
 40
0.0
 40
0.0
 40
0.1085285491016602
 40
0.2170554557471294
 40
0.2713241333535841
 40
0.3255921109977925
 40
0.3798650579908597
 40
0.4341347749275151
 40
0.4884007825130955
 40
0.5426855352001121
 40
0.5969918906890671
 40
0.6512511253317623
 40
0.6784124281540345
 40
0.705575110513429
 40
0.7327602081100083
 40
0.7599421722630721
 40
0.7871532998095178
 40
0.8143760192774318
 40
0.8416525759280317
 40
0.8688563237582437
 40
0.8688563237582437
 40
0.8688563237582437
 40
0.8688563237582437
 10
145.572484193
 20
287.4082319797
 30
0.0
 10
145.5611477695961
 20
287.3738749391206
 30
0.0
 10
145.5384750943522
 20
287.3051613779168
 30
0.0
 10
145.5065000744881
 20
287.2205258566789
 30
0.0
 10
145.478953016064
 20
287.1536163742335
 30
0.0
 10
145.4570679046956
 20
287.1039479044501
 30
0.0
 10
145.4338374805514
 20
287.0548922452545
 30
0.0
 10
145.4090232484558
 20
287.0066158259443
 30
0.0
 10
145.3824033326164
 20
286.9593006245725
 30
0.0
 10
145.3535759768827
 20
286.9132737518581
 30
0.0
 10
145.3221995624038
 20
286.8689330353154
 30
0.0
 10
145.2932626272577
 20
286.83406996041
 30
0.0
 10
145.2681459072544
 20
286.8079864556489
 30
0.0
 10
145.2481602307767
 20
286.7895537183563
 30
0.0
 10
145.2269323636899
 20
286.7725412061498
 30
0.0
 10
145.2043140202387
 20
286.7573813687988
 30
0.0
 10
145.180259974345
 20
286.7445384047851
 30
0.0
 10
145.154797505535
 20
286.7347214265982
 30
0.0
 10
145.1281997154671
 20
286.7281934761474
 30
0.0
 10
145.1100245056898
 20
286.7273220102998
 30
0.0
 10
145.1009490457
 20
286.7268868597
 30
0.0
 11
145.572484193
 21
287.4082319797
 31
0.0
 11
145.5377481900846
 21
287.3054124481334
 31
0.0
 11
145.4994503848204
 21
287.2038675438891
 31
0.0
 11
145.4787490464824
 21
287.1537023770882
 31
0.0
 11
145.4568443966737
 21
287.1040515995077
 31
0.0
 11
145.4335729804857
 21
287.0550210583734
 31
0.0
 11
145.4087220463411
 21
287.0067755067803
 31
0.0
 11
145.3820396854739
 21
286.9595224518756
 31
0.0
 11
145.3531548321996
 21
286.9135605151712
 31
0.0
 11
145.3216328011127
 21
286.8693390067997
 31
0.0
 11
145.2868303990371
 21
286.8277114035324
 31
0.0
 11
145.2679576962697
 21
286.8081779076534
 31
0.0
 11
145.2479597299209
 21
286.7897960509771
 31
0.0
 11
145.2267019552736
 21
286.7728509470122
 31
0.0
 11
145.20408489159
 21
286.7577735597866
 31
0.0
 11
145.1800335658637
 21
286.7450464551216
 31
0.0
 11
145.154624946839
 21
286.7352751433115
 31
0.0
 11
145.1280658276144
 21
286.7290603441413
 31
0.0
 11
145.1009490457
 21
286.7268868597
 31
0.0
  0
SPLINE
  5
116
330
1F
100
AcDbEntity
  8
0
  6
Continuous
 62
     7
100
AcDbSpline
210
0.0
220
0.0
230
1.0
 70
     8
 71
     3
 72
    11
 73
     7
 74
     5
 42
0.0000000001
 43
0.0000000001
 44
0.00000001
 40
0.0
 40
0.0
 40
0.0
 40
0.0
 40
0.0719820116952345
 40
0.1441794862810983
 40
0.2163078795567014
 40
0.2883301028838355
 40
0.2883301028838355
 40
0.2883301028838355
 40
0.2883301028838355
 10
101.9884118034
 20
273.9422194336
 30
0.0
 10
101.9646849702006
 20
273.946122620806
 30
0.0
 10
101.9171602825569
 20
273.9539406785815
 30
0.0
 10
101.8492936143309
 20
273.9793744023422
 30
0.0
 10
101.7850567970098
 20
274.0126019325043
 30
0.0
 10
101.7460225336191
 20
274.0407237306659
 30
0.0
 10
101.7265197767
 20
274.0547742736
 30
0.0
 11
101.9884118034
 21
273.9422194336
 31
0.0
 11
101.9178016768552
 21
273.9562058569106
 31
0.0
 11
101.8498799944413
 21
273.9806827928839
 31
0.0
 11
101.7859681859511
 21
274.0141160974173
 31
0.0
 11
101.7265197767
 21
274.0547742736
 31
0.0
  0
SPLINE
  5
117
330
1F
100
AcDbEntity
  8
0
  6
Continuous
 62
     7
100
AcDbSpline
210
0.0
220
0.0
230
1.0
 70
     8
 71
     3
 72
    13
 73
     9
 74
     7
 42
0.0000000001
 43
0.0000000001
 44
0.00000001
 40
0.0
 40
0.0
 40
0.0
 40
0.0
 40
0.131284806775057
 40
0.2626131914652641
 40
0.3227000710841363
 40
0.3827285902969785
 40
0.440467108202221
 40
0.4981359434859948
 40
0.4981359434859948
 40
0.4981359434859948
 40
0.4981359434859948
 10
142.3044138985
 20
287.4082319797
 30
0.0
 10
142.269089086168
 20
287.4342614268738
 30
0.0
 10
142.1984277359913
 20
287.4863289612846
 30
0.0
 10
142.1289209757023
 20
287.5700044630379
 30
0.0
 10
142.0856638464641
 20
287.6418971714508
 30
0.0
 10
142.0609430827075
 20
287.6959044286672
 30
0.0
 10
142.0421022115978
 20
287.7514530769192
 30
0.0
 10
142.0350512765546
 20
287.7893132987368
 30
0.0
 10
142.0315279377
 20
287.8082319797
 30
0.0
 11
142.3044138985
 21
287.4082319797
 31
0.0
 11
142.2019624859636
 21
287.4903258805652
 31
0.0
 11
142.1174827196114
 21
287.5908759362709
 31
0.0
 11
142.0866469307252
 21
287.6424471222772
 31
0.0
 11
142.0615916820165
 21
287.696996711011
 31
0.0
 11
142.043432140469
 21
287.7518051729551
 31
0.0
 11
142.0315279377
 21
287.8082319797
 31
0.0
  0
SPLINE
  5
118
330
1F
100
AcDbEntity
  8
0
  6
Continuous
 62
     7
100
AcDbSpline
210
0.0
220
0.0
230
1.0
 70
     8
 71
     3
 72
    13
 73
     9
 74
     7
 42
0.0000000001
 43
0.0000000001
 44
0.00000001
 40
0.0
 40
0.0
 40
0.0
 40
0.0
 40
0.0576631897366868
 40
0.1153961316046733
 40
0.1754242232477634
 40
0.2355105401285625
 40
0.3668449112380668
 40
0.4981360904563514
 40
0.4981360904563514
 40
0.4981360904563514
 40
0.4981360904563514
 10
145.8453701537
 20
287.8082319797
 30
0.0
 10
145.8418471159667
 20
287.789315159462
 30
0.0
 10
145.8347967788665
 20
287.7514586363023
 30
0.0
 10
145.8159575642269
 20
287.695913600006
 30
0.0
 10
145.7912396563897
 20
287.6419074910253
 30
0.0
 10
145.7479845070379
 20
287.5700116080473
 30
0.0
 10
145.6784756569029
 20
287.4863323059451
 30
0.0
 10
145.6078108070764
 20
287.4342625672861
 30
0.0
 10
145.572484193
 20
287.4082319797
 30
0.0
 11
145.8453701537
 21
287.8082319797
 31
0.0
 11
145.8334670742663
 21
287.7518107057813
 31
0.0
 11
145.8153098835527
 21
287.6970073390771
 31
0.0
 11
145.7902565696245
 21
287.6424573322253
 31
0.0
 11
145.7594229371338
 21
287.5908855125587
 31
0.0
 11
145.6749406992964
 21
287.4903297144926
 31
0.0
 11
145.572484193
 21
287.4082319797
 31
0.0
  0
SPLINE
  5
119
330
1F
100
AcDbEntity
  8
0
  6
Continuous
 62
     7
100
AcDbSpline
210
0.0
220
0.0
230
1.0
 70
     8
 71
     3
 72
    11
 73
     7
 74
     5
 42
0.0000000001
 43
0.0000000001
 44
0.00000001
 40
0.0
 40
0.0
 40
0.0
 40
0.0
 40
0.1068456600813842
 40
0.21425719443676
 40
0.3333679115843444
 40
0.4521343115260892
 40
0.4521343115260892
 40
0.4521343115260892
 40
0.4521343115260892
 10
142.04046386792
 20
275.818238234995
 30
0.0
 10
142.0511501165113
 20
275.8523469262319
 30
0.0
 10
142.0725792100325
 20
275.9207449546101
 30
0.0
 10
142.1315780455978
 20
276.0159983402444
 30
0.0
 10
142.2079939862493
 20
276.1031368316764
 30
0.0
 10
142.272304956899
 20
276.1498894878654
 30
0.0
 10
142.3044138985
 20
276.1732319797
 30
0.0
 11
142.04046386792
 21
275.818238234995
 31
0.0
 11
142.0766233039101
 21
275.9187792229905
 31
0.0
 11
142.1317654731458
 21
276.0109561120927
 31
0.0
 11
142.2109952142177
 21
276.0998943550992
 31
0.0
 11
142.3044138985
 21
276.1732319797
 31
0.0
  0
SPLINE
  5
11A
330
1F
100
AcDbEntity
  8
0
  6
Continuous
 62
     7
100
AcDbSpline
210
0.0
220
0.0
230
1.0
 70
     8
 71
     3
 72
    13
 73
     9
 74
     7
 42
0.0000000001
 43
0.0000000001
 44
0.00000001
 40
0.0
 40
0.0
 40
0.0
 40
0.0
 40
0.1312911943861517
 40
0.2626255806034288
 40
0.3227118843175599
 40
0.3827399628026449
 40
0.4404729026345349
 40
0.4981360902936829
 40
0.4981360902936829
 40
0.4981360902936829
 40
0.4981360902936829
 10
145.572484193
 20
276.1732319797
 30
0.0
 10
145.6078108109944
 20
276.1472013888454
 30
0.0
 10
145.6784756686407
 20
276.0951316436608
 30
0.0
 10
145.7479845196704
 20
276.0114523343485
 30
0.0
 10
145.7912396640428
 20
275.9395564528156
 30
0.0
 10
145.8159575668413
 20
275.8855503520012
 30
0.0
 10
145.8347967792967
 20
275.830005321071
 30
0.0
 10
145.841847116111
 20
275.7921487992579
 30
0.0
 10
145.8453701537
 20
275.7732319797
 30
0.0
 11
145.572484193
 21
276.1732319797
 31
0.0
 11
145.6749407101566
 21
276.0911342342042
 31
0.0
 11
145.7594229540671
 21
275.9905784215084
 31
0.0
 11
145.7902565776721
 21
275.9390066118697
 31
0.0
 11
145.8153098850375
 21
275.8844566164832
 31
0.0
 11
145.833467074793
 21
275.8296532516065
 31
0.0
 11
145.8453701537
 21
275.7732319797
 31
0.0
  0
SPLINE
  5
11B
330
1F
100
AcDbEntity
  8
0
  6
Continuous
 62
     7
100
AcDbSpline
210
0.0
220
0.0
230
1.0
 70
     8
 71
     3
 72
    11
 73
     7
 74
     5
 42
0.0000000001
 43
0.0000000001
 44
0.00000001
 40
0.0
 40
0.0
 40
0.0
 40
0.0
 40
0.4419689633840693
 40
0.8839020538555069
 40
1.150518561878326
 40
1.416734593058796
 40
1.416734593058796
 40
1.416734593058796
 40
1.416734593058796
 10
101.7749392556
 20
274.1407319797
 30
0.0
 10
101.8436393557282
 20
274.2712562238925
 30
0.0
 10
101.9810339798631
 20
274.5322941181292
 30
0.0
 10
102.1059601514392
 20
274.8964631496904
 30
0.0
 10
102.1759965168258
 20
275.214848880556
 30
0.0
 10
102.1843002831117
 20
275.3925756334507
 30
0.0
 10
102.1884490457
 20
275.4813722202
 30
0.0
 11
101.7749392556
 21
274.1407319797
 31
0.0
 11
101.9706841311958
 21
274.5369901130837
 31
0.0
 11
102.1148713519892
 21
274.9547399207599
 31
0.0
 11
102.1685190317434
 21
275.2159032581702
 31
0.0
 11
102.1884490457
 21
275.4813722202
 31
0.0
  0
SPLINE
  5
11C
330
1F
100
AcDbEntity
  8
0
  6
Continuous
 62
     7
100
AcDbSpline
210
0.0
220
0.0
230
1.0
 70
     8
 71
     3
 72
    11
 73
     7
 74
     5
 42
0.0000000001
 43
0.0000000001
 44
0.00000001
 40
0.0
 40
0.0
 40
0.0
 40
0.0
 40
0.38475790541778
 40
0.7696659747330619
 40
1.093183244153145
 40
1.416570809407554
 40
1.416570809407554
 40
1.416570809407554
 40
1.416570809407554
 10
102.1884490457
 20
288.1000917391
 30
0.0
 10
102.1798210079158
 20
288.2284383114467
 30
0.0
 10
102.1625615649839
 20
288.4851815474347
 30
0.0
 10
102.0567136469915
 20
288.8362758259812
 30
0.0
 10
101.9279355021112
 20
289.1554684924064
 30
0.0
 10
101.825931187162
 20
289.3456568615
 30
0.0
 10
101.7749392556
 20
289.4407319797
 30
0.0
 11
102.1884490457
 21
288.1000917391
 31
0.0
 11
102.1482545724204
 21
288.4827443885084
 31
0.0
 11
102.0449174832291
 21
288.8535215019087
 31
0.0
 11
101.9226007714303
 21
289.1530244996028
 31
0.0
 11
101.7749392556
 21
289.4407319797
 31
0.0
  0
DIMENSION
  5
129
330
1F
100
AcDbEntity
  8
1
100
AcDbDimension
  2
*D2
 10
201.348220326522
 20
285.7907319797
 30
0.0
 11
197.598220326522
 21
281.993301128602
 31
0.0
 70
    32
  1
<>
 71
     5
 42
-1.0
 53
90.0
  3
ME10_DIM_10
100
AcDbAlignedDimension
 13
190.9384490457
 23
277.7907319797
 33
0.0
 14
190.9384490457
 24
285.7907319797
 34
0.0
 50
90.0
100
AcDbRotatedDimension
  0
DIMENSION
  5
134
330
1F
100
AcDbEntity
  8
1
100
AcDbDimension
  2
*D3
 10
211.498788550056
 20
295.7907319797
 30
0.0
 11
207.748788550056
 21
282.046725171883
 31
0.0
 70
    32
  1
<>
 71
     5
 42
-1.0
 53
90.0
  3
ME10_DIM_11
100
AcDbAlignedDimension
 13
182.1387267011
 23
267.7907319797
 33
0.0
 14
182.1387267011
 24
295.7907319797
 34
0.0
 50
90.0
100
AcDbRotatedDimension
  0
DIMENSION
  5
13F
330
1F
100
AcDbEntity
  8
1
100
AcDbDimension
  2
*D4
 10
190.9384490457
 20
314.226190085407
 30
0.0
 11
172.439310299742
 21
317.976190085407
 31
0.0
 70
    32
  1
<>
 71
     5
 42
-1.0
 53
0.00013888888889
  3
ME10_DIM_12
100
AcDbAlignedDimension
 13
151.8884490457
 23
306.7907319797
 33
0.0
 14
190.9384490457
 24
291.1536617188
 34
0.0
100
AcDbRotatedDimension
  0
DIMENSION
  5
14A
330
1F
100
AcDbEntity
  8
1
100
AcDbDimension
  2
*D5
 10
190.9384490457
 20
323.428336413996
 30
0.0
 11
159.293386973186
 21
327.178336413996
 31
0.0
 70
    32
  1
<>
 71
     5
 42
-1.0
 53
0.00013888888889
  3
ME10_DIM_13
100
AcDbAlignedDimension
 13
125.9384490457
 23
306.7907319797
 33
0.0
 14
190.9384490457
 24
291.1536617188
 34
0.0
100
AcDbRotatedDimension
  0
DIMENSION
  5
155
330
1F
100
AcDbEntity
  8
1
100
AcDbDimension
  2
*D6
 10
101.0384490457
 20
332.327115281204
 30
0.0
 11
149.080015773323
 21
336.077115281204
 31
0.0
 70
    32
  1
<>
 71
     5
 42
-1.0
 53
0.00013888888889
  3
ME10_DIM_14
100
AcDbAlignedDimension
 13
190.9384490457
 23
291.1536617188
 33
0.0
 14
101.0384490457
 24
298.8470877608
 34
0.0
100
AcDbRotatedDimension
  0
INSERT
  5
15C
330
1F
100
AcDbEntity
  8
1
100
AcDbBlockReference
  2
*D7
 10
0.0
 20
0.0
 30
0.0
  0
ENDSEC
  0
SECTION
  2
OBJECTS
  0
DICTIONARY
  5
C
330
0
100
AcDbDictionary
281
     1
  3
ACAD_GROUP
350
D
  3
ACAD_LAYOUT
350
1A
  3
ACAD_MLEADERSTYLE
350
15F
  3
ACAD_MLINESTYLE
350
17
  3
ACAD_PLOTSETTINGS
350
19
  3
ACAD_PLOTSTYLENAME
350
E
  3
ACAD_SCALELIST
350
4C
  3
ACAD_VISUALSTYLE
350
2A
  3
AcDbVariableDictionary
350
15D
  0
DICTIONARY
  5
D
102
{ACAD_REACTORS
330
C
102
}
330
C
100
AcDbDictionary
281
     1
  0
DICTIONARY
  5
1A
102
{ACAD_REACTORS
330
C
102
}
330
C
100
AcDbDictionary
281
     1
  3
Layout1
350
1E
  3
Layout2
350
26
  3
Model
350
22
  0
DICTIONARY
  5
15F
102
{ACAD_REACTORS
330
C
102
}
330
C
100
AcDbDictionary
281
     1
  0
DICTIONARY
  5
17
102
{ACAD_REACTORS
330
C
102
}
330
C
100
AcDbDictionary
281
     1
  3
Standard
350
18
  0
DICTIONARY
  5
19
102
{ACAD_REACTORS
330
C
102
}
330
C
100
AcDbDictionary
281
     1
  0
ACDBDICTIONARYWDFLT
  5
E
102
{ACAD_REACTORS
330
C
102
}
330
C
100
AcDbDictionary
281
     1
  3
Normal
350
F
100
AcDbDictionaryWithDefault
340
F
  0
DICTIONARY
  5
4C
102
{ACAD_REACTORS
330
C
102
}
330
C
100
AcDbDictionary
281
     1
  3
A0
350
4D
  3
A1
350
4E
  3
A2
350
4F
  3
A3
350
50
  3
A4
350
51
  3
A5
350
52
  3
A6
350
53
  3
A7
350
54
  3
A8
350
55
  3
A9
350
56
  3
B0
350
57
  3
B1
350
58
  3
B2
350
59
  3
B3
350
5A
  3
B4
350
5B
  3
B5
350
5C
  3
B6
350
5D
  3
B7
350
5E
  3
B8
350
5F
  3
B9
350
60
  3
C0
350
61
  3
C1
350
62
  3
C2
350
63
  3
C3
350
64
  3
C4
350
65
  3
C5
350
66
  3
C6
350
67
  3
C7
350
68
  3
C8
350
69
  3
C9
350
6A
  3
D0
350
6B
  3
D1
350
6C
  3
D2
350
6D
  0
DICTIONARY
  5
2A
102
{ACAD_REACTORS
330
C
102
}
330
C
100
AcDbDictionary
281
     1
  3
2dWireframe
350
2F
  3
3D Hidden
350
31
  3
3dWireframe
350
30
  3
Basic
350
32
  3
Brighten
350
36
  3
ColorChange
350
3A
  3
Conceptual
350
34
  3
Dim
350
35
  3
Facepattern
350
39
  3
Flat
350
2B
  3
FlatWithEdges
350
2C
  3
Gouraud
350
2D
  3
GouraudWithEdges
350
2E
  3
Linepattern
350
38
  3
Realistic
350
33
  3
Thicken
350
37
  0
DICTIONARY
  5
15D
102
{ACAD_REACTORS
330
C
102
}
330
C
100
AcDbDictionary
281
     1
  3
CANNOSCALE
350
160
  0
LAYOUT
  5
1E
102
{ACAD_REACTORS
330
1A
102
}
330
1A
100
AcDbPlotSettings
  1

  2
none_device
  4

  6

 40
0.0
 41
0.0
 42
0.0
 43
0.0
 44
0.0
 45
0.0
 46
0.0
 47
0.0
 48
0.0
 49
0.0
140
0.0
141
0.0
142
1.0
143
1.0
 70
   688
 72
     0
 73
     0
 74
     5
  7

 75
    16
147
1.0
148
0.0
149
0.0
100
AcDbLayout
  1
Layout1
 70
     1
 71
     1
 10
0.0
 20
0.0
 11
12.0
 21
9.0
 12
0.0
 22
0.0
 32
0.0
 14
1.00000000000000E+20
 24
1.00000000000000E+20
 34
1.00000000000000E+20
 15
-1.00000000000000E+20
 25
-1.00000000000000E+20
 35
-1.00000000000000E+20
146
0.0
 13
0.0
 23
0.0
 33
0.0
 16
1.0
 26
0.0
 36
0.0
 17
0.0
 27
1.0
 37
0.0
 76
     0
330
1B
  0
LAYOUT
  5
26
102
{ACAD_REACTORS
330
1A
102
}
330
1A
100
AcDbPlotSettings
  1

  2
none_device
  4

  6

 40
0.0
 41
0.0
 42
0.0
 43
0.0
 44
0.0
 45
0.0
 46
0.0
 47
0.0
 48
0.0
 49
0.0
140
0.0
141
0.0
142
1.0
143
1.0
 70
   688
 72
     0
 73
     0
 74
     5
  7

 75
    16
147
1.0
148
0.0
149
0.0
100
AcDbLayout
  1
Layout2
 70
     1
 71
     2
 10
0.0
 20
0.0
 11
0.0
 21
0.0
 12
0.0
 22
0.0
 32
0.0
 14
0.0
 24
0.0
 34
0.0
 15
0.0
 25
0.0
 35
0.0
146
0.0
 13
0.0
 23
0.0
 33
0.0
 16
1.0
 26
0.0
 36
0.0
 17
0.0
 27
1.0
 37
0.0
 76
     0
330
23
  0
LAYOUT
  5
22
102
{ACAD_REACTORS
330
1A
102
}
330
1A
100
AcDbPlotSettings
  1

  2
none_device
  4

  6

 40
0.0
 41
0.0
 42
0.0
 43
0.0
 44
0.0
 45
0.0
 46
0.0
 47
0.0
 48
0.0
 49
0.0
140
0.0
141
0.0
142
1.0
143
1.0
 70
  1712
 72
     0
 73
     0
 74
     0
  7

 75
     0
147
1.0
148
0.0
149
0.0
100
AcDbLayout
  1
Model
 70
     1
 71
     0
 10
0.0
 20
0.0
 11
12.0
 21
9.0
 12
0.0
 22
0.0
 32
0.0
 14
73.6460700163572
 24
238.2352094694048
 34
0.0
 15
213.498788550056
 25
347.004596386711
 35
0.0
146
0.0
 13
0.0
 23
0.0
 33
0.0
 16
1.0
 26
0.0
 36
0.0
 17
0.0
 27
1.0
 37
0.0
 76
     0
330
1F
331
29
  0
MLINESTYLE
  5
18
102
{ACAD_REACTORS
330
17
102
}
330
17
100
AcDbMlineStyle
  2
Standard
 70
     0
  3

 62
   256
 51
90.0
 52
90.0
 71
     2
 49
0.5
 62
   256
  6
BYLAYER
 49
-0.5
 62
   256
  6
BYLAYER
  0
ACDBPLACEHOLDER
  5
F
102
{ACAD_REACTORS
330
E
102
}
330
E
  0
SCALE
  5
4D
102
{ACAD_REACTORS
330
4C
102
}
330
4C
100
AcDbScale
 70
     0
300
1:1
140
1.0
141
1.0
290
     1
  0
SCALE
  5
4E
102
{ACAD_REACTORS
330
4C
102
}
330
4C
100
AcDbScale
 70
     0
300
1:2
140
1.0
141
2.0
290
     0
  0
SCALE
  5
4F
102
{ACAD_REACTORS
330
4C
102
}
330
4C
100
AcDbScale
 70
     0
300
1:4
140
1.0
141
4.0
290
     0
  0
SCALE
  5
50
102
{ACAD_REACTORS
330
4C
102
}
330
4C
100
AcDbScale
 70
     0
300
1:5
140
1.0
141
5.0
290
     0
  0
SCALE
  5
51
102
{ACAD_REACTORS
330
4C
102
}
330
4C
100
AcDbScale
 70
     0
300
1:8
140
1.0
141
8.0
290
     0
  0
SCALE
  5
52
102
{ACAD_REACTORS
330
4C
102
}
330
4C
100
AcDbScale
 70
     0
300
1:10
140
1.0
141
10.0
290
     0
  0
SCALE
  5
53
102
{ACAD_REACTORS
330
4C
102
}
330
4C
100
AcDbScale
 70
     0
300
1:16
140
1.0
141
16.0
290
     0
  0
SCALE
  5
54
102
{ACAD_REACTORS
330
4C
102
}
330
4C
100
AcDbScale
 70
     0
300
1:20
140
1.0
141
20.0
290
     0
  0
SCALE
  5
55
102
{ACAD_REACTORS
330
4C
102
}
330
4C
100
AcDbScale
 70
     0
300
1:30
140
1.0
141
30.0
290
     0
  0
SCALE
  5
56
102
{ACAD_REACTORS
330
4C
102
}
330
4C
100
AcDbScale
 70
     0
300
1:40
140
1.0
141
40.0
290
     0
  0
SCALE
  5
57
102
{ACAD_REACTORS
330
4C
102
}
330
4C
100
AcDbScale
 70
     0
300
1:50
140
1.0
141
50.0
290
     0
  0
SCALE
  5
58
102
{ACAD_REACTORS
330
4C
102
}
330
4C
100
AcDbScale
 70
     0
300
1:100
140
1.0
141
100.0
290
     0
  0
SCALE
  5
59
102
{ACAD_REACTORS
330
4C
102
}
330
4C
100
AcDbScale
 70
     0
300
2:1
140
2.0
141
1.0
290
     0
  0
SCALE
  5
5A
102
{ACAD_REACTORS
330
4C
102
}
330
4C
100
AcDbScale
 70
     0
300
4:1
140
4.0
141
1.0
290
     0
  0
SCALE
  5
5B
102
{ACAD_REACTORS
330
4C
102
}
330
4C
100
AcDbScale
 70
     0
300
8:1
140
8.0
141
1.0
290
     0
  0
SCALE
  5
5C
102
{ACAD_REACTORS
330
4C
102
}
330
4C
100
AcDbScale
 70
     0
300
10:1
140
10.0
141
1.0
290
     0
  0
SCALE
  5
5D
102
{ACAD_REACTORS
330
4C
102
}
330
4C
100
AcDbScale
 70
     0
300
100:1
140
100.0
141
1.0
290
     0
  0
SCALE
  5
5E
102
{ACAD_REACTORS
330
4C
102
}
330
4C
100
AcDbScale
 70
     0
300
1/128" = 1'-0"
140
0.0078125
141
12.0
290
     0
  0
SCALE
  5
5F
102
{ACAD_REACTORS
330
4C
102
}
330
4C
100
AcDbScale
 70
     0
300
1/64" = 1'-0"
140
0.015625
141
12.0
290
     0
  0
SCALE
  5
60
102
{ACAD_REACTORS
330
4C
102
}
330
4C
100
AcDbScale
 70
     0
300
1/32" = 1'-0"
140
0.03125
141
12.0
290
     0
  0
SCALE
  5
61
102
{ACAD_REACTORS
330
4C
102
}
330
4C
100
AcDbScale
 70
     0
300
1/16" = 1'-0"
140
0.0625
141
12.0
290
     0
  0
SCALE
  5
62
102
{ACAD_REACTORS
330
4C
102
}
330
4C
100
AcDbScale
 70
     0
300
3/32" = 1'-0"
140
0.09375
141
12.0
290
     0
  0
SCALE
  5
63
102
{ACAD_REACTORS
330
4C
102
}
330
4C
100
AcDbScale
 70
     0
300
1/8" = 1'-0"
140
0.125
141
12.0
290
     0
  0
SCALE
  5
64
102
{ACAD_REACTORS
330
4C
102
}
330
4C
100
AcDbScale
 70
     0
300
3/16" = 1'-0"
140
0.1875
141
12.0
290
     0
  0
SCALE
  5
65
102
{ACAD_REACTORS
330
4C
102
}
330
4C
100
AcDbScale
 70
     0
300
1/4" = 1'-0"
140
0.25
141
12.0
290
     0
  0
SCALE
  5
66
102
{ACAD_REACTORS
330
4C
102
}
330
4C
100
AcDbScale
 70
     0
300
3/8" = 1'-0"
140
0.375
141
12.0
290
     0
  0
SCALE
  5
67
102
{ACAD_REACTORS
330
4C
102
}
330
4C
100
AcDbScale
 70
     0
300
1/2" = 1'-0"
140
0.5
141
12.0
290
     0
  0
SCALE
  5
68
102
{ACAD_REACTORS
330
4C
102
}
330
4C
100
AcDbScale
 70
     0
300
3/4" = 1'-0"
140
0.75
141
12.0
290
     0
  0
SCALE
  5
69
102
{ACAD_REACTORS
330
4C
102
}
330
4C
100
AcDbScale
 70
     0
300
1" = 1'-0"
140
1.0
141
12.0
290
     0
  0
SCALE
  5
6A
102
{ACAD_REACTORS
330
4C
102
}
330
4C
100
AcDbScale
 70
     0
300
1-1/2" = 1'-0"
140
1.5
141
12.0
290
     0
  0
SCALE
  5
6B
102
{ACAD_REACTORS
330
4C
102
}
330
4C
100
AcDbScale
 70
     0
300
3" = 1'-0"
140
3.0
141
12.0
290
     0
  0
SCALE
  5
6C
102
{ACAD_REACTORS
330
4C
102
}
330
4C
100
AcDbScale
 70
     0
300
6" = 1'-0"
140
6.0
141
12.0
290
     0
  0
SCALE
  5
6D
102
{ACAD_REACTORS
330
4C
102
}
330
4C
100
AcDbScale
 70
     0
300
1'-0" = 1'-0"
140
12.0
141
12.0
290
     0
  0
VISUALSTYLE
  5
2F
102
{ACAD_REACTORS
330
2A
102
}
330
2A
100
AcDbVisualStyle
  2
2dWireframe
 70
     4
 71
     0
 72
     2
 73
     0
 90
        0
 40
-0.6
 41
-30.0
 62
     5
 63
     7
 74
     1
 91
        4
 64
     7
 65
   257
 75
     1
175
     1
 42
1.0
 92
        0
 66
   257
 43
1.0
 76
     1
 77
     6
 78
     2
 67
     7
 79
     5
170
     0
171
     0
290
     0
174
     0
 93
        1
 44
0.0
173
     0
291
     0
 45
0.0
1001
ACAD
1000
AcDbSavedByObjectVersion
1070
     0
  0
VISUALSTYLE
  5
31
102
{ACAD_REACTORS
330
2A
102
}
330
2A
100
AcDbVisualStyle
  2
3D Hidden
 70
     6
 71
     1
 72
     2
 73
     2
 90
        0
 40
-0.6
 41
-30.0
 62
     5
 63
     7
 74
     2
 91
        2
 64
     7
 65
   257
 75
     2
175
     1
 42
40.0
 92
        0
 66
   257
 43
1.0
 76
     1
 77
     6
 78
     2
 67
     7
 79
     3
170
     0
171
     0
290
     0
174
     0
 93
        1
 44
0.0
173
     0
291
     0
 45
0.0
1001
ACAD
1000
AcDbSavedByObjectVersion
1070
     0
  0
VISUALSTYLE
  5
30
102
{ACAD_REACTORS
330
2A
102
}
330
2A
100
AcDbVisualStyle
  2
3dWireframe
 70
     5
 71
     0
 72
     2
 73
     0
 90
        0
 40
-0.6
 41
-30.0
 62
     5
 63
     7
 74
     1
 91
        4
 64
     7
 65
   257
 75
     1
175
     1
 42
1.0
 92
        0
 66
   257
 43
1.0
 76
     1
 77
     6
 78
     2
 67
     7
 79
     5
170
     0
171
     0
290
     0
174
     0
 93
        1
 44
0.0
173
     0
291
     0
 45
0.0
1001
ACAD
1000
AcDbSavedByObjectVersion
1070
     0
  0
VISUALSTYLE
  5
32
102
{ACAD_REACTORS
330
2A
102
}
330
2A
100
AcDbVisualStyle
  2
Basic
 70
     7
 71
     1
 72
     0
 73
     1
 90
        0
 40
-0.6
 41
-30.0
 62
     5
 63
     7
 74
     0
 91
        4
 64
     7
 65
   257
 75
     1
175
     1
 42
1.0
 92
        8
 66
     7
 43
1.0
 76
     1
 77
     6
 78
     2
 67
     7
 79
     5
170
     0
171
     0
290
     0
174
     0
 93
        1
 44
0.0
173
     0
291
     1
 45
0.0
1001
ACAD
1000
AcDbSavedByObjectVersion
1070
     0
  0
VISUALSTYLE
  5
36
102
{ACAD_REACTORS
330
2A
102
}
330
2A
100
AcDbVisualStyle
  2
Brighten
 70
    12
 71
     2
 72
     2
 73
     0
 90
        0
 40
-0.6
 41
-30.0
 62
     5
 63
     7
 74
     1
 91
        4
 64
     7
 65
   257
 75
     1
175
     1
 42
1.0
 92
        8
 66
     7
 43
1.0
 76
     1
 77
     6
 78
     2
 67
     7
 79
     5
170
     0
171
     0
290
     0
174
     0
 93
        1
 44
50.0
173
     0
291
     1
 45
0.0
1001
ACAD
1000
AcDbSavedByObjectVersion
1070
     0
  0
VISUALSTYLE
  5
3A
102
{ACAD_REACTORS
330
2A
102
}
330
2A
100
AcDbVisualStyle
  2
ColorChange
 70
    16
 71
     2
 72
     2
 73
     3
 90
        0
 40
-0.6
 41
-30.0
 62
     5
 63
     8
 74
     1
 91
        4
 64
     7
 65
   257
 75
     1
175
     1
 42
1.0
 92
        8
 66
     8
 43
1.0
 76
     1
 77
     6
 78
     2
 67
     7
 79
     5
170
     0
171
     0
290
     0
174
     0
 93
        1
 44
0.0
173
     0
291
     1
 45
0.0
1001
ACAD
1000
AcDbSavedByObjectVersion
1070
     0
  0
VISUALSTYLE
  5
34
102
{ACAD_REACTORS
330
2A
102
}
330
2A
100
AcDbVisualStyle
  2
Conceptual
 70
     9
 71
     3
 72
     2
 73
     0
 90
        0
 40
-0.6
 41
-30.0
 62
     5
 63
     7
 74
     2
 91
        2
 64
     7
 65
   257
 75
     1
175
     1
 42
40.0
 92
        8
 66
     7
 43
1.0
 76
     1
 77
     6
 78
     2
 67
     7
 79
     3
170
     0
171
     0
290
     0
174
     0
 93
        1
 44
0.0
173
     0
291
     0
 45
0.0
1001
ACAD
1000
AcDbSavedByObjectVersion
1070
     0
  0
VISUALSTYLE
  5
35
102
{ACAD_REACTORS
330
2A
102
}
330
2A
100
AcDbVisualStyle
  2
Dim
 70
    11
 71
     2
 72
     2
 73
     0
 90
        0
 40
-0.6
 41
-30.0
 62
     5
 63
     7
 74
     1
 91
        4
 64
     7
 65
   257
 75
     1
175
     1
 42
1.0
 92
        8
 66
     7
 43
1.0
 76
     1
 77
     6
 78
     2
 67
     7
 79
     5
170
     0
171
     0
290
     0
174
     0
 93
        1
 44
-50.0
173
     0
291
     1
 45
0.0
1001
ACAD
1000
AcDbSavedByObjectVersion
1070
     0
  0
VISUALSTYLE
  5
39
102
{ACAD_REACTORS
330
2A
102
}
330
2A
100
AcDbVisualStyle
  2
Facepattern
 70
    15
 71
     2
 72
     2
 73
     0
 90
        0
 40
-0.6
 41
-30.0
 62
     5
 63
     7
 74
     1
 91
        4
 64
     7
 65
   257
 75
     1
175
     1
 42
1.0
 92
        8
 66
     7
 43
1.0
 76
     1
 77
     6
 78
     2
 67
     7
 79
     5
170
     0
171
     0
290
     0
174
     0
 93
        1
 44
0.0
173
     0
291
     1
 45
0.0
1001
ACAD
1000
AcDbSavedByObjectVersion
1070
     0
  0
VISUALSTYLE
  5
2B
102
{ACAD_REACTORS
330
2A
102
}
330
2A
100
AcDbVisualStyle
  2
Flat
 70
     0
 71
     2
 72
     1
 73
     1
 90
        2
 40
-0.6
 41
30.0
 62
     5
 63
     7
 74
     0
 91
        4
 64
     7
 65
   257
 75
     1
175
     1
 42
1.0
 92
        8
 66
     7
 43
1.0
 76
     1
 77
     6
 78
     2
 67
     7
 79
     5
170
     0
171
     0
290
     0
174
     0
 93
       13
 44
0.0
173
     0
291
     1
 45
0.0
1001
ACAD
1000
AcDbSavedByObjectVersion
1070
     0
  0
VISUALSTYLE
  5
2C
102
{ACAD_REACTORS
330
2A
102
}
330
2A
100
AcDbVisualStyle
  2
FlatWithEdges
 70
     1
 71
     2
 72
     1
 73
     1
 90
        2
 40
-0.6
 41
30.0
 62
     5
 63
     7
 74
     1
 91
        4
 64
     7
 65
   257
 75
     1
175
     1
 42
1.0
 92
        0
 66
   257
 43
1.0
 76
     1
 77
     6
 78
     2
 67
     7
 79
     5
170
     0
171
     0
290
     0
174
     0
 93
       13
 44
0.0
173
     0
291
     1
 45
0.0
1001
ACAD
1000
AcDbSavedByObjectVersion
1070
     0
  0
VISUALSTYLE
  5
2D
102
{ACAD_REACTORS
330
2A
102
}
330
2A
100
AcDbVisualStyle
  2
Gouraud
 70
     2
 71
     2
 72
     2
 73
     1
 90
        2
 40
-0.6
 41
30.0
 62
     5
 63
     7
 74
     0
 91
        4
 64
     7
 65
   257
 75
     1
175
     1
 42
1.0
 92
        0
 66
     7
 43
1.0
 76
     1
 77
     6
 78
     2
 67
     7
 79
     5
170
     0
171
     0
290
     0
174
     0
 93
       13
 44
0.0
173
     0
291
     1
 45
0.0
1001
ACAD
1000
AcDbSavedByObjectVersion
1070
     0
  0
VISUALSTYLE
  5
2E
102
{ACAD_REACTORS
330
2A
102
}
330
2A
100
AcDbVisualStyle
  2
GouraudWithEdges
 70
     3
 71
     2
 72
     2
 73
     1
 90
        2
 40
-0.6
 41
30.0
 62
     5
 63
     7
 74
     1
 91
        4
 64
     7
 65
   257
 75
     1
175
     1
 42
1.0
 92
        0
 66
   257
 43
1.0
 76
     1
 77
     6
 78
     2
 67
     7
 79
     5
170
     0
171
     0
290
     0
174
     0
 93
       13
 44
0.0
173
     0
291
     1
 45
0.0
1001
ACAD
1000
AcDbSavedByObjectVersion
1070
     0
  0
VISUALSTYLE
  5
38
102
{ACAD_REACTORS
330
2A
102
}
330
2A
100
AcDbVisualStyle
  2
Linepattern
 70
    14
 71
     2
 72
     2
 73
     0
 90
        0
 40
-0.6
 41
-30.0
 62
     5
 63
     7
 74
     1
 91
        4
 64
     7
 65
   257
 75
     7
175
     7
 42
1.0
 92
        8
 66
     7
 43
1.0
 76
     1
 77
     6
 78
     2
 67
     7
 79
     5
170
     0
171
     0
290
     0
174
     0
 93
        1
 44
0.0
173
     0
291
     1
 45
0.0
1001
ACAD
1000
AcDbSavedByObjectVersion
1070
     0
  0
VISUALSTYLE
  5
33
102
{ACAD_REACTORS
330
2A
102
}
330
2A
100
AcDbVisualStyle
  2
Realistic
 70
     8
 71
     2
 72
     2
 73
     0
 90
        0
 40
-0.6
 41
-30.0
 62
     5
 63
     7
 74
     1
 91
        0
 64
     7
 65
   257
 75
     1
175
     1
 42
1.0
 92
        8
 66
     8
 43
1.0
 76
     1
 77
     6
 78
     2
 67
     7
 79
     5
170
     0
171
     0
290
     0
174
     0
 93
       13
 44
0.0
173
     0
291
     0
 45
0.0
1001
ACAD
1000
AcDbSavedByObjectVersion
1070
     0
  0
VISUALSTYLE
  5
37
102
{ACAD_REACTORS
330
2A
102
}
330
2A
100
AcDbVisualStyle
  2
Thicken
 70
    13
 71
     2
 72
     2
 73
     0
 90
        0
 40
-0.6
 41
-30.0
 62
     5
 63
     7
 74
     1
 91
        4
 64
     7
 65
   257
 75
     1
175
     1
 42
1.0
 92
       12
 66
     7
 43
1.0
 76
     1
 77
     6
 78
     2
 67
     7
 79
     5
170
     0
171
     0
290
     0
174
     0
 93
        1
 44
0.0
173
     0
291
     1
 45
0.0
1001
ACAD
1000
AcDbSavedByObjectVersion
1070
     0
  0
DICTIONARYVAR
  5
160
102
{ACAD_REACTORS
330
15D
102
}
330
15D
100
DictionaryVariables
280
     0
  1
1:1
  0
ENDSEC
  0
EOF
