  0
SECTION
  2
HEADER
  9
$ACADVER
  1
AC1015
  9
$ACADMAINTVER
 70
     6
  9
$DWGCODEPAGE
  3
ANSI_1252
  9
$INSBASE
 10
0.0
 20
0.0
 30
0.0
  9
$EXTMIN
 10
87.1929336188
 20
248.0656220864557
 30
0.0
  9
$EXTMAX
 10
207.334255015724
 20
344.510982014288
 30
0.0
  9
$LIMMIN
 10
0.0
 20
0.0
  9
$LIMMAX
 10
12.0
 20
9.0
  9
$ORTHOMODE
 70
     0
  9
$REGENMODE
 70
     1
  9
$FILLMODE
 70
     1
  9
$QTEXTMODE
 70
     0
  9
$MIRRTEXT
 70
     1
  9
$LTSCALE
 40
1.0
  9
$ATTMODE
 70
     1
  9
$TEXTSIZE
 40
0.2
  9
$TRACEWID
 40
0.05
  9
$TEXTSTYLE
  7
Standard
  9
$CLAYER
  8
0
  9
$CELTYPE
  6
ByLayer
  9
$CECOLOR
 62
   256
  9
$CELTSCALE
 40
1.0
  9
$DISPSILH
 70
     0
  9
$DIMSCALE
 40
1.0
  9
$DIMASZ
 40
0.18
  9
$DIMEXO
 40
0.0625
  9
$DIMDLI
 40
0.38
  9
$DIMRND
 40
0.0
  9
$DIMDLE
 40
0.0
  9
$DIMEXE
 40
0.18
  9
$DIMTP
 40
0.0
  9
$DIMTM
 40
0.0
  9
$DIMTXT
 40
0.18
  9
$DIMCEN
 40
0.09
  9
$DIMTSZ
 40
0.0
  9
$DIMTOL
 70
     0
  9
$DIMLIM
 70
     0
  9
$DIMTIH
 70
     1
  9
$DIMTOH
 70
     1
  9
$DIMSE1
 70
     0
  9
$DIMSE2
 70
     0
  9
$DIMTAD
 70
     0
  9
$DIMZIN
 70
     0
  9
$DIMBLK
  1

  9
$DIMASO
 70
     1
  9
$DIMSHO
 70
     1
  9
$DIMPOST
  1

  9
$DIMAPOST
  1

  9
$DIMALT
 70
     0
  9
$DIMALTD
 70
     2
  9
$DIMALTF
 40
25.4
  9
$DIMLFAC
 40
1.0
  9
$DIMTOFL
 70
     0
  9
$DIMTVP
 40
0.0
  9
$DIMTIX
 70
     0
  9
$DIMSOXD
 70
     0
  9
$DIMSAH
 70
     0
  9
$DIMBLK1
  1

  9
$DIMBLK2
  1

  9
$DIMSTYLE
  2
Standard
  9
$DIMCLRD
 70
     0
  9
$DIMCLRE
 70
     0
  9
$DIMCLRT
 70
     0
  9
$DIMTFAC
 40
1.0
  9
$DIMGAP
 40
0.09
  9
$DIMJUST
 70
     0
  9
$DIMSD1
 70
     0
  9
$DIMSD2
 70
     0
  9
$DIMTOLJ
 70
     1
  9
$DIMTZIN
 70
     0
  9
$DIMALTZ
 70
     0
  9
$DIMALTTZ
 70
     0
  9
$DIMUPT
 70
     0
  9
$DIMDEC
 70
     4
  9
$DIMTDEC
 70
     4
  9
$DIMALTU
 70
     2
  9
$DIMALTTD
 70
     2
  9
$DIMTXSTY
  7
Standard
  9
$DIMAUNIT
 70
     0
  9
$DIMADEC
 70
     0
  9
$DIMALTRND
 40
0.0
  9
$DIMAZIN
 70
     0
  9
$DIMDSEP
 70
    46
  9
$DIMATFIT
 70
     3
  9
$DIMFRAC
 70
     0
  9
$DIMLDRBLK
  1

  9
$DIMLUNIT
 70
     2
  9
$DIMLWD
 70
    -2
  9
$DIMLWE
 70
    -2
  9
$DIMTMOVE
 70
     0
  9
$LUNITS
 70
     2
  9
$LUPREC
 70
     4
  9
$SKETCHINC
 40
0.1
  9
$FILLETRAD
 40
0.5
  9
$AUNITS
 70
     0
  9
$AUPREC
 70
     0
  9
$MENU
  1
.
  9
$ELEVATION
 40
0.0
  9
$PELEVATION
 40
0.0
  9
$THICKNESS
 40
0.0
  9
$LIMCHECK
 70
     0
  9
$CHAMFERA
 40
0.5
  9
$CHAMFERB
 40
0.5
  9
$CHAMFERC
 40
1.0
  9
$CHAMFERD
 40
0.0
  9
$SKPOLY
 70
     0
  9
$TDCREATE
 40
2456680.578319884
  9
$TDUCREATE
 40
2456680.536653217
  9
$TDUPDATE
 40
2456680.578319896
  9
$TDUUPDATE
 40
2456680.536653229
  9
$TDINDWG
 40
0.0000000116
  9
$TDUSRTIMER
 40
0.0000000116
  9
$USRTIMER
 70
     1
  9
$ANGBASE
 50
0.0
  9
$ANGDIR
 70
     0
  9
$PDMODE
 70
     0
  9
$PDSIZE
 40
0.0
  9
$PLINEWID
 40
0.0
  9
$SPLFRAME
 70
     0
  9
$SPLINETYPE
 70
     6
  9
$SPLINESEGS
 70
     8
  9
$HANDSEED
  5
163
  9
$SURFTAB1
 70
     6
  9
$SURFTAB2
 70
     6
  9
$SURFTYPE
 70
     6
  9
$SURFU
 70
     6
  9
$SURFV
 70
     6
  9
$UCSBASE
  2

  9
$UCSNAME
  2

  9
$UCSORG
 10
0.0
 20
0.0
 30
0.0
  9
$UCSXDIR
 10
1.0
 20
0.0
 30
0.0
  9
$UCSYDIR
 10
0.0
 20
1.0
 30
0.0
  9
$UCSORTHOREF
  2

  9
$UCSORTHOVIEW
 70
     0
  9
$UCSORGTOP
 10
0.0
 20
0.0
 30
0.0
  9
$UCSORGBOTTOM
 10
0.0
 20
0.0
 30
0.0
  9
$UCSORGLEFT
 10
0.0
 20
0.0
 30
0.0
  9
$UCSORGRIGHT
 10
0.0
 20
0.0
 30
0.0
  9
$UCSORGFRONT
 10
0.0
 20
0.0
 30
0.0
  9
$UCSORGBACK
 10
0.0
 20
0.0
 30
0.0
  9
$PUCSBASE
  2

  9
$PUCSNAME
  2

  9
$PUCSORG
 10
0.0
 20
0.0
 30
0.0
  9
$PUCSXDIR
 10
1.0
 20
0.0
 30
0.0
  9
$PUCSYDIR
 10
0.0
 20
1.0
 30
0.0
  9
$PUCSORTHOREF
  2

  9
$PUCSORTHOVIEW
 70
     0
  9
$PUCSORGTOP
 10
0.0
 20
0.0
 30
0.0
  9
$PUCSORGBOTTOM
 10
0.0
 20
0.0
 30
0.0
  9
$PUCSORGLEFT
 10
0.0
 20
0.0
 30
0.0
  9
$PUCSORGRIGHT
 10
0.0
 20
0.0
 30
0.0
  9
$PUCSORGFRONT
 10
0.0
 20
0.0
 30
0.0
  9
$PUCSORGBACK
 10
0.0
 20
0.0
 30
0.0
  9
$USERI1
 70
     0
  9
$USERI2
 70
     0
  9
$USERI3
 70
     0
  9
$USERI4
 70
     0
  9
$USERI5
 70
     0
  9
$USERR1
 40
16.5
  9
$USERR2
 40
0.0
  9
$USERR3
 40
0.0
  9
$USERR4
 40
0.0
  9
$USERR5
 40
0.0
  9
$WORLDVIEW
 70
     1
  9
$SHADEDGE
 70
     3
  9
$SHADEDIF
 70
    70
  9
$TILEMODE
 70
     1
  9
$MAXACTVP
 70
    64
  9
$PINSBASE
 10
0.0
 20
0.0
 30
0.0
  9
$PLIMCHECK
 70
     0
  9
$PEXTMIN
 10
1.00000000000000E+20
 20
1.00000000000000E+20
 30
1.00000000000000E+20
  9
$PEXTMAX
 10
-1.00000000000000E+20
 20
-1.00000000000000E+20
 30
-1.00000000000000E+20
  9
$PLIMMIN
 10
0.0
 20
0.0
  9
$PLIMMAX
 10
12.0
 20
9.0
  9
$UNITMODE
 70
     0
  9
$VISRETAIN
 70
     1
  9
$PLINEGEN
 70
     0
  9
$PSLTSCALE
 70
     1
  9
$TREEDEPTH
 70
  3020
  9
$CMLSTYLE
  2
Standard
  9
$CMLJUST
 70
     0
  9
$CMLSCALE
 40
1.0
  9
$PROXYGRAPHICS
 70
     1
  9
$MEASUREMENT
 70
     1
  9
$CELWEIGHT
370
    -1
  9
$ENDCAPS
280
     0
  9
$JOINSTYLE
280
     0
  9
$LWDISPLAY
290
     0
  9
$INSUNITS
 70
     1
  9
$HYPERLINKBASE
  1

  9
$STYLESHEET
  1

  9
$XEDIT
290
     1
  9
$CEPSNTYPE
380
     0
  9
$PSTYLEMODE
290
     1
  9
$FINGERPRINTGUID
  2
{A1AC308F-5936-4132-88C1-CCD78176B7D7}
  9
$VERSIONGUID
  2
{FAEB1C32-E019-11D5-929B-00C0DF256EC4}
  9
$EXTNAMES
290
     1
  9
$PSVPSCALE
 40
0.0
  9
$OLESTARTUP
290
     0
  0
ENDSEC
  0
SECTION
  2
CLASSES
  0
CLASS
  1
ACDBDICTIONARYWDFLT
  2
AcDbDictionaryWithDefault
  3
ObjectDBX Classes
 90
        0
280
     0
281
     0
  0
CLASS
  1
VISUALSTYLE
  2
AcDbVisualStyle
  3
ObjectDBX Classes
 90
     4095
280
     0
281
     0
  0
CLASS
  1
SCALE
  2
AcDbScale
  3
ObjectDBX Classes
 90
     1153
280
     0
281
     0
  0
CLASS
  1

  2
exOdDbPolyline
  3

 90
        0
280
     0
281
     1
  0
CLASS
  1

  2
exOdDbCircle
  3

 90
        0
280
     0
281
     1
  0
CLASS
  1

  2
exOdDbSpline
  3

 90
        0
280
     0
281
     1
  0
CLASS
  1
DICTIONARYVAR
  2
AcDbDictionaryVar
  3
ObjectDBX Classes
 90
        0
280
     0
281
     0
  0
CLASS
  1
ACDBPLACEHOLDER
  2
AcDbPlaceHolder
  3
ObjectDBX Classes
 90
        0
280
     0
281
     0
  0
CLASS
  1
LAYOUT
  2
AcDbLayout
  3
ObjectDBX Classes
 90
        0
280
     0
281
     0
  0
ENDSEC
  0
SECTION
  2
TABLES
  0
TABLE
  2
VPORT
  5
8
330
0
100
AcDbSymbolTable
 70
     1
  0
VPORT
  5
29
330
8
100
AcDbSymbolTableRecord
100
AcDbViewportTableRecord
  2
*Active
 70
     0
 10
0.0
 20
0.0
 11
1.0
 21
1.0
 12
147.263594317262
 22
296.2883020503718
 13
0.0
 23
0.0
 14
0.5
 24
0.5
 15
0.5
 25
0.5
 16
0.0
 26
0.0
 36
1.0
 17
0.0
 27
0.0
 37
0.0
 40
106.0898959206155
 41
1.60267857142857
 42
50.0
 43
0.0
 44
0.0
 50
0.0
 51
0.0
 71
     0
 72
   100
 73
     1
 74
     3
 75
     0
 76
     0
 77
     0
 78
     0
281
     0
 65
     1
110
0.0
120
0.0
130
0.0
111
1.0
121
0.0
131
0.0
112
0.0
122
1.0
132
0.0
 79
     0
146
0.0
  0
ENDTAB
  0
TABLE
  2
LTYPE
  5
5
330
0
100
AcDbSymbolTable
 70
     8
  0
LTYPE
  5
14
330
5
100
AcDbSymbolTableRecord
100
AcDbLinetypeTableRecord
  2
ByBlock
 70
     0
  3

 72
    65
 73
     0
 40
0.0
  0
LTYPE
  5
15
330
5
100
AcDbSymbolTableRecord
100
AcDbLinetypeTableRecord
  2
ByLayer
 70
     0
  3

 72
    65
 73
     0
 40
0.0
  0
LTYPE
  5
16
330
5
100
AcDbSymbolTableRecord
100
AcDbLinetypeTableRecord
  2
Continuous
 70
     0
  3
Solid line
 72
    65
 73
     0
 40
0.0
  0
LTYPE
  5
3B
330
5
100
AcDbSymbolTableRecord
100
AcDbLinetypeTableRecord
  2
DASHED
 70
     0
  3
Dashed
 72
    65
 73
     2
 40
15.0
 49
7.0
 74
     0
 49
-8.0
 74
     0
  0
LTYPE
  5
3C
330
5
100
AcDbSymbolTableRecord
100
AcDbLinetypeTableRecord
  2
DOTTED
 70
     0
  3
Dotted
 72
    65
 73
     2
 40
1.0
 49
0.0
 74
     0
 49
-1.0
 74
     0
  0
LTYPE
  5
3D
330
5
100
AcDbSymbolTableRecord
100
AcDbLinetypeTableRecord
  2
DOT_CENTER
 70
     0
  3
Dot_Center
 72
    65
 73
     4
 40
14.0
 49
12.0
 74
     0
 49
-1.0
 74
     0
 49
0.0
 74
     0
 49
-1.0
 74
     0
  0
LTYPE
  5
3E
330
5
100
AcDbSymbolTableRecord
100
AcDbLinetypeTableRecord
  2
LONG_DASHED
 70
     0
  3
Long_Dashed
 72
    65
 73
     2
 40
15.0
 49
10.0
 74
     0
 49
-5.0
 74
     0
  0
LTYPE
  5
3F
330
5
100
AcDbSymbolTableRecord
100
AcDbLinetypeTableRecord
  2
DASH_CENTER
 70
     0
  3
Dash_Center
 72
    65
 73
     4
 40
14.0
 49
11.0
 74
     0
 49
-1.0
 74
     0
 49
1.0
 74
     0
 49
-1.0
 74
     0
  0
LTYPE
  5
40
330
5
100
AcDbSymbolTableRecord
100
AcDbLinetypeTableRecord
  2
PHANTOM
 70
     0
  3
Phantom
 72
    65
 73
     6
 40
13.0
 49
10.0
 74
     0
 49
-1.0
 74
     0
 49
0.0
 74
     0
 49
-1.0
 74
     0
 49
0.0
 74
     0
 49
-1.0
 74
     0
  0
LTYPE
  5
41
330
5
100
AcDbSymbolTableRecord
100
AcDbLinetypeTableRecord
  2
CENTER_DASH_DASH
 70
     0
  3
Center_Dash_Dash
 72
    65
 73
     6
 40
14.0
 49
9.0
 74
     0
 49
-1.0
 74
     0
 49
1.0
 74
     0
 49
-1.0
 74
     0
 49
1.0
 74
     0
 49
-1.0
 74
     0
  0
ENDTAB
  0
TABLE
  2
LAYER
  5
2
330
0
100
AcDbSymbolTable
 70
     7
  0
LAYER
  5
10
330
2
100
AcDbSymbolTableRecord
100
AcDbLayerTableRecord
  2
0
 70
     0
 62
     7
  6
Continuous
370
    -3
390
F
  0
LAYER
  5
42
330
2
100
AcDbSymbolTableRecord
100
AcDbLayerTableRecord
  2
1
 70
     0
 62
     7
  6
Continuous
370
    -3
390
F
  0
LAYER
  5
43
330
2
100
AcDbSymbolTableRecord
100
AcDbLayerTableRecord
  2
BEZUGSACHSEN
 70
     0
 62
     7
  6
Continuous
370
    -3
390
F
  0
LAYER
  5
44
330
2
100
AcDbSymbolTableRecord
100
AcDbLayerTableRecord
  2
DEFAULT_2
 70
     0
 62
     7
  6
Continuous
370
    -3
390
F
  0
LAYER
  5
45
330
2
100
AcDbSymbolTableRecord
100
AcDbLayerTableRecord
  2
FASEN
 70
     0
 62
     7
  6
Continuous
370
    -3
390
F
  0
LAYER
  5
46
330
2
100
AcDbSymbolTableRecord
100
AcDbLayerTableRecord
  2
RUNDUNGEN
 70
     0
 62
     7
  6
Continuous
370
    -3
390
F
  0
LAYER
  5
47
330
2
100
AcDbSymbolTableRecord
100
AcDbLayerTableRecord
  2
TEIL_STARTBEZUEGE
 70
     0
 62
     7
  6
Continuous
370
    -3
390
F
  0
ENDTAB
  0
TABLE
  2
STYLE
  5
3
330
0
100
AcDbSymbolTable
 70
     2
  0
STYLE
  5
11
330
3
100
AcDbSymbolTableRecord
100
AcDbTextStyleTableRecord
  2
Standard
 70
     0
 40
0.0
 41
1.0
 50
0.0
 71
     0
 42
0.2
  3
txt
  4

  0
STYLE
  5
6E
330
3
100
AcDbSymbolTableRecord
100
AcDbTextStyleTableRecord
  2
CONVERTER_11
 70
     0
 40
0.0
 41
0.72
 50
0.0
 71
     0
 42
0.2
  3
txt.shx
  4

  0
ENDTAB
  0
TABLE
  2
VIEW
  5
6
330
0
100
AcDbSymbolTable
 70
     0
  0
ENDTAB
  0
TABLE
  2
UCS
  5
7
330
0
100
AcDbSymbolTable
 70
     0
  0
ENDTAB
  0
TABLE
  2
APPID
  5
9
330
0
100
AcDbSymbolTable
 70
     1
  0
APPID
  5
12
330
9
100
AcDbSymbolTableRecord
100
AcDbRegAppTableRecord
  2
ACAD
 70
     0
  0
ENDTAB
  0
TABLE
  2
DIMSTYLE
  5
A
330
0
100
AcDbSymbolTable
 70
     6
100
AcDbDimStyleTable
  0
DIMSTYLE
105
27
330
A
100
AcDbSymbolTableRecord
100
AcDbDimStyleTableRecord
  2
Standard
 70
     0
340
11
  0
DIMSTYLE
105
12A
102
{ACAD_REACTORS
330
12B
102
}
330
A
100
AcDbSymbolTableRecord
100
AcDbDimStyleTableRecord
  2
ME10_DIM_10
 70
     0
  3
\U+2300<>
 41
3.5
 42
2.0
 44
2.0
 71
     1
 73
     0
 74
     0
 77
     1
 78
     8
140
3.5
146
0.7
147
2.0
172
     1
173
     1
176
     2
177
     2
178
     3
271
     2
272
     0
340
6E
  0
DIMSTYLE
105
135
102
{ACAD_REACTORS
330
136
102
}
330
A
100
AcDbSymbolTableRecord
100
AcDbDimStyleTableRecord
  2
ME10_DIM_11
 70
     0
  3
\U+2300<>
 41
3.5
 42
2.0
 44
2.0
 71
     1
 73
     0
 74
     0
 77
     1
 78
     8
140
3.5
146
0.7
147
2.0
172
     1
173
     1
176
     2
177
     2
178
     3
271
     2
272
     0
340
6E
  0
DIMSTYLE
105
140
102
{ACAD_REACTORS
330
141
102
}
330
A
100
AcDbSymbolTableRecord
100
AcDbDimStyleTableRecord
  2
ME10_DIM_12
 70
     0
  3
<>
 41
3.5
 42
2.0
 44
2.0
 71
     1
 73
     0
 74
     0
 77
     1
 78
     8
140
3.5
146
0.7
147
2.0
172
     1
173
     1
176
     2
177
     2
178
     3
271
     0
272
     0
340
6E
  0
DIMSTYLE
105
14B
102
{ACAD_REACTORS
330
14C
102
}
330
A
100
AcDbSymbolTableRecord
100
AcDbDimStyleTableRecord
  2
ME10_DIM_13
 70
     0
  3
<>
 41
3.5
 42
2.0
 44
2.0
 71
     1
 73
     0
 74
     0
 77
     1
 78
     8
140
3.5
146
0.7
147
2.0
172
     1
173
     1
176
     2
177
     2
178
     3
271
     2
272
     0
340
6E
  0
DIMSTYLE
105
156
102
{ACAD_REACTORS
330
157
102
}
330
A
100
AcDbSymbolTableRecord
100
AcDbDimStyleTableRecord
  2
ME10_DIM_14
 70
     0
  3
<>
 41
3.5
 42
2.0
 44
2.0
 71
     1
 73
     0
 74
     0
 77
     1
 78
     8
140
3.5
146
0.7
147
2.0
172
     1
173
     1
176
     2
177
     2
178
     3
271
     0
272
     0
340
6E
  0
ENDTAB
  0
TABLE
  2
BLOCK_RECORD
  5
1
330
0
100
AcDbSymbolTable
 70
     8
  0
BLOCK_RECORD
  5
1F
330
1
100
AcDbSymbolTableRecord
100
AcDbBlockTableRecord
  2
*Model_Space
340
22
  0
BLOCK_RECORD
  5
1B
330
1
100
AcDbSymbolTableRecord
100
AcDbBlockTableRecord
  2
*Paper_Space
340
1E
  0
BLOCK_RECORD
  5
23
330
1
100
AcDbSymbolTableRecord
100
AcDbBlockTableRecord
  2
*Paper_Space0
340
26
  0
BLOCK_RECORD
  5
48
330
1
100
AcDbSymbolTableRecord
100
AcDbBlockTableRecord
  2
Urheberrecht_DE-EN_horizontal
340
0
102
{BLKREFS
331
6D
102
}
  0
BLOCK_RECORD
  5
121
330
1
100
AcDbSymbolTableRecord
100
AcDbBlockTableRecord
  2
*D2
340
0
  0
BLOCK_RECORD
  5
12C
330
1
100
AcDbSymbolTableRecord
100
AcDbBlockTableRecord
  2
*D3
340
0
  0
BLOCK_RECORD
  5
137
330
1
100
AcDbSymbolTableRecord
100
AcDbBlockTableRecord
  2
*D4
340
0
  0
BLOCK_RECORD
  5
142
330
1
100
AcDbSymbolTableRecord
100
AcDbBlockTableRecord
  2
*D5
340
0
  0
BLOCK_RECORD
  5
14D
330
1
100
AcDbSymbolTableRecord
100
AcDbBlockTableRecord
  2
*D6
340
0
  0
BLOCK_RECORD
  5
158
330
1
100
AcDbSymbolTableRecord
100
AcDbBlockTableRecord
  2
*D7
340
0
102
{BLKREFS
331
15E
102
}
  0
ENDTAB
  0
ENDSEC
  0
SECTION
  2
BLOCKS
  0
BLOCK
  5
20
330
1F
100
AcDbEntity
  8
0
100
AcDbBlockBegin
  2
*Model_Space
 70
     0
 10
0.0
 20
0.0
 30
0.0
  3
*Model_Space
  1

  0
ENDBLK
  5
21
330
1F
100
AcDbEntity
  8
0
100
AcDbBlockEnd
  0
BLOCK
  5
1C
330
1B
100
AcDbEntity
 67
     1
  8
0
100
AcDbBlockBegin
  2
*Paper_Space
 70
     0
 10
0.0
 20
0.0
 30
0.0
  3
*Paper_Space
  1

  0
ENDBLK
  5
1D
330
1B
100
AcDbEntity
 67
     1
  8
0
100
AcDbBlockEnd
  0
BLOCK
  5
24
330
23
100
AcDbEntity
  8
0
100
AcDbBlockBegin
  2
*Paper_Space0
 70
     0
 10
0.0
 20
0.0
 30
0.0
  3
*Paper_Space0
  1

  0
ENDBLK
  5
25
330
23
100
AcDbEntity
  8
0
100
AcDbBlockEnd
  0
BLOCK
  5
49
330
48
100
AcDbEntity
  8
0
100
AcDbBlockBegin
  2
Urheberrecht_DE-EN_horizontal
 70
     0
 10
144.817546572817
 20
255.46363009636
 30
0.0
  3
Urheberrecht_DE-EN_horizontal
  1

  0
MTEXT
  5
6F
330
48
100
AcDbEntity
  8
1
 62
     1
100
AcDbMText
 10
91.36376418345777
 20
248.6656220864557
 30
0.0
 40
2.0
 41
0.0
 71
     7
 72
     1
  1
F\U+00fcr diese Unterlage behalten wir das Ur-\Pheberrecht. Sie darf nur f\U+00fcr den von uns \Pbestimmten Zweck benutzt und ohne unsere \PZustimmung weder vervielf\U+00e4ltigt noch\PDritten zug\U+00e4nglich gemacht werden.
  7
CONVERTER_11
 73
     1
 44
0.90036014405762
  0
MTEXT
  5
70
330
48
100
AcDbEntity
  8
1
 62
     1
100
AcDbMText
 10
147.653151100764
 20
248.6656220864557
 30
0.0
 40
2.0
 41
0.0
 71
     7
 72
     1
  1
We own the copyright of this document. It \Pdetermined and may neither be copied or \Pmade accessible to outsiders without our\Ppermission.
  7
CONVERTER_11
 73
     1
 44
0.90036014405762
  0
ENDBLK
  5
4A
330
48
100
AcDbEntity
  8
0
100
AcDbBlockEnd
  0
BLOCK
  5
128
330
121
100
AcDbEntity
  8
0
100
AcDbBlockBegin
  2
*D2
 70
     1
 10
0.0
 20
0.0
 30
0.0
  3
*D2
  1

  0
LINE
  5
122
330
121
100
AcDbEntity
  8
1
  6
Continuous
 62
     2
100
AcDbLine
 10
197.202594813114
 20
296.8598434154
 30
0.0
 11
197.202594813114
 21
282.8598434154
 31
0.0
  0
LINE
  5
123
330
121
100
AcDbEntity
  8
1
  6
Continuous
 62
     2
100
AcDbLine
 10
187.2179336188
 20
296.8598434154
 30
0.0
 11
199.202594813114
 21
296.8598434154
 31
0.0
  0
LINE
  5
124
330
121
100
AcDbEntity
  8
1
  6
Continuous
 62
     2
100
AcDbLine
 10
187.2179336188
 20
282.8598434154
 30
0.0
 11
199.202594813114
 21
282.8598434154
 31
0.0
  0
SOLID
  5
125
330
121
100
AcDbEntity
  8
1
 62
     2
100
AcDbTrace
 10
197.6633785546699
 20
293.3598434154
 30
0.0
 11
196.7418110715581
 21
293.3598434154
 31
0.0
 12
197.202594813114
 22
296.8598434154
 32
0.0
 13
197.202594813114
 23
296.8598434154
 33
0.0
  0
SOLID
  5
126
330
121
100
AcDbEntity
  8
1
 62
     2
100
AcDbTrace
 10
196.7418110715581
 20
286.3598434154
 30
0.0
 11
197.6633785546699
 21
286.3598434154
 31
0.0
 12
197.202594813114
 22
282.8598434154
 32
0.0
 13
197.202594813114
 23
282.8598434154
 33
0.0
  0
MTEXT
  5
127
330
121
100
AcDbEntity
  8
1
 62
     3
100
AcDbMText
 10
195.202594813114
 20
280.807209848317
 30
0.0
 40
3.5
 41
0.0
 71
     7
 72
     1
  1
\C3;%%c\C3;\C3;14\C2;\H2.45;\S^ ;\C3;
  7
CONVERTER_11
 11
0.0
 21
1.0
 31
0.0
 73
     1
 44
0.60024009603842
  0
ENDBLK
  5
129
330
121
100
AcDbEntity
  8
0
100
AcDbBlockEnd
  0
BLOCK
  5
133
330
12C
100
AcDbEntity
  8
0
100
AcDbBlockBegin
  2
*D3
 70
     1
 10
0.0
 20
0.0
 30
0.0
  3
*D3
  1

  0
LINE
  5
12D
330
12C
100
AcDbEntity
  8
1
  6
Continuous
 62
     2
100
AcDbLine
 10
205.334255015724
 20
311.8598434154
 30
0.0
 11
205.334255015724
 21
267.8598434154
 31
0.0
  0
LINE
  5
12E
330
12C
100
AcDbEntity
  8
1
  6
Continuous
 62
     2
100
AcDbLine
 10
174.1291974331
 20
311.8598434154
 30
0.0
 11
207.334255015724
 21
311.8598434154
 31
0.0
  0
LINE
  5
12F
330
12C
100
AcDbEntity
  8
1
  6
Continuous
 62
     2
100
AcDbLine
 10
174.1291974331
 20
267.8598434154
 30
0.0
 11
207.334255015724
 21
267.8598434154
 31
0.0
  0
SOLID
  5
130
330
12C
100
AcDbEntity
  8
1
 62
     2
100
AcDbTrace
 10
205.7950387572799
 20
308.3598434154
 30
0.0
 11
204.8734712741681
 21
308.3598434154
 31
0.0
 12
205.334255015724
 22
311.8598434154
 32
0.0
 13
205.334255015724
 23
311.8598434154
 33
0.0
  0
SOLID
  5
131
330
12C
100
AcDbEntity
  8
1
 62
     2
100
AcDbTrace
 10
204.8734712741681
 20
271.3598434154
 30
0.0
 11
205.7950387572799
 21
271.3598434154
 31
0.0
 12
205.334255015724
 22
267.8598434154
 32
0.0
 13
205.334255015724
 23
267.8598434154
 33
0.0
  0
MTEXT
  5
132
330
12C
100
AcDbEntity
  8
1
 62
     3
100
AcDbMText
 10
203.334255015724
 20
281.516607098679
 30
0.0
 40
3.5
 41
0.0
 71
     7
 72
     1
  1
\C3;%%c\C3;\C3;44\C2;\H2.45;\S^ ;\C3;
  7
CONVERTER_11
 11
0.0
 21
1.0
 31
0.0
 73
     1
 44
0.60024009603842
  0
ENDBLK
  5
134
330
12C
100
AcDbEntity
  8
0
100
AcDbBlockEnd
  0
BLOCK
  5
13E
330
137
100
AcDbEntity
  8
0
100
AcDbBlockBegin
  2
*D4
 70
     1
 10
0.0
 20
0.0
 30
0.0
  3
*D4
  1

  0
LINE
  5
138
330
137
100
AcDbEntity
  8
1
  6
Continuous
 62
     2
100
AcDbLine
 10
185.2179336188
 20
321.919436958803
 30
0.0
 11
130.1679336188
 21
321.919436958803
 31
0.0
  0
LINE
  5
139
330
137
100
AcDbEntity
  8
1
  6
Continuous
 62
     2
100
AcDbLine
 10
185.2179336188
 20
307.2227731546
 30
0.0
 11
185.2179336188
 21
323.919436958803
 31
0.0
  0
LINE
  5
13A
330
137
100
AcDbEntity
  8
1
  6
Continuous
 62
     2
100
AcDbLine
 10
130.1679336188
 20
311.859810162
 30
0.0
 11
130.1679336188
 21
323.919436958803
 31
0.0
  0
SOLID
  5
13B
330
137
100
AcDbEntity
  8
1
 62
     2
100
AcDbTrace
 10
181.7179336188
 20
321.4586532172471
 30
0.0
 11
181.7179336188
 21
322.3802207003588
 31
0.0
 12
185.2179336188
 22
321.919436958803
 32
0.0
 13
185.2179336188
 23
321.919436958803
 33
0.0
  0
SOLID
  5
13C
330
137
100
AcDbEntity
  8
1
 62
     2
100
AcDbTrace
 10
133.6679336188
 20
322.3802207003588
 30
0.0
 11
133.6679336188
 21
321.4586532172471
 31
0.0
 12
130.1679336188
 22
321.919436958803
 32
0.0
 13
130.1679336188
 23
321.919436958803
 33
0.0
  0
MTEXT
  5
13D
330
137
100
AcDbEntity
  8
1
 62
     3
100
AcDbMText
 10
155.724277350478
 20
323.919436958803
 30
0.0
 40
3.5
 41
0.0
 71
     7
 72
     1
  1
\C3;\C3;\C3;55\C2;\H2.45;\S^ ;\C3;
  7
CONVERTER_11
 11
0.9999999999970619
 21
2.424068405545306E-6
 31
0.0
 73
     1
 44
0.60024009603842
  0
ENDBLK
  5
13F
330
137
100
AcDbEntity
  8
0
100
AcDbBlockEnd
  0
BLOCK
  5
149
330
142
100
AcDbEntity
  8
0
100
AcDbBlockBegin
  2
*D5
 70
     1
 10
0.0
 20
0.0
 30
0.0
  3
*D5
  1

  0
LINE
  5
143
330
142
100
AcDbEntity
  8
1
  6
Continuous
 62
     2
100
AcDbLine
 10
185.2179336188
 20
331.105201261751
 30
0.0
 11
110.2179336188
 21
331.105201261751
 31
0.0
  0
LINE
  5
144
330
142
100
AcDbEntity
  8
1
  6
Continuous
 62
     2
100
AcDbLine
 10
185.2179336188
 20
307.2227731546
 30
0.0
 11
185.2179336188
 21
333.105201261751
 31
0.0
  0
LINE
  5
145
330
142
100
AcDbEntity
  8
1
  6
Continuous
 62
     2
100
AcDbLine
 10
110.2179336188
 20
311.8598434154
 30
0.0
 11
110.2179336188
 21
333.105201261751
 31
0.0
  0
SOLID
  5
146
330
142
100
AcDbEntity
  8
1
 62
     2
100
AcDbTrace
 10
181.7179336188
 20
330.6444175201951
 30
0.0
 11
181.7179336188
 21
331.5659850033069
 31
0.0
 12
185.2179336188
 22
331.105201261751
 32
0.0
 13
185.2179336188
 23
331.105201261751
 33
0.0
  0
SOLID
  5
147
330
142
100
AcDbEntity
  8
1
 62
     2
100
AcDbTrace
 10
113.7179336188
 20
331.5659850033069
 30
0.0
 11
113.7179336188
 21
330.6444175201951
 31
0.0
 12
110.2179336188
 22
331.105201261751
 32
0.0
 13
110.2179336188
 23
331.105201261751
 33
0.0
  0
MTEXT
  5
148
330
142
100
AcDbEntity
  8
1
 62
     3
100
AcDbMText
 10
146.086754147385
 20
333.105201261751
 30
0.0
 40
3.5
 41
0.0
 71
     7
 72
     1
  1
\C3;\C3;\C3;75\C2;\H2.45;\S^ ;\C3;
  7
CONVERTER_11
 11
0.9999999999970619
 21
2.424068405545306E-6
 31
0.0
 73
     1
 44
0.60024009603842
  0
ENDBLK
  5
14A
330
142
100
AcDbEntity
  8
0
100
AcDbBlockEnd
  0
BLOCK
  5
154
330
14D
100
AcDbEntity
  8
0
100
AcDbBlockBegin
  2
*D6
 70
     1
 10
0.0
 20
0.0
 30
0.0
  3
*D6
  1

  0
LINE
  5
14E
330
14D
100
AcDbEntity
  8
1
  6
Continuous
 62
     2
100
AcDbLine
 10
185.2179336188
 20
339.010982014288
 30
0.0
 11
90.3179336188
 21
339.010982014288
 31
0.0
  0
LINE
  5
14F
330
14D
100
AcDbEntity
  8
1
  6
Continuous
 62
     2
100
AcDbLine
 10
185.2179336188
 20
307.2227731546
 30
0.0
 11
185.2179336188
 21
341.010982014288
 31
0.0
  0
LINE
  5
150
330
14D
100
AcDbEntity
  8
1
  6
Continuous
 62
     2
100
AcDbLine
 10
90.3179336188
 20
305.30583004
 30
0.0
 11
90.3179336188
 21
341.010982014288
 31
0.0
  0
SOLID
  5
151
330
14D
100
AcDbEntity
  8
1
 62
     2
100
AcDbTrace
 10
181.7179336188
 20
338.5501982727321
 30
0.0
 11
181.7179336188
 21
339.4717657558439
 31
0.0
 12
185.2179336188
 22
339.010982014288
 32
0.0
 13
185.2179336188
 23
339.010982014288
 33
0.0
  0
SOLID
  5
152
330
14D
100
AcDbEntity
  8
1
 62
     2
100
AcDbTrace
 10
93.8179336188
 20
339.4717657558439
 30
0.0
 11
93.8179336188
 21
338.5501982727321
 31
0.0
 12
90.3179336188
 22
339.010982014288
 32
0.0
 13
90.3179336188
 23
339.010982014288
 33
0.0
  0
MTEXT
  5
153
330
14D
100
AcDbEntity
  8
1
 62
     3
100
AcDbMText
 10
138.708025445017
 20
341.010982014288
 30
0.0
 40
3.5
 41
0.0
 71
     7
 72
     1
  1
\C3;\C3;\C3;95\C2;\H2.45;\S^ ;\C3;
  7
CONVERTER_11
 11
0.9999999999970619
 21
2.424068405545306E-6
 31
0.0
 73
     1
 44
0.60024009603842
  0
ENDBLK
  5
155
330
14D
100
AcDbEntity
  8
0
100
AcDbBlockEnd
  0
BLOCK
  5
15C
330
158
100
AcDbEntity
  8
0
100
AcDbBlockBegin
  2
*D7
 70
     1
 10
0.0
 20
0.0
 30
0.0
  3
*D7
  1

  0
LINE
  5
159
330
158
100
AcDbEntity
  8
1
  6
Continuous
 62
     2
100
AcDbLine
 10
140.4514055951215
 20
312.6474360426446
 30
0.0
 11
130.3193369763424
 21
306.3308030214699
 31
0.0
  0
SOLID
  5
15A
330
158
100
AcDbEntity
  8
1
 62
     2
100
AcDbTrace
 10
133.0456520127947
 20
308.5734639362085
 30
0.0
 11
133.5331984370933
 21
307.7914248642418
 31
0.0
 12
130.3193369763424
 22
306.3308030214699
 32
0.0
 13
130.3193369763424
 23
306.3308030214699
 33
0.0
  0
MTEXT
  5
15B
330
158
100
AcDbEntity
  8
1
 62
     3
100
AcDbMText
 10
133.8095588998904
 20
310.8635435354998
 30
0.0
 40
3.5
 41
0.0
 71
     7
 72
     1
  1
\C3; R\C3;\C3;1\C2;\H2.45;\S^ ;\C3;
  7
CONVERTER_11
 11
0.8485966424575894
 21
0.5290403939300914
 31
0.0
 73
     1
 44
0.60024009603842
  0
ENDBLK
  5
15D
330
158
100
AcDbEntity
  8
0
100
AcDbBlockEnd
  0
ENDSEC
  0
SECTION
  2
ENTITIES
  0
INSERT
  5
6D
330
1F
100
AcDbEntity
  8
0
100
AcDbBlockReference
  2
Urheberrecht_DE-EN_horizontal
 10
144.817546572817
 20
255.46363009636
 30
0.0
  0
LINE
  5
71
330
1F
100
AcDbEntity
  8
0
  6
Continuous
 62
     7
100
AcDbLine
 10
90.3179336188
 20
276.4138567903
 30
0.0
 11
90.3179336188
 21
284.8848434154
 31
0.0
  0
LINE
  5
72
330
1F
100
AcDbEntity
  8
0
  6
Continuous
 62
     7
100
AcDbLine
 10
90.3179336188
 20
294.8348434154
 30
0.0
 11
90.3179336188
 21
303.30583004
 31
0.0
  0
LINE
  5
73
330
1F
100
AcDbEntity
  8
0
  6
Continuous
 62
     9
100
AcDbLine
 10
91.077903825
 20
304.1048279227
 30
0.0
 11
91.077903825
 21
295.9446756739
 31
0.0
  0
LINE
  5
74
330
1F
100
AcDbEntity
  8
0
  6
Continuous
 62
     9
100
AcDbLine
 10
91.077903825
 20
283.7750111569
 30
0.0
 11
91.077903825
 21
275.6148589081
 31
0.0
  0
LINE
  5
75
330
1F
100
AcDbEntity
  8
0
  6
Continuous
 62
     7
100
AcDbLine
 10
91.2679336188
 20
285.0240955734
 30
0.0
 11
91.2679336188
 21
285.8348434154
 31
0.0
  0
LINE
  5
76
330
1F
100
AcDbEntity
  8
0
  6
Continuous
 62
     7
100
AcDbLine
 10
91.2679336188
 20
293.8848434154
 30
0.0
 11
91.2679336188
 21
294.6955912574
 31
0.0
  0
LINE
  5
77
330
1F
100
AcDbEntity
  8
RUNDUNGEN
  6
Continuous
 62
     9
100
AcDbLine
 10
93.0179336188
 20
283.5508239074
 30
0.0
 11
93.0179336188
 21
285.8348434154
 31
0.0
  0
LINE
  5
78
330
1F
100
AcDbEntity
  8
RUNDUNGEN
  6
Continuous
 62
     9
100
AcDbLine
 10
93.0179336188
 20
293.8848434154
 30
0.0
 11
93.0179336188
 21
296.1688629234
 31
0.0
  0
LINE
  5
79
330
1F
100
AcDbEntity
  8
RUNDUNGEN
  6
Continuous
 62
     7
100
AcDbLine
 10
93.9179336188
 20
294.6751356245
 30
0.0
 11
93.9179336188
 21
285.0445512063
 31
0.0
  0
LINE
  5
7A
330
1F
100
AcDbEntity
  8
0
  6
Continuous
 62
     7
100
AcDbLine
 10
90.9342517694
 20
283.9548434154
 30
0.0
 11
90.8793682477
 21
283.8583451106
 31
0.0
  0
LINE
  5
7B
330
1F
100
AcDbEntity
  8
0
  6
Continuous
 62
     7
100
AcDbLine
 10
90.8793682477
 20
295.8613417202
 30
0.0
 11
90.9342517694
 21
295.7648434154
 31
0.0
  0
LWPOLYLINE
  5
7C
330
1F
100
AcDbEntity
  8
BEZUGSACHSEN
  6
DOT_CENTER
 62
     7
100
AcDbPolyline
 90
        2
 70
     0
 43
0.25
 10
104.2179336188
 20
284.5598434154
 10
104.2179336188
 20
295.1598434154
  0
LINE
  5
7D
330
1F
100
AcDbEntity
  8
0
  6
Continuous
 62
     7
100
AcDbLine
 10
108.2179336188
 20
304.9635434154
 30
0.0
 11
108.2179336188
 21
274.7561434154
 31
0.0
  0
LINE
  5
7E
330
1F
100
AcDbEntity
  8
0
  6
Continuous
 62
     9
100
AcDbLine
 10
108.9134771614
 20
274.9425137459
 30
0.0
 11
108.9134771614
 21
304.7771730849
 31
0.0
  0
LINE
  5
7F
330
1F
100
AcDbEntity
  8
0
  6
Continuous
 62
     9
100
AcDbLine
 10
109.0170047794
 20
274.9561434154
 30
0.0
 11
109.0170047794
 21
304.7635434154
 31
0.0
  0
LINE
  5
80
330
1F
100
AcDbEntity
  8
0
  6
Continuous
 62
     9
100
AcDbLine
 10
110.0637564556
 20
274.9561434154
 30
0.0
 11
110.0637564556
 21
304.7635434154
 31
0.0
  0
LINE
  5
81
330
1F
100
AcDbEntity
  8
0
  6
Continuous
 62
     7
100
AcDbLine
 10
110.2179336188
 20
309.8598434154
 30
0.0
 11
110.2179336188
 21
269.8598434154
 31
0.0
  0
LINE
  5
82
330
1F
100
AcDbEntity
  8
0
  6
Continuous
 62
     7
100
AcDbLine
 10
90.3179336188
 20
284.8848434154
 30
0.0
 11
91.2679336188
 21
285.8348434154
 31
0.0
  0
LINE
  5
83
330
1F
100
AcDbEntity
  8
0
  6
Continuous
 62
     7
100
AcDbLine
 10
91.2679336188
 20
293.8848434154
 30
0.0
 11
90.3179336188
 21
294.8348434154
 31
0.0
  0
LWPOLYLINE
  5
84
330
1F
100
AcDbEntity
  8
BEZUGSACHSEN
  6
DOT_CENTER
 62
     7
100
AcDbPolyline
 90
        2
 70
     0
 43
0.25
 10
117.2179336188
 20
315.6247601465
 10
117.2179336188
 20
301.6247601465
  0
LINE
  5
85
330
1F
100
AcDbEntity
  8
0
  6
Continuous
 62
     7
100
AcDbLine
 10
146.6679336188
 20
267.8598434154
 30
0.0
 11
157.6179336188
 21
267.8598434154
 31
0.0
  0
LINE
  5
86
330
1F
100
AcDbEntity
  8
0
  6
Continuous
 62
     7
100
AcDbLine
 10
167.8179336188
 20
267.8598434154
 30
0.0
 11
172.1291974331
 21
267.8598434154
 31
0.0
  0
LINE
  5
87
330
1F
100
AcDbEntity
  8
0
  6
Continuous
 62
     7
100
AcDbLine
 10
127.2554336188
 20
308.1318461283
 30
0.0
 11
128.2530933177
 21
309.8598434154
 31
0.0
  0
LINE
  5
88
330
1F
100
AcDbEntity
  8
0
  6
Continuous
 62
     9
100
AcDbLine
 10
90.3179336188
 20
284.4837819829
 30
0.0
 11
91.2679336188
 21
285.0240955734
 31
0.0
  0
LINE
  5
89
330
1F
100
AcDbEntity
  8
0
  6
Continuous
 62
     7
100
AcDbLine
 10
124.18277392
 20
269.8598434154
 30
0.0
 11
110.2179336188
 21
269.8598434154
 31
0.0
  0
LINE
  5
8A
330
1F
100
AcDbEntity
  8
0
  6
Continuous
 62
     7
100
AcDbLine
 10
128.2530933177
 20
269.8598434154
 30
0.0
 11
130.1679336188
 21
269.8598434154
 31
0.0
  0
LINE
  5
8B
330
1F
100
AcDbEntity
  8
0
  6
Continuous
 62
     7
100
AcDbLine
 10
125.4304336188
 20
272.4848434154
 30
0.0
 11
127.0054336188
 21
272.4848434154
 31
0.0
  0
LINE
  5
8C
330
1F
100
AcDbEntity
  8
0
  6
Continuous
 62
     9
100
AcDbLine
 10
91.2679336188
 20
294.6955912574
 30
0.0
 11
90.3179336188
 21
295.2359048479
 31
0.0
  0
LINE
  5
8D
330
1F
100
AcDbEntity
  8
0
  6
Continuous
 62
     7
100
AcDbLine
 10
127.2554336188
 20
271.5878407026
 30
0.0
 11
128.2530933177
 21
269.8598434154
 31
0.0
  0
LINE
  5
8E
330
1F
100
AcDbEntity
  8
FASEN
  6
Continuous
 62
     9
100
AcDbLine
 10
122.6543018605
 20
277.6098434154
 30
0.0
 11
122.6543018605
 21
278.0098434154
 31
0.0
  0
LINE
  5
8F
330
1F
100
AcDbEntity
  8
FASEN
  6
Continuous
 62
     9
100
AcDbLine
 10
122.6824336188
 20
285.7453434154
 30
0.0
 11
122.6824336188
 21
285.3453434154
 31
0.0
  0
LINE
  5
90
330
1F
100
AcDbEntity
  8
FASEN
  6
Continuous
 62
     9
100
AcDbLine
 10
122.6824336188
 20
293.9743434154
 30
0.0
 11
122.6824336188
 21
294.3743434154
 31
0.0
  0
LINE
  5
91
330
1F
100
AcDbEntity
  8
0
  6
Continuous
 62
     7
100
AcDbLine
 10
124.18277392
 20
309.8598434154
 30
0.0
 11
124.18277392
 21
294.3743434154
 31
0.0
  0
LINE
  5
92
330
1F
100
AcDbEntity
  8
0
  6
Continuous
 62
     7
100
AcDbLine
 10
124.18277392
 20
285.3453434154
 30
0.0
 11
124.18277392
 21
278.0098434154
 31
0.0
  0
LINE
  5
93
330
1F
100
AcDbEntity
  8
0
  6
Continuous
 62
     7
100
AcDbLine
 10
124.18277392
 20
273.7484344143
 30
0.0
 11
124.18277392
 21
269.8598434154
 31
0.0
  0
LINE
  5
94
330
1F
100
AcDbEntity
  8
0
  6
Continuous
 62
     7
100
AcDbLine
 10
118.561249902
 20
273.7484344143
 30
0.0
 11
124.18277392
 21
273.7484344143
 31
0.0
  0
LINE
  5
95
330
1F
100
AcDbEntity
  8
0
  6
Continuous
 62
     7
100
AcDbLine
 10
128.2530933177
 20
273.7484344143
 30
0.0
 11
130.1679336188
 21
273.7484344143
 31
0.0
  0
LINE
  5
96
330
1F
100
AcDbEntity
  8
0
  6
Continuous
 62
     7
100
AcDbLine
 10
131.1679336188
 20
273.8598434154
 30
0.0
 11
144.6679336188
 21
273.8598434154
 31
0.0
  0
LINE
  5
97
330
1F
100
AcDbEntity
  8
0
  6
Continuous
 62
     7
100
AcDbLine
 10
110.0637564556
 20
274.9561434154
 30
0.0
 11
109.0170047794
 21
274.9561434154
 31
0.0
  0
LINE
  5
98
330
1F
100
AcDbEntity
  8
0
  6
Continuous
 62
     7
100
AcDbLine
 10
108.2179336188
 20
274.7561434154
 30
0.0
 11
91.077903825
 21
275.6148589081
 31
0.0
  0
LINE
  5
99
330
1F
100
AcDbEntity
  8
0
  6
Continuous
 62
     7
100
AcDbLine
 10
125.1804336188
 20
308.1317847094
 30
0.0
 11
125.1804336188
 21
294.165367105
 31
0.0
  0
LINE
  5
9A
330
1F
100
AcDbEntity
  8
0
  6
Continuous
 62
     7
100
AcDbLine
 10
125.1804336188
 20
271.5879015772
 30
0.0
 11
125.1804336188
 21
276.8130765745
 31
0.0
  0
LINE
  5
9B
330
1F
100
AcDbEntity
  8
0
  6
Continuous
 62
     7
100
AcDbLine
 10
125.1804336188
 20
278.0098434154
 30
0.0
 11
125.1804336188
 21
285.5543197258
 31
0.0
  0
LINE
  5
9C
330
1F
100
AcDbEntity
  8
0
  6
Continuous
 62
     9
100
AcDbLine
 10
125.4304336188
 20
285.8249177655
 30
0.0
 11
125.4304336188
 21
278.0098434154
 31
0.0
  0
LINE
  5
9D
330
1F
100
AcDbEntity
  8
0
  6
Continuous
 62
     9
100
AcDbLine
 10
125.4304336188
 20
272.4848434154
 30
0.0
 11
125.4304336188
 21
277.1528325553
 31
0.0
  0
LINE
  5
9E
330
1F
100
AcDbEntity
  8
0
  6
Continuous
 62
     9
100
AcDbLine
 10
125.4304336188
 20
293.8947690653
 30
0.0
 11
125.4304336188
 21
307.2348434154
 31
0.0
  0
LINE
  5
9F
330
1F
100
AcDbEntity
  8
0
  6
Continuous
 62
     9
100
AcDbLine
 10
127.0054336188
 20
285.8249177655
 30
0.0
 11
127.0054336188
 21
278.0098434154
 31
0.0
  0
LINE
  5
A0
330
1F
100
AcDbEntity
  8
0
  6
Continuous
 62
     9
100
AcDbLine
 10
127.0054336188
 20
272.4848434154
 30
0.0
 11
127.0054336188
 21
277.1528325553
 31
0.0
  0
LINE
  5
A1
330
1F
100
AcDbEntity
  8
0
  6
Continuous
 62
     9
100
AcDbLine
 10
127.0054336188
 20
293.8947690653
 30
0.0
 11
127.0054336188
 21
307.2348434154
 31
0.0
  0
LINE
  5
A2
330
1F
100
AcDbEntity
  8
0
  6
Continuous
 62
     7
100
AcDbLine
 10
127.2554336188
 20
271.5879015772
 30
0.0
 11
127.2554336188
 21
276.8130765745
 31
0.0
  0
LINE
  5
A3
330
1F
100
AcDbEntity
  8
0
  6
Continuous
 62
     7
100
AcDbLine
 10
127.2554336188
 20
278.0098434154
 30
0.0
 11
127.2554336188
 21
285.5543197258
 31
0.0
  0
LINE
  5
A4
330
1F
100
AcDbEntity
  8
0
  6
Continuous
 62
     7
100
AcDbLine
 10
127.2554336188
 20
294.165367105
 30
0.0
 11
127.2554336188
 21
308.1317847094
 31
0.0
  0
LINE
  5
A5
330
1F
100
AcDbEntity
  8
0
  6
Continuous
 62
     7
100
AcDbLine
 10
108.9134771614
 20
274.9425137459
 30
0.0
 11
109.0170047794
 21
274.9561434154
 31
0.0
  0
LINE
  5
A6
330
1F
100
AcDbEntity
  8
0
  6
Continuous
 62
     7
100
AcDbLine
 10
125.4304336188
 20
277.1528325553
 30
0.0
 11
127.0054336188
 21
277.1528325553
 31
0.0
  0
LINE
  5
A7
330
1F
100
AcDbEntity
  8
0
  6
Continuous
 62
     7
100
AcDbLine
 10
122.6543018605
 20
277.6098434154
 30
0.0
 11
130.1679336188
 21
277.6098434154
 31
0.0
  0
LINE
  5
A8
330
1F
100
AcDbEntity
  8
0
  6
Continuous
 62
     7
100
AcDbLine
 10
122.6543018605
 20
278.0098434154
 30
0.0
 11
130.1679336188
 21
278.0098434154
 31
0.0
  0
LINE
  5
A9
330
1F
100
AcDbEntity
  8
0
  6
Continuous
 62
     7
100
AcDbLine
 10
128.2530933177
 20
285.3453434154
 30
0.0
 11
128.2530933177
 21
278.0098434154
 31
0.0
  0
LINE
  5
AA
330
1F
100
AcDbEntity
  8
0
  6
Continuous
 62
     7
100
AcDbLine
 10
128.2530933177
 20
269.8598434154
 30
0.0
 11
128.2530933177
 21
273.7484344143
 31
0.0
  0
LINE
  5
AB
330
1F
100
AcDbEntity
  8
0
  6
Continuous
 62
     7
100
AcDbLine
 10
128.2530933177
 20
294.3743434154
 30
0.0
 11
128.2530933177
 21
309.8598434154
 31
0.0
  0
LINE
  5
AC
330
1F
100
AcDbEntity
  8
0
  6
Continuous
 62
     7
100
AcDbLine
 10
130.1679336188
 20
309.859810162
 30
0.0
 11
130.1679336188
 21
293.9743434154
 31
0.0
  0
LINE
  5
AD
330
1F
100
AcDbEntity
  8
0
  6
Continuous
 62
     7
100
AcDbLine
 10
130.1679336188
 20
269.8598477495
 30
0.0
 11
130.1679336188
 21
285.7453434154
 31
0.0
  0
LINE
  5
AE
330
1F
100
AcDbEntity
  8
RUNDUNGEN
  6
Continuous
 62
     7
100
AcDbLine
 10
130.1679336188
 20
285.7453434154
 30
0.0
 11
130.1679336188
 21
288.0186481515
 31
0.0
  0
LINE
  5
AF
330
1F
100
AcDbEntity
  8
RUNDUNGEN
  6
Continuous
 62
     7
100
AcDbLine
 10
130.1679336188
 20
291.7010386794
 30
0.0
 11
130.1679336188
 21
293.9743434154
 31
0.0
  0
LINE
  5
B0
330
1F
100
AcDbEntity
  8
RUNDUNGEN
  6
Continuous
 62
     9
100
AcDbLine
 10
131.1679336188
 20
273.8598434154
 30
0.0
 11
131.1679336188
 21
305.8598434154
 31
0.0
  0
LINE
  5
B1
330
1F
100
AcDbEntity
  8
0
  6
Continuous
 62
     7
100
AcDbLine
 10
108.9134771614
 20
274.9425137459
 30
0.0
 11
108.2179336188
 21
274.7561434154
 31
0.0
  0
LWPOLYLINE
  5
B2
330
1F
100
AcDbEntity
  8
DEFAULT_2
  6
DASHED
 62
     8
100
AcDbPolyline
 90
        2
 70
     0
 43
0.35
 10
135.2179336188
 20
282.8598434154
 10
157.6179336188
 20
282.8598434154
  0
LWPOLYLINE
  5
B3
330
1F
100
AcDbEntity
  8
DEFAULT_2
  6
DASHED
 62
     8
100
AcDbPolyline
 90
        2
 70
     0
 43
0.35
 10
157.6179336188
 20
282.8598434154
 10
185.2179336188
 20
282.8598434154
  0
LINE
  5
B4
330
1F
100
AcDbEntity
  8
RUNDUNGEN
  6
Continuous
 62
     9
100
AcDbLine
 10
93.6106543153
 20
283.9548434154
 30
0.0
 11
93.0179336188
 21
283.9548434154
 31
0.0
  0
LINE
  5
B5
330
1F
100
AcDbEntity
  8
0
  6
Continuous
 62
     9
100
AcDbLine
 10
93.0179336188
 20
283.9548434154
 30
0.0
 11
90.9342517694
 21
283.9548434154
 31
0.0
  0
LINE
  5
B6
330
1F
100
AcDbEntity
  8
0
  6
Continuous
 62
     7
100
AcDbLine
 10
122.6824336188
 20
285.3453434154
 30
0.0
 11
125.1804336188
 21
285.3453434154
 31
0.0
  0
LINE
  5
B7
330
1F
100
AcDbEntity
  8
0
  6
Continuous
 62
     7
100
AcDbLine
 10
127.2554336188
 20
285.3453434154
 30
0.0
 11
130.1679336188
 21
285.3453434154
 31
0.0
  0
LINE
  5
B8
330
1F
100
AcDbEntity
  8
0
  6
Continuous
 62
     7
100
AcDbLine
 10
130.1679336188
 20
285.7453434154
 30
0.0
 11
127.1001850915
 21
285.7453434154
 31
0.0
  0
LINE
  5
B9
330
1F
100
AcDbEntity
  8
0
  6
Continuous
 62
     7
100
AcDbLine
 10
125.3356821462
 20
285.7453434154
 30
0.0
 11
122.6824336188
 21
285.7453434154
 31
0.0
  0
LINE
  5
BA
330
1F
100
AcDbEntity
  8
0
  6
Continuous
 62
     7
100
AcDbLine
 10
125.4304336188
 20
285.8249177655
 30
0.0
 11
127.0054336188
 21
285.8249177655
 31
0.0
  0
LINE
  5
BB
330
1F
100
AcDbEntity
  8
0
  6
Continuous
 62
     7
100
AcDbLine
 10
93.0179336188
 20
285.8348434154
 30
0.0
 11
91.2679336188
 21
285.8348434154
 31
0.0
  0
LWPOLYLINE
  5
BC
330
1F
100
AcDbEntity
  8
DEFAULT_2
  6
DASHED
 62
     8
100
AcDbPolyline
 90
        2
 70
     0
 43
0.35
 10
135.2179336188
 20
296.8598434154
 10
135.2179336188
 20
282.8598434154
  0
LINE
  5
BD
330
1F
100
AcDbEntity
  8
0
  6
Continuous
 62
     7
100
AcDbLine
 10
124.18277392
 20
269.8598434154
 30
0.0
 11
125.1804336188
 21
271.5878407026
 31
0.0
  0
LWPOLYLINE
  5
BE
330
1F
100
AcDbEntity
  8
TEIL_STARTBEZUEGE
  6
DOT_CENTER
 62
     7
100
AcDbPolyline
 90
        2
 70
     0
 43
0.25
 10
188.2179336188
 20
289.8598434154
 10
87.3179336188
 20
289.8598434154
  0
LINE
  5
BF
330
1F
100
AcDbEntity
  8
0
  6
Continuous
 62
     7
100
AcDbLine
 10
124.18277392
 20
309.8598434154
 30
0.0
 11
125.1804336188
 21
308.1318461283
 31
0.0
  0
LINE
  5
C0
330
1F
100
AcDbEntity
  8
RUNDUNGEN
  6
Continuous
 62
     9
100
AcDbLine
 10
144.6679336188
 20
273.8598434154
 30
0.0
 11
144.6679336188
 21
305.8598434154
 31
0.0
  0
LINE
  5
C1
330
1F
100
AcDbEntity
  8
0
  6
Continuous
 62
     7
100
AcDbLine
 10
93.0179336188
 20
293.8848434154
 30
0.0
 11
91.2679336188
 21
293.8848434154
 31
0.0
  0
LINE
  5
C2
330
1F
100
AcDbEntity
  8
0
  6
Continuous
 62
     7
100
AcDbLine
 10
127.0054336188
 20
293.8947690653
 30
0.0
 11
125.4304336188
 21
293.8947690653
 31
0.0
  0
LINE
  5
C3
330
1F
100
AcDbEntity
  8
0
  6
Continuous
 62
     7
100
AcDbLine
 10
122.6824336188
 20
293.9743434154
 30
0.0
 11
125.3356821462
 21
293.9743434154
 31
0.0
  0
LINE
  5
C4
330
1F
100
AcDbEntity
  8
0
  6
Continuous
 62
     7
100
AcDbLine
 10
127.1001850915
 20
293.9743434154
 30
0.0
 11
130.1679336188
 21
293.9743434154
 31
0.0
  0
LINE
  5
C5
330
1F
100
AcDbEntity
  8
0
  6
Continuous
 62
     7
100
AcDbLine
 10
122.6824336188
 20
294.3743434154
 30
0.0
 11
125.1804336188
 21
294.3743434154
 31
0.0
  0
LINE
  5
C6
330
1F
100
AcDbEntity
  8
0
  6
Continuous
 62
     7
100
AcDbLine
 10
127.2554336188
 20
294.3743434154
 30
0.0
 11
130.1679336188
 21
294.3743434154
 31
0.0
  0
LINE
  5
C7
330
1F
100
AcDbEntity
  8
0
  6
Continuous
 62
     9
100
AcDbLine
 10
93.0179336188
 20
295.7648434154
 30
0.0
 11
90.9342517694
 21
295.7648434154
 31
0.0
  0
LINE
  5
C8
330
1F
100
AcDbEntity
  8
RUNDUNGEN
  6
Continuous
 62
     9
100
AcDbLine
 10
93.0179336188
 20
295.7648434154
 30
0.0
 11
93.6106543153
 21
295.7648434154
 31
0.0
  0
LWPOLYLINE
  5
C9
330
1F
100
AcDbEntity
  8
DEFAULT_2
  6
DASHED
 62
     8
100
AcDbPolyline
 90
        2
 70
     0
 43
0.35
 10
185.2179336188
 20
296.8598434154
 10
135.2179336188
 20
296.8598434154
  0
LINE
  5
CA
330
1F
100
AcDbEntity
  8
0
  6
Continuous
 62
     7
100
AcDbLine
 10
108.9134771614
 20
304.7771730849
 30
0.0
 11
108.2179336188
 21
304.9635434154
 31
0.0
  0
LINE
  5
CB
330
1F
100
AcDbEntity
  8
RUNDUNGEN
  6
Continuous
 62
     7
100
AcDbLine
 10
145.6679336188
 20
310.8598434154
 30
0.0
 11
145.6679336188
 21
268.8598434154
 31
0.0
  0
LINE
  5
CC
330
1F
100
AcDbEntity
  8
RUNDUNGEN
  6
Continuous
 62
     9
100
AcDbLine
 10
146.6679336188
 20
311.8598434154
 30
0.0
 11
146.6679336188
 21
267.8598434154
 31
0.0
  0
LINE
  5
CD
330
1F
100
AcDbEntity
  8
0
  6
Continuous
 62
     7
100
AcDbLine
 10
108.9134771614
 20
304.7771730849
 30
0.0
 11
109.0170047794
 21
304.7635434154
 31
0.0
  0
LINE
  5
CE
330
1F
100
AcDbEntity
  8
0
  6
Continuous
 62
     7
100
AcDbLine
 10
108.2179336188
 20
304.9635434154
 30
0.0
 11
91.077903825
 21
304.1048279227
 31
0.0
  0
LINE
  5
CF
330
1F
100
AcDbEntity
  8
0
  6
Continuous
 62
     7
100
AcDbLine
 10
110.0637564556
 20
304.7635434154
 30
0.0
 11
109.0170047794
 21
304.7635434154
 31
0.0
  0
LINE
  5
D0
330
1F
100
AcDbEntity
  8
0
  6
Continuous
 62
     7
100
AcDbLine
 10
131.1679336188
 20
305.8598434154
 30
0.0
 11
144.6679336188
 21
305.8598434154
 31
0.0
  0
LINE
  5
D1
330
1F
100
AcDbEntity
  8
RUNDUNGEN
  6
Continuous
 62
     7
100
AcDbLine
 10
131.1679336188
 20
305.8598434154
 30
0.0
 11
144.6679336188
 21
305.8598434154
 31
0.0
  0
LINE
  5
D2
330
1F
100
AcDbEntity
  8
0
  6
Continuous
 62
     7
100
AcDbLine
 10
125.4304336188
 20
307.2348434154
 30
0.0
 11
127.0054336188
 21
307.2348434154
 31
0.0
  0
LWPOLYLINE
  5
D3
330
1F
100
AcDbEntity
  8
BEZUGSACHSEN
  6
DASHED
 62
     8
100
AcDbPolyline
 90
        2
 70
     0
 43
0.35
 10
157.6179336188
 20
282.8598434154
 10
157.6179336188
 20
267.8598434154
  0
LINE
  5
D4
330
1F
100
AcDbEntity
  8
BEZUGSACHSEN
  6
Continuous
 62
     7
100
AcDbLine
 10
124.18277392
 20
309.8598434154
 30
0.0
 11
122.2179336188
 21
309.8598434154
 31
0.0
  0
LINE
  5
D5
330
1F
100
AcDbEntity
  8
BEZUGSACHSEN
  6
Continuous
 62
     7
100
AcDbLine
 10
112.2179336188
 20
309.8598434154
 30
0.0
 11
110.2179336188
 21
309.8598434154
 31
0.0
  0
LINE
  5
D6
330
1F
100
AcDbEntity
  8
0
  6
Continuous
 62
     7
100
AcDbLine
 10
110.2179336188
 20
309.8598434154
 30
0.0
 11
112.2179336188
 21
309.8598434154
 31
0.0
  0
LINE
  5
D7
330
1F
100
AcDbEntity
  8
0
  6
Continuous
 62
     7
100
AcDbLine
 10
122.2179336188
 20
309.8598434154
 30
0.0
 11
124.18277392
 21
309.8598434154
 31
0.0
  0
LINE
  5
D8
330
1F
100
AcDbEntity
  8
0
  6
Continuous
 62
     7
100
AcDbLine
 10
128.2530933177
 20
309.8598434154
 30
0.0
 11
130.1679336188
 21
309.8598434154
 31
0.0
  0
LINE
  5
D9
330
1F
100
AcDbEntity
  8
RUNDUNGEN
  6
Continuous
 62
     7
100
AcDbLine
 10
172.1291974331
 20
311.8598434154
 30
0.0
 11
146.6679336188
 21
311.8598434154
 31
0.0
  0
LINE
  5
DA
330
1F
100
AcDbEntity
  8
0
  6
Continuous
 62
     7
100
AcDbLine
 10
146.6679336188
 20
311.8598434154
 30
0.0
 11
172.1291974331
 21
311.8598434154
 31
0.0
  0
LWPOLYLINE
  5
DB
330
1F
100
AcDbEntity
  8
BEZUGSACHSEN
  6
DOT_CENTER
 62
     7
100
AcDbPolyline
 90
        2
 70
     0
 43
0.25
 10
162.7179336188
 20
264.8598434154
 10
162.7179336188
 20
288.0650641238
  0
LWPOLYLINE
  5
DC
330
1F
100
AcDbEntity
  8
BEZUGSACHSEN
  6
DASHED
 62
     8
100
AcDbPolyline
 90
        2
 70
     0
 43
0.35
 10
167.8179336188
 20
282.8598434154
 10
167.8179336188
 20
267.8598434154
  0
LINE
  5
DD
330
1F
100
AcDbEntity
  8
RUNDUNGEN
  6
Continuous
 62
     9
100
AcDbLine
 10
172.1291974331
 20
267.8598434154
 30
0.0
 11
172.1291974331
 21
311.8598434154
 31
0.0
  0
LINE
  5
DE
330
1F
100
AcDbEntity
  8
RUNDUNGEN
  6
Continuous
 62
     9
100
AcDbLine
 10
172.5518156949
 20
267.9535356284
 30
0.0
 11
172.5518156949
 21
311.7661512025
 31
0.0
  0
LINE
  5
DF
330
1F
100
AcDbEntity
  8
0
  6
Continuous
 62
     7
100
AcDbLine
 10
172.5518156949
 20
267.9535356284
 30
0.0
 11
184.6405518806
 21
273.5906058892
 31
0.0
  0
LINE
  5
E0
330
1F
100
AcDbEntity
  8
RUNDUNGEN
  6
Continuous
 62
     7
100
AcDbLine
 10
184.6405518806
 20
306.1290809416
 30
0.0
 11
172.5518156949
 21
311.7661512025
 31
0.0
  0
LINE
  5
E1
330
1F
100
AcDbEntity
  8
0
  6
Continuous
 62
     7
100
AcDbLine
 10
172.5518156949
 20
311.7661512025
 30
0.0
 11
184.6405518806
 21
306.1290809416
 31
0.0
  0
LINE
  5
E2
330
1F
100
AcDbEntity
  8
RUNDUNGEN
  6
Continuous
 62
     9
100
AcDbLine
 10
184.6405518806
 20
273.5906058892
 30
0.0
 11
184.6405518806
 21
306.1290809416
 31
0.0
  0
LINE
  5
E3
330
1F
100
AcDbEntity
  8
RUNDUNGEN
  6
Continuous
 62
     7
100
AcDbLine
 10
185.2179336188
 20
305.2227731546
 30
0.0
 11
185.2179336188
 21
274.4969136762
 31
0.0
  0
LWPOLYLINE
  5
E4
330
1F
100
AcDbEntity
  8
BEZUGSACHSEN
  6
DASHED
 62
     8
100
AcDbPolyline
 90
        2
 70
     0
 43
0.35
 10
168.717931274
 20
282.8598434154
 10
168.717931274
 20
267.8598434154
  0
LWPOLYLINE
  5
E5
330
1F
100
AcDbEntity
  8
BEZUGSACHSEN
  6
DASHED
 62
     8
100
AcDbPolyline
 90
        2
 70
     0
 43
0.35
 10
156.7179359636
 20
282.8598434154
 10
156.7179359636
 20
267.8598434154
  0
ARC
  5
E6
330
1F
100
AcDbEntity
  8
FASEN
  6
Continuous
 62
     7
100
AcDbCircle
 10
124.5528955588
 20
281.5587792708
 30
0.0
 40
9.843846019400186
100
AcDbArc
 50
229.706818062202
 51
232.5066621077203
  0
ARC
  5
E7
330
1F
100
AcDbEntity
  8
FASEN
  6
Continuous
 62
     7
100
AcDbCircle
 10
122.6543018605
 20
273.5098434154
 30
0.0
 40
4.5
100
AcDbArc
 50
90.0
 51
173.1003589696013
  0
ARC
  5
E8
330
1F
100
AcDbEntity
  8
FASEN
  6
Continuous
 62
     7
100
AcDbCircle
 10
122.6543018605
 20
273.5098434154
 30
0.0
 40
4.099981300800039
100
AcDbArc
 50
90.0
 51
176.6639061997959
  0
ARC
  5
E9
330
1F
100
AcDbEntity
  8
RUNDUNGEN
  6
Continuous
 62
     7
100
AcDbCircle
 10
93.0179336188
 20
286.7348434154
 30
0.0
 40
0.9000000000000341
100
AcDbArc
 50
270.0
 51
352.9880362154742
  0
ARC
  5
EA
330
1F
100
AcDbEntity
  8
0
  6
Continuous
 62
     7
100
AcDbCircle
 10
91.1179336188
 20
276.4138567902
 30
0.0
 40
0.7999999999999972
100
AcDbArc
 50
179.9999999928389
 51
267.1318795193533
  0
ARC
  5
EB
330
1F
100
AcDbEntity
  8
0
  6
Continuous
 62
     7
100
AcDbCircle
 10
110.0637564556
 20
274.5561434154
 30
0.0
 40
0.3999999999998977
100
AcDbArc
 50
67.30156454046462
 51
90.0
  0
ARC
  5
EC
330
1F
100
AcDbEntity
  8
0
  6
Continuous
 62
     7
100
AcDbCircle
 10
125.4304336188
 20
272.2348434154
 30
0.0
 40
0.25
100
AcDbArc
 50
90.0
 51
180.0
  0
ARC
  5
ED
330
1F
100
AcDbEntity
  8
0
  6
Continuous
 62
     7
100
AcDbCircle
 10
21.1242747183
 20
321.7471424445
 30
0.0
 40
113.6878631617078
100
AcDbArc
 50
335.0266103235707
 51
336.2454364030003
  0
ARC
  5
EE
330
1F
100
AcDbEntity
  8
0
  6
Continuous
 62
     7
100
AcDbCircle
 10
122.6824336188
 20
289.8598434154
 30
0.0
 40
4.514499999999998
100
AcDbArc
 50
90.0
 51
270.0
  0
ARC
  5
EF
330
1F
100
AcDbEntity
  8
FASEN
  6
Continuous
 62
     7
100
AcDbCircle
 10
122.6824336188
 20
289.8598434154
 30
0.0
 40
4.114498623499969
100
AcDbArc
 50
90.0
 51
270.0
  0
ARC
  5
F0
330
1F
100
AcDbEntity
  8
RUNDUNGEN
  6
Continuous
 62
     7
100
AcDbCircle
 10
93.0179336188
 20
292.9848434154
 30
0.0
 40
0.8999999999999906
100
AcDbArc
 50
7.01196301020744
 51
90.0
  0
ARC
  5
F1
330
1F
100
AcDbEntity
  8
0
  6
Continuous
 62
     7
100
AcDbCircle
 10
91.1179336188
 20
303.3058300406
 30
0.0
 40
0.7999999999949968
100
AcDbArc
 50
92.86812048064648
 51
180.0000000429706
  0
ARC
  5
F2
330
1F
100
AcDbEntity
  8
0
  6
Continuous
 62
     7
100
AcDbCircle
 10
109.0170047794
 20
305.1635434154
 30
0.0
 40
0.3999999999742644
100
AcDbArc
 50
255.0000000050933
 51
270.0
  0
ARC
  5
F3
330
1F
100
AcDbEntity
  8
0
  6
Continuous
 62
     7
100
AcDbCircle
 10
110.0637564556
 20
305.1635434154
 30
0.0
 40
0.3999999999999773
100
AcDbArc
 50
270.0
 51
292.6984354595353
  0
ARC
  5
F4
330
1F
100
AcDbEntity
  8
0
  6
Continuous
 62
     7
100
AcDbCircle
 10
125.4304336188
 20
307.4848434154
 30
0.0
 40
0.25
100
AcDbArc
 50
180.0
 51
270.0
  0
ARC
  5
F5
330
1F
100
AcDbEntity
  8
RUNDUNGEN
  6
Continuous
 62
     7
100
AcDbCircle
 10
158.9469513061
 20
-282.8615977181
 30
0.0
 40
582.7717475341003
100
AcDbArc
 50
96.4957829749
 51
96.68778831039998
  0
ARC
  5
F6
330
1F
100
AcDbEntity
  8
RUNDUNGEN
  6
Continuous
 62
     7
100
AcDbCircle
 10
131.1679336188
 20
272.8598434154
 30
0.0
 40
1.0
100
AcDbArc
 50
90.0
 51
180.0
  0
ARC
  5
F7
330
1F
100
AcDbEntity
  8
RUNDUNGEN
  6
Continuous
 62
     7
100
AcDbCircle
 10
144.6679336188
 20
272.8598434154
 30
0.0
 40
1.0
100
AcDbArc
 50
0.0
 51
90.0
  0
ARC
  5
F8
330
1F
100
AcDbEntity
  8
RUNDUNGEN
  6
Continuous
 62
     7
100
AcDbCircle
 10
146.6679336188
 20
268.8598434154
 30
0.0
 40
1.0
100
AcDbArc
 50
180.0
 51
270.0
  0
ARC
  5
F9
330
1F
100
AcDbEntity
  8
RUNDUNGEN
  6
Continuous
 62
     7
100
AcDbCircle
 10
172.1291974331
 20
268.8598434154
 30
0.0
 40
1.0
100
AcDbArc
 50
270.0
 51
295.0000000039673
  0
ARC
  5
FA
330
1F
100
AcDbEntity
  8
RUNDUNGEN
  6
Continuous
 62
     7
100
AcDbCircle
 10
184.2179336188
 20
274.4969136762
 30
0.0
 40
0.9999999999918406
100
AcDbArc
 50
295.0000000039658
 51
0.0
  0
ARC
  5
FB
330
1F
100
AcDbEntity
  8
0
  6
Continuous
 62
     7
100
AcDbCircle
 10
127.0054336188
 20
272.2348434154
 30
0.0
 40
0.25
100
AcDbArc
 50
0.0
 51
90.0
  0
ARC
  5
FC
330
1F
100
AcDbEntity
  8
RUNDUNGEN
  6
Continuous
 62
     7
100
AcDbCircle
 10
158.9469513034
 20
862.5812845252
 30
0.0
 40
582.7717475102277
100
AcDbArc
 50
263.3122116896058
 51
263.5042170251
  0
ARC
  5
FD
330
1F
100
AcDbEntity
  8
0
  6
Continuous
 62
     7
100
AcDbCircle
 10
231.3115925194
 20
321.7471424445
 30
0.0
 40
113.6878631616
100
AcDbArc
 50
203.7545635969997
 51
204.9733896764294
  0
ARC
  5
FE
330
1F
100
AcDbEntity
  8
RUNDUNGEN
  6
Continuous
 62
     7
100
AcDbCircle
 10
144.6679336188
 20
306.8598434154
 30
0.0
 40
1.0
100
AcDbArc
 50
270.0
 51
0.0
  0
ARC
  5
FF
330
1F
100
AcDbEntity
  8
RUNDUNGEN
  6
Continuous
 62
     7
100
AcDbCircle
 10
146.6679336188
 20
310.8598434154
 30
0.0
 40
1.0
100
AcDbArc
 50
90.0
 51
180.0
  0
ARC
  5
100
330
1F
100
AcDbEntity
  8
RUNDUNGEN
  6
Continuous
 62
     7
100
AcDbCircle
 10
131.1679336188
 20
306.8598434154
 30
0.0
 40
1.000000000000169
100
AcDbArc
 50
186.4285720403086
 51
270.0
  0
ARC
  5
101
330
1F
100
AcDbEntity
  8
RUNDUNGEN
  6
Continuous
 62
     7
100
AcDbCircle
 10
172.1291974331
 20
310.8598434154
 30
0.0
 40
1.000000000082472
100
AcDbArc
 50
64.99999999845384
 51
90.0
  0
ARC
  5
102
330
1F
100
AcDbEntity
  8
RUNDUNGEN
  6
Continuous
 62
     7
100
AcDbCircle
 10
184.2179336188
 20
305.2227731546
 30
0.0
 40
1.0
100
AcDbArc
 50
0.0
 51
64.99999999603419
  0
ARC
  5
103
330
1F
100
AcDbEntity
  8
0
  6
Continuous
 62
     7
100
AcDbCircle
 10
127.0054336188
 20
307.4848434154
 30
0.0
 40
0.25
100
AcDbArc
 50
270.0
 51
0.0
  0
CIRCLE
  5
104
330
1F
100
AcDbEntity
  8
FASEN
  6
Continuous
 62
     7
100
AcDbCircle
 10
104.2179336188
 20
289.8598434154
 30
0.0
 40
2.299999999999997
  0
SPLINE
  5
105
330
1F
100
AcDbEntity
  8
0
  6
Continuous
 62
     2
100
AcDbSpline
210
0.0
220
0.0
230
1.0
 70
     8
 71
     3
 72
   213
 73
   209
 74
   207
 42
0.0000000001
 43
0.0000000001
 44
0.00000001
 40
0.0
 40
0.0
 40
0.0
 40
0.0
 40
0.0005707233707052
 40
0.0021444115811552
 40
0.0047226999925354
 40
0.0083072244307115
 40
0.0128996211851647
 40
0.0185015270077334
 40
0.0251145791105827
 40
0.0327404151652621
 40
0.0413806733009701
 40
0.0510369921029675
 40
0.0617110106113358
 40
0.0734807776432582
 40
0.0862789076197879
 40
0.1001014679439828
 40
0.1149445281364443
 40
0.1308041599564058
 40
0.1476764374918181
 40
0.1655574372283839
 40
0.1844432381056886
 40
0.204329921563226
 40
0.22521357158084
 40
0.2470902747136912
 40
0.2699567119520989
 40
0.2938119356195608
 40
0.318655596062752
 40
0.3444873503125559
 40
0.3713068623296694
 40
0.3991138032077415
 40
0.4279078513422189
 40
0.4576886925721451
 40
0.4884560202999333
 40
0.5202095355932893
 40
0.5529489472726048
 40
0.5866721199893826
 40
0.6213695201654874
 40
0.6570297737815857
 40
0.6936415189184911
 40
0.7311934061036649
 40
0.7696740986516436
 40
0.8090722730010005
 40
0.8493766190487736
 40
0.890575840485014
 40
0.9326586551283897
 40
0.975613795263743
 40
1.01943157515273
 40
1.06410859423592
 40
1.109643039332866
 40
1.156033118137725
 40
1.203277059580026
 40
1.25137311416094
 40
1.300319554268469
 40
1.350114674472827
 40
1.400756791805014
 40
1.452244246019282
 40
1.504575399842161
 40
1.557745138598522
 40
1.611734368335862
 40
1.666520517805777
 40
1.722081039864915
 40
1.778393412357642
 40
1.835435139037791
 40
1.89318375053107
 40
1.95161680534095
 40
2.010711890900372
 40
2.070446624671753
 40
2.130798655298077
 40
2.205373477891194
 40
2.280829338525415
 40
2.357158546147261
 40
2.434353476799338
 40
2.512406574757331
 40
2.591310353670524
 40
2.671057397706049
 40
2.751640362698149
 40
2.833051977303023
 40
2.91527907341203
 40
2.998284665399304
 40
3.082025850996525
 40
3.166459784271962
 40
3.251543679435302
 40
3.337234814789339
 40
3.423490536850865
 40
3.510268264662333
 40
3.597525494318619
 40
3.710361879832529
 40
3.823904331812126
 40
3.938136526423342
 40
4.053042271914877
 40
4.168605512189663
 40
4.28481033046166
 40
4.401640952999736
 40
4.538701606079221
 40
4.676497452884962
 40
4.814933311208139
 40
4.953914161821012
 40
5.093345173330574
 40
5.23313172782292
 40
5.373187888734392
 40
5.513461643440579
 40
5.65390944409617
 40
5.794487763617756
 40
5.935153107949139
 40
6.075862028371474
 40
6.216571108360547
 40
6.357236844761239
 40
6.497815658866276
 40
6.638263926601903
 40
6.778537990872343
 40
6.91859417385911
 40
7.058380370025296
 40
7.197810699742587
 40
7.33679063900069
 40
7.475225450262179
 40
7.613020208084534
 40
7.750079823950912
 40
7.866909658834246
 40
7.983113787531755
 40
8.098676427640639
 40
8.213581653740203
 40
8.327813401136577
 40
8.441355469520273
 40
8.554191526538602
 40
8.641448531281181
 40
8.728226047050688
 40
8.814481554595092
 40
8.900172457595948
 40
8.985256087196985
 40
9.06968970631736
 40
9.153430513773829
 40
9.236435648233723
 40
9.318662192021431
 40
9.400073153353267
 40
9.480655394990885
 40
9.560401685736622
 40
9.63930472158985
 40
9.717357126898227
 40
9.794551455503793
 40
9.870880191884051
 40
9.946335752289578
 40
10.02091048587863
 40
10.08126261894793
 40
10.14099758664102
 40
10.20009300075126
 40
10.25852644188504
 40
10.31627546061399
 40
10.37331757857678
 40
10.42963028953203
 40
10.48519106036561
 40
10.53997733205411
 40
10.5939665205877
 40
10.64713601785378
 40
10.69946670664957
 40
10.75095350280727
 40
10.80159481318005
 40
10.85138902165277
 40
10.90033448938918
 40
10.94842955509361
 40
10.99567253528824
 40
11.04206172460736
 40
11.08759539611158
 40
11.13227180162346
 40
11.17608917208763
 40
11.21904413755401
 40
11.26112698827945
 40
11.30232641903556
 40
11.34263111012793
 40
11.38202972773431
 40
11.42051092424093
 40
11.45806333857722
 40
11.49467559655125
 40
11.53033631118657
 40
11.5650340830633
 40
11.59875750066454
 40
11.63149700248005
 40
11.66325046390842
 40
11.69401761407406
 40
11.72379817434746
 40
11.75259185843245
 40
11.7803983724681
 40
11.80721741514847
 40
11.8330486778638
 40
11.85789184486999
 40
11.88174659349156
 40
11.90461259436705
 40
11.92648891445159
 40
11.94737222672933
 40
11.96725860409166
 40
11.98614411685573
 40
12.00402483280008
 40
12.02089681720438
 40
12.03675613289595
 40
12.05159884030568
 40
12.06542099753668
 40
12.07821866045435
 40
12.08998788280705
 40
12.10066078917066
 40
12.11031602897865
 40
12.11895526685541
 40
12.12658016696949
 40
12.13319239303228
 40
12.1387936082965
 40
12.14338547555452
 40
12.14696965713695
 40
12.14954781491132
 40
12.15112161028005
 40
12.15169270417985
 40
12.15169270417985
 40
12.15169270417985
 40
12.15169270417985
 10
168.717931274
 20
267.8598184851
 30
0.0
 10
168.7177478311221
 20
267.8598688874417
 30
0.0
 10
168.7170585706992
 20
267.8600582670447
 30
0.0
 10
168.7155403942274
 20
267.8604746214648
 30
0.0
 10
168.7130531723763
 20
267.8611558782545
 30
0.0
 10
168.7095950806398
 20
267.8621015675724
 30
0.0
 10
168.7051643526976
 20
267.8633114312827
 30
0.0
 10
168.6997591950224
 20
267.86478511226
 30
0.0
 10
168.6933778248275
 20
267.8665222924574
 30
0.0
 10
168.686018455307
 20
267.8685226392034
 30
0.0
 10
168.6776793011343
 20
267.8707858252124
 30
0.0
 10
168.668358576029
 20
267.873311519719
 30
0.0
 10
168.6580299101924
 20
267.8761060522047
 30
0.0
 10
168.6466891250681
 20
267.8791696742368
 30
0.0
 10
168.6343335584004
 20
267.8825011252693
 30
0.0
 10
168.620986947397
 20
267.8860920793483
 30
0.0
 10
168.6066526069804
 20
267.8899397122026
 30
0.0
 10
168.5913338526977
 20
267.8940412017956
 30
0.0
 10
168.5750339995301
 20
267.8983937239906
 30
0.0
 10
168.5577563623612
 20
267.9029944542768
 30
0.0
 10
168.539504255881
 20
267.9078405674256
 30
0.0
 10
168.520280994783
 20
267.9129292382127
 30
0.0
 10
168.5000898932651
 20
267.9182576396063
 30
0.0
 10
168.4789340763307
 20
267.9238230005386
 30
0.0
 10
168.4568157075781
 20
267.9296227753803
 30
0.0
 10
168.4337354454668
 20
267.9356533467699
 30
0.0
 10
168.409693002418
 20
267.94191137412
 30
0.0
 10
168.3846878979095
 20
267.9483935588381
 30
0.0
 10
168.3587196518937
 20
267.9550966039802
 30
0.0
 10
168.3317877840646
 20
267.9620172116061
 30
0.0
 10
168.3038918140882
 20
267.9691520836276
 30
0.0
 10
168.2750312615434
 20
267.9764979216091
 30
0.0
 10
168.2452056459903
 20
267.9840514270089
 30
0.0
 10
168.2144144868124
 20
267.9918093006607
 30
0.0
 10
168.1826579026645
 20
267.9997680948314
 30
0.0
 10
168.149939005504
 20
268.007923612199
 30
0.0
 10
168.1162642805857
 20
268.0162698766611
 30
0.0
 10
168.081643208948
 20
268.0248001648455
 30
0.0
 10
168.0460858700613
 20
268.033507601897
 30
0.0
 10
168.009602343508
 20
268.0423853133163
 30
0.0
 10
167.9722027087803
 20
268.0514264242908
 30
0.0
 10
167.9338970453481
 20
268.0606240599263
 30
0.0
 10
167.8946954326302
 20
268.0699713451488
 30
0.0
 10
167.8546079500693
 20
268.079461404983
 30
0.0
 10
167.8136446768738
 20
268.089087363602
 30
0.0
 10
167.7718151842856
 20
268.0988424666857
 30
0.0
 10
167.7291264943923
 20
268.1087205335285
 30
0.0
 10
167.6855823610582
 20
268.1187151641128
 30
0.0
 10
167.6411839997889
 20
268.1288205668993
 30
0.0
 10
167.5959321163417
 20
268.1390310647555
 30
0.0
 10
167.5498274167026
 20
268.1493409813485
 30
0.0
 10
167.5028706067776
 20
268.159744640019
 30
0.0
 10
167.4550623924762
 20
268.1702363640844
 30
0.0
 10
167.4064034797032
 20
268.1808104768332
 30
0.0
 10
167.3568945743056
 20
268.1914613012679
 30
0.0
 10
167.3065363823071
 20
268.2021831612049
 30
0.0
 10
167.2553307508157
 20
268.2129701365333
 30
0.0
 10
167.2032852437945
 20
268.223815140956
 30
0.0
 10
167.1504143081798
 20
268.2347098001311
 30
0.0
 10
167.0967380944753
 20
268.2456445127674
 30
0.0
 10
167.0422778962794
 20
268.2566094432188
 30
0.0
 10
166.9870550069644
 20
268.2675947549062
 30
0.0
 10
166.9310907199393
 20
268.2785906115744
 30
0.0
 10
166.8744063286105
 20
268.2895871769599
 30
0.0
 10
166.8170231262588
 20
268.300574614831
 30
0.0
 10
166.7589624065639
 20
268.3115430891619
 30
0.0
 10
166.7002454615887
 20
268.3224827633783
 30
0.0
 10
166.6364257143517
 20
268.3342044089348
 30
0.0
 10
166.5674153810364
 20
268.3466730720177
 30
0.0
 10
166.4931211854879
 20
268.3598485232426
 30
0.0
 10
166.4179236515153
 20
268.3729295098812
 30
0.0
 10
166.3418294552604
 20
268.3859050337619
 30
0.0
 10
166.2648452707219
 20
268.3987640981738
 30
0.0
 10
166.1869777725014
 20
268.4114957061419
 30
0.0
 10
166.108233634868
 20
268.4240888599696
 30
0.0
 10
166.0286195327258
 20
268.4365325648907
 30
0.0
 10
165.9481441061177
 20
268.4488155144257
 30
0.0
 10
165.8668258545866
 20
268.4609250112183
 30
0.0
 10
165.7846954394247
 20
268.4728489433747
 30
0.0
 10
165.7017933394382
 20
268.4845736226202
 30
0.0
 10
165.6181620039563
 20
268.4960850800317
 30
0.0
 10
165.5338438817336
 20
268.5073693438605
 30
0.0
 10
165.4488814212103
 20
268.5184124435386
 30
0.0
 10
165.3633170724365
 20
268.5292004090084
 30
0.0
 10
165.2771932789098
 20
268.5397192692635
 30
0.0
 10
165.1822296759462
 20
268.5509383229989
 30
0.0
 10
165.0783508483445
 20
268.5627290700197
 30
0.0
 10
164.9654728608765
 20
268.5749490458282
 30
0.0
 10
164.8518463967894
 20
268.5866498108566
 30
0.0
 10
164.7374894587648
 20
268.5978173644686
 30
0.0
 10
164.6224200404601
 20
268.6084377077882
 30
0.0
 10
164.5066561303109
 20
268.6184968496741
 30
0.0
 10
164.3836973498879
 20
268.6285116808496
 30
0.0
 10
164.2535046083423
 20
268.6383412498527
 30
0.0
 10
164.1160672089154
 20
268.6478370339794
 30
0.0
 10
163.9779330116897
 20
268.6564929899083
 30
0.0
 10
163.839201733819
 20
268.6642899508122
 30
0.0
 10
163.6999730786299
 20
268.6712087372393
 30
0.0
 10
163.5603439361016
 20
268.6772303172233
 30
0.0
 10
163.4203971894723
 20
268.6823360062135
 30
0.0
 10
163.2801993885826
 20
268.6865214294006
 30
0.0
 10
163.1398029510788
 20
268.6897829847902
 30
0.0
 10
162.9992574830416
 20
268.6921171521269
 30
0.0
 10
162.8586125899525
 20
268.6935204172756
 30
0.0
 10
162.7179178827921
 20
268.6939892648981
 30
0.0
 10
162.5772230457359
 20
268.6935201808932
 30
0.0
 10
162.4365778062291
 20
268.6921166829459
 30
0.0
 10
162.2960318906721
 20
268.6897822888337
 30
0.0
 10
162.1556350343981
 20
268.6865205153172
 30
0.0
 10
162.0154369733419
 20
268.6823348852149
 30
0.0
 10
161.8754902426743
 20
268.6772290027632
 30
0.0
 10
161.7358614476168
 20
268.6712072415679
 30
0.0
 10
161.596633452053
 20
268.6642882873652
 30
0.0
 10
161.4579030643285
 20
268.6564911718367
 30
0.0
 10
161.3197698938236
 20
268.6478350735024
 30
0.0
 10
161.1823335637413
 20
268.6383391582959
 30
0.0
 10
161.0521418048849
 20
268.6285094752383
 30
0.0
 10
160.9291838733124
 20
268.6184945470222
 30
0.0
 10
160.8134206657779
 20
268.6084353185668
 30
0.0
 10
160.6983518607491
 20
268.5978148923144
 30
0.0
 10
160.5839954554068
 20
268.5866472575028
 30
0.0
 10
160.4703694521542
 20
268.5749464110935
 30
0.0
 10
160.3574918624193
 20
268.5627263518112
 30
0.0
 10
160.2536133582877
 20
268.5509355243373
 30
0.0
 10
160.1586500214692
 20
268.5397163925466
 30
0.0
 10
160.0725264555023
 20
268.5291974603435
 30
0.0
 10
159.9869623368345
 20
268.518409425655
 30
0.0
 10
159.9020001240242
 20
268.5073662626273
 30
0.0
 10
159.8176822821825
 20
268.4960819444576
 30
0.0
 10
159.7340512748107
 20
268.4845704448535
 30
0.0
 10
159.6511495657244
 20
268.4728457387051
 30
0.0
 10
159.569019619314
 20
268.460921798074
 30
0.0
 10
159.4877019263946
 20
268.4488123139284
 30
0.0
 10
159.4072271450279
 20
268.4365293984283
 30
0.0
 10
159.3276137536386
 20
268.4240857436872
 30
0.0
 10
159.2488703558915
 20
268.4114926487542
 30
0.0
 10
159.1710035872649
 20
268.3987611004877
 30
0.0
 10
159.094020082601
 20
268.3859020886788
 30
0.0
 10
159.017926477075
 20
268.3729266023968
 30
0.0
 10
158.9427294052592
 20
268.3598456304452
 30
0.0
 10
158.8684355038678
 20
268.3466701630943
 30
0.0
 10
158.7994252762282
 20
268.3342014527785
 30
0.0
 10
158.7356054591119
 20
268.322479731247
 30
0.0
 10
158.6768883066922
 20
268.3115399603789
 30
0.0
 10
158.6188272864391
 20
268.3005713732987
 30
0.0
 10
158.5614437264976
 20
268.289583814055
 30
0.0
 10
158.5047589566295
 20
268.278587126146
 30
0.0
 10
158.4487943061988
 20
268.2675911532768
 30
0.0
 10
158.3935711046934
 20
268.2566057391842
 30
0.0
 10
158.3391106816052
 20
268.2456407275969
 30
0.0
 10
158.2854343663888
 20
268.2347059625682
 30
0.0
 10
158.2325634887252
 20
268.223811287217
 30
0.0
 10
158.1805182307574
 20
268.2129663093918
 30
0.0
 10
158.1293130491067
 20
268.2021794052741
 30
0.0
 10
158.0789554910853
 20
268.1914576570782
 30
0.0
 10
158.0294473651495
 20
268.1808069763359
 30
0.0
 10
157.9807893342335
 20
268.170233029704
 30
0.0
 10
157.9329820610937
 20
268.1597414846569
 30
0.0
 10
157.8860262085451
 20
268.1493380083821
 30
0.0
 10
157.8399224394061
 20
268.1390282680383
 30
0.0
 10
157.794671416493
 20
268.128817930761
 30
0.0
 10
157.7502738027007
 20
268.1187126633591
 30
0.0
 10
157.7067302606958
 20
268.108718133444
 30
0.0
 10
157.6640419672828
 20
268.0988401240384
 30
0.0
 10
157.622212659721
 20
268.0890850318766
 30
0.0
 10
157.5812493701359
 20
268.0794590399416
 30
0.0
 10
157.5411617019463
 20
268.0699689098792
 30
0.0
 10
157.5019597709204
 20
268.0606215258757
 30
0.0
 10
157.4636536930608
 20
268.0514237712625
 30
0.0
 10
157.4262535843463
 20
268.0423825294712
 30
0.0
 10
157.3897695608069
 20
268.0335046837532
 30
0.0
 10
157.3542117384951
 20
268.0247971172786
 30
0.0
 10
157.3195902335528
 20
268.0162667129047
 30
0.0
 10
157.2859151620112
 20
268.0079203538427
 30
0.0
 10
157.2531960383742
 20
267.9997647710586
 30
0.0
 10
157.2214393657784
 20
267.9918059442892
 30
0.0
 10
157.190648255097
 20
267.9840480709213
 30
0.0
 10
157.160822808287
 20
267.9764945949103
 30
0.0
 10
157.1319625249457
 20
267.9691488108627
 30
0.0
 10
157.1040669048461
 20
267.9620140127622
 30
0.0
 10
157.0771354477805
 20
267.9550934944862
 30
0.0
 10
157.0511676536285
 20
267.9483905495634
 30
0.0
 10
157.026163022297
 20
267.9419084713764
 30
0.0
 10
157.0021210539518
 20
267.9356505523101
 30
0.0
 10
156.9790412482836
 20
267.9296200863995
 30
0.0
 10
156.9569232997532
 20
267.9238204101462
 30
0.0
 10
156.935767857972
 20
267.9182551392592
 30
0.0
 10
156.9155770889438
 20
267.912926819426
 30
0.0
 10
156.8963541292108
 20
267.907838224135
 30
0.0
 10
156.8781023063316
 20
267.9029921833234
 30
0.0
 10
156.8608249483611
 20
267.8983915251218
 30
0.0
 10
156.8445253833505
 20
267.8940390776651
 30
0.0
 10
156.829206939544
 20
267.8899376683713
 30
0.0
 10
156.8148729452837
 20
267.8860901242849
 30
0.0
 10
156.8015267294764
 20
267.8824992703538
 30
0.0
 10
156.7891716204058
 20
267.8791679337564
 30
0.0
 10
156.7778315218663
 20
267.8761044847923
 30
0.0
 10
156.7675037404819
 20
267.8733101750865
 30
0.0
 10
156.7581840535395
 20
267.870784742254
 30
0.0
 10
156.7498458813138
 20
267.868521800838
 30
0.0
 10
156.7424874126154
 20
267.8665216757145
 30
0.0
 10
156.7361068372084
 20
267.8647846882799
 30
0.0
 10
156.7307023433764
 20
267.8633111653222
 30
0.0
 10
156.7262721234269
 20
267.8621014189864
 30
0.0
 10
156.7228143589125
 20
267.8611558005488
 30
0.0
 10
156.7203272586311
 20
267.8604745621575
 30
0.0
 10
156.7188089731063
 20
267.8600581679846
 30
0.0
 10
156.7181195604313
 20
267.8598687415115
 30
0.0
 10
156.7179359988
 20
267.8598183052
 30
0.0
 11
168.717931274
 21
267.8598184851
 31
0.0
 11
168.7173809389918
 21
267.8599696689106
 31
0.0
 11
168.715863319901
 21
267.860385994359
 31
0.0
 11
168.7133766309466
 21
267.8610671325067
 31
0.0
 11
168.7099190863475
 21
267.8620127544149
 31
0.0
 11
168.7054889003228
 21
267.8632225311451
 31
0.0
 11
168.7000842870912
 21
267.8646961337585
 31
0.0
 11
168.693703460872
 21
267.8664332333167
 31
0.0
 11
168.686344635884
 21
267.8684335008809
 31
0.0
 11
168.6780060263461
 21
267.8706966075124
 31
0.0
 11
168.6686858464773
 21
267.8732222242728
 31
0.0
 11
168.6583823104967
 21
267.8760100222232
 31
0.0
 11
168.6470198174102
 21
267.8790794141572
 31
0.0
 11
168.6346629731311
 21
267.8824111599997
 31
0.0
 11
168.6213150918495
 21
267.8860024326443
 31
0.0
 11
168.6069794877554
 21
267.889850404985
 31
0.0
 11
168.591659475039
 21
267.8939522499156
 31
0.0
 11
168.5753583678903
 21
267.89830514033
 31
0.0
 11
168.5580794804995
 21
267.9029062491219
 31
0.0
 11
168.5398261270566
 21
267.9077527491852
 31
0.0
 11
168.5206016217517
 21
267.9128418134138
 31
0.0
 11
168.5004092787748
 21
267.9181706147015
 31
0.0
 11
168.4792524123162
 21
267.9237363259419
 31
0.0
 11
168.4571337040557
 21
267.9295360411819
 31
0.0
 11
168.4340533056333
 21
267.9355665390792
 31
0.0
 11
168.410010736179
 21
267.9418245194444
 31
0.0
 11
168.3850055148226
 21
267.9483066820881
 31
0.0
 11
168.359037160694
 21
267.9550097268207
 31
0.0
 11
168.3321051929231
 21
267.9619303534531
 31
0.0
 11
168.3042091306398
 21
267.9690652617958
 31
0.0
 11
168.275348492974
 21
267.9764111516591
 31
0.0
 11
168.2455227990556
 21
267.983964722854
 31
0.0
 11
168.2147315680145
 21
267.9917226751908
 31
0.0
 11
168.1829743189805
 21
267.9996817084802
 31
0.0
 11
168.1502523311813
 21
268.0078379265102
 31
0.0
 11
168.116573923801
 21
268.0161850490866
 31
0.0
 11
168.0819491761171
 21
268.0247161999934
 31
0.0
 11
168.0463881674074
 21
268.0334245030149
 31
0.0
 11
168.0099009769493
 21
268.042303081935
 31
0.0
 11
167.9724976840205
 21
268.0513450605379
 31
0.0
 11
167.9341883678985
 21
268.0605435626076
 31
0.0
 11
167.8949831078608
 21
268.0698917119282
 31
0.0
 11
167.8548919831852
 21
268.0793826322839
 31
0.0
 11
167.8139250731492
 21
268.0890094474587
 31
0.0
 11
167.7720924570304
 21
268.0987652812366
 31
0.0
 11
167.7294026517594
 21
268.1086434571978
 31
0.0
 11
167.6858579254441
 21
268.118638097976
 31
0.0
 11
167.6414589838492
 21
268.1287435259999
 31
0.0
 11
167.5962065327396
 21
268.1389540636986
 31
0.0
 11
167.55010127788
 21
268.1492640335011
 31
0.0
 11
167.503143925035
 21
268.1596677578363
 31
0.0
 11
167.4553351799695
 21
268.1701595591334
 31
0.0
 11
167.4066757484481
 21
268.1807337598212
 31
0.0
 11
167.3571663362357
 21
268.1913846823288
 31
0.0
 11
167.3068076490969
 21
268.2021066490852
 31
0.0
 11
167.2556003927965
 21
268.2128939825192
 31
0.0
 11
167.2035487044456
 21
268.2237403118175
 31
0.0
 11
167.1506704465414
 21
268.2346364931965
 31
0.0
 11
167.0969869129271
 21
268.2455726896298
 31
0.0
 11
167.0425193974463
 21
268.2565390640914
 31
0.0
 11
166.9872891939424
 21
268.2675257795551
 31
0.0
 11
166.9313175962589
 21
268.2785229989947
 31
0.0
 11
166.8746258982391
 21
268.2895208853841
 31
0.0
 11
166.8172353937265
 21
268.3005096016972
 31
0.0
 11
166.7591673765647
 21
268.3114793109078
 31
0.0
 11
166.7004431405969
 21
268.3224201759897
 31
0.0
 11
166.6410839796667
 21
268.3333223599166
 31
0.0
 11
166.567697342713
 21
268.3465815333986
 31
0.0
 11
166.4934007217683
 21
268.3597572314923
 31
0.0
 11
166.4182007916737
 21
268.3728384565857
 31
0.0
 11
166.3421042272702
 21
268.385814211067
 31
0.0
 11
166.2651177033989
 21
268.3986734973245
 31
0.0
 11
166.1872478949008
 21
268.4114053177463
 31
0.0
 11
166.108501476617
 21
268.4239986747206
 31
0.0
 11
166.0288851233887
 21
268.4364425706355
 31
0.0
 11
165.9484055100568
 21
268.4487260078792
 31
0.0
 11
165.8670752742325
 21
268.4608374931423
 31
0.0
 11
165.7849309046065
 21
268.4727635503243
 31
0.0
 11
165.7020148526399
 21
268.4844902076273
 31
0.0
 11
165.6183695697935
 21
268.4960034932535
 31
0.0
 11
165.5340375075282
 21
268.5072894354047
 31
0.0
 11
165.4490611173049
 21
268.5183340622831
 31
0.0
 11
165.3634828505845
 21
268.5291234020906
 31
0.0
 11
165.2773451588278
 21
268.5396434830294
 31
0.0
 11
165.1906904934958
 21
268.5498803333014
 31
0.0
 11
165.0785739983118
 21
268.5626059532663
 31
0.0
 11
164.9656910856388
 21
268.5748262817394
 31
0.0
 11
164.8520597520919
 21
268.5865273210974
 31
0.0
 11
164.7376979942862
 21
268.5976950737164
 31
0.0
 11
164.6226238088369
 21
268.6083155419731
 31
0.0
 11
164.506855192359
 21
268.6183747282436
 31
0.0
 11
164.3904101414677
 21
268.6278586349046
 31
0.0
 11
164.2537385108454
 21
268.6381779374785
 31
0.0
 11
164.1162703968847
 21
268.6476759920684
 31
0.0
 11
163.9781055232544
 21
268.656333622484
 31
0.0
 11
163.8393436136236
 21
268.6641316525344
 31
0.0
 11
163.7000843916609
 21
268.671050906029
 31
0.0
 11
163.5604275810352
 21
268.6770722067772
 31
0.0
 11
163.4204645538195
 21
268.6821789887269
 31
0.0
 11
163.2802532757035
 21
268.6863651263808
 31
0.0
 11
163.1398433607811
 21
268.6896271043802
 31
0.0
 11
162.9992844231461
 21
268.6919614073664
 31
0.0
 11
162.8586260768923
 21
268.6933645199808
 31
0.0
 11
162.7179179361135
 21
268.6938329268646
 31
0.0
 11
162.57720963655
 21
268.6933642848776
 31
0.0
 11
162.4365509005269
 21
268.6919609397536
 31
0.0
 11
162.2959914720156
 21
268.6896264094444
 31
0.0
 11
162.1555810949877
 21
268.6863642119022
 31
0.0
 11
162.0153695134146
 21
268.6821778650793
 31
0.0
 11
161.8754064712678
 21
268.6770708869275
 31
0.0
 11
161.7357500271142
 21
268.6710494049681
 31
0.0
 11
161.5964914960606
 21
268.6641299849165
 31
0.0
 11
161.4577305078102
 21
268.6563318020533
 31
0.0
 11
161.3195666920667
 21
268.647674031659
 31
0.0
 11
161.1820996785334
 21
268.638175849014
 31
0.0
 11
161.0454290969138
 21
268.6278564293989
 31
0.0
 11
160.92898484382
 21
268.6183724302268
 31
0.0
 11
160.8132169270749
 21
268.6083131569507
 31
0.0
 11
160.6981433520405
 21
268.597692605282
 31
0.0
 11
160.5837821240787
 21
268.5865247709321
 31
0.0
 11
160.4701512485515
 21
268.5748236496125
 31
0.0
 11
160.3572687308206
 21
268.5626032370345
 31
0.0
 11
160.2451525762479
 21
268.5498775289096
 31
0.0
 11
160.1584981458875
 21
268.5396406067374
 31
0.0
 11
160.0723606765868
 21
268.5291204534308
 31
0.0
 11
159.9867826348684
 21
268.5183310439289
 31
0.0
 11
159.9018064872554
 21
268.5072863531707
 31
0.0
 11
159.8174747002703
 21
268.4960003560954
 31
0.0
 11
159.7338297404359
 21
268.4844870276418
 31
0.0
 11
159.6509140742751
 21
268.4727603427491
 31
0.0
 11
159.5687701683107
 21
268.4608342763563
 31
0.0
 11
159.4874404890653
 21
268.4487228034023
 31
0.0
 11
159.4069615312101
 21
268.4364394012874
 31
0.0
 11
159.3273459020093
 21
268.4239955572548
 31
0.0
 11
159.2486002368755
 21
268.4114022610092
 31
0.0
 11
159.1707311712211
 21
268.398670502255
 31
0.0
 11
159.0937453404589
 21
268.3858112706967
 31
0.0
 11
159.0176493800012
 21
268.3728355560388
 31
0.0
 11
158.9424499252606
 21
268.3597543479858
 31
0.0
 11
158.8681536116497
 21
268.3465786362423
 31
0.0
 11
158.7947670745811
 21
268.3333194105126
 31
0.0
 11
158.7354078232675
 21
268.3224171515949
 31
0.0
 11
158.6766833677318
 21
268.3114761878653
 31
0.0
 11
158.6186150379008
 21
268.3005063638242
 31
0.0
 11
158.5612241637008
 21
268.2895175239718
 31
0.0
 11
158.5045320750587
 21
268.2785195128085
 31
0.0
 11
158.448560101901
 21
268.2675221748347
 31
0.0
 11
158.3933295741543
 21
268.2565353545507
 31
0.0
 11
158.3388618217452
 21
268.2455688964569
 31
0.0
 11
158.2851781746004
 21
268.2346326450536
 31
0.0
 11
158.2322999626464
 21
268.2237364448412
 31
0.0
 11
158.18024851581
 21
268.2128901403201
 31
0.0
 11
158.1290417193638
 21
268.2021028798912
 31
0.0
 11
158.0786836806392
 21
268.1913810277008
 31
0.0
 11
158.0291750623098
 21
268.1807302517954
 31
0.0
 11
157.9805165270493
 21
268.1701562202214
 31
0.0
 11
157.9327087375314
 21
268.1596646010255
 31
0.0
 11
157.8857523564299
 21
268.1492610622543
 31
0.0
 11
157.8396480464184
 21
268.1389512719543
 31
0.0
 11
157.7943964701706
 21
268.128740898172
 31
0.0
 11
157.7499982903602
 21
268.1186356089541
 31
0.0
 11
157.7064541696609
 21
268.108641072347
 31
0.0
 11
157.6637647707464
 21
268.0987629563974
 31
0.0
 11
157.6219323318178
 21
268.0890071319062
 31
0.0
 11
157.5809653931858
 21
268.0793802806922
 31
0.0
 11
157.5408740706883
 21
268.0698892873284
 31
0.0
 11
157.5016684801634
 21
268.0605410363879
 31
0.0
 11
157.4633587374492
 21
268.0513424124439
 31
0.0
 11
157.4259549583836
 21
268.0423003000695
 31
0.0
 11
157.3894672588047
 21
268.0334215838378
 31
0.0
 11
157.3539057545505
 21
268.0247131483218
 31
0.0
 11
157.3192805614591
 21
268.0161818780948
 31
0.0
 11
157.2856017953684
 21
268.0078346577299
 31
0.0
 11
157.2528795721167
 21
267.9996783718
 31
0.0
 11
157.2211222381259
 21
267.9917193067215
 31
0.0
 11
157.1903310621549
 21
267.9839613562831
 31
0.0
 11
157.1605055435464
 21
267.9764078161163
 31
0.0
 11
157.1316451816434
 21
267.9690619818529
 31
0.0
 11
157.1037494757888
 21
267.9619271491247
 31
0.0
 11
157.0768179253255
 21
267.9550066135633
 31
0.0
 11
157.0508500295961
 21
267.9483036708005
 31
0.0
 11
157.0258452879438
 21
267.941821616468
 31
0.0
 11
157.0018031997114
 21
267.9355637461975
 31
0.0
 11
156.9787232642416
 21
267.9295333556207
 31
0.0
 11
156.9566049808775
 21
267.9237337403694
 31
0.0
 11
156.9354484869966
 21
267.9181681184715
 31
0.0
 11
156.9152564721164
 21
267.9128393975402
 31
0.0
 11
156.8960322637886
 21
267.9077504075848
 31
0.0
 11
156.8777791895653
 21
267.9029039786147
 31
0.0
 11
156.8605005769986
 21
267.8983029406393
 31
0.0
 11
156.8441997536405
 21
267.8939501236679
 31
0.0
 11
156.828880047043
 21
267.8898483577101
 31
0.0
 11
156.8145447847581
 21
267.886000472775
 31
0.0
 11
156.8011972943378
 21
267.8824092988722
 31
0.0
 11
156.7888409033343
 21
267.879077666011
 31
0.0
 11
156.7774789392995
 21
267.8760084042008
 31
0.0
 11
156.7671764810455
 21
267.8732208812556
 31
0.0
 11
156.7578573475957
 21
267.8706955283108
 31
0.0
 11
156.7495197282596
 21
267.8684326684173
 31
0.0
 11
156.7421618123467
 21
267.8664326246257
 31
0.0
 11
156.7357817891665
 21
267.8646957199868
 31
0.0
 11
156.7303778480283
 21
267.8632222775511
 31
0.0
 11
156.7259481782416
 21
267.8620126203697
 31
0.0
 11
156.7224909691161
 21
267.8610670714932
 31
0.0
 11
156.7200044099609
 21
267.8603859539722
 31
0.0
 11
156.7184866900857
 21
267.8599695908576
 31
0.0
 11
156.7179359988
 21
267.8598183052
 31
0.0
  0
SPLINE
  5
106
330
1F
100
AcDbEntity
  8
BEZUGSACHSEN
  6
Continuous
 62
     7
100
AcDbSpline
210
0.0
220
0.0
230
1.0
 70
     8
 71
     3
 72
    15
 73
    11
 74
     9
 42
0.0000000001
 43
0.0000000001
 44
0.00000001
 40
0.0
 40
0.0
 40
0.0
 40
0.0
 40
0.960647704925833
 40
1.921519378063177
 40
2.7383109311991
 40
3.555000523383545
 40
4.107190715972951
 40
4.659355623384066
 40
4.855983959576283
 40
5.052604368526566
 40
5.052604368526566
 40
5.052604368526566
 40
5.052604368526566
 10
117.2179336188
 20
309.2247601465
 30
0.0
 10
116.8976867023633
 20
309.2293748967689
 30
0.0
 10
116.2571182061886
 20
309.2386054732032
 30
0.0
 10
115.3464778364794
 20
309.3087905770384
 30
0.0
 10
114.4875657917192
 20
309.4107205957261
 30
0.0
 10
113.7679551704463
 20
309.5259386900179
 30
0.0
 10
113.139147873577
 20
309.6472676258229
 30
0.0
 10
112.7155147374687
 20
309.7402162955793
 30
0.0
 10
112.4088028268903
 20
309.8126193112088
 30
0.0
 10
112.281555833134
 20
309.8441022588843
 30
0.0
 10
112.2179336188
 20
309.8598434154
 30
0.0
 11
117.2179336188
 21
309.2247601465
 31
0.0
 11
116.2575819418872
 21
309.248606941464
 31
0.0
 11
115.2993348019871
 21
309.3195772952119
 31
0.0
 11
114.4882793569681
 21
309.4162080686706
 31
0.0
 11
113.6818041439073
 21
309.5449699446309
 31
0.0
 11
113.1396090766335
 21
309.6495573139253
 31
0.0
 11
112.6002334469588
 21
309.7677098216828
 31
0.0
 11
112.4088830340866
 21
309.8129615850447
 31
0.0
 11
112.2179336188
 21
309.8598434154
 31
0.0
  0
SPLINE
  5
107
330
1F
100
AcDbEntity
  8
BEZUGSACHSEN
  6
Continuous
 62
     7
100
AcDbSpline
210
0.0
220
0.0
230
1.0
 70
     8
 71
     3
 72
    15
 73
    11
 74
     9
 42
0.0000000001
 43
0.0000000001
 44
0.00000001
 40
0.0
 40
0.0
 40
0.0
 40
0.0
 40
0.1966144690925473
 40
0.3932368665054163
 40
0.9453924839606634
 40
1.497573379391359
 40
2.314268097570501
 40
3.131064801050672
 40
4.091946561135935
 40
5.052604325767312
 40
5.052604325767312
 40
5.052604325767312
 40
5.052604325767312
 10
122.2179336188
 20
309.8598434154
 30
0.0
 10
122.1543133238913
 20
309.8441027450574
 30
0.0
 10
122.0270701686367
 20
309.8126207696423
 30
0.0
 10
121.7203651532341
 20
309.7402192602209
 30
0.0
 10
121.29674008955
 20
309.647271960071
 30
0.0
 10
120.6679373596046
 20
309.5259430474283
 30
0.0
 10
119.9483265168562
 20
309.4107242229964
 30
0.0
 10
119.089407810154
 20
309.3087927805819
 30
0.0
 10
118.1787591028493
 20
309.238605962623
 30
0.0
 10
117.5381838893554
 20
309.2293750598564
 30
0.0
 10
117.2179336188
 20
309.2247601465
 30
0.0
 11
122.2179336188
 21
309.8598434154
 31
0.0
 11
122.0269899684581
 21
309.8129630159706
 31
0.0
 11
121.8356453505588
 21
309.7677125533722
 31
0.0
 11
121.2962788968571
 21
309.649561571537
 31
0.0
 11
120.7540930897821
 21
309.5449752823542
 31
0.0
 11
119.9476129486373
 21
309.4162117601873
 31
0.0
 11
119.1365524710806
 21
309.3195796922104
 31
0.0
 11
118.1782953405556
 21
309.2486076648854
 31
0.0
 11
117.2179336188
 21
309.2247601465
 31
0.0
  0
SPLINE
  5
108
330
1F
100
AcDbEntity
  8
BEZUGSACHSEN
  6
Continuous
 62
     7
100
AcDbSpline
210
0.0
220
0.0
230
1.0
 70
     8
 71
     3
 72
    23
 73
    19
 74
    17
 42
0.0000000001
 43
0.0000000001
 44
0.00000001
 40
0.0
 40
0.0
 40
0.0
 40
0.0
 40
0.1997657180997561
 40
0.3995371550397508
 40
0.9614791544960667
 40
1.523450850490272
 40
2.355605668045805
 40
3.187806722902231
 40
4.166905956511666
 40
5.14602682773804
 40
6.125147709698552
 40
7.104246954173483
 40
7.936448129108228
 40
8.76860306663694
 40
9.330574879953295
 40
9.892516996693546
 40
10.09228851386932
 40
10.29205431213836
 40
10.29205431213836
 40
10.29205431213836
 40
10.29205431213836
 10
157.6179336188
 20
267.8598434154
 30
0.0
 10
157.6828366456436
 20
267.874732680182
 30
0.0
 10
157.8126445573577
 20
267.904511635992
 30
0.0
 10
158.1257354919233
 20
267.9730115495105
 30
0.0
 10
158.5581701196848
 20
268.0608795144537
 30
0.0
 10
159.2000943460552
 20
268.1755075491549
 30
0.0
 10
159.9344004540468
 20
268.2840381812157
 30
0.0
 10
160.8104451583812
 20
268.3805946839062
 30
0.0
 10
161.7387383461843
 20
268.4441261930438
 30
0.0
 10
162.7179332935358
 20
268.4666405606329
 30
0.0
 10
163.6971282450568
 20
268.4441262170373
 30
0.0
 10
164.6254214816328
 20
268.3805947296967
 30
0.0
 10
165.5014662719779
 20
268.2840382435417
 30
0.0
 10
166.2357725005908
 20
268.1755076122014
 30
0.0
 10
166.8776968452707
 20
268.0608795674071
 30
0.0
 10
167.3101315767571
 20
267.9730115857271
 30
0.0
 10
167.6232226020787
 20
267.9045116539189
 30
0.0
 10
167.753030565909
 20
267.8747326861561
 30
0.0
 10
167.8179336188
 20
267.8598434154
 30
0.0
 11
157.6179336188
 21
267.8598434154
 31
0.0
 11
157.812716505387
 21
267.9041826668683
 31
0.0
 11
158.0078554952062
 21
267.9469541722122
 31
0.0
 11
158.5585764342696
 21
268.0586916235441
 31
0.0
 11
159.1118037237296
 21
268.1574425895917
 31
0.0
 11
159.9350396633058
 21
268.2789507299401
 31
0.0
 11
160.7622484728146
 21
268.3699682072466
 31
0.0
 11
161.7390687628649
 21
268.436732196048
 31
0.0
 11
162.7179332900487
 21
268.4591357201523
 31
0.0
 11
163.6967978285254
 21
268.4367322203393
 31
0.0
 11
164.6736181312482
 21
268.3699682576053
 31
0.0
 11
165.5008270627235
 21
268.2789507908738
 31
0.0
 11
166.3240631239082
 21
268.1574426527982
 31
0.0
 11
166.8772905305164
 21
268.0586916753875
 31
0.0
 11
167.4280115856164
 21
267.9469542061302
 31
0.0
 11
167.6231506540074
 21
267.9041826845039
 31
0.0
 11
167.8179336188
 21
267.8598434154
 31
0.0
  0
SPLINE
  5
109
330
1F
100
AcDbEntity
  8
0
  6
Continuous
 62
     7
100
AcDbSpline
210
0.0
220
0.0
230
1.0
 70
     8
 71
     3
 72
    11
 73
     7
 74
     5
 42
0.0000000001
 43
0.0000000001
 44
0.00000001
 40
0.0
 40
0.0
 40
0.0
 40
0.0
 40
0.0543555269957688
 40
0.1087869226258059
 40
0.1632830354045078
 40
0.2176296540731239
 40
0.2176296540731239
 40
0.2176296540731239
 40
0.2176296540731239
 10
90.8793682477
 20
295.8613417202
 30
0.0
 10
90.89424461674096
 20
295.871721546695
 30
0.0
 10
90.92401811903702
 20
295.892495687692
 30
0.0
 10
90.9727726128943
 20
295.9170202133519
 30
0.0
 10
91.02412104512203
 20
295.9358316805539
 30
0.0
 10
91.05999265477419
 20
295.9417303767128
 30
0.0
 10
91.077903825
 20
295.9446756739
 30
0.0
 11
90.8793682477
 21
295.8613417202
 31
0.0
 11
90.92467367546686
 21
295.8913740615981
 31
0.0
 11
90.9731858514765
 21
295.916058988356
 31
0.0
 11
91.02457954395514
 21
295.9341839623256
 31
0.0
 11
91.077903825
 21
295.9446756739
 31
0.0
  0
SPLINE
  5
10A
330
1F
100
AcDbEntity
  8
0
  6
Continuous
 62
     7
100
AcDbSpline
210
0.0
220
0.0
230
1.0
 70
     8
 71
     3
 72
    23
 73
    19
 74
    17
 42
0.0000000001
 43
0.0000000001
 44
0.00000001
 40
0.0
 40
0.0
 40
0.0
 40
0.0
 40
0.0548015920485918
 40
0.109665605685817
 40
0.1578548538913629
 40
0.205994621053471
 40
0.2484971175913102
 40
0.2907975467643485
 40
0.3320753431462375
 40
0.3735180891404655
 40
0.4187669595956519
 40
0.4640702101049771
 40
0.5148888565321967
 40
0.5656834469346217
 40
0.6214947220413535
 40
0.6773144168297742
 40
0.7370934749984456
 40
0.7968569073867509
 40
0.7968569073867509
 40
0.7968569073867509
 40
0.7968569073867509
 10
90.3179336188
 20
295.721789707
 30
0.0
 10
90.31832508676892
 20
295.7400649341452
 30
0.0
 10
90.31910846860715
 20
295.7766362047779
 30
0.0
 10
90.3266016384948
 20
295.8288655565822
 30
0.0
 10
90.33943262368831
 20
295.8777354472714
 30
0.0
 10
90.35845355992916
 20
295.9202466385112
 30
0.0
 10
90.38438436715401
 20
295.9565320935503
 30
0.0
 10
90.41598124093053
 20
295.9849188928965
 30
0.0
 10
90.45358517676812
 20
296.0038567506922
 30
0.0
 10
90.4952343356498
 20
296.0143626514634
 30
0.0
 10
90.5394830292779
 20
296.0161485755209
 30
0.0
 10
90.58637369556347
 20
296.010185378347
 30
0.0
 10
90.63391215147955
 20
295.9979478673256
 30
0.0
 10
90.68311754837185
 20
295.9795101421948
 30
0.0
 10
90.7321197863668
 20
295.9563502028356
 30
0.0
 10
90.78189921596665
 20
295.9282361581763
 30
0.0
 10
90.83116182020156
 20
295.8966943434192
 30
0.0
 10
90.86330083886506
 20
295.873124900994
 30
0.0
 10
90.8793682477
 20
295.8613417202
 30
0.0
 11
90.3179336188
 21
295.721789707
 31
0.0
 11
90.32021234085337
 21
295.7765439024271
 31
0.0
 11
90.32801077830365
 21
295.8308508482602
 31
0.0
 11
90.34069382012407
 21
295.877341106302
 31
0.0
 11
90.36070993978782
 21
295.9211222910282
 31
0.0
 11
90.38560722349298
 21
295.9555691700749
 31
0.0
 11
90.41731166935607
 21
295.9835719274523
 31
0.0
 11
90.45404393189055
 21
296.0024026832322
 31
0.0
 11
90.49418911890687
 21
296.0126917626354
 31
0.0
 11
90.53938465117984
 21
296.0148881551398
 31
0.0
 11
90.58437113122518
 21
296.0095401536587
 31
0.0
 11
90.63364012125868
 21
295.9970861805668
 31
0.0
 11
90.68128631974517
 21
295.9794813464598
 31
0.0
 11
90.73180252184672
 21
295.9557534777339
 31
0.0
 11
90.7804935191061
 21
295.9284583295907
 31
0.0
 11
90.83080542504491
 21
295.8961744649469
 31
0.0
 11
90.8793682477
 21
295.8613417202
 31
0.0
  0
SPLINE
  5
10B
330
1F
100
AcDbEntity
  8
0
  6
Continuous
 62
     7
100
AcDbSpline
210
0.0
220
0.0
230
1.0
 70
     8
 71
     3
 72
    13
 73
     9
 74
     7
 42
0.0000000001
 43
0.0000000001
 44
0.00000001
 40
0.0
 40
0.0
 40
0.0
 40
0.0
 40
0.0161119177226164
 40
0.0323835567034461
 40
0.0565085410143127
 40
0.0807351379466551
 40
0.1049182738307599
 40
0.1290347651581363
 40
0.1290347651581363
 40
0.1290347651581363
 40
0.1290347651581363
 10
127.0054336188
 20
285.8249177655
 30
0.0
 10
127.0108126809827
 20
285.82443546012
 30
0.0
 10
127.0216241292662
 20
285.8234660681522
 30
0.0
 10
127.0391795535927
 20
285.8159774596088
 30
0.0
 10
127.0568007369087
 20
285.8032933534232
 30
0.0
 10
127.0732131998719
 20
285.7854101863946
 30
0.0
 10
127.0877378394704
 20
285.7660418702252
 30
0.0
 10
127.0960398258923
 20
285.7522365507455
 30
0.0
 10
127.1001850915
 20
285.7453434154
 30
0.0
 11
127.0054336188
 21
285.8249177655
 31
0.0
 11
127.0213849283268
 21
285.8226484887254
 31
0.0
 11
127.0364907553907
 21
285.8166003300108
 31
0.0
 11
127.0562144427114
 21
285.8027082089892
 31
0.0
 11
127.0729077685641
 21
285.785150849538
 31
0.0
 11
127.0874075259933
 21
285.7657967518923
 31
0.0
 11
127.1001850915
 21
285.7453434154
 31
0.0
  0
SPLINE
  5
10C
330
1F
100
AcDbEntity
  8
0
  6
Continuous
 62
     7
100
AcDbSpline
210
0.0
220
0.0
230
1.0
 70
     8
 71
     3
 72
    17
 73
    13
 74
    11
 42
0.0000000001
 43
0.0000000001
 44
0.00000001
 40
0.0
 40
0.0
 40
0.0
 40
0.0
 40
0.0161034838953505
 40
0.0322076500598918
 40
0.0442920544701583
 40
0.0563777824306293
 40
0.0684771684155881
 40
0.0805744754842694
 40
0.0926944165991472
 40
0.1048260721620222
 40
0.1170058952911075
 40
0.1291230711433593
 40
0.1291230711433593
 40
0.1291230711433593
 40
0.1291230711433593
 10
125.3356821462
 20
285.7453434154
 30
0.0
 10
125.3384210730887
 20
285.7499609685316
 30
0.0
 10
125.3438990429084
 20
285.7591962704304
 30
0.0
 10
125.3522089546352
 20
285.7714127881187
 30
0.0
 10
125.3603235562245
 20
285.7821136413203
 30
0.0
 10
125.368168195038
 20
285.791322425209
 30
0.0
 10
125.3766032545784
 20
285.8000058744614
 30
0.0
 10
125.3857703698036
 20
285.8079374045369
 30
0.0
 10
125.3957518588377
 20
285.8148684503338
 30
0.0
 10
125.4066283079143
 20
285.8203350984256
 30
0.0
 10
125.4182806711682
 20
285.8241211867941
 30
0.0
 10
125.4263896056032
 20
285.8246526960784
 30
0.0
 10
125.4304336188
 20
285.8249177655
 30
0.0
 11
125.3356821462
 21
285.7453434154
 31
0.0
 11
125.3440400985272
 21
285.7591081103281
 31
0.0
 11
125.3530907090947
 21
285.7724284187408
 31
0.0
 11
125.3604127333978
 21
285.7820419919608
 31
0.0
 11
125.368263055927
 21
285.7912309666872
 31
0.0
 11
125.3767243704731
 21
285.7998797410145
 31
0.0
 11
125.3858986918124
 21
285.8077649592282
 31
0.0
 11
125.3958936697151
 21
285.8146201316807
 31
0.0
 11
125.4067430083422
 21
285.8200486598467
 31
0.0
 11
125.4183854202748
 21
285.8236266950406
 31
0.0
 11
125.4304336188
 21
285.8249177655
 31
0.0
  0
SPLINE
  5
10D
330
1F
100
AcDbEntity
  8
0
  6
Continuous
 62
     7
100
AcDbSpline
210
0.0
220
0.0
230
1.0
 70
     8
 71
     3
 72
    13
 73
     9
 74
     7
 42
0.0000000001
 43
0.0000000001
 44
0.00000001
 40
0.0
 40
0.0
 40
0.0
 40
0.0
 40
0.0161159232353022
 40
0.0323921465319673
 40
0.0565136430011177
 40
0.0807357154080256
 40
0.1049176589799315
 40
0.1290332868841585
 40
0.1290332868841585
 40
0.1290332868841585
 40
0.1290332868841585
 10
125.4304336188
 20
293.8947690653
 30
0.0
 10
125.4250532222803
 20
293.895251965682
 30
0.0
 10
125.4142389121152
 20
293.8962225697055
 30
0.0
 10
125.3966836732758
 20
293.9037162210165
 30
0.0
 10
125.3790639301252
 20
293.9163994698138
 30
0.0
 10
125.3626519999867
 20
293.934279062145
 30
0.0
 10
125.348128685444
 20
293.9536456723423
 30
0.0
 10
125.3398271931206
 20
293.9674504860127
 30
0.0
 10
125.3356821462
 20
293.9743434154
 30
0.0
 11
125.4304336188
 21
293.8947690653
 31
0.0
 11
125.4144785991197
 21
293.8970407009945
 31
0.0
 11
125.3993696973418
 21
293.903093512892
 31
0.0
 11
125.3796495205606
 21
293.9169845610754
 31
0.0
 11
125.3629583641402
 21
293.9345377399623
 31
0.0
 11
125.3484590796075
 21
293.9538907020857
 31
0.0
 11
125.3356821462
 21
293.9743434154
 31
0.0
  0
SPLINE
  5
10E
330
1F
100
AcDbEntity
  8
0
  6
Continuous
 62
     7
100
AcDbSpline
210
0.0
220
0.0
230
1.0
 70
     8
 71
     3
 72
    17
 73
    13
 74
    11
 42
0.0000000001
 43
0.0000000001
 44
0.00000001
 40
0.0
 40
0.0
 40
0.0
 40
0.0
 40
0.0161052166002733
 40
0.0322114216414806
 40
0.0442975720805248
 40
0.0563844320314566
 40
0.0684883750013366
 40
0.0805914434329003
 40
0.0927083311118616
 40
0.1048350425342948
 40
0.1170106597583956
 40
0.1291252293628503
 40
0.1291252293628503
 40
0.1291252293628503
 40
0.1291252293628503
 10
127.1001850915
 20
293.9743434154
 30
0.0
 10
127.0974456116368
 20
293.9697255141182
 30
0.0
 10
127.0919664837777
 20
293.9604894281357
 30
0.0
 10
127.0836550742705
 20
293.9482717815918
 30
0.0
 10
127.0755423781694
 20
293.9375674711454
 30
0.0
 10
127.0676967875834
 20
293.9283560669897
 30
0.0
 10
127.0592540048235
 20
293.9196746023295
 30
0.0
 10
127.0500817680402
 20
293.9117457050721
 30
0.0
 10
127.0401051686166
 20
293.9048096736016
 30
0.0
 10
127.0292348825386
 20
293.8993385191193
 30
0.0
 10
127.0175834615368
 20
293.8955613923379
 30
0.0
 10
127.009476774968
 20
293.8950327314248
 30
0.0
 10
127.0054336188
 20
293.8947690653
 30
0.0
 11
127.1001850915
 21
293.9743434154
 31
0.0
 11
127.0918255114443
 21
293.960577681746
 31
0.0
 11
127.0827739654029
 21
293.9472555439637
 31
0.0
 11
127.0754527368614
 21
293.9376391701628
 31
0.0
 11
127.0676017204253
 21
293.9284492994133
 31
0.0
 11
127.0591334255677
 21
293.919800980639
 31
0.0
 11
127.0499523684055
 21
293.9119147613392
 31
0.0
 11
127.0399625692496
 21
293.9050574382574
 31
0.0
 11
127.0291195688151
 21
293.8996272935537
 31
0.0
 11
127.0174797200009
 21
293.896055238911
 31
0.0
 11
127.0054336188
 21
293.8947690653
 31
0.0
  0
SPLINE
  5
10F
330
1F
100
AcDbEntity
  8
FASEN
  6
Continuous
 62
     7
100
AcDbSpline
210
0.0
220
0.0
230
1.0
 70
     8
 71
     3
 72
    39
 73
    35
 74
    33
 42
0.0000000001
 43
0.0000000001
 44
0.00000001
 40
0.0
 40
0.0
 40
0.0
 40
0.0
 40
0.2848465272383774
 40
0.5699950255357777
 40
0.8548279991940023
 40
1.139573863760444
 40
1.424121623338063
 40
1.708693335924669
 40
1.993142884876929
 40
2.277585056643623
 40
2.562155108731743
 40
2.846728268167929
 40
3.131563712687532
 40
3.416399690438857
 40
3.701411923430363
 40
3.986425214690952
 40
4.271294282681879
 40
4.556162677266811
 40
4.840487507596865
 40
5.124810921837356
 40
5.408342462587594
 40
5.691871377271244
 40
5.974681937579661
 40
6.257491624496204
 40
6.539993734433665
 40
6.822493529542782
 40
7.105252300250203
 40
7.388018966511058
 40
7.671533427468499
 40
7.955027376631399
 40
8.239336777446818
 40
8.523729022453557
 40
8.808808363472869
 40
9.093596288080272
 40
9.093596288080272
 40
9.093596288080272
 40
9.093596288080272
 10
101.3186852073
 20
289.8598434154
 30
0.0
 10
101.3213817878322
 20
289.9548313656245
 30
0.0
 10
101.3267778075913
 20
290.144907964552
 30
0.0
 10
101.3704930451421
 20
290.4271897085757
 30
0.0
 10
101.4397284713175
 20
290.703924883488
 30
0.0
 10
101.5363472004697
 20
290.9722751593793
 30
0.0
 10
101.6589080848156
 20
291.2296578698549
 30
0.0
 10
101.8062340731672
 20
291.4736166043232
 30
0.0
 10
101.9769785646482
 20
291.7017471863315
 30
0.0
 10
102.1693722063757
 20
291.9119430696799
 30
0.0
 10
102.3816516138309
 20
292.102094368901
 30
0.0
 10
102.611676190228
 20
292.270563047419
 30
0.0
 10
102.8572321975384
 20
292.4156307592532
 30
0.0
 10
103.1158965066234
 20
292.5361145528729
 30
0.0
 10
103.3851420669533
 20
292.630787379902
 30
0.0
 10
103.6623028858197
 20
292.6989235684521
 30
0.0
 10
103.9447184936861
 20
292.7398338479712
 30
0.0
 10
104.2295356260109
 20
292.7532673529698
 30
0.0
 10
104.5141309579247
 20
292.7390374762406
 30
0.0
 10
104.7955784145491
 20
292.6974175599287
 30
0.0
 10
105.0713812161707
 20
292.6286659422055
 30
0.0
 10
105.3387225310623
 20
292.5335929185949
 30
0.0
 10
105.5952362038657
 20
292.4128664747934
 30
0.0
 10
105.8384146149271
 20
292.2677918861008
 30
0.0
 10
106.0660083316367
 20
292.0994903219814
 30
0.0
 10
106.2759457093275
 20
291.909643462466
 30
0.0
 10
106.4661213921252
 20
291.6998826365887
 30
0.0
 10
106.6349402809946
 20
291.4721631031663
 30
0.0
 10
106.7805771667442
 20
291.2286707242527
 30
0.0
 10
106.9018072835575
 20
290.9716053587061
 30
0.0
 10
106.9973857758185
 20
290.7035747977422
 30
0.0
 10
107.0659038823862
 20
290.4269912341665
 30
0.0
 10
107.1091300136348
 20
290.1448410028475
 30
0.0
 10
107.1144989399915
 20
289.9548102188252
 30
0.0
 10
107.1171820304
 20
289.8598434154
 30
0.0
 11
101.3186852073
 21
289.8598434154
 31
0.0
 11
101.3327069290139
 21
290.1443446199668
 31
0.0
 11
101.374769335034
 21
290.426373732083
 31
0.0
 11
101.444310214016
 21
290.7025872166079
 31
0.0
 11
101.54070162234
 21
290.9705217306015
 31
0.0
 11
101.6630394383694
 21
291.2274281070304
 31
0.0
 11
101.8101632707243
 21
291.4710171822322
 31
0.0
 11
101.9805878561205
 21
291.6987604732238
 31
0.0
 11
102.1726512814314
 21
291.908567502985
 31
0.0
 11
102.3845911278144
 21
292.0984664657535
 31
0.0
 11
102.6141794057731
 21
292.2666066028281
 31
0.0
 11
102.8593952747225
 21
292.4115217782587
 31
0.0
 11
103.1175964671813
 21
292.5317868123891
 31
0.0
 11
103.3864594229459
 21
292.6263631517787
 31
0.0
 11
103.6632337365782
 21
292.6943966399193
 31
0.0
 11
103.9451571623871
 21
292.7352569859551
 31
0.0
 11
104.2297102430017
 21
292.7486564839359
 31
0.0
 11
104.5136806562159
 21
292.7344644593728
 31
0.0
 11
104.7949400553705
 21
292.6928356920052
 31
0.0
 11
105.0700523623622
 21
292.6242546950606
 31
0.0
 11
105.3371765039462
 21
292.5292108186418
 31
0.0
 11
105.5930648257224
 21
292.4087825005414
 31
0.0
 11
105.8359169196908
 21
292.2638543132588
 31
0.0
 11
106.0630693780936
 21
292.0958983584353
 31
0.0
 11
106.2725806045521
 21
291.9063959040329
 31
0.0
 11
106.4625255169988
 21
291.6969359970159
 31
0.0
 11
106.6309154371957
 21
291.4697756520515
 31
0.0
 11
106.7764724127849
 21
291.2264782693501
 31
0.0
 11
106.8974098537862
 21
290.9700743798007
 31
0.0
 11
106.9928419800562
 21
290.702259995072
 31
0.0
 11
107.0616374498183
 21
290.42631410842
 31
0.0
 11
107.1032720684219
 21
290.1442914334278
 31
0.0
 11
107.1171820304
 21
289.8598434154
 31
0.0
  0
SPLINE
  5
110
330
1F
100
AcDbEntity
  8
RUNDUNGEN
  6
Continuous
 62
     7
100
AcDbSpline
210
0.0
220
0.0
230
1.0
 70
     8
 71
     3
 72
    11
 73
     7
 74
     5
 42
0.0000000001
 43
0.0000000001
 44
0.00000001
 40
0.0
 40
0.0
 40
0.0
 40
0.0
 40
0.4603595733316352
 40
0.9207200991328872
 40
1.381081114601544
 40
1.841440560245361
 40
1.841440560245361
 40
1.841440560245361
 40
1.841440560245361
 10
130.1729461816
 20
289.86008083
 30
0.0
 10
130.1728067833445
 20
289.7066276264472
 30
0.0
 10
130.1725279865452
 20
289.3997209018519
 30
0.0
 10
130.1708290289035
 20
288.9393633170196
 30
0.0
 10
130.1686115604392
 20
288.47900798069
 30
0.0
 10
130.1681595990895
 20
288.1721012534716
 30
0.0
 10
130.1679336188
 20
288.0186481515
 30
0.0
 11
130.1729461816
 21
289.86008083
 31
0.0
 11
130.1723145270662
 21
289.3997216900119
 31
0.0
 11
130.1707426110183
 21
288.9393638478978
 31
0.0
 11
130.1688681464546
 21
288.4790066485993
 31
0.0
 11
130.1679336188
 21
288.0186481515
 31
0.0
  0
SPLINE
  5
111
330
1F
100
AcDbEntity
  8
RUNDUNGEN
  6
Continuous
 62
     7
100
AcDbSpline
210
0.0
220
0.0
230
1.0
 70
     8
 71
     3
 72
    11
 73
     7
 74
     5
 42
0.0000000001
 43
0.0000000001
 44
0.00000001
 40
0.0
 40
0.0
 40
0.0
 40
0.0
 40
0.4602407390000143
 40
0.9204830467549305
 40
1.380724865099077
 40
1.840965731549288
 40
1.840965731549288
 40
1.840965731549288
 40
1.840965731549288
 10
130.1679336188
 20
291.7010386794
 30
0.0
 10
130.1681594902619
 20
291.5476251462375
 30
0.0
 10
130.1686112339555
 20
291.2407975569942
 30
0.0
 10
130.1708279276082
 20
290.7805609255988
 30
0.0
 10
130.1725269289544
 20
290.320322049816
 30
0.0
 10
130.1728064308145
 20
290.0134944641727
 30
0.0
 10
130.1729461816
 20
289.86008083
 30
0.0
 11
130.1679336188
 21
291.7010386794
 31
0.0
 11
130.168867745251
 21
291.2407988883747
 31
0.0
 11
130.1707416461422
 21
290.7805603954789
 31
0.0
 11
130.1723136384566
 21
290.3203212617746
 31
0.0
 11
130.1729461816
 21
289.86008083
 31
0.0
  0
SPLINE
  5
112
330
1F
100
AcDbEntity
  8
FASEN
  6
Continuous
 62
     7
100
AcDbSpline
210
0.0
220
0.0
230
1.0
 70
     8
 71
     3
 72
    39
 73
    35
 74
    33
 42
0.0000000001
 43
0.0000000001
 44
0.00000001
 40
0.0
 40
0.0
 40
0.0
 40
0.0
 40
0.284786106633208
 40
0.5698668870766579
 40
0.8542588888002209
 40
1.138565866085002
 40
1.422059508549727
 40
1.705574316226811
 40
1.988341250744334
 40
2.271100210867079
 40
2.553600174603474
 40
2.836102358074502
 40
3.118912373411534
 40
3.401723417954142
 40
3.685252285736205
 40
3.968783633774044
 40
4.253107110630445
 40
4.537432086618142
 40
4.822300428835434
 40
5.107169447748472
 40
5.39218298105761
 40
5.67719537089459
 40
5.962031114253326
 40
6.246866460398819
 40
6.531439742183275
 40
6.816009783004636
 40
7.10045180743437
 40
7.384901200429807
 40
7.669472595201453
 40
7.954020693340573
 40
8.23876889384827
 40
8.523601787808465
 40
8.808748198995676
 40
9.093596299754427
 40
9.093596299754427
 40
9.093596299754427
 40
9.093596299754427
 10
107.1171820304
 20
289.8598434154
 30
0.0
 10
107.1145104780887
 20
289.7648765295112
 30
0.0
 10
107.1091646091582
 20
289.5748444936208
 30
0.0
 10
107.0659073726022
 20
289.2926978823873
 30
0.0
 10
106.9973841556106
 20
289.0161171543398
 30
0.0
 10
106.9018071548829
 20
288.7480870208686
 30
0.0
 10
106.7805795539974
 20
288.4910214114791
 30
0.0
 10
106.6349446398106
 20
288.2475276957227
 30
0.0
 10
106.4661266770437
 20
288.0198071066907
 30
0.0
 10
106.2759515920499
 20
287.8100454664605
 30
0.0
 10
106.0660150909238
 20
287.6201974338711
 30
0.0
 10
105.8384217038075
 20
287.4518950224394
 30
0.0
 10
105.5952425615535
 20
287.3068209998357
 30
0.0
 10
105.338728295913
 20
287.1860953049098
 30
0.0
 10
105.0713871907958
 20
287.0910215786412
 30
0.0
 10
104.7955846641829
 20
287.022269002171
 30
0.0
 10
104.5141371510079
 20
286.9806492189405
 30
0.0
 10
104.2295417499723
 20
286.9664198081109
 30
0.0
 10
103.944724620044
 20
286.9798533519355
 30
0.0
 10
103.6623089250758
 20
287.0207632347298
 30
0.0
 10
103.3851477798021
 20
287.0888985493409
 30
0.0
 10
103.1159019346235
 20
287.1835708296584
 30
0.0
 10
102.85723789962
 20
287.3040551346475
 30
0.0
 10
102.6116821963061
 20
287.4491231470575
 30
0.0
 10
102.3816569937834
 20
287.6175909144166
 30
0.0
 10
102.1693768089654
 20
287.8077413829103
 30
0.0
 10
101.9769834220036
 20
288.0179373925779
 30
0.0
 10
101.8062388150762
 20
288.2460675494946
 30
0.0
 10
101.6589105160814
 20
288.4900247518842
 30
0.0
 10
101.5363464187791
 20
288.7474068834763
 30
0.0
 10
101.4397260791883
 20
289.0157574074956
 30
0.0
 10
101.3704965981647
 20
289.2924954225668
 30
0.0
 10
101.3268162569104
 20
289.5747808366939
 30
0.0
 10
101.321394611352
 20
289.7648557148162
 30
0.0
 10
101.3186852073
 20
289.8598434154
 30
0.0
 11
107.1171820304
 21
289.8598434154
 31
0.0
 11
107.1032958087565
 21
289.5753960575642
 31
0.0
 11
107.0616451269653
 21
289.2933742993884
 31
0.0
 11
106.9928412317734
 21
289.0174307641303
 31
0.0
 11
106.8974101868454
 21
288.7496185668786
 31
0.0
 11
106.7764748774948
 21
288.49321401101
 31
0.0
 11
106.6309196224638
 21
288.2499151949318
 31
0.0
 11
106.4625307245724
 21
288.0227537582323
 31
0.0
 11
106.2725865214481
 21
287.8132929522824
 31
0.0
 11
106.0630760281555
 21
287.6237894359264
 31
0.0
 11
105.8359239175077
 21
287.4558328870985
 31
0.0
 11
105.5930712455067
 21
287.3109050275375
 31
0.0
 11
105.3371822117508
 21
287.1904770851042
 31
0.0
 11
105.0700582794142
 21
287.0954327605033
 31
0.0
 11
104.794946343791
 21
287.026851070543
 31
0.0
 11
104.5136868824139
 21
286.9852222959084
 31
0.0
 11
104.2297163066411
 21
286.9710306058877
 31
0.0
 11
103.9451632801273
 21
286.9844301394422
 31
0.0
 11
103.6632398427212
 21
287.025290063299
 31
0.0
 11
103.3864651061447
 21
287.0933228448267
 31
0.0
 11
103.1176018497736
 21
287.1878988023112
 31
0.0
 11
102.8594010194712
 21
287.3081640588313
 31
0.0
 11
102.6141853289718
 21
287.4530793428655
 31
0.0
 11
102.3845964463973
 21
287.6212188614321
 31
0.0
 11
102.1726560124945
 21
287.8111171516039
 31
0.0
 11
101.9805926391357
 21
288.020924029174
 31
0.0
 11
101.8101676303798
 21
288.2486668085677
 31
0.0
 11
101.6630418835053
 21
288.4922543561331
 31
0.0
 11
101.5407013775278
 21
288.7491598265921
 31
0.0
 11
101.4443088175781
 21
289.0170964087878
 31
0.0
 11
101.3747775502782
 21
289.2933122308354
 31
0.0
 11
101.3327332634683
 21
289.5753419345185
 31
0.0
 11
101.3186852073
 21
289.8598434154
 31
0.0
  0
SPLINE
  5
113
330
1F
100
AcDbEntity
  8
0
  6
Continuous
 62
     7
100
AcDbSpline
210
0.0
220
0.0
230
1.0
 70
     8
 71
     3
 72
    15
 73
    11
 74
     9
 42
0.0000000001
 43
0.0000000001
 44
0.00000001
 40
0.0
 40
0.0
 40
0.0
 40
0.0
 40
0.0373413956087219
 40
0.0747477270508846
 40
0.1085660838708318
 40
0.1423474448620347
 40
0.173205548884525
 40
0.2040723662267902
 40
0.2333590819659916
 40
0.2625565343390585
 40
0.2625565343390585
 40
0.2625565343390585
 40
0.2625565343390585
 10
125.3356821462
 20
293.9743434154
 30
0.0
 10
125.324037600399
 20
293.9787944928842
 30
0.0
 10
125.300728259198
 20
293.9877043881746
 30
0.0
 10
125.2695455057204
 20
294.0064405515287
 30
0.0
 10
125.2421948548312
 20
294.0284363605742
 30
0.0
 10
125.2199364841823
 20
294.0527463238095
 30
0.0
 10
125.2022564863851
 20
294.0793828364048
 30
0.0
 10
125.1897737621339
 20
294.1071562930919
 30
0.0
 10
125.1819316616595
 20
294.1361085734579
 30
0.0
 10
125.1809324580642
 20
294.1556241899344
 30
0.0
 10
125.1804336188
 20
294.165367105
 30
0.0
 11
125.3356821462
 21
293.9743434154
 31
0.0
 11
125.3012077153159
 21
293.9886924028633
 31
0.0
 11
125.2690405916402
 21
294.0077845422509
 31
0.0
 11
125.2427671665639
 21
294.0290774610917
 31
0.0
 11
125.2199986018693
 21
294.0540328775813
 31
0.0
 11
125.2029980252459
 21
294.0797856051714
 31
0.0
 11
125.1903392883347
 21
294.1079372799467
 31
0.0
 11
125.1829604337489
 21
294.1362791963214
 31
0.0
 11
125.1804336188
 21
294.165367105
 31
0.0
  0
SPLINE
  5
114
330
1F
100
AcDbEntity
  8
0
  6
Continuous
 62
     7
100
AcDbSpline
210
0.0
220
0.0
230
1.0
 70
     8
 71
     3
 72
    15
 73
    11
 74
     9
 42
0.0000000001
 43
0.0000000001
 44
0.00000001
 40
0.0
 40
0.0
 40
0.0
 40
0.0
 40
0.029197157230107
 40
0.0584835575031716
 40
0.0893488989878139
 40
0.1202055470322267
 40
0.1539855680319976
 40
0.1878025724151423
 40
0.2252119881885355
 40
0.2625564688745687
 40
0.2625564688745687
 40
0.2625564688745687
 40
0.2625564688745687
 10
125.1804336188
 20
285.5543197258
 30
0.0
 10
125.1809324351693
 20
285.5640625422318
 30
0.0
 10
125.1819315925732
 20
285.5835779546586
 30
0.0
 10
125.1897733794354
 20
285.61252959642
 30
0.0
 10
125.2022555808174
 20
285.6403020930885
 30
0.0
 10
125.2199345340962
 20
285.6669375618424
 30
0.0
 10
125.242191462464
 20
285.691246942021
 30
0.0
 10
125.2695416249668
 20
285.7132435508752
 30
0.0
 10
125.3007254132907
 20
285.7319812069778
 30
0.0
 10
125.3240366516779
 20
285.7408919260292
 30
0.0
 10
125.3356821462
 20
285.7453434154
 30
0.0
 11
125.1804336188
 21
285.5543197258
 31
0.0
 11
125.1829603426164
 21
285.5834073461405
 31
0.0
 11
125.1903390242708
 21
285.6117489815555
 31
0.0
 11
125.2029970534471
 21
285.6398993563725
 31
0.0
 11
125.2199965709046
 21
285.6656510385457
 31
0.0
 11
125.2427637458304
 21
285.6906059091052
 31
0.0
 11
125.2690355693616
 21
285.7118986560815
 31
0.0
 11
125.3012049603883
 21
285.7309930183247
 31
0.0
 11
125.3356821462
 21
285.7453434154
 31
0.0
  0
SPLINE
  5
115
330
1F
100
AcDbEntity
  8
0
  6
Continuous
 62
     7
100
AcDbSpline
210
0.0
220
0.0
230
1.0
 70
     8
 71
     3
 72
    15
 73
    11
 74
     9
 42
0.0000000001
 43
0.0000000001
 44
0.00000001
 40
0.0
 40
0.0
 40
0.0
 40
0.0
 40
0.0373441319478034
 40
0.0747531397256488
 40
0.1085741033837496
 40
0.142358238138272
 40
0.173217819854783
 40
0.2040858641064817
 40
0.2333658259886094
 40
0.2625567185101914
 40
0.2625567185101914
 40
0.2625567185101914
 40
0.2625567185101914
 10
127.1001850915
 20
285.7453434154
 30
0.0
 10
127.1118304883542
 20
285.7408920003188
 30
0.0
 10
127.1351415129463
 20
285.731981436967
 30
0.0
 10
127.1663263188256
 20
285.7132433737688
 30
0.0
 10
127.1936781292703
 20
285.6912446568073
 30
0.0
 10
127.2159368458296
 20
285.6669319254277
 30
0.0
 10
127.2336171326789
 20
285.6402934410941
 30
0.0
 10
127.2460981728316
 20
285.6125205932667
 30
0.0
 10
127.2539366832609
 20
285.5835716153349
 30
0.0
 10
127.2549351472777
 20
285.5640604484461
 30
0.0
 10
127.2554336188
 20
285.5543197258
 30
0.0
 11
127.1001850915
 21
285.7453434154
 31
0.0
 11
127.1346619994913
 21
285.7309932583871
 31
0.0
 11
127.1668310780871
 21
285.7118991691127
 31
0.0
 11
127.1931056746419
 21
285.6906035555116
 31
0.0
 11
127.2158749961462
 21
285.6656450748018
 31
0.0
 11
127.2328755276437
 21
285.6398905468014
 31
0.0
 11
127.2455333354607
 21
285.6117371090505
 31
0.0
 11
127.2529084204261
 21
285.5834011903329
 31
0.0
 11
127.2554336188
 21
285.5543197258
 31
0.0
  0
SPLINE
  5
116
330
1F
100
AcDbEntity
  8
RUNDUNGEN
  6
Continuous
 62
     7
100
AcDbSpline
210
0.0
220
0.0
230
1.0
 70
     8
 71
     3
 72
    11
 73
     7
 74
     5
 42
0.0000000001
 43
0.0000000001
 44
0.00000001
 40
0.0
 40
0.0
 40
0.0
 40
0.0
 40
0.2840740418063251
 40
0.5685904708416342
 40
0.8564162982235715
 40
1.143349105218549
 40
1.143349105218549
 40
1.143349105218549
 40
1.143349105218549
 10
93.6106543153
 20
295.7648434154
 30
0.0
 10
93.65411294408408
 20
295.6805998998349
 30
0.0
 10
93.74109787957958
 20
295.5119816766565
 30
0.0
 10
93.83693377261652
 20
295.2424036357433
 30
0.0
 10
93.90418183841652
 20
294.9626190878385
 30
0.0
 10
93.91335444259241
 20
294.7708641337318
 30
0.0
 10
93.9179336188
 20
294.6751356245
 30
0.0
 11
93.6106543153
 21
295.7648434154
 31
0.0
 11
93.73519985219077
 21
295.5095270029452
 31
0.0
 11
93.83180526142203
 21
295.2419134881552
 31
0.0
 11
93.89527168500335
 21
294.9611721125336
 31
0.0
 11
93.9179336188
 21
294.6751356245
 31
0.0
  0
SPLINE
  5
117
330
1F
100
AcDbEntity
  8
RUNDUNGEN
  6
Continuous
 62
     7
100
AcDbSpline
210
0.0
220
0.0
230
1.0
 70
     8
 71
     3
 72
    17
 73
    13
 74
    11
 42
0.0000000001
 43
0.0000000001
 44
0.00000001
 40
0.0
 40
0.0
 40
0.0
 40
0.0
 40
0.0498866573081177
 40
0.0998344447018225
 40
0.1492040596464164
 40
0.1985685184071936
 40
0.2944064656723234
 40
0.390551504022701
 40
0.4839722008511879
 40
0.5773295178033098
 40
0.6695303450430393
 40
0.7616858722587074
 40
0.7616858722587074
 40
0.7616858722587074
 40
0.7616858722587074
 10
93.0179336188
 20
296.1688629234
 30
0.0
 10
93.0345261741946
 20
296.1702010540329
 30
0.0
 10
93.06773161716046
 20
296.1728789550162
 30
0.0
 10
93.11753077335955
 20
296.1697636333693
 30
0.0
 10
93.16647507246805
 20
296.1614766544735
 30
0.0
 10
93.22895598370256
 20
296.1436234507104
 30
0.0
 10
93.30244812680002
 20
296.1096337248695
 30
0.0
 10
93.38106056749501
 20
296.0554044799542
 30
0.0
 10
93.45052445376466
 20
295.9912170747854
 30
0.0
 10
93.51097204110059
 20
295.9203555971635
 30
0.0
 10
93.56471243530942
 20
295.8447966487115
 30
0.0
 10
93.59534286413839
 20
295.7914901270128
 30
0.0
 10
93.6106543153
 20
295.7648434154
 30
0.0
 11
93.0179336188
 21
296.1688629234
 31
0.0
 11
93.06774021022323
 21
296.1716881717389
 31
0.0
 11
93.11760876821963
 21
296.1688759859543
 31
0.0
 11
93.1662775928456
 21
296.1605871748632
 31
0.0
 11
93.2137536396569
 21
296.1470640551079
 31
0.0
 11
93.30096409385375
 21
296.1073242914603
 31
0.0
 11
93.38035192883585
 21
296.0530892469203
 31
0.0
 11
93.44919206994399
 21
295.9899349789083
 31
0.0
 11
93.51013460191673
 21
295.9192130132594
 31
0.0
 11
93.5634594855675
 21
295.8439969955017
 31
0.0
 11
93.6106543153
 21
295.7648434154
 31
0.0
  0
SPLINE
  5
118
330
1F
100
AcDbEntity
  8
RUNDUNGEN
  6
Continuous
 62
     7
100
AcDbSpline
210
0.0
220
0.0
230
1.0
 70
     8
 71
     3
 72
    11
 73
     7
 74
     5
 42
0.0000000001
 43
0.0000000001
 44
0.00000001
 40
0.0
 40
0.0
 40
0.0
 40
0.0
 40
0.2869328097640805
 40
0.5747586398637184
 40
0.8592750661898373
 40
1.14334910536494
 40
1.14334910536494
 40
1.14334910536494
 40
1.14334910536494
 10
93.9179336188
 20
285.0445512063
 30
0.0
 10
93.91335444259317
 20
284.9488226961434
 30
0.0
 10
93.90418183841979
 20
284.7570677402043
 30
0.0
 10
93.83693377234728
 20
284.4772831913598
 30
0.0
 10
93.7410978786078
 20
284.2077051516338
 30
0.0
 10
93.65411294376408
 20
284.0390869301362
 30
0.0
 10
93.6106543153
 20
283.9548434154
 30
0.0
 11
93.9179336188
 21
285.0445512063
 31
0.0
 11
93.89527168488696
 21
284.7585147154978
 31
0.0
 11
93.83180526047694
 21
284.4777733372773
 31
0.0
 11
93.73519985140786
 21
284.2101598253091
 31
0.0
 11
93.6106543153
 21
283.9548434154
 31
0.0
  0
SPLINE
  5
119
330
1F
100
AcDbEntity
  8
RUNDUNGEN
  6
Continuous
 62
     7
100
AcDbSpline
210
0.0
220
0.0
230
1.0
 70
     8
 71
     3
 72
    17
 73
    13
 74
    11
 42
0.0000000001
 43
0.0000000001
 44
0.00000001
 40
0.0
 40
0.0
 40
0.0
 40
0.0
 40
0.0921565574496642
 40
0.1843584530320757
 40
0.2777172409520713
 40
0.3711392571867614
 40
0.4672851119760625
 40
0.563124213243492
 40
0.6124865682299265
 40
0.6618539014432436
 40
0.7118003920475516
 40
0.7616858912527552
 40
0.7616858912527552
 40
0.7616858912527552
 40
0.7616858912527552
 10
93.6106543153
 20
283.9548434154
 30
0.0
 10
93.59534268223538
 20
283.9281964113932
 30
0.0
 10
93.56471188326341
 20
283.8748892938902
 30
0.0
 10
93.51097063499921
 20
283.7993294852549
 30
0.0
 10
93.45052198353176
 20
283.7284672158064
 30
0.0
 10
93.38105667494384
 20
283.6642795170233
 30
0.0
 10
93.30244233829575
 20
283.610051034303
 30
0.0
 10
93.22895000725455
 20
283.5760621018838
 30
0.0
 10
93.16647043251562
 20
283.5582082801346
 30
0.0
 10
93.11752802399639
 20
283.5499211468814
 30
0.0
 10
93.06773034240487
 20
283.5468073445289
 30
0.0
 10
93.03452576466191
 20
283.5494855985275
 30
0.0
 10
93.0179336188
 20
283.5508239074
 30
0.0
 11
93.6106543153
 21
283.9548434154
 31
0.0
 11
93.56345890429905
 21
283.8756889824134
 31
0.0
 11
93.51013325382898
 21
283.8004721987083
 31
0.0
 11
93.44918949422794
 21
283.7297493491646
 31
0.0
 11
93.38034782225377
 21
283.6665947981239
 31
0.0
 11
93.30095850924813
 21
283.6123604697547
 31
0.0
 11
93.21374675204623
 21
283.5726207825704
 31
0.0
 11
93.16627286929507
 21
283.5590977449555
 31
0.0
 11
93.11760632855082
 21
283.5508091141528
 31
0.0
 11
93.06773901091931
 21
283.5479979656465
 31
0.0
 11
93.0179336188
 21
283.5508239074
 31
0.0
  0
SPLINE
  5
11A
330
1F
100
AcDbEntity
  8
0
  6
Continuous
 62
     7
100
AcDbSpline
210
0.0
220
0.0
230
1.0
 70
     8
 71
     3
 72
    15
 73
    11
 74
     9
 42
0.0000000001
 43
0.0000000001
 44
0.00000001
 40
0.0
 40
0.0
 40
0.0
 40
0.0
 40
0.0291928827200324
 40
0.0584749030397674
 40
0.0893472907756748
 40
0.1202111503903422
 40
0.1539964536190381
 40
0.1878186151010021
 40
0.2252201505946463
 40
0.2625568083653679
 40
0.2625568083653679
 40
0.2625568083653679
 40
0.2625568083653679
 10
127.2554336188
 20
294.165367105
 30
0.0
 10
127.2549350385378
 20
294.1556257171077
 30
0.0
 10
127.2539363556475
 20
294.1361131969519
 30
0.0
 10
127.2460963979711
 20
294.1071616786818
 30
0.0
 10
127.2336132663507
 20
294.0793858451948
 30
0.0
 10
127.2159300603275
 20
294.0527453054115
 30
0.0
 10
127.1936682776404
 20
294.0284323425607
 30
0.0
 10
127.1663162777049
 20
294.0064365718126
 30
0.0
 10
127.135134608559
 20
293.9877024281626
 30
0.0
 10
127.1118281866782
 20
293.9787938419058
 30
0.0
 10
127.1001850915
 20
293.9743434154
 30
0.0
 11
127.2554336188
 21
294.165367105
 31
0.0
 11
127.2529079464462
 21
294.136283683938
 31
0.0
 11
127.2455317649379
 21
294.1079459236108
 31
0.0
 11
127.2328714747095
 21
294.0797888396736
 31
0.0
 11
127.2158674891937
 21
294.0540314658382
 31
0.0
 11
127.1930958342805
 21
294.0290735322946
 31
0.0
 11
127.1668188744803
 21
294.0077789322521
 31
0.0
 11
127.1346553114952
 21
293.9886901901933
 31
0.0
 11
127.1001850915
 21
293.9743434154
 31
0.0
  0
SPLINE
  5
11B
330
1F
100
AcDbEntity
  8
0
  6
Continuous
 62
     7
100
AcDbSpline
210
0.0
220
0.0
230
1.0
 70
     8
 71
     3
 72
    23
 73
    19
 74
    17
 42
0.0000000001
 43
0.0000000001
 44
0.00000001
 40
0.0
 40
0.0
 40
0.0
 40
0.0
 40
0.0597635021357991
 40
0.1195426311014026
 40
0.1753624599498429
 40
0.2311738662216521
 40
0.2819685060235352
 40
0.3327872069185098
 40
0.3780904631953004
 40
0.4233393317092968
 40
0.4647820467613037
 40
0.5060598178674683
 40
0.5483601944874734
 40
0.590862636815916
 40
0.6390023298434168
 40
0.6871915007939328
 40
0.7420554294720384
 40
0.7968569386242099
 40
0.7968569386242099
 40
0.7968569386242099
 40
0.7968569386242099
 10
90.8793682477
 20
283.8583451106
 30
0.0
 10
90.86330081973114
 20
283.8465619165553
 30
0.0
 10
90.83116176251752
 20
283.8229924474222
 30
0.0
 10
90.78189907977392
 20
283.7914505856482
 30
0.0
 10
90.73211955471696
 20
283.7633364820096
 30
0.0
 10
90.68311721380174
 20
283.7401765122768
 30
0.0
 10
90.63391172279384
 20
283.7217388120932
 30
0.0
 10
90.58637321571894
 20
283.7095013539184
 30
0.0
 10
90.53948252471412
 20
283.7035382000271
 30
0.0
 10
90.49523383921209
 20
283.7053241907122
 30
0.0
 10
90.45358472709052
 20
283.7158302090265
 30
0.0
 10
90.41598088544018
 20
283.7347681705824
 30
0.0
 10
90.38438412154794
 20
283.763155022088
 30
0.0
 10
90.35845342344152
 20
283.7994404773668
 30
0.0
 10
90.33943255330868
 20
283.8419516191303
 30
0.0
 10
90.32660160117766
 20
283.8908214366912
 30
0.0
 10
90.31910846136388
 20
283.9430507098709
 30
0.0
 10
90.31832508436008
 20
283.9796219244418
 30
0.0
 10
90.3179336188
 20
283.9978971239
 30
0.0
 11
90.8793682477
 21
283.8583451106
 31
0.0
 11
90.8308053671836
 21
283.8235123268541
 31
0.0
 11
90.78049340110397
 21
283.7912284248426
 31
0.0
 11
90.73180228687067
 21
283.7639332112075
 31
0.0
 11
90.68128595691076
 21
283.740205306171
 31
0.0
 11
90.63363969452283
 21
283.7226005024782
 31
0.0
 11
90.58437063654807
 21
283.7101465759113
 31
0.0
 11
90.53938414473774
 21
283.7047986245391
 31
0.0
 11
90.49418861809608
 21
283.7069950929272
 31
0.0
 11
90.45404348936924
 21
283.7172842751293
 31
0.0
 11
90.4173113072517
 21
283.7361151323688
 31
0.0
 11
90.38560697477863
 21
283.7641179387394
 31
0.0
 11
90.36070978934774
 21
283.7985648219294
 31
0.0
 11
90.3406937429062
 21
283.8423459586167
 31
0.0
 11
90.32801073907702
 21
283.8888361469446
 31
0.0
 11
90.32021232968525
 21
283.9431430109763
 31
0.0
 11
90.3179336188
 21
283.9978971239
 31
0.0
  0
SPLINE
  5
11C
330
1F
100
AcDbEntity
  8
0
  6
Continuous
 62
     7
100
AcDbSpline
210
0.0
220
0.0
230
1.0
 70
     8
 71
     3
 72
    19
 73
    15
 74
    13
 42
0.0000000001
 43
0.0000000001
 44
0.00000001
 40
0.0
 40
0.0
 40
0.0
 40
0.0
 40
0.0290936470254768
 40
0.0582617353347882
 40
0.0873904532798883
 40
0.1165074752693851
 40
0.1456047855226417
 40
0.1747042911561644
 40
0.2037980858290783
 40
0.2328996448652402
 40
0.2909367193188552
 40
0.349121170601568
 40
0.4072902895556409
 40
0.4653266166016443
 40
0.4653266166016443
 40
0.4653266166016443
 40
0.4653266166016443
 10
127.0054336188
 20
277.1528325553
 30
0.0
 10
127.0151403331218
 20
277.1523722820734
 30
0.0
 10
127.0345785981249
 20
277.1514505579291
 30
0.0
 10
127.0630132472086
 20
277.1443519182695
 30
0.0
 10
127.090095889665
 20
277.1333987666032
 30
0.0
 10
127.1153708859758
 20
277.1187604435128
 30
0.0
 10
127.1385847707511
 20
277.101093818647
 30
0.0
 10
127.1596196540912
 20
277.0809070302595
 30
0.0
 10
127.1784542941841
 20
277.0586627380354
 30
0.0
 10
127.2006105699559
 20
277.0268252229375
 30
0.0
 10
127.2230758873845
 20
276.9836312036923
 30
0.0
 10
127.2417404711799
 20
276.9284191669309
 30
0.0
 10
127.2533153269302
 20
276.8711975985848
 30
0.0
 10
127.2547280596359
 20
276.832435484267
 30
0.0
 10
127.2554336188
 20
276.8130765745
 30
0.0
 11
127.0054336188
 21
277.1528325553
 31
0.0
 11
127.0344337275982
 21
277.150501463938
 31
0.0
 11
127.0627990676595
 21
277.1437055196455
 31
0.0
 11
127.0898016870481
 21
277.1327812002032
 31
0.0
 11
127.1150342186286
 21
277.1182512201765
 31
0.0
 11
127.1382220575801
 21
277.1006734618231
 31
0.0
 11
127.1592541010641
 21
277.0805629080016
 31
0.0
 11
127.1780869814988
 21
277.0583869863071
 31
0.0
 11
127.1947446776345
 21
277.0345244236244
 31
0.0
 11
127.2216746943162
 21
276.9831135666712
 31
0.0
 11
127.240559240773
 21
276.9280789932088
 31
0.0
 11
127.2517454836386
 21
276.8709955948303
 31
0.0
 11
127.2554336188
 21
276.8130765745
 31
0.0
  0
SPLINE
  5
11D
330
1F
100
AcDbEntity
  8
0
  6
Continuous
 62
     7
100
AcDbSpline
210
0.0
220
0.0
230
1.0
 70
     8
 71
     3
 72
    19
 73
    15
 74
    13
 42
0.0000000001
 43
0.0000000001
 44
0.00000001
 40
0.0
 40
0.0
 40
0.0
 40
0.0
 40
0.0580397028460138
 40
0.1162122440612639
 40
0.1743901949367473
 40
0.2324205838725375
 40
0.2615164359096235
 40
0.2906047871387656
 40
0.3197019405833857
 40
0.3487963879377832
 40
0.3779163313777782
 40
0.4070487871373709
 40
0.4362246475909006
 40
0.4653253928460856
 40
0.4653253928460856
 40
0.4653253928460856
 40
0.4653253928460856
 10
125.1804336188
 20
276.8130765745
 30
0.0
 10
125.1811392868785
 20
276.8324366119075
 30
0.0
 10
125.1825522381335
 20
276.8712009970079
 30
0.0
 10
125.1941280896726
 20
276.9284225118001
 30
0.0
 10
125.2127923028682
 20
276.9836311734741
 30
0.0
 10
125.2352544457896
 20
277.0268196569257
 30
0.0
 10
125.2574065965944
 20
277.0586527621717
 30
0.0
 10
125.2762367920874
 20
277.080894814525
 30
0.0
 10
125.297266229696
 20
277.1010820756304
 30
0.0
 10
125.3204777146201
 20
277.1187508087851
 30
0.0
 10
125.3457547293092
 20
277.133388532393
 30
0.0
 10
125.3728419950302
 20
277.1443423620895
 30
0.0
 10
125.4012813030091
 20
277.1514479188661
 30
0.0
 10
125.4207245339391
 20
277.1523714065963
 30
0.0
 10
125.4304336188
 20
277.1528325553
 30
0.0
 11
125.1804336188
 21
276.8130765745
 31
0.0
 11
125.1841222999233
 21
276.8709989427011
 31
0.0
 11
125.1953100987424
 21
276.928085523515
 31
0.0
 11
125.2141932004155
 21
276.9831137202806
 31
0.0
 11
125.2411198398702
 21
277.0345187990931
 31
0.0
 11
125.257773621116
 21
277.0583771346591
 31
0.0
 11
125.2766013659229
 21
277.0805502761306
 31
0.0
 11
125.2976292210964
 21
277.1006618062907
 31
0.0
 11
125.3208132282357
 21
277.1182398801278
 31
0.0
 11
125.3460485932881
 21
277.132770793954
 31
0.0
 11
125.3730546802442
 21
277.1436965088461
 31
0.0
 11
125.4014266595113
 21
277.150498098783
 31
0.0
 11
125.4304336188
 21
277.1528325553
 31
0.0
  0
SPLINE
  5
11E
330
1F
100
AcDbEntity
  8
0
  6
Continuous
 62
     7
100
AcDbSpline
210
0.0
220
0.0
230
1.0
 70
     8
 71
     3
 72
    11
 73
     7
 74
     5
 42
0.0000000001
 43
0.0000000001
 44
0.00000001
 40
0.0
 40
0.0
 40
0.0
 40
0.0
 40
0.0543309618953
 40
0.1088117188013591
 40
0.1632583666232835
 40
0.217628825361858
 40
0.217628825361858
 40
0.217628825361858
 40
0.217628825361858
 10
91.077903825
 20
283.7750111569
 30
0.0
 10
91.05999784508904
 20
283.7779558185158
 30
0.0
 10
91.02413651698133
 20
283.783853260426
 30
0.0
 10
90.97279309245688
 20
283.8026622741962
 30
0.0
 10
90.92403158669549
 20
283.8271839907374
 30
0.0
 10
90.89424907655194
 20
283.8479629201516
 30
0.0
 10
90.8793682477
 20
283.8583451106
 30
0.0
 11
91.077903825
 21
283.7750111569
 31
0.0
 11
91.02459498909995
 21
283.7855002672269
 31
0.0
 11
90.9732152733481
 21
283.8036187021018
 31
0.0
 11
90.92468748230054
 21
283.8283065727084
 31
0.0
 11
90.8793682477
 21
283.8583451106
 31
0.0
  0
SPLINE
  5
11F
330
1F
100
AcDbEntity
  8
0
  6
Continuous
 62
     7
100
AcDbSpline
210
0.0
220
0.0
230
1.0
 70
     8
 71
     3
 72
    11
 73
     7
 74
     5
 42
0.0000000001
 43
0.0000000001
 44
0.00000001
 40
0.0
 40
0.0
 40
0.0
 40
0.0
 40
0.3498700337919174
 40
0.6997119067891668
 40
0.9156479954966672
 40
1.131263567891968
 40
1.131263567891968
 40
1.131263567891968
 40
1.131263567891968
 10
90.9342517694
 20
283.9548434154
 30
0.0
 10
90.98909134329504
 20
284.05792680884
 30
0.0
 10
91.09876607708617
 20
284.2640852986096
 30
0.0
 10
91.19983452540978
 20
284.5532970672868
 30
0.0
 10
91.2575051115274
 20
284.8082293611914
 30
0.0
 10
91.2644591713181
 20
284.9521758059938
 30
0.0
 10
91.2679336188
 20
285.0240955734
 30
0.0
 11
90.9342517694
 21
283.9548434154
 31
0.0
 11
91.09065955635452
 21
284.267806104431
 31
0.0
 11
91.20670315054845
 21
284.5978412849024
 31
0.0
 11
91.25129538828554
 21
284.8091229138716
 31
0.0
 11
91.2679336188
 21
285.0240955734
 31
0.0
  0
SPLINE
  5
120
330
1F
100
AcDbEntity
  8
0
  6
Continuous
 62
     7
100
AcDbSpline
210
0.0
220
0.0
230
1.0
 70
     8
 71
     3
 72
    11
 73
     7
 74
     5
 42
0.0000000001
 43
0.0000000001
 44
0.00000001
 40
0.0
 40
0.0
 40
0.0
 40
0.0
 40
0.3030455532288726
 40
0.6062117027754652
 40
0.8687239931776658
 40
1.131137294135621
 40
1.131137294135621
 40
1.131137294135621
 40
1.131137294135621
 10
91.2679336188
 20
294.6955912574
 30
0.0
 10
91.26109797171905
 20
294.7966794619022
 30
0.0
 10
91.24742395732629
 20
294.9988960987372
 30
0.0
 10
91.1630992583928
 20
295.277832894428
 30
0.0
 10
91.05928742905397
 20
295.5338389343311
 30
0.0
 10
90.97592508251508
 20
295.6878516028465
 30
0.0
 10
90.9342517694
 20
295.7648434154
 30
0.0
 11
91.2679336188
 21
294.6955912574
 31
0.0
 11
91.23613883913993
 21
294.9969642809409
 31
0.0
 11
91.15455574581446
 21
295.2889470083655
 31
0.0
 11
91.0548843017106
 21
295.531801503573
 31
0.0
 11
90.9342517694
 21
295.7648434154
 31
0.0
  0
DIMENSION
  5
12B
330
1F
100
AcDbEntity
  8
1
100
AcDbDimension
  2
*D2
 10
197.202594813114
 20
296.8598434154
 30
0.0
 11
193.452594813114
 21
289.242209848317
 31
0.0
 70
    32
  1
<>
 71
     5
 42
-1.0
 53
90.0
  3
ME10_DIM_10
100
AcDbAlignedDimension
 13
185.2179336188
 23
282.8598434154
 33
0.0
 14
185.2179336188
 24
296.8598434154
 34
0.0
 50
90.0
100
AcDbRotatedDimension
  0
DIMENSION
  5
136
330
1F
100
AcDbEntity
  8
1
100
AcDbDimension
  2
*D3
 10
205.334255015724
 20
311.8598434154
 30
0.0
 11
201.584255015724
 21
290.371607098679
 31
0.0
 70
    32
  1
<>
 71
     5
 42
-1.0
 53
90.0
  3
ME10_DIM_11
100
AcDbAlignedDimension
 13
172.1291974331
 23
267.8598434154
 33
0.0
 14
172.1291974331
 24
311.8598434154
 34
0.0
 50
90.0
100
AcDbRotatedDimension
  0
DIMENSION
  5
141
330
1F
100
AcDbEntity
  8
1
100
AcDbDimension
  2
*D4
 10
185.2179336188
 20
321.919436958803
 30
0.0
 11
157.824277350478
 21
325.669436958803
 31
0.0
 70
    32
  1
<>
 71
     5
 42
-1.0
 53
0.00013888888889
  3
ME10_DIM_12
100
AcDbAlignedDimension
 13
130.1679336188
 23
309.859810162
 33
0.0
 14
185.2179336188
 24
305.2227731546
 34
0.0
100
AcDbRotatedDimension
  0
DIMENSION
  5
14C
330
1F
100
AcDbEntity
  8
1
100
AcDbDimension
  2
*D5
 10
185.2179336188
 20
331.105201261751
 30
0.0
 11
148.186754147385
 21
334.855201261751
 31
0.0
 70
    32
  1
<>
 71
     5
 42
-1.0
 53
0.00013888888889
  3
ME10_DIM_13
100
AcDbAlignedDimension
 13
110.2179336188
 23
309.8598434154
 33
0.0
 14
185.2179336188
 24
305.2227731546
 34
0.0
100
AcDbRotatedDimension
  0
DIMENSION
  5
157
330
1F
100
AcDbEntity
  8
1
100
AcDbDimension
  2
*D6
 10
185.2179336188
 20
339.010982014288
 30
0.0
 11
140.808025445017
 21
342.760982014288
 31
0.0
 70
    32
  1
<>
 71
     5
 42
-1.0
 53
0.00013888888889
  3
ME10_DIM_14
100
AcDbAlignedDimension
 13
90.3179336188
 23
303.30583004
 33
0.0
 14
185.2179336188
 24
305.2227731546
 34
0.0
100
AcDbRotatedDimension
  0
INSERT
  5
15E
330
1F
100
AcDbEntity
  8
1
100
AcDbBlockReference
  2
*D7
 10
0.0
 20
0.0
 30
0.0
  0
ENDSEC
  0
SECTION
  2
OBJECTS
  0
DICTIONARY
  5
C
330
0
100
AcDbDictionary
281
     1
  3
ACAD_GROUP
350
D
  3
ACAD_LAYOUT
350
1A
  3
ACAD_MLEADERSTYLE
350
161
  3
ACAD_MLINESTYLE
350
17
  3
ACAD_PLOTSETTINGS
350
19
  3
ACAD_PLOTSTYLENAME
350
E
  3
ACAD_SCALELIST
350
4B
  3
ACAD_VISUALSTYLE
350
2A
  3
AcDbVariableDictionary
350
15F
  0
DICTIONARY
  5
D
102
{ACAD_REACTORS
330
C
102
}
330
C
100
AcDbDictionary
281
     1
  0
DICTIONARY
  5
1A
102
{ACAD_REACTORS
330
C
102
}
330
C
100
AcDbDictionary
281
     1
  3
Layout1
350
1E
  3
Layout2
350
26
  3
Model
350
22
  0
DICTIONARY
  5
161
102
{ACAD_REACTORS
330
C
102
}
330
C
100
AcDbDictionary
281
     1
  0
DICTIONARY
  5
17
102
{ACAD_REACTORS
330
C
102
}
330
C
100
AcDbDictionary
281
     1
  3
Standard
350
18
  0
DICTIONARY
  5
19
102
{ACAD_REACTORS
330
C
102
}
330
C
100
AcDbDictionary
281
     1
  0
ACDBDICTIONARYWDFLT
  5
E
102
{ACAD_REACTORS
330
C
102
}
330
C
100
AcDbDictionary
281
     1
  3
Normal
350
F
100
AcDbDictionaryWithDefault
340
F
  0
DICTIONARY
  5
4B
102
{ACAD_REACTORS
330
C
102
}
330
C
100
AcDbDictionary
281
     1
  3
A0
350
4C
  3
A1
350
4D
  3
A2
350
4E
  3
A3
350
4F
  3
A4
350
50
  3
A5
350
51
  3
A6
350
52
  3
A7
350
53
  3
A8
350
54
  3
A9
350
55
  3
B0
350
56
  3
B1
350
57
  3
B2
350
58
  3
B3
350
59
  3
B4
350
5A
  3
B5
350
5B
  3
B6
350
5C
  3
B7
350
5D
  3
B8
350
5E
  3
B9
350
5F
  3
C0
350
60
  3
C1
350
61
  3
C2
350
62
  3
C3
350
63
  3
C4
350
64
  3
C5
350
65
  3
C6
350
66
  3
C7
350
67
  3
C8
350
68
  3
C9
350
69
  3
D0
350
6A
  3
D1
350
6B
  3
D2
350
6C
  0
DICTIONARY
  5
2A
102
{ACAD_REACTORS
330
C
102
}
330
C
100
AcDbDictionary
281
     1
  3
2dWireframe
350
2F
  3
3D Hidden
350
31
  3
3dWireframe
350
30
  3
Basic
350
32
  3
Brighten
350
36
  3
ColorChange
350
3A
  3
Conceptual
350
34
  3
Dim
350
35
  3
Facepattern
350
39
  3
Flat
350
2B
  3
FlatWithEdges
350
2C
  3
Gouraud
350
2D
  3
GouraudWithEdges
350
2E
  3
Linepattern
350
38
  3
Realistic
350
33
  3
Thicken
350
37
  0
DICTIONARY
  5
15F
102
{ACAD_REACTORS
330
C
102
}
330
C
100
AcDbDictionary
281
     1
  3
CANNOSCALE
350
162
  0
LAYOUT
  5
1E
102
{ACAD_REACTORS
330
1A
102
}
330
1A
100
AcDbPlotSettings
  1

  2
none_device
  4

  6

 40
0.0
 41
0.0
 42
0.0
 43
0.0
 44
0.0
 45
0.0
 46
0.0
 47
0.0
 48
0.0
 49
0.0
140
0.0
141
0.0
142
1.0
143
1.0
 70
   688
 72
     0
 73
     0
 74
     5
  7

 75
    16
147
1.0
148
0.0
149
0.0
100
AcDbLayout
  1
Layout1
 70
     1
 71
     1
 10
0.0
 20
0.0
 11
12.0
 21
9.0
 12
0.0
 22
0.0
 32
0.0
 14
1.00000000000000E+20
 24
1.00000000000000E+20
 34
1.00000000000000E+20
 15
-1.00000000000000E+20
 25
-1.00000000000000E+20
 35
-1.00000000000000E+20
146
0.0
 13
0.0
 23
0.0
 33
0.0
 16
1.0
 26
0.0
 36
0.0
 17
0.0
 27
1.0
 37
0.0
 76
     0
330
1B
  0
LAYOUT
  5
26
102
{ACAD_REACTORS
330
1A
102
}
330
1A
100
AcDbPlotSettings
  1

  2
none_device
  4

  6

 40
0.0
 41
0.0
 42
0.0
 43
0.0
 44
0.0
 45
0.0
 46
0.0
 47
0.0
 48
0.0
 49
0.0
140
0.0
141
0.0
142
1.0
143
1.0
 70
   688
 72
     0
 73
     0
 74
     5
  7

 75
    16
147
1.0
148
0.0
149
0.0
100
AcDbLayout
  1
Layout2
 70
     1
 71
     2
 10
0.0
 20
0.0
 11
0.0
 21
0.0
 12
0.0
 22
0.0
 32
0.0
 14
0.0
 24
0.0
 34
0.0
 15
0.0
 25
0.0
 35
0.0
146
0.0
 13
0.0
 23
0.0
 33
0.0
 16
1.0
 26
0.0
 36
0.0
 17
0.0
 27
1.0
 37
0.0
 76
     0
330
23
  0
LAYOUT
  5
22
102
{ACAD_REACTORS
330
1A
102
}
330
1A
100
AcDbPlotSettings
  1

  2
none_device
  4

  6

 40
0.0
 41
0.0
 42
0.0
 43
0.0
 44
0.0
 45
0.0
 46
0.0
 47
0.0
 48
0.0
 49
0.0
140
0.0
141
0.0
142
1.0
143
1.0
 70
  1712
 72
     0
 73
     0
 74
     0
  7

 75
     0
147
1.0
148
0.0
149
0.0
100
AcDbLayout
  1
Model
 70
     1
 71
     0
 10
0.0
 20
0.0
 11
12.0
 21
9.0
 12
0.0
 22
0.0
 32
0.0
 14
87.1929336188
 24
248.0656220864557
 34
0.0
 15
207.334255015724
 25
344.510982014288
 35
0.0
146
0.0
 13
0.0
 23
0.0
 33
0.0
 16
1.0
 26
0.0
 36
0.0
 17
0.0
 27
1.0
 37
0.0
 76
     0
330
1F
331
29
  0
MLINESTYLE
  5
18
102
{ACAD_REACTORS
330
17
102
}
330
17
100
AcDbMlineStyle
  2
Standard
 70
     0
  3

 62
   256
 51
90.0
 52
90.0
 71
     2
 49
0.5
 62
   256
  6
BYLAYER
 49
-0.5
 62
   256
  6
BYLAYER
  0
ACDBPLACEHOLDER
  5
F
102
{ACAD_REACTORS
330
E
102
}
330
E
  0
SCALE
  5
4C
102
{ACAD_REACTORS
330
4B
102
}
330
4B
100
AcDbScale
 70
     0
300
1:1
140
1.0
141
1.0
290
     1
  0
SCALE
  5
4D
102
{ACAD_REACTORS
330
4B
102
}
330
4B
100
AcDbScale
 70
     0
300
1:2
140
1.0
141
2.0
290
     0
  0
SCALE
  5
4E
102
{ACAD_REACTORS
330
4B
102
}
330
4B
100
AcDbScale
 70
     0
300
1:4
140
1.0
141
4.0
290
     0
  0
SCALE
  5
4F
102
{ACAD_REACTORS
330
4B
102
}
330
4B
100
AcDbScale
 70
     0
300
1:5
140
1.0
141
5.0
290
     0
  0
SCALE
  5
50
102
{ACAD_REACTORS
330
4B
102
}
330
4B
100
AcDbScale
 70
     0
300
1:8
140
1.0
141
8.0
290
     0
  0
SCALE
  5
51
102
{ACAD_REACTORS
330
4B
102
}
330
4B
100
AcDbScale
 70
     0
300
1:10
140
1.0
141
10.0
290
     0
  0
SCALE
  5
52
102
{ACAD_REACTORS
330
4B
102
}
330
4B
100
AcDbScale
 70
     0
300
1:16
140
1.0
141
16.0
290
     0
  0
SCALE
  5
53
102
{ACAD_REACTORS
330
4B
102
}
330
4B
100
AcDbScale
 70
     0
300
1:20
140
1.0
141
20.0
290
     0
  0
SCALE
  5
54
102
{ACAD_REACTORS
330
4B
102
}
330
4B
100
AcDbScale
 70
     0
300
1:30
140
1.0
141
30.0
290
     0
  0
SCALE
  5
55
102
{ACAD_REACTORS
330
4B
102
}
330
4B
100
AcDbScale
 70
     0
300
1:40
140
1.0
141
40.0
290
     0
  0
SCALE
  5
56
102
{ACAD_REACTORS
330
4B
102
}
330
4B
100
AcDbScale
 70
     0
300
1:50
140
1.0
141
50.0
290
     0
  0
SCALE
  5
57
102
{ACAD_REACTORS
330
4B
102
}
330
4B
100
AcDbScale
 70
     0
300
1:100
140
1.0
141
100.0
290
     0
  0
SCALE
  5
58
102
{ACAD_REACTORS
330
4B
102
}
330
4B
100
AcDbScale
 70
     0
300
2:1
140
2.0
141
1.0
290
     0
  0
SCALE
  5
59
102
{ACAD_REACTORS
330
4B
102
}
330
4B
100
AcDbScale
 70
     0
300
4:1
140
4.0
141
1.0
290
     0
  0
SCALE
  5
5A
102
{ACAD_REACTORS
330
4B
102
}
330
4B
100
AcDbScale
 70
     0
300
8:1
140
8.0
141
1.0
290
     0
  0
SCALE
  5
5B
102
{ACAD_REACTORS
330
4B
102
}
330
4B
100
AcDbScale
 70
     0
300
10:1
140
10.0
141
1.0
290
     0
  0
SCALE
  5
5C
102
{ACAD_REACTORS
330
4B
102
}
330
4B
100
AcDbScale
 70
     0
300
100:1
140
100.0
141
1.0
290
     0
  0
SCALE
  5
5D
102
{ACAD_REACTORS
330
4B
102
}
330
4B
100
AcDbScale
 70
     0
300
1/128" = 1'-0"
140
0.0078125
141
12.0
290
     0
  0
SCALE
  5
5E
102
{ACAD_REACTORS
330
4B
102
}
330
4B
100
AcDbScale
 70
     0
300
1/64" = 1'-0"
140
0.015625
141
12.0
290
     0
  0
SCALE
  5
5F
102
{ACAD_REACTORS
330
4B
102
}
330
4B
100
AcDbScale
 70
     0
300
1/32" = 1'-0"
140
0.03125
141
12.0
290
     0
  0
SCALE
  5
60
102
{ACAD_REACTORS
330
4B
102
}
330
4B
100
AcDbScale
 70
     0
300
1/16" = 1'-0"
140
0.0625
141
12.0
290
     0
  0
SCALE
  5
61
102
{ACAD_REACTORS
330
4B
102
}
330
4B
100
AcDbScale
 70
     0
300
3/32" = 1'-0"
140
0.09375
141
12.0
290
     0
  0
SCALE
  5
62
102
{ACAD_REACTORS
330
4B
102
}
330
4B
100
AcDbScale
 70
     0
300
1/8" = 1'-0"
140
0.125
141
12.0
290
     0
  0
SCALE
  5
63
102
{ACAD_REACTORS
330
4B
102
}
330
4B
100
AcDbScale
 70
     0
300
3/16" = 1'-0"
140
0.1875
141
12.0
290
     0
  0
SCALE
  5
64
102
{ACAD_REACTORS
330
4B
102
}
330
4B
100
AcDbScale
 70
     0
300
1/4" = 1'-0"
140
0.25
141
12.0
290
     0
  0
SCALE
  5
65
102
{ACAD_REACTORS
330
4B
102
}
330
4B
100
AcDbScale
 70
     0
300
3/8" = 1'-0"
140
0.375
141
12.0
290
     0
  0
SCALE
  5
66
102
{ACAD_REACTORS
330
4B
102
}
330
4B
100
AcDbScale
 70
     0
300
1/2" = 1'-0"
140
0.5
141
12.0
290
     0
  0
SCALE
  5
67
102
{ACAD_REACTORS
330
4B
102
}
330
4B
100
AcDbScale
 70
     0
300
3/4" = 1'-0"
140
0.75
141
12.0
290
     0
  0
SCALE
  5
68
102
{ACAD_REACTORS
330
4B
102
}
330
4B
100
AcDbScale
 70
     0
300
1" = 1'-0"
140
1.0
141
12.0
290
     0
  0
SCALE
  5
69
102
{ACAD_REACTORS
330
4B
102
}
330
4B
100
AcDbScale
 70
     0
300
1-1/2" = 1'-0"
140
1.5
141
12.0
290
     0
  0
SCALE
  5
6A
102
{ACAD_REACTORS
330
4B
102
}
330
4B
100
AcDbScale
 70
     0
300
3" = 1'-0"
140
3.0
141
12.0
290
     0
  0
SCALE
  5
6B
102
{ACAD_REACTORS
330
4B
102
}
330
4B
100
AcDbScale
 70
     0
300
6" = 1'-0"
140
6.0
141
12.0
290
     0
  0
SCALE
  5
6C
102
{ACAD_REACTORS
330
4B
102
}
330
4B
100
AcDbScale
 70
     0
300
1'-0" = 1'-0"
140
12.0
141
12.0
290
     0
  0
VISUALSTYLE
  5
2F
102
{ACAD_REACTORS
330
2A
102
}
330
2A
100
AcDbVisualStyle
  2
2dWireframe
 70
     4
 71
     0
 72
     2
 73
     0
 90
        0
 40
-0.6
 41
-30.0
 62
     5
 63
     7
 74
     1
 91
        4
 64
     7
 65
   257
 75
     1
175
     1
 42
1.0
 92
        0
 66
   257
 43
1.0
 76
     1
 77
     6
 78
     2
 67
     7
 79
     5
170
     0
171
     0
290
     0
174
     0
 93
        1
 44
0.0
173
     0
291
     0
 45
0.0
1001
ACAD
1000
AcDbSavedByObjectVersion
1070
     0
  0
VISUALSTYLE
  5
31
102
{ACAD_REACTORS
330
2A
102
}
330
2A
100
AcDbVisualStyle
  2
3D Hidden
 70
     6
 71
     1
 72
     2
 73
     2
 90
        0
 40
-0.6
 41
-30.0
 62
     5
 63
     7
 74
     2
 91
        2
 64
     7
 65
   257
 75
     2
175
     1
 42
40.0
 92
        0
 66
   257
 43
1.0
 76
     1
 77
     6
 78
     2
 67
     7
 79
     3
170
     0
171
     0
290
     0
174
     0
 93
        1
 44
0.0
173
     0
291
     0
 45
0.0
1001
ACAD
1000
AcDbSavedByObjectVersion
1070
     0
  0
VISUALSTYLE
  5
30
102
{ACAD_REACTORS
330
2A
102
}
330
2A
100
AcDbVisualStyle
  2
3dWireframe
 70
     5
 71
     0
 72
     2
 73
     0
 90
        0
 40
-0.6
 41
-30.0
 62
     5
 63
     7
 74
     1
 91
        4
 64
     7
 65
   257
 75
     1
175
     1
 42
1.0
 92
        0
 66
   257
 43
1.0
 76
     1
 77
     6
 78
     2
 67
     7
 79
     5
170
     0
171
     0
290
     0
174
     0
 93
        1
 44
0.0
173
     0
291
     0
 45
0.0
1001
ACAD
1000
AcDbSavedByObjectVersion
1070
     0
  0
VISUALSTYLE
  5
32
102
{ACAD_REACTORS
330
2A
102
}
330
2A
100
AcDbVisualStyle
  2
Basic
 70
     7
 71
     1
 72
     0
 73
     1
 90
        0
 40
-0.6
 41
-30.0
 62
     5
 63
     7
 74
     0
 91
        4
 64
     7
 65
   257
 75
     1
175
     1
 42
1.0
 92
        8
 66
     7
 43
1.0
 76
     1
 77
     6
 78
     2
 67
     7
 79
     5
170
     0
171
     0
290
     0
174
     0
 93
        1
 44
0.0
173
     0
291
     1
 45
0.0
1001
ACAD
1000
AcDbSavedByObjectVersion
1070
     0
  0
VISUALSTYLE
  5
36
102
{ACAD_REACTORS
330
2A
102
}
330
2A
100
AcDbVisualStyle
  2
Brighten
 70
    12
 71
     2
 72
     2
 73
     0
 90
        0
 40
-0.6
 41
-30.0
 62
     5
 63
     7
 74
     1
 91
        4
 64
     7
 65
   257
 75
     1
175
     1
 42
1.0
 92
        8
 66
     7
 43
1.0
 76
     1
 77
     6
 78
     2
 67
     7
 79
     5
170
     0
171
     0
290
     0
174
     0
 93
        1
 44
50.0
173
     0
291
     1
 45
0.0
1001
ACAD
1000
AcDbSavedByObjectVersion
1070
     0
  0
VISUALSTYLE
  5
3A
102
{ACAD_REACTORS
330
2A
102
}
330
2A
100
AcDbVisualStyle
  2
ColorChange
 70
    16
 71
     2
 72
     2
 73
     3
 90
        0
 40
-0.6
 41
-30.0
 62
     5
 63
     8
 74
     1
 91
        4
 64
     7
 65
   257
 75
     1
175
     1
 42
1.0
 92
        8
 66
     8
 43
1.0
 76
     1
 77
     6
 78
     2
 67
     7
 79
     5
170
     0
171
     0
290
     0
174
     0
 93
        1
 44
0.0
173
     0
291
     1
 45
0.0
1001
ACAD
1000
AcDbSavedByObjectVersion
1070
     0
  0
VISUALSTYLE
  5
34
102
{ACAD_REACTORS
330
2A
102
}
330
2A
100
AcDbVisualStyle
  2
Conceptual
 70
     9
 71
     3
 72
     2
 73
     0
 90
        0
 40
-0.6
 41
-30.0
 62
     5
 63
     7
 74
     2
 91
        2
 64
     7
 65
   257
 75
     1
175
     1
 42
40.0
 92
        8
 66
     7
 43
1.0
 76
     1
 77
     6
 78
     2
 67
     7
 79
     3
170
     0
171
     0
290
     0
174
     0
 93
        1
 44
0.0
173
     0
291
     0
 45
0.0
1001
ACAD
1000
AcDbSavedByObjectVersion
1070
     0
  0
VISUALSTYLE
  5
35
102
{ACAD_REACTORS
330
2A
102
}
330
2A
100
AcDbVisualStyle
  2
Dim
 70
    11
 71
     2
 72
     2
 73
     0
 90
        0
 40
-0.6
 41
-30.0
 62
     5
 63
     7
 74
     1
 91
        4
 64
     7
 65
   257
 75
     1
175
     1
 42
1.0
 92
        8
 66
     7
 43
1.0
 76
     1
 77
     6
 78
     2
 67
     7
 79
     5
170
     0
171
     0
290
     0
174
     0
 93
        1
 44
-50.0
173
     0
291
     1
 45
0.0
1001
ACAD
1000
AcDbSavedByObjectVersion
1070
     0
  0
VISUALSTYLE
  5
39
102
{ACAD_REACTORS
330
2A
102
}
330
2A
100
AcDbVisualStyle
  2
Facepattern
 70
    15
 71
     2
 72
     2
 73
     0
 90
        0
 40
-0.6
 41
-30.0
 62
     5
 63
     7
 74
     1
 91
        4
 64
     7
 65
   257
 75
     1
175
     1
 42
1.0
 92
        8
 66
     7
 43
1.0
 76
     1
 77
     6
 78
     2
 67
     7
 79
     5
170
     0
171
     0
290
     0
174
     0
 93
        1
 44
0.0
173
     0
291
     1
 45
0.0
1001
ACAD
1000
AcDbSavedByObjectVersion
1070
     0
  0
VISUALSTYLE
  5
2B
102
{ACAD_REACTORS
330
2A
102
}
330
2A
100
AcDbVisualStyle
  2
Flat
 70
     0
 71
     2
 72
     1
 73
     1
 90
        2
 40
-0.6
 41
30.0
 62
     5
 63
     7
 74
     0
 91
        4
 64
     7
 65
   257
 75
     1
175
     1
 42
1.0
 92
        8
 66
     7
 43
1.0
 76
     1
 77
     6
 78
     2
 67
     7
 79
     5
170
     0
171
     0
290
     0
174
     0
 93
       13
 44
0.0
173
     0
291
     1
 45
0.0
1001
ACAD
1000
AcDbSavedByObjectVersion
1070
     0
  0
VISUALSTYLE
  5
2C
102
{ACAD_REACTORS
330
2A
102
}
330
2A
100
AcDbVisualStyle
  2
FlatWithEdges
 70
     1
 71
     2
 72
     1
 73
     1
 90
        2
 40
-0.6
 41
30.0
 62
     5
 63
     7
 74
     1
 91
        4
 64
     7
 65
   257
 75
     1
175
     1
 42
1.0
 92
        0
 66
   257
 43
1.0
 76
     1
 77
     6
 78
     2
 67
     7
 79
     5
170
     0
171
     0
290
     0
174
     0
 93
       13
 44
0.0
173
     0
291
     1
 45
0.0
1001
ACAD
1000
AcDbSavedByObjectVersion
1070
     0
  0
VISUALSTYLE
  5
2D
102
{ACAD_REACTORS
330
2A
102
}
330
2A
100
AcDbVisualStyle
  2
Gouraud
 70
     2
 71
     2
 72
     2
 73
     1
 90
        2
 40
-0.6
 41
30.0
 62
     5
 63
     7
 74
     0
 91
        4
 64
     7
 65
   257
 75
     1
175
     1
 42
1.0
 92
        0
 66
     7
 43
1.0
 76
     1
 77
     6
 78
     2
 67
     7
 79
     5
170
     0
171
     0
290
     0
174
     0
 93
       13
 44
0.0
173
     0
291
     1
 45
0.0
1001
ACAD
1000
AcDbSavedByObjectVersion
1070
     0
  0
VISUALSTYLE
  5
2E
102
{ACAD_REACTORS
330
2A
102
}
330
2A
100
AcDbVisualStyle
  2
GouraudWithEdges
 70
     3
 71
     2
 72
     2
 73
     1
 90
        2
 40
-0.6
 41
30.0
 62
     5
 63
     7
 74
     1
 91
        4
 64
     7
 65
   257
 75
     1
175
     1
 42
1.0
 92
        0
 66
   257
 43
1.0
 76
     1
 77
     6
 78
     2
 67
     7
 79
     5
170
     0
171
     0
290
     0
174
     0
 93
       13
 44
0.0
173
     0
291
     1
 45
0.0
1001
ACAD
1000
AcDbSavedByObjectVersion
1070
     0
  0
VISUALSTYLE
  5
38
102
{ACAD_REACTORS
330
2A
102
}
330
2A
100
AcDbVisualStyle
  2
Linepattern
 70
    14
 71
     2
 72
     2
 73
     0
 90
        0
 40
-0.6
 41
-30.0
 62
     5
 63
     7
 74
     1
 91
        4
 64
     7
 65
   257
 75
     7
175
     7
 42
1.0
 92
        8
 66
     7
 43
1.0
 76
     1
 77
     6
 78
     2
 67
     7
 79
     5
170
     0
171
     0
290
     0
174
     0
 93
        1
 44
0.0
173
     0
291
     1
 45
0.0
1001
ACAD
1000
AcDbSavedByObjectVersion
1070
     0
  0
VISUALSTYLE
  5
33
102
{ACAD_REACTORS
330
2A
102
}
330
2A
100
AcDbVisualStyle
  2
Realistic
 70
     8
 71
     2
 72
     2
 73
     0
 90
        0
 40
-0.6
 41
-30.0
 62
     5
 63
     7
 74
     1
 91
        0
 64
     7
 65
   257
 75
     1
175
     1
 42
1.0
 92
        8
 66
     8
 43
1.0
 76
     1
 77
     6
 78
     2
 67
     7
 79
     5
170
     0
171
     0
290
     0
174
     0
 93
       13
 44
0.0
173
     0
291
     0
 45
0.0
1001
ACAD
1000
AcDbSavedByObjectVersion
1070
     0
  0
VISUALSTYLE
  5
37
102
{ACAD_REACTORS
330
2A
102
}
330
2A
100
AcDbVisualStyle
  2
Thicken
 70
    13
 71
     2
 72
     2
 73
     0
 90
        0
 40
-0.6
 41
-30.0
 62
     5
 63
     7
 74
     1
 91
        4
 64
     7
 65
   257
 75
     1
175
     1
 42
1.0
 92
       12
 66
     7
 43
1.0
 76
     1
 77
     6
 78
     2
 67
     7
 79
     5
170
     0
171
     0
290
     0
174
     0
 93
        1
 44
0.0
173
     0
291
     1
 45
0.0
1001
ACAD
1000
AcDbSavedByObjectVersion
1070
     0
  0
DICTIONARYVAR
  5
162
102
{ACAD_REACTORS
330
15F
102
}
330
15F
100
DictionaryVariables
280
     0
  1
1:1
  0
ENDSEC
  0
EOF
