  0
SECTION
  2
HEADER
  9
$ACADVER
  1
AC1015
  9
$ACADMAINTVER
 70
     6
  9
$DWGCODEPAGE
  3
ANSI_1252
  9
$INSBASE
 10
0.0
 20
0.0
 30
0.0
  9
$EXTMIN
 10
110.6204630621
 20
262.8596985280387
 30
0.0
  9
$EXTMAX
 10
226.323918886426
 20
355.344652108648
 30
0.0
  9
$LIMMIN
 10
0.0
 20
0.0
  9
$LIMMAX
 10
12.0
 20
9.0
  9
$ORTHOMODE
 70
     0
  9
$REGENMODE
 70
     1
  9
$FILLMODE
 70
     1
  9
$QTEXTMODE
 70
     0
  9
$MIRRTEXT
 70
     1
  9
$LTSCALE
 40
1.0
  9
$ATTMODE
 70
     1
  9
$TEXTSIZE
 40
0.2
  9
$TRACEWID
 40
0.05
  9
$TEXTSTYLE
  7
Standard
  9
$CLAYER
  8
0
  9
$CELTYPE
  6
ByLayer
  9
$CECOLOR
 62
   256
  9
$CELTSCALE
 40
1.0
  9
$DISPSILH
 70
     0
  9
$DIMSCALE
 40
1.0
  9
$DIMASZ
 40
0.18
  9
$DIMEXO
 40
0.0625
  9
$DIMDLI
 40
0.38
  9
$DIMRND
 40
0.0
  9
$DIMDLE
 40
0.0
  9
$DIMEXE
 40
0.18
  9
$DIMTP
 40
0.0
  9
$DIMTM
 40
0.0
  9
$DIMTXT
 40
0.18
  9
$DIMCEN
 40
0.09
  9
$DIMTSZ
 40
0.0
  9
$DIMTOL
 70
     0
  9
$DIMLIM
 70
     0
  9
$DIMTIH
 70
     1
  9
$DIMTOH
 70
     1
  9
$DIMSE1
 70
     0
  9
$DIMSE2
 70
     0
  9
$DIMTAD
 70
     0
  9
$DIMZIN
 70
     0
  9
$DIMBLK
  1

  9
$DIMASO
 70
     1
  9
$DIMSHO
 70
     1
  9
$DIMPOST
  1

  9
$DIMAPOST
  1

  9
$DIMALT
 70
     0
  9
$DIMALTD
 70
     2
  9
$DIMALTF
 40
25.4
  9
$DIMLFAC
 40
1.0
  9
$DIMTOFL
 70
     0
  9
$DIMTVP
 40
0.0
  9
$DIMTIX
 70
     0
  9
$DIMSOXD
 70
     0
  9
$DIMSAH
 70
     0
  9
$DIMBLK1
  1

  9
$DIMBLK2
  1

  9
$DIMSTYLE
  2
Standard
  9
$DIMCLRD
 70
     0
  9
$DIMCLRE
 70
     0
  9
$DIMCLRT
 70
     0
  9
$DIMTFAC
 40
1.0
  9
$DIMGAP
 40
0.09
  9
$DIMJUST
 70
     0
  9
$DIMSD1
 70
     0
  9
$DIMSD2
 70
     0
  9
$DIMTOLJ
 70
     1
  9
$DIMTZIN
 70
     0
  9
$DIMALTZ
 70
     0
  9
$DIMALTTZ
 70
     0
  9
$DIMUPT
 70
     0
  9
$DIMDEC
 70
     4
  9
$DIMTDEC
 70
     4
  9
$DIMALTU
 70
     2
  9
$DIMALTTD
 70
     2
  9
$DIMTXSTY
  7
Standard
  9
$DIMAUNIT
 70
     0
  9
$DIMADEC
 70
     0
  9
$DIMALTRND
 40
0.0
  9
$DIMAZIN
 70
     0
  9
$DIMDSEP
 70
    46
  9
$DIMATFIT
 70
     3
  9
$DIMFRAC
 70
     0
  9
$DIMLDRBLK
  1

  9
$DIMLUNIT
 70
     2
  9
$DIMLWD
 70
    -2
  9
$DIMLWE
 70
    -2
  9
$DIMTMOVE
 70
     0
  9
$LUNITS
 70
     2
  9
$LUPREC
 70
     4
  9
$SKETCHINC
 40
0.1
  9
$FILLETRAD
 40
0.5
  9
$AUNITS
 70
     0
  9
$AUPREC
 70
     0
  9
$MENU
  1
.
  9
$ELEVATION
 40
0.0
  9
$PELEVATION
 40
0.0
  9
$THICKNESS
 40
0.0
  9
$LIMCHECK
 70
     0
  9
$CHAMFERA
 40
0.5
  9
$CHAMFERB
 40
0.5
  9
$CHAMFERC
 40
1.0
  9
$CHAMFERD
 40
0.0
  9
$SKPOLY
 70
     0
  9
$TDCREATE
 40
2456680.578238866
  9
$TDUCREATE
 40
2456680.536572199
  9
$TDUPDATE
 40
2456680.578238877
  9
$TDUUPDATE
 40
2456680.53657221
  9
$TDINDWG
 40
0.0000000116
  9
$TDUSRTIMER
 40
0.0000000116
  9
$USRTIMER
 70
     1
  9
$ANGBASE
 50
0.0
  9
$ANGDIR
 70
     0
  9
$PDMODE
 70
     0
  9
$PDSIZE
 40
0.0
  9
$PLINEWID
 40
0.0
  9
$SPLFRAME
 70
     0
  9
$SPLINETYPE
 70
     6
  9
$SPLINESEGS
 70
     8
  9
$HANDSEED
  5
164
  9
$SURFTAB1
 70
     6
  9
$SURFTAB2
 70
     6
  9
$SURFTYPE
 70
     6
  9
$SURFU
 70
     6
  9
$SURFV
 70
     6
  9
$UCSBASE
  2

  9
$UCSNAME
  2

  9
$UCSORG
 10
0.0
 20
0.0
 30
0.0
  9
$UCSXDIR
 10
1.0
 20
0.0
 30
0.0
  9
$UCSYDIR
 10
0.0
 20
1.0
 30
0.0
  9
$UCSORTHOREF
  2

  9
$UCSORTHOVIEW
 70
     0
  9
$UCSORGTOP
 10
0.0
 20
0.0
 30
0.0
  9
$UCSORGBOTTOM
 10
0.0
 20
0.0
 30
0.0
  9
$UCSORGLEFT
 10
0.0
 20
0.0
 30
0.0
  9
$UCSORGRIGHT
 10
0.0
 20
0.0
 30
0.0
  9
$UCSORGFRONT
 10
0.0
 20
0.0
 30
0.0
  9
$UCSORGBACK
 10
0.0
 20
0.0
 30
0.0
  9
$PUCSBASE
  2

  9
$PUCSNAME
  2

  9
$PUCSORG
 10
0.0
 20
0.0
 30
0.0
  9
$PUCSXDIR
 10
1.0
 20
0.0
 30
0.0
  9
$PUCSYDIR
 10
0.0
 20
1.0
 30
0.0
  9
$PUCSORTHOREF
  2

  9
$PUCSORTHOVIEW
 70
     0
  9
$PUCSORGTOP
 10
0.0
 20
0.0
 30
0.0
  9
$PUCSORGBOTTOM
 10
0.0
 20
0.0
 30
0.0
  9
$PUCSORGLEFT
 10
0.0
 20
0.0
 30
0.0
  9
$PUCSORGRIGHT
 10
0.0
 20
0.0
 30
0.0
  9
$PUCSORGFRONT
 10
0.0
 20
0.0
 30
0.0
  9
$PUCSORGBACK
 10
0.0
 20
0.0
 30
0.0
  9
$USERI1
 70
     0
  9
$USERI2
 70
     0
  9
$USERI3
 70
     0
  9
$USERI4
 70
     0
  9
$USERI5
 70
     0
  9
$USERR1
 40
16.5
  9
$USERR2
 40
0.0
  9
$USERR3
 40
0.0
  9
$USERR4
 40
0.0
  9
$USERR5
 40
0.0
  9
$WORLDVIEW
 70
     1
  9
$SHADEDGE
 70
     3
  9
$SHADEDIF
 70
    70
  9
$TILEMODE
 70
     1
  9
$MAXACTVP
 70
    64
  9
$PINSBASE
 10
0.0
 20
0.0
 30
0.0
  9
$PLIMCHECK
 70
     0
  9
$PEXTMIN
 10
1.00000000000000E+20
 20
1.00000000000000E+20
 30
1.00000000000000E+20
  9
$PEXTMAX
 10
-1.00000000000000E+20
 20
-1.00000000000000E+20
 30
-1.00000000000000E+20
  9
$PLIMMIN
 10
0.0
 20
0.0
  9
$PLIMMAX
 10
12.0
 20
9.0
  9
$UNITMODE
 70
     0
  9
$VISRETAIN
 70
     1
  9
$PLINEGEN
 70
     0
  9
$PSLTSCALE
 70
     1
  9
$TREEDEPTH
 70
  3020
  9
$CMLSTYLE
  2
Standard
  9
$CMLJUST
 70
     0
  9
$CMLSCALE
 40
1.0
  9
$PROXYGRAPHICS
 70
     1
  9
$MEASUREMENT
 70
     1
  9
$CELWEIGHT
370
    -1
  9
$ENDCAPS
280
     0
  9
$JOINSTYLE
280
     0
  9
$LWDISPLAY
290
     0
  9
$INSUNITS
 70
     1
  9
$HYPERLINKBASE
  1

  9
$STYLESHEET
  1

  9
$XEDIT
290
     1
  9
$CEPSNTYPE
380
     0
  9
$PSTYLEMODE
290
     1
  9
$FINGERPRINTGUID
  2
{1E3C41CD-14C0-4970-8A35-B786E074E0CD}
  9
$VERSIONGUID
  2
{FAEB1C32-E019-11D5-929B-00C0DF256EC4}
  9
$EXTNAMES
290
     1
  9
$PSVPSCALE
 40
0.0
  9
$OLESTARTUP
290
     0
  0
ENDSEC
  0
SECTION
  2
CLASSES
  0
CLASS
  1
ACDBDICTIONARYWDFLT
  2
AcDbDictionaryWithDefault
  3
ObjectDBX Classes
 90
        0
280
     0
281
     0
  0
CLASS
  1
VISUALSTYLE
  2
AcDbVisualStyle
  3
ObjectDBX Classes
 90
     4095
280
     0
281
     0
  0
CLASS
  1
SCALE
  2
AcDbScale
  3
ObjectDBX Classes
 90
     1153
280
     0
281
     0
  0
CLASS
  1

  2
exOdDbPolyline
  3

 90
        0
280
     0
281
     1
  0
CLASS
  1

  2
exOdDbCircle
  3

 90
        0
280
     0
281
     1
  0
CLASS
  1

  2
exOdDbSpline
  3

 90
        0
280
     0
281
     1
  0
CLASS
  1
DICTIONARYVAR
  2
AcDbDictionaryVar
  3
ObjectDBX Classes
 90
        0
280
     0
281
     0
  0
CLASS
  1
ACDBPLACEHOLDER
  2
AcDbPlaceHolder
  3
ObjectDBX Classes
 90
        0
280
     0
281
     0
  0
CLASS
  1
LAYOUT
  2
AcDbLayout
  3
ObjectDBX Classes
 90
        0
280
     0
281
     0
  0
ENDSEC
  0
SECTION
  2
TABLES
  0
TABLE
  2
VPORT
  5
8
330
0
100
AcDbSymbolTable
 70
     1
  0
VPORT
  5
29
330
8
100
AcDbSymbolTableRecord
100
AcDbViewportTableRecord
  2
*Active
 70
     0
 10
0.0
 20
0.0
 11
1.0
 21
1.0
 12
168.472190974263
 22
309.1021753183434
 13
0.0
 23
0.0
 14
0.5
 24
0.5
 15
0.5
 25
0.5
 16
0.0
 26
0.0
 36
1.0
 17
0.0
 27
0.0
 37
0.0
 40
101.7334489386703
 41
1.60267857142857
 42
50.0
 43
0.0
 44
0.0
 50
0.0
 51
0.0
 71
     0
 72
   100
 73
     1
 74
     3
 75
     0
 76
     0
 77
     0
 78
     0
281
     0
 65
     1
110
0.0
120
0.0
130
0.0
111
1.0
121
0.0
131
0.0
112
0.0
122
1.0
132
0.0
 79
     0
146
0.0
  0
ENDTAB
  0
TABLE
  2
LTYPE
  5
5
330
0
100
AcDbSymbolTable
 70
     8
  0
LTYPE
  5
14
330
5
100
AcDbSymbolTableRecord
100
AcDbLinetypeTableRecord
  2
ByBlock
 70
     0
  3

 72
    65
 73
     0
 40
0.0
  0
LTYPE
  5
15
330
5
100
AcDbSymbolTableRecord
100
AcDbLinetypeTableRecord
  2
ByLayer
 70
     0
  3

 72
    65
 73
     0
 40
0.0
  0
LTYPE
  5
16
330
5
100
AcDbSymbolTableRecord
100
AcDbLinetypeTableRecord
  2
Continuous
 70
     0
  3
Solid line
 72
    65
 73
     0
 40
0.0
  0
LTYPE
  5
3B
330
5
100
AcDbSymbolTableRecord
100
AcDbLinetypeTableRecord
  2
DASHED
 70
     0
  3
Dashed
 72
    65
 73
     2
 40
15.0
 49
7.0
 74
     0
 49
-8.0
 74
     0
  0
LTYPE
  5
3C
330
5
100
AcDbSymbolTableRecord
100
AcDbLinetypeTableRecord
  2
DOTTED
 70
     0
  3
Dotted
 72
    65
 73
     2
 40
1.0
 49
0.0
 74
     0
 49
-1.0
 74
     0
  0
LTYPE
  5
3D
330
5
100
AcDbSymbolTableRecord
100
AcDbLinetypeTableRecord
  2
DOT_CENTER
 70
     0
  3
Dot_Center
 72
    65
 73
     4
 40
14.0
 49
12.0
 74
     0
 49
-1.0
 74
     0
 49
0.0
 74
     0
 49
-1.0
 74
     0
  0
LTYPE
  5
3E
330
5
100
AcDbSymbolTableRecord
100
AcDbLinetypeTableRecord
  2
LONG_DASHED
 70
     0
  3
Long_Dashed
 72
    65
 73
     2
 40
15.0
 49
10.0
 74
     0
 49
-5.0
 74
     0
  0
LTYPE
  5
3F
330
5
100
AcDbSymbolTableRecord
100
AcDbLinetypeTableRecord
  2
DASH_CENTER
 70
     0
  3
Dash_Center
 72
    65
 73
     4
 40
14.0
 49
11.0
 74
     0
 49
-1.0
 74
     0
 49
1.0
 74
     0
 49
-1.0
 74
     0
  0
LTYPE
  5
40
330
5
100
AcDbSymbolTableRecord
100
AcDbLinetypeTableRecord
  2
PHANTOM
 70
     0
  3
Phantom
 72
    65
 73
     6
 40
13.0
 49
10.0
 74
     0
 49
-1.0
 74
     0
 49
0.0
 74
     0
 49
-1.0
 74
     0
 49
0.0
 74
     0
 49
-1.0
 74
     0
  0
LTYPE
  5
41
330
5
100
AcDbSymbolTableRecord
100
AcDbLinetypeTableRecord
  2
CENTER_DASH_DASH
 70
     0
  3
Center_Dash_Dash
 72
    65
 73
     6
 40
14.0
 49
9.0
 74
     0
 49
-1.0
 74
     0
 49
1.0
 74
     0
 49
-1.0
 74
     0
 49
1.0
 74
     0
 49
-1.0
 74
     0
  0
ENDTAB
  0
TABLE
  2
LAYER
  5
2
330
0
100
AcDbSymbolTable
 70
     7
  0
LAYER
  5
10
330
2
100
AcDbSymbolTableRecord
100
AcDbLayerTableRecord
  2
0
 70
     0
 62
     7
  6
Continuous
370
    -3
390
F
  0
LAYER
  5
42
330
2
100
AcDbSymbolTableRecord
100
AcDbLayerTableRecord
  2
1
 70
     0
 62
     7
  6
Continuous
370
    -3
390
F
  0
LAYER
  5
43
330
2
100
AcDbSymbolTableRecord
100
AcDbLayerTableRecord
  2
BEZUGSACHSEN
 70
     0
 62
     7
  6
Continuous
370
    -3
390
F
  0
LAYER
  5
44
330
2
100
AcDbSymbolTableRecord
100
AcDbLayerTableRecord
  2
DEFAULT_2
 70
     0
 62
     7
  6
Continuous
370
    -3
390
F
  0
LAYER
  5
45
330
2
100
AcDbSymbolTableRecord
100
AcDbLayerTableRecord
  2
FASEN
 70
     0
 62
     7
  6
Continuous
370
    -3
390
F
  0
LAYER
  5
46
330
2
100
AcDbSymbolTableRecord
100
AcDbLayerTableRecord
  2
RUNDUNGEN
 70
     0
 62
     7
  6
Continuous
370
    -3
390
F
  0
LAYER
  5
47
330
2
100
AcDbSymbolTableRecord
100
AcDbLayerTableRecord
  2
TEIL_STARTBEZUEGE
 70
     0
 62
     7
  6
Continuous
370
    -3
390
F
  0
ENDTAB
  0
TABLE
  2
STYLE
  5
3
330
0
100
AcDbSymbolTable
 70
     2
  0
STYLE
  5
11
330
3
100
AcDbSymbolTableRecord
100
AcDbTextStyleTableRecord
  2
Standard
 70
     0
 40
0.0
 41
1.0
 50
0.0
 71
     0
 42
0.2
  3
txt
  4

  0
STYLE
  5
6E
330
3
100
AcDbSymbolTableRecord
100
AcDbTextStyleTableRecord
  2
CONVERTER_11
 70
     0
 40
0.0
 41
0.72
 50
0.0
 71
     0
 42
0.2
  3
txt.shx
  4

  0
ENDTAB
  0
TABLE
  2
VIEW
  5
6
330
0
100
AcDbSymbolTable
 70
     0
  0
ENDTAB
  0
TABLE
  2
UCS
  5
7
330
0
100
AcDbSymbolTable
 70
     0
  0
ENDTAB
  0
TABLE
  2
APPID
  5
9
330
0
100
AcDbSymbolTable
 70
     1
  0
APPID
  5
12
330
9
100
AcDbSymbolTableRecord
100
AcDbRegAppTableRecord
  2
ACAD
 70
     0
  0
ENDTAB
  0
TABLE
  2
DIMSTYLE
  5
A
330
0
100
AcDbSymbolTable
 70
     6
100
AcDbDimStyleTable
  0
DIMSTYLE
105
27
330
A
100
AcDbSymbolTableRecord
100
AcDbDimStyleTableRecord
  2
Standard
 70
     0
340
11
  0
DIMSTYLE
105
12B
102
{ACAD_REACTORS
330
12C
102
}
330
A
100
AcDbSymbolTableRecord
100
AcDbDimStyleTableRecord
  2
ME10_DIM_10
 70
     0
  3
<>
 41
3.5
 42
2.0
 44
2.0
 71
     1
 73
     0
 74
     0
 77
     1
 78
     8
140
3.5
146
0.7
147
2.0
172
     1
173
     1
176
     2
177
     2
178
     3
271
     0
272
     0
340
6E
  0
DIMSTYLE
105
136
102
{ACAD_REACTORS
330
137
102
}
330
A
100
AcDbSymbolTableRecord
100
AcDbDimStyleTableRecord
  2
ME10_DIM_11
 70
     0
  3
<>
 41
3.5
 42
2.0
 44
2.0
 71
     1
 73
     0
 74
     0
 77
     1
 78
     8
140
3.5
146
0.7
147
2.0
172
     1
173
     1
176
     2
177
     2
178
     3
271
     2
272
     0
340
6E
  0
DIMSTYLE
105
141
102
{ACAD_REACTORS
330
142
102
}
330
A
100
AcDbSymbolTableRecord
100
AcDbDimStyleTableRecord
  2
ME10_DIM_12
 70
     0
  3
<>
 41
3.5
 42
2.0
 44
2.0
 71
     1
 73
     0
 74
     0
 77
     1
 78
     8
140
3.5
146
0.7
147
2.0
172
     1
173
     1
176
     2
177
     2
178
     3
271
     0
272
     0
340
6E
  0
DIMSTYLE
105
14C
102
{ACAD_REACTORS
330
14D
102
}
330
A
100
AcDbSymbolTableRecord
100
AcDbDimStyleTableRecord
  2
ME10_DIM_13
 70
     0
  3
\U+2300<>
 41
3.5
 42
2.0
 44
2.0
 71
     1
 73
     0
 74
     0
 77
     1
 78
     8
140
3.5
146
0.7
147
2.0
172
     1
173
     1
176
     2
177
     2
178
     3
271
     2
272
     0
340
6E
  0
DIMSTYLE
105
157
102
{ACAD_REACTORS
330
158
102
}
330
A
100
AcDbSymbolTableRecord
100
AcDbDimStyleTableRecord
  2
ME10_DIM_14
 70
     0
  3
\U+2300<>
 41
3.5
 42
2.0
 44
2.0
 71
     1
 73
     0
 74
     0
 77
     1
 78
     8
140
3.5
146
0.7
147
2.0
172
     1
173
     1
176
     2
177
     2
178
     3
271
     2
272
     0
340
6E
  0
ENDTAB
  0
TABLE
  2
BLOCK_RECORD
  5
1
330
0
100
AcDbSymbolTable
 70
     8
  0
BLOCK_RECORD
  5
1F
330
1
100
AcDbSymbolTableRecord
100
AcDbBlockTableRecord
  2
*Model_Space
340
22
  0
BLOCK_RECORD
  5
1B
330
1
100
AcDbSymbolTableRecord
100
AcDbBlockTableRecord
  2
*Paper_Space
340
1E
  0
BLOCK_RECORD
  5
23
330
1
100
AcDbSymbolTableRecord
100
AcDbBlockTableRecord
  2
*Paper_Space0
340
26
  0
BLOCK_RECORD
  5
48
330
1
100
AcDbSymbolTableRecord
100
AcDbBlockTableRecord
  2
Urheberrecht_DE-EN_horizontal
340
0
102
{BLKREFS
331
6D
102
}
  0
BLOCK_RECORD
  5
122
330
1
100
AcDbSymbolTableRecord
100
AcDbBlockTableRecord
  2
*D2
340
0
  0
BLOCK_RECORD
  5
12D
330
1
100
AcDbSymbolTableRecord
100
AcDbBlockTableRecord
  2
*D3
340
0
  0
BLOCK_RECORD
  5
138
330
1
100
AcDbSymbolTableRecord
100
AcDbBlockTableRecord
  2
*D4
340
0
  0
BLOCK_RECORD
  5
143
330
1
100
AcDbSymbolTableRecord
100
AcDbBlockTableRecord
  2
*D5
340
0
  0
BLOCK_RECORD
  5
14E
330
1
100
AcDbSymbolTableRecord
100
AcDbBlockTableRecord
  2
*D6
340
0
  0
BLOCK_RECORD
  5
159
330
1
100
AcDbSymbolTableRecord
100
AcDbBlockTableRecord
  2
*D7
340
0
102
{BLKREFS
331
15F
102
}
  0
ENDTAB
  0
ENDSEC
  0
SECTION
  2
BLOCKS
  0
BLOCK
  5
20
330
1F
100
AcDbEntity
  8
0
100
AcDbBlockBegin
  2
*Model_Space
 70
     0
 10
0.0
 20
0.0
 30
0.0
  3
*Model_Space
  1

  0
ENDBLK
  5
21
330
1F
100
AcDbEntity
  8
0
100
AcDbBlockEnd
  0
BLOCK
  5
1C
330
1B
100
AcDbEntity
 67
     1
  8
0
100
AcDbBlockBegin
  2
*Paper_Space
 70
     0
 10
0.0
 20
0.0
 30
0.0
  3
*Paper_Space
  1

  0
ENDBLK
  5
1D
330
1B
100
AcDbEntity
 67
     1
  8
0
100
AcDbBlockEnd
  0
BLOCK
  5
24
330
23
100
AcDbEntity
  8
0
100
AcDbBlockBegin
  2
*Paper_Space0
 70
     0
 10
0.0
 20
0.0
 30
0.0
  3
*Paper_Space0
  1

  0
ENDBLK
  5
25
330
23
100
AcDbEntity
  8
0
100
AcDbBlockEnd
  0
BLOCK
  5
49
330
48
100
AcDbEntity
  8
0
100
AcDbBlockBegin
  2
Urheberrecht_DE-EN_horizontal
 70
     0
 10
166.589088878822
 20
270.257706537943
 30
0.0
  3
Urheberrecht_DE-EN_horizontal
  1

  0
MTEXT
  5
6F
330
48
100
AcDbEntity
  8
1
 62
     1
100
AcDbMText
 10
169.4246934067689
 20
263.4596985280387
 30
0.0
 40
2.0
 41
0.0
 71
     7
 72
     1
  1
We own the copyright of this document. It \Pdetermined and may neither be copied or \Pmade accessible to outsiders without our\Ppermission.
  7
CONVERTER_11
 73
     1
 44
0.90036014405762
  0
MTEXT
  5
70
330
48
100
AcDbEntity
  8
1
 62
     1
100
AcDbMText
 10
113.1353064894628
 20
263.4596985280387
 30
0.0
 40
2.0
 41
0.0
 71
     7
 72
     1
  1
F\U+00fcr diese Unterlage behalten wir das Ur-\Pheberrecht. Sie darf nur f\U+00fcr den von uns \Pbestimmten Zweck benutzt und ohne unsere \PZustimmung weder vervielf\U+00e4ltigt noch\PDritten zug\U+00e4nglich gemacht werden.
  7
CONVERTER_11
 73
     1
 44
0.90036014405762
  0
ENDBLK
  5
4A
330
48
100
AcDbEntity
  8
0
100
AcDbBlockEnd
  0
BLOCK
  5
129
330
122
100
AcDbEntity
  8
0
100
AcDbBlockBegin
  2
*D2
 70
     1
 10
0.0
 20
0.0
 30
0.0
  3
*D2
  1

  0
LINE
  5
123
330
122
100
AcDbEntity
  8
1
  6
Continuous
 62
     2
100
AcDbLine
 10
203.6454630621
 20
349.844652108648
 30
0.0
 11
113.7454630621
 21
349.844652108648
 31
0.0
  0
LINE
  5
124
330
122
100
AcDbEntity
  8
1
  6
Continuous
 62
     2
100
AcDbLine
 10
113.7454630621
 20
318.4526113569
 30
0.0
 11
113.7454630621
 21
351.844652108648
 31
0.0
  0
LINE
  5
125
330
122
100
AcDbEntity
  8
1
  6
Continuous
 62
     2
100
AcDbLine
 10
203.6454630621
 20
319.3695544715
 30
0.0
 11
203.6454630621
 21
351.844652108648
 31
0.0
  0
SOLID
  5
126
330
122
100
AcDbEntity
  8
1
 62
     2
100
AcDbTrace
 10
200.1454630621
 20
349.3838683670921
 30
0.0
 11
200.1454630621
 21
350.3054358502039
 31
0.0
 12
203.6454630621
 22
349.844652108648
 32
0.0
 13
203.6454630621
 23
349.844652108648
 33
0.0
  0
SOLID
  5
127
330
122
100
AcDbEntity
  8
1
 62
     2
100
AcDbTrace
 10
117.2454630621
 20
350.3054358502039
 30
0.0
 11
117.2454630621
 21
349.3838683670921
 31
0.0
 12
113.7454630621
 22
349.844652108648
 32
0.0
 13
113.7454630621
 23
349.844652108648
 33
0.0
  0
MTEXT
  5
128
330
122
100
AcDbEntity
  8
1
 62
     3
100
AcDbMText
 10
159.372007563059
 20
351.844652108648
 30
0.0
 40
3.5
 41
0.0
 71
     7
 72
     1
  1
\C3;\C3;\C3;90\C2;\H2.45;\S^ ;\C3;
  7
CONVERTER_11
 11
0.9999999999970619
 21
2.424068405545306E-6
 31
0.0
 73
     1
 44
0.60024009603842
  0
ENDBLK
  5
12A
330
122
100
AcDbEntity
  8
0
100
AcDbBlockEnd
  0
BLOCK
  5
134
330
12D
100
AcDbEntity
  8
0
100
AcDbBlockBegin
  2
*D3
 70
     1
 10
0.0
 20
0.0
 30
0.0
  3
*D3
  1

  0
LINE
  5
12E
330
12D
100
AcDbEntity
  8
1
  6
Continuous
 62
     2
100
AcDbLine
 10
203.6454630621
 20
342.658963452469
 30
0.0
 11
133.6454630621
 21
342.658963452469
 31
0.0
  0
LINE
  5
12F
330
12D
100
AcDbEntity
  8
1
  6
Continuous
 62
     2
100
AcDbLine
 10
133.6454630621
 20
325.0066247323
 30
0.0
 11
133.6454630621
 21
344.658963452469
 31
0.0
  0
LINE
  5
130
330
12D
100
AcDbEntity
  8
1
  6
Continuous
 62
     2
100
AcDbLine
 10
203.6454630621
 20
319.3695544715
 30
0.0
 11
203.6454630621
 21
344.658963452469
 31
0.0
  0
SOLID
  5
131
330
12D
100
AcDbEntity
  8
1
 62
     2
100
AcDbTrace
 10
200.1454630621
 20
342.1981797109131
 30
0.0
 11
200.1454630621
 21
343.1197471940249
 31
0.0
 12
203.6454630621
 22
342.658963452469
 32
0.0
 13
203.6454630621
 23
342.658963452469
 33
0.0
  0
SOLID
  5
132
330
12D
100
AcDbEntity
  8
1
 62
     2
100
AcDbTrace
 10
137.1454630621
 20
343.1197471940249
 30
0.0
 11
137.1454630621
 21
342.1981797109131
 31
0.0
 12
133.6454630621
 22
342.658963452469
 32
0.0
 13
133.6454630621
 23
342.658963452469
 33
0.0
  0
MTEXT
  5
133
330
12D
100
AcDbEntity
  8
1
 62
     3
100
AcDbMText
 10
167.755310995267
 20
344.658963452469
 30
0.0
 40
3.5
 41
0.0
 71
     7
 72
     1
  1
\C3;\C3;\C3;70\C2;\H2.45;\S^ ;\C3;
  7
CONVERTER_11
 11
0.9999999999970619
 21
2.424068405545306E-6
 31
0.0
 73
     1
 44
0.60024009603842
  0
ENDBLK
  5
135
330
12D
100
AcDbEntity
  8
0
100
AcDbBlockEnd
  0
BLOCK
  5
13F
330
138
100
AcDbEntity
  8
0
100
AcDbBlockBegin
  2
*D4
 70
     1
 10
0.0
 20
0.0
 30
0.0
  3
*D4
  1

  0
LINE
  5
139
330
138
100
AcDbEntity
  8
1
  6
Continuous
 62
     2
100
AcDbLine
 10
203.6454630621
 20
334.493408161357
 30
0.0
 11
153.5954630621
 21
334.493408161357
 31
0.0
  0
LINE
  5
13A
330
138
100
AcDbEntity
  8
1
  6
Continuous
 62
     2
100
AcDbLine
 10
153.5954630621
 20
325.0065893754
 30
0.0
 11
153.5954630621
 21
336.493408161357
 31
0.0
  0
LINE
  5
13B
330
138
100
AcDbEntity
  8
1
  6
Continuous
 62
     2
100
AcDbLine
 10
203.6454630621
 20
319.3695544715
 30
0.0
 11
203.6454630621
 21
336.493408161357
 31
0.0
  0
SOLID
  5
13C
330
138
100
AcDbEntity
  8
1
 62
     2
100
AcDbTrace
 10
200.1454630621
 20
334.0326244198012
 30
0.0
 11
200.1454630621
 21
334.9541919029129
 31
0.0
 12
203.6454630621
 22
334.493408161357
 32
0.0
 13
203.6454630621
 23
334.493408161357
 33
0.0
  0
SOLID
  5
13D
330
138
100
AcDbEntity
  8
1
 62
     2
100
AcDbTrace
 10
157.0954630621
 20
334.9541919029129
 30
0.0
 11
157.0954630621
 21
334.0326244198012
 31
0.0
 12
153.5954630621
 22
334.493408161357
 32
0.0
 13
153.5954630621
 23
334.493408161357
 33
0.0
  0
MTEXT
  5
13E
330
138
100
AcDbEntity
  8
1
 62
     3
100
AcDbMText
 10
175.485370004186
 20
336.493408161357
 30
0.0
 40
3.5
 41
0.0
 71
     7
 72
     1
  1
\C3;\C3;\C3;50\C2;\H2.45;\S^ ;\C3;
  7
CONVERTER_11
 11
0.9999999999970619
 21
2.424068405545306E-6
 31
0.0
 73
     1
 44
0.60024009603842
  0
ENDBLK
  5
140
330
138
100
AcDbEntity
  8
0
100
AcDbBlockEnd
  0
BLOCK
  5
14A
330
143
100
AcDbEntity
  8
0
100
AcDbBlockBegin
  2
*D5
 70
     1
 10
0.0
 20
0.0
 30
0.0
  3
*D5
  1

  0
LINE
  5
144
330
143
100
AcDbEntity
  8
1
  6
Continuous
 62
     2
100
AcDbLine
 10
224.323918886426
 20
324.0066247323
 30
0.0
 11
224.323918886426
 21
282.0066247323
 31
0.0
  0
LINE
  5
145
330
143
100
AcDbEntity
  8
1
  6
Continuous
 62
     2
100
AcDbLine
 10
192.5567268764
 20
282.0066247323
 30
0.0
 11
226.323918886426
 21
282.0066247323
 31
0.0
  0
LINE
  5
146
330
143
100
AcDbEntity
  8
1
  6
Continuous
 62
     2
100
AcDbLine
 10
192.5567268764
 20
324.0066247323
 30
0.0
 11
226.323918886426
 21
324.0066247323
 31
0.0
  0
SOLID
  5
147
330
143
100
AcDbEntity
  8
1
 62
     2
100
AcDbTrace
 10
224.7847026279819
 20
320.5066247323
 30
0.0
 11
223.8631351448701
 21
320.5066247323
 31
0.0
 12
224.323918886426
 22
324.0066247323
 32
0.0
 13
224.323918886426
 23
324.0066247323
 33
0.0
  0
SOLID
  5
148
330
143
100
AcDbEntity
  8
1
 62
     2
100
AcDbTrace
 10
223.8631351448701
 20
285.5066247323
 30
0.0
 11
224.7847026279819
 21
285.5066247323
 31
0.0
 12
224.323918886426
 22
282.0066247323
 32
0.0
 13
224.323918886426
 23
282.0066247323
 33
0.0
  0
MTEXT
  5
149
330
143
100
AcDbEntity
  8
1
 62
     3
100
AcDbMText
 10
222.323918886426
 20
294.431616927845
 30
0.0
 40
3.5
 41
0.0
 71
     7
 72
     1
  1
\C3;%%c\C3;\C3;42\C2;\H2.45;\S^ ;\C3;
  7
CONVERTER_11
 11
0.0
 21
1.0
 31
0.0
 73
     1
 44
0.60024009603842
  0
ENDBLK
  5
14B
330
143
100
AcDbEntity
  8
0
100
AcDbBlockEnd
  0
BLOCK
  5
155
330
14E
100
AcDbEntity
  8
0
100
AcDbBlockBegin
  2
*D6
 70
     1
 10
0.0
 20
0.0
 30
0.0
  3
*D6
  1

  0
LINE
  5
14F
330
14E
100
AcDbEntity
  8
1
  6
Continuous
 62
     2
100
AcDbLine
 10
214.746133457854
 20
309.0066247323
 30
0.0
 11
214.746133457854
 21
297.0066247323
 31
0.0
  0
LINE
  5
150
330
14E
100
AcDbEntity
  8
1
  6
Continuous
 62
     2
100
AcDbLine
 10
205.6454630621
 20
297.0066247323
 30
0.0
 11
216.746133457854
 21
297.0066247323
 31
0.0
  0
LINE
  5
151
330
14E
100
AcDbEntity
  8
1
  6
Continuous
 62
     2
100
AcDbLine
 10
205.6454630621
 20
309.0066247323
 30
0.0
 11
216.746133457854
 21
309.0066247323
 31
0.0
  0
SOLID
  5
152
330
14E
100
AcDbEntity
  8
1
 62
     2
100
AcDbTrace
 10
215.2069171994099
 20
305.5066247323
 30
0.0
 11
214.2853497162981
 21
305.5066247323
 31
0.0
 12
214.746133457854
 22
309.0066247323
 32
0.0
 13
214.746133457854
 23
309.0066247323
 33
0.0
  0
SOLID
  5
153
330
14E
100
AcDbEntity
  8
1
 62
     2
100
AcDbTrace
 10
214.2853497162981
 20
300.5066247323
 30
0.0
 11
215.2069171994099
 21
300.5066247323
 31
0.0
 12
214.746133457854
 22
297.0066247323
 32
0.0
 13
214.746133457854
 23
297.0066247323
 33
0.0
  0
MTEXT
  5
154
330
14E
100
AcDbEntity
  8
1
 62
     3
100
AcDbMText
 10
212.746133457854
 20
294.728824806965
 30
0.0
 40
3.5
 41
0.0
 71
     7
 72
     1
  1
\C3;%%c\C3;\C3;12\C2;\H2.45;\S^ ;\C3;
  7
CONVERTER_11
 11
0.0
 21
1.0
 31
0.0
 73
     1
 44
0.60024009603842
  0
ENDBLK
  5
156
330
14E
100
AcDbEntity
  8
0
100
AcDbBlockEnd
  0
BLOCK
  5
15D
330
159
100
AcDbEntity
  8
0
100
AcDbBlockBegin
  2
*D7
 70
     1
 10
0.0
 20
0.0
 30
0.0
  3
*D7
  1

  0
LINE
  5
15A
330
159
100
AcDbEntity
  8
1
  6
Continuous
 62
     2
100
AcDbLine
 10
163.7023730260336
 20
326.8979488686592
 30
0.0
 11
153.7980401808021
 21
319.4032038606172
 31
0.0
  0
SOLID
  5
15B
330
159
100
AcDbEntity
  8
1
 62
     2
100
AcDbTrace
 10
156.310973738358
 20
321.8826164103539
 30
0.0
 11
156.8670667923319
 21
321.1477374126604
 31
0.0
 12
153.7980401808021
 22
319.4032038606172
 32
0.0
 13
153.7980401808021
 23
319.4032038606172
 33
0.0
  0
MTEXT
  5
15C
330
159
100
AcDbEntity
  8
1
 62
     3
100
AcDbMText
 10
157.2484887237274
 20
324.5222852955822
 30
0.0
 40
3.5
 41
0.0
 71
     7
 72
     1
  1
\C3; R\C3;\C3;1\C2;\H2.45;\S^ ;\C3;
  7
CONVERTER_11
 11
0.7974228812979646
 21
0.6034208716828183
 31
0.0
 73
     1
 44
0.60024009603842
  0
ENDBLK
  5
15E
330
159
100
AcDbEntity
  8
0
100
AcDbBlockEnd
  0
ENDSEC
  0
SECTION
  2
ENTITIES
  0
INSERT
  5
6D
330
1F
100
AcDbEntity
  8
0
100
AcDbBlockReference
  2
Urheberrecht_DE-EN_horizontal
 10
166.589088878822
 20
270.257706537943
 30
0.0
  0
LWPOLYLINE
  5
71
330
1F
100
AcDbEntity
  8
BEZUGSACHSEN
  6
DASHED
 62
     8
100
AcDbPolyline
 90
        2
 70
     0
 43
0.35
 10
175.1454630621
 20
297.0066247323
 10
175.1454630621
 20
282.0066247323
  0
LWPOLYLINE
  5
72
330
1F
100
AcDbEntity
  8
BEZUGSACHSEN
  6
DASHED
 62
     8
100
AcDbPolyline
 90
        2
 70
     0
 43
0.35
 10
187.1454630621
 20
297.0066247323
 10
187.1454630621
 20
282.0066247323
  0
LINE
  5
73
330
1F
100
AcDbEntity
  8
RUNDUNGEN
  6
Continuous
 62
     7
100
AcDbLine
 10
203.6454630621
 20
317.3695544715
 30
0.0
 11
203.6454630621
 21
288.6436949931
 31
0.0
  0
LINE
  5
74
330
1F
100
AcDbEntity
  8
RUNDUNGEN
  6
Continuous
 62
     9
100
AcDbLine
 10
203.0680813238
 20
287.7373872061
 30
0.0
 11
203.0680813238
 21
318.2758622586
 31
0.0
  0
LINE
  5
75
330
1F
100
AcDbEntity
  8
0
  6
Continuous
 62
     7
100
AcDbLine
 10
190.9793451381
 20
323.9129325194
 30
0.0
 11
203.0680813238
 21
318.2758622586
 31
0.0
  0
LINE
  5
76
330
1F
100
AcDbEntity
  8
RUNDUNGEN
  6
Continuous
 62
     7
100
AcDbLine
 10
203.0680813238
 20
318.2758622586
 30
0.0
 11
190.9793451381
 21
323.9129325194
 31
0.0
  0
LINE
  5
77
330
1F
100
AcDbEntity
  8
0
  6
Continuous
 62
     7
100
AcDbLine
 10
190.9793451381
 20
282.1003169453
 30
0.0
 11
203.0680813238
 21
287.7373872061
 31
0.0
  0
LINE
  5
78
330
1F
100
AcDbEntity
  8
RUNDUNGEN
  6
Continuous
 62
     9
100
AcDbLine
 10
190.9793451381
 20
282.1003169453
 30
0.0
 11
190.9793451381
 21
323.9129325194
 31
0.0
  0
LINE
  5
79
330
1F
100
AcDbEntity
  8
RUNDUNGEN
  6
Continuous
 62
     9
100
AcDbLine
 10
190.5567268764
 20
282.0066247323
 30
0.0
 11
190.5567268764
 21
324.0066247323
 31
0.0
  0
LWPOLYLINE
  5
7A
330
1F
100
AcDbEntity
  8
BEZUGSACHSEN
  6
DASHED
 62
     8
100
AcDbPolyline
 90
        2
 70
     0
 43
0.35
 10
186.2454630621
 20
297.0066247323
 10
186.2454630621
 20
282.0066247323
  0
LINE
  5
7B
330
1F
100
AcDbEntity
  8
0
  6
Continuous
 62
     7
100
AcDbLine
 10
170.0954630621
 20
324.0066247323
 30
0.0
 11
190.5567268764
 21
324.0066247323
 31
0.0
  0
LINE
  5
7C
330
1F
100
AcDbEntity
  8
RUNDUNGEN
  6
Continuous
 62
     7
100
AcDbLine
 10
190.5567268764
 20
324.0066247323
 30
0.0
 11
170.0954630621
 21
324.0066247323
 31
0.0
  0
LWPOLYLINE
  5
7D
330
1F
100
AcDbEntity
  8
BEZUGSACHSEN
  6
DOT_CENTER
 62
     7
100
AcDbPolyline
 90
        2
 70
     0
 43
0.25
 10
181.1454630621
 20
279.0066247323
 10
181.1454630621
 20
302.8489627415
  0
LINE
  5
7E
330
1F
100
AcDbEntity
  8
0
  6
Continuous
 62
     7
100
AcDbLine
 10
151.680622761
 20
323.0066247323
 30
0.0
 11
153.5954630621
 21
323.0066247323
 31
0.0
  0
LINE
  5
7F
330
1F
100
AcDbEntity
  8
0
  6
Continuous
 62
     7
100
AcDbLine
 10
145.6454630621
 20
323.0066247323
 30
0.0
 11
147.6103033632
 21
323.0066247323
 31
0.0
  0
LINE
  5
80
330
1F
100
AcDbEntity
  8
0
  6
Continuous
 62
     7
100
AcDbLine
 10
133.6454630621
 20
323.0066247323
 30
0.0
 11
135.6454630621
 21
323.0066247323
 31
0.0
  0
LINE
  5
81
330
1F
100
AcDbEntity
  8
BEZUGSACHSEN
  6
Continuous
 62
     7
100
AcDbLine
 10
135.6454630621
 20
323.0066247323
 30
0.0
 11
133.6454630621
 21
323.0066247323
 31
0.0
  0
LINE
  5
82
330
1F
100
AcDbEntity
  8
BEZUGSACHSEN
  6
Continuous
 62
     7
100
AcDbLine
 10
147.6103033632
 20
323.0066247323
 30
0.0
 11
145.6454630621
 21
323.0066247323
 31
0.0
  0
LINE
  5
83
330
1F
100
AcDbEntity
  8
0
  6
Continuous
 62
     7
100
AcDbLine
 10
148.8579630621
 20
320.3816247323
 30
0.0
 11
150.4329630621
 21
320.3816247323
 31
0.0
  0
LWPOLYLINE
  5
84
330
1F
100
AcDbEntity
  8
BEZUGSACHSEN
  6
DASHED
 62
     8
100
AcDbPolyline
 90
        2
 70
     0
 43
0.35
 10
176.0454630621
 20
297.0066247323
 10
176.0454630621
 20
282.0066247323
  0
LINE
  5
85
330
1F
100
AcDbEntity
  8
RUNDUNGEN
  6
Continuous
 62
     7
100
AcDbLine
 10
154.5954630621
 20
319.0066247323
 30
0.0
 11
168.0954630621
 21
319.0066247323
 31
0.0
  0
LINE
  5
86
330
1F
100
AcDbEntity
  8
0
  6
Continuous
 62
     7
100
AcDbLine
 10
154.5954630621
 20
319.0066247323
 30
0.0
 11
168.0954630621
 21
319.0066247323
 31
0.0
  0
LINE
  5
87
330
1F
100
AcDbEntity
  8
0
  6
Continuous
 62
     7
100
AcDbLine
 10
133.4912858988
 20
317.9103247323
 30
0.0
 11
132.4445342226
 21
317.9103247323
 31
0.0
  0
LINE
  5
88
330
1F
100
AcDbEntity
  8
0
  6
Continuous
 62
     7
100
AcDbLine
 10
131.6454630621
 20
318.1103247323
 30
0.0
 11
114.5054332682
 21
317.2516092397
 31
0.0
  0
LINE
  5
89
330
1F
100
AcDbEntity
  8
0
  6
Continuous
 62
     7
100
AcDbLine
 10
132.3410066046
 20
317.9239544018
 30
0.0
 11
132.4445342226
 21
317.9103247323
 31
0.0
  0
LINE
  5
8A
330
1F
100
AcDbEntity
  8
RUNDUNGEN
  6
Continuous
 62
     9
100
AcDbLine
 10
170.0954630621
 20
324.0066247323
 30
0.0
 11
170.0954630621
 21
282.0066247323
 31
0.0
  0
LINE
  5
8B
330
1F
100
AcDbEntity
  8
RUNDUNGEN
  6
Continuous
 62
     7
100
AcDbLine
 10
169.0954630621
 20
323.0066247323
 30
0.0
 11
169.0954630621
 21
283.0066247323
 31
0.0
  0
LINE
  5
8C
330
1F
100
AcDbEntity
  8
0
  6
Continuous
 62
     7
100
AcDbLine
 10
132.3410066046
 20
317.9239544018
 30
0.0
 11
131.6454630621
 21
318.1103247323
 31
0.0
  0
LINE
  5
8D
330
1F
100
AcDbEntity
  8
RUNDUNGEN
  6
Continuous
 62
     9
100
AcDbLine
 10
168.0954630621
 20
287.0066247323
 30
0.0
 11
168.0954630621
 21
319.0066247323
 31
0.0
  0
LWPOLYLINE
  5
8E
330
1F
100
AcDbEntity
  8
DEFAULT_2
  6
DASHED
 62
     8
100
AcDbPolyline
 90
        2
 70
     0
 43
0.35
 10
203.6454630621
 20
309.0066247323
 10
153.6454630621
 20
309.0066247323
  0
LINE
  5
8F
330
1F
100
AcDbEntity
  8
RUNDUNGEN
  6
Continuous
 62
     9
100
AcDbLine
 10
116.4454630621
 20
308.9116247323
 30
0.0
 11
117.0381837585
 21
308.9116247323
 31
0.0
  0
LINE
  5
90
330
1F
100
AcDbEntity
  8
0
  6
Continuous
 62
     9
100
AcDbLine
 10
116.4454630621
 20
308.9116247323
 30
0.0
 11
114.3617812126
 21
308.9116247323
 31
0.0
  0
LINE
  5
91
330
1F
100
AcDbEntity
  8
0
  6
Continuous
 62
     7
100
AcDbLine
 10
150.6829630621
 20
307.5211247323
 30
0.0
 11
153.5954630621
 21
307.5211247323
 31
0.0
  0
LINE
  5
92
330
1F
100
AcDbEntity
  8
0
  6
Continuous
 62
     7
100
AcDbLine
 10
146.1099630621
 20
307.5211247323
 30
0.0
 11
148.6079630621
 21
307.5211247323
 31
0.0
  0
LINE
  5
93
330
1F
100
AcDbEntity
  8
0
  6
Continuous
 62
     7
100
AcDbLine
 10
150.5277145348
 20
307.1211247323
 30
0.0
 11
153.5954630621
 21
307.1211247323
 31
0.0
  0
LINE
  5
94
330
1F
100
AcDbEntity
  8
0
  6
Continuous
 62
     7
100
AcDbLine
 10
146.1099630621
 20
307.1211247323
 30
0.0
 11
148.7632115894
 21
307.1211247323
 31
0.0
  0
LINE
  5
95
330
1F
100
AcDbEntity
  8
0
  6
Continuous
 62
     7
100
AcDbLine
 10
150.4329630621
 20
307.0415503822
 30
0.0
 11
148.8579630621
 21
307.0415503822
 31
0.0
  0
LINE
  5
96
330
1F
100
AcDbEntity
  8
0
  6
Continuous
 62
     7
100
AcDbLine
 10
116.4454630621
 20
307.0316247323
 30
0.0
 11
114.6954630621
 21
307.0316247323
 31
0.0
  0
LINE
  5
97
330
1F
100
AcDbEntity
  8
0
  6
Continuous
 62
     7
100
AcDbLine
 10
147.6103033632
 20
323.0066247323
 30
0.0
 11
148.6079630621
 21
321.2786274452
 31
0.0
  0
LWPOLYLINE
  5
98
330
1F
100
AcDbEntity
  8
TEIL_STARTBEZUEGE
  6
DOT_CENTER
 62
     7
100
AcDbPolyline
 90
        2
 70
     0
 43
0.25
 10
206.6454630621
 20
303.0066247323
 10
110.7454630621
 20
303.0066247323
  0
LINE
  5
99
330
1F
100
AcDbEntity
  8
0
  6
Continuous
 62
     7
100
AcDbLine
 10
147.6103033632
 20
283.0066247323
 30
0.0
 11
148.6079630621
 21
284.7346220195
 31
0.0
  0
LINE
  5
9A
330
1F
100
AcDbEntity
  8
0
  6
Continuous
 62
     7
100
AcDbLine
 10
116.4454630621
 20
298.9816247323
 30
0.0
 11
114.6954630621
 21
298.9816247323
 31
0.0
  0
LINE
  5
9B
330
1F
100
AcDbEntity
  8
0
  6
Continuous
 62
     7
100
AcDbLine
 10
148.8579630621
 20
298.9716990825
 30
0.0
 11
150.4329630621
 21
298.9716990825
 31
0.0
  0
LINE
  5
9C
330
1F
100
AcDbEntity
  8
0
  6
Continuous
 62
     7
100
AcDbLine
 10
148.7632115894
 20
298.8921247323
 30
0.0
 11
146.1099630621
 21
298.8921247323
 31
0.0
  0
LINE
  5
9D
330
1F
100
AcDbEntity
  8
0
  6
Continuous
 62
     7
100
AcDbLine
 10
153.5954630621
 20
298.8921247323
 30
0.0
 11
150.5277145348
 21
298.8921247323
 31
0.0
  0
LINE
  5
9E
330
1F
100
AcDbEntity
  8
0
  6
Continuous
 62
     7
100
AcDbLine
 10
150.6829630621
 20
298.4921247323
 30
0.0
 11
153.5954630621
 21
298.4921247323
 31
0.0
  0
LINE
  5
9F
330
1F
100
AcDbEntity
  8
0
  6
Continuous
 62
     7
100
AcDbLine
 10
146.1099630621
 20
298.4921247323
 30
0.0
 11
148.6079630621
 21
298.4921247323
 31
0.0
  0
LINE
  5
A0
330
1F
100
AcDbEntity
  8
0
  6
Continuous
 62
     9
100
AcDbLine
 10
116.4454630621
 20
297.1016247323
 30
0.0
 11
114.3617812126
 21
297.1016247323
 31
0.0
  0
LINE
  5
A1
330
1F
100
AcDbEntity
  8
RUNDUNGEN
  6
Continuous
 62
     9
100
AcDbLine
 10
117.0381837585
 20
297.1016247323
 30
0.0
 11
116.4454630621
 21
297.1016247323
 31
0.0
  0
LWPOLYLINE
  5
A2
330
1F
100
AcDbEntity
  8
BEZUGSACHSEN
  6
DASHED
 62
     8
100
AcDbPolyline
 90
        2
 70
     0
 43
0.35
 10
176.0454630621
 20
297.0066247323
 10
153.6454630621
 20
297.0066247323
  0
LWPOLYLINE
  5
A3
330
1F
100
AcDbEntity
  8
BEZUGSACHSEN
  6
DASHED
 62
     8
100
AcDbPolyline
 90
        2
 70
     0
 43
0.35
 10
203.6454630621
 20
297.0066247323
 10
176.0454630621
 20
297.0066247323
  0
LINE
  5
A4
330
1F
100
AcDbEntity
  8
RUNDUNGEN
  6
Continuous
 62
     9
100
AcDbLine
 10
154.5954630621
 20
287.0066247323
 30
0.0
 11
154.5954630621
 21
319.0066247323
 31
0.0
  0
LWPOLYLINE
  5
A5
330
1F
100
AcDbEntity
  8
DEFAULT_2
  6
DASHED
 62
     8
100
AcDbPolyline
 90
        2
 70
     0
 43
0.35
 10
153.6454630621
 20
309.0066247323
 10
153.6454630621
 20
297.0066247323
  0
LINE
  5
A6
330
1F
100
AcDbEntity
  8
RUNDUNGEN
  6
Continuous
 62
     7
100
AcDbLine
 10
153.5954630621
 20
304.8478199963
 30
0.0
 11
153.5954630621
 21
307.1211247323
 31
0.0
  0
LINE
  5
A7
330
1F
100
AcDbEntity
  8
RUNDUNGEN
  6
Continuous
 62
     7
100
AcDbLine
 10
153.5954630621
 20
298.8921247323
 30
0.0
 11
153.5954630621
 21
301.1654294684
 31
0.0
  0
LINE
  5
A8
330
1F
100
AcDbEntity
  8
0
  6
Continuous
 62
     7
100
AcDbLine
 10
153.5954630621
 20
283.0066290206
 30
0.0
 11
153.5954630621
 21
298.8921247323
 31
0.0
  0
LINE
  5
A9
330
1F
100
AcDbEntity
  8
0
  6
Continuous
 62
     7
100
AcDbLine
 10
153.5954630621
 20
323.0065893754
 30
0.0
 11
153.5954630621
 21
307.1211247323
 31
0.0
  0
LINE
  5
AA
330
1F
100
AcDbEntity
  8
0
  6
Continuous
 62
     7
100
AcDbLine
 10
132.3410066046
 20
288.0892950628
 30
0.0
 11
131.6454630621
 21
287.9029247323
 31
0.0
  0
LINE
  5
AB
330
1F
100
AcDbEntity
  8
0
  6
Continuous
 62
     7
100
AcDbLine
 10
151.680622761
 20
307.5211247323
 30
0.0
 11
151.680622761
 21
323.0066247323
 31
0.0
  0
LINE
  5
AC
330
1F
100
AcDbEntity
  8
0
  6
Continuous
 62
     7
100
AcDbLine
 10
151.680622761
 20
283.0066247323
 30
0.0
 11
151.680622761
 21
286.8952157313
 31
0.0
  0
LINE
  5
AD
330
1F
100
AcDbEntity
  8
0
  6
Continuous
 62
     7
100
AcDbLine
 10
151.680622761
 20
298.4921247323
 30
0.0
 11
151.680622761
 21
291.1566247323
 31
0.0
  0
LINE
  5
AE
330
1F
100
AcDbEntity
  8
0
  6
Continuous
 62
     7
100
AcDbLine
 10
150.6829630621
 20
307.3121484219
 30
0.0
 11
150.6829630621
 21
321.2785660263
 31
0.0
  0
LINE
  5
AF
330
1F
100
AcDbEntity
  8
0
  6
Continuous
 62
     7
100
AcDbLine
 10
150.6829630621
 20
291.1566247323
 30
0.0
 11
150.6829630621
 21
298.7011010427
 31
0.0
  0
LINE
  5
B0
330
1F
100
AcDbEntity
  8
0
  6
Continuous
 62
     7
100
AcDbLine
 10
150.6829630621
 20
284.7346828941
 30
0.0
 11
150.6829630621
 21
289.9598578915
 31
0.0
  0
LINE
  5
B1
330
1F
100
AcDbEntity
  8
0
  6
Continuous
 62
     9
100
AcDbLine
 10
150.4329630621
 20
307.0415503822
 30
0.0
 11
150.4329630621
 21
320.3816247323
 31
0.0
  0
LINE
  5
B2
330
1F
100
AcDbEntity
  8
0
  6
Continuous
 62
     9
100
AcDbLine
 10
150.4329630621
 20
285.6316247323
 30
0.0
 11
150.4329630621
 21
290.2996138722
 31
0.0
  0
LINE
  5
B3
330
1F
100
AcDbEntity
  8
0
  6
Continuous
 62
     9
100
AcDbLine
 10
150.4329630621
 20
298.9716990825
 30
0.0
 11
150.4329630621
 21
291.1566247323
 31
0.0
  0
LINE
  5
B4
330
1F
100
AcDbEntity
  8
0
  6
Continuous
 62
     7
100
AcDbLine
 10
146.0818313038
 20
291.1566247323
 30
0.0
 11
153.5954630621
 21
291.1566247323
 31
0.0
  0
LINE
  5
B5
330
1F
100
AcDbEntity
  8
0
  6
Continuous
 62
     7
100
AcDbLine
 10
146.0818313038
 20
290.7566247323
 30
0.0
 11
153.5954630621
 21
290.7566247323
 31
0.0
  0
LINE
  5
B6
330
1F
100
AcDbEntity
  8
0
  6
Continuous
 62
     7
100
AcDbLine
 10
148.8579630621
 20
290.2996138722
 30
0.0
 11
150.4329630621
 21
290.2996138722
 31
0.0
  0
LINE
  5
B7
330
1F
100
AcDbEntity
  8
0
  6
Continuous
 62
     7
100
AcDbLine
 10
132.3410066046
 20
288.0892950628
 30
0.0
 11
132.4445342226
 21
288.1029247323
 31
0.0
  0
LINE
  5
B8
330
1F
100
AcDbEntity
  8
0
  6
Continuous
 62
     9
100
AcDbLine
 10
148.8579630621
 20
307.0415503822
 30
0.0
 11
148.8579630621
 21
320.3816247323
 31
0.0
  0
LINE
  5
B9
330
1F
100
AcDbEntity
  8
0
  6
Continuous
 62
     9
100
AcDbLine
 10
148.8579630621
 20
285.6316247323
 30
0.0
 11
148.8579630621
 21
290.2996138722
 31
0.0
  0
LINE
  5
BA
330
1F
100
AcDbEntity
  8
0
  6
Continuous
 62
     9
100
AcDbLine
 10
148.8579630621
 20
298.9716990825
 30
0.0
 11
148.8579630621
 21
291.1566247323
 31
0.0
  0
LINE
  5
BB
330
1F
100
AcDbEntity
  8
0
  6
Continuous
 62
     7
100
AcDbLine
 10
148.6079630621
 20
291.1566247323
 30
0.0
 11
148.6079630621
 21
298.7011010427
 31
0.0
  0
LINE
  5
BC
330
1F
100
AcDbEntity
  8
0
  6
Continuous
 62
     7
100
AcDbLine
 10
148.6079630621
 20
284.7346828941
 30
0.0
 11
148.6079630621
 21
289.9598578915
 31
0.0
  0
LINE
  5
BD
330
1F
100
AcDbEntity
  8
0
  6
Continuous
 62
     7
100
AcDbLine
 10
148.6079630621
 20
321.2785660263
 30
0.0
 11
148.6079630621
 21
307.3121484219
 31
0.0
  0
LINE
  5
BE
330
1F
100
AcDbEntity
  8
0
  6
Continuous
 62
     7
100
AcDbLine
 10
147.6103033632
 20
286.8952157313
 30
0.0
 11
147.6103033632
 21
283.0066247323
 31
0.0
  0
LINE
  5
BF
330
1F
100
AcDbEntity
  8
0
  6
Continuous
 62
     7
100
AcDbLine
 10
147.6103033632
 20
298.4921247323
 30
0.0
 11
147.6103033632
 21
291.1566247323
 31
0.0
  0
LINE
  5
C0
330
1F
100
AcDbEntity
  8
0
  6
Continuous
 62
     7
100
AcDbLine
 10
147.6103033632
 20
323.0066247323
 30
0.0
 11
147.6103033632
 21
307.5211247323
 31
0.0
  0
LINE
  5
C1
330
1F
100
AcDbEntity
  8
FASEN
  6
Continuous
 62
     9
100
AcDbLine
 10
146.1099630621
 20
307.1211247323
 30
0.0
 11
146.1099630621
 21
307.5211247323
 31
0.0
  0
LINE
  5
C2
330
1F
100
AcDbEntity
  8
FASEN
  6
Continuous
 62
     9
100
AcDbLine
 10
146.1099630621
 20
298.8921247323
 30
0.0
 11
146.1099630621
 21
298.4921247323
 31
0.0
  0
LINE
  5
C3
330
1F
100
AcDbEntity
  8
FASEN
  6
Continuous
 62
     9
100
AcDbLine
 10
146.0818313038
 20
290.7566247323
 30
0.0
 11
146.0818313038
 21
291.1566247323
 31
0.0
  0
LINE
  5
C4
330
1F
100
AcDbEntity
  8
0
  6
Continuous
 62
     7
100
AcDbLine
 10
150.6829630621
 20
284.7346220195
 30
0.0
 11
151.680622761
 21
283.0066247323
 31
0.0
  0
LINE
  5
C5
330
1F
100
AcDbEntity
  8
0
  6
Continuous
 62
     7
100
AcDbLine
 10
133.4912858988
 20
288.1029247323
 30
0.0
 11
132.4445342226
 21
288.1029247323
 31
0.0
  0
LINE
  5
C6
330
1F
100
AcDbEntity
  8
0
  6
Continuous
 62
     7
100
AcDbLine
 10
154.5954630621
 20
287.0066247323
 30
0.0
 11
168.0954630621
 21
287.0066247323
 31
0.0
  0
LINE
  5
C7
330
1F
100
AcDbEntity
  8
0
  6
Continuous
 62
     7
100
AcDbLine
 10
150.6829630621
 20
321.2786274452
 30
0.0
 11
151.680622761
 21
323.0066247323
 31
0.0
  0
LINE
  5
C8
330
1F
100
AcDbEntity
  8
0
  6
Continuous
 62
     9
100
AcDbLine
 10
114.6954630621
 20
307.8423725743
 30
0.0
 11
113.7454630621
 21
308.3826861648
 31
0.0
  0
LINE
  5
C9
330
1F
100
AcDbEntity
  8
0
  6
Continuous
 62
     7
100
AcDbLine
 10
131.6454630621
 20
287.9029247323
 30
0.0
 11
114.5054332682
 21
288.761640225
 31
0.0
  0
LINE
  5
CA
330
1F
100
AcDbEntity
  8
0
  6
Continuous
 62
     7
100
AcDbLine
 10
151.680622761
 20
286.8952157313
 30
0.0
 11
153.5954630621
 21
286.8952157313
 31
0.0
  0
LINE
  5
CB
330
1F
100
AcDbEntity
  8
0
  6
Continuous
 62
     7
100
AcDbLine
 10
141.9887793453
 20
286.8952157313
 30
0.0
 11
147.6103033632
 21
286.8952157313
 31
0.0
  0
LINE
  5
CC
330
1F
100
AcDbEntity
  8
0
  6
Continuous
 62
     7
100
AcDbLine
 10
148.8579630621
 20
285.6316247323
 30
0.0
 11
150.4329630621
 21
285.6316247323
 31
0.0
  0
LINE
  5
CD
330
1F
100
AcDbEntity
  8
0
  6
Continuous
 62
     9
100
AcDbLine
 10
113.7454630621
 20
297.6305632998
 30
0.0
 11
114.6954630621
 21
298.1708768903
 31
0.0
  0
LWPOLYLINE
  5
CE
330
1F
100
AcDbEntity
  8
BEZUGSACHSEN
  6
DOT_CENTER
 62
     7
100
AcDbPolyline
 90
        2
 70
     0
 43
0.25
 10
140.6454630621
 20
328.7715414634
 10
140.6454630621
 20
314.7715414634
  0
LINE
  5
CF
330
1F
100
AcDbEntity
  8
0
  6
Continuous
 62
     7
100
AcDbLine
 10
151.680622761
 20
283.0066247323
 30
0.0
 11
153.5954630621
 21
283.0066247323
 31
0.0
  0
LINE
  5
D0
330
1F
100
AcDbEntity
  8
0
  6
Continuous
 62
     7
100
AcDbLine
 10
147.6103033632
 20
283.0066247323
 30
0.0
 11
133.6454630621
 21
283.0066247323
 31
0.0
  0
LINE
  5
D1
330
1F
100
AcDbEntity
  8
0
  6
Continuous
 62
     7
100
AcDbLine
 10
186.2454630621
 20
282.0066247323
 30
0.0
 11
190.5567268764
 21
282.0066247323
 31
0.0
  0
LINE
  5
D2
330
1F
100
AcDbEntity
  8
0
  6
Continuous
 62
     7
100
AcDbLine
 10
170.0954630621
 20
282.0066247323
 30
0.0
 11
176.0454630621
 21
282.0066247323
 31
0.0
  0
LINE
  5
D3
330
1F
100
AcDbEntity
  8
RUNDUNGEN
  6
Continuous
 62
     7
100
AcDbLine
 10
176.0454630621
 20
282.0066247323
 30
0.0
 11
170.0954630621
 21
282.0066247323
 31
0.0
  0
LINE
  5
D4
330
1F
100
AcDbEntity
  8
0
  6
Continuous
 62
     7
100
AcDbLine
 10
133.6454630621
 20
323.0066247323
 30
0.0
 11
133.6454630621
 21
283.0066247323
 31
0.0
  0
LINE
  5
D5
330
1F
100
AcDbEntity
  8
0
  6
Continuous
 62
     9
100
AcDbLine
 10
133.4912858988
 20
288.1029247323
 30
0.0
 11
133.4912858988
 21
317.9103247323
 31
0.0
  0
LINE
  5
D6
330
1F
100
AcDbEntity
  8
0
  6
Continuous
 62
     7
100
AcDbLine
 10
114.6954630621
 20
307.0316247323
 30
0.0
 11
113.7454630621
 21
307.9816247323
 31
0.0
  0
LINE
  5
D7
330
1F
100
AcDbEntity
  8
0
  6
Continuous
 62
     7
100
AcDbLine
 10
113.7454630621
 20
298.0316247323
 30
0.0
 11
114.6954630621
 21
298.9816247323
 31
0.0
  0
LINE
  5
D8
330
1F
100
AcDbEntity
  8
0
  6
Continuous
 62
     9
100
AcDbLine
 10
132.4445342226
 20
288.1029247323
 30
0.0
 11
132.4445342226
 21
317.9103247323
 31
0.0
  0
LINE
  5
D9
330
1F
100
AcDbEntity
  8
0
  6
Continuous
 62
     9
100
AcDbLine
 10
132.3410066046
 20
288.0892950628
 30
0.0
 11
132.3410066046
 21
317.9239544018
 31
0.0
  0
LINE
  5
DA
330
1F
100
AcDbEntity
  8
0
  6
Continuous
 62
     7
100
AcDbLine
 10
131.6454630621
 20
318.1103247323
 30
0.0
 11
131.6454630621
 21
287.9029247323
 31
0.0
  0
LWPOLYLINE
  5
DB
330
1F
100
AcDbEntity
  8
BEZUGSACHSEN
  6
DOT_CENTER
 62
     7
100
AcDbPolyline
 90
        2
 70
     0
 43
0.25
 10
127.6454630621
 20
297.7066247323
 10
127.6454630621
 20
308.3066247323
  0
LINE
  5
DC
330
1F
100
AcDbEntity
  8
0
  6
Continuous
 62
     7
100
AcDbLine
 10
114.306897691
 20
309.0081230371
 30
0.0
 11
114.3617812126
 21
308.9116247323
 31
0.0
  0
LINE
  5
DD
330
1F
100
AcDbEntity
  8
0
  6
Continuous
 62
     7
100
AcDbLine
 10
114.3617812126
 20
297.1016247323
 30
0.0
 11
114.306897691
 21
297.0051264275
 31
0.0
  0
LINE
  5
DE
330
1F
100
AcDbEntity
  8
RUNDUNGEN
  6
Continuous
 62
     7
100
AcDbLine
 10
117.3454630621
 20
307.8219169414
 30
0.0
 11
117.3454630621
 21
298.1913325232
 31
0.0
  0
LINE
  5
DF
330
1F
100
AcDbEntity
  8
RUNDUNGEN
  6
Continuous
 62
     9
100
AcDbLine
 10
116.4454630621
 20
307.0316247323
 30
0.0
 11
116.4454630621
 21
309.3156442403
 31
0.0
  0
LINE
  5
E0
330
1F
100
AcDbEntity
  8
RUNDUNGEN
  6
Continuous
 62
     9
100
AcDbLine
 10
116.4454630621
 20
296.6976052243
 30
0.0
 11
116.4454630621
 21
298.9816247323
 31
0.0
  0
LINE
  5
E1
330
1F
100
AcDbEntity
  8
0
  6
Continuous
 62
     7
100
AcDbLine
 10
114.6954630621
 20
307.0316247323
 30
0.0
 11
114.6954630621
 21
307.8423725743
 31
0.0
  0
LINE
  5
E2
330
1F
100
AcDbEntity
  8
0
  6
Continuous
 62
     7
100
AcDbLine
 10
114.6954630621
 20
298.1708768903
 30
0.0
 11
114.6954630621
 21
298.9816247323
 31
0.0
  0
LINE
  5
E3
330
1F
100
AcDbEntity
  8
0
  6
Continuous
 62
     9
100
AcDbLine
 10
114.5054332682
 20
296.9217924738
 30
0.0
 11
114.5054332682
 21
288.761640225
 31
0.0
  0
LINE
  5
E4
330
1F
100
AcDbEntity
  8
0
  6
Continuous
 62
     9
100
AcDbLine
 10
114.5054332682
 20
317.2516092397
 30
0.0
 11
114.5054332682
 21
309.0914569908
 31
0.0
  0
LINE
  5
E5
330
1F
100
AcDbEntity
  8
0
  6
Continuous
 62
     7
100
AcDbLine
 10
113.7454630621
 20
307.9816247323
 30
0.0
 11
113.7454630621
 21
316.4526113569
 31
0.0
  0
LINE
  5
E6
330
1F
100
AcDbEntity
  8
0
  6
Continuous
 62
     7
100
AcDbLine
 10
113.7454630621
 20
289.5606381072
 30
0.0
 11
113.7454630621
 21
298.0316247323
 31
0.0
  0
ARC
  5
E7
330
1F
100
AcDbEntity
  8
0
  6
Continuous
 62
     7
100
AcDbCircle
 10
150.4329630621
 20
320.6316247323
 30
0.0
 40
0.25
100
AcDbArc
 50
270.0
 51
0.0
  0
ARC
  5
E8
330
1F
100
AcDbEntity
  8
RUNDUNGEN
  6
Continuous
 62
     7
100
AcDbCircle
 10
202.6454630621
 20
317.3695544715
 30
0.0
 40
1.0
100
AcDbArc
 50
0.0
 51
65.00000000364744
  0
ARC
  5
E9
330
1F
100
AcDbEntity
  8
RUNDUNGEN
  6
Continuous
 62
     7
100
AcDbCircle
 10
190.5567268764
 20
323.0066247323
 30
0.0
 40
1.000000000040203
100
AcDbArc
 50
65.00000000364744
 51
90.0
  0
ARC
  5
EA
330
1F
100
AcDbEntity
  8
RUNDUNGEN
  6
Continuous
 62
     7
100
AcDbCircle
 10
154.5954630621
 20
320.0066247323
 30
0.0
 40
0.9999999999996458
100
AcDbArc
 50
186.428572032872
 51
270.0
  0
ARC
  5
EB
330
1F
100
AcDbEntity
  8
RUNDUNGEN
  6
Continuous
 62
     7
100
AcDbCircle
 10
170.0954630621
 20
323.0066247323
 30
0.0
 40
1.0
100
AcDbArc
 50
90.0
 51
180.0
  0
ARC
  5
EC
330
1F
100
AcDbEntity
  8
RUNDUNGEN
  6
Continuous
 62
     7
100
AcDbCircle
 10
168.0954630621
 20
320.0066247323
 30
0.0
 40
1.0
100
AcDbArc
 50
270.0
 51
0.0
  0
ARC
  5
ED
330
1F
100
AcDbEntity
  8
0
  6
Continuous
 62
     7
100
AcDbCircle
 10
254.7391219624
 20
334.8939237613
 30
0.0
 40
113.6878631614003
100
AcDbArc
 50
203.754563597
 51
204.9733896764018
  0
ARC
  5
EE
330
1F
100
AcDbEntity
  8
RUNDUNGEN
  6
Continuous
 62
     7
100
AcDbCircle
 10
182.3744807492
 20
875.7280658645
 30
0.0
 40
582.771747532778
100
AcDbArc
 50
263.3122116896084
 51
263.5042170251268
  0
ARC
  5
EF
330
1F
100
AcDbEntity
  8
0
  6
Continuous
 62
     7
100
AcDbCircle
 10
150.4329630621
 20
285.3816247323
 30
0.0
 40
0.25
100
AcDbArc
 50
0.0
 51
90.0
  0
ARC
  5
F0
330
1F
100
AcDbEntity
  8
RUNDUNGEN
  6
Continuous
 62
     7
100
AcDbCircle
 10
190.5567268764
 20
283.0066247323
 30
0.0
 40
1.0
100
AcDbArc
 50
270.0
 51
294.9999999987737
  0
ARC
  5
F1
330
1F
100
AcDbEntity
  8
RUNDUNGEN
  6
Continuous
 62
     7
100
AcDbCircle
 10
170.0954630621
 20
283.0066247323
 30
0.0
 40
1.0
100
AcDbArc
 50
180.0
 51
270.0
  0
ARC
  5
F2
330
1F
100
AcDbEntity
  8
RUNDUNGEN
  6
Continuous
 62
     7
100
AcDbCircle
 10
202.6454630621
 20
288.6436949931
 30
0.0
 40
0.999999999949584
100
AcDbArc
 50
294.9999999987737
 51
0.0
  0
ARC
  5
F3
330
1F
100
AcDbEntity
  8
RUNDUNGEN
  6
Continuous
 62
     7
100
AcDbCircle
 10
168.0954630621
 20
286.0066247323
 30
0.0
 40
1.0
100
AcDbArc
 50
0.0
 51
90.0
  0
ARC
  5
F4
330
1F
100
AcDbEntity
  8
RUNDUNGEN
  6
Continuous
 62
     7
100
AcDbCircle
 10
154.5954630621
 20
286.0066247323
 30
0.0
 40
1.0
100
AcDbArc
 50
90.0
 51
180.0
  0
ARC
  5
F5
330
1F
100
AcDbEntity
  8
RUNDUNGEN
  6
Continuous
 62
     7
100
AcDbCircle
 10
182.3744807493
 20
-269.7148164005
 30
0.0
 40
582.7717475333685
100
AcDbArc
 50
96.49578297487633
 51
96.68778831039452
  0
ARC
  5
F6
330
1F
100
AcDbEntity
  8
0
  6
Continuous
 62
     7
100
AcDbCircle
 10
148.8579630621
 20
320.6316247323
 30
0.0
 40
0.25
100
AcDbArc
 50
180.0
 51
270.0
  0
ARC
  5
F7
330
1F
100
AcDbEntity
  8
0
  6
Continuous
 62
     7
100
AcDbCircle
 10
133.4912858988
 20
318.3103247323
 30
0.0
 40
0.3999999999999773
100
AcDbArc
 50
270.0
 51
292.6984354595353
  0
ARC
  5
F8
330
1F
100
AcDbEntity
  8
0
  6
Continuous
 62
     7
100
AcDbCircle
 10
132.4445342226
 20
318.3103247323
 30
0.0
 40
0.3999999999742607
100
AcDbArc
 50
255.0000000050952
 51
270.0
  0
ARC
  5
F9
330
1F
100
AcDbEntity
  8
0
  6
Continuous
 62
     7
100
AcDbCircle
 10
114.5454630621
 20
316.4526113576
 30
0.0
 40
0.7999999999999445
100
AcDbArc
 50
92.86812048780084
 51
180.0000000501357
  0
ARC
  5
FA
330
1F
100
AcDbEntity
  8
RUNDUNGEN
  6
Continuous
 62
     7
100
AcDbCircle
 10
116.4454630621
 20
306.1316247323
 30
0.0
 40
0.8999999999998918
100
AcDbArc
 50
7.01196301020821
 51
90.0
  0
ARC
  5
FB
330
1F
100
AcDbEntity
  8
FASEN
  6
Continuous
 62
     7
100
AcDbCircle
 10
146.1099630621
 20
303.0066247323
 30
0.0
 40
4.114498623500026
100
AcDbArc
 50
90.0
 51
270.0
  0
ARC
  5
FC
330
1F
100
AcDbEntity
  8
0
  6
Continuous
 62
     7
100
AcDbCircle
 10
146.1099630621
 20
303.0066247323
 30
0.0
 40
4.514499999999998
100
AcDbArc
 50
90.0
 51
270.0
  0
ARC
  5
FD
330
1F
100
AcDbEntity
  8
0
  6
Continuous
 62
     7
100
AcDbCircle
 10
44.551804162
 20
334.8939237612
 30
0.0
 40
113.6878631611278
100
AcDbArc
 50
335.0266103236013
 51
336.2454364029999
  0
ARC
  5
FE
330
1F
100
AcDbEntity
  8
0
  6
Continuous
 62
     7
100
AcDbCircle
 10
148.8579630621
 20
285.3816247323
 30
0.0
 40
0.25
100
AcDbArc
 50
90.0
 51
180.0
  0
ARC
  5
FF
330
1F
100
AcDbEntity
  8
0
  6
Continuous
 62
     7
100
AcDbCircle
 10
133.4912858988
 20
287.7029247323
 30
0.0
 40
0.3999999999998977
100
AcDbArc
 50
67.30156454046462
 51
90.0
  0
ARC
  5
100
330
1F
100
AcDbEntity
  8
0
  6
Continuous
 62
     7
100
AcDbCircle
 10
114.5454630621
 20
289.5606381071
 30
0.0
 40
0.7999999999999972
100
AcDbArc
 50
179.9999999928349
 51
267.1318795121992
  0
ARC
  5
101
330
1F
100
AcDbEntity
  8
RUNDUNGEN
  6
Continuous
 62
     7
100
AcDbCircle
 10
116.4454630621
 20
299.8816247323
 30
0.0
 40
0.8999999999999773
100
AcDbArc
 50
270.0
 51
352.9880362154747
  0
ARC
  5
102
330
1F
100
AcDbEntity
  8
FASEN
  6
Continuous
 62
     7
100
AcDbCircle
 10
146.0818313038
 20
286.6566247323
 30
0.0
 40
4.099981300800039
100
AcDbArc
 50
90.0
 51
176.6639061997959
  0
ARC
  5
103
330
1F
100
AcDbEntity
  8
FASEN
  6
Continuous
 62
     7
100
AcDbCircle
 10
146.0818313038
 20
286.6566247323
 30
0.0
 40
4.5
100
AcDbArc
 50
90.0
 51
173.1003589696013
  0
ARC
  5
104
330
1F
100
AcDbEntity
  8
FASEN
  6
Continuous
 62
     7
100
AcDbCircle
 10
147.9804250022
 20
294.7055605878
 30
0.0
 40
9.84384601959956
100
AcDbArc
 50
229.7068180622013
 51
232.5066621072582
  0
CIRCLE
  5
105
330
1F
100
AcDbEntity
  8
FASEN
  6
Continuous
 62
     7
100
AcDbCircle
 10
127.6454630621
 20
303.0066247323
 30
0.0
 40
2.299999999999997
  0
SPLINE
  5
106
330
1F
100
AcDbEntity
  8
0
  6
Continuous
 62
     7
100
AcDbSpline
210
0.0
220
0.0
230
1.0
 70
     8
 71
     3
 72
    11
 73
     7
 74
     5
 42
0.0000000001
 43
0.0000000001
 44
0.00000001
 40
0.0
 40
0.0
 40
0.0
 40
0.0
 40
0.3030455532288963
 40
0.6062117027754992
 40
0.8687239931825288
 40
1.131137294180698
 40
1.131137294180698
 40
1.131137294180698
 40
1.131137294180698
 10
114.6954630621
 20
307.8423725743
 30
0.0
 10
114.6886274150193
 20
307.9434607788023
 30
0.0
 10
114.6749534006271
 20
308.1456774156376
 30
0.0
 10
114.5906287016912
 20
308.4246142113284
 30
0.0
 10
114.4868168723514
 20
308.6806202512499
 30
0.0
 10
114.4034545257494
 20
308.8346329197494
 30
0.0
 10
114.3617812126
 20
308.9116247323
 30
0.0
 11
114.6954630621
 21
307.8423725743
 31
0.0
 11
114.6636682824402
 21
308.1437455978409
 31
0.0
 11
114.5820851891145
 21
308.4357283252655
 31
0.0
 11
114.482413744998
 21
308.678582820473
 31
0.0
 11
114.3617812126
 21
308.9116247323
 31
0.0
  0
SPLINE
  5
107
330
1F
100
AcDbEntity
  8
0
  6
Continuous
 62
     7
100
AcDbSpline
210
0.0
220
0.0
230
1.0
 70
     8
 71
     3
 72
    11
 73
     7
 74
     5
 42
0.0000000001
 43
0.0000000001
 44
0.00000001
 40
0.0
 40
0.0
 40
0.0
 40
0.0
 40
0.3498700338310131
 40
0.6997119068324831
 40
0.9156479955400099
 40
1.131263567935235
 40
1.131263567935235
 40
1.131263567935235
 40
1.131263567935235
 10
114.3617812126
 20
297.1016247323
 30
0.0
 10
114.4166207865297
 20
297.2047081257371
 30
0.0
 10
114.5262955203846
 20
297.4108666154905
 30
0.0
 10
114.6273639687089
 20
297.7000783841861
 30
0.0
 10
114.6850345548279
 20
297.9550106780913
 30
0.0
 10
114.6919886146183
 20
298.0989571228937
 30
0.0
 10
114.6954630621
 20
298.1708768903
 30
0.0
 11
114.3617812126
 21
297.1016247323
 31
0.0
 11
114.5181889996421
 21
297.414587421331
 31
0.0
 11
114.6342325938486
 21
297.7446226018025
 31
0.0
 11
114.6788248315858
 21
297.9559042307717
 31
0.0
 11
114.6954630621
 21
298.1708768903
 31
0.0
  0
SPLINE
  5
108
330
1F
100
AcDbEntity
  8
0
  6
Continuous
 62
     7
100
AcDbSpline
210
0.0
220
0.0
230
1.0
 70
     8
 71
     3
 72
    19
 73
    15
 74
    13
 42
0.0000000001
 43
0.0000000001
 44
0.00000001
 40
0.0
 40
0.0
 40
0.0
 40
0.0
 40
0.0580397028416737
 40
0.1162122440306707
 40
0.1743901948621275
 40
0.2324205837662417
 40
0.261516435799684
 40
0.2906047870376568
 40
0.3197019405048603
 40
0.3487963878741711
 40
0.3779163313005826
 40
0.4070487870514988
 40
0.4362246475364116
 40
0.4653253928175752
 40
0.4653253928175752
 40
0.4653253928175752
 40
0.4653253928175752
 10
148.6079630621
 20
289.9598578915
 30
0.0
 10
148.6086687301711
 20
289.979217928906
 30
0.0
 10
148.6100816814107
 20
290.0179823139962
 30
0.0
 10
148.6216575328874
 20
290.0752038287754
 30
0.0
 10
148.6403217460706
 20
290.1304124904206
 30
0.0
 10
148.6627838889948
 20
290.1736009738406
 30
0.0
 10
148.6849360397981
 20
290.2054340790767
 30
0.0
 10
148.7037662353053
 20
290.2276761314308
 30
0.0
 10
148.7247956729436
 20
290.2478633925277
 30
0.0
 10
148.7480071578814
 20
290.2655321256759
 30
0.0
 10
148.7732841725606
 20
290.2801698492948
 30
0.0
 10
148.8003714382839
 20
290.2911236789966
 30
0.0
 10
148.8288107462817
 20
290.2982292357647
 30
0.0
 10
148.8482539772305
 20
290.2991527234958
 30
0.0
 10
148.8579630621
 20
290.2996138722
 30
0.0
 11
148.6079630621
 21
289.9598578915
 31
0.0
 11
148.6116517431952
 21
290.0177802596986
 31
0.0
 11
148.6228395419674
 21
290.0748668404949
 31
0.0
 11
148.6417226436186
 21
290.1298950372214
 31
0.0
 11
148.6686492830702
 21
290.1813001159998
 31
0.0
 11
148.6853030643181
 21
290.2051584515599
 31
0.0
 11
148.7041308091396
 21
290.2273315930306
 31
0.0
 11
148.7251586643443
 21
290.2474431231907
 31
0.0
 11
148.7483426715024
 21
290.2650211970278
 31
0.0
 11
148.7735780365391
 21
290.279552110854
 31
0.0
 11
148.8005841234858
 21
290.2904778257461
 31
0.0
 11
148.8289561027852
 21
290.297279415683
 31
0.0
 11
148.8579630621
 21
290.2996138722
 31
0.0
  0
SPLINE
  5
109
330
1F
100
AcDbEntity
  8
0
  6
Continuous
 62
     7
100
AcDbSpline
210
0.0
220
0.0
230
1.0
 70
     8
 71
     3
 72
    19
 73
    15
 74
    13
 42
0.0000000001
 43
0.0000000001
 44
0.00000001
 40
0.0
 40
0.0
 40
0.0
 40
0.0
 40
0.0290936469953721
 40
0.0582617352515833
 40
0.0873904531826389
 40
0.1165074751970833
 40
0.1456047854856872
 40
0.1747042911448277
 40
0.2037980858266028
 40
0.2328996448606476
 40
0.2909367192998175
 40
0.3491211705769171
 40
0.4072902895243748
 40
0.4653266164846436
 40
0.4653266164846436
 40
0.4653266164846436
 40
0.4653266164846436
 10
150.4329630621
 20
290.2996138722
 30
0.0
 10
150.4426697764119
 20
290.2991535989814
 30
0.0
 10
150.4621080413877
 20
290.2982318748536
 30
0.0
 10
150.4905426904487
 20
290.2911332352329
 30
0.0
 10
150.5176253328829
 20
290.2801800835436
 30
0.0
 10
150.542900329192
 20
290.2655417604224
 30
0.0
 10
150.5661142139971
 20
290.2478751355504
 30
0.0
 10
150.5871490973725
 20
290.2276883471658
 30
0.0
 10
150.605983737481
 20
290.2054440549398
 30
0.0
 10
150.6281400132471
 20
290.1736065398407
 30
0.0
 10
150.6506053306473
 20
290.1304125205876
 30
0.0
 10
150.6692699144121
 20
290.0752004838283
 30
0.0
 10
150.6808447702032
 20
290.017978915525
 30
0.0
 10
150.6822575029273
 20
289.9792168012382
 30
0.0
 10
150.6829630621
 20
289.9598578915
 30
0.0
 11
150.4329630621
 21
290.2996138722
 31
0.0
 11
150.46196317087
 21
290.297282780864
 31
0.0
 11
150.4903285108845
 21
290.2904868366038
 31
0.0
 11
150.5173311302533
 21
290.2795625171501
 31
0.0
 11
150.5425636618452
 21
290.2650325370932
 31
0.0
 11
150.5657515008301
 21
290.2474547787252
 31
0.0
 11
150.5867835443474
 21
290.2273442249016
 31
0.0
 11
150.6056164247958
 21
290.2051683032071
 31
0.0
 11
150.6222741209278
 21
290.1813057405244
 31
0.0
 11
150.6492041375784
 21
290.1298948835712
 31
0.0
 11
150.668088684018
 21
290.0748603101088
 31
0.0
 11
150.679274926913
 21
290.0177769117428
 31
0.0
 11
150.6829630621
 21
289.9598578915
 31
0.0
  0
SPLINE
  5
10A
330
1F
100
AcDbEntity
  8
0
  6
Continuous
 62
     7
100
AcDbSpline
210
0.0
220
0.0
230
1.0
 70
     8
 71
     3
 72
    11
 73
     7
 74
     5
 42
0.0000000001
 43
0.0000000001
 44
0.00000001
 40
0.0
 40
0.0
 40
0.0
 40
0.0
 40
0.0543309618100644
 40
0.108811718711589
 40
0.1632583665490685
 40
0.2176288252548565
 40
0.2176288252548565
 40
0.2176288252548565
 40
0.2176288252548565
 10
114.5054332682
 20
296.9217924738
 30
0.0
 10
114.4875272883185
 20
296.9247371354182
 30
0.0
 10
114.4516659602431
 20
296.9306345773377
 30
0.0
 10
114.4003225357466
 20
296.9494435911186
 30
0.0
 10
114.3515610300208
 20
296.9739653077071
 30
0.0
 10
114.321778519856
 20
296.994744237078
 30
0.0
 10
114.306897691
 20
297.0051264275
 30
0.0
 11
114.5054332682
 21
296.9217924738
 31
0.0
 11
114.4521244323874
 21
296.9322815841301
 31
0.0
 11
114.4007447166481
 21
296.9504000190268
 31
0.0
 11
114.3522169256005
 21
296.9750878896677
 31
0.0
 11
114.306897691
 21
297.0051264275
 31
0.0
  0
SPLINE
  5
10B
330
1F
100
AcDbEntity
  8
0
  6
Continuous
 62
     7
100
AcDbSpline
210
0.0
220
0.0
230
1.0
 70
     8
 71
     3
 72
    15
 73
    11
 74
     9
 42
0.0000000001
 43
0.0000000001
 44
0.00000001
 40
0.0
 40
0.0
 40
0.0
 40
0.0
 40
0.0291928827203754
 40
0.0584749030355873
 40
0.0893472907402827
 40
0.1202111503278866
 40
0.1539964535774218
 40
0.1878186150882773
 40
0.2252201505636478
 40
0.2625568083103722
 40
0.2625568083103722
 40
0.2625568083103722
 40
0.2625568083103722
 10
150.6829630621
 20
307.3121484219
 30
0.0
 10
150.6824644818307
 20
307.3024070340076
 30
0.0
 10
150.6814657989261
 20
307.2828945138534
 30
0.0
 10
150.6736258412062
 20
307.2539429956078
 30
0.0
 10
150.6611427095988
 20
307.2261671621405
 30
0.0
 10
150.6434595035854
 20
307.1995266223645
 30
0.0
 10
150.6211977208895
 20
307.1752136595121
 30
0.0
 10
150.5938457209594
 20
307.1532178887431
 30
0.0
 10
150.5626640518365
 20
307.1344837450617
 30
0.0
 10
150.5393576299701
 20
307.1255751588052
 30
0.0
 10
150.5277145348
 20
307.1211247323
 30
0.0
 11
150.6829630621
 21
307.3121484219
 31
0.0
 11
150.6804373897207
 21
307.2830650008399
 31
0.0
 11
150.6730612081794
 21
307.254727240526
 31
0.0
 11
150.6604009179587
 21
307.2265701566195
 31
0.0
 11
150.6433969324604
 21
307.200812782805
 31
0.0
 11
150.6206252775339
 21
307.1758548492453
 31
0.0
 11
150.5943483177221
 21
307.1545602491713
 31
0.0
 11
150.5621847547682
 21
307.1354715070957
 31
0.0
 11
150.5277145348
 21
307.1211247323
 31
0.0
  0
SPLINE
  5
10C
330
1F
100
AcDbEntity
  8
0
  6
Continuous
 62
     7
100
AcDbSpline
210
0.0
220
0.0
230
1.0
 70
     8
 71
     3
 72
    23
 73
    19
 74
    17
 42
0.0000000001
 43
0.0000000001
 44
0.00000001
 40
0.0
 40
0.0
 40
0.0
 40
0.0
 40
0.0597635020847445
 40
0.119542631043637
 40
0.175362459895355
 40
0.2311738661895855
 40
0.281968506032922
 40
0.3327872069509516
 40
0.3780904632078839
 40
0.4233393316912036
 40
0.4647820467310824
 40
0.5060598178356795
 40
0.5483601944557116
 40
0.5908626367841625
 40
0.6390023298116115
 40
0.6871915007621238
 40
0.7420554294402857
 40
0.7968569385924572
 40
0.7968569385924572
 40
0.7968569385924572
 40
0.7968569385924572
 10
114.306897691
 20
297.0051264275
 30
0.0
 10
114.2908302630279
 20
296.9933432334889
 30
0.0
 10
114.2586912057959
 20
296.9697737644142
 30
0.0
 10
114.2094285230719
 20
296.9382319026456
 30
0.0
 10
114.1596489980083
 20
296.9101177990051
 30
0.0
 10
114.1106466570757
 20
296.8869578292579
 30
0.0
 10
114.061441166049
 20
296.8685201290431
 30
0.0
 10
114.0139026589676
 20
296.8562826708337
 30
0.0
 10
113.967011967973
 20
296.8503195169266
 30
0.0
 10
113.9227632824915
 20
296.8521055076135
 30
0.0
 10
113.8811141703856
 20
296.8626115259285
 30
0.0
 10
113.8435103287399
 20
296.8815494874829
 30
0.0
 10
113.8119135648479
 20
296.9099363389881
 30
0.0
 10
113.7859828667415
 20
296.9462217942669
 30
0.0
 10
113.7669619966087
 20
296.9887329360304
 30
0.0
 10
113.7541310444776
 20
297.0376027535911
 30
0.0
 10
113.7466379046639
 20
297.089832026771
 30
0.0
 10
113.7458545276601
 20
297.1264032413418
 30
0.0
 10
113.7454630621
 20
297.1446784408
 30
0.0
 11
114.306897691
 21
297.0051264275
 31
0.0
 11
114.2583348104836
 21
296.9702936438417
 31
0.0
 11
114.208022844404
 21
296.9380097418427
 31
0.0
 11
114.1593317301683
 21
296.9107145282051
 31
0.0
 11
114.1088154001915
 21
296.8869866231518
 31
0.0
 11
114.061169137772
 21
296.8693818194249
 31
0.0
 11
114.0119000797817
 21
296.8569278928253
 31
0.0
 11
113.9669135879928
 21
296.8515799414409
 31
0.0
 11
113.9217180613818
 21
296.8537764098272
 31
0.0
 11
113.8815729326674
 21
296.8640655920292
 31
0.0
 11
113.8448407505517
 21
296.8828964492688
 31
0.0
 11
113.8131364180786
 21
296.9108992556395
 31
0.0
 11
113.7882392326477
 21
296.9453461388294
 31
0.0
 11
113.7682231862062
 21
296.9891272755167
 31
0.0
 11
113.755540182377
 21
297.0356174638446
 31
0.0
 11
113.7477417729853
 21
297.0899243278764
 31
0.0
 11
113.7454630621
 21
297.1446784408
 31
0.0
  0
SPLINE
  5
10D
330
1F
100
AcDbEntity
  8
RUNDUNGEN
  6
Continuous
 62
     7
100
AcDbSpline
210
0.0
220
0.0
230
1.0
 70
     8
 71
     3
 72
    17
 73
    13
 74
    11
 42
0.0000000001
 43
0.0000000001
 44
0.00000001
 40
0.0
 40
0.0
 40
0.0
 40
0.0
 40
0.0921565574363336
 40
0.1843584530000194
 40
0.2777172409271952
 40
0.3711392571841449
 40
0.4672851119802431
 40
0.5631242132121017
 40
0.6124865681637082
 40
0.6618539013508085
 40
0.7118003919458948
 40
0.7616858911479881
 40
0.7616858911479881
 40
0.7616858911479881
 40
0.7616858911479881
 10
117.0381837585
 20
297.1016247323
 30
0.0
 10
117.0228721254432
 20
297.0749777282941
 30
0.0
 10
116.9922413264876
 20
297.0216706107942
 30
0.0
 10
116.9385000782598
 20
296.9461108021429
 30
0.0
 10
116.8780514267763
 20
296.8752485327009
 30
0.0
 10
116.8085861181627
 20
296.8110608339288
 30
0.0
 10
116.7299717815145
 20
296.7568323512144
 30
0.0
 10
116.6564794504888
 20
296.7228434188086
 30
0.0
 10
116.5939998757728
 20
296.7049895970948
 30
0.0
 10
116.5450574672774
 20
296.696702463853
 30
0.0
 10
116.4952597857022
 20
296.6935886614507
 30
0.0
 10
116.4620552079617
 20
296.6962669154347
 30
0.0
 10
116.4454630621
 20
296.6976052243
 30
0.0
 11
117.0381837585
 21
297.1016247323
 31
0.0
 11
116.990988347525
 21
297.0224702993135
 31
0.0
 11
116.9376626970874
 21
296.9472535156084
 31
0.0
 11
116.8767189374753
 21
296.8765306660647
 31
0.0
 11
116.807877265471
 21
296.8133761150239
 31
0.0
 11
116.7284879524543
 21
296.7591417866588
 31
0.0
 11
116.6412761952786
 21
296.7194020995028
 31
0.0
 11
116.5938023125563
 21
296.7058790619137
 31
0.0
 11
116.545135771838
 21
296.6975904311152
 31
0.0
 11
116.4952684542177
 21
296.6947792825731
 31
0.0
 11
116.4454630621
 21
296.6976052243
 31
0.0
  0
SPLINE
  5
10E
330
1F
100
AcDbEntity
  8
RUNDUNGEN
  6
Continuous
 62
     7
100
AcDbSpline
210
0.0
220
0.0
230
1.0
 70
     8
 71
     3
 72
    11
 73
     7
 74
     5
 42
0.0000000001
 43
0.0000000001
 44
0.00000001
 40
0.0
 40
0.0
 40
0.0
 40
0.0
 40
0.2869328097660615
 40
0.5747586398711371
 40
0.8592750661929808
 40
1.143349105395523
 40
1.143349105395523
 40
1.143349105395523
 40
1.143349105395523
 10
117.3454630621
 20
298.1913325232
 30
0.0
 10
117.3408838858859
 20
298.0956040130426
 30
0.0
 10
117.3317112816979
 20
297.9038490571011
 30
0.0
 10
117.264463215584
 20
297.6240645082678
 30
0.0
 10
117.1686273218854
 20
297.3544864685157
 30
0.0
 10
117.0816423869915
 20
297.1858682470333
 30
0.0
 10
117.0381837585
 20
297.1016247323
 30
0.0
 11
117.3454630621
 21
298.1913325232
 31
0.0
 11
117.3228011281619
 21
297.9052960323978
 31
0.0
 11
117.2593347037269
 21
297.6245546541774
 31
0.0
 11
117.1627292946704
 21
297.3569411422091
 31
0.0
 11
117.0381837585
 21
297.1016247323
 31
0.0
  0
SPLINE
  5
10F
330
1F
100
AcDbEntity
  8
RUNDUNGEN
  6
Continuous
 62
     7
100
AcDbSpline
210
0.0
220
0.0
230
1.0
 70
     8
 71
     3
 72
    17
 73
    13
 74
    11
 42
0.0000000001
 43
0.0000000001
 44
0.00000001
 40
0.0
 40
0.0
 40
0.0
 40
0.0
 40
0.0498866572798976
 40
0.0998344446266643
 40
0.1492040595507865
 40
0.1985685183145294
 40
0.2944064656090808
 40
0.3905515039793327
 40
0.4839722007980006
 40
0.577329517744581
 40
0.6695303449958282
 40
0.7616858721799549
 40
0.7616858721799549
 40
0.7616858721799549
 40
0.7616858721799549
 10
116.4454630621
 20
309.3156442403
 30
0.0
 10
116.4620556174852
 20
309.316982370933
 30
0.0
 10
116.495261060426
 20
309.3196602719162
 30
0.0
 10
116.545060216593
 20
309.316544950268
 30
0.0
 10
116.5940045156795
 20
309.3082579713707
 30
0.0
 10
116.6564854269177
 20
309.2904047676072
 30
0.0
 10
116.7299775700359
 20
309.2564150417715
 30
0.0
 10
116.8085900107541
 20
309.202185796865
 30
0.0
 10
116.8780538970171
 20
309.1379983916844
 30
0.0
 10
116.9385014843364
 20
309.067136914053
 30
0.0
 10
116.9922418785801
 20
308.9915779656341
 30
0.0
 10
117.0228723073643
 20
308.9382714439163
 30
0.0
 10
117.0381837585
 20
308.9116247323
 30
0.0
 11
116.4454630621
 21
309.3156442403
 31
0.0
 11
116.495269653495
 21
309.3184694886389
 31
0.0
 11
116.5451382114444
 21
309.3156573028543
 31
0.0
 11
116.5938070360496
 21
309.3073684917632
 31
0.0
 11
116.6412830828639
 21
309.2938453720079
 31
0.0
 11
116.7284935370931
 21
309.2541056083603
 31
0.0
 11
116.8078813720993
 21
309.1998705638203
 31
0.0
 11
116.8767215131941
 21
309.1367162958084
 31
0.0
 11
116.9376640451583
 21
309.0659943301594
 31
0.0
 11
116.9909889288291
 21
308.9907783124017
 31
0.0
 11
117.0381837585
 21
308.9116247323
 31
0.0
  0
SPLINE
  5
110
330
1F
100
AcDbEntity
  8
RUNDUNGEN
  6
Continuous
 62
     7
100
AcDbSpline
210
0.0
220
0.0
230
1.0
 70
     8
 71
     3
 72
    11
 73
     7
 74
     5
 42
0.0000000001
 43
0.0000000001
 44
0.00000001
 40
0.0
 40
0.0
 40
0.0
 40
0.0
 40
0.284074041807677
 40
0.5685904708504514
 40
0.8564162982427482
 40
1.143349105239901
 40
1.143349105239901
 40
1.143349105239901
 40
1.143349105239901
 10
117.0381837585
 20
308.9116247323
 30
0.0
 10
117.0816423872843
 20
308.8273812167346
 30
0.0
 10
117.1686273227812
 20
308.6587629935537
 30
0.0
 10
117.2644632158346
 20
308.3891849526412
 30
0.0
 10
117.331711281694
 20
308.1094004047434
 30
0.0
 10
117.340883885885
 20
307.9176454506326
 30
0.0
 10
117.3454630621
 20
307.8219169414
 30
0.0
 11
117.0381837585
 21
308.9116247323
 31
0.0
 11
117.1627292953939
 21
308.6563083198453
 31
0.0
 11
117.2593347046468
 21
308.3886948050551
 31
0.0
 11
117.3228011282751
 21
308.1079534294336
 31
0.0
 11
117.3454630621
 21
307.8219169414
 31
0.0
  0
SPLINE
  5
111
330
1F
100
AcDbEntity
  8
0
  6
Continuous
 62
     7
100
AcDbSpline
210
0.0
220
0.0
230
1.0
 70
     8
 71
     3
 72
    15
 73
    11
 74
     9
 42
0.0000000001
 43
0.0000000001
 44
0.00000001
 40
0.0
 40
0.0
 40
0.0
 40
0.0
 40
0.0373441319455861
 40
0.0747531397089383
 40
0.1085741033393046
 40
0.142358238059739
 40
0.1732178197432431
 40
0.2040858639739468
 40
0.2333658258668826
 40
0.2625567184761791
 40
0.2625567184761791
 40
0.2625567184761791
 40
0.2625567184761791
 10
150.5277145348
 20
298.8921247323
 30
0.0
 10
150.5393599316536
 20
298.8876733172191
 30
0.0
 10
150.5626709562406
 20
298.8787627538695
 30
0.0
 10
150.5938557621048
 20
298.8600246906738
 30
0.0
 10
150.6212075725152
 20
298.8380259737093
 30
0.0
 10
150.6434662890399
 20
298.8137132423428
 30
0.0
 10
150.6611465758822
 20
298.7870747580412
 30
0.0
 10
150.6736276160561
 20
298.7593019102413
 30
0.0
 10
150.6814661265461
 20
298.7303529322979
 30
0.0
 10
150.6824645905723
 20
298.7108417653755
 30
0.0
 10
150.6829630621
 20
298.7011010427
 30
0.0
 11
150.5277145348
 21
298.8921247323
 31
0.0
 11
150.5621914427889
 21
298.8777745752871
 31
0.0
 11
150.5943605213678
 21
298.8586804860126
 31
0.0
 11
150.6206351178889
 21
298.837384872414
 31
0.0
 11
150.6434044393606
 21
298.8124263917206
 31
0.0
 11
150.6604049708489
 21
298.7866718637537
 31
0.0
 11
150.673062778687
 21
298.7585184260353
 31
0.0
 11
150.6804378636986
 21
298.7301825073185
 31
0.0
 11
150.6829630621
 21
298.7011010427
 31
0.0
  0
SPLINE
  5
112
330
1F
100
AcDbEntity
  8
0
  6
Continuous
 62
     7
100
AcDbSpline
210
0.0
220
0.0
230
1.0
 70
     8
 71
     3
 72
    15
 73
    11
 74
     9
 42
0.0000000001
 43
0.0000000001
 44
0.00000001
 40
0.0
 40
0.0
 40
0.0
 40
0.0
 40
0.029197157227838
 40
0.0584835574926725
 40
0.0893488989827975
 40
0.1202055470544103
 40
0.1539855680872118
 40
0.1878025724810654
 40
0.2252119882277762
 40
0.2625564688226293
 40
0.2625564688226293
 40
0.2625564688226293
 40
0.2625564688226293
 10
148.6079630621
 20
298.7011010427
 30
0.0
 10
148.608461878462
 20
298.710843859131
 30
0.0
 10
148.6094610358513
 20
298.7303592715543
 30
0.0
 10
148.6173028226677
 20
298.7593109133275
 30
0.0
 10
148.629785024071
 20
298.7870834099986
 30
0.0
 10
148.6474639773838
 20
298.8137188787546
 30
0.0
 10
148.6697209057556
 20
298.838028258959
 30
0.0
 10
148.6970710682518
 20
298.8600248678342
 30
0.0
 10
148.7282548565644
 20
298.8787625238851
 30
0.0
 10
148.7515660949092
 20
298.8876732429343
 30
0.0
 10
148.7632115894
 20
298.8921247323
 30
0.0
 11
148.6079630621
 21
298.7011010427
 31
0.0
 11
148.6104897858909
 21
298.7301886630405
 31
0.0
 11
148.6178684675124
 21
298.7585302984555
 31
0.0
 11
148.6305264966981
 21
298.7866806732742
 31
0.0
 11
148.6475260141858
 21
298.8124323554601
 31
0.0
 11
148.6702931891281
 21
298.8373872260493
 31
0.0
 11
148.6965650126616
 21
298.8586799730397
 31
0.0
 11
148.7287344036758
 21
298.8777743352517
 31
0.0
 11
148.7632115894
 21
298.8921247323
 31
0.0
  0
SPLINE
  5
113
330
1F
100
AcDbEntity
  8
0
  6
Continuous
 62
     7
100
AcDbSpline
210
0.0
220
0.0
230
1.0
 70
     8
 71
     3
 72
    15
 73
    11
 74
     9
 42
0.0000000001
 43
0.0000000001
 44
0.00000001
 40
0.0
 40
0.0
 40
0.0
 40
0.0
 40
0.0373413956064784
 40
0.0747477270341599
 40
0.1085660838312221
 40
0.1423474448237087
 40
0.1732055488837542
 40
0.2040723662588786
 40
0.2333590819906056
 40
0.2625565342761774
 40
0.2625565342761774
 40
0.2625565342761774
 40
0.2625565342761774
 10
148.7632115894
 20
307.1211247323
 30
0.0
 10
148.7515670435997
 20
307.1255758097839
 30
0.0
 10
148.7282577024038
 20
307.1344857050722
 30
0.0
 10
148.6970749489397
 20
307.1532218684244
 30
0.0
 10
148.6697242980749
 20
307.1752176774824
 30
0.0
 10
148.6474659274443
 20
307.1995276407406
 30
0.0
 10
148.629785929635
 20
307.2261641533548
 30
0.0
 10
148.6173032053716
 20
307.2539376100619
 30
0.0
 10
148.6094611049448
 20
307.2828898904195
 30
0.0
 10
148.6084619013588
 20
307.3024055068637
 30
0.0
 10
148.6079630621
 20
307.3121484219
 30
0.0
 11
148.7632115894
 21
307.1211247323
 31
0.0
 11
148.7287371585183
 21
307.1354737197633
 31
0.0
 11
148.6965700348595
 21
307.1545658591509
 31
0.0
 11
148.6702966098145
 21
307.1758587779941
 31
0.0
 11
148.6475280451361
 21
307.2008141945001
 31
0.0
 11
148.6305274684951
 21
307.2265669221237
 31
0.0
 11
148.6178687315762
 21
307.2547185969315
 31
0.0
 11
148.6104898770234
 21
307.2830605133071
 31
0.0
 11
148.6079630621
 21
307.3121484219
 31
0.0
  0
SPLINE
  5
114
330
1F
100
AcDbEntity
  8
RUNDUNGEN
  6
Continuous
 62
     7
100
AcDbSpline
210
0.0
220
0.0
230
1.0
 70
     8
 71
     3
 72
    11
 73
     7
 74
     5
 42
0.0000000001
 43
0.0000000001
 44
0.00000001
 40
0.0
 40
0.0
 40
0.0
 40
0.0
 40
0.4602365278706598
 40
0.9204746245638735
 40
1.380712231813335
 40
1.840948887163795
 40
1.840948887163795
 40
1.840948887163795
 40
1.840948887163795
 10
153.5954630621
 20
304.8478199963
 30
0.0
 10
153.5956889297862
 20
304.6944078668448
 30
0.0
 10
153.5961406659284
 20
304.3875830849935
 30
0.0
 10
153.598357332592
 20
303.9273506646128
 30
0.0
 10
153.6000563349459
 20
303.4671159999733
 30
0.0
 10
153.6003358616117
 20
303.1602912217579
 30
0.0
 10
153.6004756248
 20
303.0068789913
 30
0.0
 11
153.5954630621
 21
304.8478199963
 31
0.0
 11
153.5963971746136
 21
304.3875844163844
 31
0.0
 11
153.5982710557922
 21
303.9273501345049
 31
0.0
 11
153.5998430504816
 21
303.467115211928
 31
0.0
 11
153.6004756248
 21
303.0068789913
 31
0.0
  0
SPLINE
  5
115
330
1F
100
AcDbEntity
  8
RUNDUNGEN
  6
Continuous
 62
     7
100
AcDbSpline
210
0.0
220
0.0
230
1.0
 70
     8
 71
     3
 72
    11
 73
     7
 74
     5
 42
0.0000000001
 43
0.0000000001
 44
0.00000001
 40
0.0
 40
0.0
 40
0.0
 40
0.0
 40
0.4603637844336169
 40
0.9207285213492056
 40
1.381093747916366
 40
1.841457404631237
 40
1.841457404631237
 40
1.841457404631237
 40
1.841457404631237
 10
153.6004756248
 20
303.0068789913
 30
0.0
 10
153.6003362391616
 20
302.8534243840317
 30
0.0
 10
153.6000574675964
 20
302.546514852001
 30
0.0
 10
153.5983585120429
 20
302.0861530560014
 30
0.0
 10
153.596141015581
 20
301.6257935086622
 30
0.0
 10
153.5956890463368
 20
301.3188839740594
 30
0.0
 10
153.5954630621
 20
301.1654294684
 30
0.0
 11
153.6004756248
 21
303.0068789913
 31
0.0
 11
153.5998440021568
 21
302.5465156401622
 31
0.0
 11
153.5982720891433
 21
302.0861535868988
 31
0.0
 11
153.596397604289
 21
301.6257921765496
 31
0.0
 11
153.5954630621
 21
301.1654294684
 31
0.0
  0
SPLINE
  5
116
330
1F
100
AcDbEntity
  8
FASEN
  6
Continuous
 62
     7
100
AcDbSpline
210
0.0
220
0.0
230
1.0
 70
     8
 71
     3
 72
    39
 73
    35
 74
    33
 42
0.0000000001
 43
0.0000000001
 44
0.00000001
 40
0.0
 40
0.0
 40
0.0
 40
0.0
 40
0.2847861066332072
 40
0.5698668870767135
 40
0.8542588887981772
 40
1.138565866069212
 40
1.422059508505557
 40
1.70557431616669
 40
1.988341250700563
 40
2.27110021085624
 40
2.553600174625561
 40
2.8361023581129
 40
3.118912373435666
 40
3.40172341796314
 40
3.685252285760881
 40
3.968783633814922
 40
4.253107110652843
 40
4.537432086609315
 40
4.822300428814184
 40
5.107169447741679
 40
5.392182981090669
 40
5.677195370965305
 40
5.962031114328283
 40
6.246866460454607
 40
6.531439742224923
 40
6.81600978305317
 40
7.100451807503383
 40
7.384901200498795
 40
7.669472595232196
 40
7.954020693327742
 40
8.238768893817921
 40
8.523601787780846
 40
8.808748198975024
 40
9.093596299735108
 40
9.093596299735108
 40
9.093596299735108
 40
9.093596299735108
 10
130.5447114737
 20
303.0066247323
 30
0.0
 10
130.5420399213887
 20
302.9116578464112
 30
0.0
 10
130.5366940524582
 20
302.7216258105207
 30
0.0
 10
130.4934368159024
 20
302.4394791992881
 30
0.0
 10
130.4249135989122
 20
302.1628984712456
 30
0.0
 10
130.3293365981863
 20
301.894868337789
 30
0.0
 10
130.2081089972947
 20
301.6378027284234
 30
0.0
 10
130.0624740831007
 20
301.394309012683
 30
0.0
 10
129.8936561203384
 20
301.1665884236346
 30
0.0
 10
129.7034810353373
 20
300.9568267833731
 30
0.0
 10
129.4935445341798
 20
300.7669787507763
 30
0.0
 10
129.2659511470468
 20
300.5986763393488
 30
0.0
 10
129.0227720048043
 20
300.4536023167356
 30
0.0
 10
128.7662577391714
 20
300.3328766218029
 30
0.0
 10
128.4989166340452
 20
300.2378028955417
 30
0.0
 10
128.2231141074274
 20
300.1690503190747
 30
0.0
 10
127.9416665942643
 20
300.1274305358406
 30
0.0
 10
127.6570711932493
 20
300.1132011250107
 30
0.0
 10
127.3722540633307
 20
300.1266346688367
 30
0.0
 10
127.0898383683498
 20
300.1675445516449
 30
0.0
 10
126.812677223053
 20
300.2356798662913
 30
0.0
 10
126.543431377853
 20
300.3303521466265
 30
0.0
 10
126.2847673428307
 20
300.4508364515914
 30
0.0
 10
126.0392116395159
 20
300.5959044639841
 30
0.0
 10
125.8091864370248
 20
300.7643722313736
 30
0.0
 10
125.596906252235
 20
300.9545226999035
 30
0.0
 10
125.4045128652607
 20
301.16471870957
 30
0.0
 10
125.233768258313
 20
301.3928488664645
 30
0.0
 10
125.086439959332
 20
301.6368060688317
 30
0.0
 10
124.963875862061
 20
301.8941882004021
 30
0.0
 10
124.8672555224852
 20
302.1625387244057
 30
0.0
 10
124.7980260414466
 20
302.4392767394686
 30
0.0
 10
124.7543457001325
 20
302.7215621535906
 30
0.0
 10
124.7489240545593
 20
302.9116370317158
 30
0.0
 10
124.7462146505
 20
303.0066247323
 30
0.0
 11
130.5447114737
 21
303.0066247323
 31
0.0
 11
130.5308252520565
 21
302.7221773744642
 31
0.0
 11
130.4891745702653
 21
302.4401556162883
 31
0.0
 11
130.4203706750734
 21
302.1642120810324
 31
0.0
 11
130.3249396301454
 21
301.8963998837953
 31
0.0
 11
130.2040043207948
 21
301.639995327958
 31
0.0
 11
130.0584490657638
 21
301.3966965118985
 31
0.0
 11
129.8900601678703
 21
301.1695350751802
 31
0.0
 11
129.7001159647315
 21
300.9600742691991
 31
0.0
 11
129.4906054714075
 21
300.7705707528285
 31
0.0
 11
129.263453360741
 21
300.6026142039985
 31
0.0
 11
129.0206006887567
 21
300.4576863444375
 31
0.0
 11
128.7647116550175
 21
300.3372584020042
 31
0.0
 11
128.4975877226643
 21
300.2422140774033
 31
0.0
 11
128.2224757870244
 21
300.1736323874429
 31
0.0
 11
127.941216325666
 21
300.1320036128084
 31
0.0
 11
127.6572457499244
 21
300.1178119227877
 31
0.0
 11
127.3726927234231
 21
300.1312114563442
 31
0.0
 11
127.0907692860045
 21
300.1720713802156
 31
0.0
 11
126.8139945493947
 21
300.2401041617746
 31
0.0
 11
126.5451312929903
 21
300.3346801192779
 31
0.0
 11
126.2869304626753
 21
300.4549453757812
 31
0.0
 11
126.0417147721884
 21
300.5998606597989
 31
0.0
 11
125.8121258896452
 21
300.7680001783842
 31
0.0
 11
125.6001854557612
 21
300.9578984685872
 31
0.0
 11
125.4081220823857
 21
301.1677053461698
 31
0.0
 11
125.2376970736131
 21
301.3954481255511
 31
0.0
 11
125.0905713267573
 21
301.6390356730831
 31
0.0
 11
124.9682308208111
 21
301.8959411435088
 31
0.0
 11
124.8718382608729
 21
302.16387772569
 31
0.0
 11
124.8023069935533
 21
302.4400935477354
 31
0.0
 11
124.7602627066965
 21
302.7221232514186
 31
0.0
 11
124.7462146505
 21
303.0066247323
 31
0.0
  0
SPLINE
  5
117
330
1F
100
AcDbEntity
  8
FASEN
  6
Continuous
 62
     7
100
AcDbSpline
210
0.0
220
0.0
230
1.0
 70
     8
 71
     3
 72
    39
 73
    35
 74
    33
 42
0.0000000001
 43
0.0000000001
 44
0.00000001
 40
0.0
 40
0.0
 40
0.0
 40
0.0
 40
0.2848465272396604
 40
0.5699950255418256
 40
0.8548279991972434
 40
1.139573863753458
 40
1.424121623324821
 40
1.708693335910395
 40
1.993142884864301
 40
2.277585056641742
 40
2.562155108750605
 40
2.84672826819793
 40
3.131563712709804
 40
3.416399690461159
 40
3.701411923479984
 40
3.986425214775933
 40
4.27129428278576
 40
4.556162677373645
 40
4.840487507704641
 40
5.124810921949729
 40
5.40834246270346
 40
5.691871377387783
 40
5.974681937694299
 40
6.257491624598326
 40
6.539993734509014
 40
6.8224935295934
 40
7.105252300292462
 40
7.38801896656074
 40
7.671533427535211
 40
7.955027376712397
 40
8.239336777531697
 40
8.523729022533596
 40
8.808808363547943
 40
9.093596288158245
 40
9.093596288158245
 40
9.093596288158245
 40
9.093596288158245
 10
124.7462146505
 20
303.0066247323
 30
0.0
 10
124.7489112310395
 20
303.1016126825249
 30
0.0
 10
124.7543072508132
 20
303.2916892814544
 30
0.0
 10
124.798022488411
 20
303.5739710254716
 30
0.0
 10
124.8672579145659
 20
303.8507062003841
 30
0.0
 10
124.9638766436831
 20
304.1190564762816
 30
0.0
 10
125.0864375280171
 20
304.3764391867573
 30
0.0
 10
125.2337635163676
 20
304.620397921224
 30
0.0
 10
125.4045080078512
 20
304.8485285032352
 30
0.0
 10
125.5969016495799
 20
305.0587243865965
 30
0.0
 10
125.8091810570272
 20
305.2488756858473
 30
0.0
 10
126.0392056334188
 20
305.4173443643881
 30
0.0
 10
126.2847616407419
 20
305.5624120762055
 30
0.0
 10
126.5434259498499
 20
305.682895869791
 30
0.0
 10
126.8126715102074
 20
305.7775686968029
 30
0.0
 10
127.0898323290981
 20
305.8457048853627
 30
0.0
 10
127.3722479369777
 20
305.8866151649208
 30
0.0
 10
127.6570650693102
 20
305.900048669945
 30
0.0
 10
127.9416604012269
 20
305.8858187931902
 30
0.0
 10
128.2231078578484
 20
305.8441988768413
 30
0.0
 10
128.4989106594693
 20
305.775447259106
 30
0.0
 10
128.7662519743615
 20
305.6803742354953
 30
0.0
 10
129.0227656471609
 20
305.559647791696
 30
0.0
 10
129.2659440582079
 20
305.4145732030054
 30
0.0
 10
129.4935377748877
 20
305.2462716388808
 30
0.0
 10
129.7034751525463
 20
305.0564247793601
 30
0.0
 10
129.8936508353301
 20
304.8466639534822
 30
0.0
 10
130.0624697242098
 20
304.6189444200621
 30
0.0
 10
130.2081066099931
 20
304.3754520411541
 30
0.0
 10
130.3293367268431
 20
304.1183866756112
 30
0.0
 10
130.4249152191166
 20
303.8503561146464
 30
0.0
 10
130.4934333256703
 20
303.5737725510667
 30
0.0
 10
130.5366594568501
 20
303.2916223197428
 30
0.0
 10
130.5420283832633
 20
303.1015915357245
 30
0.0
 10
130.5447114737
 20
303.0066247323
 30
0.0
 11
124.7462146505
 21
303.0066247323
 31
0.0
 11
124.76023637224
 21
303.2911259368668
 31
0.0
 11
124.8022987782924
 21
303.573155048983
 31
0.0
 11
124.8718396572628
 21
303.8493685335079
 31
0.0
 11
124.9682310655567
 21
304.1173030475015
 31
0.0
 11
125.0905688815715
 21
304.3742094239304
 31
0.0
 11
125.2376927139243
 21
304.6177984991323
 31
0.0
 11
125.4081172993205
 21
304.8455417901259
 31
0.0
 11
125.6001807246314
 21
305.0553488199017
 31
0.0
 11
125.8121205710144
 21
305.2452477827013
 31
0.0
 11
126.0417088489731
 21
305.4133879197947
 31
0.0
 11
126.2869247179246
 21
305.5583030952066
 31
0.0
 11
126.545125910398
 21
305.6785681293057
 31
0.0
 11
126.8139888661959
 21
305.7731444686829
 31
0.0
 11
127.0907631798615
 21
305.841177956836
 31
0.0
 11
127.372686605685
 21
305.8820383029031
 31
0.0
 11
127.6572396863017
 21
305.8954378009026
 31
0.0
 11
127.9412100995159
 21
305.8812457763206
 31
0.0
 11
128.2224694986705
 21
305.8396170089218
 31
0.0
 11
128.4975818056622
 21
305.7710360119627
 31
0.0
 11
128.7647059472462
 21
305.6759921355419
 31
0.0
 11
129.0205942690203
 21
305.5555638174415
 31
0.0
 11
129.2634463629741
 21
305.4106356301589
 31
0.0
 11
129.4905988213436
 21
305.2426796753353
 31
0.0
 11
129.7001100477688
 21
305.053177220933
 31
0.0
 11
129.890054960203
 21
304.8437173139159
 31
0.0
 11
130.0584448804124
 21
304.6165569689514
 31
0.0
 11
130.2040018560348
 21
304.3732595862501
 31
0.0
 11
130.3249392970694
 21
304.1168556967007
 31
0.0
 11
130.420371423351
 21
303.849041311972
 31
0.0
 11
130.4891668930933
 21
303.57309542532
 31
0.0
 11
130.5308015116626
 21
303.2910727503278
 31
0.0
 11
130.5447114737
 21
303.0066247323
 31
0.0
  0
SPLINE
  5
118
330
1F
100
AcDbEntity
  8
0
  6
Continuous
 62
     7
100
AcDbSpline
210
0.0
220
0.0
230
1.0
 70
     8
 71
     3
 72
    17
 73
    13
 74
    11
 42
0.0000000001
 43
0.0000000001
 44
0.00000001
 40
0.0
 40
0.0
 40
0.0
 40
0.0
 40
0.0161052165920671
 40
0.0322114216365451
 40
0.0442975720962618
 40
0.0563844320588454
 40
0.0684883750143484
 40
0.0805914434238514
 40
0.0927083310858986
 40
0.1048350424925726
 40
0.1170106597070144
 40
0.1291252293096293
 40
0.1291252293096293
 40
0.1291252293096293
 40
0.1291252293096293
 10
150.5277145348
 20
307.1211247323
 30
0.0
 10
150.5249750549284
 20
307.1165068310261
 30
0.0
 10
150.5194959270505
 20
307.1072707450562
 30
0.0
 10
150.5111845174775
 20
307.0950530985512
 30
0.0
 10
150.5030718213725
 20
307.084348788094
 30
0.0
 10
150.4952262307931
 20
307.0751373839244
 30
0.0
 10
150.4867834480262
 20
307.0664559192816
 30
0.0
 10
150.47761121125
 20
307.0585270220449
 30
0.0
 10
150.4676346118667
 20
307.0515909905519
 30
0.0
 10
150.4567643258233
 20
307.0461198360301
 30
0.0
 10
150.4451129048325
 20
307.0423427092375
 30
0.0
 10
150.4370062182675
 20
307.0418140483247
 30
0.0
 10
150.4329630621
 20
307.0415503822
 30
0.0
 11
150.5277145348
 21
307.1211247323
 31
0.0
 11
150.5193549547127
 21
307.1073589986748
 31
0.0
 11
150.5103034086213
 21
307.0940368609225
 31
0.0
 11
150.5029821800637
 21
307.0844204871079
 31
0.0
 11
150.4951311636253
 21
307.075230616345
 31
0.0
 11
150.4866628687697
 21
307.0665822975888
 31
0.0
 11
150.4774818116222
 21
307.0586960783058
 31
0.0
 11
150.4674920124996
 21
307.0518387552053
 31
0.0
 11
150.4566490120985
 21
307.0464086104703
 31
0.0
 11
150.4450091632989
 21
307.0428365558131
 31
0.0
 11
150.4329630621
 21
307.0415503822
 31
0.0
  0
SPLINE
  5
119
330
1F
100
AcDbEntity
  8
0
  6
Continuous
 62
     7
100
AcDbSpline
210
0.0
220
0.0
230
1.0
 70
     8
 71
     3
 72
    13
 73
     9
 74
     7
 42
0.0000000001
 43
0.0000000001
 44
0.00000001
 40
0.0
 40
0.0
 40
0.0
 40
0.0
 40
0.016115923299119
 40
0.0323921465693033
 40
0.0565136430127105
 40
0.0807357154165338
 40
0.104917658995938
 40
0.1290332869465372
 40
0.1290332869465372
 40
0.1290332869465372
 40
0.1290332869465372
 10
148.8579630621
 20
307.0415503822
 30
0.0
 10
148.8525826655581
 20
307.0420332825786
 30
0.0
 10
148.8417683553785
 20
307.0430038865925
 30
0.0
 10
148.8242131165398
 20
307.0504975379195
 30
0.0
 10
148.8065933734184
 20
307.0631807867226
 30
0.0
 10
148.7901814432827
 20
307.0810603790468
 30
0.0
 10
148.7756581287381
 20
307.1004269892613
 30
0.0
 10
148.7673566363542
 20
307.1142318029154
 30
0.0
 10
148.7632115894
 20
307.1211247323
 30
0.0
 11
148.8579630621
 21
307.0415503822
 31
0.0
 11
148.8420080423553
 21
307.0438220178945
 31
0.0
 11
148.8268991406059
 21
307.0498748297921
 31
0.0
 11
148.8071789638562
 21
307.0637658779754
 31
0.0
 11
148.7904878074402
 21
307.0813190568622
 31
0.0
 11
148.775988522895
 21
307.1006720189857
 31
0.0
 11
148.7632115894
 21
307.1211247323
 31
0.0
  0
SPLINE
  5
11A
330
1F
100
AcDbEntity
  8
0
  6
Continuous
 62
     7
100
AcDbSpline
210
0.0
220
0.0
230
1.0
 70
     8
 71
     3
 72
    17
 73
    13
 74
    11
 42
0.0000000001
 43
0.0000000001
 44
0.00000001
 40
0.0
 40
0.0
 40
0.0
 40
0.0
 40
0.0161034839117687
 40
0.0322076501044227
 40
0.0442920545243824
 40
0.0563777824864075
 40
0.0684771684729402
 40
0.080574475551011
 40
0.0926944166821511
 40
0.1048260722404108
 40
0.1170058953409086
 40
0.1291230712524336
 40
0.1291230712524336
 40
0.1291230712524336
 40
0.1291230712524336
 10
148.7632115894
 20
298.8921247323
 30
0.0
 10
148.7659505162977
 20
298.8967422854328
 30
0.0
 10
148.7714284861376
 20
298.9059775873372
 30
0.0
 10
148.779738397916
 20
298.9181941050121
 30
0.0
 10
148.7878529995217
 20
298.9288949582169
 30
0.0
 10
148.7956976383379
 20
298.9381037421093
 30
0.0
 10
148.8041326978813
 20
298.9467871913644
 30
0.0
 10
148.8132998131072
 20
298.9547187214521
 30
0.0
 10
148.8232813021289
 20
298.9616497672775
 30
0.0
 10
148.8341577511795
 20
298.9671164154084
 30
0.0
 10
148.8458101144362
 20
298.9709025038042
 30
0.0
 10
148.8539190488827
 20
298.9714340130811
 30
0.0
 10
148.8579630621
 20
298.9716990825
 30
0.0
 11
148.7632115894
 21
298.8921247323
 31
0.0
 11
148.7715695417588
 21
298.9058894272281
 31
0.0
 11
148.7806201523763
 21
298.9192097356408
 31
0.0
 11
148.7879421766955
 21
298.9288233088607
 31
0.0
 11
148.795792499227
 21
298.9380122835872
 31
0.0
 11
148.8042538137731
 21
298.9466610579167
 31
0.0
 11
148.8134281351124
 21
298.9545462761449
 31
0.0
 11
148.8234231130119
 21
298.9614014486306
 31
0.0
 11
148.8342724516172
 21
298.9668299768301
 31
0.0
 11
148.8459148635154
 21
298.9704080120384
 31
0.0
 11
148.8579630621
 21
298.9716990825
 31
0.0
  0
SPLINE
  5
11B
330
1F
100
AcDbEntity
  8
0
  6
Continuous
 62
     7
100
AcDbSpline
210
0.0
220
0.0
230
1.0
 70
     8
 71
     3
 72
    13
 73
     9
 74
     7
 42
0.0000000001
 43
0.0000000001
 44
0.00000001
 40
0.0
 40
0.0
 40
0.0
 40
0.0
 40
0.0161119176392489
 40
0.0323835566237371
 40
0.0565085409552493
 40
0.0807351379059082
 40
0.1049182738180399
 40
0.1290347651603951
 40
0.1290347651603951
 40
0.1290347651603951
 40
0.1290347651603951
 10
150.4329630621
 20
298.9716990825
 30
0.0
 10
150.4383421242541
 20
298.971216777111
 30
0.0
 10
150.4491535725094
 20
298.9702473851227
 30
0.0
 10
150.466708996793
 20
298.9627587765283
 30
0.0
 10
150.4843301801081
 20
298.9500746703256
 30
0.0
 10
150.5007426430939
 20
298.9321915032887
 30
0.0
 10
150.5152672827439
 20
298.9128231871323
 30
0.0
 10
150.5235692691842
 20
298.8990178676466
 30
0.0
 10
150.5277145348
 20
298.8921247323
 30
0.0
 11
150.4329630621
 21
298.9716990825
 31
0.0
 11
150.4489143715393
 21
298.9694298057024
 31
0.0
 11
150.4640201985908
 21
298.9633816469467
 31
0.0
 11
150.4837438859145
 21
298.9494895258937
 31
0.0
 11
150.500437211789
 21
298.9319321664379
 31
0.0
 11
150.5149369692651
 21
298.9125780687923
 31
0.0
 11
150.5277145348
 21
298.8921247323
 31
0.0
  0
SPLINE
  5
11C
330
1F
100
AcDbEntity
  8
0
  6
Continuous
 62
     7
100
AcDbSpline
210
0.0
220
0.0
230
1.0
 70
     8
 71
     3
 72
    23
 73
    19
 74
    17
 42
0.0000000001
 43
0.0000000001
 44
0.00000001
 40
0.0
 40
0.0
 40
0.0
 40
0.0
 40
0.054801592048535
 40
0.1096656056858145
 40
0.1578548538913604
 40
0.2059946210535261
 40
0.2484971175900955
 40
0.290797546752286
 40
0.3320753431069722
 40
0.3735180890816668
 40
0.4187669595532079
 40
0.4640702100922693
 40
0.5148888565268182
 40
0.5656834469122112
 40
0.6214947219973709
 40
0.6773144167794138
 40
0.737093474964312
 40
0.796856907409752
 40
0.796856907409752
 40
0.796856907409752
 40
0.796856907409752
 10
113.7454630621
 20
308.8685710239
 30
0.0
 10
113.7458545300689
 20
308.8868462510451
 30
0.0
 10
113.7466379119072
 20
308.9234175216779
 30
0.0
 10
113.7541310817948
 20
308.9756468734823
 30
0.0
 10
113.7669620669883
 20
309.0245167641714
 30
0.0
 10
113.785983003229
 20
309.0670279554109
 30
0.0
 10
113.8119138104512
 20
309.1033134104464
 30
0.0
 10
113.84351068421
 20
309.1317002097912
 30
0.0
 10
113.8811146200223
 20
309.1506380675943
 30
0.0
 10
113.9227637788944
 20
309.1611439683664
 30
0.0
 10
113.9670124725312
 20
309.1629298924198
 30
0.0
 10
114.0139031388352
 20
309.1569666952602
 30
0.0
 10
114.0614415947677
 20
309.1447291842761
 30
0.0
 10
114.1106469916596
 20
309.1262914591701
 30
0.0
 10
114.1596492296272
 20
309.1031315197852
 30
0.0
 10
114.2094286592059
 20
309.0750174751003
 30
0.0
 10
114.2586912634983
 20
309.0434756603903
 30
0.0
 10
114.2908302821603
 20
309.0199062179205
 30
0.0
 10
114.306897691
 20
309.0081230371
 30
0.0
 11
113.7454630621
 21
308.8685710239
 31
0.0
 11
113.7477417841534
 21
308.923325219327
 31
0.0
 11
113.7555402216036
 21
308.9776321651602
 31
0.0
 11
113.7682232634241
 21
309.024122423202
 31
0.0
 11
113.7882393830878
 21
309.0679036079283
 31
0.0
 11
113.8131366667909
 21
309.1023504869748
 31
0.0
 11
113.8448411126395
 21
309.1303532443523
 31
0.0
 11
113.8815733751434
 21
309.1491840001321
 31
0.0
 11
113.9217185621396
 21
309.1594730795354
 31
0.0
 11
113.9669140944288
 21
309.1616694720416
 31
0.0
 11
114.0119005745056
 21
309.1563214705727
 31
0.0
 11
114.0611695645544
 21
309.1438674975117
 31
0.0
 11
114.1088157630306
 21
309.126262663426
 31
0.0
 11
114.1593319651022
 21
309.1025347946869
 31
0.0
 11
114.208022962348
 21
309.0752396465326
 31
0.0
 11
114.2583348683183
 21
309.0429557819078
 31
0.0
 11
114.306897691
 21
309.0081230371
 31
0.0
  0
SPLINE
  5
11D
330
1F
100
AcDbEntity
  8
0
  6
Continuous
 62
     7
100
AcDbSpline
210
0.0
220
0.0
230
1.0
 70
     8
 71
     3
 72
    11
 73
     7
 74
     5
 42
0.0000000001
 43
0.0000000001
 44
0.00000001
 40
0.0
 40
0.0
 40
0.0
 40
0.0
 40
0.0543555269462695
 40
0.1087869226069312
 40
0.1632830353945162
 40
0.2176296539803107
 40
0.2176296539803107
 40
0.2176296539803107
 40
0.2176296539803107
 10
114.306897691
 20
309.0081230371
 30
0.0
 10
114.3217740600192
 20
309.0185028635982
 30
0.0
 10
114.3515475622935
 20
309.039277004617
 30
0.0
 10
114.400302056166
 20
309.0638015302439
 30
0.0
 10
114.4516504883773
 20
309.0826129974419
 30
0.0
 10
114.4875220980027
 20
309.0885116936103
 30
0.0
 10
114.5054332682
 20
309.0914569908
 30
0.0
 11
114.306897691
 21
309.0081230371
 31
0.0
 11
114.3522031187075
 21
309.0381553784981
 31
0.0
 11
114.4007152947515
 21
309.0628403052559
 31
0.0
 11
114.4521089872395
 21
309.0809652792257
 31
0.0
 11
114.5054332682
 21
309.0914569908
 31
0.0
  0
SPLINE
  5
11E
330
1F
100
AcDbEntity
  8
BEZUGSACHSEN
  6
Continuous
 62
     7
100
AcDbSpline
210
0.0
220
0.0
230
1.0
 70
     8
 71
     3
 72
    23
 73
    19
 74
    17
 42
0.0000000001
 43
0.0000000001
 44
0.00000001
 40
0.0
 40
0.0
 40
0.0
 40
0.0
 40
0.2003183627537218
 40
0.400643044961921
 40
0.9634897651907192
 40
1.526368593617311
 40
2.359014453447231
 40
3.191710414713108
 40
4.171136715336701
 40
5.150586039893939
 40
6.130035376278822
 40
7.109461688835188
 40
7.942157771722987
 40
8.774803753100304
 40
9.337682699513355
 40
9.900529537665772
 40
10.1008543032776
 40
10.30117274953654
 40
10.30117274953654
 40
10.30117274953654
 40
10.30117274953654
 10
176.0454630621
 20
282.0066247323
 30
0.0
 10
176.110387414048
 20
282.0222290068775
 30
0.0
 10
176.240238166116
 20
282.0534380483013
 30
0.0
 10
176.5532832241276
 20
282.1252098622283
 30
0.0
 10
176.9856463132731
 20
282.2173085148738
 30
0.0
 10
177.6273392917927
 20
282.3374935564121
 30
0.0
 10
178.3614893552213
 20
282.4513735262012
 30
0.0
 10
179.2374474926643
 20
282.5527675954709
 30
0.0
 10
180.1659315145673
 20
282.6195267860733
 30
0.0
 10
181.1454627305996
 20
282.643208029917
 30
0.0
 10
182.1249939512295
 20
282.6195268118482
 30
0.0
 10
183.0534780233335
 20
282.5527676445237
 30
0.0
 10
183.9294362484544
 20
282.4513735927658
 30
0.0
 10
184.6635864339376
 20
282.3374936237806
 30
0.0
 10
185.305279531775
 20
282.2173085717739
 30
0.0
 10
185.7376427260181
 20
282.125209901452
 30
0.0
 10
186.0506878769474
 20
282.0534380679142
 30
0.0
 10
186.1805386830955
 20
282.0222290134178
 30
0.0
 10
186.2454630621
 20
282.0066247323
 30
0.0
 11
176.0454630621
 21
282.0066247323
 31
0.0
 11
176.2403164106676
 21
282.0530964334558
 31
0.0
 11
176.4355573431988
 21
282.0979401238278
 31
0.0
 11
176.9860898552774
 21
282.2150314711458
 31
0.0
 11
177.5393569156057
 21
282.3186081840045
 31
0.0
 11
178.3621913847133
 21
282.4460545034501
 31
0.0
 11
179.189384907633
 21
282.5416235337278
 31
0.0
 11
180.1662966193817
 21
282.6117618670517
 31
0.0
 11
181.14546272676
 21
282.6353142244118
 31
0.0
 11
182.1246288465963
 21
282.611761893116
 31
0.0
 11
183.1015405723033
 21
282.5416235875758
 31
0.0
 11
183.9287342189525
 21
282.4460545685383
 31
0.0
 11
184.7515688114335
 21
282.3186082515243
 31
0.0
 11
185.3048359895902
 21
282.2150315268723
 31
0.0
 11
185.8553686182505
 21
282.0979401608432
 31
0.0
 11
186.0506096322866
 21
282.0530964527496
 31
0.0
 11
186.2454630621
 21
282.0066247323
 31
0.0
  0
SPLINE
  5
11F
330
1F
100
AcDbEntity
  8
BEZUGSACHSEN
  6
Continuous
 62
     7
100
AcDbSpline
210
0.0
220
0.0
230
1.0
 70
     8
 71
     3
 72
    15
 73
    11
 74
     9
 42
0.0000000001
 43
0.0000000001
 44
0.00000001
 40
0.0
 40
0.0
 40
0.0
 40
0.0
 40
0.1966144691071645
 40
0.3932368665458351
 40
0.9453924840137684
 40
1.497573379407524
 40
2.314268097558488
 40
3.131064801054879
 40
4.091946561179926
 40
5.052604325754685
 40
5.052604325754685
 40
5.052604325754685
 40
5.052604325754685
 10
145.6454630621
 20
323.0066247323
 30
0.0
 10
145.5818427671863
 20
322.9908840619572
 30
0.0
 10
145.4545996119181
 20
322.9594020865407
 30
0.0
 10
145.1478945964946
 20
322.8870005771308
 30
0.0
 10
144.7242695328044
 20
322.794053277006
 30
0.0
 10
144.0954668028691
 20
322.6727243644049
 30
0.0
 10
143.3758559601342
 20
322.557505539993
 30
0.0
 10
142.5169372534249
 20
322.4555740975652
 30
0.0
 10
141.6062885461248
 20
322.385387279549
 30
0.0
 10
140.9657133326365
 20
322.3761563767648
 30
0.0
 10
140.6454630621
 20
322.3715414634
 30
0.0
 11
145.6454630621
 21
323.0066247323
 31
0.0
 11
145.454519411743
 21
322.959744332871
 31
0.0
 11
145.2631747938165
 21
322.9144938702755
 31
0.0
 11
144.7238083400956
 21
322.7963428884688
 31
0.0
 11
144.181622533051
 21
322.6917565993232
 31
0.0
 11
143.3751423919308
 21
322.5629930771808
 31
0.0
 11
142.5640819143595
 21
322.4663610091893
 31
0.0
 11
141.6058247837982
 21
322.3953889818155
 31
0.0
 11
140.6454630621
 21
322.3715414634
 31
0.0
  0
SPLINE
  5
120
330
1F
100
AcDbEntity
  8
BEZUGSACHSEN
  6
Continuous
 62
     7
100
AcDbSpline
210
0.0
220
0.0
230
1.0
 70
     8
 71
     3
 72
    15
 73
    11
 74
     9
 42
0.0000000001
 43
0.0000000001
 44
0.00000001
 40
0.0
 40
0.0
 40
0.0
 40
0.0
 40
0.9606477050104895
 40
1.921519378140861
 40
2.738310931241182
 40
3.555000523393716
 40
4.107190715976223
 40
4.659355623396327
 40
4.855983959592599
 40
5.052604368525751
 40
5.052604368525751
 40
5.052604368525751
 40
5.052604368525751
 10
140.6454630621
 20
322.3715414634
 30
0.0
 10
140.3252161456351
 20
322.3761562136684
 30
0.0
 10
139.6846476494345
 20
322.3853867901011
 30
0.0
 10
138.7740072797111
 20
322.4555718939364
 30
0.0
 10
137.9150952349761
 20
322.5575019126266
 30
0.0
 10
137.1954846137283
 20
322.6727200069186
 30
0.0
 10
136.56667731687
 20
322.7940489427269
 30
0.0
 10
136.1430441807635
 20
322.8869976125056
 30
0.0
 10
135.8363322702024
 20
322.9594006282009
 30
0.0
 10
135.7090852764358
 20
322.9908835758155
 30
0.0
 10
135.6454630621
 20
323.0066247323
 30
0.0
 11
140.6454630621
 21
322.3715414634
 31
0.0
 11
139.6851113851025
 21
322.395388258364
 31
0.0
 11
138.7268642452094
 21
322.4663586121119
 31
0.0
 11
137.9158088002263
 21
322.5629893855706
 31
0.0
 11
137.1093335871977
 21
322.6917512615309
 31
0.0
 11
136.5671385199323
 21
322.7963386308321
 31
0.0
 11
136.0277628902589
 21
322.9144911386371
 31
0.0
 11
135.8364124773867
 21
322.9597429020166
 31
0.0
 11
135.6454630621
 21
323.0066247323
 31
0.0
  0
SPLINE
  5
121
330
1F
100
AcDbEntity
  8
0
  6
Continuous
 62
     2
100
AcDbSpline
210
0.0
220
0.0
230
1.0
 70
     8
 71
     3
 72
    51
 73
    47
 74
    45
 42
0.0000000001
 43
0.0000000001
 44
0.00000001
 40
0.0
 40
0.0
 40
0.0
 40
0.0
 40
0.0153840654433018
 40
0.0617503516280349
 40
0.1392587618813272
 40
0.2474240681245149
 40
0.3857018056914584
 40
0.5539518872933665
 40
0.7518317064046977
 40
0.9777699873397216
 40
1.230154671833813
 40
1.508413773107487
 40
1.811659726906733
 40
2.1366566195665
 40
2.480106413563286
 40
2.840754818724578
 40
3.217338674364945
 40
3.606449680122549
 40
4.004699258147499
 40
4.410860723659406
 40
4.8239515666465
 40
5.241759768570653
 40
5.662009620223956
 40
6.083363581443655
 40
6.504718563991013
 40
6.924969158663925
 40
7.342775339710117
 40
7.755862891826728
 40
8.16202180971253
 40
8.560269716395702
 40
8.94937942926974
 40
9.325961206466257
 40
9.686606238048823
 40
10.03005415549018
 40
10.35505264822552
 40
10.65829908887962
 40
10.93655361857759
 40
11.18893388304299
 40
11.41487309516462
 40
11.61275520141707
 40
11.78100422842766
 40
11.91927924995736
 40
12.02744253253085
 40
12.10494828700715
 40
12.1513102052085
 40
12.16669176253778
 40
12.16669176253778
 40
12.16669176253778
 40
12.16669176253778
 10
187.1454630621
 20
282.0066043188
 30
0.0
 10
187.1405334101007
 20
282.0080168154415
 30
0.0
 10
187.1207461994002
 20
282.0136864587882
 30
0.0
 10
187.0760904921988
 20
282.0263612789955
 30
0.0
 10
187.001641705073
 20
282.0473350773673
 30
0.0
 10
186.8975857513043
 20
282.0761957619001
 30
0.0
 10
186.7642163318356
 20
282.1125358586818
 30
0.0
 10
186.6017138374922
 20
282.1556991044116
 30
0.0
 10
186.410605880805
 20
282.2049736670278
 30
0.0
 10
186.1918593085097
 20
282.2593516828906
 30
0.0
 10
185.9465230711791
 20
282.3177840089726
 30
0.0
 10
185.6754003105912
 20
282.3791007775084
 30
0.0
 10
185.3798572762706
 20
282.4420653823876
 30
0.0
 10
185.0621734969654
 20
282.5052613225643
 30
0.0
 10
184.7247595461123
 20
282.5671646537238
 30
0.0
 10
184.369430688942
 20
282.6264700435948
 30
0.0
 10
183.9980858965532
 20
282.681951640423
 30
0.0
 10
183.6133894673115
 20
282.7324988540598
 30
0.0
 10
183.2180090584959
 20
282.7768944849288
 30
0.0
 10
182.8138800026659
 20
282.814342180277
 30
0.0
 10
182.4025789011114
 20
282.8441705180684
 30
0.0
 10
181.9860674430096
 20
282.8659222102825
 30
0.0
 10
181.5664388069117
 20
282.879071064125
 30
0.0
 10
181.1454449989412
 20
282.8834860086394
 30
0.0
 10
180.7244509527455
 20
282.8790702313937
 30
0.0
 10
180.3048224240497
 20
282.8659206979016
 30
0.0
 10
179.8883125226405
 20
282.8441683901599
 30
0.0
 10
179.4770140881105
 20
282.814339502986
 30
0.0
 10
179.0728875816012
 20
282.7768914380716
 30
0.0
 10
178.6775090568492
 20
282.7324954941655
 30
0.0
 10
178.292814363665
 20
282.6819479719002
 30
0.0
 10
177.9214718586979
 20
282.6264662866563
 30
0.0
 10
177.5661454602524
 20
282.5671610056461
 30
0.0
 10
177.2287327709654
 20
282.5052575376228
 30
0.0
 10
176.9110489980873
 20
282.4420612076067
 30
0.0
 10
176.6155068140932
 20
282.3790965895718
 30
0.0
 10
176.3443868461266
 20
282.3177803235342
 30
0.0
 10
176.0990532784782
 20
282.2593483840085
 30
0.0
 10
175.8803071395424
 20
282.2049702868858
 30
0.0
 10
175.6891984958721
 20
282.1556955003489
 30
0.0
 10
175.5266964978845
 20
282.1125323114167
 30
0.0
 10
175.3933289708043
 20
282.0761926165297
 30
0.0
 10
175.2892754010193
 20
282.0473325604846
 30
0.0
 10
175.2148295193983
 20
282.0263595703927
 30
0.0
 10
175.1701768866043
 20
282.0136855543456
 30
0.0
 10
175.1503919041937
 20
282.0080164553312
 30
0.0
 10
175.1454630621
 20
282.0066041673
 30
0.0
 11
187.1454630621
 21
282.0066043188
 31
0.0
 11
187.1306732311261
 21
282.0108387454821
 31
0.0
 11
187.0860736672736
 21
282.0235159454384
 31
0.0
 11
187.0114660325815
 21
282.0445220042228
 31
0.0
 11
186.9072390617786
 21
282.0734438304434
 31
0.0
 11
186.7738211082724
 21
282.1097808967646
 31
0.0
 11
186.6112119288001
 21
282.1529821086734
 31
0.0
 11
186.4195967960334
 21
282.2023791096588
 31
0.0
 11
186.2003316417675
 21
282.2568850626974
 31
0.0
 11
185.9548099859587
 21
282.315341418178
 31
0.0
 11
185.6834050433025
 21
282.3767212564264
 31
0.0
 11
185.3868150437922
 21
282.4399073362708
 31
0.0
 11
185.068058582735
 21
282.5032895007398
 31
0.0
 11
184.7302433744841
 21
282.5652463088472
 31
0.0
 11
184.3745132452379
 21
282.6246040993372
 31
0.0
 11
184.0020640354707
 21
282.680254674112
 31
0.0
 11
183.6162635301281
 21
282.7309039078584
 31
0.0
 11
183.2204997133119
 21
282.775330563102
 31
0.0
 11
182.8160694218674
 21
282.812790881158
 31
0.0
 11
182.4040609643957
 21
282.8426752505106
 31
0.0
 11
181.9868196833984
 21
282.8644331692265
 31
0.0
 11
181.5667762156025
 21
282.8776021850042
 31
0.0
 11
181.1454453409667
 21
282.8820129348456
 31
0.0
 11
180.7241134534704
 21
282.8776013709104
 31
0.0
 11
180.3040692654515
 21
282.8644316163764
 31
0.0
 11
179.886830039571
 21
282.8426730937481
 31
0.0
 11
179.4748249159159
 21
282.812788251508
 31
0.0
 11
179.0703972174943
 21
282.7753275610771
 31
0.0
 11
178.6746351213386
 21
282.7309005600084
 31
0.0
 11
178.2888359648855
 21
282.6802509841661
 31
0.0
 11
177.9163888735455
 21
282.6246002962205
 31
0.0
 11
177.5606621262013
 21
282.5652427353784
 31
0.0
 11
177.222848827065
 21
282.5032859204065
 31
0.0
 11
176.9040908637516
 21
282.4399031064542
 31
0.0
 11
176.6075004329475
 21
282.3767167145264
 31
0.0
 11
176.3360999854538
 21
282.3153377246551
 31
0.0
 11
176.0905826784825
 21
282.2568821871141
 31
0.0
 11
175.8713166592395
 21
282.2023758537255
 31
0.0
 11
175.6796993296333
 21
282.1529782123901
 31
0.0
 11
175.5170911903298
 21
282.1097771924688
 31
0.0
 11
175.3836758811048
 21
282.0734407528601
 31
0.0
 11
175.2794508700737
 21
282.044519432478
 31
0.0
 11
175.2048458008848
 21
282.0235140610633
 31
0.0
 11
175.160250464225
 21
282.010837965154
 31
0.0
 11
175.1454630621
 21
282.0066041673
 31
0.0
  0
DIMENSION
  5
12C
330
1F
100
AcDbEntity
  8
1
100
AcDbDimension
  2
*D2
 10
203.6454630621
 20
349.844652108648
 30
0.0
 11
161.472007563059
 21
353.594652108648
 31
0.0
 70
    32
  1
<>
 71
     5
 42
-1.0
 53
0.00013888888889
  3
ME10_DIM_10
100
AcDbAlignedDimension
 13
113.7454630621
 23
316.4526113569
 33
0.0
 14
203.6454630621
 24
317.3695544715
 34
0.0
100
AcDbRotatedDimension
  0
DIMENSION
  5
137
330
1F
100
AcDbEntity
  8
1
100
AcDbDimension
  2
*D3
 10
203.6454630621
 20
342.658963452469
 30
0.0
 11
169.855310995267
 21
346.408963452469
 31
0.0
 70
    32
  1
<>
 71
     5
 42
-1.0
 53
0.00013888888889
  3
ME10_DIM_11
100
AcDbAlignedDimension
 13
133.6454630621
 23
323.0066247323
 33
0.0
 14
203.6454630621
 24
317.3695544715
 34
0.0
100
AcDbRotatedDimension
  0
DIMENSION
  5
142
330
1F
100
AcDbEntity
  8
1
100
AcDbDimension
  2
*D4
 10
203.6454630621
 20
334.493408161357
 30
0.0
 11
177.585370004186
 21
338.243408161357
 31
0.0
 70
    32
  1
<>
 71
     5
 42
-1.0
 53
0.00013888888889
  3
ME10_DIM_12
100
AcDbAlignedDimension
 13
153.5954630621
 23
323.0065893754
 33
0.0
 14
203.6454630621
 24
317.3695544715
 34
0.0
100
AcDbRotatedDimension
  0
DIMENSION
  5
14D
330
1F
100
AcDbEntity
  8
1
100
AcDbDimension
  2
*D5
 10
224.323918886426
 20
324.0066247323
 30
0.0
 11
220.573918886426
 21
303.286616927845
 31
0.0
 70
    32
  1
<>
 71
     5
 42
-1.0
 53
90.0
  3
ME10_DIM_13
100
AcDbAlignedDimension
 13
190.5567268764
 23
282.0066247323
 33
0.0
 14
190.5567268764
 24
324.0066247323
 34
0.0
 50
90.0
100
AcDbRotatedDimension
  0
DIMENSION
  5
158
330
1F
100
AcDbEntity
  8
1
100
AcDbDimension
  2
*D6
 10
214.746133457854
 20
309.0066247323
 30
0.0
 11
210.996133457854
 21
303.163824806965
 31
0.0
 70
    32
  1
<>
 71
     5
 42
-1.0
 53
90.0
  3
ME10_DIM_14
100
AcDbAlignedDimension
 13
203.6454630621
 23
297.0066247323
 33
0.0
 14
203.6454630621
 24
309.0066247323
 34
0.0
 50
90.0
100
AcDbRotatedDimension
  0
INSERT
  5
15F
330
1F
100
AcDbEntity
  8
1
100
AcDbBlockReference
  2
*D7
 10
0.0
 20
0.0
 30
0.0
  0
ENDSEC
  0
SECTION
  2
OBJECTS
  0
DICTIONARY
  5
C
330
0
100
AcDbDictionary
281
     1
  3
ACAD_GROUP
350
D
  3
ACAD_LAYOUT
350
1A
  3
ACAD_MLEADERSTYLE
350
162
  3
ACAD_MLINESTYLE
350
17
  3
ACAD_PLOTSETTINGS
350
19
  3
ACAD_PLOTSTYLENAME
350
E
  3
ACAD_SCALELIST
350
4B
  3
ACAD_VISUALSTYLE
350
2A
  3
AcDbVariableDictionary
350
160
  0
DICTIONARY
  5
D
102
{ACAD_REACTORS
330
C
102
}
330
C
100
AcDbDictionary
281
     1
  0
DICTIONARY
  5
1A
102
{ACAD_REACTORS
330
C
102
}
330
C
100
AcDbDictionary
281
     1
  3
Layout1
350
1E
  3
Layout2
350
26
  3
Model
350
22
  0
DICTIONARY
  5
162
102
{ACAD_REACTORS
330
C
102
}
330
C
100
AcDbDictionary
281
     1
  0
DICTIONARY
  5
17
102
{ACAD_REACTORS
330
C
102
}
330
C
100
AcDbDictionary
281
     1
  3
Standard
350
18
  0
DICTIONARY
  5
19
102
{ACAD_REACTORS
330
C
102
}
330
C
100
AcDbDictionary
281
     1
  0
ACDBDICTIONARYWDFLT
  5
E
102
{ACAD_REACTORS
330
C
102
}
330
C
100
AcDbDictionary
281
     1
  3
Normal
350
F
100
AcDbDictionaryWithDefault
340
F
  0
DICTIONARY
  5
4B
102
{ACAD_REACTORS
330
C
102
}
330
C
100
AcDbDictionary
281
     1
  3
A0
350
4C
  3
A1
350
4D
  3
A2
350
4E
  3
A3
350
4F
  3
A4
350
50
  3
A5
350
51
  3
A6
350
52
  3
A7
350
53
  3
A8
350
54
  3
A9
350
55
  3
B0
350
56
  3
B1
350
57
  3
B2
350
58
  3
B3
350
59
  3
B4
350
5A
  3
B5
350
5B
  3
B6
350
5C
  3
B7
350
5D
  3
B8
350
5E
  3
B9
350
5F
  3
C0
350
60
  3
C1
350
61
  3
C2
350
62
  3
C3
350
63
  3
C4
350
64
  3
C5
350
65
  3
C6
350
66
  3
C7
350
67
  3
C8
350
68
  3
C9
350
69
  3
D0
350
6A
  3
D1
350
6B
  3
D2
350
6C
  0
DICTIONARY
  5
2A
102
{ACAD_REACTORS
330
C
102
}
330
C
100
AcDbDictionary
281
     1
  3
2dWireframe
350
2F
  3
3D Hidden
350
31
  3
3dWireframe
350
30
  3
Basic
350
32
  3
Brighten
350
36
  3
ColorChange
350
3A
  3
Conceptual
350
34
  3
Dim
350
35
  3
Facepattern
350
39
  3
Flat
350
2B
  3
FlatWithEdges
350
2C
  3
Gouraud
350
2D
  3
GouraudWithEdges
350
2E
  3
Linepattern
350
38
  3
Realistic
350
33
  3
Thicken
350
37
  0
DICTIONARY
  5
160
102
{ACAD_REACTORS
330
C
102
}
330
C
100
AcDbDictionary
281
     1
  3
CANNOSCALE
350
163
  0
LAYOUT
  5
1E
102
{ACAD_REACTORS
330
1A
102
}
330
1A
100
AcDbPlotSettings
  1

  2
none_device
  4

  6

 40
0.0
 41
0.0
 42
0.0
 43
0.0
 44
0.0
 45
0.0
 46
0.0
 47
0.0
 48
0.0
 49
0.0
140
0.0
141
0.0
142
1.0
143
1.0
 70
   688
 72
     0
 73
     0
 74
     5
  7

 75
    16
147
1.0
148
0.0
149
0.0
100
AcDbLayout
  1
Layout1
 70
     1
 71
     1
 10
0.0
 20
0.0
 11
12.0
 21
9.0
 12
0.0
 22
0.0
 32
0.0
 14
1.00000000000000E+20
 24
1.00000000000000E+20
 34
1.00000000000000E+20
 15
-1.00000000000000E+20
 25
-1.00000000000000E+20
 35
-1.00000000000000E+20
146
0.0
 13
0.0
 23
0.0
 33
0.0
 16
1.0
 26
0.0
 36
0.0
 17
0.0
 27
1.0
 37
0.0
 76
     0
330
1B
  0
LAYOUT
  5
26
102
{ACAD_REACTORS
330
1A
102
}
330
1A
100
AcDbPlotSettings
  1

  2
none_device
  4

  6

 40
0.0
 41
0.0
 42
0.0
 43
0.0
 44
0.0
 45
0.0
 46
0.0
 47
0.0
 48
0.0
 49
0.0
140
0.0
141
0.0
142
1.0
143
1.0
 70
   688
 72
     0
 73
     0
 74
     5
  7

 75
    16
147
1.0
148
0.0
149
0.0
100
AcDbLayout
  1
Layout2
 70
     1
 71
     2
 10
0.0
 20
0.0
 11
0.0
 21
0.0
 12
0.0
 22
0.0
 32
0.0
 14
0.0
 24
0.0
 34
0.0
 15
0.0
 25
0.0
 35
0.0
146
0.0
 13
0.0
 23
0.0
 33
0.0
 16
1.0
 26
0.0
 36
0.0
 17
0.0
 27
1.0
 37
0.0
 76
     0
330
23
  0
LAYOUT
  5
22
102
{ACAD_REACTORS
330
1A
102
}
330
1A
100
AcDbPlotSettings
  1

  2
none_device
  4

  6

 40
0.0
 41
0.0
 42
0.0
 43
0.0
 44
0.0
 45
0.0
 46
0.0
 47
0.0
 48
0.0
 49
0.0
140
0.0
141
0.0
142
1.0
143
1.0
 70
  1712
 72
     0
 73
     0
 74
     0
  7

 75
     0
147
1.0
148
0.0
149
0.0
100
AcDbLayout
  1
Model
 70
     1
 71
     0
 10
0.0
 20
0.0
 11
12.0
 21
9.0
 12
0.0
 22
0.0
 32
0.0
 14
110.6204630621
 24
262.8596985280387
 34
0.0
 15
226.323918886426
 25
355.344652108648
 35
0.0
146
0.0
 13
0.0
 23
0.0
 33
0.0
 16
1.0
 26
0.0
 36
0.0
 17
0.0
 27
1.0
 37
0.0
 76
     0
330
1F
331
29
  0
MLINESTYLE
  5
18
102
{ACAD_REACTORS
330
17
102
}
330
17
100
AcDbMlineStyle
  2
Standard
 70
     0
  3

 62
   256
 51
90.0
 52
90.0
 71
     2
 49
0.5
 62
   256
  6
BYLAYER
 49
-0.5
 62
   256
  6
BYLAYER
  0
ACDBPLACEHOLDER
  5
F
102
{ACAD_REACTORS
330
E
102
}
330
E
  0
SCALE
  5
4C
102
{ACAD_REACTORS
330
4B
102
}
330
4B
100
AcDbScale
 70
     0
300
1:1
140
1.0
141
1.0
290
     1
  0
SCALE
  5
4D
102
{ACAD_REACTORS
330
4B
102
}
330
4B
100
AcDbScale
 70
     0
300
1:2
140
1.0
141
2.0
290
     0
  0
SCALE
  5
4E
102
{ACAD_REACTORS
330
4B
102
}
330
4B
100
AcDbScale
 70
     0
300
1:4
140
1.0
141
4.0
290
     0
  0
SCALE
  5
4F
102
{ACAD_REACTORS
330
4B
102
}
330
4B
100
AcDbScale
 70
     0
300
1:5
140
1.0
141
5.0
290
     0
  0
SCALE
  5
50
102
{ACAD_REACTORS
330
4B
102
}
330
4B
100
AcDbScale
 70
     0
300
1:8
140
1.0
141
8.0
290
     0
  0
SCALE
  5
51
102
{ACAD_REACTORS
330
4B
102
}
330
4B
100
AcDbScale
 70
     0
300
1:10
140
1.0
141
10.0
290
     0
  0
SCALE
  5
52
102
{ACAD_REACTORS
330
4B
102
}
330
4B
100
AcDbScale
 70
     0
300
1:16
140
1.0
141
16.0
290
     0
  0
SCALE
  5
53
102
{ACAD_REACTORS
330
4B
102
}
330
4B
100
AcDbScale
 70
     0
300
1:20
140
1.0
141
20.0
290
     0
  0
SCALE
  5
54
102
{ACAD_REACTORS
330
4B
102
}
330
4B
100
AcDbScale
 70
     0
300
1:30
140
1.0
141
30.0
290
     0
  0
SCALE
  5
55
102
{ACAD_REACTORS
330
4B
102
}
330
4B
100
AcDbScale
 70
     0
300
1:40
140
1.0
141
40.0
290
     0
  0
SCALE
  5
56
102
{ACAD_REACTORS
330
4B
102
}
330
4B
100
AcDbScale
 70
     0
300
1:50
140
1.0
141
50.0
290
     0
  0
SCALE
  5
57
102
{ACAD_REACTORS
330
4B
102
}
330
4B
100
AcDbScale
 70
     0
300
1:100
140
1.0
141
100.0
290
     0
  0
SCALE
  5
58
102
{ACAD_REACTORS
330
4B
102
}
330
4B
100
AcDbScale
 70
     0
300
2:1
140
2.0
141
1.0
290
     0
  0
SCALE
  5
59
102
{ACAD_REACTORS
330
4B
102
}
330
4B
100
AcDbScale
 70
     0
300
4:1
140
4.0
141
1.0
290
     0
  0
SCALE
  5
5A
102
{ACAD_REACTORS
330
4B
102
}
330
4B
100
AcDbScale
 70
     0
300
8:1
140
8.0
141
1.0
290
     0
  0
SCALE
  5
5B
102
{ACAD_REACTORS
330
4B
102
}
330
4B
100
AcDbScale
 70
     0
300
10:1
140
10.0
141
1.0
290
     0
  0
SCALE
  5
5C
102
{ACAD_REACTORS
330
4B
102
}
330
4B
100
AcDbScale
 70
     0
300
100:1
140
100.0
141
1.0
290
     0
  0
SCALE
  5
5D
102
{ACAD_REACTORS
330
4B
102
}
330
4B
100
AcDbScale
 70
     0
300
1/128" = 1'-0"
140
0.0078125
141
12.0
290
     0
  0
SCALE
  5
5E
102
{ACAD_REACTORS
330
4B
102
}
330
4B
100
AcDbScale
 70
     0
300
1/64" = 1'-0"
140
0.015625
141
12.0
290
     0
  0
SCALE
  5
5F
102
{ACAD_REACTORS
330
4B
102
}
330
4B
100
AcDbScale
 70
     0
300
1/32" = 1'-0"
140
0.03125
141
12.0
290
     0
  0
SCALE
  5
60
102
{ACAD_REACTORS
330
4B
102
}
330
4B
100
AcDbScale
 70
     0
300
1/16" = 1'-0"
140
0.0625
141
12.0
290
     0
  0
SCALE
  5
61
102
{ACAD_REACTORS
330
4B
102
}
330
4B
100
AcDbScale
 70
     0
300
3/32" = 1'-0"
140
0.09375
141
12.0
290
     0
  0
SCALE
  5
62
102
{ACAD_REACTORS
330
4B
102
}
330
4B
100
AcDbScale
 70
     0
300
1/8" = 1'-0"
140
0.125
141
12.0
290
     0
  0
SCALE
  5
63
102
{ACAD_REACTORS
330
4B
102
}
330
4B
100
AcDbScale
 70
     0
300
3/16" = 1'-0"
140
0.1875
141
12.0
290
     0
  0
SCALE
  5
64
102
{ACAD_REACTORS
330
4B
102
}
330
4B
100
AcDbScale
 70
     0
300
1/4" = 1'-0"
140
0.25
141
12.0
290
     0
  0
SCALE
  5
65
102
{ACAD_REACTORS
330
4B
102
}
330
4B
100
AcDbScale
 70
     0
300
3/8" = 1'-0"
140
0.375
141
12.0
290
     0
  0
SCALE
  5
66
102
{ACAD_REACTORS
330
4B
102
}
330
4B
100
AcDbScale
 70
     0
300
1/2" = 1'-0"
140
0.5
141
12.0
290
     0
  0
SCALE
  5
67
102
{ACAD_REACTORS
330
4B
102
}
330
4B
100
AcDbScale
 70
     0
300
3/4" = 1'-0"
140
0.75
141
12.0
290
     0
  0
SCALE
  5
68
102
{ACAD_REACTORS
330
4B
102
}
330
4B
100
AcDbScale
 70
     0
300
1" = 1'-0"
140
1.0
141
12.0
290
     0
  0
SCALE
  5
69
102
{ACAD_REACTORS
330
4B
102
}
330
4B
100
AcDbScale
 70
     0
300
1-1/2" = 1'-0"
140
1.5
141
12.0
290
     0
  0
SCALE
  5
6A
102
{ACAD_REACTORS
330
4B
102
}
330
4B
100
AcDbScale
 70
     0
300
3" = 1'-0"
140
3.0
141
12.0
290
     0
  0
SCALE
  5
6B
102
{ACAD_REACTORS
330
4B
102
}
330
4B
100
AcDbScale
 70
     0
300
6" = 1'-0"
140
6.0
141
12.0
290
     0
  0
SCALE
  5
6C
102
{ACAD_REACTORS
330
4B
102
}
330
4B
100
AcDbScale
 70
     0
300
1'-0" = 1'-0"
140
12.0
141
12.0
290
     0
  0
VISUALSTYLE
  5
2F
102
{ACAD_REACTORS
330
2A
102
}
330
2A
100
AcDbVisualStyle
  2
2dWireframe
 70
     4
 71
     0
 72
     2
 73
     0
 90
        0
 40
-0.6
 41
-30.0
 62
     5
 63
     7
 74
     1
 91
        4
 64
     7
 65
   257
 75
     1
175
     1
 42
1.0
 92
        0
 66
   257
 43
1.0
 76
     1
 77
     6
 78
     2
 67
     7
 79
     5
170
     0
171
     0
290
     0
174
     0
 93
        1
 44
0.0
173
     0
291
     0
 45
0.0
1001
ACAD
1000
AcDbSavedByObjectVersion
1070
     0
  0
VISUALSTYLE
  5
31
102
{ACAD_REACTORS
330
2A
102
}
330
2A
100
AcDbVisualStyle
  2
3D Hidden
 70
     6
 71
     1
 72
     2
 73
     2
 90
        0
 40
-0.6
 41
-30.0
 62
     5
 63
     7
 74
     2
 91
        2
 64
     7
 65
   257
 75
     2
175
     1
 42
40.0
 92
        0
 66
   257
 43
1.0
 76
     1
 77
     6
 78
     2
 67
     7
 79
     3
170
     0
171
     0
290
     0
174
     0
 93
        1
 44
0.0
173
     0
291
     0
 45
0.0
1001
ACAD
1000
AcDbSavedByObjectVersion
1070
     0
  0
VISUALSTYLE
  5
30
102
{ACAD_REACTORS
330
2A
102
}
330
2A
100
AcDbVisualStyle
  2
3dWireframe
 70
     5
 71
     0
 72
     2
 73
     0
 90
        0
 40
-0.6
 41
-30.0
 62
     5
 63
     7
 74
     1
 91
        4
 64
     7
 65
   257
 75
     1
175
     1
 42
1.0
 92
        0
 66
   257
 43
1.0
 76
     1
 77
     6
 78
     2
 67
     7
 79
     5
170
     0
171
     0
290
     0
174
     0
 93
        1
 44
0.0
173
     0
291
     0
 45
0.0
1001
ACAD
1000
AcDbSavedByObjectVersion
1070
     0
  0
VISUALSTYLE
  5
32
102
{ACAD_REACTORS
330
2A
102
}
330
2A
100
AcDbVisualStyle
  2
Basic
 70
     7
 71
     1
 72
     0
 73
     1
 90
        0
 40
-0.6
 41
-30.0
 62
     5
 63
     7
 74
     0
 91
        4
 64
     7
 65
   257
 75
     1
175
     1
 42
1.0
 92
        8
 66
     7
 43
1.0
 76
     1
 77
     6
 78
     2
 67
     7
 79
     5
170
     0
171
     0
290
     0
174
     0
 93
        1
 44
0.0
173
     0
291
     1
 45
0.0
1001
ACAD
1000
AcDbSavedByObjectVersion
1070
     0
  0
VISUALSTYLE
  5
36
102
{ACAD_REACTORS
330
2A
102
}
330
2A
100
AcDbVisualStyle
  2
Brighten
 70
    12
 71
     2
 72
     2
 73
     0
 90
        0
 40
-0.6
 41
-30.0
 62
     5
 63
     7
 74
     1
 91
        4
 64
     7
 65
   257
 75
     1
175
     1
 42
1.0
 92
        8
 66
     7
 43
1.0
 76
     1
 77
     6
 78
     2
 67
     7
 79
     5
170
     0
171
     0
290
     0
174
     0
 93
        1
 44
50.0
173
     0
291
     1
 45
0.0
1001
ACAD
1000
AcDbSavedByObjectVersion
1070
     0
  0
VISUALSTYLE
  5
3A
102
{ACAD_REACTORS
330
2A
102
}
330
2A
100
AcDbVisualStyle
  2
ColorChange
 70
    16
 71
     2
 72
     2
 73
     3
 90
        0
 40
-0.6
 41
-30.0
 62
     5
 63
     8
 74
     1
 91
        4
 64
     7
 65
   257
 75
     1
175
     1
 42
1.0
 92
        8
 66
     8
 43
1.0
 76
     1
 77
     6
 78
     2
 67
     7
 79
     5
170
     0
171
     0
290
     0
174
     0
 93
        1
 44
0.0
173
     0
291
     1
 45
0.0
1001
ACAD
1000
AcDbSavedByObjectVersion
1070
     0
  0
VISUALSTYLE
  5
34
102
{ACAD_REACTORS
330
2A
102
}
330
2A
100
AcDbVisualStyle
  2
Conceptual
 70
     9
 71
     3
 72
     2
 73
     0
 90
        0
 40
-0.6
 41
-30.0
 62
     5
 63
     7
 74
     2
 91
        2
 64
     7
 65
   257
 75
     1
175
     1
 42
40.0
 92
        8
 66
     7
 43
1.0
 76
     1
 77
     6
 78
     2
 67
     7
 79
     3
170
     0
171
     0
290
     0
174
     0
 93
        1
 44
0.0
173
     0
291
     0
 45
0.0
1001
ACAD
1000
AcDbSavedByObjectVersion
1070
     0
  0
VISUALSTYLE
  5
35
102
{ACAD_REACTORS
330
2A
102
}
330
2A
100
AcDbVisualStyle
  2
Dim
 70
    11
 71
     2
 72
     2
 73
     0
 90
        0
 40
-0.6
 41
-30.0
 62
     5
 63
     7
 74
     1
 91
        4
 64
     7
 65
   257
 75
     1
175
     1
 42
1.0
 92
        8
 66
     7
 43
1.0
 76
     1
 77
     6
 78
     2
 67
     7
 79
     5
170
     0
171
     0
290
     0
174
     0
 93
        1
 44
-50.0
173
     0
291
     1
 45
0.0
1001
ACAD
1000
AcDbSavedByObjectVersion
1070
     0
  0
VISUALSTYLE
  5
39
102
{ACAD_REACTORS
330
2A
102
}
330
2A
100
AcDbVisualStyle
  2
Facepattern
 70
    15
 71
     2
 72
     2
 73
     0
 90
        0
 40
-0.6
 41
-30.0
 62
     5
 63
     7
 74
     1
 91
        4
 64
     7
 65
   257
 75
     1
175
     1
 42
1.0
 92
        8
 66
     7
 43
1.0
 76
     1
 77
     6
 78
     2
 67
     7
 79
     5
170
     0
171
     0
290
     0
174
     0
 93
        1
 44
0.0
173
     0
291
     1
 45
0.0
1001
ACAD
1000
AcDbSavedByObjectVersion
1070
     0
  0
VISUALSTYLE
  5
2B
102
{ACAD_REACTORS
330
2A
102
}
330
2A
100
AcDbVisualStyle
  2
Flat
 70
     0
 71
     2
 72
     1
 73
     1
 90
        2
 40
-0.6
 41
30.0
 62
     5
 63
     7
 74
     0
 91
        4
 64
     7
 65
   257
 75
     1
175
     1
 42
1.0
 92
        8
 66
     7
 43
1.0
 76
     1
 77
     6
 78
     2
 67
     7
 79
     5
170
     0
171
     0
290
     0
174
     0
 93
       13
 44
0.0
173
     0
291
     1
 45
0.0
1001
ACAD
1000
AcDbSavedByObjectVersion
1070
     0
  0
VISUALSTYLE
  5
2C
102
{ACAD_REACTORS
330
2A
102
}
330
2A
100
AcDbVisualStyle
  2
FlatWithEdges
 70
     1
 71
     2
 72
     1
 73
     1
 90
        2
 40
-0.6
 41
30.0
 62
     5
 63
     7
 74
     1
 91
        4
 64
     7
 65
   257
 75
     1
175
     1
 42
1.0
 92
        0
 66
   257
 43
1.0
 76
     1
 77
     6
 78
     2
 67
     7
 79
     5
170
     0
171
     0
290
     0
174
     0
 93
       13
 44
0.0
173
     0
291
     1
 45
0.0
1001
ACAD
1000
AcDbSavedByObjectVersion
1070
     0
  0
VISUALSTYLE
  5
2D
102
{ACAD_REACTORS
330
2A
102
}
330
2A
100
AcDbVisualStyle
  2
Gouraud
 70
     2
 71
     2
 72
     2
 73
     1
 90
        2
 40
-0.6
 41
30.0
 62
     5
 63
     7
 74
     0
 91
        4
 64
     7
 65
   257
 75
     1
175
     1
 42
1.0
 92
        0
 66
     7
 43
1.0
 76
     1
 77
     6
 78
     2
 67
     7
 79
     5
170
     0
171
     0
290
     0
174
     0
 93
       13
 44
0.0
173
     0
291
     1
 45
0.0
1001
ACAD
1000
AcDbSavedByObjectVersion
1070
     0
  0
VISUALSTYLE
  5
2E
102
{ACAD_REACTORS
330
2A
102
}
330
2A
100
AcDbVisualStyle
  2
GouraudWithEdges
 70
     3
 71
     2
 72
     2
 73
     1
 90
        2
 40
-0.6
 41
30.0
 62
     5
 63
     7
 74
     1
 91
        4
 64
     7
 65
   257
 75
     1
175
     1
 42
1.0
 92
        0
 66
   257
 43
1.0
 76
     1
 77
     6
 78
     2
 67
     7
 79
     5
170
     0
171
     0
290
     0
174
     0
 93
       13
 44
0.0
173
     0
291
     1
 45
0.0
1001
ACAD
1000
AcDbSavedByObjectVersion
1070
     0
  0
VISUALSTYLE
  5
38
102
{ACAD_REACTORS
330
2A
102
}
330
2A
100
AcDbVisualStyle
  2
Linepattern
 70
    14
 71
     2
 72
     2
 73
     0
 90
        0
 40
-0.6
 41
-30.0
 62
     5
 63
     7
 74
     1
 91
        4
 64
     7
 65
   257
 75
     7
175
     7
 42
1.0
 92
        8
 66
     7
 43
1.0
 76
     1
 77
     6
 78
     2
 67
     7
 79
     5
170
     0
171
     0
290
     0
174
     0
 93
        1
 44
0.0
173
     0
291
     1
 45
0.0
1001
ACAD
1000
AcDbSavedByObjectVersion
1070
     0
  0
VISUALSTYLE
  5
33
102
{ACAD_REACTORS
330
2A
102
}
330
2A
100
AcDbVisualStyle
  2
Realistic
 70
     8
 71
     2
 72
     2
 73
     0
 90
        0
 40
-0.6
 41
-30.0
 62
     5
 63
     7
 74
     1
 91
        0
 64
     7
 65
   257
 75
     1
175
     1
 42
1.0
 92
        8
 66
     8
 43
1.0
 76
     1
 77
     6
 78
     2
 67
     7
 79
     5
170
     0
171
     0
290
     0
174
     0
 93
       13
 44
0.0
173
     0
291
     0
 45
0.0
1001
ACAD
1000
AcDbSavedByObjectVersion
1070
     0
  0
VISUALSTYLE
  5
37
102
{ACAD_REACTORS
330
2A
102
}
330
2A
100
AcDbVisualStyle
  2
Thicken
 70
    13
 71
     2
 72
     2
 73
     0
 90
        0
 40
-0.6
 41
-30.0
 62
     5
 63
     7
 74
     1
 91
        4
 64
     7
 65
   257
 75
     1
175
     1
 42
1.0
 92
       12
 66
     7
 43
1.0
 76
     1
 77
     6
 78
     2
 67
     7
 79
     5
170
     0
171
     0
290
     0
174
     0
 93
        1
 44
0.0
173
     0
291
     1
 45
0.0
1001
ACAD
1000
AcDbSavedByObjectVersion
1070
     0
  0
DICTIONARYVAR
  5
163
102
{ACAD_REACTORS
330
160
102
}
330
160
100
DictionaryVariables
280
     0
  1
1:1
  0
ENDSEC
  0
EOF
