  0
SECTION
  2
HEADER
  9
$ACADVER
  1
AC1015
  9
$ACADMAINTVER
 70
     6
  9
$DWGCODEPAGE
  3
ANSI_1252
  9
$INSBASE
 10
0.0
 20
0.0
 30
0.0
  9
$EXTMIN
 10
106.3020044715768
 20
267.4217102536167
 30
0.0
  9
$EXTMAX
 10
215.071391388883
 20
355.980655231287
 30
0.0
  9
$LIMMIN
 10
0.0
 20
0.0
  9
$LIMMAX
 10
12.0
 20
9.0
  9
$ORTHOMODE
 70
     0
  9
$REGENMODE
 70
     1
  9
$FILLMODE
 70
     1
  9
$QTEXTMODE
 70
     0
  9
$MIRRTEXT
 70
     1
  9
$LTSCALE
 40
1.0
  9
$ATTMODE
 70
     1
  9
$TEXTSIZE
 40
0.2
  9
$TRACEWID
 40
0.05
  9
$TEXTSTYLE
  7
Standard
  9
$CLAYER
  8
0
  9
$CELTYPE
  6
ByLayer
  9
$CECOLOR
 62
   256
  9
$CELTSCALE
 40
1.0
  9
$DISPSILH
 70
     0
  9
$DIMSCALE
 40
1.0
  9
$DIMASZ
 40
0.18
  9
$DIMEXO
 40
0.0625
  9
$DIMDLI
 40
0.38
  9
$DIMRND
 40
0.0
  9
$DIMDLE
 40
0.0
  9
$DIMEXE
 40
0.18
  9
$DIMTP
 40
0.0
  9
$DIMTM
 40
0.0
  9
$DIMTXT
 40
0.18
  9
$DIMCEN
 40
0.09
  9
$DIMTSZ
 40
0.0
  9
$DIMTOL
 70
     0
  9
$DIMLIM
 70
     0
  9
$DIMTIH
 70
     1
  9
$DIMTOH
 70
     1
  9
$DIMSE1
 70
     0
  9
$DIMSE2
 70
     0
  9
$DIMTAD
 70
     0
  9
$DIMZIN
 70
     0
  9
$DIMBLK
  1

  9
$DIMASO
 70
     1
  9
$DIMSHO
 70
     1
  9
$DIMPOST
  1

  9
$DIMAPOST
  1

  9
$DIMALT
 70
     0
  9
$DIMALTD
 70
     2
  9
$DIMALTF
 40
25.4
  9
$DIMLFAC
 40
1.0
  9
$DIMTOFL
 70
     0
  9
$DIMTVP
 40
0.0
  9
$DIMTIX
 70
     0
  9
$DIMSOXD
 70
     0
  9
$DIMSAH
 70
     0
  9
$DIMBLK1
  1

  9
$DIMBLK2
  1

  9
$DIMSTYLE
  2
Standard
  9
$DIMCLRD
 70
     0
  9
$DIMCLRE
 70
     0
  9
$DIMCLRT
 70
     0
  9
$DIMTFAC
 40
1.0
  9
$DIMGAP
 40
0.09
  9
$DIMJUST
 70
     0
  9
$DIMSD1
 70
     0
  9
$DIMSD2
 70
     0
  9
$DIMTOLJ
 70
     1
  9
$DIMTZIN
 70
     0
  9
$DIMALTZ
 70
     0
  9
$DIMALTTZ
 70
     0
  9
$DIMUPT
 70
     0
  9
$DIMDEC
 70
     4
  9
$DIMTDEC
 70
     4
  9
$DIMALTU
 70
     2
  9
$DIMALTTD
 70
     2
  9
$DIMTXSTY
  7
Standard
  9
$DIMAUNIT
 70
     0
  9
$DIMADEC
 70
     0
  9
$DIMALTRND
 40
0.0
  9
$DIMAZIN
 70
     0
  9
$DIMDSEP
 70
    46
  9
$DIMATFIT
 70
     3
  9
$DIMFRAC
 70
     0
  9
$DIMLDRBLK
  1

  9
$DIMLUNIT
 70
     2
  9
$DIMLWD
 70
    -2
  9
$DIMLWE
 70
    -2
  9
$DIMTMOVE
 70
     0
  9
$LUNITS
 70
     2
  9
$LUPREC
 70
     4
  9
$SKETCHINC
 40
0.1
  9
$FILLETRAD
 40
0.5
  9
$AUNITS
 70
     0
  9
$AUPREC
 70
     0
  9
$MENU
  1
.
  9
$ELEVATION
 40
0.0
  9
$PELEVATION
 40
0.0
  9
$THICKNESS
 40
0.0
  9
$LIMCHECK
 70
     0
  9
$CHAMFERA
 40
0.5
  9
$CHAMFERB
 40
0.5
  9
$CHAMFERC
 40
1.0
  9
$CHAMFERD
 40
0.0
  9
$SKPOLY
 70
     0
  9
$TDCREATE
 40
2456680.578076655
  9
$TDUCREATE
 40
2456680.536409989
  9
$TDUPDATE
 40
2456680.578076667
  9
$TDUUPDATE
 40
2456680.53641
  9
$TDINDWG
 40
0.0000000116
  9
$TDUSRTIMER
 40
0.0000000116
  9
$USRTIMER
 70
     1
  9
$ANGBASE
 50
0.0
  9
$ANGDIR
 70
     0
  9
$PDMODE
 70
     0
  9
$PDSIZE
 40
0.0
  9
$PLINEWID
 40
0.0
  9
$SPLFRAME
 70
     0
  9
$SPLINETYPE
 70
     6
  9
$SPLINESEGS
 70
     8
  9
$HANDSEED
  5
15F
  9
$SURFTAB1
 70
     6
  9
$SURFTAB2
 70
     6
  9
$SURFTYPE
 70
     6
  9
$SURFU
 70
     6
  9
$SURFV
 70
     6
  9
$UCSBASE
  2

  9
$UCSNAME
  2

  9
$UCSORG
 10
0.0
 20
0.0
 30
0.0
  9
$UCSXDIR
 10
1.0
 20
0.0
 30
0.0
  9
$UCSYDIR
 10
0.0
 20
1.0
 30
0.0
  9
$UCSORTHOREF
  2

  9
$UCSORTHOVIEW
 70
     0
  9
$UCSORGTOP
 10
0.0
 20
0.0
 30
0.0
  9
$UCSORGBOTTOM
 10
0.0
 20
0.0
 30
0.0
  9
$UCSORGLEFT
 10
0.0
 20
0.0
 30
0.0
  9
$UCSORGRIGHT
 10
0.0
 20
0.0
 30
0.0
  9
$UCSORGFRONT
 10
0.0
 20
0.0
 30
0.0
  9
$UCSORGBACK
 10
0.0
 20
0.0
 30
0.0
  9
$PUCSBASE
  2

  9
$PUCSNAME
  2

  9
$PUCSORG
 10
0.0
 20
0.0
 30
0.0
  9
$PUCSXDIR
 10
1.0
 20
0.0
 30
0.0
  9
$PUCSYDIR
 10
0.0
 20
1.0
 30
0.0
  9
$PUCSORTHOREF
  2

  9
$PUCSORTHOVIEW
 70
     0
  9
$PUCSORGTOP
 10
0.0
 20
0.0
 30
0.0
  9
$PUCSORGBOTTOM
 10
0.0
 20
0.0
 30
0.0
  9
$PUCSORGLEFT
 10
0.0
 20
0.0
 30
0.0
  9
$PUCSORGRIGHT
 10
0.0
 20
0.0
 30
0.0
  9
$PUCSORGFRONT
 10
0.0
 20
0.0
 30
0.0
  9
$PUCSORGBACK
 10
0.0
 20
0.0
 30
0.0
  9
$USERI1
 70
     0
  9
$USERI2
 70
     0
  9
$USERI3
 70
     0
  9
$USERI4
 70
     0
  9
$USERI5
 70
     0
  9
$USERR1
 40
16.5
  9
$USERR2
 40
0.0
  9
$USERR3
 40
0.0
  9
$USERR4
 40
0.0
  9
$USERR5
 40
0.0
  9
$WORLDVIEW
 70
     1
  9
$SHADEDGE
 70
     3
  9
$SHADEDIF
 70
    70
  9
$TILEMODE
 70
     1
  9
$MAXACTVP
 70
    64
  9
$PINSBASE
 10
0.0
 20
0.0
 30
0.0
  9
$PLIMCHECK
 70
     0
  9
$PEXTMIN
 10
1.00000000000000E+20
 20
1.00000000000000E+20
 30
1.00000000000000E+20
  9
$PEXTMAX
 10
-1.00000000000000E+20
 20
-1.00000000000000E+20
 30
-1.00000000000000E+20
  9
$PLIMMIN
 10
0.0
 20
0.0
  9
$PLIMMAX
 10
12.0
 20
9.0
  9
$UNITMODE
 70
     0
  9
$VISRETAIN
 70
     1
  9
$PLINEGEN
 70
     0
  9
$PSLTSCALE
 70
     1
  9
$TREEDEPTH
 70
  3020
  9
$CMLSTYLE
  2
Standard
  9
$CMLJUST
 70
     0
  9
$CMLSCALE
 40
1.0
  9
$PROXYGRAPHICS
 70
     1
  9
$MEASUREMENT
 70
     1
  9
$CELWEIGHT
370
    -1
  9
$ENDCAPS
280
     0
  9
$JOINSTYLE
280
     0
  9
$LWDISPLAY
290
     0
  9
$INSUNITS
 70
     1
  9
$HYPERLINKBASE
  1

  9
$STYLESHEET
  1

  9
$XEDIT
290
     1
  9
$CEPSNTYPE
380
     0
  9
$PSTYLEMODE
290
     1
  9
$FINGERPRINTGUID
  2
{74310DB5-08EE-4ED4-9D76-EC6A9AC08927}
  9
$VERSIONGUID
  2
{FAEB1C32-E019-11D5-929B-00C0DF256EC4}
  9
$EXTNAMES
290
     1
  9
$PSVPSCALE
 40
0.0
  9
$OLESTARTUP
290
     0
  0
ENDSEC
  0
SECTION
  2
CLASSES
  0
CLASS
  1
ACDBDICTIONARYWDFLT
  2
AcDbDictionaryWithDefault
  3
ObjectDBX Classes
 90
        0
280
     0
281
     0
  0
CLASS
  1
VISUALSTYLE
  2
AcDbVisualStyle
  3
ObjectDBX Classes
 90
     4095
280
     0
281
     0
  0
CLASS
  1
SCALE
  2
AcDbScale
  3
ObjectDBX Classes
 90
     1153
280
     0
281
     0
  0
CLASS
  1

  2
exOdDbPolyline
  3

 90
        0
280
     0
281
     1
  0
CLASS
  1

  2
exOdDbCircle
  3

 90
        0
280
     0
281
     1
  0
CLASS
  1

  2
exOdDbSpline
  3

 90
        0
280
     0
281
     1
  0
CLASS
  1
DICTIONARYVAR
  2
AcDbDictionaryVar
  3
ObjectDBX Classes
 90
        0
280
     0
281
     0
  0
CLASS
  1
ACDBPLACEHOLDER
  2
AcDbPlaceHolder
  3
ObjectDBX Classes
 90
        0
280
     0
281
     0
  0
CLASS
  1
LAYOUT
  2
AcDbLayout
  3
ObjectDBX Classes
 90
        0
280
     0
281
     0
  0
ENDSEC
  0
SECTION
  2
TABLES
  0
TABLE
  2
VPORT
  5
8
330
0
100
AcDbSymbolTable
 70
     1
  0
VPORT
  5
29
330
8
100
AcDbSymbolTableRecord
100
AcDbViewportTableRecord
  2
*Active
 70
     0
 10
0.0
 20
0.0
 11
1.0
 21
1.0
 12
160.6866979302299
 22
311.7011827424519
 13
0.0
 23
0.0
 14
0.5
 24
0.5
 15
0.5
 25
0.5
 16
0.0
 26
0.0
 36
1.0
 17
0.0
 27
0.0
 37
0.0
 40
97.41483947543735
 41
1.60267857142857
 42
50.0
 43
0.0
 44
0.0
 50
0.0
 51
0.0
 71
     0
 72
   100
 73
     1
 74
     3
 75
     0
 76
     0
 77
     0
 78
     0
281
     0
 65
     1
110
0.0
120
0.0
130
0.0
111
1.0
121
0.0
131
0.0
112
0.0
122
1.0
132
0.0
 79
     0
146
0.0
  0
ENDTAB
  0
TABLE
  2
LTYPE
  5
5
330
0
100
AcDbSymbolTable
 70
     8
  0
LTYPE
  5
14
330
5
100
AcDbSymbolTableRecord
100
AcDbLinetypeTableRecord
  2
ByBlock
 70
     0
  3

 72
    65
 73
     0
 40
0.0
  0
LTYPE
  5
15
330
5
100
AcDbSymbolTableRecord
100
AcDbLinetypeTableRecord
  2
ByLayer
 70
     0
  3

 72
    65
 73
     0
 40
0.0
  0
LTYPE
  5
16
330
5
100
AcDbSymbolTableRecord
100
AcDbLinetypeTableRecord
  2
Continuous
 70
     0
  3
Solid line
 72
    65
 73
     0
 40
0.0
  0
LTYPE
  5
3B
330
5
100
AcDbSymbolTableRecord
100
AcDbLinetypeTableRecord
  2
DASHED
 70
     0
  3
Dashed
 72
    65
 73
     2
 40
15.0
 49
7.0
 74
     0
 49
-8.0
 74
     0
  0
LTYPE
  5
3C
330
5
100
AcDbSymbolTableRecord
100
AcDbLinetypeTableRecord
  2
DOTTED
 70
     0
  3
Dotted
 72
    65
 73
     2
 40
1.0
 49
0.0
 74
     0
 49
-1.0
 74
     0
  0
LTYPE
  5
3D
330
5
100
AcDbSymbolTableRecord
100
AcDbLinetypeTableRecord
  2
DOT_CENTER
 70
     0
  3
Dot_Center
 72
    65
 73
     4
 40
14.0
 49
12.0
 74
     0
 49
-1.0
 74
     0
 49
0.0
 74
     0
 49
-1.0
 74
     0
  0
LTYPE
  5
3E
330
5
100
AcDbSymbolTableRecord
100
AcDbLinetypeTableRecord
  2
LONG_DASHED
 70
     0
  3
Long_Dashed
 72
    65
 73
     2
 40
15.0
 49
10.0
 74
     0
 49
-5.0
 74
     0
  0
LTYPE
  5
3F
330
5
100
AcDbSymbolTableRecord
100
AcDbLinetypeTableRecord
  2
DASH_CENTER
 70
     0
  3
Dash_Center
 72
    65
 73
     4
 40
14.0
 49
11.0
 74
     0
 49
-1.0
 74
     0
 49
1.0
 74
     0
 49
-1.0
 74
     0
  0
LTYPE
  5
40
330
5
100
AcDbSymbolTableRecord
100
AcDbLinetypeTableRecord
  2
PHANTOM
 70
     0
  3
Phantom
 72
    65
 73
     6
 40
13.0
 49
10.0
 74
     0
 49
-1.0
 74
     0
 49
0.0
 74
     0
 49
-1.0
 74
     0
 49
0.0
 74
     0
 49
-1.0
 74
     0
  0
LTYPE
  5
41
330
5
100
AcDbSymbolTableRecord
100
AcDbLinetypeTableRecord
  2
CENTER_DASH_DASH
 70
     0
  3
Center_Dash_Dash
 72
    65
 73
     6
 40
14.0
 49
9.0
 74
     0
 49
-1.0
 74
     0
 49
1.0
 74
     0
 49
-1.0
 74
     0
 49
1.0
 74
     0
 49
-1.0
 74
     0
  0
ENDTAB
  0
TABLE
  2
LAYER
  5
2
330
0
100
AcDbSymbolTable
 70
     7
  0
LAYER
  5
10
330
2
100
AcDbSymbolTableRecord
100
AcDbLayerTableRecord
  2
0
 70
     0
 62
     7
  6
Continuous
370
    -3
390
F
  0
LAYER
  5
42
330
2
100
AcDbSymbolTableRecord
100
AcDbLayerTableRecord
  2
1
 70
     0
 62
     7
  6
Continuous
370
    -3
390
F
  0
LAYER
  5
43
330
2
100
AcDbSymbolTableRecord
100
AcDbLayerTableRecord
  2
BEZUGSACHSEN
 70
     0
 62
     7
  6
Continuous
370
    -3
390
F
  0
LAYER
  5
44
330
2
100
AcDbSymbolTableRecord
100
AcDbLayerTableRecord
  2
DEFAULT_2
 70
     0
 62
     7
  6
Continuous
370
    -3
390
F
  0
LAYER
  5
45
330
2
100
AcDbSymbolTableRecord
100
AcDbLayerTableRecord
  2
FASEN
 70
     0
 62
     7
  6
Continuous
370
    -3
390
F
  0
LAYER
  5
46
330
2
100
AcDbSymbolTableRecord
100
AcDbLayerTableRecord
  2
RUNDUNGEN
 70
     0
 62
     7
  6
Continuous
370
    -3
390
F
  0
LAYER
  5
47
330
2
100
AcDbSymbolTableRecord
100
AcDbLayerTableRecord
  2
TEIL_STARTBEZUEGE
 70
     0
 62
     7
  6
Continuous
370
    -3
390
F
  0
ENDTAB
  0
TABLE
  2
STYLE
  5
3
330
0
100
AcDbSymbolTable
 70
     2
  0
STYLE
  5
11
330
3
100
AcDbSymbolTableRecord
100
AcDbTextStyleTableRecord
  2
Standard
 70
     0
 40
0.0
 41
1.0
 50
0.0
 71
     0
 42
0.2
  3
txt
  4

  0
STYLE
  5
6E
330
3
100
AcDbSymbolTableRecord
100
AcDbTextStyleTableRecord
  2
CONVERTER_11
 70
     0
 40
0.0
 41
0.72
 50
0.0
 71
     0
 42
0.2
  3
txt.shx
  4

  0
ENDTAB
  0
TABLE
  2
VIEW
  5
6
330
0
100
AcDbSymbolTable
 70
     0
  0
ENDTAB
  0
TABLE
  2
UCS
  5
7
330
0
100
AcDbSymbolTable
 70
     0
  0
ENDTAB
  0
TABLE
  2
APPID
  5
9
330
0
100
AcDbSymbolTable
 70
     1
  0
APPID
  5
12
330
9
100
AcDbSymbolTableRecord
100
AcDbRegAppTableRecord
  2
ACAD
 70
     0
  0
ENDTAB
  0
TABLE
  2
DIMSTYLE
  5
A
330
0
100
AcDbSymbolTable
 70
     6
100
AcDbDimStyleTable
  0
DIMSTYLE
105
27
330
A
100
AcDbSymbolTableRecord
100
AcDbDimStyleTableRecord
  2
Standard
 70
     0
340
11
  0
DIMSTYLE
105
126
102
{ACAD_REACTORS
330
127
102
}
330
A
100
AcDbSymbolTableRecord
100
AcDbDimStyleTableRecord
  2
ME10_DIM_10
 70
     0
  3
\U+2300<>
 41
3.5
 42
2.0
 44
2.0
 71
     1
 73
     0
 74
     0
 77
     1
 78
     8
140
3.5
146
0.7
147
2.0
172
     1
173
     1
176
     2
177
     2
178
     3
271
     2
272
     0
340
6E
  0
DIMSTYLE
105
131
102
{ACAD_REACTORS
330
132
102
}
330
A
100
AcDbSymbolTableRecord
100
AcDbDimStyleTableRecord
  2
ME10_DIM_11
 70
     0
  3
\U+2300<>
 41
3.5
 42
2.0
 44
2.0
 71
     1
 73
     0
 74
     0
 77
     1
 78
     8
140
3.5
146
0.7
147
2.0
172
     1
173
     1
176
     2
177
     2
178
     3
271
     2
272
     0
340
6E
  0
DIMSTYLE
105
13C
102
{ACAD_REACTORS
330
13D
102
}
330
A
100
AcDbSymbolTableRecord
100
AcDbDimStyleTableRecord
  2
ME10_DIM_12
 70
     0
  3
<>
 41
3.5
 42
2.0
 44
2.0
 71
     1
 73
     0
 74
     0
 77
     1
 78
     8
140
3.5
146
0.7
147
2.0
172
     1
173
     1
176
     2
177
     2
178
     3
271
     0
272
     0
340
6E
  0
DIMSTYLE
105
147
102
{ACAD_REACTORS
330
148
102
}
330
A
100
AcDbSymbolTableRecord
100
AcDbDimStyleTableRecord
  2
ME10_DIM_13
 70
     0
  3
<>
 41
3.5
 42
2.0
 44
2.0
 71
     1
 73
     0
 74
     0
 77
     1
 78
     8
140
3.5
146
0.7
147
2.0
172
     1
173
     1
176
     2
177
     2
178
     3
271
     2
272
     0
340
6E
  0
DIMSTYLE
105
152
102
{ACAD_REACTORS
330
153
102
}
330
A
100
AcDbSymbolTableRecord
100
AcDbDimStyleTableRecord
  2
ME10_DIM_14
 70
     0
  3
<>
 41
3.5
 42
2.0
 44
2.0
 71
     1
 73
     0
 74
     0
 77
     1
 78
     8
140
3.5
146
0.7
147
2.0
172
     1
173
     1
176
     2
177
     2
178
     3
271
     0
272
     0
340
6E
  0
ENDTAB
  0
TABLE
  2
BLOCK_RECORD
  5
1
330
0
100
AcDbSymbolTable
 70
     8
  0
BLOCK_RECORD
  5
1F
330
1
100
AcDbSymbolTableRecord
100
AcDbBlockTableRecord
  2
*Model_Space
340
22
  0
BLOCK_RECORD
  5
1B
330
1
100
AcDbSymbolTableRecord
100
AcDbBlockTableRecord
  2
*Paper_Space
340
1E
  0
BLOCK_RECORD
  5
23
330
1
100
AcDbSymbolTableRecord
100
AcDbBlockTableRecord
  2
*Paper_Space0
340
26
  0
BLOCK_RECORD
  5
48
330
1
100
AcDbSymbolTableRecord
100
AcDbBlockTableRecord
  2
Urheberrecht_DE-EN_horizontal
340
0
102
{BLKREFS
331
6D
102
}
  0
BLOCK_RECORD
  5
11B
330
1
100
AcDbSymbolTableRecord
100
AcDbBlockTableRecord
  2
*D2
340
0
  0
BLOCK_RECORD
  5
128
330
1
100
AcDbSymbolTableRecord
100
AcDbBlockTableRecord
  2
*D3
340
0
  0
BLOCK_RECORD
  5
133
330
1
100
AcDbSymbolTableRecord
100
AcDbBlockTableRecord
  2
*D4
340
0
  0
BLOCK_RECORD
  5
13E
330
1
100
AcDbSymbolTableRecord
100
AcDbBlockTableRecord
  2
*D5
340
0
  0
BLOCK_RECORD
  5
149
330
1
100
AcDbSymbolTableRecord
100
AcDbBlockTableRecord
  2
*D6
340
0
  0
BLOCK_RECORD
  5
154
330
1
100
AcDbSymbolTableRecord
100
AcDbBlockTableRecord
  2
*D7
340
0
102
{BLKREFS
331
15A
102
}
  0
ENDTAB
  0
ENDSEC
  0
SECTION
  2
BLOCKS
  0
BLOCK
  5
20
330
1F
100
AcDbEntity
  8
0
100
AcDbBlockBegin
  2
*Model_Space
 70
     0
 10
0.0
 20
0.0
 30
0.0
  3
*Model_Space
  1

  0
ENDBLK
  5
21
330
1F
100
AcDbEntity
  8
0
100
AcDbBlockEnd
  0
BLOCK
  5
1C
330
1B
100
AcDbEntity
 67
     1
  8
0
100
AcDbBlockBegin
  2
*Paper_Space
 70
     0
 10
0.0
 20
0.0
 30
0.0
  3
*Paper_Space
  1

  0
ENDBLK
  5
1D
330
1B
100
AcDbEntity
 67
     1
  8
0
100
AcDbBlockEnd
  0
BLOCK
  5
24
330
23
100
AcDbEntity
  8
0
100
AcDbBlockBegin
  2
*Paper_Space0
 70
     0
 10
0.0
 20
0.0
 30
0.0
  3
*Paper_Space0
  1

  0
ENDBLK
  5
25
330
23
100
AcDbEntity
  8
0
100
AcDbBlockEnd
  0
BLOCK
  5
49
330
48
100
AcDbEntity
  8
0
100
AcDbBlockBegin
  2
Urheberrecht_DE-EN_horizontal
 70
     0
 10
159.755786860936
 20
274.819718263521
 30
0.0
  3
Urheberrecht_DE-EN_horizontal
  1

  0
MTEXT
  5
6F
330
48
100
AcDbEntity
  8
1
 62
     1
100
AcDbMText
 10
106.3020044715768
 20
268.0217102536167
 30
0.0
 40
2.0
 41
0.0
 71
     7
 72
     1
  1
F\U+00fcr diese Unterlage behalten wir das Ur-\Pheberrecht. Sie darf nur f\U+00fcr den von uns \Pbestimmten Zweck benutzt und ohne unsere \PZustimmung weder vervielf\U+00e4ltigt noch\PDritten zug\U+00e4nglich gemacht werden.
  7
CONVERTER_11
 73
     1
 44
0.90036014405762
  0
MTEXT
  5
70
330
48
100
AcDbEntity
  8
1
 62
     1
100
AcDbMText
 10
162.591391388883
 20
268.0217102536167
 30
0.0
 40
2.0
 41
0.0
 71
     7
 72
     1
  1
We own the copyright of this document. It \Pdetermined and may neither be copied or \Pmade accessible to outsiders without our\Ppermission.
  7
CONVERTER_11
 73
     1
 44
0.90036014405762
  0
ENDBLK
  5
4A
330
48
100
AcDbEntity
  8
0
100
AcDbBlockEnd
  0
BLOCK
  5
124
330
11B
100
AcDbEntity
  8
0
100
AcDbBlockBegin
  2
*D2
 70
     1
 10
0.0
 20
0.0
 30
0.0
  3
*D2
  1

  0
LINE
  5
11C
330
11B
100
AcDbEntity
  8
1
  6
Continuous
 62
     2
100
AcDbLine
 10
201.222850328103
 20
315.77313303
 30
0.0
 11
201.222850328103
 21
308.77313303
 31
0.0
  0
LINE
  5
11D
330
11B
100
AcDbEntity
  8
1
  6
Continuous
 62
     2
100
AcDbLine
 10
201.222850328103
 20
308.77313303
 30
0.0
 11
201.222850328103
 21
300.77313303
 31
0.0
  0
LINE
  5
11E
330
11B
100
AcDbEntity
  8
1
  6
Continuous
 62
     2
100
AcDbLine
 10
201.222850328103
 20
300.77313303
 30
0.0
 11
201.222850328103
 21
293.77313303
 31
0.0
  0
LINE
  5
11F
330
11B
100
AcDbEntity
  8
1
  6
Continuous
 62
     2
100
AcDbLine
 10
192.3281116167
 20
308.77313303
 30
0.0
 11
203.222850328103
 21
308.77313303
 31
0.0
  0
LINE
  5
120
330
11B
100
AcDbEntity
  8
1
  6
Continuous
 62
     2
100
AcDbLine
 10
192.3281116167
 20
300.77313303
 30
0.0
 11
203.222850328103
 21
300.77313303
 31
0.0
  0
SOLID
  5
121
330
11B
100
AcDbEntity
  8
1
 62
     2
100
AcDbTrace
 10
200.7620665865471
 20
312.27313303
 30
0.0
 11
201.6836340696589
 21
312.27313303
 31
0.0
 12
201.222850328103
 22
308.77313303
 32
0.0
 13
201.222850328103
 23
308.77313303
 33
0.0
  0
SOLID
  5
122
330
11B
100
AcDbEntity
  8
1
 62
     2
100
AcDbTrace
 10
201.6836340696589
 20
297.27313303
 30
0.0
 11
200.7620665865471
 21
297.27313303
 31
0.0
 12
201.222850328103
 22
300.77313303
 32
0.0
 13
201.222850328103
 23
300.77313303
 33
0.0
  0
MTEXT
  5
123
330
11B
100
AcDbEntity
  8
1
 62
     3
100
AcDbMText
 10
199.222850328103
 20
297.414098686547
 30
0.0
 40
3.5
 41
0.0
 71
     7
 72
     1
  1
\C3;%%c\C3;\C3;8\C2;\H2.45;\S^ ;\C3;
  7
CONVERTER_11
 11
0.0
 21
1.0
 31
0.0
 73
     1
 44
0.60024009603842
  0
ENDBLK
  5
125
330
11B
100
AcDbEntity
  8
0
100
AcDbBlockEnd
  0
BLOCK
  5
12F
330
128
100
AcDbEntity
  8
0
100
AcDbBlockBegin
  2
*D3
 70
     1
 10
0.0
 20
0.0
 30
0.0
  3
*D3
  1

  0
LINE
  5
129
330
128
100
AcDbEntity
  8
1
  6
Continuous
 62
     2
100
AcDbLine
 10
211.167247173866
 20
318.77313303
 30
0.0
 11
211.167247173866
 21
290.77313303
 31
0.0
  0
LINE
  5
12A
330
128
100
AcDbEntity
  8
1
  6
Continuous
 62
     2
100
AcDbLine
 10
183.528389272
 20
318.77313303
 30
0.0
 11
213.167247173866
 21
318.77313303
 31
0.0
  0
LINE
  5
12B
330
128
100
AcDbEntity
  8
1
  6
Continuous
 62
     2
100
AcDbLine
 10
183.528389272
 20
290.77313303
 30
0.0
 11
213.167247173866
 21
290.77313303
 31
0.0
  0
SOLID
  5
12C
330
128
100
AcDbEntity
  8
1
 62
     2
100
AcDbTrace
 10
211.6280309154219
 20
315.27313303
 30
0.0
 11
210.7064634323101
 21
315.27313303
 31
0.0
 12
211.167247173866
 22
318.77313303
 32
0.0
 13
211.167247173866
 23
318.77313303
 33
0.0
  0
SOLID
  5
12D
330
128
100
AcDbEntity
  8
1
 62
     2
100
AcDbTrace
 10
210.7064634323101
 20
294.27313303
 30
0.0
 11
211.6280309154219
 21
294.27313303
 31
0.0
 12
211.167247173866
 22
290.77313303
 32
0.0
 13
211.167247173866
 23
290.77313303
 33
0.0
  0
MTEXT
  5
12E
330
128
100
AcDbEntity
  8
1
 62
     3
100
AcDbMText
 10
209.167247173866
 20
296.234295435303
 30
0.0
 40
3.5
 41
0.0
 71
     7
 72
     1
  1
\C3;%%c\C3;\C3;28\C2;\H2.45;\S^ ;\C3;
  7
CONVERTER_11
 11
0.0
 21
1.0
 31
0.0
 73
     1
 44
0.60024009603842
  0
ENDBLK
  5
130
330
128
100
AcDbEntity
  8
0
100
AcDbBlockEnd
  0
BLOCK
  5
13A
330
133
100
AcDbEntity
  8
0
100
AcDbBlockBegin
  2
*D4
 70
     1
 10
0.0
 20
0.0
 30
0.0
  3
*D4
  1

  0
LINE
  5
134
330
133
100
AcDbEntity
  8
1
  6
Continuous
 62
     2
100
AcDbLine
 10
190.3281116167
 20
334.601698977568
 30
0.0
 11
150.2781116167
 21
334.601698977568
 31
0.0
  0
LINE
  5
135
330
133
100
AcDbEntity
  8
1
  6
Continuous
 62
     2
100
AcDbLine
 10
190.3281116167
 20
316.1360627692
 30
0.0
 11
190.3281116167
 21
336.601698977568
 31
0.0
  0
LINE
  5
136
330
133
100
AcDbEntity
  8
1
  6
Continuous
 62
     2
100
AcDbLine
 10
150.2781116167
 20
326.7730906912
 30
0.0
 11
150.2781116167
 21
336.601698977568
 31
0.0
  0
SOLID
  5
137
330
133
100
AcDbEntity
  8
1
 62
     2
100
AcDbTrace
 10
186.8281116167
 20
334.1409152360121
 30
0.0
 11
186.8281116167
 21
335.0624827191239
 31
0.0
 12
190.3281116167
 22
334.601698977568
 32
0.0
 13
190.3281116167
 23
334.601698977568
 33
0.0
  0
SOLID
  5
138
330
133
100
AcDbEntity
  8
1
 62
     2
100
AcDbTrace
 10
153.7781116167
 20
335.0624827191239
 30
0.0
 11
153.7781116167
 21
334.1409152360121
 31
0.0
 12
150.2781116167
 22
334.601698977568
 32
0.0
 13
150.2781116167
 23
334.601698977568
 33
0.0
  0
MTEXT
  5
139
330
133
100
AcDbEntity
  8
1
 62
     3
100
AcDbMText
 10
167.284741071909
 20
336.601698977568
 30
0.0
 40
3.5
 41
0.0
 71
     7
 72
     1
  1
\C3;\C3;\C3;40\C2;\H2.45;\S^ ;\C3;
  7
CONVERTER_11
 11
0.9999999999970619
 21
2.424068405545306E-6
 31
0.0
 73
     1
 44
0.60024009603842
  0
ENDBLK
  5
13B
330
133
100
AcDbEntity
  8
0
100
AcDbBlockEnd
  0
BLOCK
  5
145
330
13E
100
AcDbEntity
  8
0
100
AcDbBlockBegin
  2
*D5
 70
     1
 10
0.0
 20
0.0
 30
0.0
  3
*D5
  1

  0
LINE
  5
13F
330
13E
100
AcDbEntity
  8
1
  6
Continuous
 62
     2
100
AcDbLine
 10
190.3281116167
 20
342.942160848209
 30
0.0
 11
130.3281116167
 21
342.942160848209
 31
0.0
  0
LINE
  5
140
330
13E
100
AcDbEntity
  8
1
  6
Continuous
 62
     2
100
AcDbLine
 10
190.3281116167
 20
316.1360627692
 30
0.0
 11
190.3281116167
 21
344.942160848209
 31
0.0
  0
LINE
  5
141
330
13E
100
AcDbEntity
  8
1
  6
Continuous
 62
     2
100
AcDbLine
 10
130.3281116167
 20
326.77313303
 30
0.0
 11
130.3281116167
 21
344.942160848209
 31
0.0
  0
SOLID
  5
142
330
13E
100
AcDbEntity
  8
1
 62
     2
100
AcDbTrace
 10
186.8281116167
 20
342.4813771066532
 30
0.0
 11
186.8281116167
 21
343.4029445897649
 31
0.0
 12
190.3281116167
 22
342.942160848209
 32
0.0
 13
190.3281116167
 23
342.942160848209
 33
0.0
  0
SOLID
  5
143
330
13E
100
AcDbEntity
  8
1
 62
     2
100
AcDbTrace
 10
133.8281116167
 20
343.4029445897649
 30
0.0
 11
133.8281116167
 21
342.4813771066532
 31
0.0
 12
130.3281116167
 22
342.942160848209
 32
0.0
 13
130.3281116167
 23
342.942160848209
 33
0.0
  0
MTEXT
  5
144
330
13E
100
AcDbEntity
  8
1
 62
     3
100
AcDbMText
 10
158.543295457488
 20
344.942160848209
 30
0.0
 40
3.5
 41
0.0
 71
     7
 72
     1
  1
\C3;\C3;\C3;60\C2;\H2.45;\S^ ;\C3;
  7
CONVERTER_11
 11
0.9999999999970619
 21
2.424068405545306E-6
 31
0.0
 73
     1
 44
0.60024009603842
  0
ENDBLK
  5
146
330
13E
100
AcDbEntity
  8
0
100
AcDbBlockEnd
  0
BLOCK
  5
150
330
149
100
AcDbEntity
  8
0
100
AcDbBlockBegin
  2
*D6
 70
     1
 10
0.0
 20
0.0
 30
0.0
  3
*D6
  1

  0
LINE
  5
14A
330
149
100
AcDbEntity
  8
1
  6
Continuous
 62
     2
100
AcDbLine
 10
190.3281116167
 20
350.480655231287
 30
0.0
 11
110.4281116167
 21
350.480655231287
 31
0.0
  0
LINE
  5
14B
330
149
100
AcDbEntity
  8
1
  6
Continuous
 62
     2
100
AcDbLine
 10
190.3281116167
 20
316.1360627692
 30
0.0
 11
190.3281116167
 21
352.480655231287
 31
0.0
  0
LINE
  5
14C
330
149
100
AcDbEntity
  8
1
  6
Continuous
 62
     2
100
AcDbLine
 10
110.4281116167
 20
320.2191196545
 30
0.0
 11
110.4281116167
 21
352.480655231287
 31
0.0
  0
SOLID
  5
14D
330
149
100
AcDbEntity
  8
1
 62
     2
100
AcDbTrace
 10
186.8281116167
 20
350.0198714897311
 30
0.0
 11
186.8281116167
 21
350.9414389728429
 31
0.0
 12
190.3281116167
 22
350.480655231287
 32
0.0
 13
190.3281116167
 23
350.480655231287
 33
0.0
  0
SOLID
  5
14E
330
149
100
AcDbEntity
  8
1
 62
     2
100
AcDbTrace
 10
113.9281116167
 20
350.9414389728429
 30
0.0
 11
113.9281116167
 21
350.0198714897311
 31
0.0
 12
110.4281116167
 22
350.480655231287
 32
0.0
 13
110.4281116167
 23
350.480655231287
 33
0.0
  0
MTEXT
  5
14F
330
149
100
AcDbEntity
  8
1
 62
     3
100
AcDbMText
 10
151.165194571921
 20
352.480655231287
 30
0.0
 40
3.5
 41
0.0
 71
     7
 72
     1
  1
\C3;\C3;\C3;80\C2;\H2.45;\S^ ;\C3;
  7
CONVERTER_11
 11
0.9999999999970619
 21
2.424068405545306E-6
 31
0.0
 73
     1
 44
0.60024009603842
  0
ENDBLK
  5
151
330
149
100
AcDbEntity
  8
0
100
AcDbBlockEnd
  0
BLOCK
  5
158
330
154
100
AcDbEntity
  8
0
100
AcDbBlockBegin
  2
*D7
 70
     1
 10
0.0
 20
0.0
 30
0.0
  3
*D7
  1

  0
LINE
  5
155
330
154
100
AcDbEntity
  8
1
  6
Continuous
 62
     2
100
AcDbLine
 10
159.8780978049068
 20
325.8124176538737
 30
0.0
 11
150.7192947511772
 21
320.2071010224356
 31
0.0
  0
SOLID
  5
156
330
154
100
AcDbEntity
  8
1
 62
     2
100
AcDbTrace
 10
153.4640470650065
 20
322.4271587676781
 30
0.0
 11
153.9451151235677
 21
321.6411179615101
 31
0.0
 12
150.7192947511772
 22
320.2071010224356
 32
0.0
 13
150.7192947511772
 23
320.2071010224356
 33
0.0
  0
MTEXT
  5
157
330
154
100
AcDbEntity
  8
1
 62
     3
100
AcDbMText
 10
152.5052694191376
 20
323.6449763988463
 30
0.0
 40
3.5
 41
0.0
 71
     7
 72
     1
  1
\C3; R\C3;\C3;3\C2;\H2.45;\S^ ;\C3;
  7
CONVERTER_11
 11
0.8529389551742582
 21
0.5220106691881351
 31
0.0
 73
     1
 44
0.60024009603842
  0
ENDBLK
  5
159
330
154
100
AcDbEntity
  8
0
100
AcDbBlockEnd
  0
ENDSEC
  0
SECTION
  2
ENTITIES
  0
INSERT
  5
6D
330
1F
100
AcDbEntity
  8
0
100
AcDbBlockReference
  2
Urheberrecht_DE-EN_horizontal
 10
159.755786860936
 20
274.819718263521
 30
0.0
  0
LINE
  5
71
330
1F
100
AcDbEntity
  8
0
  6
Continuous
 62
     7
100
AcDbLine
 10
110.4281116167
 20
291.3271464048
 30
0.0
 11
110.4281116167
 21
299.79813303
 31
0.0
  0
LINE
  5
72
330
1F
100
AcDbEntity
  8
0
  6
Continuous
 62
     7
100
AcDbLine
 10
110.4281116167
 20
309.74813303
 30
0.0
 11
110.4281116167
 21
318.2191196545
 31
0.0
  0
LINE
  5
73
330
1F
100
AcDbEntity
  8
0
  6
Continuous
 62
     9
100
AcDbLine
 10
111.1880818228
 20
319.0181175373
 30
0.0
 11
111.1880818228
 21
310.8579652885
 31
0.0
  0
LINE
  5
74
330
1F
100
AcDbEntity
  8
0
  6
Continuous
 62
     9
100
AcDbLine
 10
111.1880818228
 20
298.6883007715
 30
0.0
 11
111.1880818228
 21
290.5281485227
 31
0.0
  0
LINE
  5
75
330
1F
100
AcDbEntity
  8
0
  6
Continuous
 62
     7
100
AcDbLine
 10
111.3781116167
 20
299.937385188
 30
0.0
 11
111.3781116167
 21
300.74813303
 31
0.0
  0
LINE
  5
76
330
1F
100
AcDbEntity
  8
0
  6
Continuous
 62
     7
100
AcDbLine
 10
111.3781116167
 20
308.79813303
 30
0.0
 11
111.3781116167
 21
309.608880872
 31
0.0
  0
LINE
  5
77
330
1F
100
AcDbEntity
  8
RUNDUNGEN
  6
Continuous
 62
     9
100
AcDbLine
 10
113.1281116167
 20
298.464113522
 30
0.0
 11
113.1281116167
 21
300.74813303
 31
0.0
  0
LINE
  5
78
330
1F
100
AcDbEntity
  8
RUNDUNGEN
  6
Continuous
 62
     9
100
AcDbLine
 10
113.1281116167
 20
308.79813303
 30
0.0
 11
113.1281116167
 21
311.082152538
 31
0.0
  0
LINE
  5
79
330
1F
100
AcDbEntity
  8
RUNDUNGEN
  6
Continuous
 62
     7
100
AcDbLine
 10
114.0281116167
 20
309.5884252391
 30
0.0
 11
114.0281116167
 21
299.9578408209
 31
0.0
  0
LINE
  5
7A
330
1F
100
AcDbEntity
  8
0
  6
Continuous
 62
     7
100
AcDbLine
 10
111.0444297672
 20
298.86813303
 30
0.0
 11
110.9895462456
 21
298.7716347252
 31
0.0
  0
LINE
  5
7B
330
1F
100
AcDbEntity
  8
0
  6
Continuous
 62
     7
100
AcDbLine
 10
110.9895462456
 20
310.7746313348
 30
0.0
 11
111.0444297672
 21
310.67813303
 31
0.0
  0
LWPOLYLINE
  5
7C
330
1F
100
AcDbEntity
  8
BEZUGSACHSEN
  6
DOT_CENTER
 62
     7
100
AcDbPolyline
 90
        2
 70
     0
 43
0.25
 10
124.3281116167
 20
299.47313303
 10
124.3281116167
 20
310.07313303
  0
LINE
  5
7D
330
1F
100
AcDbEntity
  8
0
  6
Continuous
 62
     7
100
AcDbLine
 10
110.4281116167
 20
299.79813303
 30
0.0
 11
111.3781116167
 21
300.74813303
 31
0.0
  0
LINE
  5
7E
330
1F
100
AcDbEntity
  8
0
  6
Continuous
 62
     7
100
AcDbLine
 10
111.3781116167
 20
308.79813303
 30
0.0
 11
110.4281116167
 21
309.74813303
 31
0.0
  0
LINE
  5
7F
330
1F
100
AcDbEntity
  8
0
  6
Continuous
 62
     7
100
AcDbLine
 10
128.3281116167
 20
319.87683303
 30
0.0
 11
128.3281116167
 21
289.66943303
 31
0.0
  0
LINE
  5
80
330
1F
100
AcDbEntity
  8
0
  6
Continuous
 62
     9
100
AcDbLine
 10
129.0236551592
 20
289.8558033605
 30
0.0
 11
129.0236551592
 21
319.6904626995
 31
0.0
  0
LINE
  5
81
330
1F
100
AcDbEntity
  8
0
  6
Continuous
 62
     9
100
AcDbLine
 10
129.1271827773
 20
289.86943303
 30
0.0
 11
129.1271827773
 21
319.67683303
 31
0.0
  0
LINE
  5
82
330
1F
100
AcDbEntity
  8
0
  6
Continuous
 62
     9
100
AcDbLine
 10
130.1739344534
 20
289.86943303
 30
0.0
 11
130.1739344534
 21
319.67683303
 31
0.0
  0
LINE
  5
83
330
1F
100
AcDbEntity
  8
0
  6
Continuous
 62
     7
100
AcDbLine
 10
130.3281116167
 20
324.77313303
 30
0.0
 11
130.3281116167
 21
284.77313303
 31
0.0
  0
LINE
  5
84
330
1F
100
AcDbEntity
  8
0
  6
Continuous
 62
     7
100
AcDbLine
 10
144.2929519178
 20
284.77313303
 30
0.0
 11
130.3281116167
 21
284.77313303
 31
0.0
  0
LINE
  5
85
330
1F
100
AcDbEntity
  8
0
  6
Continuous
 62
     7
100
AcDbLine
 10
148.3632713156
 20
284.77313303
 30
0.0
 11
150.2781116167
 21
284.77313303
 31
0.0
  0
LINE
  5
86
330
1F
100
AcDbEntity
  8
0
  6
Continuous
 62
     9
100
AcDbLine
 10
110.4281116167
 20
299.3970715975
 30
0.0
 11
111.3781116167
 21
299.937385188
 31
0.0
  0
LINE
  5
87
330
1F
100
AcDbEntity
  8
0
  6
Continuous
 62
     7
100
AcDbLine
 10
145.5406116167
 20
287.39813303
 30
0.0
 11
147.1156116167
 21
287.39813303
 31
0.0
  0
LINE
  5
88
330
1F
100
AcDbEntity
  8
0
  6
Continuous
 62
     7
100
AcDbLine
 10
138.6714278999
 20
288.6617240289
 30
0.0
 11
144.2929519178
 21
288.6617240289
 31
0.0
  0
LINE
  5
89
330
1F
100
AcDbEntity
  8
0
  6
Continuous
 62
     7
100
AcDbLine
 10
148.3632713156
 20
288.6617240289
 30
0.0
 11
150.2781116167
 21
288.6617240289
 31
0.0
  0
LINE
  5
8A
330
1F
100
AcDbEntity
  8
0
  6
Continuous
 62
     7
100
AcDbLine
 10
128.3281116167
 20
289.66943303
 30
0.0
 11
111.1880818228
 21
290.5281485227
 31
0.0
  0
LINE
  5
8B
330
1F
100
AcDbEntity
  8
0
  6
Continuous
 62
     9
100
AcDbLine
 10
111.3781116167
 20
309.608880872
 30
0.0
 11
110.4281116167
 21
310.1491944625
 31
0.0
  0
LWPOLYLINE
  5
8C
330
1F
100
AcDbEntity
  8
BEZUGSACHSEN
  6
DOT_CENTER
 62
     7
100
AcDbPolyline
 90
        2
 70
     0
 43
0.25
 10
137.3281116167
 20
330.538049761
 10
137.3281116167
 20
316.538049761
  0
LINE
  5
8D
330
1F
100
AcDbEntity
  8
0
  6
Continuous
 62
     7
100
AcDbLine
 10
147.3656116167
 20
323.0451357428
 30
0.0
 11
148.3632713156
 21
324.77313303
 31
0.0
  0
LINE
  5
8E
330
1F
100
AcDbEntity
  8
0
  6
Continuous
 62
     7
100
AcDbLine
 10
129.0236551592
 20
289.8558033605
 30
0.0
 11
129.1271827773
 21
289.86943303
 31
0.0
  0
LINE
  5
8F
330
1F
100
AcDbEntity
  8
0
  6
Continuous
 62
     7
100
AcDbLine
 10
130.1739344534
 20
289.86943303
 30
0.0
 11
129.1271827773
 21
289.86943303
 31
0.0
  0
LINE
  5
90
330
1F
100
AcDbEntity
  8
0
  6
Continuous
 62
     7
100
AcDbLine
 10
153.2781116167
 20
290.77313303
 30
0.0
 11
168.9281116167
 21
290.77313303
 31
0.0
  0
LINE
  5
91
330
1F
100
AcDbEntity
  8
0
  6
Continuous
 62
     7
100
AcDbLine
 10
175.7281116167
 20
290.77313303
 30
0.0
 11
181.528389272
 21
290.77313303
 31
0.0
  0
LINE
  5
92
330
1F
100
AcDbEntity
  8
0
  6
Continuous
 62
     7
100
AcDbLine
 10
145.5406116167
 20
292.0661221698
 30
0.0
 11
147.1156116167
 21
292.0661221698
 31
0.0
  0
LINE
  5
93
330
1F
100
AcDbEntity
  8
FASEN
  6
Continuous
 62
     7
100
AcDbLine
 10
142.7644798584
 20
292.52313303
 30
0.0
 11
150.2781116167
 21
292.52313303
 31
0.0
  0
LINE
  5
94
330
1F
100
AcDbEntity
  8
0
  6
Continuous
 62
     7
100
AcDbLine
 10
142.7644798584
 20
292.92313303
 30
0.0
 11
150.2781116167
 21
292.92313303
 31
0.0
  0
LINE
  5
95
330
1F
100
AcDbEntity
  8
0
  6
Continuous
 62
     7
100
AcDbLine
 10
147.3656116167
 20
286.5011303171
 30
0.0
 11
148.3632713156
 21
284.77313303
 31
0.0
  0
LINE
  5
96
330
1F
100
AcDbEntity
  8
FASEN
  6
Continuous
 62
     9
100
AcDbLine
 10
142.7644798584
 20
292.52313303
 30
0.0
 11
142.7644798584
 21
292.92313303
 31
0.0
  0
LINE
  5
97
330
1F
100
AcDbEntity
  8
FASEN
  6
Continuous
 62
     9
100
AcDbLine
 10
142.7926116167
 20
300.65863303
 30
0.0
 11
142.7926116167
 21
300.25863303
 31
0.0
  0
LINE
  5
98
330
1F
100
AcDbEntity
  8
FASEN
  6
Continuous
 62
     9
100
AcDbLine
 10
142.7926116167
 20
308.88763303
 30
0.0
 11
142.7926116167
 21
309.28763303
 31
0.0
  0
LINE
  5
99
330
1F
100
AcDbEntity
  8
0
  6
Continuous
 62
     7
100
AcDbLine
 10
144.2929519178
 20
324.77313303
 30
0.0
 11
144.2929519178
 21
309.28763303
 31
0.0
  0
LINE
  5
9A
330
1F
100
AcDbEntity
  8
0
  6
Continuous
 62
     7
100
AcDbLine
 10
144.2929519178
 20
300.25863303
 30
0.0
 11
144.2929519178
 21
292.92313303
 31
0.0
  0
LINE
  5
9B
330
1F
100
AcDbEntity
  8
0
  6
Continuous
 62
     7
100
AcDbLine
 10
144.2929519178
 20
288.6617240289
 30
0.0
 11
144.2929519178
 21
284.77313303
 31
0.0
  0
LINE
  5
9C
330
1F
100
AcDbEntity
  8
0
  6
Continuous
 62
     7
100
AcDbLine
 10
129.0236551592
 20
289.8558033605
 30
0.0
 11
128.3281116167
 21
289.66943303
 31
0.0
  0
LINE
  5
9D
330
1F
100
AcDbEntity
  8
0
  6
Continuous
 62
     7
100
AcDbLine
 10
145.2906116167
 20
323.045074324
 30
0.0
 11
145.2906116167
 21
309.0786567196
 31
0.0
  0
LINE
  5
9E
330
1F
100
AcDbEntity
  8
0
  6
Continuous
 62
     7
100
AcDbLine
 10
145.2906116167
 20
286.5011911918
 30
0.0
 11
145.2906116167
 21
291.7263661891
 31
0.0
  0
LINE
  5
9F
330
1F
100
AcDbEntity
  8
0
  6
Continuous
 62
     7
100
AcDbLine
 10
145.2906116167
 20
292.92313303
 30
0.0
 11
145.2906116167
 21
300.4676093404
 31
0.0
  0
LINE
  5
A0
330
1F
100
AcDbEntity
  8
0
  6
Continuous
 62
     9
100
AcDbLine
 10
145.5406116167
 20
300.7382073801
 30
0.0
 11
145.5406116167
 21
292.92313303
 31
0.0
  0
LINE
  5
A1
330
1F
100
AcDbEntity
  8
0
  6
Continuous
 62
     9
100
AcDbLine
 10
145.5406116167
 20
287.39813303
 30
0.0
 11
145.5406116167
 21
292.0661221698
 31
0.0
  0
LINE
  5
A2
330
1F
100
AcDbEntity
  8
0
  6
Continuous
 62
     9
100
AcDbLine
 10
145.5406116167
 20
308.8080586799
 30
0.0
 11
145.5406116167
 21
322.14813303
 31
0.0
  0
LINE
  5
A3
330
1F
100
AcDbEntity
  8
0
  6
Continuous
 62
     9
100
AcDbLine
 10
147.1156116167
 20
300.7382073801
 30
0.0
 11
147.1156116167
 21
292.92313303
 31
0.0
  0
LINE
  5
A4
330
1F
100
AcDbEntity
  8
0
  6
Continuous
 62
     9
100
AcDbLine
 10
147.1156116167
 20
287.39813303
 30
0.0
 11
147.1156116167
 21
292.0661221698
 31
0.0
  0
LINE
  5
A5
330
1F
100
AcDbEntity
  8
0
  6
Continuous
 62
     9
100
AcDbLine
 10
147.1156116167
 20
308.8080586799
 30
0.0
 11
147.1156116167
 21
322.14813303
 31
0.0
  0
LINE
  5
A6
330
1F
100
AcDbEntity
  8
0
  6
Continuous
 62
     7
100
AcDbLine
 10
147.3656116167
 20
286.5011911918
 30
0.0
 11
147.3656116167
 21
291.7263661891
 31
0.0
  0
LINE
  5
A7
330
1F
100
AcDbEntity
  8
0
  6
Continuous
 62
     7
100
AcDbLine
 10
147.3656116167
 20
292.92313303
 30
0.0
 11
147.3656116167
 21
300.4676093404
 31
0.0
  0
LINE
  5
A8
330
1F
100
AcDbEntity
  8
0
  6
Continuous
 62
     7
100
AcDbLine
 10
147.3656116167
 20
309.0786567196
 30
0.0
 11
147.3656116167
 21
323.045074324
 31
0.0
  0
LINE
  5
A9
330
1F
100
AcDbEntity
  8
RUNDUNGEN
  6
Continuous
 62
     9
100
AcDbLine
 10
113.7208323131
 20
298.86813303
 30
0.0
 11
113.1281116167
 21
298.86813303
 31
0.0
  0
LINE
  5
AA
330
1F
100
AcDbEntity
  8
0
  6
Continuous
 62
     9
100
AcDbLine
 10
113.1281116167
 20
298.86813303
 30
0.0
 11
111.0444297672
 21
298.86813303
 31
0.0
  0
LINE
  5
AB
330
1F
100
AcDbEntity
  8
0
  6
Continuous
 62
     7
100
AcDbLine
 10
142.7926116167
 20
300.25863303
 30
0.0
 11
145.2906116167
 21
300.25863303
 31
0.0
  0
LINE
  5
AC
330
1F
100
AcDbEntity
  8
0
  6
Continuous
 62
     7
100
AcDbLine
 10
147.3656116167
 20
300.25863303
 30
0.0
 11
150.2781116167
 21
300.25863303
 31
0.0
  0
LINE
  5
AD
330
1F
100
AcDbEntity
  8
0
  6
Continuous
 62
     7
100
AcDbLine
 10
150.2781116167
 20
300.65863303
 30
0.0
 11
147.2103630894
 21
300.65863303
 31
0.0
  0
LINE
  5
AE
330
1F
100
AcDbEntity
  8
0
  6
Continuous
 62
     7
100
AcDbLine
 10
145.445860144
 20
300.65863303
 30
0.0
 11
142.7926116167
 21
300.65863303
 31
0.0
  0
LINE
  5
AF
330
1F
100
AcDbEntity
  8
0
  6
Continuous
 62
     7
100
AcDbLine
 10
145.5406116167
 20
300.7382073801
 30
0.0
 11
147.1156116167
 21
300.7382073801
 31
0.0
  0
LINE
  5
B0
330
1F
100
AcDbEntity
  8
0
  6
Continuous
 62
     7
100
AcDbLine
 10
113.1281116167
 20
300.74813303
 30
0.0
 11
111.3781116167
 21
300.74813303
 31
0.0
  0
LWPOLYLINE
  5
B1
330
1F
100
AcDbEntity
  8
DEFAULT_2
  6
DASHED
 62
     8
100
AcDbPolyline
 90
        2
 70
     0
 43
0.35
 10
151.3281116167
 20
300.77313303
 10
168.9281116167
 20
300.77313303
  0
LWPOLYLINE
  5
B2
330
1F
100
AcDbEntity
  8
DEFAULT_2
  6
DASHED
 62
     8
100
AcDbPolyline
 90
        2
 70
     0
 43
0.35
 10
168.9281116167
 20
300.77313303
 10
190.3281116167
 20
300.77313303
  0
LINE
  5
B3
330
1F
100
AcDbEntity
  8
0
  6
Continuous
 62
     7
100
AcDbLine
 10
148.3632713156
 20
300.25863303
 30
0.0
 11
148.3632713156
 21
292.92313303
 31
0.0
  0
LINE
  5
B4
330
1F
100
AcDbEntity
  8
0
  6
Continuous
 62
     7
100
AcDbLine
 10
148.3632713156
 20
284.77313303
 30
0.0
 11
148.3632713156
 21
288.6617240289
 31
0.0
  0
LINE
  5
B5
330
1F
100
AcDbEntity
  8
0
  6
Continuous
 62
     7
100
AcDbLine
 10
148.3632713156
 20
309.28763303
 30
0.0
 11
148.3632713156
 21
324.77313303
 31
0.0
  0
LINE
  5
B6
330
1F
100
AcDbEntity
  8
0
  6
Continuous
 62
     7
100
AcDbLine
 10
150.2781116167
 20
324.7730906912
 30
0.0
 11
150.2781116167
 21
309.28763303
 31
0.0
  0
LINE
  5
B7
330
1F
100
AcDbEntity
  8
FASEN
  6
Continuous
 62
     7
100
AcDbLine
 10
150.2781116167
 20
309.28763303
 30
0.0
 11
150.2781116167
 21
308.88763303
 31
0.0
  0
LINE
  5
B8
330
1F
100
AcDbEntity
  8
FASEN
  6
Continuous
 62
     7
100
AcDbLine
 10
150.2781116167
 20
300.65863303
 30
0.0
 11
150.2781116167
 21
300.25863303
 31
0.0
  0
LINE
  5
B9
330
1F
100
AcDbEntity
  8
0
  6
Continuous
 62
     7
100
AcDbLine
 10
150.2781116167
 20
300.25863303
 30
0.0
 11
150.2781116167
 21
292.92313303
 31
0.0
  0
LINE
  5
BA
330
1F
100
AcDbEntity
  8
0
  6
Continuous
 62
     7
100
AcDbLine
 10
150.2781116167
 20
288.6617240289
 30
0.0
 11
150.2781116167
 21
284.7731943793
 31
0.0
  0
LINE
  5
BB
330
1F
100
AcDbEntity
  8
FASEN
  6
Continuous
 62
     7
100
AcDbLine
 10
150.2781116167
 20
288.6617240289
 30
0.0
 11
150.2781116167
 21
292.92313303
 31
0.0
  0
LINE
  5
BC
330
1F
100
AcDbEntity
  8
RUNDUNGEN
  6
Continuous
 62
     7
100
AcDbLine
 10
150.2781116167
 20
300.65863303
 30
0.0
 11
150.2781116167
 21
302.9319000844
 31
0.0
  0
LINE
  5
BD
330
1F
100
AcDbEntity
  8
RUNDUNGEN
  6
Continuous
 62
     7
100
AcDbLine
 10
150.2781116167
 20
306.6143498285
 30
0.0
 11
150.2781116167
 21
308.88763303
 31
0.0
  0
LWPOLYLINE
  5
BE
330
1F
100
AcDbEntity
  8
DEFAULT_2
  6
DASHED
 62
     8
100
AcDbPolyline
 90
        2
 70
     0
 43
0.35
 10
151.3281116167
 20
308.77313303
 10
151.3281116167
 20
300.77313303
  0
LINE
  5
BF
330
1F
100
AcDbEntity
  8
RUNDUNGEN
  6
Continuous
 62
     9
100
AcDbLine
 10
153.2781116167
 20
318.77313303
 30
0.0
 11
153.2781116167
 21
290.77313303
 31
0.0
  0
LWPOLYLINE
  5
C0
330
1F
100
AcDbEntity
  8
TEIL_STARTBEZUEGE
  6
DOT_CENTER
 62
     7
100
AcDbPolyline
 90
        2
 70
     0
 43
0.25
 10
193.3281116167
 20
304.77313303
 10
107.4281116167
 20
304.77313303
  0
LINE
  5
C1
330
1F
100
AcDbEntity
  8
0
  6
Continuous
 62
     7
100
AcDbLine
 10
144.2929519178
 20
284.77313303
 30
0.0
 11
145.2906116167
 21
286.5011303171
 31
0.0
  0
LWPOLYLINE
  5
C2
330
1F
100
AcDbEntity
  8
DEFAULT_2
  6
DASHED
 62
     8
100
AcDbPolyline
 90
        2
 70
     0
 43
0.35
 10
190.3281116167
 20
308.77313303
 10
151.3281116167
 20
308.77313303
  0
LINE
  5
C3
330
1F
100
AcDbEntity
  8
0
  6
Continuous
 62
     7
100
AcDbLine
 10
113.1281116167
 20
308.79813303
 30
0.0
 11
111.3781116167
 21
308.79813303
 31
0.0
  0
LINE
  5
C4
330
1F
100
AcDbEntity
  8
0
  6
Continuous
 62
     7
100
AcDbLine
 10
147.1156116167
 20
308.8080586799
 30
0.0
 11
145.5406116167
 21
308.8080586799
 31
0.0
  0
LINE
  5
C5
330
1F
100
AcDbEntity
  8
0
  6
Continuous
 62
     7
100
AcDbLine
 10
142.7926116167
 20
308.88763303
 30
0.0
 11
145.445860144
 21
308.88763303
 31
0.0
  0
LINE
  5
C6
330
1F
100
AcDbEntity
  8
0
  6
Continuous
 62
     7
100
AcDbLine
 10
147.2103630894
 20
308.88763303
 30
0.0
 11
150.2781116167
 21
308.88763303
 31
0.0
  0
LINE
  5
C7
330
1F
100
AcDbEntity
  8
0
  6
Continuous
 62
     7
100
AcDbLine
 10
142.7926116167
 20
309.28763303
 30
0.0
 11
145.2906116167
 21
309.28763303
 31
0.0
  0
LINE
  5
C8
330
1F
100
AcDbEntity
  8
0
  6
Continuous
 62
     7
100
AcDbLine
 10
147.3656116167
 20
309.28763303
 30
0.0
 11
150.2781116167
 21
309.28763303
 31
0.0
  0
LINE
  5
C9
330
1F
100
AcDbEntity
  8
0
  6
Continuous
 62
     9
100
AcDbLine
 10
113.1281116167
 20
310.67813303
 30
0.0
 11
111.0444297672
 21
310.67813303
 31
0.0
  0
LINE
  5
CA
330
1F
100
AcDbEntity
  8
RUNDUNGEN
  6
Continuous
 62
     9
100
AcDbLine
 10
113.1281116167
 20
310.67813303
 30
0.0
 11
113.7208323131
 21
310.67813303
 31
0.0
  0
LINE
  5
CB
330
1F
100
AcDbEntity
  8
0
  6
Continuous
 62
     7
100
AcDbLine
 10
144.2929519178
 20
324.77313303
 30
0.0
 11
145.2906116167
 21
323.0451357428
 31
0.0
  0
LINE
  5
CC
330
1F
100
AcDbEntity
  8
0
  6
Continuous
 62
     7
100
AcDbLine
 10
129.0236551592
 20
319.6904626995
 30
0.0
 11
128.3281116167
 21
319.87683303
 31
0.0
  0
LINE
  5
CD
330
1F
100
AcDbEntity
  8
RUNDUNGEN
  6
Continuous
 62
     7
100
AcDbLine
 10
181.528389272
 20
318.77313303
 30
0.0
 11
153.2781116167
 21
318.77313303
 31
0.0
  0
LINE
  5
CE
330
1F
100
AcDbEntity
  8
0
  6
Continuous
 62
     7
100
AcDbLine
 10
153.2781116167
 20
318.77313303
 30
0.0
 11
181.528389272
 21
318.77313303
 31
0.0
  0
LINE
  5
CF
330
1F
100
AcDbEntity
  8
0
  6
Continuous
 62
     7
100
AcDbLine
 10
130.1739344534
 20
319.67683303
 30
0.0
 11
129.1271827773
 21
319.67683303
 31
0.0
  0
LINE
  5
D0
330
1F
100
AcDbEntity
  8
0
  6
Continuous
 62
     7
100
AcDbLine
 10
129.0236551592
 20
319.6904626995
 30
0.0
 11
129.1271827773
 21
319.67683303
 31
0.0
  0
LINE
  5
D1
330
1F
100
AcDbEntity
  8
0
  6
Continuous
 62
     7
100
AcDbLine
 10
128.3281116167
 20
319.87683303
 30
0.0
 11
111.1880818228
 21
319.0181175373
 31
0.0
  0
LINE
  5
D2
330
1F
100
AcDbEntity
  8
0
  6
Continuous
 62
     7
100
AcDbLine
 10
145.5406116167
 20
322.14813303
 30
0.0
 11
147.1156116167
 21
322.14813303
 31
0.0
  0
LWPOLYLINE
  5
D3
330
1F
100
AcDbEntity
  8
BEZUGSACHSEN
  6
DASHED
 62
     8
100
AcDbPolyline
 90
        2
 70
     0
 43
0.35
 10
168.9281116167
 20
300.77313303
 10
168.9281116167
 20
290.77313303
  0
LINE
  5
D4
330
1F
100
AcDbEntity
  8
BEZUGSACHSEN
  6
Continuous
 62
     7
100
AcDbLine
 10
144.2929519178
 20
324.77313303
 30
0.0
 11
142.3281116167
 21
324.77313303
 31
0.0
  0
LINE
  5
D5
330
1F
100
AcDbEntity
  8
BEZUGSACHSEN
  6
Continuous
 62
     7
100
AcDbLine
 10
132.3281116167
 20
324.77313303
 30
0.0
 11
130.3281116167
 21
324.77313303
 31
0.0
  0
LINE
  5
D6
330
1F
100
AcDbEntity
  8
0
  6
Continuous
 62
     7
100
AcDbLine
 10
130.3281116167
 20
324.77313303
 30
0.0
 11
132.3281116167
 21
324.77313303
 31
0.0
  0
LINE
  5
D7
330
1F
100
AcDbEntity
  8
0
  6
Continuous
 62
     7
100
AcDbLine
 10
142.3281116167
 20
324.77313303
 30
0.0
 11
144.2929519178
 21
324.77313303
 31
0.0
  0
LINE
  5
D8
330
1F
100
AcDbEntity
  8
0
  6
Continuous
 62
     7
100
AcDbLine
 10
148.3632713156
 20
324.77313303
 30
0.0
 11
150.2781116167
 21
324.77313303
 31
0.0
  0
LWPOLYLINE
  5
D9
330
1F
100
AcDbEntity
  8
BEZUGSACHSEN
  6
DOT_CENTER
 62
     7
100
AcDbPolyline
 90
        2
 70
     0
 43
0.25
 10
172.3281116167
 20
287.77313303
 10
172.3281116167
 20
305.6660699633
  0
LWPOLYLINE
  5
DA
330
1F
100
AcDbEntity
  8
BEZUGSACHSEN
  6
DASHED
 62
     8
100
AcDbPolyline
 90
        2
 70
     0
 43
0.35
 10
175.7281116167
 20
300.77313303
 10
175.7281116167
 20
290.77313303
  0
LINE
  5
DB
330
1F
100
AcDbEntity
  8
0
  6
Continuous
 62
     7
100
AcDbLine
 10
181.9510075338
 20
290.8668252429
 30
0.0
 11
189.7507298784
 21
294.5038955037
 31
0.0
  0
LINE
  5
DC
330
1F
100
AcDbEntity
  8
RUNDUNGEN
  6
Continuous
 62
     7
100
AcDbLine
 10
189.7507298784
 20
315.0423705562
 30
0.0
 11
181.9510075338
 21
318.679440817
 31
0.0
  0
LINE
  5
DD
330
1F
100
AcDbEntity
  8
0
  6
Continuous
 62
     7
100
AcDbLine
 10
181.9510075338
 20
318.679440817
 30
0.0
 11
189.7507298784
 21
315.0423705562
 31
0.0
  0
LINE
  5
DE
330
1F
100
AcDbEntity
  8
RUNDUNGEN
  6
Continuous
 62
     9
100
AcDbLine
 10
181.528389272
 20
290.77313303
 30
0.0
 11
181.528389272
 21
318.77313303
 31
0.0
  0
LINE
  5
DF
330
1F
100
AcDbEntity
  8
RUNDUNGEN
  6
Continuous
 62
     9
100
AcDbLine
 10
181.9510075338
 20
290.8668252429
 30
0.0
 11
181.9510075338
 21
318.679440817
 31
0.0
  0
LINE
  5
E0
330
1F
100
AcDbEntity
  8
RUNDUNGEN
  6
Continuous
 62
     9
100
AcDbLine
 10
189.7507298784
 20
294.5038955037
 30
0.0
 11
189.7507298784
 21
315.0423705562
 31
0.0
  0
LINE
  5
E1
330
1F
100
AcDbEntity
  8
RUNDUNGEN
  6
Continuous
 62
     7
100
AcDbLine
 10
190.3281116167
 20
295.4102032908
 30
0.0
 11
190.3281116167
 21
314.1360627692
 31
0.0
  0
LWPOLYLINE
  5
E2
330
1F
100
AcDbEntity
  8
BEZUGSACHSEN
  6
DASHED
 62
     8
100
AcDbPolyline
 90
        2
 70
     0
 43
0.35
 10
176.3281116167
 20
300.77313303
 10
176.3281116167
 20
290.77313303
  0
LWPOLYLINE
  5
E3
330
1F
100
AcDbEntity
  8
BEZUGSACHSEN
  6
DASHED
 62
     8
100
AcDbPolyline
 90
        2
 70
     0
 43
0.35
 10
168.3281116167
 20
300.77313303
 10
168.3281116167
 20
290.77313303
  0
ARC
  5
E4
330
1F
100
AcDbEntity
  8
FASEN
  6
Continuous
 62
     7
100
AcDbCircle
 10
144.6630735568
 20
296.4720688855
 30
0.0
 40
9.84384601959954
100
AcDbArc
 50
229.7068180622015
 51
232.5066621076128
  0
ARC
  5
E5
330
1F
100
AcDbEntity
  8
FASEN
  6
Continuous
 62
     7
100
AcDbCircle
 10
142.7644798584
 20
288.42313303
 30
0.0
 40
4.5
100
AcDbArc
 50
90.0
 51
173.1003589696013
  0
ARC
  5
E6
330
1F
100
AcDbEntity
  8
FASEN
  6
Continuous
 62
     7
100
AcDbCircle
 10
142.7644798584
 20
288.42313303
 30
0.0
 40
4.099981300800039
100
AcDbArc
 50
90.0
 51
176.6639061997959
  0
ARC
  5
E7
330
1F
100
AcDbEntity
  8
RUNDUNGEN
  6
Continuous
 62
     7
100
AcDbCircle
 10
113.1281116167
 20
301.64813303
 30
0.0
 40
0.8999999999999773
100
AcDbArc
 50
270.0
 51
352.9880362154747
  0
ARC
  5
E8
330
1F
100
AcDbEntity
  8
0
  6
Continuous
 62
     7
100
AcDbCircle
 10
111.2281116167
 20
291.3271464048
 30
0.0
 40
0.8000000000000114
100
AcDbArc
 50
180.0
 51
267.1318795121992
  0
ARC
  5
E9
330
1F
100
AcDbEntity
  8
0
  6
Continuous
 62
     7
100
AcDbCircle
 10
130.1739344534
 20
289.46943303
 30
0.0
 40
0.3999999999998977
100
AcDbArc
 50
67.30156454046462
 51
90.0
  0
ARC
  5
EA
330
1F
100
AcDbEntity
  8
0
  6
Continuous
 62
     7
100
AcDbCircle
 10
145.5406116167
 20
287.14813303
 30
0.0
 40
0.25
100
AcDbArc
 50
90.0
 51
180.0
  0
ARC
  5
EB
330
1F
100
AcDbEntity
  8
0
  6
Continuous
 62
     7
100
AcDbCircle
 10
41.2344527166
 20
336.6604320588
 30
0.0
 40
113.6878631611278
100
AcDbArc
 50
335.0266103236013
 51
336.245436403
  0
ARC
  5
EC
330
1F
100
AcDbEntity
  8
0
  6
Continuous
 62
     7
100
AcDbCircle
 10
142.7926116167
 20
304.77313303
 30
0.0
 40
4.514499999999998
100
AcDbArc
 50
90.0
 51
270.0
  0
ARC
  5
ED
330
1F
100
AcDbEntity
  8
FASEN
  6
Continuous
 62
     7
100
AcDbCircle
 10
142.7926116167
 20
304.77313303
 30
0.0
 40
4.114498623500026
100
AcDbArc
 50
90.0
 51
270.0
  0
ARC
  5
EE
330
1F
100
AcDbEntity
  8
RUNDUNGEN
  6
Continuous
 62
     7
100
AcDbCircle
 10
113.1281116167
 20
307.89813303
 30
0.0
 40
0.8999999999998918
100
AcDbArc
 50
7.01196301020821
 51
90.0
  0
ARC
  5
EF
330
1F
100
AcDbEntity
  8
0
  6
Continuous
 62
     7
100
AcDbCircle
 10
111.2281116167
 20
318.2191196552
 30
0.0
 40
0.7999999999999445
100
AcDbArc
 50
92.86812048780084
 51
180.0000000501357
  0
ARC
  5
F0
330
1F
100
AcDbEntity
  8
0
  6
Continuous
 62
     7
100
AcDbCircle
 10
129.1271827773
 20
320.07683303
 30
0.0
 40
0.4000000000001467
100
AcDbArc
 50
254.9999999912572
 51
270.0
  0
ARC
  5
F1
330
1F
100
AcDbEntity
  8
0
  6
Continuous
 62
     7
100
AcDbCircle
 10
130.1739344534
 20
320.07683303
 30
0.0
 40
0.3999999999999773
100
AcDbArc
 50
270.0
 51
292.6984354595353
  0
ARC
  5
F2
330
1F
100
AcDbEntity
  8
0
  6
Continuous
 62
     7
100
AcDbCircle
 10
145.5406116167
 20
322.39813303
 30
0.0
 40
0.25
100
AcDbArc
 50
180.0
 51
270.0
  0
ARC
  5
F3
330
1F
100
AcDbEntity
  8
RUNDUNGEN
  6
Continuous
 62
     7
100
AcDbCircle
 10
179.0571293039
 20
-267.9483081029
 30
0.0
 40
582.7717475334678
100
AcDbArc
 50
96.49578297487524
 51
96.68778831039339
  0
ARC
  5
F4
330
1F
100
AcDbEntity
  8
RUNDUNGEN
  6
Continuous
 62
     7
100
AcDbCircle
 10
153.2781116167
 20
287.77313303
 30
0.0
 40
3.0
100
AcDbArc
 50
90.0
 51
174.9999997764023
  0
ARC
  5
F5
330
1F
100
AcDbEntity
  8
RUNDUNGEN
  6
Continuous
 62
     7
100
AcDbCircle
 10
189.3281116167
 20
295.4102032908
 30
0.0
 40
1.000000000040203
100
AcDbArc
 50
294.9999999963525
 51
0.0
  0
ARC
  5
F6
330
1F
100
AcDbEntity
  8
RUNDUNGEN
  6
Continuous
 62
     7
100
AcDbCircle
 10
181.528389272
 20
291.77313303
 30
0.0
 40
1.0
100
AcDbArc
 50
270.0
 51
295.0000000015462
  0
ARC
  5
F7
330
1F
100
AcDbEntity
  8
0
  6
Continuous
 62
     7
100
AcDbCircle
 10
147.1156116167
 20
287.14813303
 30
0.0
 40
0.25
100
AcDbArc
 50
0.0
 51
90.0
  0
ARC
  5
F8
330
1F
100
AcDbEntity
  8
RUNDUNGEN
  6
Continuous
 62
     7
100
AcDbCircle
 10
179.0571293038
 20
877.4945741621
 30
0.0
 40
582.7717475326787
100
AcDbArc
 50
263.3122116896072
 51
263.5042170251256
  0
ARC
  5
F9
330
1F
100
AcDbEntity
  8
0
  6
Continuous
 62
     7
100
AcDbCircle
 10
251.421770517
 20
336.6604320589
 30
0.0
 40
113.6878631614003
100
AcDbArc
 50
203.754563597
 51
204.9733896764018
  0
ARC
  5
FA
330
1F
100
AcDbEntity
  8
RUNDUNGEN
  6
Continuous
 62
     7
100
AcDbCircle
 10
153.2781116167
 20
321.77313303
 30
0.0
 40
3.0
100
AcDbArc
 50
180.0
 51
270.0
  0
ARC
  5
FB
330
1F
100
AcDbEntity
  8
RUNDUNGEN
  6
Continuous
 62
     7
100
AcDbCircle
 10
189.3281116167
 20
314.1360627692
 30
0.0
 40
1.0
100
AcDbArc
 50
0.0
 51
65.00000000122631
  0
ARC
  5
FC
330
1F
100
AcDbEntity
  8
RUNDUNGEN
  6
Continuous
 62
     7
100
AcDbCircle
 10
181.528389272
 20
317.77313303
 30
0.0
 40
0.9999999999918526
100
AcDbArc
 50
64.99999999603273
 51
90.0
  0
ARC
  5
FD
330
1F
100
AcDbEntity
  8
0
  6
Continuous
 62
     7
100
AcDbCircle
 10
147.1156116167
 20
322.39813303
 30
0.0
 40
0.25
100
AcDbArc
 50
270.0
 51
0.0
  0
CIRCLE
  5
FE
330
1F
100
AcDbEntity
  8
FASEN
  6
Continuous
 62
     7
100
AcDbCircle
 10
124.3281116167
 20
304.77313303
 30
0.0
 40
2.299999999999997
  0
SPLINE
  5
FF
330
1F
100
AcDbEntity
  8
0
  6
Continuous
 62
     2
100
AcDbSpline
210
0.0
220
0.0
230
1.0
 70
     8
 71
     3
 72
    47
 73
    43
 74
    41
 42
0.0000000001
 43
0.0000000001
 44
0.00000001
 40
0.0
 40
0.0
 40
0.0
 40
0.0
 40
0.0129955975542101
 40
0.0516374416067278
 40
0.1153817488568012
 40
0.2035790921112373
 40
0.3155469194774742
 40
0.4505706723989196
 40
0.6079163425907951
 40
0.7867886443617853
 40
0.9862833086593885
 40
1.205091117735799
 40
1.441765378833427
 40
1.694666572076178
 40
1.962011147074569
 40
2.241568732861154
 40
2.531015659627685
 40
2.828032935480526
 40
3.130462940070339
 40
3.436737100451059
 40
3.745475181666385
 40
4.055431435589829
 40
4.365396070589476
 40
4.674157293496109
 40
4.980465439133646
 40
5.282932560291106
 40
5.579982223872378
 40
5.869452143404599
 40
6.149020354276773
 40
6.416363892056271
 40
6.669254956017565
 40
6.905916424816025
 40
7.124715237439188
 40
7.324207415162484
 40
7.503085152699606
 40
7.660444101313851
 40
7.795487832630771
 40
7.9074784281312
 40
7.995697059249984
 40
8.059458239713189
 40
8.098110394034679
 40
8.11110940258195
 40
8.11110940258195
 40
8.11110940258195
 40
8.11110940258195
 10
176.3281116167
 20
290.7731165482
 30
0.0
 10
176.3239472942241
 20
290.7743096482941
 30
0.0
 10
176.3074005400035
 20
290.7790503796211
 30
0.0
 10
176.2703965821275
 20
290.7895350578997
 30
0.0
 10
176.209233361444
 20
290.8067065916501
 30
0.0
 10
176.124419940456
 20
290.830061495362
 30
0.0
 10
176.0165337717586
 20
290.8591177291348
 30
0.0
 10
175.88612615435
 20
290.893171655086
 30
0.0
 10
175.7337972378715
 20
290.9315249027147
 30
0.0
 10
175.5601756841115
 20
290.9732916918632
 30
0.0
 10
175.3660944617323
 20
291.0175498240854
 30
0.0
 10
175.1525907669649
 20
291.0632166632545
 30
0.0
 10
174.9209647376501
 20
291.1091539881446
 30
0.0
 10
174.6726965686504
 20
291.1541852618154
 30
0.0
 10
174.4095552884417
 20
291.1970896100101
 30
0.0
 10
174.1335905113218
 20
291.2367558970031
 30
0.0
 10
173.8470593598674
 20
291.2720309794352
 30
0.0
 10
173.5522675039524
 20
291.3020936287145
 30
0.0
 10
173.2512937808281
 20
291.3261283381933
 30
0.0
 10
172.9459577254254
 20
291.3436805619828
 30
0.0
 10
172.6377917232324
 20
291.3543275938268
 30
0.0
 10
172.3282320820728
 20
291.3579249221352
 30
0.0
 10
172.0186646613838
 20
291.3543330775342
 30
0.0
 10
171.7104766482335
 20
291.343690525205
 30
0.0
 10
171.4051089728992
 20
291.3261408298941
 30
0.0
 10
171.1041005584605
 20
291.302107076103
 30
0.0
 10
170.8092777479375
 20
291.2720439736837
 30
0.0
 10
170.5227245023723
 20
291.2367682555732
 30
0.0
 10
170.2467487396516
 20
291.1971020448887
 30
0.0
 10
169.9836074125055
 20
291.1541991095582
 30
0.0
 10
169.7353468304583
 20
291.1091707616266
 30
0.0
 10
169.5037309634714
 20
291.063236891425
 30
0.0
 10
169.2902348681485
 20
291.0175732156348
 30
0.0
 10
169.0961552902982
 20
290.9733169380561
 30
0.0
 10
168.9225281889754
 20
290.9315500809735
 30
0.0
 10
168.770186522652
 20
290.893194644896
 30
0.0
 10
168.639760670666
 20
290.8591366316495
 30
0.0
 10
168.5318537745162
 20
290.8300752802621
 30
0.0
 10
168.4470207073559
 20
290.8067152202174
 30
0.0
 10
168.3858419093578
 20
290.7895393957841
 30
0.0
 10
168.3488281521816
 20
290.7790518921626
 30
0.0
 10
168.3322770259464
 20
290.7743098143791
 30
0.0
 10
168.3281116167
 20
290.7731163793
 30
0.0
 11
176.3281116167
 21
290.7731165482
 31
0.0
 11
176.3156177730114
 21
290.7766927788521
 31
0.0
 11
176.2784439990417
 21
290.7872427855166
 31
0.0
 11
176.2170690243198
 21
290.8044604852666
 31
0.0
 11
176.1320399539167
 21
290.8278875752167
 31
0.0
 11
176.0239214534333
 21
290.8569940043749
 31
0.0
 11
175.89328005505
 21
290.8911149492833
 31
0.0
 11
175.7406935372042
 21
290.9295208667937
 31
0.0
 11
175.5667827967833
 21
290.9713581074667
 31
0.0
 11
175.3722787001062
 21
291.0157008347063
 31
0.0
 11
175.1583088727667
 21
291.0614585695834
 31
0.0
 11
174.9261539502896
 21
291.1074889707958
 31
0.0
 11
174.67730984865
 21
291.1526068898833
 31
0.0
 11
174.4134485033125
 21
291.1956221455228
 31
0.0
 11
174.13673064725
 21
291.2353672321
 31
0.0
 11
173.8494526801958
 21
291.2707351986771
 31
0.0
 11
173.5539648714166
 21
291.3008386373166
 31
0.0
 11
173.2524946403813
 21
291.3249136757521
 31
0.0
 11
172.9467241378333
 21
291.3424710414
 31
0.0
 11
172.6381703488917
 21
291.3531369741896
 31
0.0
 11
172.3282348649
 21
291.3567251644167
 31
0.0
 11
172.01829093575
 21
291.3531424652209
 31
0.0
 11
171.7097138393
 21
291.34248093075
 31
0.0
 11
171.4039091541375
 21
291.3249260278291
 31
0.0
 11
171.1024016338
 21
291.3008516729833
 31
0.0
 11
170.8068813268208
 21
291.2707476733041
 31
0.0
 11
170.5195802867667
 21
291.23537894845
 31
0.0
 11
170.2428516811667
 21
291.1956339692334
 31
0.0
 11
169.9789911283667
 21
291.1526202985167
 31
0.0
 11
169.7301567303917
 21
291.1075056377521
 31
0.0
 11
169.4980140731667
 21
291.0614791507
 31
0.0
 11
169.2840527297833
 21
291.0157247635562
 31
0.0
 11
169.0895507381
 21
290.97138398995
 31
0.0
 11
168.9156344224854
 21
290.9295466842354
 31
0.0
 11
168.7630347885834
 21
290.8911384762333
 31
0.0
 11
168.6323738896938
 21
290.8570131356583
 31
0.0
 11
168.5242332884667
 21
290.8279012163334
 31
0.0
 11
168.4391836318323
 21
290.8044687008292
 31
0.0
 11
168.3777923944917
 21
290.7872465026
 31
0.0
 11
168.3406087221427
 21
290.7766936099
 31
0.0
 11
168.3281116167
 21
290.7731163793
 31
0.0
  0
SPLINE
  5
100
330
1F
100
AcDbEntity
  8
BEZUGSACHSEN
  6
Continuous
 62
     7
100
AcDbSpline
210
0.0
220
0.0
230
1.0
 70
     8
 71
     3
 72
    15
 73
    11
 74
     9
 42
0.0000000001
 43
0.0000000001
 44
0.00000001
 40
0.0
 40
0.0
 40
0.0
 40
0.0
 40
0.960647705011225
 40
1.921519378143702
 40
2.738310931242422
 40
3.555000523394598
 40
4.107190715981256
 40
4.659355623397032
 40
4.855983959589916
 40
5.052604368540294
 40
5.052604368540294
 40
5.052604368540294
 40
5.052604368540294
 10
137.3281116167
 20
324.138049761
 30
0.0
 10
137.0078647002348
 20
324.1426645112762
 30
0.0
 10
136.3672962040333
 20
324.1518950877245
 30
0.0
 10
135.4566558343134
 20
324.2220801916045
 30
0.0
 10
134.5977437895757
 20
324.3240102102672
 30
0.0
 10
133.8781331683249
 20
324.4392283045494
 30
0.0
 10
133.2493258714733
 20
324.5605572403935
 30
0.0
 10
132.8256927353697
 20
324.6535059101749
 30
0.0
 10
132.5189808247906
 20
324.7259089258088
 30
0.0
 10
132.3917338310341
 20
324.7573918734843
 30
0.0
 10
132.3281116167
 20
324.77313303
 30
0.0
 11
137.3281116167
 21
324.138049761
 31
0.0
 11
136.3677599397025
 21
324.1618965559913
 31
0.0
 11
135.4095127998094
 21
324.2328669097685
 31
0.0
 11
134.5984573548263
 21
324.3294976832137
 31
0.0
 11
133.7919821417977
 21
324.4582595591716
 31
0.0
 11
133.2497870745323
 21
324.5628469284948
 31
0.0
 11
132.7104114448588
 21
324.6809994362795
 31
0.0
 11
132.5190610319866
 21
324.7262511996443
 31
0.0
 11
132.3281116167
 21
324.77313303
 31
0.0
  0
SPLINE
  5
101
330
1F
100
AcDbEntity
  8
BEZUGSACHSEN
  6
Continuous
 62
     7
100
AcDbSpline
210
0.0
220
0.0
230
1.0
 70
     8
 71
     3
 72
    23
 73
    19
 74
    17
 42
0.0000000001
 43
0.0000000001
 44
0.00000001
 40
0.0
 40
0.0
 40
0.0
 40
0.0
 40
0.1335370028026901
 40
0.2670782179520372
 40
0.6422599043711856
 40
1.017462988557995
 40
1.572518617127629
 40
2.127607659397944
 40
2.780638538824426
 40
3.433684840962721
 40
4.086735969771531
 40
4.739771669246343
 40
5.294875959769863
 40
5.84994684929841
 40
6.225163660643914
 40
6.60035906764691
 40
6.733905431892611
 40
6.867447584322059
 40
6.867447584322059
 40
6.867447584322059
 40
6.867447584322059
 10
168.9281116167
 20
290.77313303
 30
0.0
 10
168.9713917057357
 20
290.7835353530639
 30
0.0
 10
169.0579532490523
 20
290.8043403273269
 30
0.0
 10
169.266628167694
 20
290.8521838794844
 30
0.0
 10
169.5548349492386
 20
290.913576560778
 30
0.0
 10
169.9825837952487
 20
290.9936935219579
 30
0.0
 10
170.4719729576419
 20
291.0696098958288
 30
0.0
 10
171.055943383381
 20
291.1372108228261
 30
0.0
 10
171.6749718519592
 20
291.1817245794668
 30
0.0
 10
172.328074291511
 20
291.1975168345651
 30
0.0
 10
172.981178449133
 20
291.1817288324116
 30
0.0
 10
173.600215458997
 20
291.1372179089391
 30
0.0
 10
174.1841978409321
 20
291.0696176947008
 30
0.0
 10
174.673601751455
 20
290.9937001486871
 30
0.0
 10
175.1013647376279
 20
290.9135813373433
 30
0.0
 10
175.3895822195989
 20
290.8521867212807
 30
0.0
 10
175.5982649715316
 20
290.804341506398
 30
0.0
 10
175.6848298566683
 20
290.7835357461015
 30
0.0
 10
175.7281116167
 20
290.77313303
 30
0.0
 11
168.9281116167
 21
290.77313303
 31
0.0
 11
169.0580054106312
 21
290.8041125944849
 31
0.0
 11
169.1881575850313
 21
290.8340068688948
 31
0.0
 11
169.5551305938787
 21
290.9120588298042
 31
0.0
 11
169.9239263143878
 21
290.981102807945
 31
0.0
 11
170.4724409348648
 21
291.0660643400037
 31
0.0
 11
171.0238613985766
 21
291.1297771099046
 31
0.0
 11
171.6752153048306
 21
291.1765469537381
 31
0.0
 11
172.3280727010139
 21
291.1922534169069
 31
0.0
 11
172.9809350239086
 21
291.1765510545696
 31
0.0
 11
173.6322939915311
 21
291.1297843988597
 31
0.0
 11
174.1837298385783
 21
291.0660719201059
 31
0.0
 11
174.7322597427539
 21
290.9811093599567
 31
0.0
 11
175.1010690784015
 21
290.9120635095708
 31
0.0
 11
175.4680555953306
 21
290.8340091065667
 31
0.0
 11
175.598212805663
 21
290.8041137557286
 31
0.0
 11
175.7281116167
 21
290.77313303
 31
0.0
  0
SPLINE
  5
102
330
1F
100
AcDbEntity
  8
BEZUGSACHSEN
  6
Continuous
 62
     7
100
AcDbSpline
210
0.0
220
0.0
230
1.0
 70
     8
 71
     3
 72
    15
 73
    11
 74
     9
 42
0.0000000001
 43
0.0000000001
 44
0.00000001
 40
0.0
 40
0.0
 40
0.0
 40
0.0
 40
0.1966144691108782
 40
0.3932368665564152
 40
0.9453924840345538
 40
1.497573379429657
 40
2.314268097580593
 40
3.131064801076977
 40
4.091946561202024
 40
5.052604325776783
 40
5.052604325776783
 40
5.052604325776783
 40
5.052604325776783
 10
142.3281116167
 20
324.77313303
 30
0.0
 10
142.2644913217861
 20
324.7573923596533
 30
0.0
 10
142.1372481665163
 20
324.7259103842288
 30
0.0
 10
141.8305431510989
 20
324.6535088747627
 30
0.0
 10
141.4069180874087
 20
324.5605615746073
 30
0.0
 10
140.7781153574694
 20
324.4392326620046
 30
0.0
 10
140.0585045147342
 20
324.324013837593
 30
0.0
 10
139.1995858080249
 20
324.2220823951653
 30
0.0
 10
138.2889371007248
 20
324.1518955771489
 30
0.0
 10
137.6483618872365
 20
324.1426646743648
 30
0.0
 10
137.3281116167
 20
324.138049761
 30
0.0
 11
142.3281116167
 21
324.77313303
 31
0.0
 11
142.137167966343
 21
324.7262526305555
 31
0.0
 11
141.9458233484165
 21
324.68100216793
 31
0.0
 11
141.4064568946956
 21
324.5628511860755
 31
0.0
 11
140.8642710876509
 21
324.4582648969231
 31
0.0
 11
140.0577909465308
 21
324.3295013747808
 31
0.0
 11
139.2467304689595
 21
324.2328693067893
 31
0.0
 11
138.2884733383982
 21
324.1618972794155
 31
0.0
 11
137.3281116167
 21
324.138049761
 31
0.0
  0
SPLINE
  5
103
330
1F
100
AcDbEntity
  8
RUNDUNGEN
  6
Continuous
 62
     7
100
AcDbSpline
210
0.0
220
0.0
230
1.0
 70
     8
 71
     3
 72
    11
 73
     7
 74
     5
 42
0.0000000001
 43
0.0000000001
 44
0.00000001
 40
0.0
 40
0.0
 40
0.0
 40
0.0
 40
0.286932809825164
 40
0.5747586398965818
 40
0.8592750661980548
 40
1.143349105397793
 40
1.143349105397793
 40
1.143349105397793
 40
1.143349105397793
 10
114.0281116167
 20
299.9578408209
 30
0.0
 10
114.023532440488
 20
299.8621123107227
 30
0.0
 10
114.0143598363057
 20
299.6703573547719
 30
0.0
 10
113.9471117701822
 20
299.3905728059385
 30
0.0
 10
113.8512758764814
 20
299.1209947662079
 30
0.0
 10
113.7642909415911
 20
298.9523765447324
 30
0.0
 10
113.7208323131
 20
298.86813303
 30
0.0
 11
114.0281116167
 21
299.9578408209
 31
0.0
 11
114.0054496827619
 21
299.6718043300385
 31
0.0
 11
113.941983258327
 21
299.3910629518526
 31
0.0
 11
113.8453778492705
 21
299.123449439906
 31
0.0
 11
113.7208323131
 21
298.86813303
 31
0.0
  0
SPLINE
  5
104
330
1F
100
AcDbEntity
  8
RUNDUNGEN
  6
Continuous
 62
     7
100
AcDbSpline
210
0.0
220
0.0
230
1.0
 70
     8
 71
     3
 72
    17
 73
    13
 74
    11
 42
0.0000000001
 43
0.0000000001
 44
0.00000001
 40
0.0
 40
0.0
 40
0.0
 40
0.0
 40
0.0921565574875007
 40
0.1843584530232623
 40
0.2777172409336967
 40
0.3711392571884665
 40
0.4672851119868937
 40
0.5631242132304666
 40
0.6124865681899819
 40
0.6618539013814342
 40
0.7118003919764327
 40
0.7616858911834026
 40
0.7616858911834026
 40
0.7616858911834026
 40
0.7616858911834026
 10
113.7208323131
 20
298.86813303
 30
0.0
 10
113.7055206800474
 20
298.8414860259714
 30
0.0
 10
113.6748898811135
 20
298.7881789084494
 30
0.0
 10
113.6211486328535
 20
298.7126190998168
 30
0.0
 10
113.5606999813715
 20
298.6417568303958
 30
0.0
 10
113.4912346727615
 20
298.5775691316281
 30
0.0
 10
113.41262033611
 20
298.5233406489114
 30
0.0
 10
113.3391280050872
 20
298.489351716488
 30
0.0
 10
113.2766484303746
 20
298.4714978947332
 30
0.0
 10
113.2277060218802
 20
298.4632107614645
 30
0.0
 10
113.177908340299
 20
298.4600969590441
 30
0.0
 10
113.1447037625612
 20
298.4627752130991
 30
0.0
 10
113.1281116167
 20
298.464113522
 30
0.0
 11
113.7208323131
 21
298.86813303
 31
0.0
 11
113.673636902125
 21
298.7889785969539
 31
0.0
 11
113.6203112516874
 21
298.713761813283
 31
0.0
 11
113.5593674920753
 21
298.6430389637615
 31
0.0
 11
113.490525820071
 21
298.5798844127239
 31
0.0
 11
113.4111365070544
 21
298.5256500843547
 31
0.0
 11
113.3239247498786
 21
298.4859103971704
 31
0.0
 11
113.2764508671563
 21
298.4723873595524
 31
0.0
 11
113.227784326438
 21
298.4640987287281
 31
0.0
 11
113.1779170088177
 21
298.4612875801873
 31
0.0
 11
113.1281116167
 21
298.464113522
 31
0.0
  0
SPLINE
  5
105
330
1F
100
AcDbEntity
  8
0
  6
Continuous
 62
     7
100
AcDbSpline
210
0.0
220
0.0
230
1.0
 70
     8
 71
     3
 72
    11
 73
     7
 74
     5
 42
0.0000000001
 43
0.0000000001
 44
0.00000001
 40
0.0
 40
0.0
 40
0.0
 40
0.0
 40
0.0543555269324622
 40
0.1087869225817945
 40
0.163283035377679
 40
0.2176296539683159
 40
0.2176296539683159
 40
0.2176296539683159
 40
0.2176296539683159
 10
110.9895462456
 20
310.7746313348
 30
0.0
 10
111.0044226146189
 20
310.785011161291
 30
0.0
 10
111.0341961168934
 20
310.8057853022959
 30
0.0
 10
111.0829506107773
 20
310.8303098278845
 30
0.0
 10
111.1342990429741
 20
310.8491212951192
 30
0.0
 10
111.170170652602
 20
310.8550199913029
 30
0.0
 10
111.1880818228
 20
310.8579652885
 30
0.0
 11
110.9895462456
 21
310.7746313348
 31
0.0
 11
111.0348516733075
 21
310.804663676173
 31
0.0
 11
111.0833638493515
 21
310.829348602906
 31
0.0
 11
111.1347575418395
 21
310.8474735769007
 31
0.0
 11
111.1880818228
 21
310.8579652885
 31
0.0
  0
SPLINE
  5
106
330
1F
100
AcDbEntity
  8
0
  6
Continuous
 62
     7
100
AcDbSpline
210
0.0
220
0.0
230
1.0
 70
     8
 71
     3
 72
    23
 73
    19
 74
    17
 42
0.0000000001
 43
0.0000000001
 44
0.00000001
 40
0.0
 40
0.0
 40
0.0
 40
0.0
 40
0.0548015920511475
 40
0.1096656057058716
 40
0.1578548539440469
 40
0.2059946211356738
 40
0.2484971176802594
 40
0.2907975468339078
 40
0.3320753431738522
 40
0.3735180891404595
 40
0.418766959611217
 40
0.4640702101505468
 40
0.5148888565868455
 40
0.5656834469841688
 40
0.6214947220964944
 40
0.6773144168904033
 40
0.7370934750420677
 40
0.7968569074148231
 40
0.7968569074148231
 40
0.7968569074148231
 40
0.7968569074148231
 10
110.4281116167
 20
310.6350793215
 30
0.0
 10
110.428503084669
 20
310.6533545486459
 30
0.0
 10
110.4292864665075
 20
310.6899258192853
 30
0.0
 10
110.436779636397
 20
310.7421551711072
 30
0.0
 10
110.4496106215882
 20
310.7910250618239
 30
0.0
 10
110.468631557824
 20
310.8335362530913
 30
0.0
 10
110.4945623650455
 20
310.8698217081404
 30
0.0
 10
110.5261592388068
 20
310.8982085074771
 30
0.0
 10
110.5637631746258
 20
310.9171463652469
 30
0.0
 10
110.6054123334986
 20
310.9276522659804
 30
0.0
 10
110.6496610271314
 20
310.9294381900195
 30
0.0
 10
110.6965516934358
 20
310.9234749928603
 30
0.0
 10
110.7440901493726
 20
310.9112374818747
 30
0.0
 10
110.7932955462783
 20
310.8927997567671
 30
0.0
 10
110.8422977842671
 20
310.8696398173881
 30
0.0
 10
110.8920772138551
 20
310.8415257727139
 30
0.0
 10
110.9413398181037
 20
310.8099839579954
 30
0.0
 10
110.9734788367657
 20
310.7864145155863
 30
0.0
 10
110.9895462456
 20
310.7746313348
 30
0.0
 11
110.4281116167
 21
310.6350793215
 31
0.0
 11
110.4303903387534
 21
310.6898335169296
 31
0.0
 11
110.4381887762036
 21
310.7441404627804
 31
0.0
 11
110.4508718180241
 21
310.790630720856
 31
0.0
 11
110.4708879376878
 21
310.8344119056147
 31
0.0
 11
110.4957852213909
 21
310.8688587846711
 31
0.0
 11
110.5274896672395
 21
310.8968615420357
 31
0.0
 11
110.5642219297434
 21
310.9156922977832
 31
0.0
 11
110.6043671167396
 21
310.9259813771538
 31
0.0
 11
110.6495626490288
 21
310.9281777696439
 31
0.0
 11
110.6945491291056
 21
310.9228297681727
 31
0.0
 11
110.7438181191562
 21
310.9103757951117
 31
0.0
 11
110.7914643176452
 21
310.892770961026
 31
0.0
 11
110.8419805197467
 21
310.8690430922869
 31
0.0
 11
110.8906715170061
 21
310.8417479441325
 31
0.0
 11
110.9409834229449
 21
310.8094640795202
 31
0.0
 11
110.9895462456
 21
310.7746313348
 31
0.0
  0
SPLINE
  5
107
330
1F
100
AcDbEntity
  8
FASEN
  6
Continuous
 62
     7
100
AcDbSpline
210
0.0
220
0.0
230
1.0
 70
     8
 71
     3
 72
    39
 73
    35
 74
    33
 42
0.0000000001
 43
0.0000000001
 44
0.00000001
 40
0.0
 40
0.0
 40
0.0
 40
0.0
 40
0.2848465271782871
 40
0.5699950255000132
 40
0.8548279991463426
 40
1.139573863687902
 40
1.424121623276207
 40
1.708693335888438
 40
1.993142884852402
 40
2.277585056620586
 40
2.562155108708679
 40
2.846728268144865
 40
3.131563712665212
 40
3.41639969042361
 40
3.701411923436178
 40
3.986425214724678
 40
4.271294282732748
 40
4.556162677321208
 40
4.84048750765063
 40
5.124810921892966
 40
5.408342462651275
 40
5.691871377346091
 40
5.974681937657907
 40
6.257491624555497
 40
6.539993734446359
 40
6.822493529508378
 40
7.105252300196609
 40
7.388018966463243
 40
7.671533427437785
 40
7.955027376614901
 40
8.239336777434207
 40
8.52372902243611
 40
8.808808363450456
 40
9.093596288060759
 40
9.093596288060759
 40
9.093596288060759
 40
9.093596288060759
 10
121.4288632051
 20
304.77313303
 30
0.0
 10
121.4315597856408
 20
304.8681209802043
 30
0.0
 10
121.436955805418
 20
305.0581975791196
 30
0.0
 10
121.4806710430078
 20
305.3404793231206
 30
0.0
 10
121.5499064691644
 20
305.6172144980318
 30
0.0
 10
121.6465251982901
 20
305.8855647739235
 30
0.0
 10
121.7690860826197
 20
306.1429474844113
 30
0.0
 10
121.9164120709626
 20
306.3869062189037
 30
0.0
 10
122.0871565624449
 20
306.6150368009278
 30
0.0
 10
122.2795502041753
 20
306.8252326842795
 30
0.0
 10
122.491829611631
 20
307.015383983501
 30
0.0
 10
122.7218541880282
 20
307.1838526620191
 30
0.0
 10
122.967410195341
 20
307.3289203738547
 30
0.0
 10
123.2260745044428
 20
307.4494041674633
 30
0.0
 10
123.4953200648071
 20
307.5440769944529
 30
0.0
 10
123.7724808837013
 20
307.6122131829758
 30
0.0
 10
124.0548964915789
 20
307.6531234625209
 30
0.0
 10
124.3397136239089
 20
307.6665569675575
 30
0.0
 10
124.6243089558259
 20
307.6523270908405
 30
0.0
 10
124.9057564124524
 20
307.6107071745156
 30
0.0
 10
125.1815592140725
 20
307.5419555567549
 30
0.0
 10
125.4489005289588
 20
307.4468825331087
 30
0.0
 10
125.7054142017556
 20
307.3261560892986
 30
0.0
 10
125.948592612802
 20
307.1810815006219
 30
0.0
 10
126.1761863294867
 20
307.0127799365318
 30
0.0
 10
126.386123707151
 20
306.8229330770429
 30
0.0
 10
126.576299389933
 20
306.6131722511788
 30
0.0
 10
126.7451182788101
 20
306.3854527177614
 30
0.0
 10
126.8907551645931
 20
306.141960338854
 30
0.0
 10
127.0119852814431
 20
305.8848949733112
 30
0.0
 10
127.1075637737165
 20
305.6168644123464
 30
0.0
 10
127.1760818802703
 20
305.3402808487668
 30
0.0
 10
127.2193080114501
 20
305.0581306174428
 30
0.0
 10
127.2246769378633
 20
304.8680998334245
 30
0.0
 10
127.2273600283
 20
304.77313303
 30
0.0
 11
121.4288632051
 21
304.77313303
 31
0.0
 11
121.44288492684
 21
305.0576342345053
 31
0.0
 11
121.4849473328924
 21
305.3396633466413
 31
0.0
 11
121.5544882118628
 21
305.6158768311569
 31
0.0
 11
121.6508796201567
 21
305.8838113451349
 31
0.0
 11
121.7732174361715
 21
306.1407177215825
 31
0.0
 11
121.9203412685243
 21
306.3843067968156
 31
0.0
 11
122.0907658539205
 21
306.6120500878218
 31
0.0
 11
122.2828292792314
 21
306.821857117585
 31
0.0
 11
122.4947691256144
 21
307.0117560803535
 31
0.0
 11
122.7243574035731
 21
307.1798962174281
 31
0.0
 11
122.9695732725246
 21
307.3248113928566
 31
0.0
 11
123.227774464998
 21
307.4450764269724
 31
0.0
 11
123.4966374207959
 21
307.5396527663308
 31
0.0
 11
123.7734117344615
 21
307.6076862544526
 31
0.0
 11
124.0553351602851
 21
307.6485466005072
 31
0.0
 11
124.3398882409017
 21
307.6619460985193
 31
0.0
 11
124.6238586541159
 21
307.6477540739686
 31
0.0
 11
124.9051180532705
 21
307.6061253065885
 31
0.0
 11
125.1802303602622
 21
307.5375443096106
 31
0.0
 11
125.4473545018462
 21
307.4425004331584
 31
0.0
 11
125.7032428236203
 21
307.3220721150456
 31
0.0
 11
125.9460949175741
 21
307.1771439277755
 31
0.0
 11
126.1732473759436
 21
307.0091879729853
 31
0.0
 11
126.3827586023688
 21
306.8196855186163
 31
0.0
 11
126.572703514803
 21
306.6102256116138
 31
0.0
 11
126.7410934350123
 21
306.3830652666514
 31
0.0
 11
126.8866504106348
 21
306.1397678839501
 31
0.0
 11
127.0075878516694
 21
305.8833639944007
 31
0.0
 11
127.103019977951
 21
305.615549609672
 31
0.0
 11
127.1718154476933
 21
305.33960372302
 31
0.0
 11
127.2134500662626
 21
305.0575810480278
 31
0.0
 11
127.2273600283
 21
304.77313303
 31
0.0
  0
SPLINE
  5
108
330
1F
100
AcDbEntity
  8
0
  6
Continuous
 62
     7
100
AcDbSpline
210
0.0
220
0.0
230
1.0
 70
     8
 71
     3
 72
    15
 73
    11
 74
     9
 42
0.0000000001
 43
0.0000000001
 44
0.00000001
 40
0.0
 40
0.0
 40
0.0
 40
0.0
 40
0.0291928827223009
 40
0.058474903050323
 40
0.0893472907831411
 40
0.1202111503880444
 40
0.1539964536257189
 40
0.1878186151167694
 40
0.2252201505835281
 40
0.2625568083293614
 40
0.2625568083293614
 40
0.2625568083293614
 40
0.2625568083293614
 10
147.3656116167
 20
309.0786567196
 30
0.0
 10
147.3651130364305
 20
309.0689153317069
 30
0.0
 10
147.3641143535256
 20
309.0494028115477
 30
0.0
 10
147.3562743958032
 20
309.0204512932884
 30
0.0
 10
147.3437912642009
 20
308.9926754597982
 30
0.0
 10
147.3261080581956
 20
308.9660349200024
 30
0.0
 10
147.3038462754926
 20
308.9417219571608
 30
0.0
 10
147.2764942755533
 20
308.919726186425
 30
0.0
 10
147.2453126064331
 20
308.9009920427603
 30
0.0
 10
147.2220061845698
 20
308.892083456505
 30
0.0
 10
147.2103630894
 20
308.88763303
 30
0.0
 11
147.3656116167
 21
309.0786567196
 31
0.0
 11
147.3630859443207
 21
309.049573298538
 31
0.0
 11
147.3557097627794
 21
309.0212355382108
 31
0.0
 11
147.3430494725586
 21
308.9930784542735
 31
0.0
 11
147.3260454870604
 21
308.9673210804383
 31
0.0
 11
147.303273832134
 21
308.9423631468946
 31
0.0
 11
147.2769968723221
 21
308.921068546852
 31
0.0
 11
147.2448333093683
 21
308.9019798047933
 31
0.0
 11
147.2103630894
 21
308.88763303
 31
0.0
  0
SPLINE
  5
109
330
1F
100
AcDbEntity
  8
RUNDUNGEN
  6
Continuous
 62
     7
100
AcDbSpline
210
0.0
220
0.0
230
1.0
 70
     8
 71
     3
 72
     9
 73
     5
 74
     3
 42
0.0000000001
 43
0.0000000001
 44
0.00000001
 40
0.0
 40
0.0
 40
0.0
 40
0.0
 40
0.9207178548323315
 40
1.841435709861846
 40
1.841435709861846
 40
1.841435709861846
 40
1.841435709861846
 10
150.2797787465
 20
304.7733727212
 30
0.0
 10
150.2795009459833
 20
304.4664668953169
 30
0.0
 10
150.2789453449499
 20
303.8526552434851
 30
0.0
 10
150.2783895261166
 20
303.2388435918501
 30
0.0
 10
150.2781116167
 20
302.931937766
 30
0.0
 11
150.2797787465
 21
304.7733727212
 31
0.0
 11
150.2789452905
 21
303.8526552436
 31
0.0
 11
150.2781116167
 21
302.931937766
 31
0.0
  0
SPLINE
  5
10A
330
1F
100
AcDbEntity
  8
0
  6
Continuous
 62
     7
100
AcDbSpline
210
0.0
220
0.0
230
1.0
 70
     8
 71
     3
 72
    13
 73
     9
 74
     7
 42
0.0000000001
 43
0.0000000001
 44
0.00000001
 40
0.0
 40
0.0
 40
0.0
 40
0.0
 40
0.0161119176404669
 40
0.032383556633087
 40
0.0565085409881964
 40
0.0807351379335138
 40
0.1049182737899086
 40
0.1290347650946638
 40
0.1290347650946638
 40
0.1290347650946638
 40
0.1290347650946638
 10
147.1156116167
 20
300.7382073801
 30
0.0
 10
147.1209906788545
 20
300.7377250747109
 30
0.0
 10
147.1318021271129
 20
300.7367556827219
 30
0.0
 10
147.1493575514068
 20
300.7292670741251
 30
0.0
 10
147.1669787347398
 20
300.7165829679349
 30
0.0
 10
147.1833911977434
 20
300.6986998009302
 30
0.0
 10
147.1979158373736
 20
300.6793314847993
 30
0.0
 10
147.2062178237931
 20
300.6655261653373
 30
0.0
 10
147.2103630894
 20
300.65863303
 30
0.0
 11
147.1156116167
 21
300.7382073801
 31
0.0
 11
147.1315629261406
 21
300.7359381033023
 31
0.0
 11
147.1466687532008
 21
300.7298899445467
 31
0.0
 11
147.1663924405556
 21
300.7159978234968
 31
0.0
 11
147.1830857664453
 21
300.6984404640629
 31
0.0
 11
147.197585523891
 21
300.6790863664641
 31
0.0
 11
147.2103630894
 21
300.65863303
 31
0.0
  0
SPLINE
  5
10B
330
1F
100
AcDbEntity
  8
0
  6
Continuous
 62
     7
100
AcDbSpline
210
0.0
220
0.0
230
1.0
 70
     8
 71
     3
 72
    17
 73
    13
 74
    11
 42
0.0000000001
 43
0.0000000001
 44
0.00000001
 40
0.0
 40
0.0
 40
0.0
 40
0.0
 40
0.0161034838369436
 40
0.0322076500193008
 40
0.0442920544392433
 40
0.0563777824012004
 40
0.0684771683877538
 40
0.0805744754658617
 40
0.0926944165970574
 40
0.1048260721552663
 40
0.1170058952557912
 40
0.1291230711673162
 40
0.1291230711673162
 40
0.1291230711673162
 40
0.1291230711673162
 10
145.445860144
 20
300.65863303
 30
0.0
 10
145.4485990709008
 20
300.6632505831016
 30
0.0
 10
145.4540770407579
 20
300.6724858849626
 30
0.0
 10
145.4623869525177
 20
300.684702402615
 30
0.0
 10
145.4705015541218
 20
300.6954032558169
 30
0.0
 10
145.4783461929379
 20
300.7046120397091
 30
0.0
 10
145.4867812524813
 20
300.7132954889644
 30
0.0
 10
145.4959483677072
 20
300.7212270190522
 30
0.0
 10
145.5059298567289
 20
300.7281580648776
 30
0.0
 10
145.5168063057795
 20
300.7336247130085
 30
0.0
 10
145.5284586690361
 20
300.7374108014042
 30
0.0
 10
145.5365676034828
 20
300.7379423106812
 30
0.0
 10
145.5406116167
 20
300.7382073801
 30
0.0
 11
145.445860144
 21
300.65863303
 31
0.0
 11
145.4542180963588
 21
300.6723977248406
 31
0.0
 11
145.4632687069764
 21
300.6857180332408
 31
0.0
 11
145.4705907312955
 21
300.6953316064607
 31
0.0
 11
145.478441053827
 21
300.7045205811871
 31
0.0
 11
145.4869023683731
 21
300.7131693555167
 31
0.0
 11
145.4960766897123
 21
300.7210545737449
 31
0.0
 11
145.5060716676119
 21
300.7279097462307
 31
0.0
 11
145.5169210062172
 21
300.7333382744301
 31
0.0
 11
145.5285634181154
 21
300.7369163096384
 31
0.0
 11
145.5406116167
 21
300.7382073801
 31
0.0
  0
SPLINE
  5
10C
330
1F
100
AcDbEntity
  8
0
  6
Continuous
 62
     7
100
AcDbSpline
210
0.0
220
0.0
230
1.0
 70
     8
 71
     3
 72
    13
 73
     9
 74
     7
 42
0.0000000001
 43
0.0000000001
 44
0.00000001
 40
0.0
 40
0.0
 40
0.0
 40
0.0
 40
0.0161159232991552
 40
0.032392146569313
 40
0.0565136430109664
 40
0.0807357153989715
 40
0.1049176589507733
 40
0.1290332869517032
 40
0.1290332869517032
 40
0.1290332869517032
 40
0.1290332869517032
 10
145.5406116167
 20
308.8080586799
 30
0.0
 10
145.5352312201581
 20
308.8085415802786
 30
0.0
 10
145.5244169099785
 20
308.8095121842924
 30
0.0
 10
145.5068616711404
 20
308.8170058356195
 30
0.0
 10
145.4892419280234
 20
308.8296890844182
 30
0.0
 10
145.4728299978893
 20
308.847568676721
 30
0.0
 10
145.4583066833117
 20
308.8669352869158
 30
0.0
 10
145.4500051909498
 20
308.8807401005927
 30
0.0
 10
145.445860144
 20
308.88763303
 30
0.0
 11
145.5406116167
 21
308.8080586799
 31
0.0
 11
145.5246565969553
 21
308.8103303155946
 31
0.0
 11
145.5095476952059
 21
308.8163831274921
 31
0.0
 11
145.4898275184561
 21
308.8302741756723
 31
0.0
 11
145.4731363620402
 21
308.8478273545373
 31
0.0
 11
145.458637077495
 21
308.8671803166264
 31
0.0
 11
145.445860144
 21
308.88763303
 31
0.0
  0
SPLINE
  5
10D
330
1F
100
AcDbEntity
  8
0
  6
Continuous
 62
     7
100
AcDbSpline
210
0.0
220
0.0
230
1.0
 70
     8
 71
     3
 72
    17
 73
    13
 74
    11
 42
0.0000000001
 43
0.0000000001
 44
0.00000001
 40
0.0
 40
0.0
 40
0.0
 40
0.0
 40
0.0161052166653513
 40
0.0322114217090073
 40
0.0442975721506358
 40
0.0563844321030288
 40
0.06848837507263
 40
0.0805914435060215
 40
0.0927083311783522
 40
0.1048350425770563
 40
0.1170106597777461
 40
0.1291252293773737
 40
0.1291252293773737
 40
0.1291252293773737
 40
0.1291252293773737
 10
147.2103630894
 20
308.88763303
 30
0.0
 10
147.2076236095318
 20
308.8830151286957
 30
0.0
 10
147.2021444816733
 20
308.8737790426858
 30
0.0
 10
147.1938330720988
 20
308.8615613961595
 30
0.0
 10
147.1857203760253
 20
308.850857085691
 30
0.0
 10
147.1778747854603
 20
308.8416456815144
 30
0.0
 10
147.1694320026723
 20
308.8329642168783
 30
0.0
 10
147.1602597658684
 20
308.8250353196498
 30
0.0
 10
147.1502831664749
 20
308.8180992881569
 30
0.0
 10
147.1394128804264
 20
308.812628133649
 30
0.0
 10
147.127761459426
 20
308.8088510069143
 30
0.0
 10
147.1196547728665
 20
308.808322346017
 30
0.0
 10
147.1156116167
 20
308.8080586799
 30
0.0
 11
147.2103630894
 21
308.88763303
 31
0.0
 11
147.2020035093155
 21
308.8738672962873
 31
0.0
 11
147.1929519632441
 21
308.8605451585225
 31
0.0
 11
147.1856307347163
 21
308.8509287847079
 31
0.0
 11
147.1777797182936
 21
308.841738913945
 31
0.0
 11
147.1693114234179
 21
308.8330905951888
 31
0.0
 11
147.1601303662388
 21
308.8252043759059
 31
0.0
 11
147.1501405671017
 21
308.8183470528084
 31
0.0
 11
147.1392975666985
 21
308.8129169080954
 31
0.0
 11
147.1276577178989
 21
308.809344853485
 31
0.0
 11
147.1156116167
 21
308.8080586799
 31
0.0
  0
SPLINE
  5
10E
330
1F
100
AcDbEntity
  8
RUNDUNGEN
  6
Continuous
 62
     7
100
AcDbSpline
210
0.0
220
0.0
230
1.0
 70
     8
 71
     3
 72
     9
 73
     5
 74
     3
 42
0.0000000001
 43
0.0000000001
 44
0.00000001
 40
0.0
 40
0.0
 40
0.0
 40
0.0
 40
0.9204781636805857
 40
1.840956327558271
 40
1.840956327558271
 40
1.840956327558271
 40
1.840956327558271
 10
150.2781116167
 20
306.6143282939
 30
0.0
 10
150.2783894172541
 20
306.3075023651002
 30
0.0
 10
150.2789450183626
 20
305.6938505074351
 30
0.0
 10
150.2795008371208
 20
305.0801986499669
 30
0.0
 10
150.2797787465
 20
304.7733727212
 30
0.0
 11
150.2781116167
 21
306.6143282939
 31
0.0
 11
150.278945072775
 21
305.69385050755
 31
0.0
 11
150.2797787465
 21
304.7733727212
 31
0.0
  0
SPLINE
  5
10F
330
1F
100
AcDbEntity
  8
FASEN
  6
Continuous
 62
     7
100
AcDbSpline
210
0.0
220
0.0
230
1.0
 70
     8
 71
     3
 72
    39
 73
    35
 74
    33
 42
0.0000000001
 43
0.0000000001
 44
0.00000001
 40
0.0
 40
0.0
 40
0.0
 40
0.0
 40
0.2847861066353087
 40
0.5698668870932668
 40
0.8542588888471649
 40
1.138565866149509
 40
1.42205950859712
 40
1.705574316247416
 40
1.988341250754492
 40
2.271100210885568
 40
2.553600174646501
 40
2.836102358141263
 40
3.118912373480038
 40
3.401723418015512
 40
3.685252285806989
 40
3.968783633853482
 40
4.253107110689572
 40
4.537432086646662
 40
4.822300428849946
 40
5.107169447772678
 40
5.392182981118167
 40
5.677195370992105
 40
5.962031114355109
 40
6.246866460481396
 40
6.531439742251668
 40
6.816009783079953
 40
7.100451807531708
 40
7.38490120053878
 40
7.669472595300742
 40
7.95402069342642
 40
8.23876889393023
 40
8.523601787895311
 40
8.80874819908943
 40
9.093596299849512
 40
9.093596299849512
 40
9.093596299849512
 40
9.093596299849512
 10
127.2273600283
 20
304.77313303
 30
0.0
 10
127.2246884759886
 20
304.6781661441105
 30
0.0
 10
127.2193426070579
 20
304.4881341082146
 30
0.0
 10
127.1760853705003
 20
304.2059874969657
 30
0.0
 10
127.107562153512
 20
303.9294067688961
 30
0.0
 10
127.0119851527904
 20
303.6613766354116
 30
0.0
 10
126.8907575519
 20
303.4043110260332
 30
0.0
 10
126.7451226377056
 20
303.1608173103025
 30
0.0
 10
126.5763046749378
 20
302.9330967212836
 30
0.0
 10
126.3861295899312
 20
302.7233350810544
 30
0.0
 10
126.1761930887736
 20
302.5334870484713
 30
0.0
 10
125.9485997016427
 20
302.3651846370339
 30
0.0
 10
125.7054205594081
 20
302.2201106143878
 30
0.0
 10
125.4489062937787
 20
302.0993849194309
 30
0.0
 10
125.1815651886456
 20
302.0043111931914
 30
0.0
 10
124.9057626620242
 20
301.9355586167617
 30
0.0
 10
124.6243151488631
 20
301.8939388335405
 30
0.0
 10
124.3397197478505
 20
301.8797094226984
 30
0.0
 10
124.0549026179325
 20
301.8931429664865
 30
0.0
 10
123.7724869229491
 20
301.9340528492577
 30
0.0
 10
123.4953257776515
 20
302.0021881638917
 30
0.0
 10
123.2260799324528
 20
302.0968604442267
 30
0.0
 10
122.9674158974306
 20
302.2173447491913
 30
0.0
 10
122.721860194116
 20
302.3624127615842
 30
0.0
 10
122.4918349916248
 20
302.5308805289735
 30
0.0
 10
122.2795548068346
 20
302.7210309975038
 30
0.0
 10
122.0871614198575
 20
302.9312270071738
 30
0.0
 10
121.9164168129077
 20
303.1593571640847
 30
0.0
 10
121.7690885139318
 20
303.4033143664828
 30
0.0
 10
121.6465244166646
 20
303.6606964980811
 30
0.0
 10
121.5499040770868
 20
303.9290470221001
 30
0.0
 10
121.4806745960467
 20
304.2057850371679
 30
0.0
 10
121.4369942547324
 20
304.4880704512907
 30
0.0
 10
121.4315726091594
 20
304.6781453294159
 30
0.0
 10
121.4288632051
 20
304.77313303
 30
0.0
 11
127.2273600283
 21
304.77313303
 31
0.0
 11
127.2134738066565
 21
304.4886856721621
 31
0.0
 11
127.1718231248653
 21
304.2066639139716
 31
0.0
 11
127.1030192296734
 21
303.9307203786822
 31
0.0
 11
127.0075881847454
 21
303.6629081814119
 31
0.0
 11
126.8866528753948
 21
303.4065036255622
 31
0.0
 11
126.7410976203638
 21
303.1632048095153
 31
0.0
 11
126.5727087224703
 21
302.9360433728303
 31
0.0
 11
126.3827645193315
 21
302.7265825668824
 31
0.0
 11
126.1732540260075
 21
302.5370790505243
 31
0.0
 11
125.946101915341
 21
302.3691225016819
 31
0.0
 11
125.7032492433567
 21
302.2241946420896
 31
0.0
 11
125.4473602096175
 21
302.1037666996375
 31
0.0
 11
125.1802362772643
 21
302.0087223750553
 31
0.0
 11
124.9051243416244
 21
301.9401406851262
 31
0.0
 11
124.623864880266
 21
301.8985119105042
 31
0.0
 11
124.3398943045244
 21
301.8843202204711
 31
0.0
 11
124.0553412780231
 21
301.8977197539942
 31
0.0
 11
123.7734178406045
 21
301.9385796778324
 31
0.0
 11
123.4966431039947
 21
302.0066124593768
 31
0.0
 11
123.2277798475903
 21
302.1011884168779
 31
0.0
 11
122.9695790172753
 21
302.2214536733812
 31
0.0
 11
122.7243633267885
 21
302.3663689573989
 31
0.0
 11
122.4947744442452
 21
302.5345084759841
 31
0.0
 11
122.2828340103612
 21
302.7244067661872
 31
0.0
 11
122.0907706369857
 21
302.9342136437719
 31
0.0
 11
121.9203456282131
 21
303.1619564231677
 31
0.0
 11
121.7732198813573
 21
303.4055439707331
 31
0.0
 11
121.6508793754111
 21
303.6624494411921
 31
0.0
 11
121.5544868154729
 21
303.9303860233878
 31
0.0
 11
121.4849555481532
 21
304.2066018454354
 31
0.0
 11
121.4429112612964
 21
304.4886315491186
 31
0.0
 11
121.4288632051
 21
304.77313303
 31
0.0
  0
SPLINE
  5
110
330
1F
100
AcDbEntity
  8
0
  6
Continuous
 62
     7
100
AcDbSpline
210
0.0
220
0.0
230
1.0
 70
     8
 71
     3
 72
    23
 73
    19
 74
    17
 42
0.0000000001
 43
0.0000000001
 44
0.00000001
 40
0.0
 40
0.0
 40
0.0
 40
0.0
 40
0.0597635021357212
 40
0.1195426311014101
 40
0.1753624599530726
 40
0.2311738662473513
 40
0.2819685060906351
 40
0.3327872070086925
 40
0.3780904632653422
 40
0.4233393317494599
 40
0.4647820467974397
 40
0.5060598179167276
 40
0.5483601945464037
 40
0.5908626368765593
 40
0.6390023299040083
 40
0.6871915008545205
 40
0.7420554295202496
 40
0.7968569385850147
 40
0.7968569385850147
 40
0.7968569385850147
 40
0.7968569385850147
 10
110.9895462456
 20
298.7716347252
 30
0.0
 10
110.9734788176311
 20
298.7598515311554
 30
0.0
 10
110.9413397604175
 20
298.7362820620223
 30
0.0
 10
110.8920770776731
 20
298.7047402002476
 30
0.0
 10
110.8422975526085
 20
298.6766260966051
 30
0.0
 10
110.7932952116757
 20
298.6534661268578
 30
0.0
 10
110.744089720649
 20
298.6350284266433
 30
0.0
 10
110.6965512135677
 20
298.6227909684337
 30
0.0
 10
110.6496605225729
 20
298.6168278145264
 30
0.0
 10
110.6054118370873
 20
298.6186138052274
 30
0.0
 10
110.5637627249821
 20
298.6291198235812
 30
0.0
 10
110.5261588833427
 20
298.6480577851689
 30
0.0
 10
110.4945621194507
 20
298.6764446366847
 30
0.0
 10
110.4686314213417
 20
298.7127300919664
 30
0.0
 10
110.4496105512086
 20
298.7552412337304
 30
0.0
 10
110.4367795990791
 20
298.8041110512871
 30
0.0
 10
110.4292864592672
 20
298.8563403244335
 30
0.0
 10
110.428503082261
 20
298.892911538971
 30
0.0
 10
110.4281116167
 20
298.9111867384
 30
0.0
 11
110.9895462456
 21
298.7716347252
 31
0.0
 11
110.9409833650836
 21
298.7368019414542
 31
0.0
 11
110.8906713990039
 21
298.7045180394426
 31
0.0
 11
110.8419802847683
 21
298.6772228258051
 31
0.0
 11
110.7914639547915
 21
298.6534949207518
 31
0.0
 11
110.743817692372
 21
298.6358901170249
 31
0.0
 11
110.6945486343817
 21
298.6234361904253
 31
0.0
 11
110.6495621425928
 21
298.6180882390432
 31
0.0
 11
110.6043666159818
 21
298.6202847074456
 31
0.0
 11
110.5642214872674
 21
298.6305738896803
 31
0.0
 11
110.5274893051517
 21
298.6494047469521
 31
0.0
 11
110.4957849726786
 21
298.6774075533374
 31
0.0
 11
110.4708877872477
 21
298.7118544365294
 31
0.0
 11
110.4508717408062
 21
298.7556355732167
 31
0.0
 11
110.438188736977
 21
298.8021257615446
 31
0.0
 11
110.4303903275852
 21
298.8564326255638
 31
0.0
 11
110.4281116167
 21
298.9111867384
 31
0.0
  0
SPLINE
  5
111
330
1F
100
AcDbEntity
  8
0
  6
Continuous
 62
     7
100
AcDbSpline
210
0.0
220
0.0
230
1.0
 70
     8
 71
     3
 72
    11
 73
     7
 74
     5
 42
0.0000000001
 43
0.0000000001
 44
0.00000001
 40
0.0
 40
0.0
 40
0.0
 40
0.0
 40
0.0543309617979788
 40
0.1088117187036758
 40
0.1632583665355234
 40
0.2176288252758252
 40
0.2176288252758252
 40
0.2176288252758252
 40
0.2176288252758252
 10
111.1880818228
 20
298.6883007715
 30
0.0
 10
111.1701758429167
 20
298.6912454330904
 30
0.0
 10
111.1343145148325
 20
298.6971428749551
 30
0.0
 10
111.0829710903556
 20
298.7159518887822
 30
0.0
 10
111.0342095845991
 20
298.740473605334
 30
0.0
 10
111.0044270744524
 20
298.7612525347511
 30
0.0
 10
110.9895462456
 20
298.7716347252
 30
0.0
 11
111.1880818228
 21
298.6883007715
 31
0.0
 11
111.1347729869875
 21
298.6987898817675
 31
0.0
 11
111.0833932712481
 21
298.7169083166768
 31
0.0
 11
111.0348654802005
 21
298.7415961873053
 31
0.0
 11
110.9895462456
 21
298.7716347252
 31
0.0
  0
SPLINE
  5
112
330
1F
100
AcDbEntity
  8
0
  6
Continuous
 62
     7
100
AcDbSpline
210
0.0
220
0.0
230
1.0
 70
     8
 71
     3
 72
    15
 73
    11
 74
     9
 42
0.0000000001
 43
0.0000000001
 44
0.00000001
 40
0.0
 40
0.0
 40
0.0
 40
0.0
 40
0.0373413955961511
 40
0.0747477270079046
 40
0.108566083810471
 40
0.1423474448016312
 40
0.1732055488277006
 40
0.2040723661708847
 40
0.233359081910189
 40
0.2625565342832004
 40
0.2625565342832004
 40
0.2625565342832004
 40
0.2625565342832004
 10
145.445860144
 20
308.88763303
 30
0.0
 10
145.4342155982005
 20
308.8920841074756
 30
0.0
 10
145.410906257008
 20
308.9009940027469
 30
0.0
 10
145.3797235035288
 20
308.9197301660625
 30
0.0
 10
145.3523728526777
 20
308.9417259751343
 30
0.0
 10
145.3301144820704
 20
308.9660359383997
 30
0.0
 10
145.3124344842859
 20
308.9926724510033
 30
0.0
 10
145.2999517600339
 20
309.0204459076915
 30
0.0
 10
145.2921096595596
 20
309.049398188058
 30
0.0
 10
145.2911104559642
 20
309.0689138045345
 30
0.0
 10
145.2906116167
 20
309.0786567196
 30
0.0
 11
145.445860144
 21
308.88763303
 31
0.0
 11
145.4113857131182
 21
308.9019820174364
 31
0.0
 11
145.3792185894594
 21
308.9210741567928
 31
0.0
 11
145.3529451644168
 21
308.9423670756476
 31
0.0
 11
145.3301765997549
 21
308.9673224921668
 31
0.0
 11
145.3131760231441
 21
308.9930752197696
 31
0.0
 11
145.3005172862347
 21
309.0212268945467
 31
0.0
 11
145.2931384316489
 21
309.0495688109215
 31
0.0
 11
145.2906116167
 21
309.0786567196
 31
0.0
  0
SPLINE
  5
113
330
1F
100
AcDbEntity
  8
0
  6
Continuous
 62
     7
100
AcDbSpline
210
0.0
220
0.0
230
1.0
 70
     8
 71
     3
 72
    15
 73
    11
 74
     9
 42
0.0000000001
 43
0.0000000001
 44
0.00000001
 40
0.0
 40
0.0
 40
0.0
 40
0.0
 40
0.0291971572004881
 40
0.0584835574206404
 40
0.0893488988897286
 40
0.12020554695859
 40
0.1539855679934911
 40
0.1878025723997422
 40
0.2252119881709941
 40
0.2625564687771401
 40
0.2625564687771401
 40
0.2625564687771401
 40
0.2625564687771401
 10
145.2906116167
 20
300.4676093404
 30
0.0
 10
145.2911104330615
 20
300.4773521568221
 30
0.0
 10
145.2921095904492
 20
300.4968675692217
 30
0.0
 10
145.2999513772722
 20
300.5258192109612
 30
0.0
 10
145.3124335786759
 20
300.5535917076063
 30
0.0
 10
145.3301125319849
 20
300.5802271763558
 30
0.0
 10
145.3523694603593
 20
300.6045365565631
 30
0.0
 10
145.3797196228572
 20
300.6265331654542
 30
0.0
 10
145.4109034111568
 20
300.6452708215585
 30
0.0
 10
145.434214649508
 20
300.6541815406259
 30
0.0
 10
145.445860144
 20
300.65863303
 30
0.0
 11
145.2906116167
 21
300.4676093404
 31
0.0
 11
145.2931383404909
 21
300.496696960713
 31
0.0
 11
145.3005170221123
 21
300.5250385960819
 31
0.0
 11
145.3131750512981
 21
300.5531889708776
 31
0.0
 11
145.3301745687858
 21
300.5789406530601
 31
0.0
 11
145.3529417437281
 21
300.6038955236522
 31
0.0
 11
145.3792135672616
 21
300.6251882706622
 31
0.0
 11
145.4113829582759
 21
300.6442826329223
 31
0.0
 11
145.445860144
 21
300.65863303
 31
0.0
  0
SPLINE
  5
114
330
1F
100
AcDbEntity
  8
0
  6
Continuous
 62
     7
100
AcDbSpline
210
0.0
220
0.0
230
1.0
 70
     8
 71
     3
 72
    15
 73
    11
 74
     9
 42
0.0000000001
 43
0.0000000001
 44
0.00000001
 40
0.0
 40
0.0
 40
0.0
 40
0.0
 40
0.037344131968801
 40
0.074753139722632
 40
0.108574103361839
 40
0.1423582381042361
 40
0.1732178197982245
 40
0.204085864030639
 40
0.2333658259114653
 40
0.2625567184336102
 40
0.2625567184336102
 40
0.2625567184336102
 40
0.2625567184336102
 10
147.2103630894
 20
300.65863303
 30
0.0
 10
147.2220084862508
 20
300.6541816148929
 30
0.0
 10
147.2453195108219
 20
300.6452710514948
 30
0.0
 10
147.2765043167153
 20
300.6265329883386
 30
0.0
 10
147.3038561271199
 20
300.6045342713501
 30
0.0
 10
147.3261148436359
 20
300.5802215399588
 30
0.0
 10
147.3437951304805
 20
300.5535830556454
 30
0.0
 10
147.3562761706535
 20
300.5258102078453
 30
0.0
 10
147.3641146811395
 20
300.4968612299349
 30
0.0
 10
147.3651131451706
 20
300.4773500630462
 30
0.0
 10
147.3656116167
 20
300.4676093404
 30
0.0
 11
147.2103630894
 21
300.65863303
 31
0.0
 11
147.2448399973889
 21
300.6442828729266
 31
0.0
 11
147.2770090759678
 21
300.6251887836709
 31
0.0
 11
147.3032836724889
 21
300.6038931700582
 31
0.0
 11
147.3260529939606
 21
300.578934689335
 31
0.0
 11
147.3430535254489
 21
300.5531801613556
 31
0.0
 11
147.355711333287
 21
300.5250267236353
 31
0.0
 11
147.3630864182986
 21
300.4966908049311
 31
0.0
 11
147.3656116167
 21
300.4676093404
 31
0.0
  0
SPLINE
  5
115
330
1F
100
AcDbEntity
  8
RUNDUNGEN
  6
Continuous
 62
     7
100
AcDbSpline
210
0.0
220
0.0
230
1.0
 70
     8
 71
     3
 72
    11
 73
     7
 74
     5
 42
0.0000000001
 43
0.0000000001
 44
0.00000001
 40
0.0
 40
0.0
 40
0.0
 40
0.0
 40
0.2840740418611735
 40
0.5685904708716445
 40
0.8564162982424351
 40
1.14334910523647
 40
1.14334910523647
 40
1.14334910523647
 40
1.14334910523647
 10
113.7208323131
 20
310.67813303
 30
0.0
 10
113.7642909418818
 20
310.5938895144136
 30
0.0
 10
113.8512758773605
 20
310.4252712912162
 30
0.0
 10
113.9471117704395
 20
310.1556932503144
 30
0.0
 10
114.0143598362945
 20
309.875908702434
 30
0.0
 10
114.023532440485
 20
309.6841537483314
 30
0.0
 10
114.0281116167
 20
309.5884252391
 30
0.0
 11
113.7208323131
 21
310.67813303
 31
0.0
 11
113.8453778499939
 21
310.4228166174858
 31
0.0
 11
113.9419832592468
 21
310.15520310273
 31
0.0
 11
114.0054496828751
 21
309.8744617271304
 31
0.0
 11
114.0281116167
 21
309.5884252391
 31
0.0
  0
SPLINE
  5
116
330
1F
100
AcDbEntity
  8
0
  6
Continuous
 62
     7
100
AcDbSpline
210
0.0
220
0.0
230
1.0
 70
     8
 71
     3
 72
    19
 73
    15
 74
    13
 42
0.0000000001
 43
0.0000000001
 44
0.00000001
 40
0.0
 40
0.0
 40
0.0
 40
0.0
 40
0.0580397028441715
 40
0.1162122440503944
 40
0.1743901949162011
 40
0.232420583838264
 40
0.2615164358699666
 40
0.2906047871072843
 40
0.319701940573803
 40
0.3487963879369913
 40
0.3779163313565255
 40
0.4070487870980734
 40
0.4362246475721089
 40
0.465325392850987
 40
0.465325392850987
 40
0.465325392850987
 40
0.465325392850987
 10
145.2906116167
 20
291.7263661891
 30
0.0
 10
145.2913172847712
 20
291.7457262265069
 30
0.0
 10
145.2927302360114
 20
291.7844906116036
 30
0.0
 10
145.3043060874904
 20
291.8417121264003
 30
0.0
 10
145.3229703006676
 20
291.8969207880718
 30
0.0
 10
145.3454324436102
 20
291.9401092715051
 30
0.0
 10
145.3675845944611
 20
291.971942376715
 30
0.0
 10
145.3864147899835
 20
291.9941844290527
 30
0.0
 10
145.4074442275911
 20
292.0143716901755
 30
0.0
 10
145.4306557124939
 20
292.0320404233635
 30
0.0
 10
145.4559327271595
 20
292.046678146994
 30
0.0
 10
145.4830199928826
 20
292.0576319766785
 30
0.0
 10
145.5114593008869
 20
292.0647375333872
 30
0.0
 10
145.5309025318313
 20
292.0656610211033
 30
0.0
 10
145.5406116167
 20
292.0661221698
 30
0.0
 11
145.2906116167
 21
291.7263661891
 31
0.0
 11
145.2943002977952
 21
291.7842885573011
 31
0.0
 11
145.3054880965673
 21
291.841375138115
 31
0.0
 11
145.3243711982227
 21
291.8964033348764
 31
0.0
 11
145.3512978377034
 21
291.9478084136598
 31
0.0
 11
145.3679516189779
 21
291.9716667491992
 31
0.0
 11
145.3867793638104
 21
291.9938398906597
 31
0.0
 11
145.4078072189928
 21
292.0139514208423
 31
0.0
 11
145.4309912261191
 21
292.0315294947111
 31
0.0
 11
145.4562265911412
 21
292.0460604085488
 31
0.0
 11
145.4832326780858
 21
292.0569861234211
 31
0.0
 11
145.5116046573852
 21
292.0637877133112
 31
0.0
 11
145.5406116167
 21
292.0661221698
 31
0.0
  0
SPLINE
  5
117
330
1F
100
AcDbEntity
  8
0
  6
Continuous
 62
     7
100
AcDbSpline
210
0.0
220
0.0
230
1.0
 70
     8
 71
     3
 72
    19
 73
    15
 74
    13
 42
0.0000000001
 43
0.0000000001
 44
0.00000001
 40
0.0
 40
0.0
 40
0.0
 40
0.0
 40
0.0290936469952274
 40
0.0582617352480337
 40
0.0873904531673379
 40
0.1165074751724498
 40
0.145604785472431
 40
0.1747042911530787
 40
0.2037980858459706
 40
0.2328996448817562
 40
0.2909367193209129
 40
0.3491211705980217
 40
0.4072902895454685
 40
0.4653266165057409
 40
0.4653266165057409
 40
0.4653266165057409
 40
0.4653266165057409
 10
147.1156116167
 20
292.0661221698
 30
0.0
 10
147.1253183310118
 20
292.0656618965814
 30
0.0
 10
147.1447565959863
 20
292.0647401724538
 30
0.0
 10
147.1731912450442
 20
292.057641532847
 30
0.0
 10
147.2002738874837
 20
292.0466883811936
 30
0.0
 10
147.2255488838017
 20
292.032050058091
 30
0.0
 10
147.248762768601
 20
292.0143834331965
 30
0.0
 10
147.2697976519682
 20
291.9941966447829
 30
0.0
 10
147.2886322920781
 20
291.9719523525438
 30
0.0
 10
147.3107885678469
 20
291.9401148374412
 30
0.0
 10
147.3332538852472
 20
291.8969208181876
 30
0.0
 10
147.3519184690122
 20
291.8417087814284
 30
0.0
 10
147.3634933248031
 20
291.784487213125
 30
0.0
 10
147.3649060575272
 20
291.7457250988382
 30
0.0
 10
147.3656116167
 20
291.7263661891
 30
0.0
 11
147.1156116167
 21
292.0661221698
 31
0.0
 11
147.1446117254701
 21
292.0637910784662
 31
0.0
 11
147.1729770654845
 21
292.0569951342205
 31
0.0
 11
147.1999796848533
 21
292.046070814798
 31
0.0
 11
147.2252122164452
 21
292.0315408347598
 31
0.0
 11
147.2484000554302
 21
292.0139630763731
 31
0.0
 11
147.2694320989474
 21
291.9938525225183
 31
0.0
 11
147.2882649793958
 21
291.9716766008092
 31
0.0
 11
147.3049226755278
 21
291.9478140381244
 31
0.0
 11
147.3318526921784
 21
291.8964031811713
 31
0.0
 11
147.350737238618
 21
291.8413686077088
 31
0.0
 11
147.3619234815129
 21
291.7842852093428
 31
0.0
 11
147.3656116167
 21
291.7263661891
 31
0.0
  0
SPLINE
  5
118
330
1F
100
AcDbEntity
  8
RUNDUNGEN
  6
Continuous
 62
     7
100
AcDbSpline
210
0.0
220
0.0
230
1.0
 70
     8
 71
     3
 72
    17
 73
    13
 74
    11
 42
0.0000000001
 43
0.0000000001
 44
0.00000001
 40
0.0
 40
0.0
 40
0.0
 40
0.0
 40
0.0498866572750476
 40
0.0998344446218672
 40
0.1492040595416611
 40
0.198568518297509
 40
0.2944064655831471
 40
0.3905515039720812
 40
0.4839722008355374
 40
0.5773295178143596
 40
0.669530345048294
 40
0.7616858721457228
 40
0.7616858721457228
 40
0.7616858721457228
 40
0.7616858721457228
 10
113.1281116167
 20
311.082152538
 30
0.0
 10
113.1447041720857
 20
311.0834906685974
 30
0.0
 10
113.1779096150292
 20
311.0861685695095
 30
0.0
 10
113.2277087711903
 20
311.0830532478797
 30
0.0
 10
113.2766530702777
 20
311.0747662690089
 30
0.0
 10
113.3391339815202
 20
311.0569130652866
 30
0.0
 10
113.4126261246486
 20
311.0229233394646
 30
0.0
 10
113.4912385653786
 20
310.9686940945424
 30
0.0
 10
113.5607024516623
 20
310.9045066893377
 30
0.0
 10
113.6211500389908
 20
310.8336452116861
 30
0.0
 10
113.6748904331811
 20
310.7580862632601
 30
0.0
 10
113.7055208619685
 20
310.7047797415849
 30
0.0
 10
113.7208323131
 20
310.67813303
 30
0.0
 11
113.1281116167
 21
311.082152538
 31
0.0
 11
113.177918208095
 21
311.084977786253
 31
0.0
 11
113.2277867660443
 21
311.0821656004672
 31
0.0
 11
113.2764555906496
 21
311.073876789402
 31
0.0
 11
113.3239316374639
 21
311.0603536696755
 31
0.0
 11
113.4111420916953
 21
311.0206139060541
 31
0.0
 11
113.4905299267165
 21
310.9663788615031
 31
0.0
 11
113.5593700678416
 21
310.9032245934578
 31
0.0
 11
113.6203125998167
 21
310.8325026277757
 31
0.0
 11
113.673637483455
 21
310.7572866100163
 31
0.0
 11
113.7208323131
 21
310.67813303
 31
0.0
  0
SPLINE
  5
119
330
1F
100
AcDbEntity
  8
0
  6
Continuous
 62
     7
100
AcDbSpline
210
0.0
220
0.0
230
1.0
 70
     8
 71
     3
 72
    11
 73
     7
 74
     5
 42
0.0000000001
 43
0.0000000001
 44
0.00000001
 40
0.0
 40
0.0
 40
0.0
 40
0.0
 40
0.3498700338310067
 40
0.6997119068324278
 40
0.9156479955399517
 40
1.131263567935234
 40
1.131263567935234
 40
1.131263567935234
 40
1.131263567935234
 10
111.0444297672
 20
298.86813303
 30
0.0
 10
111.0992693411297
 20
298.9712164234371
 30
0.0
 10
111.2089440749846
 20
299.1773749131905
 30
0.0
 10
111.310012523309
 20
299.4665866818861
 30
0.0
 10
111.3676831094278
 20
299.7215189757911
 30
0.0
 10
111.3746371692182
 20
299.8654654205936
 30
0.0
 10
111.3781116167
 20
299.937385188
 30
0.0
 11
111.0444297672
 21
298.86813303
 31
0.0
 11
111.2008375542421
 21
299.181095719031
 31
0.0
 11
111.3168811484486
 21
299.5111308995024
 31
0.0
 11
111.3614733861858
 21
299.7224125284716
 31
0.0
 11
111.3781116167
 21
299.937385188
 31
0.0
  0
SPLINE
  5
11A
330
1F
100
AcDbEntity
  8
0
  6
Continuous
 62
     7
100
AcDbSpline
210
0.0
220
0.0
230
1.0
 70
     8
 71
     3
 72
    11
 73
     7
 74
     5
 42
0.0000000001
 43
0.0000000001
 44
0.00000001
 40
0.0
 40
0.0
 40
0.0
 40
0.0
 40
0.3030455532287847
 40
0.6062117027754894
 40
0.868723993182519
 40
1.131137294180689
 40
1.131137294180689
 40
1.131137294180689
 40
1.131137294180689
 10
111.3781116167
 20
309.608880872
 30
0.0
 10
111.3712759696193
 20
309.7099690765022
 30
0.0
 10
111.357601955227
 20
309.9121857133375
 30
0.0
 10
111.2732772562912
 20
310.1911225090284
 30
0.0
 10
111.1694654269514
 20
310.44712854895
 30
0.0
 10
111.0861030803494
 20
310.6011412174494
 30
0.0
 10
111.0444297672
 20
310.67813303
 30
0.0
 11
111.3781116167
 21
309.608880872
 31
0.0
 11
111.3463168370402
 21
309.9102538955408
 31
0.0
 11
111.2647337437145
 21
310.2022366229655
 31
0.0
 11
111.165062299598
 21
310.445091118173
 31
0.0
 11
111.0444297672
 21
310.67813303
 31
0.0
  0
DIMENSION
  5
127
330
1F
100
AcDbEntity
  8
1
100
AcDbDimension
  2
*D2
 10
201.222850328103
 20
308.77313303
 30
0.0
 11
197.472850328103
 21
305.009098686547
 31
0.0
 70
    32
  1
<>
 71
     5
 42
-1.0
 53
90.0
  3
ME10_DIM_10
100
AcDbAlignedDimension
 13
190.3281116167
 23
300.77313303
 33
0.0
 14
190.3281116167
 24
308.77313303
 34
0.0
 50
90.0
100
AcDbRotatedDimension
  0
DIMENSION
  5
132
330
1F
100
AcDbEntity
  8
1
100
AcDbDimension
  2
*D3
 10
211.167247173866
 20
318.77313303
 30
0.0
 11
207.417247173866
 21
305.089295435303
 31
0.0
 70
    32
  1
<>
 71
     5
 42
-1.0
 53
90.0
  3
ME10_DIM_11
100
AcDbAlignedDimension
 13
181.528389272
 23
290.77313303
 33
0.0
 14
181.528389272
 24
318.77313303
 34
0.0
 50
90.0
100
AcDbRotatedDimension
  0
DIMENSION
  5
13D
330
1F
100
AcDbEntity
  8
1
100
AcDbDimension
  2
*D4
 10
190.3281116167
 20
334.601698977568
 30
0.0
 11
169.384741071909
 21
338.351698977568
 31
0.0
 70
    32
  1
<>
 71
     5
 42
-1.0
 53
0.00013888888889
  3
ME10_DIM_12
100
AcDbAlignedDimension
 13
150.2781116167
 23
324.7730906912
 33
0.0
 14
190.3281116167
 24
314.1360627692
 34
0.0
100
AcDbRotatedDimension
  0
DIMENSION
  5
148
330
1F
100
AcDbEntity
  8
1
100
AcDbDimension
  2
*D5
 10
190.3281116167
 20
342.942160848209
 30
0.0
 11
160.643295457488
 21
346.692160848209
 31
0.0
 70
    32
  1
<>
 71
     5
 42
-1.0
 53
0.00013888888889
  3
ME10_DIM_13
100
AcDbAlignedDimension
 13
130.3281116167
 23
324.77313303
 33
0.0
 14
190.3281116167
 24
314.1360627692
 34
0.0
100
AcDbRotatedDimension
  0
DIMENSION
  5
153
330
1F
100
AcDbEntity
  8
1
100
AcDbDimension
  2
*D6
 10
190.3281116167
 20
350.480655231287
 30
0.0
 11
153.265194571921
 21
354.230655231287
 31
0.0
 70
    32
  1
<>
 71
     5
 42
-1.0
 53
0.00013888888889
  3
ME10_DIM_14
100
AcDbAlignedDimension
 13
110.4281116167
 23
318.2191196545
 33
0.0
 14
190.3281116167
 24
314.1360627692
 34
0.0
100
AcDbRotatedDimension
  0
INSERT
  5
15A
330
1F
100
AcDbEntity
  8
1
100
AcDbBlockReference
  2
*D7
 10
0.0
 20
0.0
 30
0.0
  0
ENDSEC
  0
SECTION
  2
OBJECTS
  0
DICTIONARY
  5
C
330
0
100
AcDbDictionary
281
     1
  3
ACAD_GROUP
350
D
  3
ACAD_LAYOUT
350
1A
  3
ACAD_MLEADERSTYLE
350
15D
  3
ACAD_MLINESTYLE
350
17
  3
ACAD_PLOTSETTINGS
350
19
  3
ACAD_PLOTSTYLENAME
350
E
  3
ACAD_SCALELIST
350
4B
  3
ACAD_VISUALSTYLE
350
2A
  3
AcDbVariableDictionary
350
15B
  0
DICTIONARY
  5
D
102
{ACAD_REACTORS
330
C
102
}
330
C
100
AcDbDictionary
281
     1
  0
DICTIONARY
  5
1A
102
{ACAD_REACTORS
330
C
102
}
330
C
100
AcDbDictionary
281
     1
  3
Layout1
350
1E
  3
Layout2
350
26
  3
Model
350
22
  0
DICTIONARY
  5
15D
102
{ACAD_REACTORS
330
C
102
}
330
C
100
AcDbDictionary
281
     1
  0
DICTIONARY
  5
17
102
{ACAD_REACTORS
330
C
102
}
330
C
100
AcDbDictionary
281
     1
  3
Standard
350
18
  0
DICTIONARY
  5
19
102
{ACAD_REACTORS
330
C
102
}
330
C
100
AcDbDictionary
281
     1
  0
ACDBDICTIONARYWDFLT
  5
E
102
{ACAD_REACTORS
330
C
102
}
330
C
100
AcDbDictionary
281
     1
  3
Normal
350
F
100
AcDbDictionaryWithDefault
340
F
  0
DICTIONARY
  5
4B
102
{ACAD_REACTORS
330
C
102
}
330
C
100
AcDbDictionary
281
     1
  3
A0
350
4C
  3
A1
350
4D
  3
A2
350
4E
  3
A3
350
4F
  3
A4
350
50
  3
A5
350
51
  3
A6
350
52
  3
A7
350
53
  3
A8
350
54
  3
A9
350
55
  3
B0
350
56
  3
B1
350
57
  3
B2
350
58
  3
B3
350
59
  3
B4
350
5A
  3
B5
350
5B
  3
B6
350
5C
  3
B7
350
5D
  3
B8
350
5E
  3
B9
350
5F
  3
C0
350
60
  3
C1
350
61
  3
C2
350
62
  3
C3
350
63
  3
C4
350
64
  3
C5
350
65
  3
C6
350
66
  3
C7
350
67
  3
C8
350
68
  3
C9
350
69
  3
D0
350
6A
  3
D1
350
6B
  3
D2
350
6C
  0
DICTIONARY
  5
2A
102
{ACAD_REACTORS
330
C
102
}
330
C
100
AcDbDictionary
281
     1
  3
2dWireframe
350
2F
  3
3D Hidden
350
31
  3
3dWireframe
350
30
  3
Basic
350
32
  3
Brighten
350
36
  3
ColorChange
350
3A
  3
Conceptual
350
34
  3
Dim
350
35
  3
Facepattern
350
39
  3
Flat
350
2B
  3
FlatWithEdges
350
2C
  3
Gouraud
350
2D
  3
GouraudWithEdges
350
2E
  3
Linepattern
350
38
  3
Realistic
350
33
  3
Thicken
350
37
  0
DICTIONARY
  5
15B
102
{ACAD_REACTORS
330
C
102
}
330
C
100
AcDbDictionary
281
     1
  3
CANNOSCALE
350
15E
  0
LAYOUT
  5
1E
102
{ACAD_REACTORS
330
1A
102
}
330
1A
100
AcDbPlotSettings
  1

  2
none_device
  4

  6

 40
0.0
 41
0.0
 42
0.0
 43
0.0
 44
0.0
 45
0.0
 46
0.0
 47
0.0
 48
0.0
 49
0.0
140
0.0
141
0.0
142
1.0
143
1.0
 70
   688
 72
     0
 73
     0
 74
     5
  7

 75
    16
147
1.0
148
0.0
149
0.0
100
AcDbLayout
  1
Layout1
 70
     1
 71
     1
 10
0.0
 20
0.0
 11
12.0
 21
9.0
 12
0.0
 22
0.0
 32
0.0
 14
1.00000000000000E+20
 24
1.00000000000000E+20
 34
1.00000000000000E+20
 15
-1.00000000000000E+20
 25
-1.00000000000000E+20
 35
-1.00000000000000E+20
146
0.0
 13
0.0
 23
0.0
 33
0.0
 16
1.0
 26
0.0
 36
0.0
 17
0.0
 27
1.0
 37
0.0
 76
     0
330
1B
  0
LAYOUT
  5
26
102
{ACAD_REACTORS
330
1A
102
}
330
1A
100
AcDbPlotSettings
  1

  2
none_device
  4

  6

 40
0.0
 41
0.0
 42
0.0
 43
0.0
 44
0.0
 45
0.0
 46
0.0
 47
0.0
 48
0.0
 49
0.0
140
0.0
141
0.0
142
1.0
143
1.0
 70
   688
 72
     0
 73
     0
 74
     5
  7

 75
    16
147
1.0
148
0.0
149
0.0
100
AcDbLayout
  1
Layout2
 70
     1
 71
     2
 10
0.0
 20
0.0
 11
0.0
 21
0.0
 12
0.0
 22
0.0
 32
0.0
 14
0.0
 24
0.0
 34
0.0
 15
0.0
 25
0.0
 35
0.0
146
0.0
 13
0.0
 23
0.0
 33
0.0
 16
1.0
 26
0.0
 36
0.0
 17
0.0
 27
1.0
 37
0.0
 76
     0
330
23
  0
LAYOUT
  5
22
102
{ACAD_REACTORS
330
1A
102
}
330
1A
100
AcDbPlotSettings
  1

  2
none_device
  4

  6

 40
0.0
 41
0.0
 42
0.0
 43
0.0
 44
0.0
 45
0.0
 46
0.0
 47
0.0
 48
0.0
 49
0.0
140
0.0
141
0.0
142
1.0
143
1.0
 70
  1712
 72
     0
 73
     0
 74
     0
  7

 75
     0
147
1.0
148
0.0
149
0.0
100
AcDbLayout
  1
Model
 70
     1
 71
     0
 10
0.0
 20
0.0
 11
12.0
 21
9.0
 12
0.0
 22
0.0
 32
0.0
 14
106.3020044715768
 24
267.4217102536167
 34
0.0
 15
215.071391388883
 25
355.980655231287
 35
0.0
146
0.0
 13
0.0
 23
0.0
 33
0.0
 16
1.0
 26
0.0
 36
0.0
 17
0.0
 27
1.0
 37
0.0
 76
     0
330
1F
331
29
  0
MLINESTYLE
  5
18
102
{ACAD_REACTORS
330
17
102
}
330
17
100
AcDbMlineStyle
  2
Standard
 70
     0
  3

 62
   256
 51
90.0
 52
90.0
 71
     2
 49
0.5
 62
   256
  6
BYLAYER
 49
-0.5
 62
   256
  6
BYLAYER
  0
ACDBPLACEHOLDER
  5
F
102
{ACAD_REACTORS
330
E
102
}
330
E
  0
SCALE
  5
4C
102
{ACAD_REACTORS
330
4B
102
}
330
4B
100
AcDbScale
 70
     0
300
1:1
140
1.0
141
1.0
290
     1
  0
SCALE
  5
4D
102
{ACAD_REACTORS
330
4B
102
}
330
4B
100
AcDbScale
 70
     0
300
1:2
140
1.0
141
2.0
290
     0
  0
SCALE
  5
4E
102
{ACAD_REACTORS
330
4B
102
}
330
4B
100
AcDbScale
 70
     0
300
1:4
140
1.0
141
4.0
290
     0
  0
SCALE
  5
4F
102
{ACAD_REACTORS
330
4B
102
}
330
4B
100
AcDbScale
 70
     0
300
1:5
140
1.0
141
5.0
290
     0
  0
SCALE
  5
50
102
{ACAD_REACTORS
330
4B
102
}
330
4B
100
AcDbScale
 70
     0
300
1:8
140
1.0
141
8.0
290
     0
  0
SCALE
  5
51
102
{ACAD_REACTORS
330
4B
102
}
330
4B
100
AcDbScale
 70
     0
300
1:10
140
1.0
141
10.0
290
     0
  0
SCALE
  5
52
102
{ACAD_REACTORS
330
4B
102
}
330
4B
100
AcDbScale
 70
     0
300
1:16
140
1.0
141
16.0
290
     0
  0
SCALE
  5
53
102
{ACAD_REACTORS
330
4B
102
}
330
4B
100
AcDbScale
 70
     0
300
1:20
140
1.0
141
20.0
290
     0
  0
SCALE
  5
54
102
{ACAD_REACTORS
330
4B
102
}
330
4B
100
AcDbScale
 70
     0
300
1:30
140
1.0
141
30.0
290
     0
  0
SCALE
  5
55
102
{ACAD_REACTORS
330
4B
102
}
330
4B
100
AcDbScale
 70
     0
300
1:40
140
1.0
141
40.0
290
     0
  0
SCALE
  5
56
102
{ACAD_REACTORS
330
4B
102
}
330
4B
100
AcDbScale
 70
     0
300
1:50
140
1.0
141
50.0
290
     0
  0
SCALE
  5
57
102
{ACAD_REACTORS
330
4B
102
}
330
4B
100
AcDbScale
 70
     0
300
1:100
140
1.0
141
100.0
290
     0
  0
SCALE
  5
58
102
{ACAD_REACTORS
330
4B
102
}
330
4B
100
AcDbScale
 70
     0
300
2:1
140
2.0
141
1.0
290
     0
  0
SCALE
  5
59
102
{ACAD_REACTORS
330
4B
102
}
330
4B
100
AcDbScale
 70
     0
300
4:1
140
4.0
141
1.0
290
     0
  0
SCALE
  5
5A
102
{ACAD_REACTORS
330
4B
102
}
330
4B
100
AcDbScale
 70
     0
300
8:1
140
8.0
141
1.0
290
     0
  0
SCALE
  5
5B
102
{ACAD_REACTORS
330
4B
102
}
330
4B
100
AcDbScale
 70
     0
300
10:1
140
10.0
141
1.0
290
     0
  0
SCALE
  5
5C
102
{ACAD_REACTORS
330
4B
102
}
330
4B
100
AcDbScale
 70
     0
300
100:1
140
100.0
141
1.0
290
     0
  0
SCALE
  5
5D
102
{ACAD_REACTORS
330
4B
102
}
330
4B
100
AcDbScale
 70
     0
300
1/128" = 1'-0"
140
0.0078125
141
12.0
290
     0
  0
SCALE
  5
5E
102
{ACAD_REACTORS
330
4B
102
}
330
4B
100
AcDbScale
 70
     0
300
1/64" = 1'-0"
140
0.015625
141
12.0
290
     0
  0
SCALE
  5
5F
102
{ACAD_REACTORS
330
4B
102
}
330
4B
100
AcDbScale
 70
     0
300
1/32" = 1'-0"
140
0.03125
141
12.0
290
     0
  0
SCALE
  5
60
102
{ACAD_REACTORS
330
4B
102
}
330
4B
100
AcDbScale
 70
     0
300
1/16" = 1'-0"
140
0.0625
141
12.0
290
     0
  0
SCALE
  5
61
102
{ACAD_REACTORS
330
4B
102
}
330
4B
100
AcDbScale
 70
     0
300
3/32" = 1'-0"
140
0.09375
141
12.0
290
     0
  0
SCALE
  5
62
102
{ACAD_REACTORS
330
4B
102
}
330
4B
100
AcDbScale
 70
     0
300
1/8" = 1'-0"
140
0.125
141
12.0
290
     0
  0
SCALE
  5
63
102
{ACAD_REACTORS
330
4B
102
}
330
4B
100
AcDbScale
 70
     0
300
3/16" = 1'-0"
140
0.1875
141
12.0
290
     0
  0
SCALE
  5
64
102
{ACAD_REACTORS
330
4B
102
}
330
4B
100
AcDbScale
 70
     0
300
1/4" = 1'-0"
140
0.25
141
12.0
290
     0
  0
SCALE
  5
65
102
{ACAD_REACTORS
330
4B
102
}
330
4B
100
AcDbScale
 70
     0
300
3/8" = 1'-0"
140
0.375
141
12.0
290
     0
  0
SCALE
  5
66
102
{ACAD_REACTORS
330
4B
102
}
330
4B
100
AcDbScale
 70
     0
300
1/2" = 1'-0"
140
0.5
141
12.0
290
     0
  0
SCALE
  5
67
102
{ACAD_REACTORS
330
4B
102
}
330
4B
100
AcDbScale
 70
     0
300
3/4" = 1'-0"
140
0.75
141
12.0
290
     0
  0
SCALE
  5
68
102
{ACAD_REACTORS
330
4B
102
}
330
4B
100
AcDbScale
 70
     0
300
1" = 1'-0"
140
1.0
141
12.0
290
     0
  0
SCALE
  5
69
102
{ACAD_REACTORS
330
4B
102
}
330
4B
100
AcDbScale
 70
     0
300
1-1/2" = 1'-0"
140
1.5
141
12.0
290
     0
  0
SCALE
  5
6A
102
{ACAD_REACTORS
330
4B
102
}
330
4B
100
AcDbScale
 70
     0
300
3" = 1'-0"
140
3.0
141
12.0
290
     0
  0
SCALE
  5
6B
102
{ACAD_REACTORS
330
4B
102
}
330
4B
100
AcDbScale
 70
     0
300
6" = 1'-0"
140
6.0
141
12.0
290
     0
  0
SCALE
  5
6C
102
{ACAD_REACTORS
330
4B
102
}
330
4B
100
AcDbScale
 70
     0
300
1'-0" = 1'-0"
140
12.0
141
12.0
290
     0
  0
VISUALSTYLE
  5
2F
102
{ACAD_REACTORS
330
2A
102
}
330
2A
100
AcDbVisualStyle
  2
2dWireframe
 70
     4
 71
     0
 72
     2
 73
     0
 90
        0
 40
-0.6
 41
-30.0
 62
     5
 63
     7
 74
     1
 91
        4
 64
     7
 65
   257
 75
     1
175
     1
 42
1.0
 92
        0
 66
   257
 43
1.0
 76
     1
 77
     6
 78
     2
 67
     7
 79
     5
170
     0
171
     0
290
     0
174
     0
 93
        1
 44
0.0
173
     0
291
     0
 45
0.0
1001
ACAD
1000
AcDbSavedByObjectVersion
1070
     0
  0
VISUALSTYLE
  5
31
102
{ACAD_REACTORS
330
2A
102
}
330
2A
100
AcDbVisualStyle
  2
3D Hidden
 70
     6
 71
     1
 72
     2
 73
     2
 90
        0
 40
-0.6
 41
-30.0
 62
     5
 63
     7
 74
     2
 91
        2
 64
     7
 65
   257
 75
     2
175
     1
 42
40.0
 92
        0
 66
   257
 43
1.0
 76
     1
 77
     6
 78
     2
 67
     7
 79
     3
170
     0
171
     0
290
     0
174
     0
 93
        1
 44
0.0
173
     0
291
     0
 45
0.0
1001
ACAD
1000
AcDbSavedByObjectVersion
1070
     0
  0
VISUALSTYLE
  5
30
102
{ACAD_REACTORS
330
2A
102
}
330
2A
100
AcDbVisualStyle
  2
3dWireframe
 70
     5
 71
     0
 72
     2
 73
     0
 90
        0
 40
-0.6
 41
-30.0
 62
     5
 63
     7
 74
     1
 91
        4
 64
     7
 65
   257
 75
     1
175
     1
 42
1.0
 92
        0
 66
   257
 43
1.0
 76
     1
 77
     6
 78
     2
 67
     7
 79
     5
170
     0
171
     0
290
     0
174
     0
 93
        1
 44
0.0
173
     0
291
     0
 45
0.0
1001
ACAD
1000
AcDbSavedByObjectVersion
1070
     0
  0
VISUALSTYLE
  5
32
102
{ACAD_REACTORS
330
2A
102
}
330
2A
100
AcDbVisualStyle
  2
Basic
 70
     7
 71
     1
 72
     0
 73
     1
 90
        0
 40
-0.6
 41
-30.0
 62
     5
 63
     7
 74
     0
 91
        4
 64
     7
 65
   257
 75
     1
175
     1
 42
1.0
 92
        8
 66
     7
 43
1.0
 76
     1
 77
     6
 78
     2
 67
     7
 79
     5
170
     0
171
     0
290
     0
174
     0
 93
        1
 44
0.0
173
     0
291
     1
 45
0.0
1001
ACAD
1000
AcDbSavedByObjectVersion
1070
     0
  0
VISUALSTYLE
  5
36
102
{ACAD_REACTORS
330
2A
102
}
330
2A
100
AcDbVisualStyle
  2
Brighten
 70
    12
 71
     2
 72
     2
 73
     0
 90
        0
 40
-0.6
 41
-30.0
 62
     5
 63
     7
 74
     1
 91
        4
 64
     7
 65
   257
 75
     1
175
     1
 42
1.0
 92
        8
 66
     7
 43
1.0
 76
     1
 77
     6
 78
     2
 67
     7
 79
     5
170
     0
171
     0
290
     0
174
     0
 93
        1
 44
50.0
173
     0
291
     1
 45
0.0
1001
ACAD
1000
AcDbSavedByObjectVersion
1070
     0
  0
VISUALSTYLE
  5
3A
102
{ACAD_REACTORS
330
2A
102
}
330
2A
100
AcDbVisualStyle
  2
ColorChange
 70
    16
 71
     2
 72
     2
 73
     3
 90
        0
 40
-0.6
 41
-30.0
 62
     5
 63
     8
 74
     1
 91
        4
 64
     7
 65
   257
 75
     1
175
     1
 42
1.0
 92
        8
 66
     8
 43
1.0
 76
     1
 77
     6
 78
     2
 67
     7
 79
     5
170
     0
171
     0
290
     0
174
     0
 93
        1
 44
0.0
173
     0
291
     1
 45
0.0
1001
ACAD
1000
AcDbSavedByObjectVersion
1070
     0
  0
VISUALSTYLE
  5
34
102
{ACAD_REACTORS
330
2A
102
}
330
2A
100
AcDbVisualStyle
  2
Conceptual
 70
     9
 71
     3
 72
     2
 73
     0
 90
        0
 40
-0.6
 41
-30.0
 62
     5
 63
     7
 74
     2
 91
        2
 64
     7
 65
   257
 75
     1
175
     1
 42
40.0
 92
        8
 66
     7
 43
1.0
 76
     1
 77
     6
 78
     2
 67
     7
 79
     3
170
     0
171
     0
290
     0
174
     0
 93
        1
 44
0.0
173
     0
291
     0
 45
0.0
1001
ACAD
1000
AcDbSavedByObjectVersion
1070
     0
  0
VISUALSTYLE
  5
35
102
{ACAD_REACTORS
330
2A
102
}
330
2A
100
AcDbVisualStyle
  2
Dim
 70
    11
 71
     2
 72
     2
 73
     0
 90
        0
 40
-0.6
 41
-30.0
 62
     5
 63
     7
 74
     1
 91
        4
 64
     7
 65
   257
 75
     1
175
     1
 42
1.0
 92
        8
 66
     7
 43
1.0
 76
     1
 77
     6
 78
     2
 67
     7
 79
     5
170
     0
171
     0
290
     0
174
     0
 93
        1
 44
-50.0
173
     0
291
     1
 45
0.0
1001
ACAD
1000
AcDbSavedByObjectVersion
1070
     0
  0
VISUALSTYLE
  5
39
102
{ACAD_REACTORS
330
2A
102
}
330
2A
100
AcDbVisualStyle
  2
Facepattern
 70
    15
 71
     2
 72
     2
 73
     0
 90
        0
 40
-0.6
 41
-30.0
 62
     5
 63
     7
 74
     1
 91
        4
 64
     7
 65
   257
 75
     1
175
     1
 42
1.0
 92
        8
 66
     7
 43
1.0
 76
     1
 77
     6
 78
     2
 67
     7
 79
     5
170
     0
171
     0
290
     0
174
     0
 93
        1
 44
0.0
173
     0
291
     1
 45
0.0
1001
ACAD
1000
AcDbSavedByObjectVersion
1070
     0
  0
VISUALSTYLE
  5
2B
102
{ACAD_REACTORS
330
2A
102
}
330
2A
100
AcDbVisualStyle
  2
Flat
 70
     0
 71
     2
 72
     1
 73
     1
 90
        2
 40
-0.6
 41
30.0
 62
     5
 63
     7
 74
     0
 91
        4
 64
     7
 65
   257
 75
     1
175
     1
 42
1.0
 92
        8
 66
     7
 43
1.0
 76
     1
 77
     6
 78
     2
 67
     7
 79
     5
170
     0
171
     0
290
     0
174
     0
 93
       13
 44
0.0
173
     0
291
     1
 45
0.0
1001
ACAD
1000
AcDbSavedByObjectVersion
1070
     0
  0
VISUALSTYLE
  5
2C
102
{ACAD_REACTORS
330
2A
102
}
330
2A
100
AcDbVisualStyle
  2
FlatWithEdges
 70
     1
 71
     2
 72
     1
 73
     1
 90
        2
 40
-0.6
 41
30.0
 62
     5
 63
     7
 74
     1
 91
        4
 64
     7
 65
   257
 75
     1
175
     1
 42
1.0
 92
        0
 66
   257
 43
1.0
 76
     1
 77
     6
 78
     2
 67
     7
 79
     5
170
     0
171
     0
290
     0
174
     0
 93
       13
 44
0.0
173
     0
291
     1
 45
0.0
1001
ACAD
1000
AcDbSavedByObjectVersion
1070
     0
  0
VISUALSTYLE
  5
2D
102
{ACAD_REACTORS
330
2A
102
}
330
2A
100
AcDbVisualStyle
  2
Gouraud
 70
     2
 71
     2
 72
     2
 73
     1
 90
        2
 40
-0.6
 41
30.0
 62
     5
 63
     7
 74
     0
 91
        4
 64
     7
 65
   257
 75
     1
175
     1
 42
1.0
 92
        0
 66
     7
 43
1.0
 76
     1
 77
     6
 78
     2
 67
     7
 79
     5
170
     0
171
     0
290
     0
174
     0
 93
       13
 44
0.0
173
     0
291
     1
 45
0.0
1001
ACAD
1000
AcDbSavedByObjectVersion
1070
     0
  0
VISUALSTYLE
  5
2E
102
{ACAD_REACTORS
330
2A
102
}
330
2A
100
AcDbVisualStyle
  2
GouraudWithEdges
 70
     3
 71
     2
 72
     2
 73
     1
 90
        2
 40
-0.6
 41
30.0
 62
     5
 63
     7
 74
     1
 91
        4
 64
     7
 65
   257
 75
     1
175
     1
 42
1.0
 92
        0
 66
   257
 43
1.0
 76
     1
 77
     6
 78
     2
 67
     7
 79
     5
170
     0
171
     0
290
     0
174
     0
 93
       13
 44
0.0
173
     0
291
     1
 45
0.0
1001
ACAD
1000
AcDbSavedByObjectVersion
1070
     0
  0
VISUALSTYLE
  5
38
102
{ACAD_REACTORS
330
2A
102
}
330
2A
100
AcDbVisualStyle
  2
Linepattern
 70
    14
 71
     2
 72
     2
 73
     0
 90
        0
 40
-0.6
 41
-30.0
 62
     5
 63
     7
 74
     1
 91
        4
 64
     7
 65
   257
 75
     7
175
     7
 42
1.0
 92
        8
 66
     7
 43
1.0
 76
     1
 77
     6
 78
     2
 67
     7
 79
     5
170
     0
171
     0
290
     0
174
     0
 93
        1
 44
0.0
173
     0
291
     1
 45
0.0
1001
ACAD
1000
AcDbSavedByObjectVersion
1070
     0
  0
VISUALSTYLE
  5
33
102
{ACAD_REACTORS
330
2A
102
}
330
2A
100
AcDbVisualStyle
  2
Realistic
 70
     8
 71
     2
 72
     2
 73
     0
 90
        0
 40
-0.6
 41
-30.0
 62
     5
 63
     7
 74
     1
 91
        0
 64
     7
 65
   257
 75
     1
175
     1
 42
1.0
 92
        8
 66
     8
 43
1.0
 76
     1
 77
     6
 78
     2
 67
     7
 79
     5
170
     0
171
     0
290
     0
174
     0
 93
       13
 44
0.0
173
     0
291
     0
 45
0.0
1001
ACAD
1000
AcDbSavedByObjectVersion
1070
     0
  0
VISUALSTYLE
  5
37
102
{ACAD_REACTORS
330
2A
102
}
330
2A
100
AcDbVisualStyle
  2
Thicken
 70
    13
 71
     2
 72
     2
 73
     0
 90
        0
 40
-0.6
 41
-30.0
 62
     5
 63
     7
 74
     1
 91
        4
 64
     7
 65
   257
 75
     1
175
     1
 42
1.0
 92
       12
 66
     7
 43
1.0
 76
     1
 77
     6
 78
     2
 67
     7
 79
     5
170
     0
171
     0
290
     0
174
     0
 93
        1
 44
0.0
173
     0
291
     1
 45
0.0
1001
ACAD
1000
AcDbSavedByObjectVersion
1070
     0
  0
DICTIONARYVAR
  5
15E
102
{ACAD_REACTORS
330
15B
102
}
330
15B
100
DictionaryVariables
280
     0
  1
1:1
  0
ENDSEC
  0
EOF
