  0
SECTION
  2
HEADER
  9
$ACADVER
  1
AC1015
  9
$ACADMAINTVER
 70
     6
  9
$DWGCODEPAGE
  3
ANSI_1252
  9
$INSBASE
 10
0.0
 20
0.0
 30
0.0
  9
$EXTMIN
 10
70.2029015218694
 20
241.2543000592898
 30
0.0
  9
$EXTMAX
 10
194.029165419749
 20
350.023686976596
 30
0.0
  9
$LIMMIN
 10
0.0
 20
0.0
  9
$LIMMAX
 10
12.0
 20
9.0
  9
$ORTHOMODE
 70
     0
  9
$REGENMODE
 70
     1
  9
$FILLMODE
 70
     1
  9
$QTEXTMODE
 70
     0
  9
$MIRRTEXT
 70
     1
  9
$LTSCALE
 40
1.0
  9
$ATTMODE
 70
     1
  9
$TEXTSIZE
 40
0.2
  9
$TRACEWID
 40
0.05
  9
$TEXTSTYLE
  7
Standard
  9
$CLAYER
  8
0
  9
$CELTYPE
  6
ByLayer
  9
$CECOLOR
 62
   256
  9
$CELTSCALE
 40
1.0
  9
$DISPSILH
 70
     0
  9
$DIMSCALE
 40
1.0
  9
$DIMASZ
 40
0.18
  9
$DIMEXO
 40
0.0625
  9
$DIMDLI
 40
0.38
  9
$DIMRND
 40
0.0
  9
$DIMDLE
 40
0.0
  9
$DIMEXE
 40
0.18
  9
$DIMTP
 40
0.0
  9
$DIMTM
 40
0.0
  9
$DIMTXT
 40
0.18
  9
$DIMCEN
 40
0.09
  9
$DIMTSZ
 40
0.0
  9
$DIMTOL
 70
     0
  9
$DIMLIM
 70
     0
  9
$DIMTIH
 70
     1
  9
$DIMTOH
 70
     1
  9
$DIMSE1
 70
     0
  9
$DIMSE2
 70
     0
  9
$DIMTAD
 70
     0
  9
$DIMZIN
 70
     0
  9
$DIMBLK
  1

  9
$DIMASO
 70
     1
  9
$DIMSHO
 70
     1
  9
$DIMPOST
  1

  9
$DIMAPOST
  1

  9
$DIMALT
 70
     0
  9
$DIMALTD
 70
     2
  9
$DIMALTF
 40
25.4
  9
$DIMLFAC
 40
1.0
  9
$DIMTOFL
 70
     0
  9
$DIMTVP
 40
0.0
  9
$DIMTIX
 70
     0
  9
$DIMSOXD
 70
     0
  9
$DIMSAH
 70
     0
  9
$DIMBLK1
  1

  9
$DIMBLK2
  1

  9
$DIMSTYLE
  2
Standard
  9
$DIMCLRD
 70
     0
  9
$DIMCLRE
 70
     0
  9
$DIMCLRT
 70
     0
  9
$DIMTFAC
 40
1.0
  9
$DIMGAP
 40
0.09
  9
$DIMJUST
 70
     0
  9
$DIMSD1
 70
     0
  9
$DIMSD2
 70
     0
  9
$DIMTOLJ
 70
     1
  9
$DIMTZIN
 70
     0
  9
$DIMALTZ
 70
     0
  9
$DIMALTTZ
 70
     0
  9
$DIMUPT
 70
     0
  9
$DIMDEC
 70
     4
  9
$DIMTDEC
 70
     4
  9
$DIMALTU
 70
     2
  9
$DIMALTTD
 70
     2
  9
$DIMTXSTY
  7
Standard
  9
$DIMAUNIT
 70
     0
  9
$DIMADEC
 70
     0
  9
$DIMALTRND
 40
0.0
  9
$DIMAZIN
 70
     0
  9
$DIMDSEP
 70
    46
  9
$DIMATFIT
 70
     3
  9
$DIMFRAC
 70
     0
  9
$DIMLDRBLK
  1

  9
$DIMLUNIT
 70
     2
  9
$DIMLWD
 70
    -2
  9
$DIMLWE
 70
    -2
  9
$DIMTMOVE
 70
     0
  9
$LUNITS
 70
     2
  9
$LUPREC
 70
     4
  9
$SKETCHINC
 40
0.1
  9
$FILLETRAD
 40
0.5
  9
$AUNITS
 70
     0
  9
$AUPREC
 70
     0
  9
$MENU
  1
.
  9
$ELEVATION
 40
0.0
  9
$PELEVATION
 40
0.0
  9
$THICKNESS
 40
0.0
  9
$LIMCHECK
 70
     0
  9
$CHAMFERA
 40
0.5
  9
$CHAMFERB
 40
0.5
  9
$CHAMFERC
 40
1.0
  9
$CHAMFERD
 40
0.0
  9
$SKPOLY
 70
     0
  9
$TDCREATE
 40
2456672.709351157
  9
$TDUCREATE
 40
2456672.667684491
  9
$TDUPDATE
 40
2456672.709351169
  9
$TDUUPDATE
 40
2456672.667684502
  9
$TDINDWG
 40
0.0000000116
  9
$TDUSRTIMER
 40
0.0000000116
  9
$USRTIMER
 70
     1
  9
$ANGBASE
 50
0.0
  9
$ANGDIR
 70
     0
  9
$PDMODE
 70
     0
  9
$PDSIZE
 40
0.0
  9
$PLINEWID
 40
0.0
  9
$SPLFRAME
 70
     0
  9
$SPLINETYPE
 70
     6
  9
$SPLINESEGS
 70
     8
  9
$HANDSEED
  5
163
  9
$SURFTAB1
 70
     6
  9
$SURFTAB2
 70
     6
  9
$SURFTYPE
 70
     6
  9
$SURFU
 70
     6
  9
$SURFV
 70
     6
  9
$UCSBASE
  2

  9
$UCSNAME
  2

  9
$UCSORG
 10
0.0
 20
0.0
 30
0.0
  9
$UCSXDIR
 10
1.0
 20
0.0
 30
0.0
  9
$UCSYDIR
 10
0.0
 20
1.0
 30
0.0
  9
$UCSORTHOREF
  2

  9
$UCSORTHOVIEW
 70
     0
  9
$UCSORGTOP
 10
0.0
 20
0.0
 30
0.0
  9
$UCSORGBOTTOM
 10
0.0
 20
0.0
 30
0.0
  9
$UCSORGLEFT
 10
0.0
 20
0.0
 30
0.0
  9
$UCSORGRIGHT
 10
0.0
 20
0.0
 30
0.0
  9
$UCSORGFRONT
 10
0.0
 20
0.0
 30
0.0
  9
$UCSORGBACK
 10
0.0
 20
0.0
 30
0.0
  9
$PUCSBASE
  2

  9
$PUCSNAME
  2

  9
$PUCSORG
 10
0.0
 20
0.0
 30
0.0
  9
$PUCSXDIR
 10
1.0
 20
0.0
 30
0.0
  9
$PUCSYDIR
 10
0.0
 20
1.0
 30
0.0
  9
$PUCSORTHOREF
  2

  9
$PUCSORTHOVIEW
 70
     0
  9
$PUCSORGTOP
 10
0.0
 20
0.0
 30
0.0
  9
$PUCSORGBOTTOM
 10
0.0
 20
0.0
 30
0.0
  9
$PUCSORGLEFT
 10
0.0
 20
0.0
 30
0.0
  9
$PUCSORGRIGHT
 10
0.0
 20
0.0
 30
0.0
  9
$PUCSORGFRONT
 10
0.0
 20
0.0
 30
0.0
  9
$PUCSORGBACK
 10
0.0
 20
0.0
 30
0.0
  9
$USERI1
 70
     0
  9
$USERI2
 70
     0
  9
$USERI3
 70
     0
  9
$USERI4
 70
     0
  9
$USERI5
 70
     0
  9
$USERR1
 40
16.5
  9
$USERR2
 40
0.0
  9
$USERR3
 40
0.0
  9
$USERR4
 40
0.0
  9
$USERR5
 40
0.0
  9
$WORLDVIEW
 70
     1
  9
$SHADEDGE
 70
     3
  9
$SHADEDIF
 70
    70
  9
$TILEMODE
 70
     1
  9
$MAXACTVP
 70
    64
  9
$PINSBASE
 10
0.0
 20
0.0
 30
0.0
  9
$PLIMCHECK
 70
     0
  9
$PEXTMIN
 10
1.00000000000000E+20
 20
1.00000000000000E+20
 30
1.00000000000000E+20
  9
$PEXTMAX
 10
-1.00000000000000E+20
 20
-1.00000000000000E+20
 30
-1.00000000000000E+20
  9
$PLIMMIN
 10
0.0
 20
0.0
  9
$PLIMMAX
 10
12.0
 20
9.0
  9
$UNITMODE
 70
     0
  9
$VISRETAIN
 70
     1
  9
$PLINEGEN
 70
     0
  9
$PSLTSCALE
 70
     1
  9
$TREEDEPTH
 70
  3020
  9
$CMLSTYLE
  2
Standard
  9
$CMLJUST
 70
     0
  9
$CMLSCALE
 40
1.0
  9
$PROXYGRAPHICS
 70
     1
  9
$MEASUREMENT
 70
     1
  9
$CELWEIGHT
370
    -1
  9
$ENDCAPS
280
     0
  9
$JOINSTYLE
280
     0
  9
$LWDISPLAY
290
     0
  9
$INSUNITS
 70
     1
  9
$HYPERLINKBASE
  1

  9
$STYLESHEET
  1

  9
$XEDIT
290
     1
  9
$CEPSNTYPE
380
     0
  9
$PSTYLEMODE
290
     1
  9
$FINGERPRINTGUID
  2
{0AC705BE-EDA4-4F38-B4FD-CA2FA78D0095}
  9
$VERSIONGUID
  2
{FAEB1C32-E019-11D5-929B-00C0DF256EC4}
  9
$EXTNAMES
290
     1
  9
$PSVPSCALE
 40
0.0
  9
$OLESTARTUP
290
     0
  0
ENDSEC
  0
SECTION
  2
CLASSES
  0
CLASS
  1
ACDBDICTIONARYWDFLT
  2
AcDbDictionaryWithDefault
  3
ObjectDBX Classes
 90
        0
280
     0
281
     0
  0
CLASS
  1
VISUALSTYLE
  2
AcDbVisualStyle
  3
ObjectDBX Classes
 90
     4095
280
     0
281
     0
  0
CLASS
  1
SCALE
  2
AcDbScale
  3
ObjectDBX Classes
 90
     1153
280
     0
281
     0
  0
CLASS
  1

  2
exOdDbPolyline
  3

 90
        0
280
     0
281
     1
  0
CLASS
  1

  2
exOdDbCircle
  3

 90
        0
280
     0
281
     1
  0
CLASS
  1

  2
exOdDbSpline
  3

 90
        0
280
     0
281
     1
  0
CLASS
  1
DICTIONARYVAR
  2
AcDbDictionaryVar
  3
ObjectDBX Classes
 90
        0
280
     0
281
     0
  0
CLASS
  1
ACDBPLACEHOLDER
  2
AcDbPlaceHolder
  3
ObjectDBX Classes
 90
        0
280
     0
281
     0
  0
CLASS
  1
LAYOUT
  2
AcDbLayout
  3
ObjectDBX Classes
 90
        0
280
     0
281
     0
  0
ENDSEC
  0
SECTION
  2
TABLES
  0
TABLE
  2
VPORT
  5
8
330
0
100
AcDbSymbolTable
 70
     1
  0
VPORT
  5
29
330
8
100
AcDbSymbolTableRecord
100
AcDbViewportTableRecord
  2
*Active
 70
     0
 10
0.0
 20
0.0
 11
1.0
 21
1.0
 12
132.1160334708092
 22
295.6389935179429
 13
0.0
 23
0.0
 14
0.5
 24
0.5
 15
0.5
 25
0.5
 16
0.0
 26
0.0
 36
1.0
 17
0.0
 27
0.0
 37
0.0
 40
119.6463256090369
 41
1.60267857142857
 42
50.0
 43
0.0
 44
0.0
 50
0.0
 51
0.0
 71
     0
 72
   100
 73
     1
 74
     3
 75
     0
 76
     0
 77
     0
 78
     0
281
     0
 65
     1
110
0.0
120
0.0
130
0.0
111
1.0
121
0.0
131
0.0
112
0.0
122
1.0
132
0.0
 79
     0
146
0.0
  0
ENDTAB
  0
TABLE
  2
LTYPE
  5
5
330
0
100
AcDbSymbolTable
 70
     9
  0
LTYPE
  5
14
330
5
100
AcDbSymbolTableRecord
100
AcDbLinetypeTableRecord
  2
ByBlock
 70
     0
  3

 72
    65
 73
     0
 40
0.0
  0
LTYPE
  5
15
330
5
100
AcDbSymbolTableRecord
100
AcDbLinetypeTableRecord
  2
ByLayer
 70
     0
  3

 72
    65
 73
     0
 40
0.0
  0
LTYPE
  5
16
330
5
100
AcDbSymbolTableRecord
100
AcDbLinetypeTableRecord
  2
Continuous
 70
     0
  3
Solid line
 72
    65
 73
     0
 40
0.0
  0
LTYPE
  5
3B
330
5
100
AcDbSymbolTableRecord
100
AcDbLinetypeTableRecord
  2
DASHED
 70
     0
  3
Dashed
 72
    65
 73
     2
 40
15.0
 49
7.0
 74
     0
 49
-8.0
 74
     0
  0
LTYPE
  5
3C
330
5
100
AcDbSymbolTableRecord
100
AcDbLinetypeTableRecord
  2
DOTTED
 70
     0
  3
Dotted
 72
    65
 73
     2
 40
1.0
 49
0.0
 74
     0
 49
-1.0
 74
     0
  0
LTYPE
  5
3D
330
5
100
AcDbSymbolTableRecord
100
AcDbLinetypeTableRecord
  2
DOT_CENTER
 70
     0
  3
Dot_Center
 72
    65
 73
     4
 40
14.0
 49
12.0
 74
     0
 49
-1.0
 74
     0
 49
0.0
 74
     0
 49
-1.0
 74
     0
  0
LTYPE
  5
3E
330
5
100
AcDbSymbolTableRecord
100
AcDbLinetypeTableRecord
  2
LONG_DASHED
 70
     0
  3
Long_Dashed
 72
    65
 73
     2
 40
15.0
 49
10.0
 74
     0
 49
-5.0
 74
     0
  0
LTYPE
  5
3F
330
5
100
AcDbSymbolTableRecord
100
AcDbLinetypeTableRecord
  2
DASH_CENTER
 70
     0
  3
Dash_Center
 72
    65
 73
     4
 40
14.0
 49
11.0
 74
     0
 49
-1.0
 74
     0
 49
1.0
 74
     0
 49
-1.0
 74
     0
  0
LTYPE
  5
40
330
5
100
AcDbSymbolTableRecord
100
AcDbLinetypeTableRecord
  2
PHANTOM
 70
     0
  3
Phantom
 72
    65
 73
     6
 40
13.0
 49
10.0
 74
     0
 49
-1.0
 74
     0
 49
0.0
 74
     0
 49
-1.0
 74
     0
 49
0.0
 74
     0
 49
-1.0
 74
     0
  0
LTYPE
  5
41
330
5
100
AcDbSymbolTableRecord
100
AcDbLinetypeTableRecord
  2
CENTER_DASH_DASH
 70
     0
  3
Center_Dash_Dash
 72
    65
 73
     6
 40
14.0
 49
9.0
 74
     0
 49
-1.0
 74
     0
 49
1.0
 74
     0
 49
-1.0
 74
     0
 49
1.0
 74
     0
 49
-1.0
 74
     0
  0
LTYPE
  5
42
330
5
100
AcDbSymbolTableRecord
100
AcDbLinetypeTableRecord
  2
HIDDEN
 70
     0
  3
HIDDEN
 72
    65
 73
     2
 40
4.0
 49
2.0
 74
     0
 49
-2.0
 74
     0
  0
ENDTAB
  0
TABLE
  2
LAYER
  5
2
330
0
100
AcDbSymbolTable
 70
     7
  0
LAYER
  5
10
330
2
100
AcDbSymbolTableRecord
100
AcDbLayerTableRecord
  2
0
 70
     0
 62
     7
  6
Continuous
370
    -3
390
F
  0
LAYER
  5
43
330
2
100
AcDbSymbolTableRecord
100
AcDbLayerTableRecord
  2
1
 70
     0
 62
     7
  6
Continuous
370
    -3
390
F
  0
LAYER
  5
44
330
2
100
AcDbSymbolTableRecord
100
AcDbLayerTableRecord
  2
BEZUGSACHSEN
 70
     0
 62
     7
  6
Continuous
370
    -3
390
F
  0
LAYER
  5
45
330
2
100
AcDbSymbolTableRecord
100
AcDbLayerTableRecord
  2
DEFAULT_2
 70
     0
 62
     7
  6
Continuous
370
    -3
390
F
  0
LAYER
  5
46
330
2
100
AcDbSymbolTableRecord
100
AcDbLayerTableRecord
  2
FASEN
 70
     0
 62
     7
  6
Continuous
370
    -3
390
F
  0
LAYER
  5
47
330
2
100
AcDbSymbolTableRecord
100
AcDbLayerTableRecord
  2
RUNDUNGEN
 70
     0
 62
     7
  6
Continuous
370
    -3
390
F
  0
LAYER
  5
48
330
2
100
AcDbSymbolTableRecord
100
AcDbLayerTableRecord
  2
TEIL_STARTBEZUEGE
 70
     0
 62
     7
  6
Continuous
370
    -3
390
F
  0
ENDTAB
  0
TABLE
  2
STYLE
  5
3
330
0
100
AcDbSymbolTable
 70
     2
  0
STYLE
  5
11
330
3
100
AcDbSymbolTableRecord
100
AcDbTextStyleTableRecord
  2
Standard
 70
     0
 40
0.0
 41
1.0
 50
0.0
 71
     0
 42
0.2
  3
txt
  4

  0
STYLE
  5
6F
330
3
100
AcDbSymbolTableRecord
100
AcDbTextStyleTableRecord
  2
CONVERTER_11
 70
     0
 40
0.0
 41
0.72
 50
0.0
 71
     0
 42
0.2
  3
txt.shx
  4

  0
ENDTAB
  0
TABLE
  2
VIEW
  5
6
330
0
100
AcDbSymbolTable
 70
     0
  0
ENDTAB
  0
TABLE
  2
UCS
  5
7
330
0
100
AcDbSymbolTable
 70
     0
  0
ENDTAB
  0
TABLE
  2
APPID
  5
9
330
0
100
AcDbSymbolTable
 70
     1
  0
APPID
  5
12
330
9
100
AcDbSymbolTableRecord
100
AcDbRegAppTableRecord
  2
ACAD
 70
     0
  0
ENDTAB
  0
TABLE
  2
DIMSTYLE
  5
A
330
0
100
AcDbSymbolTable
 70
     6
100
AcDbDimStyleTable
  0
DIMSTYLE
105
27
330
A
100
AcDbSymbolTableRecord
100
AcDbDimStyleTableRecord
  2
Standard
 70
     0
340
11
  0
DIMSTYLE
105
12A
102
{ACAD_REACTORS
330
12B
102
}
330
A
100
AcDbSymbolTableRecord
100
AcDbDimStyleTableRecord
  2
ME10_DIM_10
 70
     0
  3
\U+2300<>
 41
3.5
 42
2.0
 44
2.0
 71
     1
 73
     0
 74
     0
 77
     1
 78
     8
140
3.5
146
0.7
147
2.0
172
     1
173
     1
176
     2
177
     2
178
     3
271
     2
272
     0
340
6F
  0
DIMSTYLE
105
135
102
{ACAD_REACTORS
330
136
102
}
330
A
100
AcDbSymbolTableRecord
100
AcDbDimStyleTableRecord
  2
ME10_DIM_11
 70
     0
  3
\U+2300<>
 41
3.5
 42
2.0
 44
2.0
 71
     1
 73
     0
 74
     0
 77
     1
 78
     8
140
3.5
146
0.7
147
2.0
172
     1
173
     1
176
     2
177
     2
178
     3
271
     2
272
     0
340
6F
  0
DIMSTYLE
105
140
102
{ACAD_REACTORS
330
141
102
}
330
A
100
AcDbSymbolTableRecord
100
AcDbDimStyleTableRecord
  2
ME10_DIM_12
 70
     0
  3
<>
 41
3.5
 42
2.0
 44
2.0
 71
     1
 73
     0
 74
     0
 77
     1
 78
     8
140
3.5
146
0.7
147
2.0
172
     1
173
     1
176
     2
177
     2
178
     3
271
     0
272
     0
340
6F
  0
DIMSTYLE
105
14B
102
{ACAD_REACTORS
330
14C
102
}
330
A
100
AcDbSymbolTableRecord
100
AcDbDimStyleTableRecord
  2
ME10_DIM_13
 70
     0
  3
<>
 41
3.5
 42
2.0
 44
2.0
 71
     1
 73
     0
 74
     0
 77
     1
 78
     8
140
3.5
146
0.7
147
2.0
172
     1
173
     1
176
     2
177
     2
178
     3
271
     2
272
     0
340
6F
  0
DIMSTYLE
105
156
102
{ACAD_REACTORS
330
157
102
}
330
A
100
AcDbSymbolTableRecord
100
AcDbDimStyleTableRecord
  2
ME10_DIM_14
 70
     0
  3
<>
 41
3.5
 42
2.0
 44
2.0
 71
     1
 73
     0
 74
     0
 77
     1
 78
     8
140
3.5
146
0.7
147
2.0
172
     1
173
     1
176
     2
177
     2
178
     3
271
     0
272
     0
340
6F
  0
ENDTAB
  0
TABLE
  2
BLOCK_RECORD
  5
1
330
0
100
AcDbSymbolTable
 70
     8
  0
BLOCK_RECORD
  5
1F
330
1
100
AcDbSymbolTableRecord
100
AcDbBlockTableRecord
  2
*Model_Space
340
22
  0
BLOCK_RECORD
  5
1B
330
1
100
AcDbSymbolTableRecord
100
AcDbBlockTableRecord
  2
*Paper_Space
340
1E
  0
BLOCK_RECORD
  5
23
330
1
100
AcDbSymbolTableRecord
100
AcDbBlockTableRecord
  2
*Paper_Space0
340
26
  0
BLOCK_RECORD
  5
49
330
1
100
AcDbSymbolTableRecord
100
AcDbBlockTableRecord
  2
Urheberrecht_DE-EN
340
0
102
{BLKREFS
331
6E
102
}
  0
BLOCK_RECORD
  5
121
330
1
100
AcDbSymbolTableRecord
100
AcDbBlockTableRecord
  2
*D2
340
0
  0
BLOCK_RECORD
  5
12C
330
1
100
AcDbSymbolTableRecord
100
AcDbBlockTableRecord
  2
*D3
340
0
  0
BLOCK_RECORD
  5
137
330
1
100
AcDbSymbolTableRecord
100
AcDbBlockTableRecord
  2
*D4
340
0
  0
BLOCK_RECORD
  5
142
330
1
100
AcDbSymbolTableRecord
100
AcDbBlockTableRecord
  2
*D5
340
0
  0
BLOCK_RECORD
  5
14D
330
1
100
AcDbSymbolTableRecord
100
AcDbBlockTableRecord
  2
*D6
340
0
  0
BLOCK_RECORD
  5
158
330
1
100
AcDbSymbolTableRecord
100
AcDbBlockTableRecord
  2
*D7
340
0
102
{BLKREFS
331
15E
102
}
  0
ENDTAB
  0
ENDSEC
  0
SECTION
  2
BLOCKS
  0
BLOCK
  5
20
330
1F
100
AcDbEntity
  8
0
100
AcDbBlockBegin
  2
*Model_Space
 70
     0
 10
0.0
 20
0.0
 30
0.0
  3
*Model_Space
  1

  0
ENDBLK
  5
21
330
1F
100
AcDbEntity
  8
0
100
AcDbBlockEnd
  0
BLOCK
  5
1C
330
1B
100
AcDbEntity
 67
     1
  8
0
100
AcDbBlockBegin
  2
*Paper_Space
 70
     0
 10
0.0
 20
0.0
 30
0.0
  3
*Paper_Space
  1

  0
ENDBLK
  5
1D
330
1B
100
AcDbEntity
 67
     1
  8
0
100
AcDbBlockEnd
  0
BLOCK
  5
24
330
23
100
AcDbEntity
  8
0
100
AcDbBlockBegin
  2
*Paper_Space0
 70
     0
 10
0.0
 20
0.0
 30
0.0
  3
*Paper_Space0
  1

  0
ENDBLK
  5
25
330
23
100
AcDbEntity
  8
0
100
AcDbBlockEnd
  0
BLOCK
  5
4A
330
49
100
AcDbEntity
  8
0
100
AcDbBlockBegin
  2
Urheberrecht_DE-EN
 70
     0
 10
84.2029015218694
 20
297.543686976596
 30
0.0
  3
Urheberrecht_DE-EN
  1

  0
MTEXT
  5
70
330
49
100
AcDbEntity
  8
1
 62
     1
100
AcDbMText
 10
84.2029015218694
 20
297.543686976596
 30
0.0
 40
2.0
 41
0.0
 71
     7
 72
     1
  1
We own the copyright of this document. It \Pdetermined and may neither be copied or \Pmade accessible to outsiders without our\Ppermission.
  7
CONVERTER_11
 11
0.0
 21
1.0
 31
0.0
 73
     1
 44
0.90036014405762
  0
MTEXT
  5
71
330
49
100
AcDbEntity
  8
1
 62
     1
100
AcDbMText
 10
84.2029015218694
 20
241.2543000592898
 30
0.0
 40
2.0
 41
0.0
 71
     7
 72
     1
  1
F\U+00fcr diese Unterlage behalten wir das Ur-\Pheberrecht. Sie darf nur f\U+00fcr den von uns \Pbestimmten Zweck benutzt und ohne unsere \PZustimmung weder vervielf\U+00e4ltigt noch\PDritten zug\U+00e4nglich gemacht werden.
  7
CONVERTER_11
 11
0.0
 21
1.0
 31
0.0
 73
     1
 44
0.90036014405762
  0
ENDBLK
  5
4B
330
49
100
AcDbEntity
  8
0
100
AcDbBlockEnd
  0
BLOCK
  5
128
330
121
100
AcDbEntity
  8
0
100
AcDbBlockBegin
  2
*D2
 70
     1
 10
0.0
 20
0.0
 30
0.0
  3
*D2
  1

  0
LINE
  5
122
330
121
100
AcDbEntity
  8
1
  6
Continuous
 62
     2
100
AcDbLine
 10
182.490047322755
 20
288.5346030043
 30
0.0
 11
182.490047322755
 21
278.5346030043
 31
0.0
  0
LINE
  5
123
330
121
100
AcDbEntity
  8
1
  6
Continuous
 62
     2
100
AcDbLine
 10
173.6074067865
 20
288.5346030043
 30
0.0
 11
184.490047322755
 21
288.5346030043
 31
0.0
  0
LINE
  5
124
330
121
100
AcDbEntity
  8
1
  6
Continuous
 62
     2
100
AcDbLine
 10
173.6074067865
 20
278.5346030043
 30
0.0
 11
184.490047322755
 21
278.5346030043
 31
0.0
  0
SOLID
  5
125
330
121
100
AcDbEntity
  8
1
 62
     2
100
AcDbTrace
 10
182.9508310643109
 20
285.0346030043
 30
0.0
 11
182.0292635811991
 21
285.0346030043
 31
0.0
 12
182.490047322755
 22
288.5346030043
 32
0.0
 13
182.490047322755
 23
288.5346030043
 33
0.0
  0
SOLID
  5
126
330
121
100
AcDbEntity
  8
1
 62
     2
100
AcDbTrace
 10
182.0292635811991
 20
282.0346030043
 30
0.0
 11
182.9508310643109
 21
282.0346030043
 31
0.0
 12
182.490047322755
 22
278.5346030043
 32
0.0
 13
182.490047322755
 23
278.5346030043
 33
0.0
  0
MTEXT
  5
127
330
121
100
AcDbEntity
  8
1
 62
     3
100
AcDbMText
 10
180.490047322755
 20
274.557564034526
 30
0.0
 40
3.5
 41
0.0
 71
     7
 72
     1
  1
\C3;%%c\C3;\C3;10\C2;\H2.45;\S^ ;\C3;
  7
CONVERTER_11
 11
0.0
 21
1.0
 31
0.0
 73
     1
 44
0.60024009603842
  0
ENDBLK
  5
129
330
121
100
AcDbEntity
  8
0
100
AcDbBlockEnd
  0
BLOCK
  5
133
330
12C
100
AcDbEntity
  8
0
100
AcDbBlockBegin
  2
*D3
 70
     1
 10
0.0
 20
0.0
 30
0.0
  3
*D3
  1

  0
LINE
  5
12D
330
12C
100
AcDbEntity
  8
1
  6
Continuous
 62
     2
100
AcDbLine
 10
192.029165419749
 20
301.0346030043
 30
0.0
 11
192.029165419749
 21
266.0346030043
 31
0.0
  0
LINE
  5
12E
330
12C
100
AcDbEntity
  8
1
  6
Continuous
 62
     2
100
AcDbLine
 10
162.6631775213
 20
301.0346030043
 30
0.0
 11
194.029165419749
 21
301.0346030043
 31
0.0
  0
LINE
  5
12F
330
12C
100
AcDbEntity
  8
1
  6
Continuous
 62
     2
100
AcDbLine
 10
162.6631775213
 20
266.0346030043
 30
0.0
 11
194.029165419749
 21
266.0346030043
 31
0.0
  0
SOLID
  5
130
330
12C
100
AcDbEntity
  8
1
 62
     2
100
AcDbTrace
 10
192.4899491613049
 20
297.5346030043
 30
0.0
 11
191.5683816781931
 21
297.5346030043
 31
0.0
 12
192.029165419749
 22
301.0346030043
 32
0.0
 13
192.029165419749
 23
301.0346030043
 33
0.0
  0
SOLID
  5
131
330
12C
100
AcDbEntity
  8
1
 62
     2
100
AcDbTrace
 10
191.5683816781931
 20
269.5346030043
 30
0.0
 11
192.4899491613049
 21
269.5346030043
 31
0.0
 12
192.029165419749
 22
266.0346030043
 32
0.0
 13
192.029165419749
 23
266.0346030043
 33
0.0
  0
MTEXT
  5
132
330
12C
100
AcDbEntity
  8
1
 62
     3
100
AcDbMText
 10
190.029165419749
 20
274.818929612882
 30
0.0
 40
3.5
 41
0.0
 71
     7
 72
     1
  1
\C3;%%c\C3;\C3;35\C2;\H2.45;\S^ ;\C3;
  7
CONVERTER_11
 11
0.0
 21
1.0
 31
0.0
 73
     1
 44
0.60024009603842
  0
ENDBLK
  5
134
330
12C
100
AcDbEntity
  8
0
100
AcDbBlockEnd
  0
BLOCK
  5
13E
330
137
100
AcDbEntity
  8
0
100
AcDbBlockBegin
  2
*D4
 70
     1
 10
0.0
 20
0.0
 30
0.0
  3
*D4
  1

  0
LINE
  5
138
330
137
100
AcDbEntity
  8
1
  6
Continuous
 62
     2
100
AcDbLine
 10
171.6074067865
 20
314.917204215524
 30
0.0
 11
126.5574067865
 21
314.917204215524
 31
0.0
  0
LINE
  5
139
330
137
100
AcDbEntity
  8
1
  6
Continuous
 62
     2
100
AcDbLine
 10
171.6074067865
 20
297.3975327435
 30
0.0
 11
171.6074067865
 21
316.917204215524
 31
0.0
  0
LINE
  5
13A
330
137
100
AcDbEntity
  8
1
  6
Continuous
 62
     2
100
AcDbLine
 10
126.5574067865
 20
301.5346030043
 30
0.0
 11
126.5574067865
 21
316.917204215524
 31
0.0
  0
SOLID
  5
13B
330
137
100
AcDbEntity
  8
1
 62
     2
100
AcDbTrace
 10
168.1074067865
 20
314.4564204739681
 30
0.0
 11
168.1074067865
 21
315.3779879570799
 31
0.0
 12
171.6074067865
 22
314.917204215524
 32
0.0
 13
171.6074067865
 23
314.917204215524
 33
0.0
  0
SOLID
  5
13C
330
137
100
AcDbEntity
  8
1
 62
     2
100
AcDbTrace
 10
130.0574067865
 20
315.3779879570799
 30
0.0
 11
130.0574067865
 21
314.4564204739681
 31
0.0
 12
126.5574067865
 22
314.917204215524
 32
0.0
 13
126.5574067865
 23
314.917204215524
 33
0.0
  0
MTEXT
  5
13D
330
137
100
AcDbEntity
  8
1
 62
     3
100
AcDbMText
 10
145.920695961596
 20
316.917204215524
 30
0.0
 40
3.5
 41
0.0
 71
     7
 72
     1
  1
\C3;\C3;\C3;45\C2;\H2.45;\S^ ;\C3;
  7
CONVERTER_11
 11
0.9999999999970619
 21
2.424068405545306E-6
 31
0.0
 73
     1
 44
0.60024009603842
  0
ENDBLK
  5
13F
330
137
100
AcDbEntity
  8
0
100
AcDbBlockEnd
  0
BLOCK
  5
149
330
142
100
AcDbEntity
  8
0
100
AcDbBlockBegin
  2
*D5
 70
     1
 10
0.0
 20
0.0
 30
0.0
  3
*D5
  1

  0
LINE
  5
143
330
142
100
AcDbEntity
  8
1
  6
Continuous
 62
     2
100
AcDbLine
 10
171.6074067865
 20
323.20787552509
 30
0.0
 11
106.6074067865
 21
323.20787552509
 31
0.0
  0
LINE
  5
144
330
142
100
AcDbEntity
  8
1
  6
Continuous
 62
     2
100
AcDbLine
 10
171.6074067865
 20
297.3975327435
 30
0.0
 11
171.6074067865
 21
325.20787552509
 31
0.0
  0
LINE
  5
145
330
142
100
AcDbEntity
  8
1
  6
Continuous
 62
     2
100
AcDbLine
 10
106.6074067865
 20
301.5346030043
 30
0.0
 11
106.6074067865
 21
325.20787552509
 31
0.0
  0
SOLID
  5
146
330
142
100
AcDbEntity
  8
1
 62
     2
100
AcDbTrace
 10
168.1074067865
 20
322.7470917835341
 30
0.0
 11
168.1074067865
 21
323.6686592666459
 31
0.0
 12
171.6074067865
 22
323.20787552509
 32
0.0
 13
171.6074067865
 23
323.20787552509
 33
0.0
  0
SOLID
  5
147
330
142
100
AcDbEntity
  8
1
 62
     2
100
AcDbTrace
 10
110.1074067865
 20
323.6686592666459
 30
0.0
 11
110.1074067865
 21
322.7470917835341
 31
0.0
 12
106.6074067865
 22
323.20787552509
 32
0.0
 13
106.6074067865
 23
323.20787552509
 33
0.0
  0
MTEXT
  5
148
330
142
100
AcDbEntity
  8
1
 62
     3
100
AcDbMText
 10
137.717294876342
 20
325.20787552509
 30
0.0
 40
3.5
 41
0.0
 71
     7
 72
     1
  1
\C3;\C3;\C3;65\C2;\H2.45;\S^ ;\C3;
  7
CONVERTER_11
 11
0.9999999999970619
 21
2.424068405545306E-6
 31
0.0
 73
     1
 44
0.60024009603842
  0
ENDBLK
  5
14A
330
142
100
AcDbEntity
  8
0
100
AcDbBlockEnd
  0
BLOCK
  5
154
330
14D
100
AcDbEntity
  8
0
100
AcDbBlockBegin
  2
*D6
 70
     1
 10
0.0
 20
0.0
 30
0.0
  3
*D6
  1

  0
LINE
  5
14E
330
14D
100
AcDbEntity
  8
1
  6
Continuous
 62
     2
100
AcDbLine
 10
171.6074067865
 20
330.887655264477
 30
0.0
 11
90.7074067865
 21
330.887655264477
 31
0.0
  0
LINE
  5
14F
330
14D
100
AcDbEntity
  8
1
  6
Continuous
 62
     2
100
AcDbLine
 10
171.6074067865
 20
297.3975327435
 30
0.0
 11
171.6074067865
 21
332.887655264477
 31
0.0
  0
LINE
  5
150
330
14D
100
AcDbEntity
  8
1
  6
Continuous
 62
     2
100
AcDbLine
 10
90.7074067865
 20
296.3311072391
 30
0.0
 11
90.7074067865
 21
332.887655264477
 31
0.0
  0
SOLID
  5
151
330
14D
100
AcDbEntity
  8
1
 62
     2
100
AcDbTrace
 10
168.1074067865
 20
330.4268715229211
 30
0.0
 11
168.1074067865
 21
331.3484390060329
 31
0.0
 12
171.6074067865
 22
330.887655264477
 32
0.0
 13
171.6074067865
 23
330.887655264477
 33
0.0
  0
SOLID
  5
152
330
14D
100
AcDbEntity
  8
1
 62
     2
100
AcDbTrace
 10
94.2074067865
 20
331.3484390060329
 30
0.0
 11
94.2074067865
 21
330.4268715229211
 31
0.0
 12
90.7074067865
 22
330.887655264477
 32
0.0
 13
90.7074067865
 23
330.887655264477
 33
0.0
  0
MTEXT
  5
153
330
14D
100
AcDbEntity
  8
1
 62
     3
100
AcDbMText
 10
130.544785361266
 20
332.887655264477
 30
0.0
 40
3.5
 41
0.0
 71
     7
 72
     1
  1
\C3;\C3;\C3;81\C2;\H2.45;\S^ ;\C3;
  7
CONVERTER_11
 11
0.9999999999970619
 21
2.424068405545306E-6
 31
0.0
 73
     1
 44
0.60024009603842
  0
ENDBLK
  5
155
330
14D
100
AcDbEntity
  8
0
100
AcDbBlockEnd
  0
BLOCK
  5
15C
330
158
100
AcDbEntity
  8
0
100
AcDbBlockBegin
  2
*D7
 70
     1
 10
0.0
 20
0.0
 30
0.0
  3
*D7
  1

  0
LINE
  5
159
330
158
100
AcDbEntity
  8
1
  6
Continuous
 62
     2
100
AcDbLine
 10
136.1813482482505
 20
302.8784149645566
 30
0.0
 11
126.751875196919
 21
295.9420501727423
 31
0.0
  0
SOLID
  5
15A
330
158
100
AcDbEntity
  8
1
 62
     2
100
AcDbTrace
 10
129.2981970496579
 20
298.3871609429829
 30
0.0
 11
129.8442744712473
 21
297.6448092234057
 31
0.0
 12
126.751875196919
 22
295.9420501727423
 32
0.0
 13
126.751875196919
 23
295.9420501727423
 33
0.0
  0
MTEXT
  5
15B
330
158
100
AcDbEntity
  8
1
 62
     3
100
AcDbMText
 10
129.695844725692
 20
300.5904805120687
 30
0.0
 40
3.5
 41
0.0
 71
     7
 72
     1
  1
\C3; R\C3;\C3;1\C2;\H2.45;\S^ ;\C3;
  7
CONVERTER_11
 11
0.8055315895810071
 21
0.5925528315577405
 31
0.0
 73
     1
 44
0.60024009603842
  0
ENDBLK
  5
15D
330
158
100
AcDbEntity
  8
0
100
AcDbBlockEnd
  0
ENDSEC
  0
SECTION
  2
ENTITIES
  0
INSERT
  5
6E
330
1F
100
AcDbEntity
  8
0
100
AcDbBlockReference
  2
Urheberrecht_DE-EN
 10
84.2029015218694
 20
297.543686976596
 30
0.0
  0
LINE
  5
72
330
1F
100
AcDbEntity
  8
0
  6
Continuous
 62
     7
100
AcDbLine
 10
90.7074067865
 20
272.7380987688
 30
0.0
 11
90.7074067865
 21
279.0596030043
 31
0.0
  0
LINE
  5
73
330
1F
100
AcDbEntity
  8
0
  6
Continuous
 62
     7
100
AcDbLine
 10
90.7074067865
 20
288.0096030043
 30
0.0
 11
90.7074067865
 21
294.3311072391
 31
0.0
  0
LINE
  5
74
330
1F
100
AcDbEntity
  8
0
  6
Continuous
 62
     9
100
AcDbLine
 10
91.2773828034
 20
294.9303555698
 30
0.0
 11
91.2773828034
 21
288.6704450039
 31
0.0
  0
LINE
  5
75
330
1F
100
AcDbEntity
  8
0
  6
Continuous
 62
     9
100
AcDbLine
 10
91.2773828034
 20
278.3987610047
 30
0.0
 11
91.2773828034
 21
272.1388504388
 31
0.0
  0
LINE
  5
76
330
1F
100
AcDbEntity
  8
0
  6
Continuous
 62
     7
100
AcDbLine
 10
91.6574067865
 20
279.3921487055
 30
0.0
 11
91.6574067865
 21
280.0096030043
 31
0.0
  0
LINE
  5
77
330
1F
100
AcDbEntity
  8
0
  6
Continuous
 62
     7
100
AcDbLine
 10
91.6574067865
 20
287.0596030043
 30
0.0
 11
91.6574067865
 21
287.6770573031
 31
0.0
  0
LINE
  5
78
330
1F
100
AcDbEntity
  8
RUNDUNGEN
  6
Continuous
 62
     9
100
AcDbLine
 10
92.9074067865
 20
278.2723603116
 30
0.0
 11
92.9074067865
 21
280.0096030043
 31
0.0
  0
LINE
  5
79
330
1F
100
AcDbEntity
  8
RUNDUNGEN
  6
Continuous
 62
     9
100
AcDbLine
 10
92.9074067865
 20
287.0596030043
 30
0.0
 11
92.9074067865
 21
288.796845697
 31
0.0
  0
LINE
  5
7A
330
1F
100
AcDbEntity
  8
RUNDUNGEN
  6
Continuous
 62
     7
100
AcDbLine
 10
93.8074067865
 20
287.4064869752
 30
0.0
 11
93.8074067865
 21
279.6627190334
 31
0.0
  0
LINE
  5
7B
330
1F
100
AcDbEntity
  8
0
  6
Continuous
 62
     7
100
AcDbLine
 10
91.4275911428
 20
278.6296030043
 30
0.0
 11
91.3269059389
 21
278.447390212
 31
0.0
  0
LINE
  5
7C
330
1F
100
AcDbEntity
  8
0
  6
Continuous
 62
     7
100
AcDbLine
 10
91.3269059389
 20
288.6218157965
 30
0.0
 11
91.4275911428
 21
288.4396030043
 31
0.0
  0
LWPOLYLINE
  5
7D
330
1F
100
AcDbEntity
  8
BEZUGSACHSEN
  6
DOT_CENTER
 62
     7
100
AcDbPolyline
 90
        2
 70
     0
 43
0.25
 10
101.6074067865
 20
283.5346030043
 10
101.6074067865
 20
278.5346030043
  0
LWPOLYLINE
  5
7E
330
1F
100
AcDbEntity
  8
BEZUGSACHSEN
  6
DOT_CENTER
 62
     7
100
AcDbPolyline
 90
        2
 70
     0
 43
0.25
 10
101.6074067865
 20
283.5346030043
 10
101.6074067865
 20
288.5346030043
  0
LINE
  5
7F
330
1F
100
AcDbEntity
  8
0
  6
Continuous
 62
     7
100
AcDbLine
 10
105.6074067865
 20
295.6483290317
 30
0.0
 11
105.6074067865
 21
271.4208769769
 31
0.0
  0
LINE
  5
80
330
1F
100
AcDbEntity
  8
0
  6
Continuous
 62
     9
100
AcDbLine
 10
105.9297452482
 20
271.5072473074
 30
0.0
 11
105.9297452482
 21
295.5619587012
 31
0.0
  0
LINE
  5
81
330
1F
100
AcDbEntity
  8
0
  6
Continuous
 62
     9
100
AcDbLine
 10
106.0332728663
 20
271.5208769769
 30
0.0
 11
106.0332728663
 21
295.5483290317
 31
0.0
  0
LINE
  5
82
330
1F
100
AcDbEntity
  8
0
  6
Continuous
 62
     9
100
AcDbLine
 10
106.4532296232
 20
271.5208769769
 30
0.0
 11
106.4532296232
 21
295.5483290317
 31
0.0
  0
LINE
  5
83
330
1F
100
AcDbEntity
  8
0
  6
Continuous
 62
     7
100
AcDbLine
 10
106.6074067865
 20
299.5346030043
 30
0.0
 11
106.6074067865
 21
267.5346030043
 31
0.0
  0
LINE
  5
84
330
1F
100
AcDbEntity
  8
0
  6
Continuous
 62
     7
100
AcDbLine
 10
90.7074067865
 20
279.0596030043
 30
0.0
 11
91.6574067865
 21
280.0096030043
 31
0.0
  0
LINE
  5
85
330
1F
100
AcDbEntity
  8
0
  6
Continuous
 62
     7
100
AcDbLine
 10
91.6574067865
 20
287.0596030043
 30
0.0
 11
90.7074067865
 21
288.0096030043
 31
0.0
  0
LWPOLYLINE
  5
86
330
1F
100
AcDbEntity
  8
BEZUGSACHSEN
  6
DOT_CENTER
 62
     7
100
AcDbPolyline
 90
        2
 70
     0
 43
0.25
 10
113.6074067865
 20
305.1332871579
 10
113.6074067865
 20
291.1332871579
  0
LINE
  5
87
330
1F
100
AcDbEntity
  8
0
  6
Continuous
 62
     7
100
AcDbLine
 10
143.0574067865
 20
266.0346030043
 30
0.0
 11
147.3574067865
 21
266.0346030043
 31
0.0
  0
LINE
  5
88
330
1F
100
AcDbEntity
  8
0
  6
Continuous
 62
     7
100
AcDbLine
 10
155.8574067865
 20
266.0346030043
 30
0.0
 11
160.6631775213
 21
266.0346030043
 31
0.0
  0
LINE
  5
89
330
1F
100
AcDbEntity
  8
0
  6
Continuous
 62
     9
100
AcDbLine
 10
90.7074067865
 20
278.8672078242
 30
0.0
 11
91.6574067865
 21
279.3921487055
 31
0.0
  0
LINE
  5
8A
330
1F
100
AcDbEntity
  8
0
  6
Continuous
 62
     7
100
AcDbLine
 10
120.5722470876
 20
267.5346030043
 30
0.0
 11
106.6074067865
 21
267.5346030043
 31
0.0
  0
LINE
  5
8B
330
1F
100
AcDbEntity
  8
0
  6
Continuous
 62
     7
100
AcDbLine
 10
124.6425664854
 20
267.5346030043
 30
0.0
 11
126.5574067865
 21
267.5346030043
 31
0.0
  0
LINE
  5
8C
330
1F
100
AcDbEntity
  8
0
  6
Continuous
 62
     9
100
AcDbLine
 10
91.6574067865
 20
287.6770573031
 30
0.0
 11
90.7074067865
 21
288.2019981844
 31
0.0
  0
LINE
  5
8D
330
1F
100
AcDbEntity
  8
FASEN
  6
Continuous
 62
     9
100
AcDbLine
 10
118.0573217815
 20
273.7846030043
 30
0.0
 11
118.0573217815
 21
274.1846030043
 31
0.0
  0
LINE
  5
8E
330
1F
100
AcDbEntity
  8
FASEN
  6
Continuous
 62
     9
100
AcDbLine
 10
118.0719067865
 20
280.4201030043
 30
0.0
 11
118.0719067865
 21
280.0201030043
 31
0.0
  0
LINE
  5
8F
330
1F
100
AcDbEntity
  8
FASEN
  6
Continuous
 62
     9
100
AcDbLine
 10
118.0719067865
 20
286.6491030043
 30
0.0
 11
118.0719067865
 21
287.0491030043
 31
0.0
  0
LINE
  5
90
330
1F
100
AcDbEntity
  8
0
  6
Continuous
 62
     7
100
AcDbLine
 10
123.6449067865
 20
297.8066057171
 30
0.0
 11
124.6425664854
 21
299.5346030043
 31
0.0
  0
LINE
  5
91
330
1F
100
AcDbEntity
  8
0
  6
Continuous
 62
     7
100
AcDbLine
 10
121.8199067865
 20
270.3096030043
 30
0.0
 11
123.3949067865
 21
270.3096030043
 31
0.0
  0
LINE
  5
92
330
1F
100
AcDbEntity
  8
0
  6
Continuous
 62
     7
100
AcDbLine
 10
114.960208019
 20
270.5508631733
 30
0.0
 11
120.5722470876
 21
270.5508631733
 31
0.0
  0
LINE
  5
93
330
1F
100
AcDbEntity
  8
0
  6
Continuous
 62
     7
100
AcDbLine
 10
124.6425664854
 20
270.5508631733
 30
0.0
 11
126.5574067865
 21
270.5508631733
 31
0.0
  0
LINE
  5
94
330
1F
100
AcDbEntity
  8
0
  6
Continuous
 62
     7
100
AcDbLine
 10
106.4532296232
 20
271.5208769769
 30
0.0
 11
106.0332728663
 21
271.5208769769
 31
0.0
  0
LINE
  5
95
330
1F
100
AcDbEntity
  8
0
  6
Continuous
 62
     7
100
AcDbLine
 10
127.5574067865
 20
271.5346030043
 30
0.0
 11
141.0574067865
 21
271.5346030043
 31
0.0
  0
LINE
  5
96
330
1F
100
AcDbEntity
  8
0
  6
Continuous
 62
     7
100
AcDbLine
 10
105.6074067865
 20
271.4208769769
 30
0.0
 11
91.2773828034
 21
272.1388504388
 31
0.0
  0
LINE
  5
97
330
1F
100
AcDbEntity
  8
0
  6
Continuous
 62
     7
100
AcDbLine
 10
123.6449067865
 20
269.2626002914
 30
0.0
 11
124.6425664854
 21
267.5346030043
 31
0.0
  0
LINE
  5
98
330
1F
100
AcDbEntity
  8
0
  6
Continuous
 62
     7
100
AcDbLine
 10
120.5722470876
 20
299.5346030043
 30
0.0
 11
120.5722470876
 21
287.0491030043
 31
0.0
  0
LINE
  5
99
330
1F
100
AcDbEntity
  8
0
  6
Continuous
 62
     7
100
AcDbLine
 10
120.5722470876
 20
280.0201030043
 30
0.0
 11
120.5722470876
 21
274.1846030043
 31
0.0
  0
LINE
  5
9A
330
1F
100
AcDbEntity
  8
0
  6
Continuous
 62
     7
100
AcDbLine
 10
120.5722470876
 20
270.5508631733
 30
0.0
 11
120.5722470876
 21
267.5346030043
 31
0.0
  0
LINE
  5
9B
330
1F
100
AcDbEntity
  8
0
  6
Continuous
 62
     7
100
AcDbLine
 10
121.5699067865
 20
297.8065510502
 30
0.0
 11
121.5699067865
 21
286.8179651572
 31
0.0
  0
LINE
  5
9C
330
1F
100
AcDbEntity
  8
0
  6
Continuous
 62
     7
100
AcDbLine
 10
121.5699067865
 20
269.2626978018
 30
0.0
 11
121.5699067865
 21
280.2512408513
 31
0.0
  0
LINE
  5
9D
330
1F
100
AcDbEntity
  8
0
  6
Continuous
 62
     9
100
AcDbLine
 10
121.8199067865
 20
270.3096030043
 30
0.0
 11
121.8199067865
 21
280.6207352997
 31
0.0
  0
LINE
  5
9E
330
1F
100
AcDbEntity
  8
0
  6
Continuous
 62
     9
100
AcDbLine
 10
121.8199067865
 20
286.4484707089
 30
0.0
 11
121.8199067865
 21
296.7596030043
 31
0.0
  0
LINE
  5
9F
330
1F
100
AcDbEntity
  8
0
  6
Continuous
 62
     7
100
AcDbLine
 10
105.9297452482
 20
271.5072473074
 30
0.0
 11
106.0332728663
 21
271.5208769769
 31
0.0
  0
LINE
  5
A0
330
1F
100
AcDbEntity
  8
0
  6
Continuous
 62
     7
100
AcDbLine
 10
118.0573217815
 20
273.7846030043
 30
0.0
 11
121.5699067865
 21
273.7846030043
 31
0.0
  0
LINE
  5
A1
330
1F
100
AcDbEntity
  8
0
  6
Continuous
 62
     7
100
AcDbLine
 10
123.6449067865
 20
273.7846030043
 30
0.0
 11
126.5574067865
 21
273.7846030043
 31
0.0
  0
LINE
  5
A2
330
1F
100
AcDbEntity
  8
0
  6
Continuous
 62
     7
100
AcDbLine
 10
118.0573217815
 20
274.1846030043
 30
0.0
 11
121.5699067865
 21
274.1846030043
 31
0.0
  0
LINE
  5
A3
330
1F
100
AcDbEntity
  8
0
  6
Continuous
 62
     7
100
AcDbLine
 10
123.6449067865
 20
274.1846030043
 30
0.0
 11
126.5574067865
 21
274.1846030043
 31
0.0
  0
LINE
  5
A4
330
1F
100
AcDbEntity
  8
0
  6
Continuous
 62
     9
100
AcDbLine
 10
123.3949067865
 20
270.3096030043
 30
0.0
 11
123.3949067865
 21
280.6207352997
 31
0.0
  0
LINE
  5
A5
330
1F
100
AcDbEntity
  8
0
  6
Continuous
 62
     9
100
AcDbLine
 10
123.3949067865
 20
286.4484707089
 30
0.0
 11
123.3949067865
 21
296.7596030043
 31
0.0
  0
LINE
  5
A6
330
1F
100
AcDbEntity
  8
0
  6
Continuous
 62
     7
100
AcDbLine
 10
123.6449067865
 20
269.2626978018
 30
0.0
 11
123.6449067865
 21
280.2512408513
 31
0.0
  0
LINE
  5
A7
330
1F
100
AcDbEntity
  8
0
  6
Continuous
 62
     7
100
AcDbLine
 10
123.6449067865
 20
286.8179651572
 30
0.0
 11
123.6449067865
 21
297.8065510502
 31
0.0
  0
LINE
  5
A8
330
1F
100
AcDbEntity
  8
0
  6
Continuous
 62
     7
100
AcDbLine
 10
124.6425664854
 20
280.0201030043
 30
0.0
 11
124.6425664854
 21
274.1846030043
 31
0.0
  0
LINE
  5
A9
330
1F
100
AcDbEntity
  8
0
  6
Continuous
 62
     7
100
AcDbLine
 10
124.6425664854
 20
267.5346030043
 30
0.0
 11
124.6425664854
 21
270.5508631733
 31
0.0
  0
LINE
  5
AA
330
1F
100
AcDbEntity
  8
0
  6
Continuous
 62
     7
100
AcDbLine
 10
124.6425664854
 20
287.0491030043
 30
0.0
 11
124.6425664854
 21
299.5346030043
 31
0.0
  0
LINE
  5
AB
330
1F
100
AcDbEntity
  8
0
  6
Continuous
 62
     7
100
AcDbLine
 10
126.5574067865
 20
299.5345730087
 30
0.0
 11
126.5574067865
 21
286.6491030043
 31
0.0
  0
LINE
  5
AC
330
1F
100
AcDbEntity
  8
0
  6
Continuous
 62
     7
100
AcDbLine
 10
126.5574067865
 20
267.53466094
 30
0.0
 11
126.5574067865
 21
280.4201030043
 31
0.0
  0
LINE
  5
AD
330
1F
100
AcDbEntity
  8
RUNDUNGEN
  6
Continuous
 62
     7
100
AcDbLine
 10
126.5574067865
 20
280.4201030043
 30
0.0
 11
126.5574067865
 21
281.9252553103
 31
0.0
  0
LINE
  5
AE
330
1F
100
AcDbEntity
  8
RUNDUNGEN
  6
Continuous
 62
     7
100
AcDbLine
 10
126.5574067865
 20
285.1439506982
 30
0.0
 11
126.5574067865
 21
286.6491030043
 31
0.0
  0
LINE
  5
AF
330
1F
100
AcDbEntity
  8
RUNDUNGEN
  6
Continuous
 62
     9
100
AcDbLine
 10
127.5574067865
 20
271.5346030043
 30
0.0
 11
127.5574067865
 21
295.5346030043
 31
0.0
  0
LINE
  5
B0
330
1F
100
AcDbEntity
  8
0
  6
Continuous
 62
     7
100
AcDbLine
 10
105.9297452482
 20
271.5072473074
 30
0.0
 11
105.6074067865
 21
271.4208769769
 31
0.0
  0
LINE
  5
B1
330
1F
100
AcDbEntity
  8
DEFAULT_2
  6
HIDDEN
 62
     8
100
AcDbLine
 10
130.6074067865
 20
278.5346030043
 30
0.0
 11
147.3574067865
 21
278.5346030043
 31
0.0
  0
LINE
  5
B2
330
1F
100
AcDbEntity
  8
DEFAULT_2
  6
HIDDEN
 62
     8
100
AcDbLine
 10
147.3574067865
 20
278.5346030043
 30
0.0
 11
171.6074067865
 21
278.5346030043
 31
0.0
  0
LINE
  5
B3
330
1F
100
AcDbEntity
  8
RUNDUNGEN
  6
Continuous
 62
     9
100
AcDbLine
 10
93.4833678965
 20
278.6296030043
 30
0.0
 11
92.9074067865
 21
278.6296030043
 31
0.0
  0
LINE
  5
B4
330
1F
100
AcDbEntity
  8
0
  6
Continuous
 62
     9
100
AcDbLine
 10
92.9074067865
 20
278.6296030043
 30
0.0
 11
91.4275911428
 21
278.6296030043
 31
0.0
  0
LINE
  5
B5
330
1F
100
AcDbEntity
  8
0
  6
Continuous
 62
     7
100
AcDbLine
 10
92.9074067865
 20
280.0096030043
 30
0.0
 11
91.6574067865
 21
280.0096030043
 31
0.0
  0
LINE
  5
B6
330
1F
100
AcDbEntity
  8
0
  6
Continuous
 62
     7
100
AcDbLine
 10
118.0719067865
 20
280.0201030043
 30
0.0
 11
121.5699067865
 21
280.0201030043
 31
0.0
  0
LINE
  5
B7
330
1F
100
AcDbEntity
  8
0
  6
Continuous
 62
     7
100
AcDbLine
 10
123.6449067865
 20
280.0201030043
 30
0.0
 11
126.5574067865
 21
280.0201030043
 31
0.0
  0
LINE
  5
B8
330
1F
100
AcDbEntity
  8
0
  6
Continuous
 62
     7
100
AcDbLine
 10
126.5574067865
 20
280.4201030043
 30
0.0
 11
123.5389222145
 21
280.4201030043
 31
0.0
  0
LINE
  5
B9
330
1F
100
AcDbEntity
  8
0
  6
Continuous
 62
     7
100
AcDbLine
 10
121.6758913585
 20
280.4201030043
 30
0.0
 11
118.0719067865
 21
280.4201030043
 31
0.0
  0
LINE
  5
BA
330
1F
100
AcDbEntity
  8
0
  6
Continuous
 62
     7
100
AcDbLine
 10
121.8199067865
 20
280.6207352997
 30
0.0
 11
123.3949067865
 21
280.6207352997
 31
0.0
  0
LINE
  5
BB
330
1F
100
AcDbEntity
  8
DEFAULT_2
  6
HIDDEN
 62
     8
100
AcDbLine
 10
130.6074067865
 20
288.5346030043
 30
0.0
 11
130.6074067865
 21
278.5346030043
 31
0.0
  0
LINE
  5
BC
330
1F
100
AcDbEntity
  8
0
  6
Continuous
 62
     7
100
AcDbLine
 10
120.5722470876
 20
267.5346030043
 30
0.0
 11
121.5699067865
 21
269.2626002914
 31
0.0
  0
LWPOLYLINE
  5
BD
330
1F
100
AcDbEntity
  8
BEZUGSACHSEN
  6
DOT_CENTER
 62
     7
100
AcDbPolyline
 90
        2
 70
     0
 43
0.25
 10
101.6074067865
 20
283.5346030043
 10
96.6074067865
 20
283.5346030043
  0
LWPOLYLINE
  5
BE
330
1F
100
AcDbEntity
  8
TEIL_STARTBEZUEGE
  6
DOT_CENTER
 62
     7
100
AcDbPolyline
 90
        2
 70
     0
 43
0.25
 10
174.6074067865
 20
283.5346030043
 10
87.7074067865
 20
283.5346030043
  0
LWPOLYLINE
  5
BF
330
1F
100
AcDbEntity
  8
BEZUGSACHSEN
  6
DOT_CENTER
 62
     7
100
AcDbPolyline
 90
        2
 70
     0
 43
0.25
 10
101.6074067865
 20
283.5346030043
 10
106.6074067865
 20
283.5346030043
  0
LWPOLYLINE
  5
C0
330
1F
100
AcDbEntity
  8
FASEN
  6
DOT_CENTER
 62
     9
100
AcDbPolyline
 90
        2
 70
     0
 43
0.25
 10
99.0080760212
 20
283.5346029385
 10
99.6073625132
 20
283.5346029797
  0
LINE
  5
C1
330
1F
100
AcDbEntity
  8
0
  6
Continuous
 62
     7
100
AcDbLine
 10
120.5722470876
 20
299.5346030043
 30
0.0
 11
121.5699067865
 21
297.8066057171
 31
0.0
  0
LINE
  5
C2
330
1F
100
AcDbEntity
  8
0
  6
Continuous
 62
     7
100
AcDbLine
 10
123.3949067865
 20
286.4484707089
 30
0.0
 11
121.8199067865
 21
286.4484707089
 31
0.0
  0
LINE
  5
C3
330
1F
100
AcDbEntity
  8
0
  6
Continuous
 62
     7
100
AcDbLine
 10
118.0719067865
 20
286.6491030043
 30
0.0
 11
121.6758913585
 21
286.6491030043
 31
0.0
  0
LINE
  5
C4
330
1F
100
AcDbEntity
  8
0
  6
Continuous
 62
     7
100
AcDbLine
 10
123.5389222145
 20
286.6491030043
 30
0.0
 11
126.5574067865
 21
286.6491030043
 31
0.0
  0
LINE
  5
C5
330
1F
100
AcDbEntity
  8
0
  6
Continuous
 62
     7
100
AcDbLine
 10
118.0719067865
 20
287.0491030043
 30
0.0
 11
121.5699067865
 21
287.0491030043
 31
0.0
  0
LINE
  5
C6
330
1F
100
AcDbEntity
  8
0
  6
Continuous
 62
     7
100
AcDbLine
 10
123.6449067865
 20
287.0491030043
 30
0.0
 11
126.5574067865
 21
287.0491030043
 31
0.0
  0
LINE
  5
C7
330
1F
100
AcDbEntity
  8
0
  6
Continuous
 62
     7
100
AcDbLine
 10
92.9074067865
 20
287.0596030043
 30
0.0
 11
91.6574067865
 21
287.0596030043
 31
0.0
  0
LINE
  5
C8
330
1F
100
AcDbEntity
  8
0
  6
Continuous
 62
     9
100
AcDbLine
 10
92.9074067865
 20
288.4396030043
 30
0.0
 11
91.4275911428
 21
288.4396030043
 31
0.0
  0
LINE
  5
C9
330
1F
100
AcDbEntity
  8
RUNDUNGEN
  6
Continuous
 62
     9
100
AcDbLine
 10
92.9074067865
 20
288.4396030043
 30
0.0
 11
93.4833678965
 21
288.4396030043
 31
0.0
  0
LINE
  5
CA
330
1F
100
AcDbEntity
  8
DEFAULT_2
  6
HIDDEN
 62
     8
100
AcDbLine
 10
171.6074067865
 20
288.5346030043
 30
0.0
 11
130.6074067865
 21
288.5346030043
 31
0.0
  0
LINE
  5
CB
330
1F
100
AcDbEntity
  8
0
  6
Continuous
 62
     7
100
AcDbLine
 10
105.9297452482
 20
295.5619587012
 30
0.0
 11
105.6074067865
 21
295.6483290317
 31
0.0
  0
LINE
  5
CC
330
1F
100
AcDbEntity
  8
0
  6
Continuous
 62
     7
100
AcDbLine
 10
105.9297452482
 20
295.5619587012
 30
0.0
 11
106.0332728663
 21
295.5483290317
 31
0.0
  0
LINE
  5
CD
330
1F
100
AcDbEntity
  8
RUNDUNGEN
  6
Continuous
 62
     9
100
AcDbLine
 10
141.0574067865
 20
271.5346030043
 30
0.0
 11
141.0574067865
 21
295.5346030043
 31
0.0
  0
LINE
  5
CE
330
1F
100
AcDbEntity
  8
RUNDUNGEN
  6
Continuous
 62
     7
100
AcDbLine
 10
142.0574067865
 20
300.0346030043
 30
0.0
 11
142.0574067865
 21
267.0346030043
 31
0.0
  0
LINE
  5
CF
330
1F
100
AcDbEntity
  8
RUNDUNGEN
  6
Continuous
 62
     9
100
AcDbLine
 10
143.0574067865
 20
301.0346030043
 30
0.0
 11
143.0574067865
 21
266.0346030043
 31
0.0
  0
LINE
  5
D0
330
1F
100
AcDbEntity
  8
0
  6
Continuous
 62
     7
100
AcDbLine
 10
127.5574067865
 20
295.5346030043
 30
0.0
 11
141.0574067865
 21
295.5346030043
 31
0.0
  0
LINE
  5
D1
330
1F
100
AcDbEntity
  8
RUNDUNGEN
  6
Continuous
 62
     7
100
AcDbLine
 10
127.5574067865
 20
295.5346030043
 30
0.0
 11
141.0574067865
 21
295.5346030043
 31
0.0
  0
LINE
  5
D2
330
1F
100
AcDbEntity
  8
0
  6
Continuous
 62
     7
100
AcDbLine
 10
106.4532296232
 20
295.5483290317
 30
0.0
 11
106.0332728663
 21
295.5483290317
 31
0.0
  0
LINE
  5
D3
330
1F
100
AcDbEntity
  8
0
  6
Continuous
 62
     7
100
AcDbLine
 10
105.6074067865
 20
295.6483290317
 30
0.0
 11
91.2773828034
 21
294.9303555698
 31
0.0
  0
LINE
  5
D4
330
1F
100
AcDbEntity
  8
0
  6
Continuous
 62
     7
100
AcDbLine
 10
121.8199067865
 20
296.7596030043
 30
0.0
 11
123.3949067865
 21
296.7596030043
 31
0.0
  0
LINE
  5
D5
330
1F
100
AcDbEntity
  8
BEZUGSACHSEN
  6
HIDDEN
 62
     8
100
AcDbLine
 10
147.3574067865
 20
278.5346030043
 30
0.0
 11
147.3574067865
 21
266.0346030043
 31
0.0
  0
LINE
  5
D6
330
1F
100
AcDbEntity
  8
BEZUGSACHSEN
  6
Continuous
 62
     7
100
AcDbLine
 10
120.5722470876
 20
299.5346030043
 30
0.0
 11
118.6074067865
 21
299.5346030043
 31
0.0
  0
LINE
  5
D7
330
1F
100
AcDbEntity
  8
BEZUGSACHSEN
  6
Continuous
 62
     7
100
AcDbLine
 10
108.6074067865
 20
299.5346030043
 30
0.0
 11
106.6074067865
 21
299.5346030043
 31
0.0
  0
LINE
  5
D8
330
1F
100
AcDbEntity
  8
0
  6
Continuous
 62
     7
100
AcDbLine
 10
106.6074067865
 20
299.5346030043
 30
0.0
 11
108.6074067865
 21
299.5346030043
 31
0.0
  0
LINE
  5
D9
330
1F
100
AcDbEntity
  8
0
  6
Continuous
 62
     7
100
AcDbLine
 10
118.6074067865
 20
299.5346030043
 30
0.0
 11
120.5722470876
 21
299.5346030043
 31
0.0
  0
LINE
  5
DA
330
1F
100
AcDbEntity
  8
0
  6
Continuous
 62
     7
100
AcDbLine
 10
124.6425664854
 20
299.5346030043
 30
0.0
 11
126.5574067865
 21
299.5346030043
 31
0.0
  0
LINE
  5
DB
330
1F
100
AcDbEntity
  8
RUNDUNGEN
  6
Continuous
 62
     7
100
AcDbLine
 10
160.6631775213
 20
301.0346030043
 30
0.0
 11
143.0574067865
 21
301.0346030043
 31
0.0
  0
LINE
  5
DC
330
1F
100
AcDbEntity
  8
0
  6
Continuous
 62
     7
100
AcDbLine
 10
143.0574067865
 20
301.0346030043
 30
0.0
 11
160.6631775213
 21
301.0346030043
 31
0.0
  0
LWPOLYLINE
  5
DD
330
1F
100
AcDbEntity
  8
BEZUGSACHSEN
  6
DOT_CENTER
 62
     7
100
AcDbPolyline
 90
        2
 70
     0
 43
0.25
 10
151.6074067865
 20
263.0346030043
 10
151.6074067865
 20
283.9007394435
  0
LINE
  5
DE
330
1F
100
AcDbEntity
  8
BEZUGSACHSEN
  6
HIDDEN
 62
     8
100
AcDbLine
 10
155.8574067865
 20
278.5346030043
 30
0.0
 11
155.8574067865
 21
266.0346030043
 31
0.0
  0
LINE
  5
DF
330
1F
100
AcDbEntity
  8
RUNDUNGEN
  6
Continuous
 62
     9
100
AcDbLine
 10
160.6631775213
 20
266.0346030043
 30
0.0
 11
160.6631775213
 21
301.0346030043
 31
0.0
  0
LINE
  5
E0
330
1F
100
AcDbEntity
  8
0
  6
Continuous
 62
     7
100
AcDbLine
 10
161.085795783
 20
266.1282952173
 30
0.0
 11
171.0300250482
 21
270.7653654781
 31
0.0
  0
LINE
  5
E1
330
1F
100
AcDbEntity
  8
RUNDUNGEN
  6
Continuous
 62
     7
100
AcDbLine
 10
171.0300250482
 20
296.3038405305
 30
0.0
 11
161.085795783
 21
300.9409107913
 31
0.0
  0
LINE
  5
E2
330
1F
100
AcDbEntity
  8
0
  6
Continuous
 62
     7
100
AcDbLine
 10
161.085795783
 20
300.9409107913
 30
0.0
 11
171.0300250482
 21
296.3038405305
 31
0.0
  0
LINE
  5
E3
330
1F
100
AcDbEntity
  8
RUNDUNGEN
  6
Continuous
 62
     9
100
AcDbLine
 10
161.085795783
 20
266.1282952173
 30
0.0
 11
161.085795783
 21
300.9409107913
 31
0.0
  0
LINE
  5
E4
330
1F
100
AcDbEntity
  8
RUNDUNGEN
  6
Continuous
 62
     9
100
AcDbLine
 10
171.0300250482
 20
270.7653654781
 30
0.0
 11
171.0300250482
 21
296.3038405305
 31
0.0
  0
LINE
  5
E5
330
1F
100
AcDbEntity
  8
RUNDUNGEN
  6
Continuous
 62
     7
100
AcDbLine
 10
171.6074067865
 20
295.3975327435
 30
0.0
 11
171.6074067865
 21
271.6716732651
 31
0.0
  0
LINE
  5
E6
330
1F
100
AcDbEntity
  8
BEZUGSACHSEN
  6
HIDDEN
 62
     8
100
AcDbLine
 10
156.6074067865
 20
278.5346030043
 30
0.0
 11
156.6074067865
 21
266.0346030043
 31
0.0
  0
LINE
  5
E7
330
1F
100
AcDbEntity
  8
BEZUGSACHSEN
  6
HIDDEN
 62
     8
100
AcDbLine
 10
146.6074067865
 20
278.5346030043
 30
0.0
 11
146.6074067865
 21
266.0346030043
 31
0.0
  0
ARC
  5
E8
330
1F
100
AcDbEntity
  8
FASEN
  6
Continuous
 62
     7
100
AcDbCircle
 10
119.4764265094
 20
277.0224023374
 30
0.0
 40
7.891580868599926
100
AcDbArc
 50
231.4754833830968
 51
235.0904116738222
  0
ARC
  5
E9
330
1F
100
AcDbEntity
  8
FASEN
  6
Continuous
 62
     7
100
AcDbCircle
 10
118.0573217815
 20
270.6846030043
 30
0.0
 40
3.5
100
AcDbArc
 50
90.0
 51
177.3161918300962
  0
ARC
  5
EA
330
1F
100
AcDbEntity
  8
FASEN
  6
Continuous
 62
     7
100
AcDbCircle
 10
118.0573217815
 20
270.6846030043
 30
0.0
 40
3.099981417499976
100
AcDbArc
 50
90.0
 51
182.4726151194941
  0
ARC
  5
EB
330
1F
100
AcDbEntity
  8
RUNDUNGEN
  6
Continuous
 62
     7
100
AcDbCircle
 10
92.9074067865
 20
280.9096030043
 30
0.0
 40
0.8999999999999773
100
AcDbArc
 50
270.0
 51
352.9880362120755
  0
ARC
  5
EC
330
1F
100
AcDbEntity
  8
0
  6
Continuous
 62
     7
100
AcDbCircle
 10
91.3074067865
 20
272.7380987683
 30
0.0
 40
0.5999999999999943
100
AcDbArc
 50
179.999999952254
 51
267.1317229294834
  0
ARC
  5
ED
330
1F
100
AcDbEntity
  8
0
  6
Continuous
 62
     7
100
AcDbCircle
 10
106.4532296232
 20
271.1208769769
 30
0.0
 40
0.3999999999998977
100
AcDbArc
 50
67.30156454046462
 51
90.0
  0
ARC
  5
EE
330
1F
100
AcDbEntity
  8
0
  6
Continuous
 62
     7
100
AcDbCircle
 10
121.8199067865
 20
270.0596030043
 30
0.0
 40
0.25
100
AcDbArc
 50
90.0
 51
180.0
  0
ARC
  5
EF
330
1F
100
AcDbEntity
  8
0
  6
Continuous
 62
     7
100
AcDbCircle
 10
39.0157317898
 20
308.8451160735
 30
0.0
 40
90.09947276596439
100
AcDbArc
 50
334.8479477142376
 51
336.3847181612001
  0
ARC
  5
F0
330
1F
100
AcDbEntity
  8
0
  6
Continuous
 62
     7
100
AcDbCircle
 10
118.0719067865
 20
283.5346030043
 30
0.0
 40
3.514499999999998
100
AcDbArc
 50
90.0
 51
270.0
  0
ARC
  5
F1
330
1F
100
AcDbEntity
  8
FASEN
  6
Continuous
 62
     7
100
AcDbCircle
 10
118.0719067865
 20
283.5346030043
 30
0.0
 40
3.114489022600026
100
AcDbArc
 50
90.0
 51
270.0
  0
ARC
  5
F2
330
1F
100
AcDbEntity
  8
RUNDUNGEN
  6
Continuous
 62
     7
100
AcDbCircle
 10
92.9074067865
 20
286.1596030043
 30
0.0
 40
0.899999999999908
100
AcDbArc
 50
7.01400834807813
 51
90.0
  0
ARC
  5
F3
330
1F
100
AcDbEntity
  8
0
  6
Continuous
 62
     7
100
AcDbCircle
 10
91.3074067865
 20
294.3311072403
 30
0.0
 40
0.599999999974746
100
AcDbArc
 50
92.86827707051695
 51
180.0
  0
ARC
  5
F4
330
1F
100
AcDbEntity
  8
0
  6
Continuous
 62
     7
100
AcDbCircle
 10
106.0332728663
 20
295.9483290317
 30
0.0
 40
0.4000000000001431
100
AcDbArc
 50
254.9999999912591
 51
270.0
  0
ARC
  5
F5
330
1F
100
AcDbEntity
  8
0
  6
Continuous
 62
     7
100
AcDbCircle
 10
106.4532296232
 20
295.9483290317
 30
0.0
 40
0.3999999999999773
100
AcDbArc
 50
270.0
 51
292.6984354595353
  0
ARC
  5
F6
330
1F
100
AcDbEntity
  8
0
  6
Continuous
 62
     7
100
AcDbCircle
 10
121.8199067865
 20
297.0096030043
 30
0.0
 40
0.25
100
AcDbArc
 50
180.0
 51
270.0
  0
ARC
  5
F7
330
1F
100
AcDbEntity
  8
0
  6
Continuous
 62
     7
100
AcDbCircle
 10
151.5742289309
 20
-248.1815281754
 30
0.0
 40
540.1736480310998
100
AcDbArc
 50
96.23504095310001
 51
96.40370831110002
  0
ARC
  5
F8
330
1F
100
AcDbEntity
  8
RUNDUNGEN
  6
Continuous
 62
     7
100
AcDbCircle
 10
127.5574067865
 20
270.5346030043
 30
0.0
 40
1.0
100
AcDbArc
 50
90.0
 51
173.571428571388
  0
ARC
  5
F9
330
1F
100
AcDbEntity
  8
RUNDUNGEN
  6
Continuous
 62
     7
100
AcDbCircle
 10
141.0574067865
 20
270.5346030043
 30
0.0
 40
1.0
100
AcDbArc
 50
0.0
 51
90.0
  0
ARC
  5
FA
330
1F
100
AcDbEntity
  8
RUNDUNGEN
  6
Continuous
 62
     7
100
AcDbCircle
 10
170.6074067865
 20
271.6716732651
 30
0.0
 40
0.999999999949584
100
AcDbArc
 50
294.9999999987737
 51
0.0
  0
ARC
  5
FB
330
1F
100
AcDbEntity
  8
RUNDUNGEN
  6
Continuous
 62
     7
100
AcDbCircle
 10
143.0574067865
 20
267.0346030043
 30
0.0
 40
1.0
100
AcDbArc
 50
180.0
 51
270.0
  0
ARC
  5
FC
330
1F
100
AcDbEntity
  8
RUNDUNGEN
  6
Continuous
 62
     7
100
AcDbCircle
 10
160.6631775213
 20
267.0346030043
 30
0.0
 40
1.0
100
AcDbArc
 50
270.0
 51
294.9999999987737
  0
ARC
  5
FD
330
1F
100
AcDbEntity
  8
0
  6
Continuous
 62
     7
100
AcDbCircle
 10
123.3949067865
 20
270.0596030043
 30
0.0
 40
0.25
100
AcDbArc
 50
0.0
 51
90.0
  0
ARC
  5
FE
330
1F
100
AcDbEntity
  8
0
  6
Continuous
 62
     7
100
AcDbCircle
 10
151.5742289309
 20
815.250734184
 30
0.0
 40
540.1736480311002
100
AcDbArc
 50
263.5962916889
 51
263.7649590469
  0
ARC
  5
FF
330
1F
100
AcDbEntity
  8
0
  6
Continuous
 62
     7
100
AcDbCircle
 10
206.1990817831
 20
308.8451160735
 30
0.0
 40
90.09947276599952
100
AcDbArc
 50
203.6152818387999
 51
205.1520522857894
  0
ARC
  5
100
330
1F
100
AcDbEntity
  8
RUNDUNGEN
  6
Continuous
 62
     7
100
AcDbCircle
 10
141.0574067865
 20
296.5346030043
 30
0.0
 40
1.0
100
AcDbArc
 50
270.0
 51
0.0
  0
ARC
  5
101
330
1F
100
AcDbEntity
  8
RUNDUNGEN
  6
Continuous
 62
     7
100
AcDbCircle
 10
170.6074067865
 20
295.3975327435
 30
0.0
 40
1.0
100
AcDbArc
 50
0.0
 51
65.00000000122631
  0
ARC
  5
102
330
1F
100
AcDbEntity
  8
RUNDUNGEN
  6
Continuous
 62
     7
100
AcDbCircle
 10
143.0574067865
 20
300.0346030043
 30
0.0
 40
1.0
100
AcDbArc
 50
90.0
 51
180.0
  0
ARC
  5
103
330
1F
100
AcDbEntity
  8
RUNDUNGEN
  6
Continuous
 62
     7
100
AcDbCircle
 10
127.5574067865
 20
296.5346030043
 30
0.0
 40
0.9999999999995471
100
AcDbArc
 50
186.4285723245075
 51
270.0
  0
ARC
  5
104
330
1F
100
AcDbEntity
  8
RUNDUNGEN
  6
Continuous
 62
     7
100
AcDbCircle
 10
160.6631775213
 20
300.0346030043
 30
0.0
 40
0.999999999949584
100
AcDbArc
 50
65.00000000122631
 51
90.0
  0
ARC
  5
105
330
1F
100
AcDbEntity
  8
0
  6
Continuous
 62
     7
100
AcDbCircle
 10
123.3949067865
 20
297.0096030043
 30
0.0
 40
0.25
100
AcDbArc
 50
270.0
 51
0.0
  0
CIRCLE
  5
106
330
1F
100
AcDbEntity
  8
FASEN
  6
Continuous
 62
     7
100
AcDbCircle
 10
101.6074067865
 20
283.5346030043
 30
0.0
 40
2.0
  0
SPLINE
  5
107
330
1F
100
AcDbEntity
  8
0
  6
Continuous
 62
     2
100
AcDbSpline
210
0.0
220
0.0
230
1.0
 70
     8
 71
     3
 72
    49
 73
    45
 74
    43
 42
0.0000000001
 43
0.0000000001
 44
0.00000001
 40
0.0
 40
0.0
 40
0.0
 40
0.0
 40
0.0147276967299337
 40
0.0585937938459627
 40
0.1310529345370922
 40
0.2312800370104981
 40
0.3584543476807445
 40
0.5120475405602722
 40
0.6914570193290563
 40
0.895475626433696
 40
1.122880435550972
 40
1.372962982588257
 40
1.644780766482908
 40
1.935893245164819
 40
2.243805542645045
 40
2.567245163914578
 40
2.904710092137417
 40
3.252483011456356
 40
3.606986816975327
 40
3.967362859362745
 40
4.332948633639484
 40
4.701106289937115
 40
5.06932390316627
 40
5.437549763035543
 40
5.805730907251834
 40
6.17134907044352
 40
6.531759559353679
 40
6.886296056379133
 40
7.234096191322422
 40
7.571576492892048
 40
7.895015453170433
 40
8.202918304875407
 40
8.494020844568608
 40
8.765829255920826
 40
9.015903525256258
 40
9.243306763460215
 40
9.447335242591794
 40
9.626762171879216
 40
9.780375269958233
 40
9.907570369383004
 40
10.00781787220865
 40
10.08029340774071
 40
10.12416867687583
 40
10.13889905028897
 40
10.13889905028897
 40
10.13889905028897
 40
10.13889905028897
 10
156.6074067865
 20
266.0345842646
 30
0.0
 10
156.6026874341598
 20
266.0359364048735
 30
0.0
 10
156.5839116022574
 20
266.0413158630394
 30
0.0
 10
156.5418842171612
 20
266.0532332249039
 30
0.0
 10
156.4723947809111
 20
266.0727724433133
 30
0.0
 10
156.3760514715126
 20
266.0993948721102
 30
0.0
 10
156.2534697126619
 20
266.1325979634438
 30
0.0
 10
156.1051343388912
 20
266.1716655028117
 30
0.0
 10
155.9316695087585
 20
266.2158730047784
 30
0.0
 10
155.733892039298
 20
266.2642766671553
 30
0.0
 10
155.5126645236849
 20
266.3159125377484
 30
0.0
 10
155.2687442378458
 20
266.369677515051
 30
0.0
 10
155.0033162216673
 20
266.4244148795532
 30
0.0
 10
154.7181724426982
 20
266.4788457540258
 30
0.0
 10
154.4152310265258
 20
266.531612816904
 30
0.0
 10
154.0961460629184
 20
266.5814706349304
 30
0.0
 10
153.7630226144518
 20
266.6271867095852
 30
0.0
 10
153.41880136196
 20
266.6677498135128
 30
0.0
 10
153.0662219719181
 20
266.7020407719989
 30
0.0
 10
152.7070786333302
 20
266.7293804746784
 30
0.0
 10
152.342885623562
 20
266.7492467862872
 30
0.0
 10
151.9757375604076
 20
266.7614002219881
 30
0.0
 10
151.6075296538342
 20
266.7654781487525
 30
0.0
 10
151.2393138547224
 20
266.7614055860755
 30
0.0
 10
150.8721442609818
 20
266.7492563633165
 30
0.0
 10
150.5079209361546
 20
266.7293929056042
 30
0.0
 10
150.1487442362667
 20
266.7020542679483
 30
0.0
 10
149.7961332643976
 20
266.6677630455196
 30
0.0
 10
149.4518868559541
 20
266.6271989538748
 30
0.0
 10
149.1187493270469
 20
266.5814826786916
 30
0.0
 10
148.7996623853382
 20
266.5316261384396
 30
0.0
 10
148.4967273450769
 20
266.4788614110286
 30
0.0
 10
148.2115927256889
 20
266.4244336870607
 30
0.0
 10
147.9461734101196
 20
266.3696996710981
 30
0.0
 10
147.7022590561513
 20
266.3159375479764
 30
0.0
 10
147.4810312462931
 20
266.264302901531
 30
0.0
 10
147.2832451861892
 20
266.2158982312521
 30
0.0
 10
147.1097648694382
 20
266.1716877481715
 30
0.0
 10
146.9614106018277
 20
266.1326158447093
 30
0.0
 10
146.8388090970688
 20
266.0994077581158
 30
0.0
 10
146.7424472343714
 20
266.072780404307
 30
0.0
 10
146.6729430259944
 20
266.0532371153813
 30
0.0
 10
146.6309065943401
 20
266.0413171461862
 30
0.0
 10
146.6121269903464
 20
266.0359365139072
 30
0.0
 10
146.6074067865
 20
266.0345841062
 30
0.0
 11
156.6074067865
 21
266.0345842646
 31
0.0
 11
156.5932478057795
 21
266.0386374504983
 31
0.0
 11
156.5510504220362
 21
266.0506214098362
 31
0.0
 11
156.4812929559919
 21
266.0702230169329
 31
0.0
 11
156.3846896607476
 21
266.0969302335261
 31
0.0
 11
156.2619350427207
 21
266.1301658928024
 31
0.0
 11
156.1134086908182
 21
266.1692912258932
 31
0.0
 11
155.9395539105091
 21
266.2135888153961
 31
0.0
 11
155.7413837899398
 21
266.2620882520777
 31
0.0
 11
155.5199271958425
 21
266.3137595607556
 31
0.0
 11
155.2757063248
 21
266.3675874947666
 31
0.0
 11
155.0094894771049
 21
266.4224828283089
 31
0.0
 11
154.7235360380395
 21
266.4770456905046
 31
0.0
 11
154.4201874803173
 21
266.5298626903001
 31
0.0
 11
154.1006225413881
 21
266.5797770010151
 31
0.0
 11
153.7662928608371
 21
266.6256708184979
 31
0.0
 11
153.4209044263091
 21
266.6663258637678
 31
0.0
 11
153.0680639572287
 21
266.7006267603528
 31
0.0
 11
152.7087267516169
 21
266.727970216424
 31
0.0
 11
152.3436847030854
 21
266.7479016277509
 31
0.0
 11
151.9757275046667
 21
266.7600490563833
 31
0.0
 11
151.6075323922583
 21
266.7641196694541
 31
0.0
 11
151.2393289738
 21
266.76005438815
 31
0.0
 11
150.87134813535
 21
266.7479111805822
 31
0.0
 11
150.5062735033998
 21
266.7279824485072
 31
0.0
 11
150.1469016764609
 21
266.7006399811883
 31
0.0
 11
149.7940284006909
 21
266.6663386842678
 31
0.0
 11
149.4486126988899
 21
266.6256824815937
 31
0.0
 11
149.1142675571286
 21
266.5797882539817
 31
0.0
 11
148.7947030406348
 21
266.529875521898
 31
0.0
 11
148.4913635684605
 21
266.4770614072212
 31
0.0
 11
148.2054196327138
 21
266.4225017680589
 31
0.0
 11
147.93921165965
 21
266.36760980545
 31
0.0
 11
147.6949985537075
 21
266.3137850985805
 31
0.0
 11
147.4735431979102
 21
266.2621153962943
 31
0.0
 11
147.2753632283096
 21
266.2136146752085
 31
0.0
 11
147.1014913144818
 21
266.1693136533764
 31
0.0
 11
146.9529455616043
 21
266.1301838283899
 31
0.0
 11
146.8301707855524
 21
266.0969430750428
 31
0.0
 11
146.7335477763362
 21
266.0702306076766
 31
0.0
 11
146.6637745108888
 21
266.0506246218695
 31
0.0
 11
146.6215683231423
 21
266.0386380895274
 31
0.0
 11
146.6074067865
 21
266.0345841062
 31
0.0
  0
SPLINE
  5
108
330
1F
100
AcDbEntity
  8
BEZUGSACHSEN
  6
Continuous
 62
     7
100
AcDbSpline
210
0.0
220
0.0
230
1.0
 70
     8
 71
     3
 72
    15
 73
    11
 74
     9
 42
0.0000000001
 43
0.0000000001
 44
0.00000001
 40
0.0
 40
0.0
 40
0.0
 40
0.0
 40
0.9628201223048992
 40
1.926005549750928
 40
2.746145156432917
 40
3.566131340618344
 40
4.124321693018336
 40
4.682477186098851
 40
4.882745115119492
 40
5.083000347093581
 40
5.083000347093581
 40
5.083000347093581
 40
5.083000347093581
 10
113.6074067865
 20
298.7332871579
 30
0.0
 10
113.2864170961701
 20
298.7392196612985
 30
0.0
 10
112.6443159282924
 20
298.7510869189563
 30
0.0
 10
111.7324057145026
 20
298.8406820836591
 30
0.0
 10
110.8741062073176
 20
298.9701459703804
 30
0.0
 10
110.1556058591768
 20
299.1157344407028
 30
0.0
 10
109.5283492195449
 20
299.2682278498434
 30
0.0
 10
109.1051736865667
 20
299.3848114803113
 30
0.0
 10
108.798721241803
 20
299.4754133371722
 30
0.0
 10
108.6711769238336
 20
299.5148735322352
 30
0.0
 10
108.6074067865
 20
299.5346030043
 30
0.0
 11
113.6074067865
 21
298.7332871579
 31
0.0
 11
112.6450709886578
 21
298.7638223852052
 31
0.0
 11
111.6861395515376
 21
298.8542473073616
 31
0.0
 11
110.8752261081664
 21
298.9769190718733
 31
0.0
 11
110.0714553106318
 21
299.1391838163053
 31
0.0
 11
109.5290436667514
 21
299.2709642325109
 31
0.0
 11
108.9908634750606
 21
299.418949487613
 31
0.0
 11
108.7988390477663
 21
299.475816549402
 31
0.0
 11
108.6074067865
 21
299.5346030043
 31
0.0
  0
SPLINE
  5
109
330
1F
100
AcDbEntity
  8
BEZUGSACHSEN
  6
Continuous
 62
     7
100
AcDbSpline
210
0.0
220
0.0
230
1.0
 70
     8
 71
     3
 72
    23
 73
    19
 74
    17
 42
0.0000000001
 43
0.0000000001
 44
0.00000001
 40
0.0
 40
0.0
 40
0.0
 40
0.0
 40
0.1669336674883643
 40
0.3338726162460901
 40
0.8028951218219955
 40
1.271944313405169
 40
1.965810948217134
 40
2.65971962789397
 40
3.475914137504633
 40
4.292127248942831
 40
5.108342891795751
 40
5.92453993737397
 40
6.618457072306812
 40
7.312332158684611
 40
7.781393639641832
 40
8.250428434535982
 40
8.41737213664252
 40
8.584310556477815
 40
8.584310556477815
 40
8.584310556477815
 40
8.584310556477815
 10
147.3574067865
 20
266.0346030043
 30
0.0
 10
147.4115109345705
 20
266.0476068197523
 30
0.0
 10
147.5197209424007
 20
266.0736148620578
 30
0.0
 10
147.7805874831512
 20
266.1334242270005
 30
0.0
 10
148.1408797689652
 20
266.210171468577
 30
0.0
 10
148.6756115519953
 20
266.3103232438347
 30
0.0
 10
149.2873951464077
 20
266.4052191274904
 30
0.0
 10
150.0173590816718
 20
266.4897130580847
 30
0.0
 10
150.79109722488
 20
266.545354725
 30
0.0
 10
151.6073795870113
 20
266.5650973411957
 30
0.0
 10
152.423662857643
 20
266.5453572283533
 30
0.0
 10
153.1974056661372
 20
266.4897175754097
 30
0.0
 10
153.9273762859665
 20
266.4052249787033
 30
0.0
 10
154.5391697215895
 20
266.3103289952247
 30
0.0
 10
155.0739124752833
 20
266.2101759611303
 30
0.0
 10
155.4342143774948
 20
266.1334269186227
 30
0.0
 10
155.695088012684
 20
266.0736159863061
 30
0.0
 10
155.8033010992327
 20
266.0476071944757
 30
0.0
 10
155.8574067865
 20
266.0346030043
 30
0.0
 11
147.3574067865
 21
266.0346030043
 31
0.0
 11
147.5197861448785
 21
266.0733301693615
 31
0.0
 11
147.6824885227195
 21
266.1107005969378
 31
0.0
 11
148.1412494256494
 21
266.2082738754498
 31
0.0
 11
148.6022891293576
 21
266.2945845684695
 31
0.0
 11
149.2879799878393
 21
266.4007869860495
 31
0.0
 11
149.9773033215076
 21
266.4804274116589
 31
0.0
 11
150.7914018029742
 21
266.5388837200649
 31
0.0
 11
151.6073787536461
 21
266.5585168363698
 31
0.0
 11
152.4233582959585
 21
266.5388861928382
 31
0.0
 11
153.237459484258
 21
266.4804321731309
 31
0.0
 11
153.9267914413149
 21
266.4007927159919
 31
0.0
 11
154.6124908897513
 21
266.2945905412972
 31
0.0
 11
155.0735427986341
 21
266.208278258085
 31
0.0
 11
155.5323157884534
 21
266.1107027353674
 31
0.0
 11
155.6950228067338
 21
266.0733312773365
 31
0.0
 11
155.8574067865
 21
266.0346030043
 31
0.0
  0
SPLINE
  5
10A
330
1F
100
AcDbEntity
  8
BEZUGSACHSEN
  6
Continuous
 62
     7
100
AcDbSpline
210
0.0
220
0.0
230
1.0
 70
     8
 71
     3
 72
    15
 73
    11
 74
     9
 42
0.0000000001
 43
0.0000000001
 44
0.00000001
 40
0.0
 40
0.0
 40
0.0
 40
0.0
 40
0.200248939503516
 40
0.400510576503076
 40
0.9586560729485805
 40
1.516836421076484
 40
2.336828142813852
 40
3.156973315786582
 40
4.120169472744929
 40
5.083000289842237
 40
5.083000289842237
 40
5.083000289842237
 40
5.083000289842237
 10
118.6074067865
 20
299.5346030043
 30
0.0
 10
118.5436386495472
 20
299.5148741634312
 30
0.0
 10
118.4160983321962
 20
299.4754152307161
 30
0.0
 10
118.1096531452725
 20
299.3848153765116
 30
0.0
 10
117.6864861873256
 20
299.268233635369
 30
0.0
 10
117.0592344826608
 20
299.1157403504787
 30
0.0
 10
116.3407339699805
 20
298.9701507993129
 30
0.0
 10
115.482427419878
 20
298.8406848380632
 30
0.0
 10
114.570508355602
 20
298.7510874980272
 30
0.0
 10
113.9284000432695
 20
298.7392198542348
 30
0.0
 10
113.6074067865
 20
298.7332871579
 30
0.0
 11
118.6074067865
 21
299.5346030043
 31
0.0
 11
118.4159805360438
 21
299.4758184110074
 31
0.0
 11
118.2239621644364
 21
299.4189530593514
 31
0.0
 11
117.6857917599634
 21
299.2709699152039
 31
0.0
 11
117.1433900443372
 21
299.1391910097524
 31
0.0
 11
116.3396140587705
 21
298.9769239806181
 31
0.0
 11
115.5286952655181
 21
298.8542503669086
 31
0.0
 11
114.5697532564827
 21
298.7638232687223
 31
0.0
 11
113.6074067865
 21
298.7332871579
 31
0.0
  0
SPLINE
  5
10B
330
1F
100
AcDbEntity
  8
0
  6
Continuous
 62
     7
100
AcDbSpline
210
0.0
220
0.0
230
1.0
 70
     8
 71
     3
 72
    19
 73
    15
 74
    13
 42
0.0000000001
 43
0.0000000001
 44
0.00000001
 40
0.0
 40
0.0
 40
0.0
 40
0.0
 40
0.0161946968421492
 40
0.0325629814719509
 40
0.0487883952292207
 40
0.0649854783945407
 40
0.0811702247998493
 40
0.0973487887766084
 40
0.1135238753882607
 40
0.1297004760267731
 40
0.1620346809964225
 40
0.1943842542667842
 40
0.2267297213086378
 40
0.2590669273407367
 40
0.2590669273407367
 40
0.2590669273407367
 40
0.2590669273407367
 10
123.3949067865
 20
280.6207352997
 30
0.0
 10
123.4003138738967
 20
280.6202240545507
 30
0.0
 10
123.4111860062023
 20
280.6191960843155
 30
0.0
 10
123.4262289011132
 20
280.6123922468557
 30
0.0
 10
123.4396327947802
 20
280.6031073032003
 30
0.0
 10
123.4513925810146
 20
280.5918867932805
 30
0.0
 10
123.4620307609019
 20
280.579669482461
 30
0.0
 10
123.4716852652525
 20
280.566668342283
 30
0.0
 10
123.4805339070911
 20
280.5531173067275
 30
0.0
 10
123.4914227008961
 20
280.534499591818
 30
0.0
 10
123.5036939394988
 20
280.5104751853384
 30
0.0
 10
123.5166702096256
 20
280.4808374349507
 30
0.0
 10
123.5284508606616
 20
280.4507038220851
 30
0.0
 10
123.5354320604241
 20
280.4303024083663
 30
0.0
 10
123.5389222145
 20
280.4201030043
 30
0.0
 11
123.3949067865
 21
280.6207352997
 31
0.0
 11
123.410922258201
 21
280.6183326195294
 31
0.0
 11
123.4259966980515
 21
280.6119543748715
 31
0.0
 11
123.4393743541065
 21
280.6027727426599
 31
0.0
 11
123.4512103322914
 21
280.5917158387772
 31
0.0
 11
123.4618688880825
 21
280.579536298365
 31
0.0
 11
123.4715518871001
 21
280.5665753777814
 31
0.0
 11
123.4804204177424
 21
280.5530482719881
 31
0.0
 11
123.4886134262858
 21
280.5390999022187
 31
0.0
 11
123.5034003015928
 21
280.5103449177868
 31
0.0
 11
123.5164713755386
 21
280.4807536704884
 31
0.0
 11
123.5282338327176
 21
280.4506227256099
 31
0.0
 11
123.5389222145
 21
280.4201030043
 31
0.0
  0
SPLINE
  5
10C
330
1F
100
AcDbEntity
  8
0
  6
Continuous
 62
     7
100
AcDbSpline
210
0.0
220
0.0
230
1.0
 70
     8
 71
     3
 72
    19
 73
    15
 74
    13
 42
0.0000000001
 43
0.0000000001
 44
0.00000001
 40
0.0
 40
0.0
 40
0.0
 40
0.0
 40
0.0323151378576674
 40
0.064639997768451
 40
0.0969742998980379
 40
0.1292882109558065
 40
0.1454536097196394
 40
0.1616217905965792
 40
0.1778063534071268
 40
0.1939890918079256
 40
0.2101993892270418
 40
0.2264513050400774
 40
0.2428488340706372
 40
0.2590606653717623
 40
0.2590606653717623
 40
0.2590606653717623
 40
0.2590606653717623
 10
121.6758913585
 20
280.4201030043
 30
0.0
 10
121.6793801807901
 20
280.4302950966405
 30
0.0
 10
121.6863588749872
 20
280.4506823476264
 30
0.0
 10
121.6981325388499
 20
280.4807976998481
 30
0.0
 10
121.7110779227338
 20
280.5104282242152
 30
0.0
 10
121.7233378168038
 20
280.5344421018784
 30
0.0
 10
121.7342443382454
 20
280.5530347640018
 30
0.0
 10
121.7430914921448
 20
280.5665809132522
 30
0.0
 10
121.7527008538387
 20
280.5796132168699
 30
0.0
 10
121.7633125614884
 20
280.5918634171796
 30
0.0
 10
121.7751149690296
 20
280.603061741329
 30
0.0
 10
121.7885623289131
 20
280.612317126967
 30
0.0
 10
121.8036069505774
 20
280.6191710069338
 30
0.0
 10
121.8144941740386
 20
280.620215852108
 30
0.0
 10
121.8199067865
 20
280.6207352997
 30
0.0
 11
121.6758913585
 21
280.4201030043
 31
0.0
 11
121.6865750743404
 21
280.4506009771933
 31
0.0
 11
121.6983266784759
 21
280.4807140369597
 31
0.0
 11
121.7113751606229
 21
280.5102985634536
 31
0.0
 11
121.7261538385455
 21
280.5390349433006
 31
0.0
 11
121.7343541054559
 21
280.5529660502125
 31
0.0
 11
121.7432148679421
 21
280.5664899905049
 31
0.0
 11
121.7528668107469
 21
280.5794815290382
 31
0.0
 11
121.7635019828641
 21
280.5916788294028
 31
0.0
 11
121.7753687624271
 21
280.6027220755388
 31
0.0
 11
121.7887866334464
 21
280.6118918904172
 31
0.0
 11
121.8038782065103
 21
280.6183046418365
 31
0.0
 11
121.8199067865
 21
280.6207352997
 31
0.0
  0
SPLINE
  5
10D
330
1F
100
AcDbEntity
  8
0
  6
Continuous
 62
     7
100
AcDbSpline
210
0.0
220
0.0
230
1.0
 70
     8
 71
     3
 72
    19
 73
    15
 74
    13
 42
0.0000000001
 43
0.0000000001
 44
0.00000001
 40
0.0
 40
0.0
 40
0.0
 40
0.0
 40
0.0162157579219098
 40
0.0326226840510755
 40
0.0488914582979396
 40
0.0651130426050171
 40
0.0812845012907391
 40
0.0974608275038102
 40
0.1136293935421087
 40
0.1297937135524412
 40
0.1620994000171785
 40
0.1944270046139971
 40
0.2267452805163433
 40
0.2590534186086696
 40
0.2590534186086696
 40
0.2590534186086696
 40
0.2590534186086696
 10
121.8199067865
 20
286.4484707089
 30
0.0
 10
121.8144929596506
 20
286.4489940116126
 30
0.0
 10
121.8036014821343
 20
286.4500467862741
 30
0.0
 10
121.7885579017578
 20
286.4569253870769
 30
0.0
 10
121.7750914786262
 20
286.4661719726602
 30
0.0
 10
121.7632713180314
 20
286.4773613859277
 30
0.0
 10
121.7526701716666
 20
286.4896179168896
 30
0.0
 10
121.7430788114754
 20
286.502655244786
 30
0.0
 10
121.734233840678
 20
286.5161989646653
 30
0.0
 10
121.7233224451633
 20
286.534785356597
 30
0.0
 10
121.7110657040428
 20
286.5587951563206
 30
0.0
 10
121.6981286745103
 20
286.5884214338752
 30
0.0
 10
121.6863574053466
 20
286.6185304047816
 30
0.0
 10
121.6793796759216
 20
286.6389132035962
 30
0.0
 10
121.6758913585
 20
286.6491030043
 30
0.0
 11
121.8199067865
 21
286.4484707089
 31
0.0
 11
121.8038762349843
 21
286.4509145221265
 31
0.0
 11
121.7887814126467
 21
286.4573436405423
 31
0.0
 11
121.7753432180979
 21
286.4665135883482
 31
0.0
 11
121.7634592695243
 21
286.4775549453178
 31
0.0
 11
121.7528375712831
 21
286.4897490259513
 31
0.0
 11
121.7432015207561
 21
286.5027421033387
 31
0.0
 11
121.7343424582845
 21
286.5162676177414
 31
0.0
 11
121.7261394399252
 21
286.5301958527766
 31
0.0
 11
121.7113638598305
 21
286.5589245772666
 31
0.0
 11
121.6983218634002
 21
286.5885046440021
 31
0.0
 11
121.6865733971412
 21
286.6186118607094
 31
0.0
 11
121.6758913585
 21
286.6491030043
 31
0.0
  0
SPLINE
  5
10E
330
1F
100
AcDbEntity
  8
0
  6
Continuous
 62
     7
100
AcDbSpline
210
0.0
220
0.0
230
1.0
 70
     8
 71
     3
 72
    19
 73
    15
 74
    13
 42
0.0000000001
 43
0.0000000001
 44
0.00000001
 40
0.0
 40
0.0
 40
0.0
 40
0.0
 40
0.0323407212109797
 40
0.0646896689929329
 40
0.0970430073877176
 40
0.1293811553889933
 40
0.1455604632840448
 40
0.1617380090313986
 40
0.1779190469427504
 40
0.1941069132531064
 40
0.2103064803457838
 40
0.2265329504593125
 40
0.2428873474241266
 40
0.2590698531083437
 40
0.2590698531083437
 40
0.2590698531083437
 40
0.2590698531083437
 10
123.5389222145
 20
286.6491030043
 30
0.0
 10
123.5354316643786
 20
286.6389024968693
 30
0.0
 10
123.5284496762379
 20
286.6184988872851
 30
0.0
 10
123.5166674563305
 20
286.5883620316608
 30
0.0
 10
123.5036892566334
 20
286.5587210495896
 30
0.0
 10
123.4914159897095
 20
286.5346937782314
 30
0.0
 10
123.4805253237788
 20
286.5160736359642
 30
0.0
 10
123.4716743112778
 20
286.502521068524
 30
0.0
 10
123.4620158218102
 20
286.4895195128368
 30
0.0
 10
123.4513744089117
 20
286.4773015509606
 30
0.0
 10
123.4396145909931
 20
286.4660780617575
 30
0.0
 10
123.4262127982532
 20
286.4567950588633
 30
0.0
 10
123.4111732850197
 20
286.4500045887449
 30
0.0
 10
123.4003098222462
 20
286.4489801982423
 30
0.0
 10
123.3949067865
 20
286.4484707089
 30
0.0
 11
123.5389222145
 21
286.6491030043
 31
0.0
 11
123.528232585384
 21
286.6185799953099
 31
0.0
 11
123.5164686077325
 21
286.588445907429
 31
0.0
 11
123.5033955919854
 21
286.5588514017808
 31
0.0
 11
123.4886064064302
 21
286.5300931715368
 31
0.0
 11
123.4804116522515
 21
286.5161426873906
 31
0.0
 11
123.4715406814061
 21
286.5026142409658
 31
0.0
 11
123.4618542095132
 21
286.4896528270708
 31
0.0
 11
123.4511924886135
 21
286.4774719107203
 31
0.0
 11
123.4393553656323
 21
286.4664125936745
 31
0.0
 11
123.4259757541281
 21
286.4572319440057
 31
0.0
 11
123.4109109542033
 21
286.4508665608038
 31
0.0
 11
123.3949067865
 21
286.4484707089
 31
0.0
  0
SPLINE
  5
10F
330
1F
100
AcDbEntity
  8
0
  6
Continuous
 62
     7
100
AcDbSpline
210
0.0
220
0.0
230
1.0
 70
     8
 71
     3
 72
    25
 73
    21
 74
    19
 42
0.0000000001
 43
0.0000000001
 44
0.00000001
 40
0.0
 40
0.0
 40
0.0
 40
0.0
 40
0.0515355898425088
 40
0.1032261445760935
 40
0.1471729976591652
 40
0.1906825403242327
 40
0.2104686839191603
 40
0.2302602713140096
 40
0.2498850527575344
 40
0.26950829485716
 40
0.3114337744747659
 40
0.3537000625198526
 40
0.4018001484258675
 40
0.4498049386197148
 40
0.5032236942363576
 40
0.5566554561790619
 40
0.6141450523829841
 40
0.6716326391916171
 40
0.7320826682131649
 40
0.7925231051919527
 40
0.7925231051919527
 40
0.7925231051919527
 40
0.7925231051919527
 10
90.7074067865
 20
288.6768862182
 30
0.0
 10
90.70782774252687
 20
288.694077990674
 30
0.0
 10
90.70867092037392
 20
288.7285132304052
 30
0.0
 10
90.71784676178096
 20
288.7769894663067
 30
0.0
 10
90.73404628711674
 20
288.8206841178369
 30
0.0
 10
90.75391967766316
 20
288.8509905371152
 30
0.0
 10
90.77393263022898
 20
288.8702607768426
 30
0.0
 10
90.79001508951717
 20
288.8818248023055
 30
0.0
 10
90.80760752963079
 20
288.8908032943378
 30
0.0
 10
90.83325466108779
 20
288.899667675777
 30
0.0
 10
90.86798653762406
 20
288.9040323435093
 30
0.0
 10
90.91212864447846
 20
288.9003581085685
 30
0.0
 10
90.95708229651908
 20
288.8892576485015
 30
0.0
 10
91.00357990594632
 20
288.8710592637916
 30
0.0
 10
91.04976493553056
 20
288.8478631093725
 30
0.0
 10
91.0966405878196
 20
288.8194307696269
 30
0.0
 10
91.14270039809432
 20
288.7872772833034
 30
0.0
 10
91.18867469356962
 20
288.7511069837938
 30
0.0
 10
91.23373907152966
 20
288.7122739763173
 30
0.0
 10
91.26283566233197
 20
288.6843872571494
 30
0.0
 10
91.2773828034
 20
288.6704450039
 30
0.0
 11
90.7074067865
 21
288.6768862182
 31
0.0
 11
90.71006363361049
 21
288.7283532774112
 31
0.0
 11
90.71984024842303
 21
288.7791108507523
 31
0.0
 11
90.73561856832453
 21
288.8201275609688
 31
0.0
 11
90.75997746178166
 21
288.8561792545833
 31
0.0
 11
90.77423583525626
 21
288.8698975002516
 31
0.0
 11
90.79032201444623
 21
288.8814275380086
 31
0.0
 11
90.80778439823601
 21
288.8903828268975
 31
0.0
 11
90.82632454393492
 21
288.8968120280892
 31
0.0
 11
90.86785407697546
 21
288.9025603953879
 31
0.0
 11
90.91000820488188
 21
288.8994832854517
 31
0.0
 11
90.9567784923515
 21
288.8882512565087
 31
0.0
 11
91.00160718278876
 21
288.8710801064239
 31
0.0
 11
91.04941359004756
 21
288.8472450298216
 31
0.0
 11
91.09518108611572
 21
288.8196716824015
 31
0.0
 11
91.14237240914785
 21
288.7868382740775
 31
0.0
 11
91.18763390023857
 21
288.7513950792254
 31
0.0
 11
91.23338032182808
 21
288.7118796275582
 31
0.0
 11
91.2773828034
 21
288.6704450039
 31
0.0
  0
SPLINE
  5
110
330
1F
100
AcDbEntity
  8
FASEN
  6
Continuous
 62
     7
100
AcDbSpline
210
0.0
220
0.0
230
1.0
 70
     8
 71
     3
 72
    39
 73
    35
 74
    33
 42
0.0000000001
 43
0.0000000001
 44
0.00000001
 40
0.0
 40
0.0
 40
0.0
 40
0.0
 40
0.2553577285316815
 40
0.5109896323605999
 40
0.7663075576832794
 40
1.021546002062967
 40
1.276529593096876
 40
1.531532755281607
 40
1.786374926106597
 40
2.041212220225249
 40
2.296179460875472
 40
2.551148967974493
 40
2.806438834177834
 40
3.061729585110756
 40
3.317263360146119
 40
3.572798987511588
 40
3.828233599976523
 40
4.083666629260475
 40
4.338551083466765
 40
4.593435980571289
 40
4.847479663976027
 40
5.101516738189547
 40
5.354764944595386
 40
5.608016841201655
 40
5.86090765500487
 40
6.113791644717271
 40
6.366940163615434
 40
6.620098299770823
 40
6.874044587917589
 40
7.127973589632032
 40
7.382778237900668
 40
7.637655536245521
 40
7.893216235507714
 40
8.148518090451141
 40
8.148518090451141
 40
8.148518090451141
 40
8.148518090451141
 10
99.008158457
 20
283.5346030043
 30
0.0
 10
99.01056801583783
 20
283.6197579737938
 30
0.0
 10
99.0153897206352
 20
283.7901593429064
 30
0.0
 10
99.05463824395306
 20
284.0432026417423
 30
0.0
 10
99.11675158133646
 20
284.2912585180101
 30
0.0
 10
99.20341920783697
 20
284.5317527431251
 30
0.0
 10
99.313356816631
 20
284.7623705622628
 30
0.0
 10
99.44552745632987
 20
284.980873300145
 30
0.0
 10
99.59875843244083
 20
285.1850914839321
 30
0.0
 10
99.7714245401779
 20
285.3731474361228
 30
0.0
 10
99.96192609619594
 20
285.5431716619522
 30
0.0
 10
100.1683386756658
 20
285.6937307911197
 30
0.0
 10
100.3886569133349
 20
285.8232988063236
 30
0.0
 10
100.6207173353866
 20
285.930860519431
 30
0.0
 10
100.8622234605833
 20
286.0153400974042
 30
0.0
 10
101.110798536093
 20
286.0761251706965
 30
0.0
 10
101.3640437753452
 20
286.1126347911483
 30
0.0
 10
101.6194079077677
 20
286.1246437956415
 30
0.0
 10
101.8745568388145
 20
286.1119947067212
 30
0.0
 10
102.1268496698947
 20
286.074920924255
 30
0.0
 10
102.3740903155325
 20
286.0136459272934
 30
0.0
 10
102.6137086464467
 20
285.9288416151476
 30
0.0
 10
102.843605633102
 20
285.8210336166543
 30
0.0
 10
103.061513985806
 20
285.6914242468247
 30
0.0
 10
103.2654670000483
 20
285.5410080303992
 30
0.0
 10
103.4535761878811
 20
285.3712389560685
 30
0.0
 10
103.6239120320946
 20
285.1835197478729
 30
0.0
 10
103.7750774206473
 20
284.9796102686182
 30
0.0
 10
103.9054338418552
 20
284.7615002166842
 30
0.0
 10
104.0139310951956
 20
284.5311477473477
 30
0.0
 10
104.0994657665142
 20
284.2909404607517
 30
0.0
 10
104.1607809339993
 20
284.0430149565323
 30
0.0
 10
104.1994443768022
 20
283.790091112247
 30
0.0
 10
104.2042523483032
 20
283.6197369352108
 30
0.0
 10
104.206655116
 20
283.5346030043
 30
0.0
 11
99.008158457
 21
283.5346030043
 31
0.0
 11
99.02071891163929
 21
283.7896516359374
 31
0.0
 11
99.05847200986355
 21
284.0424803800107
 31
0.0
 11
99.1208620214607
 21
284.290058104057
 31
0.0
 11
99.20733675889765
 21
284.5302013597911
 31
0.0
 11
99.31706944789273
 21
284.760365146392
 31
0.0
 11
99.44907215935798
 21
284.978543735832
 31
0.0
 11
99.60199931960443
 21
285.1824010773475
 31
0.0
 11
99.77436120557094
 21
285.3701067691626
 31
0.0
 11
99.96455745034253
 21
285.5399116050171
 31
0.0
 11
100.1705519526637
 21
285.6901637749308
 31
0.0
 11
100.3905860042495
 21
285.8196162060738
 31
0.0
 11
100.6222038618287
 21
285.9269779104303
 31
0.0
 11
100.8633936236624
 21
286.0113876786472
 31
0.0
 11
101.1116154640524
 21
286.072086729764
 31
0.0
 11
101.3644335904002
 21
286.1085536495005
 31
0.0
 11
101.619585520472
 21
286.1205338427313
 31
0.0
 11
101.8741574465999
 21
286.1079156248086
 31
0.0
 11
102.1263290686646
 21
286.0708240651588
 31
0.0
 11
102.3729092063266
 21
286.0096977305032
 31
0.0
 11
102.6123725149138
 21
285.924891133381
 31
0.0
 11
102.8416632713959
 21
285.8173718186529
 31
0.0
 11
103.0593052624979
 21
285.6878786263845
 31
0.0
 11
103.2628336614693
 21
285.5377788112008
 31
0.0
 11
103.4505410164818
 21
285.3683200813369
 31
0.0
 11
103.6206785713297
 21
285.1808703946188
 31
0.0
 11
103.771439259134
 21
284.9774981818796
 31
0.0
 11
103.9017505474038
 21
284.7595356038691
 31
0.0
 11
104.0099731601313
 21
284.52982316623
 31
0.0
 11
104.0953955661542
 21
284.289763962431
 31
0.0
 11
104.1569547773993
 21
284.042432402127
 31
0.0
 11
104.194205552104
 21
283.7896011327173
 31
0.0
 11
104.206655116
 21
283.5346030043
 31
0.0
  0
SPLINE
  5
111
330
1F
100
AcDbEntity
  8
RUNDUNGEN
  6
Continuous
 62
     7
100
AcDbSpline
210
0.0
220
0.0
230
1.0
 70
     8
 71
     3
 72
    11
 73
     7
 74
     5
 42
0.0000000001
 43
0.0000000001
 44
0.00000001
 40
0.0
 40
0.0
 40
0.0
 40
0.0
 40
0.4023256971530617
 40
0.8046524852147448
 40
1.20697983060692
 40
1.609305382131413
 40
1.609305382131413
 40
1.609305382131413
 40
1.609305382131413
 10
126.5624193494
 20
283.5345516759
 30
0.0
 10
126.5622795472553
 20
283.4004430963101
 30
0.0
 10
126.5619999425868
 20
283.132225573494
 30
0.0
 10
126.5602998545917
 20
282.7299021577915
 30
0.0
 10
126.5580839738211
 20
282.327581300745
 30
0.0
 10
126.5576325152716
 20
282.0593637744631
 30
0.0
 10
126.5574067865
 20
281.9252553103
 30
0.0
 11
126.5624193494
 21
283.5345516759
 31
0.0
 11
126.5617864969715
 21
283.132226476481
 31
0.0
 11
126.5602138898911
 21
282.729902761919
 31
0.0
 11
126.5583404203917
 21
282.3275797785308
 31
0.0
 11
126.5574067865
 21
281.9252553103
 31
0.0
  0
SPLINE
  5
112
330
1F
100
AcDbEntity
  8
RUNDUNGEN
  6
Continuous
 62
     7
100
AcDbSpline
210
0.0
220
0.0
230
1.0
 70
     8
 71
     3
 72
    11
 73
     7
 74
     5
 42
0.0000000001
 43
0.0000000001
 44
0.00000001
 40
0.0
 40
0.0
 40
0.0
 40
0.0
 40
0.4023512155240953
 40
0.8047042252022685
 40
1.207056677541445
 40
1.609408038715483
 40
1.609408038715483
 40
1.609408038715483
 40
1.609408038715483
 10
126.5574067865
 20
285.1439506982
 30
0.0
 10
126.5576325419648
 20
285.0098336793905
 30
0.0
 10
126.5580840539011
 20
284.7415990437202
 30
0.0
 10
126.5603001249934
 20
284.3392525231408
 30
0.0
 10
126.5620002036504
 20
283.9369034427692
 30
0.0
 10
126.5622796342765
 20
283.6686688102825
 30
0.0
 10
126.5624193494
 20
283.5345516759
 30
0.0
 11
126.5574067865
 21
285.1439506982
 31
0.0
 11
126.5583405188448
 21
284.7416005661289
 31
0.0
 11
126.5602141270161
 21
284.3392519188222
 31
0.0
 11
126.5617867160808
 21
283.9369025397162
 31
0.0
 11
126.5624193494
 21
283.5345516759
 31
0.0
  0
SPLINE
  5
113
330
1F
100
AcDbEntity
  8
0
  6
Continuous
 62
     7
100
AcDbSpline
210
0.0
220
0.0
230
1.0
 70
     8
 71
     3
 72
    11
 73
     7
 74
     5
 42
0.0000000001
 43
0.0000000001
 44
0.00000001
 40
0.0
 40
0.0
 40
0.0
 40
0.0
 40
0.0552416255796119
 40
0.1107067482828533
 40
0.1596632274892711
 40
0.2081601314718442
 40
0.2081601314718442
 40
0.2081601314718442
 40
0.2081601314718442
 10
121.6758913585
 20
286.6491030043
 30
0.0
 10
121.6605135281786
 20
286.6593980511702
 30
0.0
 10
121.6296956517553
 20
286.6800297967146
 30
0.0
 10
121.5959466654436
 20
286.7221513804596
 30
0.0
 10
121.5742165341136
 20
286.7691793529001
 30
0.0
 10
121.5713388454583
 20
286.801754428789
 30
0.0
 10
121.5699067865
 20
286.8179651572
 30
0.0
 11
121.6758913585
 21
286.6491030043
 31
0.0
 11
121.6316046678054
 21
286.6821230924888
 31
0.0
 11
121.5966117670276
 21
286.7251565298561
 31
0.0
 11
121.5769198311588
 21
286.7699780037054
 31
0.0
 11
121.5699067865
 21
286.8179651572
 31
0.0
  0
SPLINE
  5
114
330
1F
100
AcDbEntity
  8
0
  6
Continuous
 62
     7
100
AcDbSpline
210
0.0
220
0.0
230
1.0
 70
     8
 71
     3
 72
    11
 73
     7
 74
     5
 42
0.0000000001
 43
0.0000000001
 44
0.00000001
 40
0.0
 40
0.0
 40
0.0
 40
0.0
 40
0.0484884449581713
 40
0.0974363654539357
 40
0.1529099108396171
 40
0.208159936658653
 40
0.208159936658653
 40
0.208159936658653
 40
0.208159936658653
 10
123.6449067865
 20
286.8179651572
 30
0.0
 10
123.6434752111123
 20
286.801757261086
 30
0.0
 10
123.6405984947571
 20
286.7691878831577
 30
0.0
 10
123.618872707498
 20
286.7221614801907
 30
0.0
 10
123.5851245455023
 20
286.680035229647
 30
0.0
 10
123.5543022510031
 20
286.6593998604247
 30
0.0
 10
123.5389222145
 20
286.6491030043
 30
0.0
 11
123.6449067865
 21
286.8179651572
 31
0.0
 11
123.6378960423294
 21
286.7699862163964
 31
0.0
 11
123.6182103404729
 21
286.7251713520847
 31
0.0
 11
123.5832148647511
 21
286.6821291528302
 31
0.0
 11
123.5389222145
 21
286.6491030043
 31
0.0
  0
SPLINE
  5
115
330
1F
100
AcDbEntity
  8
0
  6
Continuous
 62
     7
100
AcDbSpline
210
0.0
220
0.0
230
1.0
 70
     8
 71
     3
 72
    11
 73
     7
 74
     5
 42
0.0000000001
 43
0.0000000001
 44
0.00000001
 40
0.0
 40
0.0
 40
0.0
 40
0.0
 40
0.0484969040691397
 40
0.0974533832870417
 40
0.1529185059903451
 40
0.2081601315699116
 40
0.2081601315699116
 40
0.2081601315699116
 40
0.2081601315699116
 10
121.5699067865
 20
280.2512408513
 30
0.0
 10
121.5713388454554
 20
280.2674515797406
 30
0.0
 10
121.5742165341028
 20
280.3000266556637
 30
0.0
 10
121.5959466654398
 20
280.3470546281379
 30
0.0
 10
121.6296956517556
 20
280.3891762118853
 30
0.0
 10
121.6605135281787
 20
280.4098079574297
 30
0.0
 10
121.6758913585
 20
280.4201030043
 30
0.0
 11
121.5699067865
 21
280.2512408513
 31
0.0
 11
121.5769198311588
 21
280.299228004882
 31
0.0
 11
121.5966117670276
 21
280.3440494787439
 31
0.0
 11
121.6316046678054
 21
280.3870829161112
 31
0.0
 11
121.6758913585
 21
280.4201030043
 31
0.0
  0
SPLINE
  5
116
330
1F
100
AcDbEntity
  8
0
  6
Continuous
 62
     7
100
AcDbSpline
210
0.0
220
0.0
230
1.0
 70
     8
 71
     3
 72
    11
 73
     7
 74
     5
 42
0.0000000001
 43
0.0000000001
 44
0.00000001
 40
0.0
 40
0.0
 40
0.0
 40
0.0
 40
0.0552500258190017
 40
0.1107235712047451
 40
0.1596714917119185
 40
0.2081599367567068
 40
0.2081599367567068
 40
0.2081599367567068
 40
0.2081599367567068
 10
123.5389222145
 20
280.4201030043
 30
0.0
 10
123.554302251003
 20
280.4098061481752
 30
0.0
 10
123.585124545502
 20
280.3891707789528
 30
0.0
 10
123.6188727075017
 20
280.347044528407
 30
0.0
 10
123.640598494768
 20
280.300018125406
 30
0.0
 10
123.6434752111152
 20
280.2674487474436
 30
0.0
 10
123.6449067865
 20
280.2512408513
 30
0.0
 11
123.5389222145
 21
280.4201030043
 31
0.0
 11
123.5832148647511
 21
280.3870768557699
 31
0.0
 11
123.6182103404729
 21
280.3440346565153
 31
0.0
 11
123.6378960423294
 21
280.2992197921911
 31
0.0
 11
123.6449067865
 21
280.2512408513
 31
0.0
  0
SPLINE
  5
117
330
1F
100
AcDbEntity
  8
RUNDUNGEN
  6
Continuous
 62
     7
100
AcDbSpline
210
0.0
220
0.0
230
1.0
 70
     8
 71
     3
 72
    11
 73
     7
 74
     5
 42
0.0000000001
 43
0.0000000001
 44
0.00000001
 40
0.0
 40
0.0
 40
0.0
 40
0.0
 40
0.2720357132257558
 40
0.5444507174473656
 40
0.8204954810869562
 40
1.095557810886425
 40
1.095557810886425
 40
1.095557810886425
 40
1.095557810886425
 10
93.4833678965
 20
288.4396030043
 30
0.0
 10
93.52851773895527
 20
288.3608486229642
 30
0.0
 10
93.61888037489715
 20
288.2032300554903
 30
0.0
 10
93.72118314663516
 20
287.9488651866453
 30
0.0
 10
93.79270632885545
 20
287.6821621700792
 30
0.0
 10
93.80251246093542
 20
287.4982694343888
 30
0.0
 10
93.8074067865
 20
287.4064869752
 30
0.0
 11
93.4833678965
 21
288.4396030043
 31
0.0
 11
93.61320568397142
 21
288.2005515909706
 31
0.0
 11
93.71561143210471
 21
287.9481174465402
 31
0.0
 11
93.783243273521
 21
287.6804858984008
 31
0.0
 11
93.8074067865
 21
287.4064869752
 31
0.0
  0
SPLINE
  5
118
330
1F
100
AcDbEntity
  8
RUNDUNGEN
  6
Continuous
 62
     7
100
AcDbSpline
210
0.0
220
0.0
230
1.0
 70
     8
 71
     3
 72
    15
 73
    11
 74
     9
 42
0.0000000001
 43
0.0000000001
 44
0.00000001
 40
0.0
 40
0.0
 40
0.0
 40
0.0
 40
0.0931623162077442
 40
0.1866550545183982
 40
0.2771610325901091
 40
0.3676563365103948
 40
0.4555076254496834
 40
0.5433695151854936
 40
0.6298939392565904
 40
0.716362446927255
 40
0.716362446927255
 40
0.716362446927255
 40
0.716362446927255
 10
92.9074067865
 20
288.796845697
 30
0.0
 10
92.93852435672882
 20
288.7983549609852
 30
0.0
 10
93.00086986298038
 20
288.8013788419158
 30
0.0
 10
93.09229780031626
 20
288.7826823425273
 30
0.0
 10
93.17752972909368
 20
288.7484035996974
 30
0.0
 10
93.25419590282556
 20
288.7012460490067
 30
0.0
 10
93.32276645835387
 20
288.6445519277293
 30
0.0
 10
93.38310312012145
 20
288.5810920433329
 30
0.0
 10
93.4370213517543
 20
288.5126759489933
 30
0.0
 10
93.46792237762472
 20
288.463955403227
 30
0.0
 10
93.4833678965
 20
288.4396030043
 30
0.0
 11
92.9074067865
 21
288.796845697
 31
0.0
 11
93.00056691928387
 21
288.7974835221205
 31
0.0
 11
93.09236300040034
 21
288.7797529945344
 31
0.0
 11
93.17638604134905
 21
288.7461158029683
 31
0.0
 11
93.25368351014902
 21
288.6990573143744
 31
0.0
 11
93.32155592383735
 21
288.643279322044
 31
0.0
 11
93.3823756139343
 21
288.5798705137879
 31
0.0
 11
93.43581804757774
 21
288.5118236016824
 31
0.0
 11
93.4833678965
 21
288.4396030043
 31
0.0
  0
SPLINE
  5
119
330
1F
100
AcDbEntity
  8
RUNDUNGEN
  6
Continuous
 62
     7
100
AcDbSpline
210
0.0
220
0.0
230
1.0
 70
     8
 71
     3
 72
    11
 73
     7
 74
     5
 42
0.0000000001
 43
0.0000000001
 44
0.00000001
 40
0.0
 40
0.0
 40
0.0
 40
0.0
 40
0.2750623373066288
 40
0.5511071089210016
 40
0.8235221050847343
 40
1.095557809842836
 40
1.095557809842836
 40
1.095557809842836
 40
1.095557809842836
 10
93.8074067865
 20
279.6627190334
 30
0.0
 10
93.80251246012116
 20
279.5709365717046
 30
0.0
 10
93.79270632640191
 20
279.3870438308447
 30
0.0
 10
93.72118313857416
 20
279.1203408132401
 30
0.0
 10
93.61888036962296
 20
278.8659759465784
 30
0.0
 10
93.5285177371747
 20
278.708357383419
 30
0.0
 10
93.4833678965
 20
278.6296030043
 30
0.0
 11
93.8074067865
 21
279.6627190334
 31
0.0
 11
93.78324327033945
 21
279.3887201029434
 31
0.0
 11
93.71561142345351
 21
279.1210885479608
 31
0.0
 11
93.61320567871115
 21
278.8686544108504
 31
0.0
 11
93.4833678965
 21
278.6296030043
 31
0.0
  0
SPLINE
  5
11A
330
1F
100
AcDbEntity
  8
RUNDUNGEN
  6
Continuous
 62
     7
100
AcDbSpline
210
0.0
220
0.0
230
1.0
 70
     8
 71
     3
 72
    15
 73
    11
 74
     9
 42
0.0000000001
 43
0.0000000001
 44
0.00000001
 40
0.0
 40
0.0
 40
0.0
 40
0.0
 40
0.0864708478950697
 40
0.1729975735784396
 40
0.2608622577316509
 40
0.3487164648746267
 40
0.4392125794233154
 40
0.5297191468141612
 40
0.6232058226224517
 40
0.7163622618010164
 40
0.7163622618010164
 40
0.7163622618010164
 40
0.7163622618010164
 10
93.4833678965
 20
278.6296030043
 30
0.0
 10
93.46792196083882
 20
278.6052499446767
 30
0.0
 10
93.4370201082946
 20
278.5565280883911
 30
0.0
 10
93.3830999981031
 20
278.4881102804942
 30
0.0
 10
93.32276047231522
 20
278.4246493887947
 30
0.0
 10
93.25418719734634
 20
278.3679551551653
 30
0.0
 10
93.17751935576413
 20
278.3207976348411
 30
0.0
 10
93.09228838210836
 20
278.2865204680961
 30
0.0
 10
93.00086383341294
 20
278.2678268287393
 30
0.0
 10
92.93852236755416
 20
278.2708509342114
 30
0.0
 10
92.9074067865
 20
278.2723603116
 30
0.0
 11
93.4833678965
 21
278.6296030043
 31
0.0
 11
93.43581670690057
 21
278.5573804877046
 31
0.0
 11
93.3823724606646
 21
278.4893320725743
 31
0.0
 11
93.32154992806649
 21
278.425922118705
 31
0.0
 11
93.25367431644499
 21
278.3701434215194
 31
0.0
 11
93.17637558550575
 21
278.3230854472367
 31
0.0
 11
93.09235150803325
 21
278.2894492591981
 31
0.0
 11
93.00056103643428
 21
278.2717216570668
 31
0.0
 11
92.9074067865
 21
278.2723603116
 31
0.0
  0
SPLINE
  5
11B
330
1F
100
AcDbEntity
  8
FASEN
  6
Continuous
 62
     7
100
AcDbSpline
210
0.0
220
0.0
230
1.0
 70
     8
 71
     3
 72
    39
 73
    35
 74
    33
 42
0.0000000001
 43
0.0000000001
 44
0.00000001
 40
0.0
 40
0.0
 40
0.0
 40
0.0
 40
0.255299743075625
 40
0.510865113912085
 40
0.7657436254535517
 40
1.020544604116845
 40
1.274474439910208
 40
1.528422259863379
 40
1.781580156205585
 40
2.034730868695572
 40
2.287617452016169
 40
2.540506722687491
 40
2.793756933002959
 40
3.047007599923519
 40
3.301045674653131
 40
3.555087452343923
 40
3.809971905041224
 40
4.064857118419232
 40
4.320289560604267
 40
4.575724060043908
 40
4.831260712457726
 40
5.086793620574479
 40
5.34208270446813
 40
5.597373532566059
 40
5.852343573242799
 40
6.107309239604025
 40
6.362145686740662
 40
6.61698716982723
 40
6.871987285981336
 40
7.126970727516054
 40
7.382214249648998
 40
7.637530302462564
 40
7.893156983653764
 40
8.148517859232843
 40
8.148517859232843
 40
8.148517859232843
 40
8.148517859232843
 10
104.206655116
 20
283.5346030043
 30
0.0
 10
104.2042719604044
 20
283.4494685341054
 30
0.0
 10
104.1995031696482
 20
283.2791110151756
 30
0.0
 10
104.1607772614551
 20
283.0261933010393
 30
0.0
 10
104.099465195204
 20
282.7782688253062
 30
0.0
 10
104.0139457180139
 20
282.5380561678721
 30
0.0
 10
103.905451369189
 20
282.3077024043509
 30
0.0
 10
103.7750867374
 20
282.0895958697031
 30
0.0
 10
103.6239031316317
 20
281.8856982397256
 30
0.0
 10
103.4535599888427
 20
281.697985087229
 30
0.0
 10
103.2654708882052
 20
281.5281935128036
 30
0.0
 10
103.0615331874441
 20
281.3777549483071
 30
0.0
 10
102.8436140414657
 20
281.2481618824156
 30
0.0
 10
102.6137060880839
 20
281.1403775692312
 30
0.0
 10
102.3740903655472
 20
281.0555670058226
 30
0.0
 10
102.1268534090762
 20
280.9942777697254
 30
0.0
 10
101.8745605096755
 20
280.9572049931539
 30
0.0
 10
101.6194112886146
 20
280.9445631489292
 30
0.0
 10
101.3640475005906
 20
280.9565775639377
 30
0.0
 10
101.1108024118794
 20
280.9930865896554
 30
0.0
 10
100.8622246577812
 20
281.0538598944595
 30
0.0
 10
100.6207164186564
 20
281.1383339192034
 30
0.0
 10
100.3886639122368
 20
281.2459127758817
 30
0.0
 10
100.1683542944635
 20
281.3754937719627
 30
0.0
 10
99.9619328990089
 20
281.5260393886985
 30
0.0
 10
99.77141719062317
 20
281.6960474159144
 30
0.0
 10
99.59875000216903
 20
281.8841017883465
 30
0.0
 10
99.44552780917019
 20
282.0883250355969
 30
0.0
 10
99.31337218126055
 20
282.3068353587428
 30
0.0
 10
99.20344103433605
 20
282.5374561976064
 30
0.0
 10
99.11675449129648
 20
282.7779436946588
 30
0.0
 10
99.05463283472683
 20
283.025999874277
 30
0.0
 10
99.0154565870972
 20
283.2790506475336
 30
0.0
 10
99.01059032325435
 20
283.4494484312292
 30
0.0
 10
99.008158457
 20
283.5346030043
 30
0.0
 11
104.206655116
 21
283.5346030043
 31
0.0
 11
104.1942443345012
 21
283.2796050997653
 31
0.0
 11
104.1569617337387
 21
283.0267737993867
 31
0.0
 11
104.0953965053694
 21
282.7794424865663
 31
0.0
 11
104.0099863402322
 21
282.5393828222764
 31
0.0
 11
103.9017664052724
 21
282.3096682010975
 31
0.0
 11
103.7714466107606
 21
282.0917089241273
 31
0.0
 11
103.6206720440863
 21
281.8883472991225
 31
0.0
 11
103.4505294149824
 21
281.7008992556657
 31
0.0
 11
103.2628355175326
 21
281.5314217501269
 31
0.0
 11
103.0593200785145
 21
281.3813069630406
 31
0.0
 11
102.8416729984679
 21
281.251825622408
 31
0.0
 11
102.6123717544905
 21
281.1443228791588
 31
0.0
 11
102.3729083547201
 21
281.0595135425104
 31
0.0
 11
102.1263326469649
 21
280.9983772590339
 31
0.0
 11
101.8741615523056
 21
280.9612851676242
 31
0.0
 11
101.6195885765478
 21
280.9486727922511
 31
0.0
 11
101.3644374547372
 21
280.9606576810445
 31
0.0
 11
101.1116192270111
 21
280.9971231062225
 31
0.0
 11
100.8633942286589
 21
281.0578135578599
 31
0.0
 11
100.6222043624776
 21
281.1422204034473
 31
0.0
 11
100.3905939664222
 21
281.2495942400853
 31
0.0
 11
100.1705645574391
 21
281.379056458873
 31
0.0
 11
99.96456273563543
 21
281.5292994988325
 31
0.0
 11
99.77435615296203
 21
281.6990903906104
 31
0.0
 11
99.60199252116026
 21
281.8867933293762
 31
0.0
 11
99.4490731230069
 21
282.0906556338128
 31
0.0
 11
99.31708397890041
 21
282.3088388711997
 31
0.0
 11
99.20735507985968
 21
282.5390042990385
 31
0.0
 11
99.12086596644532
 21
282.7791477745935
 31
0.0
 11
99.05847974137549
 21
283.0267245217767
 31
0.0
 11
99.02076285136445
 21
283.2795533894812
 31
0.0
 11
99.008158457
 21
283.5346030043
 31
0.0
  0
SPLINE
  5
11C
330
1F
100
AcDbEntity
  8
0
  6
Continuous
 62
     7
100
AcDbSpline
210
0.0
220
0.0
230
1.0
 70
     8
 71
     3
 72
    25
 73
    21
 74
    19
 42
0.0000000001
 43
0.0000000001
 44
0.00000001
 40
0.0
 40
0.0
 40
0.0
 40
0.0
 40
0.0604406726119327
 40
0.120890937557233
 40
0.1783788230724977
 40
0.2358687180481818
 40
0.289300709976381
 40
0.3427196953993845
 40
0.3907247440426341
 40
0.4388250889287593
 40
0.4810912364440251
 40
0.5230165749233149
 40
0.5426397734356483
 40
0.5622645056991917
 40
0.5820559875286355
 40
0.6018420342528006
 40
0.645351280986248
 40
0.6892978001981747
 40
0.7409879874753336
 40
0.792523220991497
 40
0.792523220991497
 40
0.792523220991497
 40
0.792523220991497
 10
91.2773828034
 20
278.3987610047
 30
0.0
 10
91.2628356046071
 20
278.3848186981006
 30
0.0
 10
91.2337388982849
 20
278.3569318721659
 30
0.0
 10
91.188674310897
 20
278.3180987137698
 30
0.0
 10
91.14269977407542
 20
278.2819282710561
 30
0.0
 10
91.09663970129864
 20
278.2497746774583
 30
0.0
 10
91.04976378312429
 20
278.221342286367
 30
0.0
 10
91.0035784758791
 20
278.1981461468083
 30
0.0
 10
90.95708055916926
 20
278.1799478557872
 30
0.0
 10
90.91212671880496
 20
278.1688476147634
 30
0.0
 10
90.86798459416099
 20
278.1651736719097
 30
0.0
 10
90.83325285518856
 20
278.1695385967461
 30
0.0
 10
90.80760587880818
 20
278.178403192187
 30
0.0
 10
90.79001359716918
 20
278.1873818556228
 30
0.0
 10
90.77393137411894
 20
278.1989460689844
 30
0.0
 10
90.7539188241563
 20
278.218216481712
 30
0.0
 10
90.73404584169405
 20
278.2485228458216
 30
0.0
 10
90.71784661535338
 20
278.2922172446721
 30
0.0
 10
90.70867091503851
 20
278.3406931393766
 30
0.0
 10
90.70782774077753
 20
278.375128137082
 30
0.0
 10
90.7074067865
 20
278.3923197904
 30
0.0
 11
91.2773828034
 21
278.3987610047
 31
0.0
 11
91.23338014523945
 21
278.3573262248576
 31
0.0
 11
91.18763353074941
 21
278.3178106355965
 31
0.0
 11
91.14237178102059
 21
278.2823672865377
 31
0.0
 11
91.09518017536752
 21
278.2495337612899
 31
0.0
 11
91.04941243319259
 21
278.2219603767021
 31
0.0
 11
91.00160575512069
 21
278.1981253282366
 31
0.0
 11
90.95677675401689
 21
278.1809542666714
 31
0.0
 11
90.91000615179078
 21
278.1697224393236
 31
0.0
 11
90.86785214324924
 21
278.166645624467
 31
0.0
 11
90.82632279551561
 21
278.172394301134
 31
0.0
 11
90.80778275198136
 21
278.1788236639021
 31
0.0
 11
90.79032051599842
 21
278.1877791332304
 31
0.0
 11
90.7742345854237
 21
278.199309336635
 31
0.0
 11
90.7599764731523
 21
278.2130277140692
 31
0.0
 11
90.73561807847318
 21
278.2490793875389
 31
0.0
 11
90.71984006309161
 21
278.2900958571757
 31
0.0
 11
90.71006360514242
 21
278.34085308652
 31
0.0
 11
90.7074067865
 21
278.3923197904
 31
0.0
  0
SPLINE
  5
11D
330
1F
100
AcDbEntity
  8
0
  6
Continuous
 62
     7
100
AcDbSpline
210
0.0
220
0.0
230
1.0
 70
    24
 71
     3
 72
     9
 73
     5
 74
     3
 42
0.0000000001
 43
0.0000000001
 44
0.00000001
 40
0.0
 40
0.0
 40
0.0
 40
0.0
 40
0.034703532627363
 40
0.0694070654515561
 40
0.0694070654515561
 40
0.0694070654515561
 40
0.0694070654515561
 10
91.3269059387215
 20
288.621815796583
 30
0.0
 10
91.31865208279397
 20
288.629920664378
 30
0.0
 10
91.30214437089211
 20
288.6461304000139
 30
0.0
 10
91.28563665910232
 20
288.662340135764
 30
0.0
 10
91.277382803184
 20
288.670445003662
 30
0.0
 11
91.3269059387215
 21
288.621815796583
 31
0.0
 11
91.30214437096693
 21
288.6461303999965
 31
0.0
 11
91.277382803184
 21
288.670445003662
 31
0.0
  0
SPLINE
  5
11E
330
1F
100
AcDbEntity
  8
0
  6
Continuous
 62
     7
100
AcDbSpline
210
0.0
220
0.0
230
1.0
 70
     8
 71
     3
 72
    11
 73
     7
 74
     5
 42
0.0000000001
 43
0.0000000001
 44
0.00000001
 40
0.0
 40
0.0
 40
0.0
 40
0.0
 40
0.2552059510081308
 40
0.5103908165087767
 40
0.6573137755363376
 40
0.8040138995607696
 40
0.8040138995607696
 40
0.8040138995607696
 40
0.8040138995607696
 10
91.4275911428
 20
278.6296030043
 30
0.0
 10
91.46660129801393
 20
278.7053161105074
 30
0.0
 10
91.5446183853629
 20
278.8567360673891
 30
0.0
 10
91.61365351576599
 20
279.0656432903235
 30
0.0
 10
91.65098898664951
 20
279.2452832299109
 30
0.0
 10
91.65526860250493
 20
279.3432183217783
 30
0.0
 10
91.6574067865
 20
279.3921487055
 30
0.0
 11
91.4275911428
 21
278.6296030043
 31
0.0
 11
91.53851792700421
 21
278.8594406121367
 31
0.0
 11
91.61903252870934
 21
279.1015908020867
 31
0.0
 11
91.64707428860005
 21
279.2458129071596
 31
0.0
 11
91.6574067865
 21
279.3921487055
 31
0.0
  0
SPLINE
  5
11F
330
1F
100
AcDbEntity
  8
0
  6
Continuous
 62
     7
100
AcDbSpline
210
0.0
220
0.0
230
1.0
 70
     8
 71
     3
 72
    11
 73
     7
 74
     5
 42
0.0000000001
 43
0.0000000001
 44
0.00000001
 40
0.0
 40
0.0
 40
0.0
 40
0.0
 40
0.2243303823009389
 40
0.4487450664826192
 40
0.6263697311351717
 40
0.8039157766160079
 40
0.8039157766160079
 40
0.8039157766160079
 40
0.8039157766160079
 10
91.6574067865
 20
287.6770573031
 30
0.0
 10
91.65243260902955
 20
287.7518901609247
 30
0.0
 10
91.64248238482541
 20
287.9015839982692
 30
0.0
 10
91.58212074631311
 20
288.1028474774662
 30
0.0
 10
91.51040169094699
 20
288.2823635601929
 30
0.0
 10
91.45519058507895
 20
288.3871975914787
 30
0.0
 10
91.4275911428
 20
288.4396030043
 30
0.0
 11
91.6574067865
 21
287.6770573031
 31
0.0
 11
91.63416383548119
 21
287.9001803311613
 31
0.0
 11
91.57418260317658
 21
288.1164306542768
 31
0.0
 11
91.50757532286738
 21
288.2810939218951
 31
0.0
 11
91.4275911428
 21
288.4396030043
 31
0.0
  0
SPLINE
  5
120
330
1F
100
AcDbEntity
  8
0
  6
Continuous
 62
     7
100
AcDbSpline
210
0.0
220
0.0
230
1.0
 70
    24
 71
     3
 72
     9
 73
     5
 74
     3
 42
0.0000000001
 43
0.0000000001
 44
0.00000001
 40
0.0
 40
0.0
 40
0.0
 40
0.0
 40
0.0347035328241432
 40
0.0694070654515561
 40
0.0694070654515561
 40
0.0694070654515561
 40
0.0694070654515561
 10
91.277382803184
 20
278.398761004938
 30
0.0
 10
91.2856366591023
 20
278.406865872836
 30
0.0
 10
91.3021443708921
 20
278.423075608586
 30
0.0
 10
91.31865208279395
 20
278.439285344222
 30
0.0
 10
91.3269059387215
 20
278.447390212017
 30
0.0
 11
91.277382803184
 21
278.398761004938
 31
0.0
 11
91.30214437096691
 21
278.4230756086035
 31
0.0
 11
91.3269059387215
 21
278.447390212017
 31
0.0
  0
DIMENSION
  5
12B
330
1F
100
AcDbEntity
  8
1
100
AcDbDimension
  2
*D2
 10
182.490047322755
 20
288.5346030043
 30
0.0
 11
178.740047322755
 21
282.992564034526
 31
0.0
 70
    32
  1
<>
 71
     5
 42
-1.0
 53
90.0
  3
ME10_DIM_10
100
AcDbAlignedDimension
 13
171.6074067865
 23
278.5346030043
 33
0.0
 14
171.6074067865
 24
288.5346030043
 34
0.0
 50
90.0
100
AcDbRotatedDimension
  0
DIMENSION
  5
136
330
1F
100
AcDbEntity
  8
1
100
AcDbDimension
  2
*D3
 10
192.029165419749
 20
301.0346030043
 30
0.0
 11
188.279165419749
 21
283.673929612882
 31
0.0
 70
    32
  1
<>
 71
     5
 42
-1.0
 53
90.0
  3
ME10_DIM_11
100
AcDbAlignedDimension
 13
160.6631775213
 23
266.0346030043
 33
0.0
 14
160.6631775213
 24
301.0346030043
 34
0.0
 50
90.0
100
AcDbRotatedDimension
  0
DIMENSION
  5
141
330
1F
100
AcDbEntity
  8
1
100
AcDbDimension
  2
*D4
 10
171.6074067865
 20
314.917204215524
 30
0.0
 11
148.020695961596
 21
318.667204215524
 31
0.0
 70
    32
  1
<>
 71
     5
 42
-1.0
 53
0.00013888888889
  3
ME10_DIM_12
100
AcDbAlignedDimension
 13
126.5574067865
 23
299.5346030043
 33
0.0
 14
171.6074067865
 24
295.3975327435
 34
0.0
100
AcDbRotatedDimension
  0
DIMENSION
  5
14C
330
1F
100
AcDbEntity
  8
1
100
AcDbDimension
  2
*D5
 10
171.6074067865
 20
323.20787552509
 30
0.0
 11
139.817294876342
 21
326.95787552509
 31
0.0
 70
    32
  1
<>
 71
     5
 42
-1.0
 53
0.00013888888889
  3
ME10_DIM_13
100
AcDbAlignedDimension
 13
106.6074067865
 23
299.5346030043
 33
0.0
 14
171.6074067865
 24
295.3975327435
 34
0.0
100
AcDbRotatedDimension
  0
DIMENSION
  5
157
330
1F
100
AcDbEntity
  8
1
100
AcDbDimension
  2
*D6
 10
171.6074067865
 20
330.887655264477
 30
0.0
 11
132.224785361266
 21
334.637655264477
 31
0.0
 70
    32
  1
<>
 71
     5
 42
-1.0
 53
0.00013888888889
  3
ME10_DIM_14
100
AcDbAlignedDimension
 13
90.7074067865
 23
294.3311072391
 33
0.0
 14
171.6074067865
 24
295.3975327435
 34
0.0
100
AcDbRotatedDimension
  0
INSERT
  5
15E
330
1F
100
AcDbEntity
  8
1
100
AcDbBlockReference
  2
*D7
 10
0.0
 20
0.0
 30
0.0
  0
ENDSEC
  0
SECTION
  2
OBJECTS
  0
DICTIONARY
  5
C
330
0
100
AcDbDictionary
281
     1
  3
ACAD_GROUP
350
D
  3
ACAD_LAYOUT
350
1A
  3
ACAD_MLEADERSTYLE
350
161
  3
ACAD_MLINESTYLE
350
17
  3
ACAD_PLOTSETTINGS
350
19
  3
ACAD_PLOTSTYLENAME
350
E
  3
ACAD_SCALELIST
350
4C
  3
ACAD_VISUALSTYLE
350
2A
  3
AcDbVariableDictionary
350
15F
  0
DICTIONARY
  5
D
102
{ACAD_REACTORS
330
C
102
}
330
C
100
AcDbDictionary
281
     1
  0
DICTIONARY
  5
1A
102
{ACAD_REACTORS
330
C
102
}
330
C
100
AcDbDictionary
281
     1
  3
Layout1
350
1E
  3
Layout2
350
26
  3
Model
350
22
  0
DICTIONARY
  5
161
102
{ACAD_REACTORS
330
C
102
}
330
C
100
AcDbDictionary
281
     1
  0
DICTIONARY
  5
17
102
{ACAD_REACTORS
330
C
102
}
330
C
100
AcDbDictionary
281
     1
  3
Standard
350
18
  0
DICTIONARY
  5
19
102
{ACAD_REACTORS
330
C
102
}
330
C
100
AcDbDictionary
281
     1
  0
ACDBDICTIONARYWDFLT
  5
E
102
{ACAD_REACTORS
330
C
102
}
330
C
100
AcDbDictionary
281
     1
  3
Normal
350
F
100
AcDbDictionaryWithDefault
340
F
  0
DICTIONARY
  5
4C
102
{ACAD_REACTORS
330
C
102
}
330
C
100
AcDbDictionary
281
     1
  3
A0
350
4D
  3
A1
350
4E
  3
A2
350
4F
  3
A3
350
50
  3
A4
350
51
  3
A5
350
52
  3
A6
350
53
  3
A7
350
54
  3
A8
350
55
  3
A9
350
56
  3
B0
350
57
  3
B1
350
58
  3
B2
350
59
  3
B3
350
5A
  3
B4
350
5B
  3
B5
350
5C
  3
B6
350
5D
  3
B7
350
5E
  3
B8
350
5F
  3
B9
350
60
  3
C0
350
61
  3
C1
350
62
  3
C2
350
63
  3
C3
350
64
  3
C4
350
65
  3
C5
350
66
  3
C6
350
67
  3
C7
350
68
  3
C8
350
69
  3
C9
350
6A
  3
D0
350
6B
  3
D1
350
6C
  3
D2
350
6D
  0
DICTIONARY
  5
2A
102
{ACAD_REACTORS
330
C
102
}
330
C
100
AcDbDictionary
281
     1
  3
2dWireframe
350
2F
  3
3D Hidden
350
31
  3
3dWireframe
350
30
  3
Basic
350
32
  3
Brighten
350
36
  3
ColorChange
350
3A
  3
Conceptual
350
34
  3
Dim
350
35
  3
Facepattern
350
39
  3
Flat
350
2B
  3
FlatWithEdges
350
2C
  3
Gouraud
350
2D
  3
GouraudWithEdges
350
2E
  3
Linepattern
350
38
  3
Realistic
350
33
  3
Thicken
350
37
  0
DICTIONARY
  5
15F
102
{ACAD_REACTORS
330
C
102
}
330
C
100
AcDbDictionary
281
     1
  3
CANNOSCALE
350
162
  0
LAYOUT
  5
1E
102
{ACAD_REACTORS
330
1A
102
}
330
1A
100
AcDbPlotSettings
  1

  2
none_device
  4

  6

 40
0.0
 41
0.0
 42
0.0
 43
0.0
 44
0.0
 45
0.0
 46
0.0
 47
0.0
 48
0.0
 49
0.0
140
0.0
141
0.0
142
1.0
143
1.0
 70
   688
 72
     0
 73
     0
 74
     5
  7

 75
    16
147
1.0
148
0.0
149
0.0
100
AcDbLayout
  1
Layout1
 70
     1
 71
     1
 10
0.0
 20
0.0
 11
12.0
 21
9.0
 12
0.0
 22
0.0
 32
0.0
 14
1.00000000000000E+20
 24
1.00000000000000E+20
 34
1.00000000000000E+20
 15
-1.00000000000000E+20
 25
-1.00000000000000E+20
 35
-1.00000000000000E+20
146
0.0
 13
0.0
 23
0.0
 33
0.0
 16
1.0
 26
0.0
 36
0.0
 17
0.0
 27
1.0
 37
0.0
 76
     0
330
1B
  0
LAYOUT
  5
26
102
{ACAD_REACTORS
330
1A
102
}
330
1A
100
AcDbPlotSettings
  1

  2
none_device
  4

  6

 40
0.0
 41
0.0
 42
0.0
 43
0.0
 44
0.0
 45
0.0
 46
0.0
 47
0.0
 48
0.0
 49
0.0
140
0.0
141
0.0
142
1.0
143
1.0
 70
   688
 72
     0
 73
     0
 74
     5
  7

 75
    16
147
1.0
148
0.0
149
0.0
100
AcDbLayout
  1
Layout2
 70
     1
 71
     2
 10
0.0
 20
0.0
 11
0.0
 21
0.0
 12
0.0
 22
0.0
 32
0.0
 14
0.0
 24
0.0
 34
0.0
 15
0.0
 25
0.0
 35
0.0
146
0.0
 13
0.0
 23
0.0
 33
0.0
 16
1.0
 26
0.0
 36
0.0
 17
0.0
 27
1.0
 37
0.0
 76
     0
330
23
  0
LAYOUT
  5
22
102
{ACAD_REACTORS
330
1A
102
}
330
1A
100
AcDbPlotSettings
  1

  2
none_device
  4

  6

 40
0.0
 41
0.0
 42
0.0
 43
0.0
 44
0.0
 45
0.0
 46
0.0
 47
0.0
 48
0.0
 49
0.0
140
0.0
141
0.0
142
1.0
143
1.0
 70
  1712
 72
     0
 73
     0
 74
     0
  7

 75
     0
147
1.0
148
0.0
149
0.0
100
AcDbLayout
  1
Model
 70
     1
 71
     0
 10
0.0
 20
0.0
 11
12.0
 21
9.0
 12
0.0
 22
0.0
 32
0.0
 14
70.2029015218694
 24
241.2543000592898
 34
0.0
 15
194.029165419749
 25
350.023686976596
 35
0.0
146
0.0
 13
0.0
 23
0.0
 33
0.0
 16
1.0
 26
0.0
 36
0.0
 17
0.0
 27
1.0
 37
0.0
 76
     0
330
1F
331
29
  0
MLINESTYLE
  5
18
102
{ACAD_REACTORS
330
17
102
}
330
17
100
AcDbMlineStyle
  2
Standard
 70
     0
  3

 62
   256
 51
90.0
 52
90.0
 71
     2
 49
0.5
 62
   256
  6
BYLAYER
 49
-0.5
 62
   256
  6
BYLAYER
  0
ACDBPLACEHOLDER
  5
F
102
{ACAD_REACTORS
330
E
102
}
330
E
  0
SCALE
  5
4D
102
{ACAD_REACTORS
330
4C
102
}
330
4C
100
AcDbScale
 70
     0
300
1:1
140
1.0
141
1.0
290
     1
  0
SCALE
  5
4E
102
{ACAD_REACTORS
330
4C
102
}
330
4C
100
AcDbScale
 70
     0
300
1:2
140
1.0
141
2.0
290
     0
  0
SCALE
  5
4F
102
{ACAD_REACTORS
330
4C
102
}
330
4C
100
AcDbScale
 70
     0
300
1:4
140
1.0
141
4.0
290
     0
  0
SCALE
  5
50
102
{ACAD_REACTORS
330
4C
102
}
330
4C
100
AcDbScale
 70
     0
300
1:5
140
1.0
141
5.0
290
     0
  0
SCALE
  5
51
102
{ACAD_REACTORS
330
4C
102
}
330
4C
100
AcDbScale
 70
     0
300
1:8
140
1.0
141
8.0
290
     0
  0
SCALE
  5
52
102
{ACAD_REACTORS
330
4C
102
}
330
4C
100
AcDbScale
 70
     0
300
1:10
140
1.0
141
10.0
290
     0
  0
SCALE
  5
53
102
{ACAD_REACTORS
330
4C
102
}
330
4C
100
AcDbScale
 70
     0
300
1:16
140
1.0
141
16.0
290
     0
  0
SCALE
  5
54
102
{ACAD_REACTORS
330
4C
102
}
330
4C
100
AcDbScale
 70
     0
300
1:20
140
1.0
141
20.0
290
     0
  0
SCALE
  5
55
102
{ACAD_REACTORS
330
4C
102
}
330
4C
100
AcDbScale
 70
     0
300
1:30
140
1.0
141
30.0
290
     0
  0
SCALE
  5
56
102
{ACAD_REACTORS
330
4C
102
}
330
4C
100
AcDbScale
 70
     0
300
1:40
140
1.0
141
40.0
290
     0
  0
SCALE
  5
57
102
{ACAD_REACTORS
330
4C
102
}
330
4C
100
AcDbScale
 70
     0
300
1:50
140
1.0
141
50.0
290
     0
  0
SCALE
  5
58
102
{ACAD_REACTORS
330
4C
102
}
330
4C
100
AcDbScale
 70
     0
300
1:100
140
1.0
141
100.0
290
     0
  0
SCALE
  5
59
102
{ACAD_REACTORS
330
4C
102
}
330
4C
100
AcDbScale
 70
     0
300
2:1
140
2.0
141
1.0
290
     0
  0
SCALE
  5
5A
102
{ACAD_REACTORS
330
4C
102
}
330
4C
100
AcDbScale
 70
     0
300
4:1
140
4.0
141
1.0
290
     0
  0
SCALE
  5
5B
102
{ACAD_REACTORS
330
4C
102
}
330
4C
100
AcDbScale
 70
     0
300
8:1
140
8.0
141
1.0
290
     0
  0
SCALE
  5
5C
102
{ACAD_REACTORS
330
4C
102
}
330
4C
100
AcDbScale
 70
     0
300
10:1
140
10.0
141
1.0
290
     0
  0
SCALE
  5
5D
102
{ACAD_REACTORS
330
4C
102
}
330
4C
100
AcDbScale
 70
     0
300
100:1
140
100.0
141
1.0
290
     0
  0
SCALE
  5
5E
102
{ACAD_REACTORS
330
4C
102
}
330
4C
100
AcDbScale
 70
     0
300
1/128" = 1'-0"
140
0.0078125
141
12.0
290
     0
  0
SCALE
  5
5F
102
{ACAD_REACTORS
330
4C
102
}
330
4C
100
AcDbScale
 70
     0
300
1/64" = 1'-0"
140
0.015625
141
12.0
290
     0
  0
SCALE
  5
60
102
{ACAD_REACTORS
330
4C
102
}
330
4C
100
AcDbScale
 70
     0
300
1/32" = 1'-0"
140
0.03125
141
12.0
290
     0
  0
SCALE
  5
61
102
{ACAD_REACTORS
330
4C
102
}
330
4C
100
AcDbScale
 70
     0
300
1/16" = 1'-0"
140
0.0625
141
12.0
290
     0
  0
SCALE
  5
62
102
{ACAD_REACTORS
330
4C
102
}
330
4C
100
AcDbScale
 70
     0
300
3/32" = 1'-0"
140
0.09375
141
12.0
290
     0
  0
SCALE
  5
63
102
{ACAD_REACTORS
330
4C
102
}
330
4C
100
AcDbScale
 70
     0
300
1/8" = 1'-0"
140
0.125
141
12.0
290
     0
  0
SCALE
  5
64
102
{ACAD_REACTORS
330
4C
102
}
330
4C
100
AcDbScale
 70
     0
300
3/16" = 1'-0"
140
0.1875
141
12.0
290
     0
  0
SCALE
  5
65
102
{ACAD_REACTORS
330
4C
102
}
330
4C
100
AcDbScale
 70
     0
300
1/4" = 1'-0"
140
0.25
141
12.0
290
     0
  0
SCALE
  5
66
102
{ACAD_REACTORS
330
4C
102
}
330
4C
100
AcDbScale
 70
     0
300
3/8" = 1'-0"
140
0.375
141
12.0
290
     0
  0
SCALE
  5
67
102
{ACAD_REACTORS
330
4C
102
}
330
4C
100
AcDbScale
 70
     0
300
1/2" = 1'-0"
140
0.5
141
12.0
290
     0
  0
SCALE
  5
68
102
{ACAD_REACTORS
330
4C
102
}
330
4C
100
AcDbScale
 70
     0
300
3/4" = 1'-0"
140
0.75
141
12.0
290
     0
  0
SCALE
  5
69
102
{ACAD_REACTORS
330
4C
102
}
330
4C
100
AcDbScale
 70
     0
300
1" = 1'-0"
140
1.0
141
12.0
290
     0
  0
SCALE
  5
6A
102
{ACAD_REACTORS
330
4C
102
}
330
4C
100
AcDbScale
 70
     0
300
1-1/2" = 1'-0"
140
1.5
141
12.0
290
     0
  0
SCALE
  5
6B
102
{ACAD_REACTORS
330
4C
102
}
330
4C
100
AcDbScale
 70
     0
300
3" = 1'-0"
140
3.0
141
12.0
290
     0
  0
SCALE
  5
6C
102
{ACAD_REACTORS
330
4C
102
}
330
4C
100
AcDbScale
 70
     0
300
6" = 1'-0"
140
6.0
141
12.0
290
     0
  0
SCALE
  5
6D
102
{ACAD_REACTORS
330
4C
102
}
330
4C
100
AcDbScale
 70
     0
300
1'-0" = 1'-0"
140
12.0
141
12.0
290
     0
  0
VISUALSTYLE
  5
2F
102
{ACAD_REACTORS
330
2A
102
}
330
2A
100
AcDbVisualStyle
  2
2dWireframe
 70
     4
 71
     0
 72
     2
 73
     0
 90
        0
 40
-0.6
 41
-30.0
 62
     5
 63
     7
 74
     1
 91
        4
 64
     7
 65
   257
 75
     1
175
     1
 42
1.0
 92
        0
 66
   257
 43
1.0
 76
     1
 77
     6
 78
     2
 67
     7
 79
     5
170
     0
171
     0
290
     0
174
     0
 93
        1
 44
0.0
173
     0
291
     0
 45
0.0
1001
ACAD
1000
AcDbSavedByObjectVersion
1070
     0
  0
VISUALSTYLE
  5
31
102
{ACAD_REACTORS
330
2A
102
}
330
2A
100
AcDbVisualStyle
  2
3D Hidden
 70
     6
 71
     1
 72
     2
 73
     2
 90
        0
 40
-0.6
 41
-30.0
 62
     5
 63
     7
 74
     2
 91
        2
 64
     7
 65
   257
 75
     2
175
     1
 42
40.0
 92
        0
 66
   257
 43
1.0
 76
     1
 77
     6
 78
     2
 67
     7
 79
     3
170
     0
171
     0
290
     0
174
     0
 93
        1
 44
0.0
173
     0
291
     0
 45
0.0
1001
ACAD
1000
AcDbSavedByObjectVersion
1070
     0
  0
VISUALSTYLE
  5
30
102
{ACAD_REACTORS
330
2A
102
}
330
2A
100
AcDbVisualStyle
  2
3dWireframe
 70
     5
 71
     0
 72
     2
 73
     0
 90
        0
 40
-0.6
 41
-30.0
 62
     5
 63
     7
 74
     1
 91
        4
 64
     7
 65
   257
 75
     1
175
     1
 42
1.0
 92
        0
 66
   257
 43
1.0
 76
     1
 77
     6
 78
     2
 67
     7
 79
     5
170
     0
171
     0
290
     0
174
     0
 93
        1
 44
0.0
173
     0
291
     0
 45
0.0
1001
ACAD
1000
AcDbSavedByObjectVersion
1070
     0
  0
VISUALSTYLE
  5
32
102
{ACAD_REACTORS
330
2A
102
}
330
2A
100
AcDbVisualStyle
  2
Basic
 70
     7
 71
     1
 72
     0
 73
     1
 90
        0
 40
-0.6
 41
-30.0
 62
     5
 63
     7
 74
     0
 91
        4
 64
     7
 65
   257
 75
     1
175
     1
 42
1.0
 92
        8
 66
     7
 43
1.0
 76
     1
 77
     6
 78
     2
 67
     7
 79
     5
170
     0
171
     0
290
     0
174
     0
 93
        1
 44
0.0
173
     0
291
     1
 45
0.0
1001
ACAD
1000
AcDbSavedByObjectVersion
1070
     0
  0
VISUALSTYLE
  5
36
102
{ACAD_REACTORS
330
2A
102
}
330
2A
100
AcDbVisualStyle
  2
Brighten
 70
    12
 71
     2
 72
     2
 73
     0
 90
        0
 40
-0.6
 41
-30.0
 62
     5
 63
     7
 74
     1
 91
        4
 64
     7
 65
   257
 75
     1
175
     1
 42
1.0
 92
        8
 66
     7
 43
1.0
 76
     1
 77
     6
 78
     2
 67
     7
 79
     5
170
     0
171
     0
290
     0
174
     0
 93
        1
 44
50.0
173
     0
291
     1
 45
0.0
1001
ACAD
1000
AcDbSavedByObjectVersion
1070
     0
  0
VISUALSTYLE
  5
3A
102
{ACAD_REACTORS
330
2A
102
}
330
2A
100
AcDbVisualStyle
  2
ColorChange
 70
    16
 71
     2
 72
     2
 73
     3
 90
        0
 40
-0.6
 41
-30.0
 62
     5
 63
     8
 74
     1
 91
        4
 64
     7
 65
   257
 75
     1
175
     1
 42
1.0
 92
        8
 66
     8
 43
1.0
 76
     1
 77
     6
 78
     2
 67
     7
 79
     5
170
     0
171
     0
290
     0
174
     0
 93
        1
 44
0.0
173
     0
291
     1
 45
0.0
1001
ACAD
1000
AcDbSavedByObjectVersion
1070
     0
  0
VISUALSTYLE
  5
34
102
{ACAD_REACTORS
330
2A
102
}
330
2A
100
AcDbVisualStyle
  2
Conceptual
 70
     9
 71
     3
 72
     2
 73
     0
 90
        0
 40
-0.6
 41
-30.0
 62
     5
 63
     7
 74
     2
 91
        2
 64
     7
 65
   257
 75
     1
175
     1
 42
40.0
 92
        8
 66
     7
 43
1.0
 76
     1
 77
     6
 78
     2
 67
     7
 79
     3
170
     0
171
     0
290
     0
174
     0
 93
        1
 44
0.0
173
     0
291
     0
 45
0.0
1001
ACAD
1000
AcDbSavedByObjectVersion
1070
     0
  0
VISUALSTYLE
  5
35
102
{ACAD_REACTORS
330
2A
102
}
330
2A
100
AcDbVisualStyle
  2
Dim
 70
    11
 71
     2
 72
     2
 73
     0
 90
        0
 40
-0.6
 41
-30.0
 62
     5
 63
     7
 74
     1
 91
        4
 64
     7
 65
   257
 75
     1
175
     1
 42
1.0
 92
        8
 66
     7
 43
1.0
 76
     1
 77
     6
 78
     2
 67
     7
 79
     5
170
     0
171
     0
290
     0
174
     0
 93
        1
 44
-50.0
173
     0
291
     1
 45
0.0
1001
ACAD
1000
AcDbSavedByObjectVersion
1070
     0
  0
VISUALSTYLE
  5
39
102
{ACAD_REACTORS
330
2A
102
}
330
2A
100
AcDbVisualStyle
  2
Facepattern
 70
    15
 71
     2
 72
     2
 73
     0
 90
        0
 40
-0.6
 41
-30.0
 62
     5
 63
     7
 74
     1
 91
        4
 64
     7
 65
   257
 75
     1
175
     1
 42
1.0
 92
        8
 66
     7
 43
1.0
 76
     1
 77
     6
 78
     2
 67
     7
 79
     5
170
     0
171
     0
290
     0
174
     0
 93
        1
 44
0.0
173
     0
291
     1
 45
0.0
1001
ACAD
1000
AcDbSavedByObjectVersion
1070
     0
  0
VISUALSTYLE
  5
2B
102
{ACAD_REACTORS
330
2A
102
}
330
2A
100
AcDbVisualStyle
  2
Flat
 70
     0
 71
     2
 72
     1
 73
     1
 90
        2
 40
-0.6
 41
30.0
 62
     5
 63
     7
 74
     0
 91
        4
 64
     7
 65
   257
 75
     1
175
     1
 42
1.0
 92
        8
 66
     7
 43
1.0
 76
     1
 77
     6
 78
     2
 67
     7
 79
     5
170
     0
171
     0
290
     0
174
     0
 93
       13
 44
0.0
173
     0
291
     1
 45
0.0
1001
ACAD
1000
AcDbSavedByObjectVersion
1070
     0
  0
VISUALSTYLE
  5
2C
102
{ACAD_REACTORS
330
2A
102
}
330
2A
100
AcDbVisualStyle
  2
FlatWithEdges
 70
     1
 71
     2
 72
     1
 73
     1
 90
        2
 40
-0.6
 41
30.0
 62
     5
 63
     7
 74
     1
 91
        4
 64
     7
 65
   257
 75
     1
175
     1
 42
1.0
 92
        0
 66
   257
 43
1.0
 76
     1
 77
     6
 78
     2
 67
     7
 79
     5
170
     0
171
     0
290
     0
174
     0
 93
       13
 44
0.0
173
     0
291
     1
 45
0.0
1001
ACAD
1000
AcDbSavedByObjectVersion
1070
     0
  0
VISUALSTYLE
  5
2D
102
{ACAD_REACTORS
330
2A
102
}
330
2A
100
AcDbVisualStyle
  2
Gouraud
 70
     2
 71
     2
 72
     2
 73
     1
 90
        2
 40
-0.6
 41
30.0
 62
     5
 63
     7
 74
     0
 91
        4
 64
     7
 65
   257
 75
     1
175
     1
 42
1.0
 92
        0
 66
     7
 43
1.0
 76
     1
 77
     6
 78
     2
 67
     7
 79
     5
170
     0
171
     0
290
     0
174
     0
 93
       13
 44
0.0
173
     0
291
     1
 45
0.0
1001
ACAD
1000
AcDbSavedByObjectVersion
1070
     0
  0
VISUALSTYLE
  5
2E
102
{ACAD_REACTORS
330
2A
102
}
330
2A
100
AcDbVisualStyle
  2
GouraudWithEdges
 70
     3
 71
     2
 72
     2
 73
     1
 90
        2
 40
-0.6
 41
30.0
 62
     5
 63
     7
 74
     1
 91
        4
 64
     7
 65
   257
 75
     1
175
     1
 42
1.0
 92
        0
 66
   257
 43
1.0
 76
     1
 77
     6
 78
     2
 67
     7
 79
     5
170
     0
171
     0
290
     0
174
     0
 93
       13
 44
0.0
173
     0
291
     1
 45
0.0
1001
ACAD
1000
AcDbSavedByObjectVersion
1070
     0
  0
VISUALSTYLE
  5
38
102
{ACAD_REACTORS
330
2A
102
}
330
2A
100
AcDbVisualStyle
  2
Linepattern
 70
    14
 71
     2
 72
     2
 73
     0
 90
        0
 40
-0.6
 41
-30.0
 62
     5
 63
     7
 74
     1
 91
        4
 64
     7
 65
   257
 75
     7
175
     7
 42
1.0
 92
        8
 66
     7
 43
1.0
 76
     1
 77
     6
 78
     2
 67
     7
 79
     5
170
     0
171
     0
290
     0
174
     0
 93
        1
 44
0.0
173
     0
291
     1
 45
0.0
1001
ACAD
1000
AcDbSavedByObjectVersion
1070
     0
  0
VISUALSTYLE
  5
33
102
{ACAD_REACTORS
330
2A
102
}
330
2A
100
AcDbVisualStyle
  2
Realistic
 70
     8
 71
     2
 72
     2
 73
     0
 90
        0
 40
-0.6
 41
-30.0
 62
     5
 63
     7
 74
     1
 91
        0
 64
     7
 65
   257
 75
     1
175
     1
 42
1.0
 92
        8
 66
     8
 43
1.0
 76
     1
 77
     6
 78
     2
 67
     7
 79
     5
170
     0
171
     0
290
     0
174
     0
 93
       13
 44
0.0
173
     0
291
     0
 45
0.0
1001
ACAD
1000
AcDbSavedByObjectVersion
1070
     0
  0
VISUALSTYLE
  5
37
102
{ACAD_REACTORS
330
2A
102
}
330
2A
100
AcDbVisualStyle
  2
Thicken
 70
    13
 71
     2
 72
     2
 73
     0
 90
        0
 40
-0.6
 41
-30.0
 62
     5
 63
     7
 74
     1
 91
        4
 64
     7
 65
   257
 75
     1
175
     1
 42
1.0
 92
       12
 66
     7
 43
1.0
 76
     1
 77
     6
 78
     2
 67
     7
 79
     5
170
     0
171
     0
290
     0
174
     0
 93
        1
 44
0.0
173
     0
291
     1
 45
0.0
1001
ACAD
1000
AcDbSavedByObjectVersion
1070
     0
  0
DICTIONARYVAR
  5
162
102
{ACAD_REACTORS
330
15F
102
}
330
15F
100
DictionaryVariables
280
     0
  1
1:1
  0
ENDSEC
  0
EOF
