  0
SECTION
  2
HEADER
  9
$ACADVER
  1
AC1015
  9
$ACADMAINTVER
 70
     6
  9
$DWGCODEPAGE
  3
ANSI_1252
  9
$INSBASE
 10
0.0
 20
0.0
 30
0.0
  9
$EXTMIN
 10
65.7472526812412
 20
271.6574732667028
 30
0.0
  9
$EXTMAX
 10
185.417492354731
 20
380.426860184009
 30
0.0
  9
$LIMMIN
 10
0.0
 20
0.0
  9
$LIMMAX
 10
12.0
 20
9.0
  9
$ORTHOMODE
 70
     0
  9
$REGENMODE
 70
     1
  9
$FILLMODE
 70
     1
  9
$QTEXTMODE
 70
     0
  9
$MIRRTEXT
 70
     1
  9
$LTSCALE
 40
1.0
  9
$ATTMODE
 70
     1
  9
$TEXTSIZE
 40
0.2
  9
$TRACEWID
 40
0.05
  9
$TEXTSTYLE
  7
Standard
  9
$CLAYER
  8
0
  9
$CELTYPE
  6
ByLayer
  9
$CECOLOR
 62
   256
  9
$CELTSCALE
 40
1.0
  9
$DISPSILH
 70
     0
  9
$DIMSCALE
 40
1.0
  9
$DIMASZ
 40
0.18
  9
$DIMEXO
 40
0.0625
  9
$DIMDLI
 40
0.38
  9
$DIMRND
 40
0.0
  9
$DIMDLE
 40
0.0
  9
$DIMEXE
 40
0.18
  9
$DIMTP
 40
0.0
  9
$DIMTM
 40
0.0
  9
$DIMTXT
 40
0.18
  9
$DIMCEN
 40
0.09
  9
$DIMTSZ
 40
0.0
  9
$DIMTOL
 70
     0
  9
$DIMLIM
 70
     0
  9
$DIMTIH
 70
     1
  9
$DIMTOH
 70
     1
  9
$DIMSE1
 70
     0
  9
$DIMSE2
 70
     0
  9
$DIMTAD
 70
     0
  9
$DIMZIN
 70
     0
  9
$DIMBLK
  1

  9
$DIMASO
 70
     1
  9
$DIMSHO
 70
     1
  9
$DIMPOST
  1

  9
$DIMAPOST
  1

  9
$DIMALT
 70
     0
  9
$DIMALTD
 70
     2
  9
$DIMALTF
 40
25.4
  9
$DIMLFAC
 40
1.0
  9
$DIMTOFL
 70
     0
  9
$DIMTVP
 40
0.0
  9
$DIMTIX
 70
     0
  9
$DIMSOXD
 70
     0
  9
$DIMSAH
 70
     0
  9
$DIMBLK1
  1

  9
$DIMBLK2
  1

  9
$DIMSTYLE
  2
Standard
  9
$DIMCLRD
 70
     0
  9
$DIMCLRE
 70
     0
  9
$DIMCLRT
 70
     0
  9
$DIMTFAC
 40
1.0
  9
$DIMGAP
 40
0.09
  9
$DIMJUST
 70
     0
  9
$DIMSD1
 70
     0
  9
$DIMSD2
 70
     0
  9
$DIMTOLJ
 70
     1
  9
$DIMTZIN
 70
     0
  9
$DIMALTZ
 70
     0
  9
$DIMALTTZ
 70
     0
  9
$DIMUPT
 70
     0
  9
$DIMDEC
 70
     4
  9
$DIMTDEC
 70
     4
  9
$DIMALTU
 70
     2
  9
$DIMALTTD
 70
     2
  9
$DIMTXSTY
  7
Standard
  9
$DIMAUNIT
 70
     0
  9
$DIMADEC
 70
     0
  9
$DIMALTRND
 40
0.0
  9
$DIMAZIN
 70
     0
  9
$DIMDSEP
 70
    46
  9
$DIMATFIT
 70
     3
  9
$DIMFRAC
 70
     0
  9
$DIMLDRBLK
  1

  9
$DIMLUNIT
 70
     2
  9
$DIMLWD
 70
    -2
  9
$DIMLWE
 70
    -2
  9
$DIMTMOVE
 70
     0
  9
$LUNITS
 70
     2
  9
$LUPREC
 70
     4
  9
$SKETCHINC
 40
0.1
  9
$FILLETRAD
 40
0.5
  9
$AUNITS
 70
     0
  9
$AUPREC
 70
     0
  9
$MENU
  1
.
  9
$ELEVATION
 40
0.0
  9
$PELEVATION
 40
0.0
  9
$THICKNESS
 40
0.0
  9
$LIMCHECK
 70
     0
  9
$CHAMFERA
 40
0.5
  9
$CHAMFERB
 40
0.5
  9
$CHAMFERC
 40
1.0
  9
$CHAMFERD
 40
0.0
  9
$SKPOLY
 70
     0
  9
$TDCREATE
 40
2456672.709270868
  9
$TDUCREATE
 40
2456672.667604201
  9
$TDUPDATE
 40
2456672.70927088
  9
$TDUUPDATE
 40
2456672.667604213
  9
$TDINDWG
 40
0.0000000116
  9
$TDUSRTIMER
 40
0.0000000116
  9
$USRTIMER
 70
     1
  9
$ANGBASE
 50
0.0
  9
$ANGDIR
 70
     0
  9
$PDMODE
 70
     0
  9
$PDSIZE
 40
0.0
  9
$PLINEWID
 40
0.0
  9
$SPLFRAME
 70
     0
  9
$SPLINETYPE
 70
     6
  9
$SPLINESEGS
 70
     8
  9
$HANDSEED
  5
166
  9
$SURFTAB1
 70
     6
  9
$SURFTAB2
 70
     6
  9
$SURFTYPE
 70
     6
  9
$SURFU
 70
     6
  9
$SURFV
 70
     6
  9
$UCSBASE
  2

  9
$UCSNAME
  2

  9
$UCSORG
 10
0.0
 20
0.0
 30
0.0
  9
$UCSXDIR
 10
1.0
 20
0.0
 30
0.0
  9
$UCSYDIR
 10
0.0
 20
1.0
 30
0.0
  9
$UCSORTHOREF
  2

  9
$UCSORTHOVIEW
 70
     0
  9
$UCSORGTOP
 10
0.0
 20
0.0
 30
0.0
  9
$UCSORGBOTTOM
 10
0.0
 20
0.0
 30
0.0
  9
$UCSORGLEFT
 10
0.0
 20
0.0
 30
0.0
  9
$UCSORGRIGHT
 10
0.0
 20
0.0
 30
0.0
  9
$UCSORGFRONT
 10
0.0
 20
0.0
 30
0.0
  9
$UCSORGBACK
 10
0.0
 20
0.0
 30
0.0
  9
$PUCSBASE
  2

  9
$PUCSNAME
  2

  9
$PUCSORG
 10
0.0
 20
0.0
 30
0.0
  9
$PUCSXDIR
 10
1.0
 20
0.0
 30
0.0
  9
$PUCSYDIR
 10
0.0
 20
1.0
 30
0.0
  9
$PUCSORTHOREF
  2

  9
$PUCSORTHOVIEW
 70
     0
  9
$PUCSORGTOP
 10
0.0
 20
0.0
 30
0.0
  9
$PUCSORGBOTTOM
 10
0.0
 20
0.0
 30
0.0
  9
$PUCSORGLEFT
 10
0.0
 20
0.0
 30
0.0
  9
$PUCSORGRIGHT
 10
0.0
 20
0.0
 30
0.0
  9
$PUCSORGFRONT
 10
0.0
 20
0.0
 30
0.0
  9
$PUCSORGBACK
 10
0.0
 20
0.0
 30
0.0
  9
$USERI1
 70
     0
  9
$USERI2
 70
     0
  9
$USERI3
 70
     0
  9
$USERI4
 70
     0
  9
$USERI5
 70
     0
  9
$USERR1
 40
16.5
  9
$USERR2
 40
0.0
  9
$USERR3
 40
0.0
  9
$USERR4
 40
0.0
  9
$USERR5
 40
0.0
  9
$WORLDVIEW
 70
     1
  9
$SHADEDGE
 70
     3
  9
$SHADEDIF
 70
    70
  9
$TILEMODE
 70
     1
  9
$MAXACTVP
 70
    64
  9
$PINSBASE
 10
0.0
 20
0.0
 30
0.0
  9
$PLIMCHECK
 70
     0
  9
$PEXTMIN
 10
1.00000000000000E+20
 20
1.00000000000000E+20
 30
1.00000000000000E+20
  9
$PEXTMAX
 10
-1.00000000000000E+20
 20
-1.00000000000000E+20
 30
-1.00000000000000E+20
  9
$PLIMMIN
 10
0.0
 20
0.0
  9
$PLIMMAX
 10
12.0
 20
9.0
  9
$UNITMODE
 70
     0
  9
$VISRETAIN
 70
     1
  9
$PLINEGEN
 70
     0
  9
$PSLTSCALE
 70
     1
  9
$TREEDEPTH
 70
  3020
  9
$CMLSTYLE
  2
Standard
  9
$CMLJUST
 70
     0
  9
$CMLSCALE
 40
1.0
  9
$PROXYGRAPHICS
 70
     1
  9
$MEASUREMENT
 70
     1
  9
$CELWEIGHT
370
    -1
  9
$ENDCAPS
280
     0
  9
$JOINSTYLE
280
     0
  9
$LWDISPLAY
290
     0
  9
$INSUNITS
 70
     1
  9
$HYPERLINKBASE
  1

  9
$STYLESHEET
  1

  9
$XEDIT
290
     1
  9
$CEPSNTYPE
380
     0
  9
$PSTYLEMODE
290
     1
  9
$FINGERPRINTGUID
  2
{4A8E0D2F-CB2E-4902-A190-1F816DBBA315}
  9
$VERSIONGUID
  2
{FAEB1C32-E019-11D5-929B-00C0DF256EC4}
  9
$EXTNAMES
290
     1
  9
$PSVPSCALE
 40
0.0
  9
$OLESTARTUP
290
     0
  0
ENDSEC
  0
SECTION
  2
CLASSES
  0
CLASS
  1
ACDBDICTIONARYWDFLT
  2
AcDbDictionaryWithDefault
  3
ObjectDBX Classes
 90
        0
280
     0
281
     0
  0
CLASS
  1
VISUALSTYLE
  2
AcDbVisualStyle
  3
ObjectDBX Classes
 90
     4095
280
     0
281
     0
  0
CLASS
  1
SCALE
  2
AcDbScale
  3
ObjectDBX Classes
 90
     1153
280
     0
281
     0
  0
CLASS
  1

  2
exOdDbPolyline
  3

 90
        0
280
     0
281
     1
  0
CLASS
  1

  2
exOdDbCircle
  3

 90
        0
280
     0
281
     1
  0
CLASS
  1

  2
exOdDbSpline
  3

 90
        0
280
     0
281
     1
  0
CLASS
  1
DICTIONARYVAR
  2
AcDbDictionaryVar
  3
ObjectDBX Classes
 90
        0
280
     0
281
     0
  0
CLASS
  1
ACDBPLACEHOLDER
  2
AcDbPlaceHolder
  3
ObjectDBX Classes
 90
        0
280
     0
281
     0
  0
CLASS
  1
LAYOUT
  2
AcDbLayout
  3
ObjectDBX Classes
 90
        0
280
     0
281
     0
  0
ENDSEC
  0
SECTION
  2
TABLES
  0
TABLE
  2
VPORT
  5
8
330
0
100
AcDbSymbolTable
 70
     1
  0
VPORT
  5
29
330
8
100
AcDbSymbolTableRecord
100
AcDbViewportTableRecord
  2
*Active
 70
     0
 10
0.0
 20
0.0
 11
1.0
 21
1.0
 12
125.5823725179861
 22
326.0421667253559
 13
0.0
 23
0.0
 14
0.5
 24
0.5
 15
0.5
 25
0.5
 16
0.0
 26
0.0
 36
1.0
 17
0.0
 27
0.0
 37
0.0
 40
119.6463256090368
 41
1.60267857142857
 42
50.0
 43
0.0
 44
0.0
 50
0.0
 51
0.0
 71
     0
 72
   100
 73
     1
 74
     3
 75
     0
 76
     0
 77
     0
 78
     0
281
     0
 65
     1
110
0.0
120
0.0
130
0.0
111
1.0
121
0.0
131
0.0
112
0.0
122
1.0
132
0.0
 79
     0
146
0.0
  0
ENDTAB
  0
TABLE
  2
LTYPE
  5
5
330
0
100
AcDbSymbolTable
 70
     9
  0
LTYPE
  5
14
330
5
100
AcDbSymbolTableRecord
100
AcDbLinetypeTableRecord
  2
ByBlock
 70
     0
  3

 72
    65
 73
     0
 40
0.0
  0
LTYPE
  5
15
330
5
100
AcDbSymbolTableRecord
100
AcDbLinetypeTableRecord
  2
ByLayer
 70
     0
  3

 72
    65
 73
     0
 40
0.0
  0
LTYPE
  5
16
330
5
100
AcDbSymbolTableRecord
100
AcDbLinetypeTableRecord
  2
Continuous
 70
     0
  3
Solid line
 72
    65
 73
     0
 40
0.0
  0
LTYPE
  5
3B
330
5
100
AcDbSymbolTableRecord
100
AcDbLinetypeTableRecord
  2
DASHED
 70
     0
  3
Dashed
 72
    65
 73
     2
 40
15.0
 49
7.0
 74
     0
 49
-8.0
 74
     0
  0
LTYPE
  5
3C
330
5
100
AcDbSymbolTableRecord
100
AcDbLinetypeTableRecord
  2
DOTTED
 70
     0
  3
Dotted
 72
    65
 73
     2
 40
1.0
 49
0.0
 74
     0
 49
-1.0
 74
     0
  0
LTYPE
  5
3D
330
5
100
AcDbSymbolTableRecord
100
AcDbLinetypeTableRecord
  2
DOT_CENTER
 70
     0
  3
Dot_Center
 72
    65
 73
     4
 40
14.0
 49
12.0
 74
     0
 49
-1.0
 74
     0
 49
0.0
 74
     0
 49
-1.0
 74
     0
  0
LTYPE
  5
3E
330
5
100
AcDbSymbolTableRecord
100
AcDbLinetypeTableRecord
  2
LONG_DASHED
 70
     0
  3
Long_Dashed
 72
    65
 73
     2
 40
15.0
 49
10.0
 74
     0
 49
-5.0
 74
     0
  0
LTYPE
  5
3F
330
5
100
AcDbSymbolTableRecord
100
AcDbLinetypeTableRecord
  2
DASH_CENTER
 70
     0
  3
Dash_Center
 72
    65
 73
     4
 40
14.0
 49
11.0
 74
     0
 49
-1.0
 74
     0
 49
1.0
 74
     0
 49
-1.0
 74
     0
  0
LTYPE
  5
40
330
5
100
AcDbSymbolTableRecord
100
AcDbLinetypeTableRecord
  2
PHANTOM
 70
     0
  3
Phantom
 72
    65
 73
     6
 40
13.0
 49
10.0
 74
     0
 49
-1.0
 74
     0
 49
0.0
 74
     0
 49
-1.0
 74
     0
 49
0.0
 74
     0
 49
-1.0
 74
     0
  0
LTYPE
  5
41
330
5
100
AcDbSymbolTableRecord
100
AcDbLinetypeTableRecord
  2
CENTER_DASH_DASH
 70
     0
  3
Center_Dash_Dash
 72
    65
 73
     6
 40
14.0
 49
9.0
 74
     0
 49
-1.0
 74
     0
 49
1.0
 74
     0
 49
-1.0
 74
     0
 49
1.0
 74
     0
 49
-1.0
 74
     0
  0
LTYPE
  5
42
330
5
100
AcDbSymbolTableRecord
100
AcDbLinetypeTableRecord
  2
HIDDEN
 70
     0
  3
HIDDEN
 72
    65
 73
     2
 40
4.0
 49
2.0
 74
     0
 49
-2.0
 74
     0
  0
ENDTAB
  0
TABLE
  2
LAYER
  5
2
330
0
100
AcDbSymbolTable
 70
     7
  0
LAYER
  5
10
330
2
100
AcDbSymbolTableRecord
100
AcDbLayerTableRecord
  2
0
 70
     0
 62
     7
  6
Continuous
370
    -3
390
F
  0
LAYER
  5
43
330
2
100
AcDbSymbolTableRecord
100
AcDbLayerTableRecord
  2
1
 70
     0
 62
     7
  6
Continuous
370
    -3
390
F
  0
LAYER
  5
44
330
2
100
AcDbSymbolTableRecord
100
AcDbLayerTableRecord
  2
BEZUGSACHSEN
 70
     0
 62
     7
  6
Continuous
370
    -3
390
F
  0
LAYER
  5
45
330
2
100
AcDbSymbolTableRecord
100
AcDbLayerTableRecord
  2
DEFAULT_2
 70
     0
 62
     7
  6
Continuous
370
    -3
390
F
  0
LAYER
  5
46
330
2
100
AcDbSymbolTableRecord
100
AcDbLayerTableRecord
  2
FASEN
 70
     0
 62
     7
  6
Continuous
370
    -3
390
F
  0
LAYER
  5
47
330
2
100
AcDbSymbolTableRecord
100
AcDbLayerTableRecord
  2
RUNDUNGEN
 70
     0
 62
     7
  6
Continuous
370
    -3
390
F
  0
LAYER
  5
48
330
2
100
AcDbSymbolTableRecord
100
AcDbLayerTableRecord
  2
TEIL_STARTBEZUEGE
 70
     0
 62
     7
  6
Continuous
370
    -3
390
F
  0
ENDTAB
  0
TABLE
  2
STYLE
  5
3
330
0
100
AcDbSymbolTable
 70
     2
  0
STYLE
  5
11
330
3
100
AcDbSymbolTableRecord
100
AcDbTextStyleTableRecord
  2
Standard
 70
     0
 40
0.0
 41
1.0
 50
0.0
 71
     0
 42
0.2
  3
txt
  4

  0
STYLE
  5
6F
330
3
100
AcDbSymbolTableRecord
100
AcDbTextStyleTableRecord
  2
CONVERTER_11
 70
     0
 40
0.0
 41
0.72
 50
0.0
 71
     0
 42
0.2
  3
txt.shx
  4

  0
ENDTAB
  0
TABLE
  2
VIEW
  5
6
330
0
100
AcDbSymbolTable
 70
     0
  0
ENDTAB
  0
TABLE
  2
UCS
  5
7
330
0
100
AcDbSymbolTable
 70
     0
  0
ENDTAB
  0
TABLE
  2
APPID
  5
9
330
0
100
AcDbSymbolTable
 70
     1
  0
APPID
  5
12
330
9
100
AcDbSymbolTableRecord
100
AcDbRegAppTableRecord
  2
ACAD
 70
     0
  0
ENDTAB
  0
TABLE
  2
DIMSTYLE
  5
A
330
0
100
AcDbSymbolTable
 70
     6
100
AcDbDimStyleTable
  0
DIMSTYLE
105
27
330
A
100
AcDbSymbolTableRecord
100
AcDbDimStyleTableRecord
  2
Standard
 70
     0
340
11
  0
DIMSTYLE
105
12D
102
{ACAD_REACTORS
330
12E
102
}
330
A
100
AcDbSymbolTableRecord
100
AcDbDimStyleTableRecord
  2
ME10_DIM_10
 70
     0
  3
\U+2300<>
 41
3.5
 42
2.0
 44
2.0
 71
     1
 73
     0
 74
     0
 77
     1
 78
     8
140
3.5
146
0.7
147
2.0
172
     1
173
     1
176
     2
177
     2
178
     3
271
     2
272
     0
340
6F
  0
DIMSTYLE
105
138
102
{ACAD_REACTORS
330
139
102
}
330
A
100
AcDbSymbolTableRecord
100
AcDbDimStyleTableRecord
  2
ME10_DIM_11
 70
     0
  3
\U+2300<>
 41
3.5
 42
2.0
 44
2.0
 71
     1
 73
     0
 74
     0
 77
     1
 78
     8
140
3.5
146
0.7
147
2.0
172
     1
173
     1
176
     2
177
     2
178
     3
271
     2
272
     0
340
6F
  0
DIMSTYLE
105
143
102
{ACAD_REACTORS
330
144
102
}
330
A
100
AcDbSymbolTableRecord
100
AcDbDimStyleTableRecord
  2
ME10_DIM_12
 70
     0
  3
<>
 41
3.5
 42
2.0
 44
2.0
 71
     1
 73
     0
 74
     0
 77
     1
 78
     8
140
3.5
146
0.7
147
2.0
172
     1
173
     1
176
     2
177
     2
178
     3
271
     0
272
     0
340
6F
  0
DIMSTYLE
105
14E
102
{ACAD_REACTORS
330
14F
102
}
330
A
100
AcDbSymbolTableRecord
100
AcDbDimStyleTableRecord
  2
ME10_DIM_13
 70
     0
  3
<>
 41
3.5
 42
2.0
 44
2.0
 71
     1
 73
     0
 74
     0
 77
     1
 78
     8
140
3.5
146
0.7
147
2.0
172
     1
173
     1
176
     2
177
     2
178
     3
271
     2
272
     0
340
6F
  0
DIMSTYLE
105
159
102
{ACAD_REACTORS
330
15A
102
}
330
A
100
AcDbSymbolTableRecord
100
AcDbDimStyleTableRecord
  2
ME10_DIM_14
 70
     0
  3
<>
 41
3.5
 42
2.0
 44
2.0
 71
     1
 73
     0
 74
     0
 77
     1
 78
     8
140
3.5
146
0.7
147
2.0
172
     1
173
     1
176
     2
177
     2
178
     3
271
     0
272
     0
340
6F
  0
ENDTAB
  0
TABLE
  2
BLOCK_RECORD
  5
1
330
0
100
AcDbSymbolTable
 70
     8
  0
BLOCK_RECORD
  5
1F
330
1
100
AcDbSymbolTableRecord
100
AcDbBlockTableRecord
  2
*Model_Space
340
22
  0
BLOCK_RECORD
  5
1B
330
1
100
AcDbSymbolTableRecord
100
AcDbBlockTableRecord
  2
*Paper_Space
340
1E
  0
BLOCK_RECORD
  5
23
330
1
100
AcDbSymbolTableRecord
100
AcDbBlockTableRecord
  2
*Paper_Space0
340
26
  0
BLOCK_RECORD
  5
49
330
1
100
AcDbSymbolTableRecord
100
AcDbBlockTableRecord
  2
Urheberrecht_DE-EN
340
0
102
{BLKREFS
331
6E
102
}
  0
BLOCK_RECORD
  5
122
330
1
100
AcDbSymbolTableRecord
100
AcDbBlockTableRecord
  2
*D2
340
0
  0
BLOCK_RECORD
  5
12F
330
1
100
AcDbSymbolTableRecord
100
AcDbBlockTableRecord
  2
*D3
340
0
  0
BLOCK_RECORD
  5
13A
330
1
100
AcDbSymbolTableRecord
100
AcDbBlockTableRecord
  2
*D4
340
0
  0
BLOCK_RECORD
  5
145
330
1
100
AcDbSymbolTableRecord
100
AcDbBlockTableRecord
  2
*D5
340
0
  0
BLOCK_RECORD
  5
150
330
1
100
AcDbSymbolTableRecord
100
AcDbBlockTableRecord
  2
*D6
340
0
  0
BLOCK_RECORD
  5
15B
330
1
100
AcDbSymbolTableRecord
100
AcDbBlockTableRecord
  2
*D7
340
0
102
{BLKREFS
331
161
102
}
  0
ENDTAB
  0
ENDSEC
  0
SECTION
  2
BLOCKS
  0
BLOCK
  5
20
330
1F
100
AcDbEntity
  8
0
100
AcDbBlockBegin
  2
*Model_Space
 70
     0
 10
0.0
 20
0.0
 30
0.0
  3
*Model_Space
  1

  0
ENDBLK
  5
21
330
1F
100
AcDbEntity
  8
0
100
AcDbBlockEnd
  0
BLOCK
  5
1C
330
1B
100
AcDbEntity
 67
     1
  8
0
100
AcDbBlockBegin
  2
*Paper_Space
 70
     0
 10
0.0
 20
0.0
 30
0.0
  3
*Paper_Space
  1

  0
ENDBLK
  5
1D
330
1B
100
AcDbEntity
 67
     1
  8
0
100
AcDbBlockEnd
  0
BLOCK
  5
24
330
23
100
AcDbEntity
  8
0
100
AcDbBlockBegin
  2
*Paper_Space0
 70
     0
 10
0.0
 20
0.0
 30
0.0
  3
*Paper_Space0
  1

  0
ENDBLK
  5
25
330
23
100
AcDbEntity
  8
0
100
AcDbBlockEnd
  0
BLOCK
  5
4A
330
49
100
AcDbEntity
  8
0
100
AcDbBlockBegin
  2
Urheberrecht_DE-EN
 70
     0
 10
79.7472526812412
 20
327.946860184009
 30
0.0
  3
Urheberrecht_DE-EN
  1

  0
MTEXT
  5
70
330
49
100
AcDbEntity
  8
1
 62
     1
100
AcDbMText
 10
79.7472526812412
 20
327.946860184009
 30
0.0
 40
2.0
 41
0.0
 71
     7
 72
     1
  1
We own the copyright of this document. It \Pdetermined and may neither be copied or \Pmade accessible to outsiders without our\Ppermission.
  7
CONVERTER_11
 11
0.0
 21
1.0
 31
0.0
 73
     1
 44
0.90036014405762
  0
MTEXT
  5
71
330
49
100
AcDbEntity
  8
1
 62
     1
100
AcDbMText
 10
79.7472526812412
 20
271.6574732667028
 30
0.0
 40
2.0
 41
0.0
 71
     7
 72
     1
  1
F\U+00fcr diese Unterlage behalten wir das Ur-\Pheberrecht. Sie darf nur f\U+00fcr den von uns \Pbestimmten Zweck benutzt und ohne unsere \PZustimmung weder vervielf\U+00e4ltigt noch\PDritten zug\U+00e4nglich gemacht werden.
  7
CONVERTER_11
 11
0.0
 21
1.0
 31
0.0
 73
     1
 44
0.90036014405762
  0
ENDBLK
  5
4B
330
49
100
AcDbEntity
  8
0
100
AcDbBlockEnd
  0
BLOCK
  5
12B
330
122
100
AcDbEntity
  8
0
100
AcDbBlockBegin
  2
*D2
 70
     1
 10
0.0
 20
0.0
 30
0.0
  3
*D2
  1

  0
LINE
  5
123
330
122
100
AcDbEntity
  8
1
  6
Continuous
 62
     2
100
AcDbLine
 10
174.17017497426
 20
319.7152025215
 30
0.0
 11
174.17017497426
 21
312.7152025215
 31
0.0
  0
LINE
  5
124
330
122
100
AcDbEntity
  8
1
  6
Continuous
 62
     2
100
AcDbLine
 10
174.17017497426
 20
312.7152025215
 30
0.0
 11
174.17017497426
 21
304.7152025215
 31
0.0
  0
LINE
  5
125
330
122
100
AcDbEntity
  8
1
  6
Continuous
 62
     2
100
AcDbLine
 10
174.17017497426
 20
304.7152025215
 30
0.0
 11
174.17017497426
 21
297.7152025215
 31
0.0
  0
LINE
  5
126
330
122
100
AcDbEntity
  8
1
  6
Continuous
 62
     2
100
AcDbLine
 10
164.3854714324
 20
312.7152025215
 30
0.0
 11
176.17017497426
 21
312.7152025215
 31
0.0
  0
LINE
  5
127
330
122
100
AcDbEntity
  8
1
  6
Continuous
 62
     2
100
AcDbLine
 10
164.3854714324
 20
304.7152025215
 30
0.0
 11
176.17017497426
 21
304.7152025215
 31
0.0
  0
SOLID
  5
128
330
122
100
AcDbEntity
  8
1
 62
     2
100
AcDbTrace
 10
173.7093912327041
 20
316.2152025215
 30
0.0
 11
174.6309587158159
 21
316.2152025215
 31
0.0
 12
174.17017497426
 22
312.7152025215
 32
0.0
 13
174.17017497426
 23
312.7152025215
 33
0.0
  0
SOLID
  5
129
330
122
100
AcDbEntity
  8
1
 62
     2
100
AcDbTrace
 10
174.6309587158159
 20
301.2152025215
 30
0.0
 11
173.7093912327041
 21
301.2152025215
 31
0.0
 12
174.17017497426
 22
304.7152025215
 32
0.0
 13
174.17017497426
 23
304.7152025215
 33
0.0
  0
MTEXT
  5
12A
330
122
100
AcDbEntity
  8
1
 62
     3
100
AcDbMText
 10
172.17017497426
 20
301.208014410294
 30
0.0
 40
3.5
 41
0.0
 71
     7
 72
     1
  1
\C3;%%c\C3;\C3;8\C2;\H2.45;\S^ ;\C3;
  7
CONVERTER_11
 11
0.0
 21
1.0
 31
0.0
 73
     1
 44
0.60024009603842
  0
ENDBLK
  5
12C
330
122
100
AcDbEntity
  8
0
100
AcDbBlockEnd
  0
BLOCK
  5
136
330
12F
100
AcDbEntity
  8
0
100
AcDbBlockBegin
  2
*D3
 70
     1
 10
0.0
 20
0.0
 30
0.0
  3
*D3
  1

  0
LINE
  5
130
330
12F
100
AcDbEntity
  8
1
  6
Continuous
 62
     2
100
AcDbLine
 10
183.417492354731
 20
322.7152025215
 30
0.0
 11
183.417492354731
 21
294.7152025215
 31
0.0
  0
LINE
  5
131
330
12F
100
AcDbEntity
  8
1
  6
Continuous
 62
     2
100
AcDbLine
 10
155.5857490877
 20
322.7152025215
 30
0.0
 11
185.417492354731
 21
322.7152025215
 31
0.0
  0
LINE
  5
132
330
12F
100
AcDbEntity
  8
1
  6
Continuous
 62
     2
100
AcDbLine
 10
155.5857490877
 20
294.7152025215
 30
0.0
 11
185.417492354731
 21
294.7152025215
 31
0.0
  0
SOLID
  5
133
330
12F
100
AcDbEntity
  8
1
 62
     2
100
AcDbTrace
 10
183.8782760962869
 20
319.2152025215
 30
0.0
 11
182.9567086131751
 21
319.2152025215
 31
0.0
 12
183.417492354731
 22
322.7152025215
 32
0.0
 13
183.417492354731
 23
322.7152025215
 33
0.0
  0
SOLID
  5
134
330
12F
100
AcDbEntity
  8
1
 62
     2
100
AcDbTrace
 10
182.9567086131751
 20
298.2152025215
 30
0.0
 11
183.8782760962869
 21
298.2152025215
 31
0.0
 12
183.417492354731
 22
294.7152025215
 32
0.0
 13
183.417492354731
 23
294.7152025215
 33
0.0
  0
MTEXT
  5
135
330
12F
100
AcDbEntity
  8
1
 62
     3
100
AcDbMText
 10
181.417492354731
 20
299.804645148581
 30
0.0
 40
3.5
 41
0.0
 71
     7
 72
     1
  1
\C3;%%c\C3;\C3;28\C2;\H2.45;\S^ ;\C3;
  7
CONVERTER_11
 11
0.0
 21
1.0
 31
0.0
 73
     1
 44
0.60024009603842
  0
ENDBLK
  5
137
330
12F
100
AcDbEntity
  8
0
100
AcDbBlockEnd
  0
BLOCK
  5
141
330
13A
100
AcDbEntity
  8
0
100
AcDbBlockBegin
  2
*D4
 70
     1
 10
0.0
 20
0.0
 30
0.0
  3
*D4
  1

  0
LINE
  5
13B
330
13A
100
AcDbEntity
  8
1
  6
Continuous
 62
     2
100
AcDbLine
 10
162.3854714324
 20
333.964319840876
 30
0.0
 11
122.3354714324
 21
333.964319840876
 31
0.0
  0
LINE
  5
13C
330
13A
100
AcDbEntity
  8
1
  6
Continuous
 62
     2
100
AcDbLine
 10
162.3854714324
 20
320.0781322607
 30
0.0
 11
162.3854714324
 21
335.964319840876
 31
0.0
  0
LINE
  5
13D
330
13A
100
AcDbEntity
  8
1
  6
Continuous
 62
     2
100
AcDbLine
 10
122.3354714324
 20
326.7152025215
 30
0.0
 11
122.3354714324
 21
335.964319840876
 31
0.0
  0
SOLID
  5
13E
330
13A
100
AcDbEntity
  8
1
 62
     2
100
AcDbTrace
 10
158.8854714324
 20
333.5035360993201
 30
0.0
 11
158.8854714324
 21
334.4251035824319
 31
0.0
 12
162.3854714324
 22
333.964319840876
 32
0.0
 13
162.3854714324
 23
333.964319840876
 33
0.0
  0
SOLID
  5
13F
330
13A
100
AcDbEntity
  8
1
 62
     2
100
AcDbTrace
 10
125.8354714324
 20
334.4251035824319
 30
0.0
 11
125.8354714324
 21
333.5035360993201
 31
0.0
 12
122.3354714324
 22
333.964319840876
 32
0.0
 13
122.3354714324
 23
333.964319840876
 33
0.0
  0
MTEXT
  5
140
330
13A
100
AcDbEntity
  8
1
 62
     3
100
AcDbMText
 10
139.59703719633
 20
335.964319840876
 30
0.0
 40
3.5
 41
0.0
 71
     7
 72
     1
  1
\C3;\C3;\C3;40\C2;\H2.45;\S^ ;\C3;
  7
CONVERTER_11
 11
0.9999999999970619
 21
2.424068405545306E-6
 31
0.0
 73
     1
 44
0.60024009603842
  0
ENDBLK
  5
142
330
13A
100
AcDbEntity
  8
0
100
AcDbBlockEnd
  0
BLOCK
  5
14C
330
145
100
AcDbEntity
  8
0
100
AcDbBlockBegin
  2
*D5
 70
     1
 10
0.0
 20
0.0
 30
0.0
  3
*D5
  1

  0
LINE
  5
146
330
145
100
AcDbEntity
  8
1
  6
Continuous
 62
     2
100
AcDbLine
 10
162.3854714324
 20
342.709844805351
 30
0.0
 11
102.3854714324
 21
342.709844805351
 31
0.0
  0
LINE
  5
147
330
145
100
AcDbEntity
  8
1
  6
Continuous
 62
     2
100
AcDbLine
 10
162.3854714324
 20
320.0781322607
 30
0.0
 11
162.3854714324
 21
344.709844805351
 31
0.0
  0
LINE
  5
148
330
145
100
AcDbEntity
  8
1
  6
Continuous
 62
     2
100
AcDbLine
 10
102.3854714324
 20
326.7152025215
 30
0.0
 11
102.3854714324
 21
344.709844805351
 31
0.0
  0
SOLID
  5
149
330
145
100
AcDbEntity
  8
1
 62
     2
100
AcDbTrace
 10
158.8854714324
 20
342.2490610637951
 30
0.0
 11
158.8854714324
 21
343.1706285469069
 31
0.0
 12
162.3854714324
 22
342.709844805351
 32
0.0
 13
162.3854714324
 23
342.709844805351
 33
0.0
  0
SOLID
  5
14A
330
145
100
AcDbEntity
  8
1
 62
     2
100
AcDbTrace
 10
105.8854714324
 20
343.1706285469069
 30
0.0
 11
105.8854714324
 21
342.2490610637951
 31
0.0
 12
102.3854714324
 22
342.709844805351
 32
0.0
 13
102.3854714324
 23
342.709844805351
 33
0.0
  0
MTEXT
  5
14B
330
145
100
AcDbEntity
  8
1
 62
     3
100
AcDbMText
 10
129.202765722158
 20
344.709844805351
 30
0.0
 40
3.5
 41
0.0
 71
     7
 72
     1
  1
\C3;\C3;\C3;60\C2;\H2.45;\S^ ;\C3;
  7
CONVERTER_11
 11
0.9999999999970619
 21
2.424068405545306E-6
 31
0.0
 73
     1
 44
0.60024009603842
  0
ENDBLK
  5
14D
330
145
100
AcDbEntity
  8
0
100
AcDbBlockEnd
  0
BLOCK
  5
157
330
150
100
AcDbEntity
  8
0
100
AcDbBlockBegin
  2
*D6
 70
     1
 10
0.0
 20
0.0
 30
0.0
  3
*D6
  1

  0
LINE
  5
151
330
150
100
AcDbEntity
  8
1
  6
Continuous
 62
     2
100
AcDbLine
 10
162.3854714324
 20
349.806623260131
 30
0.0
 11
86.4854714324
 21
349.806623260131
 31
0.0
  0
LINE
  5
152
330
150
100
AcDbEntity
  8
1
  6
Continuous
 62
     2
100
AcDbLine
 10
162.3854714324
 20
320.0781322607
 30
0.0
 11
162.3854714324
 21
351.806623260131
 31
0.0
  0
LINE
  5
153
330
150
100
AcDbEntity
  8
1
  6
Continuous
 62
     2
100
AcDbLine
 10
86.4854714324
 20
321.5117067562
 30
0.0
 11
86.4854714324
 21
351.806623260131
 31
0.0
  0
SOLID
  5
154
330
150
100
AcDbEntity
  8
1
 62
     2
100
AcDbTrace
 10
158.8854714324
 20
349.3458395185751
 30
0.0
 11
158.8854714324
 21
350.2674070016869
 31
0.0
 12
162.3854714324
 22
349.806623260131
 32
0.0
 13
162.3854714324
 23
349.806623260131
 33
0.0
  0
SOLID
  5
155
330
150
100
AcDbEntity
  8
1
 62
     2
100
AcDbTrace
 10
89.9854714324
 20
350.2674070016869
 30
0.0
 11
89.9854714324
 21
349.3458395185751
 31
0.0
 12
86.4854714324
 22
349.806623260131
 32
0.0
 13
86.4854714324
 23
349.806623260131
 33
0.0
  0
MTEXT
  5
156
330
150
100
AcDbEntity
  8
1
 62
     3
100
AcDbMText
 10
125.403480286771
 20
351.806623260131
 30
0.0
 40
3.5
 41
0.0
 71
     7
 72
     1
  1
\C3;\C3;\C3;76\C2;\H2.45;\S^ ;\C3;
  7
CONVERTER_11
 11
0.9999999999970619
 21
2.424068405545306E-6
 31
0.0
 73
     1
 44
0.60024009603842
  0
ENDBLK
  5
158
330
150
100
AcDbEntity
  8
0
100
AcDbBlockEnd
  0
BLOCK
  5
15F
330
15B
100
AcDbEntity
  8
0
100
AcDbBlockBegin
  2
*D7
 70
     1
 10
0.0
 20
0.0
 30
0.0
  3
*D7
  1

  0
LINE
  5
15C
330
15B
100
AcDbEntity
  8
1
  6
Continuous
 62
     2
100
AcDbLine
 10
131.2236269484904
 20
327.3394828466424
 30
0.0
 11
122.5212443589945
 21
321.1346559919835
 31
0.0
  0
SOLID
  5
15D
330
15B
100
AcDbEntity
  8
1
 62
     2
100
AcDbTrace
 10
125.1035327138956
 20
323.541751442651
 30
0.0
 11
125.6385455179314
 21
322.7913862479313
 31
0.0
 12
122.5212443589945
 22
321.1346559919835
 32
0.0
 13
122.5212443589945
 23
321.1346559919835
 33
0.0
  0
MTEXT
  5
15E
330
15B
100
AcDbEntity
  8
1
 62
     3
100
AcDbMText
 10
124.7049197464497
 20
325.1479408292349
 30
0.0
 40
3.5
 41
0.0
 71
     7
 72
     1
  1
\C3; R\C3;\C3;1\C2;\H2.45;\S^ ;\C3;
  7
CONVERTER_11
 11
0.8142270734054371
 21
0.5805465295164695
 31
0.0
 73
     1
 44
0.60024009603842
  0
ENDBLK
  5
160
330
15B
100
AcDbEntity
  8
0
100
AcDbBlockEnd
  0
ENDSEC
  0
SECTION
  2
ENTITIES
  0
INSERT
  5
6E
330
1F
100
AcDbEntity
  8
0
100
AcDbBlockReference
  2
Urheberrecht_DE-EN
 10
79.7472526812412
 20
327.946860184009
 30
0.0
  0
LINE
  5
72
330
1F
100
AcDbEntity
  8
0
  6
Continuous
 62
     7
100
AcDbLine
 10
86.4854714324
 20
297.918698286
 30
0.0
 11
86.4854714324
 21
304.2402025215
 31
0.0
  0
LINE
  5
73
330
1F
100
AcDbEntity
  8
0
  6
Continuous
 62
     7
100
AcDbLine
 10
86.4854714324
 20
313.1902025215
 30
0.0
 11
86.4854714324
 21
319.5117067562
 31
0.0
  0
LINE
  5
74
330
1F
100
AcDbEntity
  8
0
  6
Continuous
 62
     9
100
AcDbLine
 10
87.0554474493
 20
320.110955087
 30
0.0
 11
87.0554474493
 21
313.8510445211
 31
0.0
  0
LINE
  5
75
330
1F
100
AcDbEntity
  8
0
  6
Continuous
 62
     9
100
AcDbLine
 10
87.0554474493
 20
303.5793605219
 30
0.0
 11
87.0554474493
 21
297.319449956
 31
0.0
  0
LINE
  5
76
330
1F
100
AcDbEntity
  8
0
  6
Continuous
 62
     7
100
AcDbLine
 10
87.4354714324
 20
304.5727482226
 30
0.0
 11
87.4354714324
 21
305.1902025215
 31
0.0
  0
LINE
  5
77
330
1F
100
AcDbEntity
  8
0
  6
Continuous
 62
     7
100
AcDbLine
 10
87.4354714324
 20
312.2402025215
 30
0.0
 11
87.4354714324
 21
312.8576568203
 31
0.0
  0
LINE
  5
78
330
1F
100
AcDbEntity
  8
RUNDUNGEN
  6
Continuous
 62
     9
100
AcDbLine
 10
88.6854714324
 20
303.4529598288
 30
0.0
 11
88.6854714324
 21
305.1902025215
 31
0.0
  0
LINE
  5
79
330
1F
100
AcDbEntity
  8
RUNDUNGEN
  6
Continuous
 62
     9
100
AcDbLine
 10
88.6854714324
 20
312.2402025215
 30
0.0
 11
88.6854714324
 21
313.9774452142
 31
0.0
  0
LINE
  5
7A
330
1F
100
AcDbEntity
  8
RUNDUNGEN
  6
Continuous
 62
     7
100
AcDbLine
 10
89.5854714324
 20
312.5870864923
 30
0.0
 11
89.5854714324
 21
304.8433185506
 31
0.0
  0
LINE
  5
7B
330
1F
100
AcDbEntity
  8
0
  6
Continuous
 62
     7
100
AcDbLine
 10
87.2056557888
 20
303.8102025215
 30
0.0
 11
87.1049705848
 21
303.6279897292
 31
0.0
  0
LINE
  5
7C
330
1F
100
AcDbEntity
  8
0
  6
Continuous
 62
     7
100
AcDbLine
 10
87.1049705848
 20
313.8024153137
 30
0.0
 11
87.2056557888
 21
313.6202025215
 31
0.0
  0
LWPOLYLINE
  5
7D
330
1F
100
AcDbEntity
  8
BEZUGSACHSEN
  6
DOT_CENTER
 62
     7
100
AcDbPolyline
 90
        2
 70
     0
 43
0.25
 10
97.3854714324
 20
308.7152025215
 10
97.3854714324
 20
303.7152025215
  0
LWPOLYLINE
  5
7E
330
1F
100
AcDbEntity
  8
BEZUGSACHSEN
  6
DOT_CENTER
 62
     7
100
AcDbPolyline
 90
        2
 70
     0
 43
0.25
 10
97.3854714324
 20
308.7152025215
 10
97.3854714324
 20
313.7152025215
  0
LINE
  5
7F
330
1F
100
AcDbEntity
  8
0
  6
Continuous
 62
     7
100
AcDbLine
 10
101.3854714324
 20
320.8289285489
 30
0.0
 11
101.3854714324
 21
296.6014764941
 31
0.0
  0
LINE
  5
80
330
1F
100
AcDbEntity
  8
0
  6
Continuous
 62
     9
100
AcDbLine
 10
101.7078098942
 20
296.6878468246
 30
0.0
 11
101.7078098942
 21
320.7425582183
 31
0.0
  0
LINE
  5
81
330
1F
100
AcDbEntity
  8
0
  6
Continuous
 62
     9
100
AcDbLine
 10
101.8113375122
 20
296.7014764941
 30
0.0
 11
101.8113375122
 21
320.7289285489
 31
0.0
  0
LINE
  5
82
330
1F
100
AcDbEntity
  8
0
  6
Continuous
 62
     9
100
AcDbLine
 10
102.2312942691
 20
296.7014764941
 30
0.0
 11
102.2312942691
 21
320.7289285489
 31
0.0
  0
LINE
  5
83
330
1F
100
AcDbEntity
  8
0
  6
Continuous
 62
     7
100
AcDbLine
 10
102.3854714324
 20
324.7152025215
 30
0.0
 11
102.3854714324
 21
292.7152025215
 31
0.0
  0
LINE
  5
84
330
1F
100
AcDbEntity
  8
0
  6
Continuous
 62
     7
100
AcDbLine
 10
86.4854714324
 20
304.2402025215
 30
0.0
 11
87.4354714324
 21
305.1902025215
 31
0.0
  0
LINE
  5
85
330
1F
100
AcDbEntity
  8
0
  6
Continuous
 62
     7
100
AcDbLine
 10
87.4354714324
 20
312.2402025215
 30
0.0
 11
86.4854714324
 21
313.1902025215
 31
0.0
  0
LINE
  5
86
330
1F
100
AcDbEntity
  8
0
  6
Continuous
 62
     2
100
AcDbLine
 10
141.3855019141
 20
294.7151582748
 30
0.0
 11
141.3854714324
 21
294.7151516192
 31
0.0
  0
LWPOLYLINE
  5
87
330
1F
100
AcDbEntity
  8
BEZUGSACHSEN
  6
DOT_CENTER
 62
     7
100
AcDbPolyline
 90
        2
 70
     0
 43
0.25
 10
109.3854714324
 20
330.313886675
 10
109.3854714324
 20
316.313886675
  0
LINE
  5
88
330
1F
100
AcDbEntity
  8
0
  6
Continuous
 62
     9
100
AcDbLine
 10
86.4854714324
 20
304.0478073414
 30
0.0
 11
87.4354714324
 21
304.5727482226
 31
0.0
  0
LINE
  5
89
330
1F
100
AcDbEntity
  8
0
  6
Continuous
 62
     7
100
AcDbLine
 10
116.3503117335
 20
292.7152025215
 30
0.0
 11
102.3854714324
 21
292.7152025215
 31
0.0
  0
LINE
  5
8A
330
1F
100
AcDbEntity
  8
0
  6
Continuous
 62
     7
100
AcDbLine
 10
120.4206311313
 20
292.7152025215
 30
0.0
 11
122.3354714324
 21
292.7152025215
 31
0.0
  0
LINE
  5
8B
330
1F
100
AcDbEntity
  8
0
  6
Continuous
 62
     7
100
AcDbLine
 10
138.8354714324
 20
294.7152025215
 30
0.0
 11
141.8854714324
 21
294.7152025215
 31
0.0
  0
LINE
  5
8C
330
1F
100
AcDbEntity
  8
0
  6
Continuous
 62
     7
100
AcDbLine
 10
146.8854714324
 20
294.7152025215
 30
0.0
 11
153.5857490877
 21
294.7152025215
 31
0.0
  0
LINE
  5
8D
330
1F
100
AcDbEntity
  8
0
  6
Continuous
 62
     9
100
AcDbLine
 10
87.4354714324
 20
312.8576568203
 30
0.0
 11
86.4854714324
 21
313.3825977015
 31
0.0
  0
LINE
  5
8E
330
1F
100
AcDbEntity
  8
0
  6
Continuous
 62
     7
100
AcDbLine
 10
119.4229714324
 20
322.9872052343
 30
0.0
 11
120.4206311313
 21
324.7152025215
 31
0.0
  0
LINE
  5
8F
330
1F
100
AcDbEntity
  8
0
  6
Continuous
 62
     7
100
AcDbLine
 10
117.5979714324
 20
295.4902025215
 30
0.0
 11
119.1729714324
 21
295.4902025215
 31
0.0
  0
LINE
  5
90
330
1F
100
AcDbEntity
  8
0
  6
Continuous
 62
     7
100
AcDbLine
 10
110.738272665
 20
295.7314626904
 30
0.0
 11
116.3503117335
 21
295.7314626904
 31
0.0
  0
LINE
  5
91
330
1F
100
AcDbEntity
  8
0
  6
Continuous
 62
     7
100
AcDbLine
 10
120.4206311313
 20
295.7314626904
 30
0.0
 11
122.3354714324
 21
295.7314626904
 31
0.0
  0
LINE
  5
92
330
1F
100
AcDbEntity
  8
0
  6
Continuous
 62
     7
100
AcDbLine
 10
102.2312942691
 20
296.7014764941
 30
0.0
 11
101.8113375122
 21
296.7014764941
 31
0.0
  0
LINE
  5
93
330
1F
100
AcDbEntity
  8
0
  6
Continuous
 62
     7
100
AcDbLine
 10
123.3354714324
 20
296.7152025215
 30
0.0
 11
136.8354714324
 21
296.7152025215
 31
0.0
  0
LINE
  5
94
330
1F
100
AcDbEntity
  8
0
  6
Continuous
 62
     7
100
AcDbLine
 10
101.3854714324
 20
296.6014764941
 30
0.0
 11
87.0554474493
 21
297.319449956
 31
0.0
  0
LINE
  5
95
330
1F
100
AcDbEntity
  8
0
  6
Continuous
 62
     7
100
AcDbLine
 10
119.4229714324
 20
294.4431998086
 30
0.0
 11
120.4206311313
 21
292.7152025215
 31
0.0
  0
LINE
  5
96
330
1F
100
AcDbEntity
  8
FASEN
  6
Continuous
 62
     9
100
AcDbLine
 10
113.8353864274
 20
298.9652025215
 30
0.0
 11
113.8353864274
 21
299.3652025215
 31
0.0
  0
LINE
  5
97
330
1F
100
AcDbEntity
  8
FASEN
  6
Continuous
 62
     9
100
AcDbLine
 10
113.8499714324
 20
305.6007025215
 30
0.0
 11
113.8499714324
 21
305.2007025215
 31
0.0
  0
LINE
  5
98
330
1F
100
AcDbEntity
  8
FASEN
  6
Continuous
 62
     9
100
AcDbLine
 10
113.8499714324
 20
311.8297025215
 30
0.0
 11
113.8499714324
 21
312.2297025215
 31
0.0
  0
LINE
  5
99
330
1F
100
AcDbEntity
  8
0
  6
Continuous
 62
     7
100
AcDbLine
 10
116.3503117335
 20
324.7152025215
 30
0.0
 11
116.3503117335
 21
312.2297025215
 31
0.0
  0
LINE
  5
9A
330
1F
100
AcDbEntity
  8
0
  6
Continuous
 62
     7
100
AcDbLine
 10
116.3503117335
 20
305.2007025215
 30
0.0
 11
116.3503117335
 21
299.3652025215
 31
0.0
  0
LINE
  5
9B
330
1F
100
AcDbEntity
  8
0
  6
Continuous
 62
     7
100
AcDbLine
 10
116.3503117335
 20
295.7314626904
 30
0.0
 11
116.3503117335
 21
292.7152025215
 31
0.0
  0
LINE
  5
9C
330
1F
100
AcDbEntity
  8
0
  6
Continuous
 62
     7
100
AcDbLine
 10
101.7078098942
 20
296.6878468246
 30
0.0
 11
101.8113375122
 21
296.7014764941
 31
0.0
  0
LINE
  5
9D
330
1F
100
AcDbEntity
  8
0
  6
Continuous
 62
     7
100
AcDbLine
 10
113.8353864274
 20
298.9652025215
 30
0.0
 11
117.3479714324
 21
298.9652025215
 31
0.0
  0
LINE
  5
9E
330
1F
100
AcDbEntity
  8
0
  6
Continuous
 62
     7
100
AcDbLine
 10
119.4229714324
 20
298.9652025215
 30
0.0
 11
122.3354714324
 21
298.9652025215
 31
0.0
  0
LINE
  5
9F
330
1F
100
AcDbEntity
  8
0
  6
Continuous
 62
     7
100
AcDbLine
 10
113.8353864274
 20
299.3652025215
 30
0.0
 11
117.3479714324
 21
299.3652025215
 31
0.0
  0
LINE
  5
A0
330
1F
100
AcDbEntity
  8
0
  6
Continuous
 62
     7
100
AcDbLine
 10
119.4229714324
 20
299.3652025215
 30
0.0
 11
122.3354714324
 21
299.3652025215
 31
0.0
  0
LINE
  5
A1
330
1F
100
AcDbEntity
  8
0
  6
Continuous
 62
     2
100
AcDbLine
 10
147.3854714324
 20
294.7151522877
 30
0.0
 11
147.3854417462
 21
294.7151587687
 31
0.0
  0
LINE
  5
A2
330
1F
100
AcDbEntity
  8
0
  6
Continuous
 62
     7
100
AcDbLine
 10
117.3479714324
 20
322.9871505674
 30
0.0
 11
117.3479714324
 21
311.9985646744
 31
0.0
  0
LINE
  5
A3
330
1F
100
AcDbEntity
  8
0
  6
Continuous
 62
     7
100
AcDbLine
 10
117.3479714324
 20
294.443297319
 30
0.0
 11
117.3479714324
 21
305.4318403685
 31
0.0
  0
LINE
  5
A4
330
1F
100
AcDbEntity
  8
0
  6
Continuous
 62
     9
100
AcDbLine
 10
117.5979714324
 20
295.4902025215
 30
0.0
 11
117.5979714324
 21
305.8013348168
 31
0.0
  0
LINE
  5
A5
330
1F
100
AcDbEntity
  8
0
  6
Continuous
 62
     9
100
AcDbLine
 10
117.5979714324
 20
311.6290702261
 30
0.0
 11
117.5979714324
 21
321.9402025215
 31
0.0
  0
LINE
  5
A6
330
1F
100
AcDbEntity
  8
0
  6
Continuous
 62
     9
100
AcDbLine
 10
119.1729714324
 20
295.4902025215
 30
0.0
 11
119.1729714324
 21
305.8013348168
 31
0.0
  0
LINE
  5
A7
330
1F
100
AcDbEntity
  8
0
  6
Continuous
 62
     9
100
AcDbLine
 10
119.1729714324
 20
311.6290702261
 30
0.0
 11
119.1729714324
 21
321.9402025215
 31
0.0
  0
LINE
  5
A8
330
1F
100
AcDbEntity
  8
0
  6
Continuous
 62
     7
100
AcDbLine
 10
101.7078098942
 20
296.6878468246
 30
0.0
 11
101.3854714324
 21
296.6014764941
 31
0.0
  0
LINE
  5
A9
330
1F
100
AcDbEntity
  8
0
  6
Continuous
 62
     7
100
AcDbLine
 10
119.4229714324
 20
294.443297319
 30
0.0
 11
119.4229714324
 21
305.4318403685
 31
0.0
  0
LINE
  5
AA
330
1F
100
AcDbEntity
  8
0
  6
Continuous
 62
     7
100
AcDbLine
 10
119.4229714324
 20
311.9985646744
 30
0.0
 11
119.4229714324
 21
322.9871505674
 31
0.0
  0
LINE
  5
AB
330
1F
100
AcDbEntity
  8
0
  6
Continuous
 62
     7
100
AcDbLine
 10
120.4206311313
 20
305.2007025215
 30
0.0
 11
120.4206311313
 21
299.3652025215
 31
0.0
  0
LINE
  5
AC
330
1F
100
AcDbEntity
  8
0
  6
Continuous
 62
     7
100
AcDbLine
 10
120.4206311313
 20
292.7152025215
 30
0.0
 11
120.4206311313
 21
295.7314626904
 31
0.0
  0
LINE
  5
AD
330
1F
100
AcDbEntity
  8
0
  6
Continuous
 62
     7
100
AcDbLine
 10
120.4206311313
 20
312.2297025215
 30
0.0
 11
120.4206311313
 21
324.7152025215
 31
0.0
  0
LINE
  5
AE
330
1F
100
AcDbEntity
  8
RUNDUNGEN
  6
Continuous
 62
     9
100
AcDbLine
 10
89.2614325424
 20
303.8102025215
 30
0.0
 11
88.6854714324
 21
303.8102025215
 31
0.0
  0
LINE
  5
AF
330
1F
100
AcDbEntity
  8
0
  6
Continuous
 62
     9
100
AcDbLine
 10
88.6854714324
 20
303.8102025215
 30
0.0
 11
87.2056557888
 21
303.8102025215
 31
0.0
  0
LINE
  5
B0
330
1F
100
AcDbEntity
  8
DEFAULT_2
  6
HIDDEN
 62
     8
100
AcDbLine
 10
123.3854714324
 20
304.7152025215
 30
0.0
 11
141.8854714324
 21
304.7152025215
 31
0.0
  0
LINE
  5
B1
330
1F
100
AcDbEntity
  8
DEFAULT_2
  6
HIDDEN
 62
     8
100
AcDbLine
 10
141.8854714324
 20
304.7152025215
 30
0.0
 11
162.3854714324
 21
304.7152025215
 31
0.0
  0
LINE
  5
B2
330
1F
100
AcDbEntity
  8
0
  6
Continuous
 62
     7
100
AcDbLine
 10
88.6854714324
 20
305.1902025215
 30
0.0
 11
87.4354714324
 21
305.1902025215
 31
0.0
  0
LINE
  5
B3
330
1F
100
AcDbEntity
  8
0
  6
Continuous
 62
     7
100
AcDbLine
 10
113.8499714324
 20
305.2007025215
 30
0.0
 11
117.3479714324
 21
305.2007025215
 31
0.0
  0
LINE
  5
B4
330
1F
100
AcDbEntity
  8
0
  6
Continuous
 62
     7
100
AcDbLine
 10
119.4229714324
 20
305.2007025215
 30
0.0
 11
122.3354714324
 21
305.2007025215
 31
0.0
  0
LINE
  5
B5
330
1F
100
AcDbEntity
  8
0
  6
Continuous
 62
     7
100
AcDbLine
 10
122.3354714324
 20
305.6007025215
 30
0.0
 11
119.3169868604
 21
305.6007025215
 31
0.0
  0
LINE
  5
B6
330
1F
100
AcDbEntity
  8
0
  6
Continuous
 62
     7
100
AcDbLine
 10
117.4539560044
 20
305.6007025215
 30
0.0
 11
113.8499714324
 21
305.6007025215
 31
0.0
  0
LINE
  5
B7
330
1F
100
AcDbEntity
  8
0
  6
Continuous
 62
     7
100
AcDbLine
 10
117.5979714324
 20
305.8013348168
 30
0.0
 11
119.1729714324
 21
305.8013348168
 31
0.0
  0
LINE
  5
B8
330
1F
100
AcDbEntity
  8
0
  6
Continuous
 62
     7
100
AcDbLine
 10
122.3354714324
 20
324.7151388863
 30
0.0
 11
122.3354714324
 21
311.8297025215
 31
0.0
  0
LINE
  5
B9
330
1F
100
AcDbEntity
  8
0
  6
Continuous
 62
     7
100
AcDbLine
 10
122.3354714324
 20
292.7152109911
 30
0.0
 11
122.3354714324
 21
305.6007025215
 31
0.0
  0
LINE
  5
BA
330
1F
100
AcDbEntity
  8
RUNDUNGEN
  6
Continuous
 62
     7
100
AcDbLine
 10
122.3354714324
 20
305.6007025215
 30
0.0
 11
122.3354714324
 21
307.1058548275
 31
0.0
  0
LINE
  5
BB
330
1F
100
AcDbEntity
  8
RUNDUNGEN
  6
Continuous
 62
     7
100
AcDbLine
 10
122.3354714324
 20
310.3245502154
 30
0.0
 11
122.3354714324
 21
311.8297025215
 31
0.0
  0
LINE
  5
BC
330
1F
100
AcDbEntity
  8
RUNDUNGEN
  6
Continuous
 62
     9
100
AcDbLine
 10
123.3354714324
 20
296.7152025215
 30
0.0
 11
123.3354714324
 21
320.7152025215
 31
0.0
  0
LINE
  5
BD
330
1F
100
AcDbEntity
  8
DEFAULT_2
  6
HIDDEN
 62
     8
100
AcDbLine
 10
123.3854714324
 20
312.7152025215
 30
0.0
 11
123.3854714324
 21
304.7152025215
 31
0.0
  0
LWPOLYLINE
  5
BE
330
1F
100
AcDbEntity
  8
BEZUGSACHSEN
  6
DOT_CENTER
 62
     7
100
AcDbPolyline
 90
        2
 70
     0
 43
0.25
 10
97.3854714324
 20
308.7152025215
 10
92.3854714324
 20
308.7152025215
  0
LWPOLYLINE
  5
BF
330
1F
100
AcDbEntity
  8
TEIL_STARTBEZUEGE
  6
DOT_CENTER
 62
     7
100
AcDbPolyline
 90
        2
 70
     0
 43
0.25
 10
165.3854714324
 20
308.7152025215
 10
83.4854714324
 20
308.7152025215
  0
LWPOLYLINE
  5
C0
330
1F
100
AcDbEntity
  8
BEZUGSACHSEN
  6
DOT_CENTER
 62
     7
100
AcDbPolyline
 90
        2
 70
     0
 43
0.25
 10
97.3854714324
 20
308.7152025215
 10
102.3854714324
 20
308.7152025215
  0
LWPOLYLINE
  5
C1
330
1F
100
AcDbEntity
  8
FASEN
  6
DOT_CENTER
 62
     9
100
AcDbPolyline
 90
        2
 70
     0
 43
0.25
 10
94.7861406672
 20
308.7152024557
 10
95.3854271591
 20
308.7152024968
  0
LINE
  5
C2
330
1F
100
AcDbEntity
  8
0
  6
Continuous
 62
     7
100
AcDbLine
 10
116.3503117335
 20
292.7152025215
 30
0.0
 11
117.3479714324
 21
294.4431998086
 31
0.0
  0
LINE
  5
C3
330
1F
100
AcDbEntity
  8
0
  6
Continuous
 62
     7
100
AcDbLine
 10
119.1729714324
 20
311.6290702261
 30
0.0
 11
117.5979714324
 21
311.6290702261
 31
0.0
  0
LINE
  5
C4
330
1F
100
AcDbEntity
  8
0
  6
Continuous
 62
     7
100
AcDbLine
 10
116.3503117335
 20
324.7152025215
 30
0.0
 11
117.3479714324
 21
322.9872052343
 31
0.0
  0
LINE
  5
C5
330
1F
100
AcDbEntity
  8
0
  6
Continuous
 62
     7
100
AcDbLine
 10
113.8499714324
 20
311.8297025215
 30
0.0
 11
117.4539560044
 21
311.8297025215
 31
0.0
  0
LINE
  5
C6
330
1F
100
AcDbEntity
  8
0
  6
Continuous
 62
     7
100
AcDbLine
 10
119.3169868604
 20
311.8297025215
 30
0.0
 11
122.3354714324
 21
311.8297025215
 31
0.0
  0
LINE
  5
C7
330
1F
100
AcDbEntity
  8
0
  6
Continuous
 62
     7
100
AcDbLine
 10
113.8499714324
 20
312.2297025215
 30
0.0
 11
117.3479714324
 21
312.2297025215
 31
0.0
  0
LINE
  5
C8
330
1F
100
AcDbEntity
  8
0
  6
Continuous
 62
     7
100
AcDbLine
 10
119.4229714324
 20
312.2297025215
 30
0.0
 11
122.3354714324
 21
312.2297025215
 31
0.0
  0
LINE
  5
C9
330
1F
100
AcDbEntity
  8
0
  6
Continuous
 62
     7
100
AcDbLine
 10
88.6854714324
 20
312.2402025215
 30
0.0
 11
87.4354714324
 21
312.2402025215
 31
0.0
  0
LINE
  5
CA
330
1F
100
AcDbEntity
  8
DEFAULT_2
  6
HIDDEN
 62
     8
100
AcDbLine
 10
162.3854714324
 20
312.7152025215
 30
0.0
 11
123.3854714324
 21
312.7152025215
 31
0.0
  0
LINE
  5
CB
330
1F
100
AcDbEntity
  8
0
  6
Continuous
 62
     9
100
AcDbLine
 10
88.6854714324
 20
313.6202025215
 30
0.0
 11
87.2056557888
 21
313.6202025215
 31
0.0
  0
LINE
  5
CC
330
1F
100
AcDbEntity
  8
RUNDUNGEN
  6
Continuous
 62
     9
100
AcDbLine
 10
88.6854714324
 20
313.6202025215
 30
0.0
 11
89.2614325424
 21
313.6202025215
 31
0.0
  0
LINE
  5
CD
330
1F
100
AcDbEntity
  8
0
  6
Continuous
 62
     7
100
AcDbLine
 10
101.7078098942
 20
320.7425582183
 30
0.0
 11
101.3854714324
 21
320.8289285489
 31
0.0
  0
LINE
  5
CE
330
1F
100
AcDbEntity
  8
0
  6
Continuous
 62
     7
100
AcDbLine
 10
101.7078098942
 20
320.7425582183
 30
0.0
 11
101.8113375122
 21
320.7289285489
 31
0.0
  0
LINE
  5
CF
330
1F
100
AcDbEntity
  8
RUNDUNGEN
  6
Continuous
 62
     9
100
AcDbLine
 10
136.8354714324
 20
296.7152025215
 30
0.0
 11
136.8354714324
 21
320.7152025215
 31
0.0
  0
LINE
  5
D0
330
1F
100
AcDbEntity
  8
RUNDUNGEN
  6
Continuous
 62
     7
100
AcDbLine
 10
137.8354714324
 20
321.7152025215
 30
0.0
 11
137.8354714324
 21
295.7152025215
 31
0.0
  0
LINE
  5
D1
330
1F
100
AcDbEntity
  8
0
  6
Continuous
 62
     7
100
AcDbLine
 10
101.3854714324
 20
320.8289285489
 30
0.0
 11
87.0554474493
 21
320.110955087
 31
0.0
  0
LINE
  5
D2
330
1F
100
AcDbEntity
  8
0
  6
Continuous
 62
     7
100
AcDbLine
 10
123.3354714324
 20
320.7152025215
 30
0.0
 11
136.8354714324
 21
320.7152025215
 31
0.0
  0
LINE
  5
D3
330
1F
100
AcDbEntity
  8
RUNDUNGEN
  6
Continuous
 62
     7
100
AcDbLine
 10
123.3354714324
 20
320.7152025215
 30
0.0
 11
136.8354714324
 21
320.7152025215
 31
0.0
  0
LINE
  5
D4
330
1F
100
AcDbEntity
  8
0
  6
Continuous
 62
     7
100
AcDbLine
 10
102.2312942691
 20
320.7289285489
 30
0.0
 11
101.8113375122
 21
320.7289285489
 31
0.0
  0
LINE
  5
D5
330
1F
100
AcDbEntity
  8
0
  6
Continuous
 62
     7
100
AcDbLine
 10
117.5979714324
 20
321.9402025215
 30
0.0
 11
119.1729714324
 21
321.9402025215
 31
0.0
  0
LINE
  5
D6
330
1F
100
AcDbEntity
  8
RUNDUNGEN
  6
Continuous
 62
     9
100
AcDbLine
 10
138.8354714324
 20
322.7152025215
 30
0.0
 11
138.8354714324
 21
294.7152025215
 31
0.0
  0
LINE
  5
D7
330
1F
100
AcDbEntity
  8
RUNDUNGEN
  6
Continuous
 62
     7
100
AcDbLine
 10
153.5857490877
 20
322.7152025215
 30
0.0
 11
138.8354714324
 21
322.7152025215
 31
0.0
  0
LINE
  5
D8
330
1F
100
AcDbEntity
  8
0
  6
Continuous
 62
     7
100
AcDbLine
 10
138.8354714324
 20
322.7152025215
 30
0.0
 11
153.5857490877
 21
322.7152025215
 31
0.0
  0
LINE
  5
D9
330
1F
100
AcDbEntity
  8
BEZUGSACHSEN
  6
Continuous
 62
     7
100
AcDbLine
 10
116.3503117335
 20
324.7152025215
 30
0.0
 11
114.3854714324
 21
324.7152025215
 31
0.0
  0
LINE
  5
DA
330
1F
100
AcDbEntity
  8
BEZUGSACHSEN
  6
Continuous
 62
     7
100
AcDbLine
 10
104.3854714324
 20
324.7152025215
 30
0.0
 11
102.3854714324
 21
324.7152025215
 31
0.0
  0
LINE
  5
DB
330
1F
100
AcDbEntity
  8
0
  6
Continuous
 62
     7
100
AcDbLine
 10
102.3854714324
 20
324.7152025215
 30
0.0
 11
104.3854714324
 21
324.7152025215
 31
0.0
  0
LINE
  5
DC
330
1F
100
AcDbEntity
  8
0
  6
Continuous
 62
     7
100
AcDbLine
 10
114.3854714324
 20
324.7152025215
 30
0.0
 11
116.3503117335
 21
324.7152025215
 31
0.0
  0
LINE
  5
DD
330
1F
100
AcDbEntity
  8
0
  6
Continuous
 62
     7
100
AcDbLine
 10
120.4206311313
 20
324.7152025215
 30
0.0
 11
122.3354714324
 21
324.7152025215
 31
0.0
  0
LINE
  5
DE
330
1F
100
AcDbEntity
  8
BEZUGSACHSEN
  6
HIDDEN
 62
     8
100
AcDbLine
 10
141.8854714324
 20
304.7152025215
 30
0.0
 11
141.8854714324
 21
294.7152025215
 31
0.0
  0
LWPOLYLINE
  5
DF
330
1F
100
AcDbEntity
  8
BEZUGSACHSEN
  6
DOT_CENTER
 62
     7
100
AcDbPolyline
 90
        2
 70
     0
 43
0.25
 10
144.3854714324
 20
291.7152025215
 10
144.3854714324
 20
308.5927034039
  0
LINE
  5
E0
330
1F
100
AcDbEntity
  8
BEZUGSACHSEN
  6
HIDDEN
 62
     8
100
AcDbLine
 10
146.8854714324
 20
304.7152025215
 30
0.0
 11
146.8854714324
 21
294.7152025215
 31
0.0
  0
LINE
  5
E1
330
1F
100
AcDbEntity
  8
0
  6
Continuous
 62
     7
100
AcDbLine
 10
154.0083673495
 20
294.8088947344
 30
0.0
 11
161.8080896941
 21
298.4459649952
 31
0.0
  0
LINE
  5
E2
330
1F
100
AcDbEntity
  8
RUNDUNGEN
  6
Continuous
 62
     7
100
AcDbLine
 10
161.8080896941
 20
318.9844400477
 30
0.0
 11
154.0083673495
 21
322.6215103085
 31
0.0
  0
LINE
  5
E3
330
1F
100
AcDbEntity
  8
RUNDUNGEN
  6
Continuous
 62
     9
100
AcDbLine
 10
153.5857490877
 20
294.7152025215
 30
0.0
 11
153.5857490877
 21
322.7152025215
 31
0.0
  0
LINE
  5
E4
330
1F
100
AcDbEntity
  8
RUNDUNGEN
  6
Continuous
 62
     9
100
AcDbLine
 10
154.0083673495
 20
294.8088947344
 30
0.0
 11
154.0083673495
 21
322.6215103085
 31
0.0
  0
LINE
  5
E5
330
1F
100
AcDbEntity
  8
RUNDUNGEN
  6
Continuous
 62
     9
100
AcDbLine
 10
161.8080896941
 20
298.4459649952
 30
0.0
 11
161.8080896941
 21
318.9844400477
 31
0.0
  0
LINE
  5
E6
330
1F
100
AcDbEntity
  8
RUNDUNGEN
  6
Continuous
 62
     7
100
AcDbLine
 10
162.3854714324
 20
299.3522727823
 30
0.0
 11
162.3854714324
 21
318.0781322607
 31
0.0
  0
LINE
  5
E7
330
1F
100
AcDbEntity
  8
BEZUGSACHSEN
  6
HIDDEN
 62
     8
100
AcDbLine
 10
147.3854714324
 20
304.7152025215
 30
0.0
 11
147.3854714324
 21
294.7152025215
 31
0.0
  0
LINE
  5
E8
330
1F
100
AcDbEntity
  8
BEZUGSACHSEN
  6
HIDDEN
 62
     8
100
AcDbLine
 10
141.3854714324
 20
304.7152025215
 30
0.0
 11
141.3854714324
 21
294.7152025215
 31
0.0
  0
ARC
  5
E9
330
1F
100
AcDbEntity
  8
FASEN
  6
Continuous
 62
     7
100
AcDbCircle
 10
115.2544911553
 20
302.2030018545
 30
0.0
 40
7.891580868599843
100
AcDbArc
 50
231.4754833830034
 51
235.0904116744173
  0
ARC
  5
EA
330
1F
100
AcDbEntity
  8
FASEN
  6
Continuous
 62
     7
100
AcDbCircle
 10
113.8353864274
 20
295.8652025215
 30
0.0
 40
3.5
100
AcDbArc
 50
90.0
 51
177.3161918300962
  0
ARC
  5
EB
330
1F
100
AcDbEntity
  8
FASEN
  6
Continuous
 62
     7
100
AcDbCircle
 10
113.8353864274
 20
295.8652025215
 30
0.0
 40
3.099981417499976
100
AcDbArc
 50
90.0
 51
182.4726151194941
  0
ARC
  5
EC
330
1F
100
AcDbEntity
  8
RUNDUNGEN
  6
Continuous
 62
     7
100
AcDbCircle
 10
88.6854714324
 20
306.0902025215
 30
0.0
 40
0.8999999999999773
100
AcDbArc
 50
270.0
 51
352.9880362120789
  0
ARC
  5
ED
330
1F
100
AcDbEntity
  8
0
  6
Continuous
 62
     7
100
AcDbCircle
 10
87.0854714324
 20
297.9186982855
 30
0.0
 40
0.5999999999999943
100
AcDbArc
 50
179.999999952254
 51
267.131722929483
  0
ARC
  5
EE
330
1F
100
AcDbEntity
  8
0
  6
Continuous
 62
     7
100
AcDbCircle
 10
102.2312942691
 20
296.3014764941
 30
0.0
 40
0.3999999999998922
100
AcDbArc
 50
67.30156454046652
 51
90.0
  0
ARC
  5
EF
330
1F
100
AcDbEntity
  8
0
  6
Continuous
 62
     7
100
AcDbCircle
 10
117.5979714324
 20
295.2402025215
 30
0.0
 40
0.25
100
AcDbArc
 50
90.0
 51
180.0
  0
ARC
  5
F0
330
1F
100
AcDbEntity
  8
0
  6
Continuous
 62
     7
100
AcDbCircle
 10
34.7937964357
 20
334.0257155907
 30
0.0
 40
90.0994727660069
100
AcDbArc
 50
334.8479477141801
 51
336.3847181612001
  0
ARC
  5
F1
330
1F
100
AcDbEntity
  8
0
  6
Continuous
 62
     7
100
AcDbCircle
 10
113.8499714324
 20
308.7152025215
 30
0.0
 40
3.514499999999998
100
AcDbArc
 50
90.0
 51
270.0
  0
ARC
  5
F2
330
1F
100
AcDbEntity
  8
FASEN
  6
Continuous
 62
     7
100
AcDbCircle
 10
113.8499714324
 20
308.7152025215
 30
0.0
 40
3.114489022600026
100
AcDbArc
 50
90.0
 51
270.0
  0
ARC
  5
F3
330
1F
100
AcDbEntity
  8
RUNDUNGEN
  6
Continuous
 62
     7
100
AcDbCircle
 10
88.6854714324
 20
311.3402025215
 30
0.0
 40
0.9000000000000326
100
AcDbArc
 50
7.01196202159221
 51
90.0
  0
ARC
  5
F4
330
1F
100
AcDbEntity
  8
0
  6
Continuous
 62
     7
100
AcDbCircle
 10
87.0854714324
 20
319.5117067574
 30
0.0
 40
0.6000000000746083
100
AcDbArc
 50
92.86827707003917
 51
180.0
  0
ARC
  5
F5
330
1F
100
AcDbEntity
  8
0
  6
Continuous
 62
     7
100
AcDbCircle
 10
101.8113375122
 20
321.1289285489
 30
0.0
 40
0.400000000070845
100
AcDbArc
 50
255.0000000088001
 51
270.0
  0
ARC
  5
F6
330
1F
100
AcDbEntity
  8
0
  6
Continuous
 62
     7
100
AcDbCircle
 10
102.2312942691
 20
321.1289285489
 30
0.0
 40
0.3999999999999773
100
AcDbArc
 50
270.0
 51
292.6984354595366
  0
ARC
  5
F7
330
1F
100
AcDbEntity
  8
0
  6
Continuous
 62
     7
100
AcDbCircle
 10
117.5979714324
 20
322.1902025215
 30
0.0
 40
0.25
100
AcDbArc
 50
180.0
 51
270.0
  0
ARC
  5
F8
330
1F
100
AcDbEntity
  8
0
  6
Continuous
 62
     7
100
AcDbCircle
 10
147.35229357
 20
-223.0009285967
 30
0.0
 40
540.1736479691002
100
AcDbArc
 50
96.23504095310001
 51
96.40370831109296
  0
ARC
  5
F9
330
1F
100
AcDbEntity
  8
RUNDUNGEN
  6
Continuous
 62
     7
100
AcDbCircle
 10
123.3354714324
 20
295.7152025215
 30
0.0
 40
1.0
100
AcDbArc
 50
90.0
 51
173.5714285713848
  0
ARC
  5
FA
330
1F
100
AcDbEntity
  8
RUNDUNGEN
  6
Continuous
 62
     7
100
AcDbCircle
 10
136.8354714324
 20
295.7152025215
 30
0.0
 40
1.0
100
AcDbArc
 50
0.0
 51
90.0
  0
ARC
  5
FB
330
1F
100
AcDbEntity
  8
RUNDUNGEN
  6
Continuous
 62
     7
100
AcDbCircle
 10
161.3854714324
 20
299.3522727823
 30
0.0
 40
1.000000000040255
100
AcDbArc
 50
294.9999999963512
 51
0.0
  0
ARC
  5
FC
330
1F
100
AcDbEntity
  8
RUNDUNGEN
  6
Continuous
 62
     7
100
AcDbCircle
 10
138.8354714324
 20
295.7152025215
 30
0.0
 40
1.0
100
AcDbArc
 50
180.0
 51
270.0
  0
ARC
  5
FD
330
1F
100
AcDbEntity
  8
RUNDUNGEN
  6
Continuous
 62
     7
100
AcDbCircle
 10
153.5857490877
 20
295.7152025215
 30
0.0
 40
1.0
100
AcDbArc
 50
270.0
 51
295.0000000015447
  0
ARC
  5
FE
330
1F
100
AcDbEntity
  8
0
  6
Continuous
 62
     7
100
AcDbCircle
 10
119.1729714324
 20
295.2402025215
 30
0.0
 40
0.25
100
AcDbArc
 50
0.0
 51
90.0
  0
ARC
  5
FF
330
1F
100
AcDbEntity
  8
0
  6
Continuous
 62
     7
100
AcDbCircle
 10
147.35229357
 20
840.4313336396
 30
0.0
 40
540.1736479691231
100
AcDbArc
 50
263.5962916889071
 51
263.7649590469
  0
ARC
  5
100
330
1F
100
AcDbEntity
  8
0
  6
Continuous
 62
     7
100
AcDbCircle
 10
201.9771464291
 20
334.0257155907
 30
0.0
 40
90.09947276599951
100
AcDbArc
 50
203.6152818387999
 51
205.1520522858199
  0
ARC
  5
101
330
1F
100
AcDbEntity
  8
RUNDUNGEN
  6
Continuous
 62
     7
100
AcDbCircle
 10
136.8354714324
 20
321.7152025215
 30
0.0
 40
1.0
100
AcDbArc
 50
270.0
 51
0.0
  0
ARC
  5
102
330
1F
100
AcDbEntity
  8
RUNDUNGEN
  6
Continuous
 62
     7
100
AcDbCircle
 10
161.3854714324
 20
318.0781322607
 30
0.0
 40
1.0
100
AcDbArc
 50
0.0
 51
65.00000000122631
  0
ARC
  5
103
330
1F
100
AcDbEntity
  8
RUNDUNGEN
  6
Continuous
 62
     7
100
AcDbCircle
 10
138.8354714324
 20
321.7152025215
 30
0.0
 40
1.0
100
AcDbArc
 50
90.0
 51
180.0
  0
ARC
  5
104
330
1F
100
AcDbEntity
  8
RUNDUNGEN
  6
Continuous
 62
     7
100
AcDbCircle
 10
123.3354714324
 20
321.7152025215
 30
0.0
 40
0.9999999999998482
100
AcDbArc
 50
187.0119650039103
 51
270.0
  0
ARC
  5
105
330
1F
100
AcDbEntity
  8
RUNDUNGEN
  6
Continuous
 62
     7
100
AcDbCircle
 10
153.5857490877
 20
321.7152025215
 30
0.0
 40
0.9999999999918406
100
AcDbArc
 50
64.99999999603419
 51
90.0
  0
ARC
  5
106
330
1F
100
AcDbEntity
  8
0
  6
Continuous
 62
     7
100
AcDbCircle
 10
119.1729714324
 20
322.1902025215
 30
0.0
 40
0.25
100
AcDbArc
 50
270.0
 51
0.0
  0
CIRCLE
  5
107
330
1F
100
AcDbEntity
  8
FASEN
  6
Continuous
 62
     7
100
AcDbCircle
 10
97.3854714324
 20
308.7152025215
 30
0.0
 40
2.0
  0
SPLINE
  5
108
330
1F
100
AcDbEntity
  8
0
  6
Continuous
 62
     2
100
AcDbSpline
210
0.0
220
0.0
230
1.0
 70
     8
 71
     3
 72
    97
 73
    93
 74
    91
 42
0.0000000001
 43
0.0000000001
 44
0.00000001
 40
0.0
 40
0.0
 40
0.0
 40
0.0
 40
0.0015945816192517
 40
0.0056146409346745
 40
0.0120651816665544
 40
0.0209512157289565
 40
0.0322777632002965
 40
0.0460498522902946
 40
0.0627279805945659
 40
0.0819557071122668
 40
0.1037009211312517
 40
0.1279315399434662
 40
0.1546155101714875
 40
0.1837208088522978
 40
0.2152197425944499
 40
0.2491018610421077
 40
0.2853610929254175
 40
0.3239914560394179
 40
0.3649870614581899
 40
0.4083421167244037
 40
0.4540373193683006
 40
0.5019990420923253
 40
0.552140178094923
 40
0.6043737597507275
 40
0.6586129676550396
 40
0.7147711402772178
 40
0.7845949386811388
 40
0.857044887137869
 40
0.9321088062571005
 40
1.009774969922829
 40
1.09003211767543
 40
1.17283359393852
 40
1.257989702778432
 40
1.34527529475404
 40
1.434465683337951
 40
1.525336701754035
 40
1.641009472115339
 40
1.758891117909592
 40
1.878914876270979
 40
2.001015021990373
 40
2.125080793007138
 40
2.250817851357306
 40
2.377886420110421
 40
2.505947538779361
 40
2.677723725435325
 40
2.850275662829613
 40
3.023215753485903
 40
3.196156723792103
 40
3.368710301010735
 40
3.540487389930156
 40
3.668547963689714
 40
3.795615077746056
 40
3.921350118125614
 40
4.045413653756197
 40
4.167511683794792
 40
4.28753375144753
 40
4.405414429690001
 40
4.521087254634619
 40
4.611959138041717
 40
4.701150695199703
 40
4.788437216602554
 40
4.873593472700101
 40
4.956393770859973
 40
5.036648115575433
 40
5.114310526596153
 40
5.18937066280057
 40
5.261817717589972
 40
5.331640431114407
 40
5.387799558705097
 40
5.44204103210106
 40
5.494277605642172
 40
5.544421875795535
 40
5.592386290850128
 40
5.638083159994291
 40
5.681438438506796
 40
5.722433072500605
 40
5.761061684561292
 40
5.797318800753632
 40
5.831198853798753
 40
5.862696187282994
 40
5.891800652556165
 40
5.918484405578466
 40
5.942715159712805
 40
5.964460597974565
 40
5.983688374112102
 40
6.000366113924493
 40
6.014132762527261
 40
6.025455196985956
 40
6.034338691896618
 40
6.040788513667826
 40
6.04480992048579
 40
6.046408162283219
 40
6.046408162283219
 40
6.046408162283219
 40
6.046408162283219
 10
147.3854417462
 20
294.7151587687
 30
0.0
 10
147.384922382023
 20
294.7152718264247
 30
0.0
 10
147.3830936619797
 20
294.7156699111147
 30
0.0
 10
147.3791628473351
 20
294.7165202032852
 30
0.0
 10
147.3728553110316
 20
294.7178788883116
 30
0.0
 10
147.3641648644812
 20
294.7197410153405
 30
0.0
 10
147.353085632213
 20
294.7221030704758
 30
0.0
 10
147.3394630873529
 20
294.7249924217417
 30
0.0
 10
147.3232604565939
 20
294.728410869687
 30
0.0
 10
147.3044521372229
 20
294.7323531202502
 30
0.0
 10
147.2831733379425
 20
294.7367805821822
 30
0.0
 10
147.2594534650354
 20
294.7416768427906
 30
0.0
 10
147.2333219265025
 20
294.7470254971302
 30
0.0
 10
147.2048067340913
 20
294.75281046112
 30
0.0
 10
147.1739288155713
 20
294.7590168101333
 30
0.0
 10
147.140699091684
 20
294.7656234852841
 30
0.0
 10
147.105121531004
 20
294.7726111198225
 30
0.0
 10
147.0671986778917
 20
294.7799605318377
 30
0.0
 10
147.0269330803933
 20
294.7876525550147
 30
0.0
 10
146.984331741791
 20
294.795667167025
 30
0.0
 10
146.9394239753227
 20
294.8039802845014
 30
0.0
 10
146.8922653976281
 20
294.8125604147104
 30
0.0
 10
146.8429339075101
 20
294.8213717962642
 30
0.0
 10
146.791511864931
 20
294.8303778450634
 30
0.0
 10
146.7380816246219
 20
294.8395419647271
 30
0.0
 10
146.6788355133643
 20
294.8494801252907
 30
0.0
 10
146.6135571419211
 20
294.8601474913993
 30
0.0
 10
146.5420035397302
 20
294.8714846718888
 30
0.0
 10
146.4678092832588
 20
294.8828542852601
 30
0.0
 10
146.3909814396751
 20
294.8942116975454
 30
0.0
 10
146.3115388962359
 20
294.9055105020556
 30
0.0
 10
146.2295598981312
 20
294.9166968995548
 30
0.0
 10
146.1451947124415
 20
294.9277143369188
 30
0.0
 10
146.0586526581417
 20
294.9384971425596
 30
0.0
 10
145.9701549033838
 20
294.9489781483711
 30
0.0
 10
145.872189457851
 20
294.9599568679084
 30
0.0
 10
145.7646334177203
 20
294.9712096597769
 30
0.0
 10
145.6473141993728
 20
294.9824951997194
 30
0.0
 10
145.5277686222955
 20
294.9929668971222
 30
0.0
 10
145.4060811953551
 20
295.0025579375322
 30
0.0
 10
145.2824133082319
 20
295.0111975789141
 30
0.0
 10
145.1570200491888
 20
295.01883246996
 30
0.0
 10
145.0302327581394
 20
295.0254018380006
 30
0.0
 10
144.8880576258411
 20
295.0314546373196
 30
0.0
 10
144.7306682550959
 20
295.036412963554
 30
0.0
 10
144.5582719529775
 20
295.0396772659956
 30
0.0
 10
144.3854598036745
 20
295.0407741529942
 30
0.0
 10
144.2126471101628
 20
295.0396769049672
 30
0.0
 10
144.0402496736037
 20
295.036412279969
 30
0.0
 10
143.8828596448458
 20
295.031453697861
 30
0.0
 10
143.7406848879845
 20
295.0254006775206
 30
0.0
 10
143.613898946162
 20
295.0188311503163
 30
0.0
 10
143.4885076002203
 20
295.0111961467643
 30
0.0
 10
143.3648418453516
 20
295.0025564495197
 30
0.0
 10
143.2431564377386
 20
294.9929654218519
 30
0.0
 10
143.1236124566435
 20
294.982493741061
 30
0.0
 10
143.0062941143931
 20
294.9712081570817
 30
0.0
 10
142.8987381050479
 20
294.9599552235983
 30
0.0
 10
142.8007719859267
 20
294.948976264432
 30
0.0
 10
142.7122732672026
 20
294.9384950004851
 30
0.0
 10
142.6257304845971
 20
294.9277119874249
 30
0.0
 10
142.541365342621
 20
294.9166944769516
 30
0.0
 10
142.4593876160659
 20
294.9055082138045
 30
0.0
 10
142.3799476261968
 20
294.894209763223
 30
0.0
 10
142.3031231941232
 20
294.8828528388054
 30
0.0
 10
142.228932380275
 20
294.871483710482
 30
0.0
 10
142.157381344591
 20
294.8601468637381
 30
0.0
 10
142.0921039820344
 20
294.8494795730564
 30
0.0
 10
142.0328571820491
 20
294.8395412153544
 30
0.0
 10
141.9794249107395
 20
294.8303766875532
 30
0.0
 10
141.9280001192903
 20
294.8213701199534
 30
0.0
 10
141.8786657381436
 20
294.8125582069073
 30
0.0
 10
141.8315047030066
 20
294.8039776303265
 30
0.0
 10
141.7865954337885
 20
294.7956642396882
 30
0.0
 10
141.7439937959103
 20
294.7876495627305
 30
0.0
 10
141.7037290213682
 20
294.7799576713157
 30
0.0
 10
141.6658077590025
 20
294.7726085274741
 30
0.0
 10
141.6302321479279
 20
294.7656212266864
 30
0.0
 10
141.5970043235395
 20
294.7590148801801
 30
0.0
 10
141.5661278824648
 20
294.7528087911273
 30
0.0
 10
141.5376135579094
 20
294.7470239936612
 30
0.0
 10
141.5114823166408
 20
294.7416754085282
 30
0.0
 10
141.4877623944628
 20
294.7367791518822
 30
0.0
 10
141.4664834602926
 20
294.7323516686415
 30
0.0
 10
141.4476751813768
 20
294.728409411258
 30
0.0
 10
141.4314744459656
 20
294.7249913116468
 30
0.0
 10
141.4178551637052
 20
294.7221025501966
 30
0.0
 10
141.4067799003525
 20
294.7197412105706
 30
0.0
 10
141.3980918849354
 20
294.7178794646699
 30
0.0
 10
141.391784998167
 20
294.7165207886464
 30
0.0
 10
141.3878528062884
 20
294.7156701016123
 30
0.0
 10
141.3860224670514
 20
294.7152716074995
 30
0.0
 10
141.3855019141
 20
294.7151582748
 30
0.0
 11
147.3854417462
 21
294.7151587687
 31
0.0
 11
147.3838836117309
 21
294.7154977488127
 31
0.0
 11
147.3799545997926
 21
294.7163484791388
 31
0.0
 11
147.3736487328386
 21
294.7177069774613
 31
0.0
 11
147.3649600333224
 21
294.7195692615629
 31
0.0
 11
147.3538825236974
 21
294.721931349226
 31
0.0
 11
147.3404102264171
 21
294.7247892582335
 31
0.0
 11
147.3240913143945
 21
294.7282320876123
 31
0.0
 11
147.3052725496807
 21
294.732176648638
 31
0.0
 11
147.2839833350835
 21
294.7366065103253
 31
0.0
 11
147.2602530734109
 21
294.7415052416887
 31
0.0
 11
147.2341111674708
 21
294.7468564117429
 31
0.0
 11
147.2055870200711
 21
294.7526435895024
 31
0.0
 11
147.1747055569256
 21
294.7588498815424
 31
0.0
 11
147.1414737957087
 21
294.7654565446126
 31
0.0
 11
147.1058942770092
 21
294.7724443730222
 31
0.0
 11
147.0679695414158
 21
294.7797941610796
 31
0.0
 11
147.0277021295173
 21
294.7874867030942
 31
0.0
 11
146.9850945819024
 21
294.7955027933745
 31
0.0
 11
146.9401627424315
 21
294.8038203258467
 31
0.0
 11
146.8929756675632
 21
294.8124055929963
 31
0.0
 11
146.8436157170193
 21
294.8212219869266
 31
0.0
 11
146.7921652505215
 21
294.8302328997415
 31
0.0
 11
146.7387066277918
 21
294.8394017235444
 31
0.0
 11
146.6833222085518
 21
294.8486918504387
 31
0.0
 11
146.6144122736999
 21
294.8599516773584
 31
0.0
 11
146.5428548510668
 21
294.8712887976934
 31
0.0
 11
146.4686570018559
 21
294.8826585437774
 31
0.0
 11
146.3918257872709
 21
294.8940162479444
 31
0.0
 11
146.3123682685153
 21
294.905317242528
 31
0.0
 11
146.2303271984985
 21
294.9165131034527
 31
0.0
 11
146.1458880960643
 21
294.9275403811247
 31
0.0
 11
146.059272171753
 21
294.9383318695409
 31
0.0
 11
145.970700636105
 21
294.9488203626977
 31
0.0
 11
145.8803946996605
 21
294.958938654592
 31
0.0
 11
145.7653498044222
 21
294.9709745127949
 31
0.0
 11
145.6480097585186
 21
294.9822614983308
 31
0.0
 11
145.5284437710677
 21
294.9927341873878
 31
0.0
 11
145.4067210511878
 21
295.0023271561545
 31
0.0
 11
145.2829570829577
 21
295.0109756072245
 31
0.0
 11
145.1574524489597
 21
295.0186172489052
 31
0.0
 11
145.0305540067291
 21
295.0251904159057
 31
0.0
 11
144.9026086138011
 21
295.0306334429353
 31
0.0
 11
144.7309177257181
 21
295.0360461364716
 31
0.0
 11
144.558396722054
 21
295.0393133054691
 31
0.0
 11
144.3854600972939
 21
295.040408190299
 31
0.0
 11
144.2125225950913
 21
295.0393129540732
 31
0.0
 11
144.039999957638
 21
295.0360454508843
 31
0.0
 11
143.8683081762941
 21
295.0306324575736
 31
0.0
 11
143.7403633369098
 21
295.0251892391727
 31
0.0
 11
143.6134663592007
 21
295.0186159201552
 31
0.0
 11
143.4879637531427
 21
295.0109741761206
 31
0.0
 11
143.3642020287115
 21
295.0023256826682
 31
0.0
 11
143.2424814298547
 21
294.9927327293561
 31
0.0
 11
143.1229171377126
 21
294.9822600616826
 31
0.0
 11
143.0055780673895
 21
294.9709730391077
 31
0.0
 11
142.8905331339896
 21
294.958937021092
 31
0.0
 11
142.8002263540372
 21
294.9488184891535
 31
0.0
 11
142.7116536743421
 21
294.9383297199267
 31
0.0
 11
142.6250368418694
 21
294.9275380031496
 31
0.0
 11
142.540597603584
 21
294.9165106285596
 31
0.0
 11
142.4585577064513
 21
294.9053148858948
 31
0.0
 11
142.3791029651155
 21
294.8940142697624
 31
0.0
 11
142.3022754657896
 21
294.8826570943708
 31
0.0
 11
142.2280813623562
 21
294.871287878798
 31
0.0
 11
142.1565268086981
 21
294.8599511421224
 31
0.0
 11
142.0876179586982
 21
294.8486914034221
 31
0.0
 11
142.0322326095134
 21
294.8394010478086
 31
0.0
 11
141.9787717635365
 21
294.8302317848285
 31
0.0
 11
141.9273183562453
 21
294.8212203202725
 31
0.0
 11
141.8779553231177
 21
294.8124033599315
 31
0.0
 11
141.8307655996314
 21
294.8038176095963
 31
0.0
 11
141.7858321212643
 21
294.7954997750577
 31
0.0
 11
141.7432243561108
 21
294.7874836336216
 31
0.0
 11
141.7029579031867
 21
294.7797912487381
 31
0.0
 11
141.6650348941158
 21
294.7724417553717
 31
0.0
 11
141.6294574605221
 21
294.7654542884864
 31
0.0
 11
141.5962277340295
 21
294.7588479830464
 31
0.0
 11
141.5653478462621
 21
294.7526419740159
 31
0.0
 11
141.5368245175895
 21
294.746854952306
 31
0.0
 11
141.5106828230623
 21
294.7415038325537
 31
0.0
 11
141.4869524264853
 21
294.7366050853447
 31
0.0
 11
141.4656629916634
 21
294.7321751812644
 31
0.0
 11
141.4468441824014
 21
294.7282305908984
 31
0.0
 11
141.4305256625041
 21
294.724787784832
 31
0.0
 11
141.4170587082443
 21
294.7219309059902
 31
0.0
 11
141.4059852481718
 21
294.7195695495804
 31
0.0
 11
141.3972990605038
 21
294.7177076619295
 31
0.0
 11
141.3909939234577
 21
294.7163491893645
 31
0.0
 11
141.3870636152507
 21
294.7154980782123
 31
0.0
 11
141.3855019141
 21
294.7151582748
 31
0.0
  0
SPLINE
  5
109
330
1F
100
AcDbEntity
  8
BEZUGSACHSEN
  6
Continuous
 62
     7
100
AcDbSpline
210
0.0
220
0.0
230
1.0
 70
     8
 71
     3
 72
    15
 73
    11
 74
     9
 42
0.0000000001
 43
0.0000000001
 44
0.00000001
 40
0.0
 40
0.0
 40
0.0
 40
0.0
 40
0.9628201223049734
 40
1.926005549752813
 40
2.746145156440172
 40
3.566131340632014
 40
4.124321693033978
 40
4.682477186114824
 40
4.88274511513548
 40
5.083000347109552
 40
5.083000347109552
 40
5.083000347109552
 40
5.083000347109552
 10
109.3854714324
 20
323.913886675
 30
0.0
 10
109.0644817420701
 20
323.9198191783985
 30
0.0
 10
108.4223805741917
 20
323.9316864360563
 30
0.0
 10
107.5104703604004
 20
324.0212816007754
 30
0.0
 10
106.652170853217
 20
324.1507454875392
 30
0.0
 10
105.9336705050784
 20
324.2963339578941
 30
0.0
 10
105.3064138654457
 20
324.4488273670431
 30
0.0
 10
104.8832383324668
 20
324.5654109975112
 30
0.0
 10
104.5767858877031
 20
324.6560128543723
 30
0.0
 10
104.4492415697336
 20
324.6954730494352
 30
0.0
 10
104.3854714324
 20
324.7152025215
 30
0.0
 11
109.3854714324
 21
323.913886675
 31
0.0
 11
108.4231356345578
 21
323.944421902308
 31
0.0
 11
107.4642041974376
 21
324.0348468244838
 31
0.0
 11
106.6532907540664
 21
324.1575185890314
 31
0.0
 11
105.8495199565318
 21
324.3197833334957
 31
0.0
 11
105.3071083126514
 21
324.4515637497097
 31
0.0
 11
104.7689281209606
 21
324.599549004813
 31
0.0
 11
104.5769036936663
 21
324.656416066602
 31
0.0
 11
104.3854714324
 21
324.7152025215
 31
0.0
  0
SPLINE
  5
10A
330
1F
100
AcDbEntity
  8
BEZUGSACHSEN
  6
Continuous
 62
     7
100
AcDbSpline
210
0.0
220
0.0
230
1.0
 70
     8
 71
     3
 72
    15
 73
    11
 74
     9
 42
0.0000000001
 43
0.0000000001
 44
0.00000001
 40
0.0
 40
0.0
 40
0.0
 40
0.0
 40
0.3703470275612508
 40
0.7408237505087535
 40
1.626881719716828
 40
2.513041029870691
 40
3.399219282606698
 40
4.285296206881601
 40
4.655786127397747
 40
5.02614633798548
 40
5.02614633798548
 40
5.02614633798548
 40
5.02614633798548
 10
141.8854714324
 20
294.7152025215
 30
0.0
 10
142.0071505296407
 20
294.7360751071288
 30
0.0
 10
142.2505513360949
 20
294.777827587958
 30
0.0
 10
142.7877645397575
 20
294.8523955481018
 30
0.0
 10
143.4991634886256
 20
294.9210693229554
 30
0.0
 10
144.3854455718467
 20
294.9497941259404
 30
0.0
 10
145.2717341190481
 20
294.9210725973753
 30
0.0
 10
145.9831502247517
 20
294.8523989861226
 30
0.0
 10
146.5203785121181
 20
294.7778297232218
 30
0.0
 10
146.7637879978903
 20
294.7360758186139
 30
0.0
 10
146.8854714324
 20
294.7152025215
 30
0.0
 11
141.8854714324
 21
294.7152025215
 31
0.0
 11
142.2508153350674
 21
294.7758717361582
 31
0.0
 11
142.6177110046202
 21
294.8272582120957
 31
0.0
 11
143.4997404764658
 21
294.9116545129204
 31
0.0
 11
144.3854392806747
 21
294.9402193723708
 31
0.0
 11
145.2711571297426
 21
294.9116573790121
 31
0.0
 11
146.1532056858222
 21
294.8272615233645
 31
0.0
 11
146.5201144970747
 21
294.7758737288086
 31
0.0
 11
146.8854714324
 21
294.7152025215
 31
0.0
  0
SPLINE
  5
10B
330
1F
100
AcDbEntity
  8
BEZUGSACHSEN
  6
Continuous
 62
     7
100
AcDbSpline
210
0.0
220
0.0
230
1.0
 70
     8
 71
     3
 72
    15
 73
    11
 74
     9
 42
0.0000000001
 43
0.0000000001
 44
0.00000001
 40
0.0
 40
0.0
 40
0.0
 40
0.0
 40
0.2002489395075941
 40
0.4005105765120651
 40
0.9586560729351424
 40
1.516836421019632
 40
2.336828142728272
 40
3.156973315717654
 40
4.120169472729108
 40
5.083000289857452
 40
5.083000289857452
 40
5.083000289857452
 40
5.083000289857452
 10
114.3854714324
 20
324.7152025215
 30
0.0
 10
114.321703295447
 20
324.6954736806272
 30
0.0
 10
114.1941629780953
 20
324.6560147479042
 30
0.0
 10
113.8877177911909
 20
324.5654148936504
 30
0.0
 10
113.4645508332659
 20
324.448833152502
 30
0.0
 10
112.8372991286232
 20
324.2963398676538
 30
0.0
 10
112.1187986159582
 20
324.1507503165091
 30
0.0
 10
111.2604920658446
 20
324.0212843552453
 30
0.0
 10
110.3485730015404
 20
323.9316870151516
 30
0.0
 10
109.7064646891799
 20
323.9198193713429
 30
0.0
 10
109.3854714324
 20
323.913886675
 30
0.0
 11
114.3854714324
 21
324.7152025215
 31
0.0
 11
114.1940451819442
 21
324.6564179281921
 31
0.0
 11
114.0020268103397
 21
324.5995525765089
 31
0.0
 11
113.4638564058952
 21
324.4515694323425
 31
0.0
 11
112.9214546903063
 21
324.3197905269215
 31
0.0
 11
112.117678704764
 21
324.1575234978116
 31
0.0
 11
111.306759911497
 21
324.0348498840875
 31
0.0
 11
110.3478179024128
 21
323.9444227858523
 31
0.0
 11
109.3854714324
 21
323.913886675
 31
0.0
  0
SPLINE
  5
10C
330
1F
100
AcDbEntity
  8
FASEN
  6
Continuous
 62
     7
100
AcDbSpline
210
0.0
220
0.0
230
1.0
 70
     8
 71
     3
 72
    39
 73
    35
 74
    33
 42
0.0000000001
 43
0.0000000001
 44
0.00000001
 40
0.0
 40
0.0
 40
0.0
 40
0.0
 40
0.2553577284464054
 40
0.5109896322773497
 40
0.7663075576323296
 40
1.021546002043469
 40
1.276529593091407
 40
1.531532755285387
 40
1.786374926127484
 40
2.041212220248114
 40
2.296179460863554
 40
2.551148967926251
 40
2.806438834125458
 40
3.061729585063537
 40
3.317263360094675
 40
3.572798987466868
 40
3.828233599963073
 40
4.083666629280896
 40
4.338551083498083
 40
4.593435980587445
 40
4.84747966396383
 40
5.101516738151497
 40
5.35476494453708
 40
5.608016841133054
 40
5.860907654946177
 40
6.113791644669776
 40
6.366940163554082
 40
6.62009829968441
 40
6.874044587819647
 40
7.127973589538382
 40
7.382778237817192
 40
7.63765553616472
 40
7.893216235422265
 40
8.148518090364423
 40
8.148518090364423
 40
8.148518090364423
 40
8.148518090364423
 10
94.7862231029
 20
308.7152025215
 30
0.0
 10
94.78863266173894
 20
308.8003574909652
 30
0.0
 10
94.79345436653932
 20
308.9707588600501
 30
0.0
 10
94.83270288985665
 20
309.2238021588684
 30
0.0
 10
94.89481622723648
 20
309.4718580351594
 30
0.0
 10
94.98148385373325
 20
309.7123522603036
 30
0.0
 10
95.09142146252958
 20
309.9429700794608
 30
0.0
 10
95.22359210224539
 20
310.1614728173494
 30
0.0
 10
95.37682307838647
 20
310.3656910011262
 30
0.0
 10
95.549489186138
 20
310.5537469532957
 30
0.0
 10
95.73999074214507
 20
310.7237711791023
 30
0.0
 10
95.9464033215938
 20
310.8743303082549
 30
0.0
 10
96.16672155923892
 20
311.0038983234751
 30
0.0
 10
96.39878198128075
 20
311.1114600366039
 30
0.0
 10
96.64028810648878
 20
311.1959396145562
 30
0.0
 10
96.88886318201902
 20
311.2567246878116
 30
0.0
 10
97.1421084212966
 20
311.2932343082481
 30
0.0
 10
97.39747255374292
 20
311.3052433127539
 30
0.0
 10
97.65262148480107
 20
311.2925942238729
 30
0.0
 10
97.90491431587547
 20
311.2555204414314
 30
0.0
 10
98.1521549614842
 20
311.1942454444429
 30
0.0
 10
98.39177329236166
 20
311.1094411322716
 30
0.0
 10
98.62167027900601
 20
311.0016331338024
 30
0.0
 10
98.83957863171543
 20
310.8720237639935
 30
0.0
 10
99.04353164594886
 20
310.7216075475482
 30
0.0
 10
99.23164083377088
 20
310.5518384732035
 30
0.0
 10
99.40197667799114
 20
310.3641192650276
 30
0.0
 10
99.5531420665518
 20
310.1602097857992
 30
0.0
 10
99.6834984877589
 20
309.9420997338771
 30
0.0
 10
99.7919957411092
 20
309.7117472645448
 30
0.0
 10
99.87753041246248
 20
309.4715399779557
 30
0.0
 10
99.93884557996823
 20
309.2236144737363
 30
0.0
 10
99.97750902272412
 20
308.9706906294446
 30
0.0
 10
99.98231699421052
 20
308.8003364524104
 30
0.0
 10
99.9847197619
 20
308.7152025215
 30
0.0
 11
94.7862231029
 21
308.7152025215
 31
0.0
 11
94.79878355753928
 21
308.970251153052
 31
0.0
 11
94.83653665576355
 21
309.2230798971273
 31
0.0
 11
94.8989266673607
 21
309.470657621207
 31
0.0
 11
94.98540140479767
 21
309.7108008769745
 31
0.0
 11
95.09513409379483
 21
309.94096466359
 31
0.0
 11
95.22713680527465
 21
310.159143253032
 31
0.0
 11
95.38006396555234
 21
310.3630005945454
 31
0.0
 11
95.55242585153762
 21
310.5507062863459
 31
0.0
 11
95.74262209629049
 21
310.7205111221692
 31
0.0
 11
95.94861659858037
 21
310.8707632920641
 31
0.0
 11
96.16865065015162
 21
311.0002157232238
 31
0.0
 11
96.40026850772873
 21
311.107577427597
 31
0.0
 11
96.64145826956448
 21
311.1919871957952
 31
0.0
 11
96.88968010996905
 21
311.2526862468806
 31
0.0
 11
97.14249823635028
 21
311.2891531666048
 31
0.0
 11
97.39765016645534
 21
311.301133359848
 31
0.0
 11
97.65222209259575
 21
311.2885151419567
 31
0.0
 11
97.90439371464782
 21
311.2514235823254
 31
0.0
 11
98.15097385227651
 21
311.1902972476532
 31
0.0
 11
98.39043716083037
 21
311.1054906505144
 31
0.0
 11
98.61972791729802
 21
310.997971335803
 31
0.0
 11
98.83736990839785
 21
310.8684781435512
 31
0.0
 11
99.04089830736935
 21
310.7183783283509
 31
0.0
 11
99.22860566238177
 21
310.5489195984702
 31
0.0
 11
99.39874321722966
 21
310.3614699117708
 31
0.0
 11
99.54950390503404
 21
310.1580976990629
 31
0.0
 11
99.67981519330584
 21
309.940135121067
 31
0.0
 11
99.78803780604794
 21
309.71042268343
 31
0.0
 11
99.87346021210097
 21
309.470363479631
 31
0.0
 11
99.93501942335763
 21
309.223031919327
 31
0.0
 11
99.97227019803003
 21
308.9702006499173
 31
0.0
 11
99.9847197619
 21
308.7152025215
 31
0.0
  0
SPLINE
  5
10D
330
1F
100
AcDbEntity
  8
0
  6
Continuous
 62
     7
100
AcDbSpline
210
0.0
220
0.0
230
1.0
 70
     8
 71
     3
 72
    25
 73
    21
 74
    19
 42
0.0000000001
 43
0.0000000001
 44
0.00000001
 40
0.0
 40
0.0
 40
0.0
 40
0.0
 40
0.0515355899041978
 40
0.1032261446282502
 40
0.1471729977228405
 40
0.190682540395744
 40
0.2104686839916196
 40
0.2302602713950193
 40
0.2498850528605724
 40
0.2695082949865757
 40
0.3114337746327206
 40
0.3537000626711362
 40
0.4018001485526476
 40
0.4498049387223921
 40
0.5032236943166207
 40
0.5566554562409389
 40
0.6141450524371879
 40
0.6716326392571869
 40
0.7320826683016347
 40
0.7925231052401185
 40
0.7925231052401185
 40
0.7925231052401185
 40
0.7925231052401185
 10
86.4854714324
 20
313.8574857353
 30
0.0
 10
86.48589238843323
 20
313.8746775077948
 30
0.0
 10
86.48673556629247
 20
313.909112747544
 30
0.0
 10
86.49591140775132
 20
313.9575889834555
 30
0.0
 10
86.51211093305227
 20
314.0012836349973
 30
0.0
 10
86.53198432356648
 20
314.0315900543073
 30
0.0
 10
86.55199727613184
 20
314.0508602940452
 30
0.0
 10
86.5680797354326
 20
314.0624243195092
 30
0.0
 10
86.5856721755694
 20
314.0714028115385
 30
0.0
 10
86.61131930705454
 20
314.0802671929733
 30
0.0
 10
86.64605118360582
 20
314.0846318607096
 30
0.0
 10
86.69019329046037
 20
314.0809576257595
 30
0.0
 10
86.73514694247388
 20
314.0698571656555
 30
0.0
 10
86.7816445518626
 20
314.0516587809161
 30
0.0
 10
86.82782958143198
 20
314.0284626265187
 30
0.0
 10
86.8747052337248
 20
314.0000302868101
 30
0.0
 10
86.92076504400166
 20
313.9678768004974
 30
0.0
 10
86.96673933947676
 20
313.9317065009717
 30
0.0
 10
87.0118037174012
 20
313.8928734934588
 30
0.0
 10
87.04090030822758
 20
313.864986774325
 30
0.0
 10
87.0554474493
 20
313.8510445211
 30
0.0
 11
86.4854714324
 21
313.8574857353
 31
0.0
 11
86.48812827953768
 21
313.9089527945715
 31
0.0
 11
86.49790489437773
 21
313.9597103678976
 31
0.0
 11
86.51368321425915
 21
314.0007270781342
 31
0.0
 11
86.53804210768703
 21
314.0367787717778
 31
0.0
 11
86.55230048115847
 21
314.0504970174509
 31
0.0
 11
86.56838666035843
 21
314.0620270552085
 31
0.0
 11
86.58584904417293
 21
314.0709823440976
 31
0.0
 11
86.60438918989978
 21
314.0774115452892
 31
0.0
 11
86.64591872296937
 21
314.0831599125862
 31
0.0
 11
86.68807285086822
 21
314.080082802638
 31
0.0
 11
86.73484313830527
 21
314.0688507736643
 31
0.0
 11
86.77967182870842
 21
314.0516796235578
 31
0.0
 11
86.82747823595003
 21
314.0278445469713
 31
0.0
 11
86.87324573201572
 21
314.0002711995827
 31
0.0
 11
86.92043705504784
 21
313.9674377912722
 31
0.0
 11
86.96569854613857
 21
313.9319945964016
 31
0.0
 11
87.0114449677281
 21
313.8924791446995
 31
0.0
 11
87.0554474493
 21
313.8510445211
 31
0.0
  0
SPLINE
  5
10E
330
1F
100
AcDbEntity
  8
FASEN
  6
Continuous
 62
     7
100
AcDbSpline
210
0.0
220
0.0
230
1.0
 70
     8
 71
     3
 72
    39
 73
    35
 74
    33
 42
0.0000000001
 43
0.0000000001
 44
0.00000001
 40
0.0
 40
0.0
 40
0.0
 40
0.0
 40
0.2552997431370008
 40
0.5108651139538327
 40
0.7657436255046215
 40
1.020544604182424
 40
1.274474439960617
 40
1.528422259899646
 40
1.78158015625407
 40
2.034730868746515
 40
2.287617452031348
 40
2.540506722669026
 40
2.793756932993151
 40
3.047007599941051
 40
3.301045674682499
 40
3.555087452361235
 40
3.80997190502765
 40
4.064857118386876
 40
4.320289560588489
 40
4.575724060044664
 40
4.83126071244022
 40
5.086793620527534
 40
5.34208270440898
 40
5.597373532510288
 40
5.852343573193876
 40
6.107309239556594
 40
6.36214568669573
 40
6.616987169797281
 40
6.871987285973581
 40
7.126970727523702
 40
7.382214249661601
 40
7.63753030247562
 40
7.893156983666823
 40
8.148517859245901
 40
8.148517859245901
 40
8.148517859245901
 40
8.148517859245901
 10
99.9847197619
 20
308.7152025215
 30
0.0
 10
99.98233660630565
 20
308.6300680512848
 30
0.0
 10
99.97756781555279
 20
308.4597105323408
 30
0.0
 10
99.93884190735189
 20
308.2067928181883
 30
0.0
 10
99.87752984110249
 20
307.958868342454
 30
0.0
 10
99.79201036392068
 20
307.7186556850135
 30
0.0
 10
99.6835160150892
 20
307.4883019215
 30
0.0
 10
99.55315138329118
 20
307.2701953868651
 30
0.0
 10
99.40196777753447
 20
307.0662977568797
 30
0.0
 10
99.23162463477081
 20
306.8785846043696
 30
0.0
 10
99.04353553415478
 20
306.7087930299522
 30
0.0
 10
98.83959783339937
 20
306.5583544654814
 30
0.0
 10
98.62167868740721
 20
306.4287613996115
 30
0.0
 10
98.39177073400455
 20
306.3209770864349
 30
0.0
 10
98.15215501145867
 20
306.2361665230262
 30
0.0
 10
97.90491805499897
 20
306.1748772869274
 30
0.0
 10
97.65262515561943
 20
306.1378045103527
 30
0.0
 10
97.39747593456937
 20
306.1251626661293
 30
0.0
 10
97.14211214654081
 20
306.1371770811383
 30
0.0
 10
96.88886705782392
 20
306.1736861068517
 30
0.0
 10
96.64028930373638
 20
306.2344594116573
 30
0.0
 10
96.39878106463478
 20
306.318933436407
 30
0.0
 10
96.16672855822983
 20
306.4265122930856
 30
0.0
 10
95.94641894044956
 20
306.5560932891512
 30
0.0
 10
95.73999754496143
 20
306.7066389058465
 30
0.0
 10
95.54948183654784
 20
306.8766469330395
 30
0.0
 10
95.37681464811448
 20
307.0647013055016
 30
0.0
 10
95.22359245514318
 20
307.2689245527877
 30
0.0
 10
95.09143682721256
 20
307.4874348759395
 30
0.0
 10
94.98150568025065
 20
307.7180557148013
 30
0.0
 10
94.894819137197
 20
307.9585432118569
 30
0.0
 10
94.83269748062685
 20
308.2065993914769
 30
0.0
 10
94.79352123299716
 20
308.4596501647337
 30
0.0
 10
94.78865496915435
 20
308.6300479484293
 30
0.0
 10
94.7862231029
 20
308.7152025215
 30
0.0
 11
99.9847197619
 21
308.7152025215
 31
0.0
 11
99.97230898040115
 21
308.4602046169039
 31
0.0
 11
99.9350263796387
 21
308.207373316545
 31
0.0
 11
99.87346115126941
 21
307.9600420037151
 31
0.0
 11
99.78805098613222
 21
307.7199823394097
 31
0.0
 11
99.67983105117244
 21
307.4902677182477
 31
0.0
 11
99.54951125666062
 21
307.2723084412939
 31
0.0
 11
99.39873668998843
 21
307.0689468162724
 31
0.0
 11
99.22859406089911
 21
306.881498772799
 31
0.0
 11
99.04090016348052
 21
306.7120212672789
 31
0.0
 11
98.83738472448121
 21
306.5619064802239
 31
0.0
 11
98.6197376444159
 21
306.4324251396058
 31
0.0
 11
98.3904364004072
 21
306.3249223963589
 31
0.0
 11
98.15097300062426
 21
306.2401130597105
 31
0.0
 11
97.9043972928815
 21
306.1789767762339
 31
0.0
 11
97.65222619825346
 21
306.1418846848241
 31
0.0
 11
97.39765322251442
 21
306.1292723094511
 31
0.0
 11
97.1425021006872
 21
306.1412571982444
 31
0.0
 11
96.8896838729444
 21
306.1777226234225
 31
0.0
 11
96.64145887461105
 21
306.2384130750598
 31
0.0
 11
96.40026900846092
 21
306.3228199206474
 31
0.0
 11
96.16865861241808
 21
306.4301937572832
 31
0.0
 11
95.94862920342234
 21
306.5596559760563
 31
0.0
 11
95.74262738158748
 21
306.7098990159846
 31
0.0
 11
95.55242079889534
 21
306.8796899077437
 31
0.0
 11
95.38005716711024
 21
307.0673928465283
 31
0.0
 11
95.22713776897359
 21
307.2712551509961
 31
0.0
 11
95.09514862484838
 21
307.4894383883976
 31
0.0
 11
94.98541972577638
 21
307.7196038162385
 31
0.0
 11
94.8989306123474
 21
307.9597472917935
 31
0.0
 11
94.8365443872755
 21
308.2073240389767
 31
0.0
 11
94.79882749726443
 21
308.4601529066812
 31
0.0
 11
94.7862231029
 21
308.7152025215
 31
0.0
  0
SPLINE
  5
10F
330
1F
100
AcDbEntity
  8
0
  6
Continuous
 62
     7
100
AcDbSpline
210
0.0
220
0.0
230
1.0
 70
     8
 71
     3
 72
    19
 73
    15
 74
    13
 42
0.0000000001
 43
0.0000000001
 44
0.00000001
 40
0.0
 40
0.0
 40
0.0
 40
0.0
 40
0.016194696840035
 40
0.0325629814649643
 40
0.0487883952356384
 40
0.0649854784125318
 40
0.0811702248055298
 40
0.0973487887635486
 40
0.1135238753678645
 40
0.1297004760104235
 40
0.1620346810076738
 40
0.1943842542937327
 40
0.2267297213083744
 40
0.2590669273162194
 40
0.2590669273162194
 40
0.2590669273162194
 40
0.2590669273162194
 10
119.1729714324
 20
305.8013348168
 30
0.0
 10
119.1783785197962
 20
305.8008235716583
 30
0.0
 10
119.1892506520997
 20
305.7997956014385
 30
0.0
 10
119.2042935470354
 20
305.7929917640322
 30
0.0
 10
119.2176974407291
 20
305.7837068204002
 30
0.0
 10
119.2294572269802
 20
305.7724863104905
 30
0.0
 10
119.2400954068501
 20
305.7602689996634
 30
0.0
 10
119.2497499111687
 20
305.7472678594777
 30
0.0
 10
119.258598552994
 20
305.7337168239227
 30
0.0
 10
119.2694873467999
 20
305.7150991090042
 30
0.0
 10
119.281758585396
 20
305.6910747025033
 30
0.0
 10
119.294734855516
 20
305.6614369521075
 30
0.0
 10
119.3065155065632
 20
305.631303339259
 30
0.0
 10
119.3134967063245
 20
305.6109019255579
 30
0.0
 10
119.3169868604
 20
305.6007025215
 30
0.0
 11
119.1729714324
 21
305.8013348168
 31
0.0
 11
119.1889869041031
 21
305.7989321366575
 31
0.0
 11
119.2040613439682
 21
305.7925538920465
 31
0.0
 11
119.2174390000544
 21
305.7833722598567
 31
0.0
 11
119.2292749782581
 21
305.7723153559772
 31
0.0
 11
119.2399335340304
 21
305.7601358155649
 31
0.0
 11
119.2496165330168
 21
305.7471748949814
 31
0.0
 11
119.2584850636445
 21
305.7336477891873
 31
0.0
 11
119.2666780721858
 21
305.7196994194119
 31
0.0
 11
119.2814649474928
 21
305.6909444349491
 31
0.0
 11
119.2945360214386
 21
305.6613531876335
 31
0.0
 11
119.3062984786176
 21
305.6312222427842
 31
0.0
 11
119.3169868604
 21
305.6007025215
 31
0.0
  0
SPLINE
  5
110
330
1F
100
AcDbEntity
  8
0
  6
Continuous
 62
     7
100
AcDbSpline
210
0.0
220
0.0
230
1.0
 70
     8
 71
     3
 72
    19
 73
    15
 74
    13
 42
0.0000000001
 43
0.0000000001
 44
0.00000001
 40
0.0
 40
0.0
 40
0.0
 40
0.0
 40
0.0323151378576674
 40
0.0646399977684407
 40
0.0969742998980275
 40
0.1292882109557521
 40
0.145453609719634
 40
0.1616217905965262
 40
0.1778063534067311
 40
0.1939890918060824
 40
0.2101993892269607
 40
0.2264513050487063
 40
0.2428488340754625
 40
0.2590606652918164
 40
0.2590606652918164
 40
0.2590606652918164
 40
0.2590606652918164
 10
117.4539560044
 20
305.6007025215
 30
0.0
 10
117.4574448266901
 20
305.6108946138406
 30
0.0
 10
117.4644235208872
 20
305.6312818648264
 30
0.0
 10
117.4761971847499
 20
305.661397217048
 30
0.0
 10
117.4891425686337
 20
305.6910277414152
 30
0.0
 10
117.5014024627038
 20
305.7150416190784
 30
0.0
 10
117.5123089841454
 20
305.7336342812018
 30
0.0
 10
117.5211561380447
 20
305.747180430452
 30
0.0
 10
117.5307654997383
 20
305.7602127340695
 30
0.0
 10
117.5413772074019
 20
305.7724629343681
 30
0.0
 10
117.5531796149826
 20
305.783661258482
 30
0.0
 10
117.5666269748977
 20
305.7929166440755
 30
0.0
 10
117.581671596538
 20
305.7997705240221
 30
0.0
 10
117.5925588199678
 20
305.8008153692051
 30
0.0
 10
117.5979714324
 20
305.8013348168
 30
0.0
 11
117.4539560044
 21
305.6007025215
 31
0.0
 11
117.4646397202404
 21
305.6312004943933
 31
0.0
 11
117.4763913243758
 21
305.6613135541597
 31
0.0
 11
117.4894398065229
 21
305.6908980806536
 31
0.0
 11
117.5042184844455
 21
305.7196344605005
 31
0.0
 11
117.5124187513559
 21
305.7335655674125
 31
0.0
 11
117.5212795138421
 21
305.7470895077049
 31
0.0
 11
117.530931456649
 21
305.7600810462361
 31
0.0
 11
117.5415666287808
 21
305.7722783465862
 31
0.0
 11
117.5534334083771
 21
305.7833215926889
 31
0.0
 11
117.5668512794297
 21
305.7924914075339
 31
0.0
 11
117.5819428524957
 21
305.7989041589386
 31
0.0
 11
117.5979714324
 21
305.8013348168
 31
0.0
  0
SPLINE
  5
111
330
1F
100
AcDbEntity
  8
0
  6
Continuous
 62
     7
100
AcDbSpline
210
0.0
220
0.0
230
1.0
 70
     8
 71
     3
 72
    19
 73
    15
 74
    13
 42
0.0000000001
 43
0.0000000001
 44
0.00000001
 40
0.0
 40
0.0
 40
0.0
 40
0.0
 40
0.0162157578332375
 40
0.0326226839459358
 40
0.0488914582074828
 40
0.065113042536157
 40
0.081284501234493
 40
0.0974608274534106
 40
0.1136293934892163
 40
0.129793713495206
 40
0.1620993999777223
 40
0.1944270046083065
 40
0.2267452805269098
 40
0.2590534186215966
 40
0.2590534186215966
 40
0.2590534186215966
 40
0.2590534186215966
 10
117.5979714324
 20
311.6290702261
 30
0.0
 10
117.5925576055808
 20
311.6295935288078
 30
0.0
 10
117.5816661281008
 20
311.6306463034621
 30
0.0
 10
117.5666225477325
 20
311.6375249042037
 30
0.0
 10
117.5531561245739
 20
311.6467714897626
 30
0.0
 10
117.5413359639602
 20
311.6579609030367
 30
0.0
 10
117.5307348176185
 20
311.6702174340373
 30
0.0
 10
117.5211434574562
 20
311.6832547619605
 30
0.0
 10
117.512298486641
 20
311.6967984818265
 30
0.0
 10
117.5013870910783
 20
311.7153848737347
 30
0.0
 10
117.4891303499394
 20
311.7393946734682
 30
0.0
 10
117.4761933204143
 20
311.7690209510506
 30
0.0
 10
117.4644220512489
 20
311.7991299219751
 30
0.0
 10
117.4574443218219
 20
311.8195127207955
 30
0.0
 10
117.4539560044
 20
311.8297025215
 30
0.0
 11
117.5979714324
 21
311.6290702261
 31
0.0
 11
117.5819408809698
 21
311.6315140392983
 31
0.0
 11
117.5668460586301
 21
311.6379431576672
 31
0.0
 11
117.55340786405
 21
311.6471131054534
 31
0.0
 11
117.5415239154576
 21
311.6581544624346
 31
0.0
 11
117.5309022172336
 21
311.6703485430998
 31
0.0
 11
117.521266166727
 21
311.6833416205095
 31
0.0
 11
117.5124071042444
 21
311.6968671349021
 31
0.0
 11
117.5042040858585
 21
311.7107953699165
 31
0.0
 11
117.4894285057347
 21
311.7395240944115
 31
0.0
 11
117.4763865093002
 21
311.7691041611822
 31
0.0
 11
117.4646380430412
 21
311.7992113779069
 31
0.0
 11
117.4539560044
 21
311.8297025215
 31
0.0
  0
SPLINE
  5
112
330
1F
100
AcDbEntity
  8
0
  6
Continuous
 62
     7
100
AcDbSpline
210
0.0
220
0.0
230
1.0
 70
     8
 71
     3
 72
    19
 73
    15
 74
    13
 42
0.0000000001
 43
0.0000000001
 44
0.00000001
 40
0.0
 40
0.0
 40
0.0
 40
0.0
 40
0.0323407212585105
 40
0.0646896689977989
 40
0.097043007383349
 40
0.1293811554219202
 40
0.1455604633428824
 40
0.1617380090998625
 40
0.1779190469949506
 40
0.1941069132923369
 40
0.2103064803957353
 40
0.2265329505145063
 40
0.2428873474667668
 40
0.2590698531471239
 40
0.2590698531471239
 40
0.2590698531471239
 40
0.2590698531471239
 10
119.3169868604
 20
311.8297025215
 30
0.0
 10
119.313496310289
 20
311.8195020140489
 30
0.0
 10
119.3065143221789
 20
311.7990984044525
 30
0.0
 10
119.2947321022891
 20
311.7689615488222
 30
0.0
 10
119.2817539025632
 20
311.7393205667682
 30
0.0
 10
119.2694806356126
 20
311.7152932954044
 30
0.0
 10
119.258589969683
 20
311.6966731531088
 30
0.0
 10
119.2497389571862
 20
311.6831205856578
 30
0.0
 10
119.2400804677093
 20
311.670119029985
 30
0.0
 10
119.229439054802
 20
311.6579010681254
 30
0.0
 10
119.2176792368954
 20
311.6466775789105
 30
0.0
 10
119.2042774441629
 20
311.6373945759987
 30
0.0
 10
119.1892379309138
 20
311.6306041059212
 30
0.0
 10
119.1783744681452
 20
311.6295797154345
 30
0.0
 10
119.1729714324
 20
311.6290702261
 30
0.0
 11
119.3169868604
 21
311.8297025215
 31
0.0
 11
119.3062972313097
 21
311.7991795124506
 31
0.0
 11
119.2945332536876
 21
311.769045424604
 31
0.0
 11
119.2814602379231
 21
311.7394509189735
 31
0.0
 11
119.2666710523368
 21
311.7106926887035
 31
0.0
 11
119.2584762981523
 21
311.6967422045307
 31
0.0
 11
119.249605327306
 21
311.683213758095
 31
0.0
 11
119.2399188554132
 21
311.6702523442203
 31
0.0
 11
119.2292571345135
 21
311.658071427887
 31
0.0
 11
119.2174200115323
 21
311.6470121108255
 31
0.0
 11
119.2040404000281
 21
311.6378314611474
 31
0.0
 11
119.1889756001033
 21
311.6314660779778
 31
0.0
 11
119.1729714324
 21
311.6290702261
 31
0.0
  0
SPLINE
  5
113
330
1F
100
AcDbEntity
  8
RUNDUNGEN
  6
Continuous
 62
     7
100
AcDbSpline
210
0.0
220
0.0
230
1.0
 70
     8
 71
     3
 72
    11
 73
     7
 74
     5
 42
0.0000000001
 43
0.0000000001
 44
0.00000001
 40
0.0
 40
0.0
 40
0.0
 40
0.0
 40
0.4023344191111458
 40
0.8046699292559907
 40
1.207005996893771
 40
1.609340270493333
 40
1.609340270493333
 40
1.609340270493333
 40
1.609340270493333
 10
122.3404839953
 20
308.7151860815
 30
0.0
 10
122.3403442229926
 20
308.5810745945502
 30
0.0
 10
122.3400646779987
 20
308.3128512569726
 30
0.0
 10
122.3383645947508
 20
307.910519119006
 30
0.0
 10
122.3361486477242
 20
307.5081895400556
 30
0.0
 10
122.3356971705059
 20
307.2399661990144
 30
0.0
 10
122.3354714324
 20
307.1058548275
 30
0.0
 11
122.3404839953
 21
308.7151860815
 31
0.0
 11
122.339851218256
 21
308.3128521599936
 31
0.0
 11
122.3382786182166
 21
307.9105197232543
 31
0.0
 11
122.33640510067
 21
307.5081880177497
 31
0.0
 11
122.3354714324
 21
307.1058548275
 31
0.0
  0
SPLINE
  5
114
330
1F
100
AcDbEntity
  8
RUNDUNGEN
  6
Continuous
 62
     7
100
AcDbSpline
210
0.0
220
0.0
230
1.0
 70
     8
 71
     3
 72
    11
 73
     7
 74
     5
 42
0.0000000001
 43
0.0000000001
 44
0.00000001
 40
0.0
 40
0.0
 40
0.0
 40
0.0
 40
0.4023424934880177
 40
0.8046867810210151
 40
1.207030511233814
 40
1.609373150355142
 40
1.609373150355142
 40
1.609373150355142
 40
1.609373150355142
 10
122.3354714324
 20
310.3245502154
 30
0.0
 10
122.3356971788237
 20
310.190436103929
 30
0.0
 10
122.3361486726777
 20
309.9222072829723
 30
0.0
 10
122.3383646792863
 20
309.519869484274
 30
0.0
 10
122.3400647610022
 20
309.1175291261709
 30
0.0
 10
122.3403442506604
 20
308.8493003084913
 30
0.0
 10
122.3404839953
 20
308.7151860815
 30
0.0
 11
122.3354714324
 21
310.3245502154
 31
0.0
 11
122.3364051313948
 21
309.9222088053111
 31
0.0
 11
122.3382786925661
 21
309.5198688800253
 31
0.0
 11
122.3398512876808
 21
309.1175282231359
 31
0.0
 11
122.3404839953
 21
308.7151860815
 31
0.0
  0
SPLINE
  5
115
330
1F
100
AcDbEntity
  8
0
  6
Continuous
 62
     7
100
AcDbSpline
210
0.0
220
0.0
230
1.0
 70
     8
 71
     3
 72
    25
 73
    21
 74
    19
 42
0.0000000001
 43
0.0000000001
 44
0.00000001
 40
0.0
 40
0.0
 40
0.0
 40
0.0
 40
0.0604406726329129
 40
0.1208909375313527
 40
0.1783788230422268
 40
0.2358687180274564
 40
0.2893007099410805
 40
0.3427196953593946
 40
0.3907247440340251
 40
0.4388250889529349
 40
0.4810912364781554
 40
0.5230165749633432
 40
0.5426397734768261
 40
0.5622645057360117
 40
0.5820559875512372
 40
0.6018420342562688
 40
0.6453512809656009
 40
0.6892978001904144
 40
0.7409879875155178
 40
0.7925232210618816
 40
0.7925232210618816
 40
0.7925232210618816
 40
0.7925232210618816
 10
87.0554474493
 20
303.5793605219
 30
0.0
 10
87.0409002505198
 20
303.565418215277
 30
0.0
 10
87.01180354423931
 20
303.5375313893105
 30
0.0
 10
86.96673895684478
 20
303.4986982309358
 30
0.0
 10
86.92076442001758
 20
303.462527788252
 30
0.0
 10
86.87470434723659
 20
303.4303741946667
 30
0.0
 10
86.82782842907332
 20
303.4019418035642
 30
0.0
 10
86.7816431218339
 20
303.3787456639853
 30
0.0
 10
86.73514520511482
 20
303.3605473729336
 30
0.0
 10
86.69019136472727
 20
303.3494471318927
 30
0.0
 10
86.64604924006214
 20
303.3457731890722
 30
0.0
 10
86.6113175010895
 20
303.35013811394
 30
0.0
 10
86.58567052471072
 20
303.3590027093859
 30
0.0
 10
86.56807824307364
 20
303.3679813728111
 30
0.0
 10
86.55199602002087
 20
303.3795455861469
 30
0.0
 10
86.53198347005075
 20
303.39881599884
 30
0.0
 10
86.51211048758545
 20
303.4291223629389
 30
0.0
 10
86.49591126124966
 20
303.4728167618045
 30
0.0
 10
86.48673556094013
 20
303.5212926565408
 30
0.0
 10
86.48589238667802
 20
303.555727654272
 30
0.0
 10
86.4854714324
 20
303.5729193076
 30
0.0
 11
87.0554474493
 21
303.5793605219
 31
0.0
 11
87.01144479116593
 21
303.5379257419989
 31
0.0
 11
86.96569817670756
 21
303.4984101527727
 31
0.0
 11
86.92043642696802
 21
303.4629668037348
 31
0.0
 11
86.87324482130127
 21
303.4301332784899
 31
0.0
 11
86.82747707914483
 21
303.4025598938997
 31
0.0
 11
86.77967040108676
 21
303.378724845417
 31
0.0
 11
86.73484139996133
 21
303.3615537838205
 31
0.0
 11
86.68807079770441
 21
303.3503219564606
 31
0.0
 11
86.64591678915095
 21
303.3472451416306
 31
0.0
 11
86.60438744141561
 21
303.3529938183283
 31
0.0
 11
86.58584739788135
 21
303.3594231810998
 31
0.0
 11
86.5683851618984
 21
303.3683786504187
 31
0.0
 11
86.5522992313237
 21
303.3799088537988
 31
0.0
 11
86.53804111905228
 21
303.3936272312054
 31
0.0
 11
86.51368272437315
 21
303.429678904646
 31
0.0
 11
86.4979047089916
 21
303.4706953742966
 31
0.0
 11
86.48812825104243
 21
303.5214526036898
 31
0.0
 11
86.4854714324
 21
303.5729193076
 31
0.0
  0
SPLINE
  5
116
330
1F
100
AcDbEntity
  8
0
  6
Continuous
 62
     7
100
AcDbSpline
210
0.0
220
0.0
230
1.0
 70
     8
 71
     3
 72
    11
 73
     7
 74
     5
 42
0.0000000001
 43
0.0000000001
 44
0.00000001
 40
0.0
 40
0.0
 40
0.0
 40
0.0
 40
0.0552416255774713
 40
0.1107067482614839
 40
0.1596632274379774
 40
0.2081601314809586
 40
0.2081601314809586
 40
0.2081601314809586
 40
0.2081601314809586
 10
117.4539560044
 20
311.8297025215
 30
0.0
 10
117.4385781740793
 20
311.8399975683697
 30
0.0
 10
117.4077602976623
 20
311.8606293139097
 30
0.0
 10
117.3740113113474
 20
311.9027508976279
 30
0.0
 10
117.3522811799997
 20
311.9497788700664
 30
0.0
 10
117.3494034913545
 20
311.9823539459677
 30
0.0
 10
117.3479714324
 20
311.9985646744
 30
0.0
 11
117.4539560044
 21
311.8297025215
 31
0.0
 11
117.4096693137054
 21
311.8627226096852
 31
0.0
 11
117.3746764129276
 21
311.9057560470278
 31
0.0
 11
117.3549844770588
 21
311.9505775208444
 31
0.0
 11
117.3479714324
 21
311.9985646744
 31
0.0
  0
SPLINE
  5
117
330
1F
100
AcDbEntity
  8
0
  6
Continuous
 62
     7
100
AcDbSpline
210
0.0
220
0.0
230
1.0
 70
     8
 71
     3
 72
    11
 73
     7
 74
     5
 42
0.0000000001
 43
0.0000000001
 44
0.00000001
 40
0.0
 40
0.0
 40
0.0
 40
0.0
 40
0.0484884450385405
 40
0.0974363655177512
 40
0.1529099108808429
 40
0.2081599367031044
 40
0.2081599367031044
 40
0.2081599367031044
 40
0.2081599367031044
 10
119.4229714324
 20
311.9985646744
 30
0.0
 10
119.4215398570228
 20
311.9823567782583
 30
0.0
 10
119.4186631406914
 20
311.9497874003069
 30
0.0
 10
119.3969373534646
 20
311.9027609973038
 30
0.0
 10
119.3631891914137
 20
311.8606347468148
 30
0.0
 10
119.3323668969093
 20
311.8399993776156
 30
0.0
 10
119.3169868604
 20
311.8297025215
 30
0.0
 11
119.4229714324
 21
311.9985646744
 31
0.0
 11
119.4159606882532
 21
311.9505857335117
 31
0.0
 11
119.3962749864227
 21
311.9057708692066
 31
0.0
 11
119.3612795106773
 21
311.8627286700004
 31
0.0
 11
119.3169868604
 21
311.8297025215
 31
0.0
  0
SPLINE
  5
118
330
1F
100
AcDbEntity
  8
0
  6
Continuous
 62
     7
100
AcDbSpline
210
0.0
220
0.0
230
1.0
 70
     8
 71
     3
 72
    11
 73
     7
 74
     5
 42
0.0000000001
 43
0.0000000001
 44
0.00000001
 40
0.0
 40
0.0
 40
0.0
 40
0.0
 40
0.0484969040664358
 40
0.0974533832668167
 40
0.1529185059422382
 40
0.2081601315563598
 40
0.2081601315563598
 40
0.2081601315563598
 40
0.2081601315563598
 10
117.3479714324
 20
305.4318403685
 30
0.0
 10
117.3494034913552
 20
305.4480510969395
 30
0.0
 10
117.3522811800016
 20
305.4806261728554
 30
0.0
 10
117.3740113113341
 20
305.5276541453185
 30
0.0
 10
117.4077602976836
 20
305.569775729027
 30
0.0
 10
117.4385781740822
 20
305.5904074746065
 30
0.0
 10
117.4539560044
 20
305.6007025215
 30
0.0
 11
117.3479714324
 21
305.4318403685
 31
0.0
 11
117.3549844770588
 21
305.4798275220793
 31
0.0
 11
117.3746764129276
 21
305.524648995922
 31
0.0
 11
117.4096693137054
 21
305.5676824332534
 31
0.0
 11
117.4539560044
 21
305.6007025215
 31
0.0
  0
SPLINE
  5
119
330
1F
100
AcDbEntity
  8
0
  6
Continuous
 62
     7
100
AcDbSpline
210
0.0
220
0.0
230
1.0
 70
     8
 71
     3
 72
    11
 73
     7
 74
     5
 42
0.0000000001
 43
0.0000000001
 44
0.00000001
 40
0.0
 40
0.0
 40
0.0
 40
0.0
 40
0.0552500258400095
 40
0.1107235712406085
 40
0.1596714917373058
 40
0.2081599367787149
 40
0.2081599367787149
 40
0.2081599367787149
 40
0.2081599367787149
 10
119.3169868604
 20
305.6007025215
 30
0.0
 10
119.3323668969105
 20
305.590405665375
 30
0.0
 10
119.3631891914229
 20
305.5697702961533
 30
0.0
 10
119.3969373534581
 20
305.5276440456208
 30
0.0
 10
119.4186631406902
 20
305.4806176426009
 30
0.0
 10
119.4215398570225
 20
305.4480482646426
 30
0.0
 10
119.4229714324
 20
305.4318403685
 30
0.0
 11
119.3169868604
 21
305.6007025215
 31
0.0
 11
119.3612795106773
 21
305.5676763729699
 31
0.0
 11
119.3962749864227
 21
305.5246341737154
 31
0.0
 11
119.4159606882532
 21
305.4798193093912
 31
0.0
 11
119.4229714324
 21
305.4318403685
 31
0.0
  0
SPLINE
  5
11A
330
1F
100
AcDbEntity
  8
RUNDUNGEN
  6
Continuous
 62
     7
100
AcDbSpline
210
0.0
220
0.0
230
1.0
 70
     8
 71
     3
 72
    11
 73
     7
 74
     5
 42
0.0000000001
 43
0.0000000001
 44
0.00000001
 40
0.0
 40
0.0
 40
0.0
 40
0.0
 40
0.2720357132256991
 40
0.5444507174473723
 40
0.8204954810990839
 40
1.095557810985696
 40
1.095557810985696
 40
1.095557810985696
 40
1.095557810985696
 10
89.2614325424
 20
313.6202025215
 30
0.0
 10
89.30658238485522
 20
313.5414481401642
 30
0.0
 10
89.39694502079698
 20
313.3838295726903
 30
0.0
 10
89.49924779253739
 20
313.1294647038417
 30
0.0
 10
89.57077097476203
 20
312.8627616872421
 30
0.0
 10
89.58057710683717
 20
312.6788689515181
 30
0.0
 10
89.5854714324
 20
312.5870864923
 30
0.0
 11
89.2614325424
 21
313.6202025215
 31
0.0
 11
89.3912703298714
 21
313.3811511081707
 31
0.0
 11
89.49367607800473
 21
313.1287169637402
 31
0.0
 11
89.561307919421
 21
312.8610854155883
 31
0.0
 11
89.5854714324
 21
312.5870864923
 31
0.0
  0
SPLINE
  5
11B
330
1F
100
AcDbEntity
  8
RUNDUNGEN
  6
Continuous
 62
     7
100
AcDbSpline
210
0.0
220
0.0
230
1.0
 70
     8
 71
     3
 72
    15
 73
    11
 74
     9
 42
0.0000000001
 43
0.0000000001
 44
0.00000001
 40
0.0
 40
0.0
 40
0.0
 40
0.0
 40
0.0931623162667466
 40
0.1866550545432965
 40
0.277161032595276
 40
0.3676563365130058
 40
0.4555076254547427
 40
0.5433695152059281
 40
0.6298939392981882
 40
0.7163624469360461
 40
0.7163624469360461
 40
0.7163624469360461
 40
0.7163624469360461
 10
88.6854714324
 20
313.9774452142
 30
0.0
 10
88.71658900264863
 20
313.9789544781871
 30
0.0
 10
88.7789345089087
 20
313.9819783591201
 30
0.0
 10
88.87036244624551
 20
313.9632818597261
 30
0.0
 10
88.95559437500106
 20
313.9290031168929
 30
0.0
 10
89.03226054872675
 20
313.8818455662056
 30
0.0
 10
89.10083110425944
 20
313.825151444925
 30
0.0
 10
89.16116776604146
 20
313.7616915605274
 30
0.0
 10
89.2150859977207
 20
313.6932754662199
 30
0.0
 10
89.24598702355007
 20
313.6445549204308
 30
0.0
 10
89.2614325424
 20
313.6202025215
 30
0.0
 11
88.6854714324
 21
313.9774452142
 31
0.0
 11
88.77863156524288
 21
313.9780830393206
 31
0.0
 11
88.8704276463246
 21
313.9603525117344
 31
0.0
 11
88.95445068725208
 21
313.9267153201684
 31
0.0
 11
89.03174815604902
 21
313.8796568315744
 31
0.0
 11
89.09962056974052
 21
313.823878839244
 31
0.0
 11
89.16044025985968
 21
313.7604700309879
 31
0.0
 11
89.21388269353731
 21
313.6924231188823
 31
0.0
 11
89.2614325424
 21
313.6202025215
 31
0.0
  0
SPLINE
  5
11C
330
1F
100
AcDbEntity
  8
RUNDUNGEN
  6
Continuous
 62
     7
100
AcDbSpline
210
0.0
220
0.0
230
1.0
 70
     8
 71
     3
 72
    11
 73
     7
 74
     5
 42
0.0000000001
 43
0.0000000001
 44
0.00000001
 40
0.0
 40
0.0
 40
0.0
 40
0.0
 40
0.2750623373348286
 40
0.5511071089947195
 40
0.8235221051669328
 40
1.095557809850857
 40
1.095557809850857
 40
1.095557809850857
 40
1.095557809850857
 10
89.5854714324
 20
304.8433185506
 30
0.0
 10
89.58057710602066
 20
304.7515360888953
 30
0.0
 10
89.57077097230007
 20
304.567643348011
 30
0.0
 10
89.49924778447829
 20
304.3009403303773
 30
0.0
 10
89.39694501554408
 20
304.0465754637137
 30
0.0
 10
89.30658238307717
 20
303.8889569005895
 30
0.0
 10
89.2614325424
 20
303.8102025215
 30
0.0
 11
89.5854714324
 21
304.8433185506
 31
0.0
 11
89.56130791623944
 21
304.5693196201151
 31
0.0
 11
89.49367606935351
 21
304.3016880650855
 31
0.0
 11
89.39127032461116
 21
304.049253927966
 31
0.0
 11
89.2614325424
 21
303.8102025215
 31
0.0
  0
SPLINE
  5
11D
330
1F
100
AcDbEntity
  8
RUNDUNGEN
  6
Continuous
 62
     7
100
AcDbSpline
210
0.0
220
0.0
230
1.0
 70
     8
 71
     3
 72
    15
 73
    11
 74
     9
 42
0.0000000001
 43
0.0000000001
 44
0.00000001
 40
0.0
 40
0.0
 40
0.0
 40
0.0
 40
0.086470847895125
 40
0.1729975735784414
 40
0.2608622577331198
 40
0.3487164648849485
 40
0.4392125794508577
 40
0.5297191468541597
 40
0.6232058226629675
 40
0.7163622618421172
 40
0.7163622618421172
 40
0.7163622618421172
 40
0.7163622618421172
 10
89.2614325424
 20
303.8102025215
 30
0.0
 10
89.24598660673885
 20
303.7858494618768
 30
0.0
 10
89.21508475419463
 20
303.7371276055912
 30
0.0
 10
89.1611646440028
 20
303.6687097976937
 30
0.0
 10
89.10082511821246
 20
303.6052489059917
 30
0.0
 10
89.03225184324265
 20
303.5485546723509
 30
0.0
 10
88.95558400166627
 20
303.5013971519929
 30
0.0
 10
88.87035302801522
 20
303.4671199852127
 30
0.0
 10
88.77892847931214
 20
303.4484263458321
 30
0.0
 10
88.71658701345393
 20
303.4514504513758
 30
0.0
 10
88.6854714324
 20
303.4529598288
 30
0.0
 11
89.2614325424
 21
303.8102025215
 31
0.0
 11
89.21388135280056
 21
303.7379800049046
 31
0.0
 11
89.1604371065646
 21
303.6699315897743
 31
0.0
 11
89.0996145739665
 21
303.606521635903
 31
0.0
 11
89.03173896234499
 21
303.5507429387034
 31
0.0
 11
88.95444023140577
 21
303.5036849643876
 31
0.0
 11
88.87041615393325
 21
303.4700487763155
 31
0.0
 11
88.77862568233428
 21
303.4523211741815
 31
0.0
 11
88.6854714324
 21
303.4529598288
 31
0.0
  0
SPLINE
  5
11E
330
1F
100
AcDbEntity
  8
0
  6
Continuous
 62
     7
100
AcDbSpline
210
0.0
220
0.0
230
1.0
 70
    24
 71
     3
 72
     9
 73
     5
 74
     3
 42
0.0000000001
 43
0.0000000001
 44
0.00000001
 40
0.0
 40
0.0
 40
0.0
 40
0.0
 40
0.0347035328576489
 40
0.0694070657146598
 40
0.0694070657146598
 40
0.0694070657146598
 40
0.0694070657146598
 10
87.1049705846593
 20
313.802415313346
 30
0.0
 10
87.0967167287301
 20
313.8105201812488
 30
0.0
 10
87.08020901687189
 20
313.8267299170544
 30
0.0
 10
87.06370130501321
 20
313.8429396528594
 30
0.0
 10
87.055447449084
 20
313.851044520762
 30
0.0
 11
87.1049705846593
 21
313.802415313346
 31
0.0
 11
87.08020901687162
 21
313.8267299170544
 31
0.0
 11
87.055447449084
 21
313.851044520762
 31
0.0
  0
SPLINE
  5
11F
330
1F
100
AcDbEntity
  8
0
  6
Continuous
 62
     7
100
AcDbSpline
210
0.0
220
0.0
230
1.0
 70
    24
 71
     3
 72
     9
 73
     5
 74
     3
 42
0.0000000001
 43
0.0000000001
 44
0.00000001
 40
0.0
 40
0.0
 40
0.0
 40
0.0
 40
0.0347035328570109
 40
0.06940706571462
 40
0.06940706571462
 40
0.06940706571462
 40
0.06940706571462
 10
87.055447449084
 20
303.579360522138
 30
0.0
 10
87.06370130501324
 20
303.5874653900406
 30
0.0
 10
87.08020901687185
 20
303.6036751258456
 30
0.0
 10
87.0967167287301
 20
303.6198848616511
 30
0.0
 10
87.1049705846593
 20
303.627989729554
 30
0.0
 11
87.055447449084
 21
303.579360522138
 31
0.0
 11
87.08020901687162
 21
303.6036751258456
 31
0.0
 11
87.1049705846593
 21
303.627989729554
 31
0.0
  0
SPLINE
  5
120
330
1F
100
AcDbEntity
  8
0
  6
Continuous
 62
     7
100
AcDbSpline
210
0.0
220
0.0
230
1.0
 70
     8
 71
     3
 72
    11
 73
     7
 74
     5
 42
0.0000000001
 43
0.0000000001
 44
0.00000001
 40
0.0
 40
0.0
 40
0.0
 40
0.0
 40
0.2552059509700612
 40
0.5103908164667704
 40
0.6573137754821033
 40
0.8040138994192696
 40
0.8040138994192696
 40
0.8040138994192696
 40
0.8040138994192696
 10
87.2056557888
 20
303.8102025215
 30
0.0
 10
87.24466594397938
 20
303.8859156277102
 30
0.0
 10
87.32268303126445
 20
304.0373355846077
 30
0.0
 10
87.39171816166451
 20
304.2462428075204
 30
0.0
 10
87.42905363254415
 20
304.4258827470737
 30
0.0
 10
87.43333324840351
 20
304.5238178389076
 30
0.0
 10
87.4354714324
 20
304.5727482226
 30
0.0
 11
87.2056557888
 21
303.8102025215
 31
0.0
 11
87.31658257291674
 21
304.0400401293366
 31
0.0
 11
87.3970971746094
 21
304.2821903192867
 31
0.0
 11
87.42513893450007
 21
304.4264124243471
 31
0.0
 11
87.4354714324
 21
304.5727482226
 31
0.0
  0
SPLINE
  5
121
330
1F
100
AcDbEntity
  8
0
  6
Continuous
 62
     7
100
AcDbSpline
210
0.0
220
0.0
230
1.0
 70
     8
 71
     3
 72
    11
 73
     7
 74
     5
 42
0.0000000001
 43
0.0000000001
 44
0.00000001
 40
0.0
 40
0.0
 40
0.0
 40
0.0
 40
0.2243303823009969
 40
0.4487450664826224
 40
0.6263697311305328
 40
0.8039157765719014
 40
0.8039157765719014
 40
0.8039157765719014
 40
0.8039157765719014
 10
87.4354714324
 20
312.8576568203
 30
0.0
 10
87.4304972549294
 20
312.9324896781246
 30
0.0
 10
87.42054703072505
 20
313.082183515469
 30
0.0
 10
87.3601853922149
 20
313.2834469946658
 30
0.0
 10
87.2884663368491
 20
313.4629630773745
 30
0.0
 10
87.23325523104452
 20
313.567797108676
 30
0.0
 10
87.2056557888
 20
313.6202025215
 30
0.0
 11
87.4354714324
 21
312.8576568203
 31
0.0
 11
87.41222848138118
 21
313.0807798483613
 31
0.0
 11
87.35224724907657
 21
313.2970301714768
 31
0.0
 11
87.28563996877989
 21
313.4616934390952
 31
0.0
 11
87.2056557888
 21
313.6202025215
 31
0.0
  0
DIMENSION
  5
12E
330
1F
100
AcDbEntity
  8
1
100
AcDbDimension
  2
*D2
 10
174.17017497426
 20
312.7152025215
 30
0.0
 11
170.42017497426
 21
308.803014410294
 31
0.0
 70
    32
  1
<>
 71
     5
 42
-1.0
 53
90.0
  3
ME10_DIM_10
100
AcDbAlignedDimension
 13
162.3854714324
 23
304.7152025215
 33
0.0
 14
162.3854714324
 24
312.7152025215
 34
0.0
 50
90.0
100
AcDbRotatedDimension
  0
DIMENSION
  5
139
330
1F
100
AcDbEntity
  8
1
100
AcDbDimension
  2
*D3
 10
183.417492354731
 20
322.7152025215
 30
0.0
 11
179.667492354731
 21
308.659645148581
 31
0.0
 70
    32
  1
<>
 71
     5
 42
-1.0
 53
90.0
  3
ME10_DIM_11
100
AcDbAlignedDimension
 13
153.5857490877
 23
294.7152025215
 33
0.0
 14
153.5857490877
 24
322.7152025215
 34
0.0
 50
90.0
100
AcDbRotatedDimension
  0
DIMENSION
  5
144
330
1F
100
AcDbEntity
  8
1
100
AcDbDimension
  2
*D4
 10
162.3854714324
 20
333.964319840876
 30
0.0
 11
141.69703719633
 21
337.714319840876
 31
0.0
 70
    32
  1
<>
 71
     5
 42
-1.0
 53
0.00013888888889
  3
ME10_DIM_12
100
AcDbAlignedDimension
 13
122.3354714324
 23
324.7152025215
 33
0.0
 14
162.3854714324
 24
318.0781322607
 34
0.0
100
AcDbRotatedDimension
  0
DIMENSION
  5
14F
330
1F
100
AcDbEntity
  8
1
100
AcDbDimension
  2
*D5
 10
162.3854714324
 20
342.709844805351
 30
0.0
 11
131.302765722158
 21
346.459844805351
 31
0.0
 70
    32
  1
<>
 71
     5
 42
-1.0
 53
0.00013888888889
  3
ME10_DIM_13
100
AcDbAlignedDimension
 13
102.3854714324
 23
324.7152025215
 33
0.0
 14
162.3854714324
 24
318.0781322607
 34
0.0
100
AcDbRotatedDimension
  0
DIMENSION
  5
15A
330
1F
100
AcDbEntity
  8
1
100
AcDbDimension
  2
*D6
 10
162.3854714324
 20
349.806623260131
 30
0.0
 11
127.503480286771
 21
353.556623260131
 31
0.0
 70
    32
  1
<>
 71
     5
 42
-1.0
 53
0.00013888888889
  3
ME10_DIM_14
100
AcDbAlignedDimension
 13
86.4854714324
 23
319.5117067562
 33
0.0
 14
162.3854714324
 24
318.0781322607
 34
0.0
100
AcDbRotatedDimension
  0
INSERT
  5
161
330
1F
100
AcDbEntity
  8
1
100
AcDbBlockReference
  2
*D7
 10
0.0
 20
0.0
 30
0.0
  0
ENDSEC
  0
SECTION
  2
OBJECTS
  0
DICTIONARY
  5
C
330
0
100
AcDbDictionary
281
     1
  3
ACAD_GROUP
350
D
  3
ACAD_LAYOUT
350
1A
  3
ACAD_MLEADERSTYLE
350
164
  3
ACAD_MLINESTYLE
350
17
  3
ACAD_PLOTSETTINGS
350
19
  3
ACAD_PLOTSTYLENAME
350
E
  3
ACAD_SCALELIST
350
4C
  3
ACAD_VISUALSTYLE
350
2A
  3
AcDbVariableDictionary
350
162
  0
DICTIONARY
  5
D
102
{ACAD_REACTORS
330
C
102
}
330
C
100
AcDbDictionary
281
     1
  0
DICTIONARY
  5
1A
102
{ACAD_REACTORS
330
C
102
}
330
C
100
AcDbDictionary
281
     1
  3
Layout1
350
1E
  3
Layout2
350
26
  3
Model
350
22
  0
DICTIONARY
  5
164
102
{ACAD_REACTORS
330
C
102
}
330
C
100
AcDbDictionary
281
     1
  0
DICTIONARY
  5
17
102
{ACAD_REACTORS
330
C
102
}
330
C
100
AcDbDictionary
281
     1
  3
Standard
350
18
  0
DICTIONARY
  5
19
102
{ACAD_REACTORS
330
C
102
}
330
C
100
AcDbDictionary
281
     1
  0
ACDBDICTIONARYWDFLT
  5
E
102
{ACAD_REACTORS
330
C
102
}
330
C
100
AcDbDictionary
281
     1
  3
Normal
350
F
100
AcDbDictionaryWithDefault
340
F
  0
DICTIONARY
  5
4C
102
{ACAD_REACTORS
330
C
102
}
330
C
100
AcDbDictionary
281
     1
  3
A0
350
4D
  3
A1
350
4E
  3
A2
350
4F
  3
A3
350
50
  3
A4
350
51
  3
A5
350
52
  3
A6
350
53
  3
A7
350
54
  3
A8
350
55
  3
A9
350
56
  3
B0
350
57
  3
B1
350
58
  3
B2
350
59
  3
B3
350
5A
  3
B4
350
5B
  3
B5
350
5C
  3
B6
350
5D
  3
B7
350
5E
  3
B8
350
5F
  3
B9
350
60
  3
C0
350
61
  3
C1
350
62
  3
C2
350
63
  3
C3
350
64
  3
C4
350
65
  3
C5
350
66
  3
C6
350
67
  3
C7
350
68
  3
C8
350
69
  3
C9
350
6A
  3
D0
350
6B
  3
D1
350
6C
  3
D2
350
6D
  0
DICTIONARY
  5
2A
102
{ACAD_REACTORS
330
C
102
}
330
C
100
AcDbDictionary
281
     1
  3
2dWireframe
350
2F
  3
3D Hidden
350
31
  3
3dWireframe
350
30
  3
Basic
350
32
  3
Brighten
350
36
  3
ColorChange
350
3A
  3
Conceptual
350
34
  3
Dim
350
35
  3
Facepattern
350
39
  3
Flat
350
2B
  3
FlatWithEdges
350
2C
  3
Gouraud
350
2D
  3
GouraudWithEdges
350
2E
  3
Linepattern
350
38
  3
Realistic
350
33
  3
Thicken
350
37
  0
DICTIONARY
  5
162
102
{ACAD_REACTORS
330
C
102
}
330
C
100
AcDbDictionary
281
     1
  3
CANNOSCALE
350
165
  0
LAYOUT
  5
1E
102
{ACAD_REACTORS
330
1A
102
}
330
1A
100
AcDbPlotSettings
  1

  2
none_device
  4

  6

 40
0.0
 41
0.0
 42
0.0
 43
0.0
 44
0.0
 45
0.0
 46
0.0
 47
0.0
 48
0.0
 49
0.0
140
0.0
141
0.0
142
1.0
143
1.0
 70
   688
 72
     0
 73
     0
 74
     5
  7

 75
    16
147
1.0
148
0.0
149
0.0
100
AcDbLayout
  1
Layout1
 70
     1
 71
     1
 10
0.0
 20
0.0
 11
12.0
 21
9.0
 12
0.0
 22
0.0
 32
0.0
 14
1.00000000000000E+20
 24
1.00000000000000E+20
 34
1.00000000000000E+20
 15
-1.00000000000000E+20
 25
-1.00000000000000E+20
 35
-1.00000000000000E+20
146
0.0
 13
0.0
 23
0.0
 33
0.0
 16
1.0
 26
0.0
 36
0.0
 17
0.0
 27
1.0
 37
0.0
 76
     0
330
1B
  0
LAYOUT
  5
26
102
{ACAD_REACTORS
330
1A
102
}
330
1A
100
AcDbPlotSettings
  1

  2
none_device
  4

  6

 40
0.0
 41
0.0
 42
0.0
 43
0.0
 44
0.0
 45
0.0
 46
0.0
 47
0.0
 48
0.0
 49
0.0
140
0.0
141
0.0
142
1.0
143
1.0
 70
   688
 72
     0
 73
     0
 74
     5
  7

 75
    16
147
1.0
148
0.0
149
0.0
100
AcDbLayout
  1
Layout2
 70
     1
 71
     2
 10
0.0
 20
0.0
 11
0.0
 21
0.0
 12
0.0
 22
0.0
 32
0.0
 14
0.0
 24
0.0
 34
0.0
 15
0.0
 25
0.0
 35
0.0
146
0.0
 13
0.0
 23
0.0
 33
0.0
 16
1.0
 26
0.0
 36
0.0
 17
0.0
 27
1.0
 37
0.0
 76
     0
330
23
  0
LAYOUT
  5
22
102
{ACAD_REACTORS
330
1A
102
}
330
1A
100
AcDbPlotSettings
  1

  2
none_device
  4

  6

 40
0.0
 41
0.0
 42
0.0
 43
0.0
 44
0.0
 45
0.0
 46
0.0
 47
0.0
 48
0.0
 49
0.0
140
0.0
141
0.0
142
1.0
143
1.0
 70
  1712
 72
     0
 73
     0
 74
     0
  7

 75
     0
147
1.0
148
0.0
149
0.0
100
AcDbLayout
  1
Model
 70
     1
 71
     0
 10
0.0
 20
0.0
 11
12.0
 21
9.0
 12
0.0
 22
0.0
 32
0.0
 14
65.7472526812412
 24
271.6574732667028
 34
0.0
 15
185.417492354731
 25
380.426860184009
 35
0.0
146
0.0
 13
0.0
 23
0.0
 33
0.0
 16
1.0
 26
0.0
 36
0.0
 17
0.0
 27
1.0
 37
0.0
 76
     0
330
1F
331
29
  0
MLINESTYLE
  5
18
102
{ACAD_REACTORS
330
17
102
}
330
17
100
AcDbMlineStyle
  2
Standard
 70
     0
  3

 62
   256
 51
90.0
 52
90.0
 71
     2
 49
0.5
 62
   256
  6
BYLAYER
 49
-0.5
 62
   256
  6
BYLAYER
  0
ACDBPLACEHOLDER
  5
F
102
{ACAD_REACTORS
330
E
102
}
330
E
  0
SCALE
  5
4D
102
{ACAD_REACTORS
330
4C
102
}
330
4C
100
AcDbScale
 70
     0
300
1:1
140
1.0
141
1.0
290
     1
  0
SCALE
  5
4E
102
{ACAD_REACTORS
330
4C
102
}
330
4C
100
AcDbScale
 70
     0
300
1:2
140
1.0
141
2.0
290
     0
  0
SCALE
  5
4F
102
{ACAD_REACTORS
330
4C
102
}
330
4C
100
AcDbScale
 70
     0
300
1:4
140
1.0
141
4.0
290
     0
  0
SCALE
  5
50
102
{ACAD_REACTORS
330
4C
102
}
330
4C
100
AcDbScale
 70
     0
300
1:5
140
1.0
141
5.0
290
     0
  0
SCALE
  5
51
102
{ACAD_REACTORS
330
4C
102
}
330
4C
100
AcDbScale
 70
     0
300
1:8
140
1.0
141
8.0
290
     0
  0
SCALE
  5
52
102
{ACAD_REACTORS
330
4C
102
}
330
4C
100
AcDbScale
 70
     0
300
1:10
140
1.0
141
10.0
290
     0
  0
SCALE
  5
53
102
{ACAD_REACTORS
330
4C
102
}
330
4C
100
AcDbScale
 70
     0
300
1:16
140
1.0
141
16.0
290
     0
  0
SCALE
  5
54
102
{ACAD_REACTORS
330
4C
102
}
330
4C
100
AcDbScale
 70
     0
300
1:20
140
1.0
141
20.0
290
     0
  0
SCALE
  5
55
102
{ACAD_REACTORS
330
4C
102
}
330
4C
100
AcDbScale
 70
     0
300
1:30
140
1.0
141
30.0
290
     0
  0
SCALE
  5
56
102
{ACAD_REACTORS
330
4C
102
}
330
4C
100
AcDbScale
 70
     0
300
1:40
140
1.0
141
40.0
290
     0
  0
SCALE
  5
57
102
{ACAD_REACTORS
330
4C
102
}
330
4C
100
AcDbScale
 70
     0
300
1:50
140
1.0
141
50.0
290
     0
  0
SCALE
  5
58
102
{ACAD_REACTORS
330
4C
102
}
330
4C
100
AcDbScale
 70
     0
300
1:100
140
1.0
141
100.0
290
     0
  0
SCALE
  5
59
102
{ACAD_REACTORS
330
4C
102
}
330
4C
100
AcDbScale
 70
     0
300
2:1
140
2.0
141
1.0
290
     0
  0
SCALE
  5
5A
102
{ACAD_REACTORS
330
4C
102
}
330
4C
100
AcDbScale
 70
     0
300
4:1
140
4.0
141
1.0
290
     0
  0
SCALE
  5
5B
102
{ACAD_REACTORS
330
4C
102
}
330
4C
100
AcDbScale
 70
     0
300
8:1
140
8.0
141
1.0
290
     0
  0
SCALE
  5
5C
102
{ACAD_REACTORS
330
4C
102
}
330
4C
100
AcDbScale
 70
     0
300
10:1
140
10.0
141
1.0
290
     0
  0
SCALE
  5
5D
102
{ACAD_REACTORS
330
4C
102
}
330
4C
100
AcDbScale
 70
     0
300
100:1
140
100.0
141
1.0
290
     0
  0
SCALE
  5
5E
102
{ACAD_REACTORS
330
4C
102
}
330
4C
100
AcDbScale
 70
     0
300
1/128" = 1'-0"
140
0.0078125
141
12.0
290
     0
  0
SCALE
  5
5F
102
{ACAD_REACTORS
330
4C
102
}
330
4C
100
AcDbScale
 70
     0
300
1/64" = 1'-0"
140
0.015625
141
12.0
290
     0
  0
SCALE
  5
60
102
{ACAD_REACTORS
330
4C
102
}
330
4C
100
AcDbScale
 70
     0
300
1/32" = 1'-0"
140
0.03125
141
12.0
290
     0
  0
SCALE
  5
61
102
{ACAD_REACTORS
330
4C
102
}
330
4C
100
AcDbScale
 70
     0
300
1/16" = 1'-0"
140
0.0625
141
12.0
290
     0
  0
SCALE
  5
62
102
{ACAD_REACTORS
330
4C
102
}
330
4C
100
AcDbScale
 70
     0
300
3/32" = 1'-0"
140
0.09375
141
12.0
290
     0
  0
SCALE
  5
63
102
{ACAD_REACTORS
330
4C
102
}
330
4C
100
AcDbScale
 70
     0
300
1/8" = 1'-0"
140
0.125
141
12.0
290
     0
  0
SCALE
  5
64
102
{ACAD_REACTORS
330
4C
102
}
330
4C
100
AcDbScale
 70
     0
300
3/16" = 1'-0"
140
0.1875
141
12.0
290
     0
  0
SCALE
  5
65
102
{ACAD_REACTORS
330
4C
102
}
330
4C
100
AcDbScale
 70
     0
300
1/4" = 1'-0"
140
0.25
141
12.0
290
     0
  0
SCALE
  5
66
102
{ACAD_REACTORS
330
4C
102
}
330
4C
100
AcDbScale
 70
     0
300
3/8" = 1'-0"
140
0.375
141
12.0
290
     0
  0
SCALE
  5
67
102
{ACAD_REACTORS
330
4C
102
}
330
4C
100
AcDbScale
 70
     0
300
1/2" = 1'-0"
140
0.5
141
12.0
290
     0
  0
SCALE
  5
68
102
{ACAD_REACTORS
330
4C
102
}
330
4C
100
AcDbScale
 70
     0
300
3/4" = 1'-0"
140
0.75
141
12.0
290
     0
  0
SCALE
  5
69
102
{ACAD_REACTORS
330
4C
102
}
330
4C
100
AcDbScale
 70
     0
300
1" = 1'-0"
140
1.0
141
12.0
290
     0
  0
SCALE
  5
6A
102
{ACAD_REACTORS
330
4C
102
}
330
4C
100
AcDbScale
 70
     0
300
1-1/2" = 1'-0"
140
1.5
141
12.0
290
     0
  0
SCALE
  5
6B
102
{ACAD_REACTORS
330
4C
102
}
330
4C
100
AcDbScale
 70
     0
300
3" = 1'-0"
140
3.0
141
12.0
290
     0
  0
SCALE
  5
6C
102
{ACAD_REACTORS
330
4C
102
}
330
4C
100
AcDbScale
 70
     0
300
6" = 1'-0"
140
6.0
141
12.0
290
     0
  0
SCALE
  5
6D
102
{ACAD_REACTORS
330
4C
102
}
330
4C
100
AcDbScale
 70
     0
300
1'-0" = 1'-0"
140
12.0
141
12.0
290
     0
  0
VISUALSTYLE
  5
2F
102
{ACAD_REACTORS
330
2A
102
}
330
2A
100
AcDbVisualStyle
  2
2dWireframe
 70
     4
 71
     0
 72
     2
 73
     0
 90
        0
 40
-0.6
 41
-30.0
 62
     5
 63
     7
 74
     1
 91
        4
 64
     7
 65
   257
 75
     1
175
     1
 42
1.0
 92
        0
 66
   257
 43
1.0
 76
     1
 77
     6
 78
     2
 67
     7
 79
     5
170
     0
171
     0
290
     0
174
     0
 93
        1
 44
0.0
173
     0
291
     0
 45
0.0
1001
ACAD
1000
AcDbSavedByObjectVersion
1070
     0
  0
VISUALSTYLE
  5
31
102
{ACAD_REACTORS
330
2A
102
}
330
2A
100
AcDbVisualStyle
  2
3D Hidden
 70
     6
 71
     1
 72
     2
 73
     2
 90
        0
 40
-0.6
 41
-30.0
 62
     5
 63
     7
 74
     2
 91
        2
 64
     7
 65
   257
 75
     2
175
     1
 42
40.0
 92
        0
 66
   257
 43
1.0
 76
     1
 77
     6
 78
     2
 67
     7
 79
     3
170
     0
171
     0
290
     0
174
     0
 93
        1
 44
0.0
173
     0
291
     0
 45
0.0
1001
ACAD
1000
AcDbSavedByObjectVersion
1070
     0
  0
VISUALSTYLE
  5
30
102
{ACAD_REACTORS
330
2A
102
}
330
2A
100
AcDbVisualStyle
  2
3dWireframe
 70
     5
 71
     0
 72
     2
 73
     0
 90
        0
 40
-0.6
 41
-30.0
 62
     5
 63
     7
 74
     1
 91
        4
 64
     7
 65
   257
 75
     1
175
     1
 42
1.0
 92
        0
 66
   257
 43
1.0
 76
     1
 77
     6
 78
     2
 67
     7
 79
     5
170
     0
171
     0
290
     0
174
     0
 93
        1
 44
0.0
173
     0
291
     0
 45
0.0
1001
ACAD
1000
AcDbSavedByObjectVersion
1070
     0
  0
VISUALSTYLE
  5
32
102
{ACAD_REACTORS
330
2A
102
}
330
2A
100
AcDbVisualStyle
  2
Basic
 70
     7
 71
     1
 72
     0
 73
     1
 90
        0
 40
-0.6
 41
-30.0
 62
     5
 63
     7
 74
     0
 91
        4
 64
     7
 65
   257
 75
     1
175
     1
 42
1.0
 92
        8
 66
     7
 43
1.0
 76
     1
 77
     6
 78
     2
 67
     7
 79
     5
170
     0
171
     0
290
     0
174
     0
 93
        1
 44
0.0
173
     0
291
     1
 45
0.0
1001
ACAD
1000
AcDbSavedByObjectVersion
1070
     0
  0
VISUALSTYLE
  5
36
102
{ACAD_REACTORS
330
2A
102
}
330
2A
100
AcDbVisualStyle
  2
Brighten
 70
    12
 71
     2
 72
     2
 73
     0
 90
        0
 40
-0.6
 41
-30.0
 62
     5
 63
     7
 74
     1
 91
        4
 64
     7
 65
   257
 75
     1
175
     1
 42
1.0
 92
        8
 66
     7
 43
1.0
 76
     1
 77
     6
 78
     2
 67
     7
 79
     5
170
     0
171
     0
290
     0
174
     0
 93
        1
 44
50.0
173
     0
291
     1
 45
0.0
1001
ACAD
1000
AcDbSavedByObjectVersion
1070
     0
  0
VISUALSTYLE
  5
3A
102
{ACAD_REACTORS
330
2A
102
}
330
2A
100
AcDbVisualStyle
  2
ColorChange
 70
    16
 71
     2
 72
     2
 73
     3
 90
        0
 40
-0.6
 41
-30.0
 62
     5
 63
     8
 74
     1
 91
        4
 64
     7
 65
   257
 75
     1
175
     1
 42
1.0
 92
        8
 66
     8
 43
1.0
 76
     1
 77
     6
 78
     2
 67
     7
 79
     5
170
     0
171
     0
290
     0
174
     0
 93
        1
 44
0.0
173
     0
291
     1
 45
0.0
1001
ACAD
1000
AcDbSavedByObjectVersion
1070
     0
  0
VISUALSTYLE
  5
34
102
{ACAD_REACTORS
330
2A
102
}
330
2A
100
AcDbVisualStyle
  2
Conceptual
 70
     9
 71
     3
 72
     2
 73
     0
 90
        0
 40
-0.6
 41
-30.0
 62
     5
 63
     7
 74
     2
 91
        2
 64
     7
 65
   257
 75
     1
175
     1
 42
40.0
 92
        8
 66
     7
 43
1.0
 76
     1
 77
     6
 78
     2
 67
     7
 79
     3
170
     0
171
     0
290
     0
174
     0
 93
        1
 44
0.0
173
     0
291
     0
 45
0.0
1001
ACAD
1000
AcDbSavedByObjectVersion
1070
     0
  0
VISUALSTYLE
  5
35
102
{ACAD_REACTORS
330
2A
102
}
330
2A
100
AcDbVisualStyle
  2
Dim
 70
    11
 71
     2
 72
     2
 73
     0
 90
        0
 40
-0.6
 41
-30.0
 62
     5
 63
     7
 74
     1
 91
        4
 64
     7
 65
   257
 75
     1
175
     1
 42
1.0
 92
        8
 66
     7
 43
1.0
 76
     1
 77
     6
 78
     2
 67
     7
 79
     5
170
     0
171
     0
290
     0
174
     0
 93
        1
 44
-50.0
173
     0
291
     1
 45
0.0
1001
ACAD
1000
AcDbSavedByObjectVersion
1070
     0
  0
VISUALSTYLE
  5
39
102
{ACAD_REACTORS
330
2A
102
}
330
2A
100
AcDbVisualStyle
  2
Facepattern
 70
    15
 71
     2
 72
     2
 73
     0
 90
        0
 40
-0.6
 41
-30.0
 62
     5
 63
     7
 74
     1
 91
        4
 64
     7
 65
   257
 75
     1
175
     1
 42
1.0
 92
        8
 66
     7
 43
1.0
 76
     1
 77
     6
 78
     2
 67
     7
 79
     5
170
     0
171
     0
290
     0
174
     0
 93
        1
 44
0.0
173
     0
291
     1
 45
0.0
1001
ACAD
1000
AcDbSavedByObjectVersion
1070
     0
  0
VISUALSTYLE
  5
2B
102
{ACAD_REACTORS
330
2A
102
}
330
2A
100
AcDbVisualStyle
  2
Flat
 70
     0
 71
     2
 72
     1
 73
     1
 90
        2
 40
-0.6
 41
30.0
 62
     5
 63
     7
 74
     0
 91
        4
 64
     7
 65
   257
 75
     1
175
     1
 42
1.0
 92
        8
 66
     7
 43
1.0
 76
     1
 77
     6
 78
     2
 67
     7
 79
     5
170
     0
171
     0
290
     0
174
     0
 93
       13
 44
0.0
173
     0
291
     1
 45
0.0
1001
ACAD
1000
AcDbSavedByObjectVersion
1070
     0
  0
VISUALSTYLE
  5
2C
102
{ACAD_REACTORS
330
2A
102
}
330
2A
100
AcDbVisualStyle
  2
FlatWithEdges
 70
     1
 71
     2
 72
     1
 73
     1
 90
        2
 40
-0.6
 41
30.0
 62
     5
 63
     7
 74
     1
 91
        4
 64
     7
 65
   257
 75
     1
175
     1
 42
1.0
 92
        0
 66
   257
 43
1.0
 76
     1
 77
     6
 78
     2
 67
     7
 79
     5
170
     0
171
     0
290
     0
174
     0
 93
       13
 44
0.0
173
     0
291
     1
 45
0.0
1001
ACAD
1000
AcDbSavedByObjectVersion
1070
     0
  0
VISUALSTYLE
  5
2D
102
{ACAD_REACTORS
330
2A
102
}
330
2A
100
AcDbVisualStyle
  2
Gouraud
 70
     2
 71
     2
 72
     2
 73
     1
 90
        2
 40
-0.6
 41
30.0
 62
     5
 63
     7
 74
     0
 91
        4
 64
     7
 65
   257
 75
     1
175
     1
 42
1.0
 92
        0
 66
     7
 43
1.0
 76
     1
 77
     6
 78
     2
 67
     7
 79
     5
170
     0
171
     0
290
     0
174
     0
 93
       13
 44
0.0
173
     0
291
     1
 45
0.0
1001
ACAD
1000
AcDbSavedByObjectVersion
1070
     0
  0
VISUALSTYLE
  5
2E
102
{ACAD_REACTORS
330
2A
102
}
330
2A
100
AcDbVisualStyle
  2
GouraudWithEdges
 70
     3
 71
     2
 72
     2
 73
     1
 90
        2
 40
-0.6
 41
30.0
 62
     5
 63
     7
 74
     1
 91
        4
 64
     7
 65
   257
 75
     1
175
     1
 42
1.0
 92
        0
 66
   257
 43
1.0
 76
     1
 77
     6
 78
     2
 67
     7
 79
     5
170
     0
171
     0
290
     0
174
     0
 93
       13
 44
0.0
173
     0
291
     1
 45
0.0
1001
ACAD
1000
AcDbSavedByObjectVersion
1070
     0
  0
VISUALSTYLE
  5
38
102
{ACAD_REACTORS
330
2A
102
}
330
2A
100
AcDbVisualStyle
  2
Linepattern
 70
    14
 71
     2
 72
     2
 73
     0
 90
        0
 40
-0.6
 41
-30.0
 62
     5
 63
     7
 74
     1
 91
        4
 64
     7
 65
   257
 75
     7
175
     7
 42
1.0
 92
        8
 66
     7
 43
1.0
 76
     1
 77
     6
 78
     2
 67
     7
 79
     5
170
     0
171
     0
290
     0
174
     0
 93
        1
 44
0.0
173
     0
291
     1
 45
0.0
1001
ACAD
1000
AcDbSavedByObjectVersion
1070
     0
  0
VISUALSTYLE
  5
33
102
{ACAD_REACTORS
330
2A
102
}
330
2A
100
AcDbVisualStyle
  2
Realistic
 70
     8
 71
     2
 72
     2
 73
     0
 90
        0
 40
-0.6
 41
-30.0
 62
     5
 63
     7
 74
     1
 91
        0
 64
     7
 65
   257
 75
     1
175
     1
 42
1.0
 92
        8
 66
     8
 43
1.0
 76
     1
 77
     6
 78
     2
 67
     7
 79
     5
170
     0
171
     0
290
     0
174
     0
 93
       13
 44
0.0
173
     0
291
     0
 45
0.0
1001
ACAD
1000
AcDbSavedByObjectVersion
1070
     0
  0
VISUALSTYLE
  5
37
102
{ACAD_REACTORS
330
2A
102
}
330
2A
100
AcDbVisualStyle
  2
Thicken
 70
    13
 71
     2
 72
     2
 73
     0
 90
        0
 40
-0.6
 41
-30.0
 62
     5
 63
     7
 74
     1
 91
        4
 64
     7
 65
   257
 75
     1
175
     1
 42
1.0
 92
       12
 66
     7
 43
1.0
 76
     1
 77
     6
 78
     2
 67
     7
 79
     5
170
     0
171
     0
290
     0
174
     0
 93
        1
 44
0.0
173
     0
291
     1
 45
0.0
1001
ACAD
1000
AcDbSavedByObjectVersion
1070
     0
  0
DICTIONARYVAR
  5
165
102
{ACAD_REACTORS
330
162
102
}
330
162
100
DictionaryVariables
280
     0
  1
1:1
  0
ENDSEC
  0
EOF
