  0
SECTION
  2
HEADER
  9
$ACADVER
  1
AC1015
  9
$ACADMAINTVER
 70
     6
  9
$DWGCODEPAGE
  3
ANSI_1252
  9
$INSBASE
 10
0.0
 20
0.0
 30
0.0
  9
$EXTMIN
 10
72.7612908505324
 20
258.7645070557678
 30
0.0
  9
$EXTMAX
 10
190.701474814768
 20
367.533893973074
 30
0.0
  9
$LIMMIN
 10
0.0
 20
0.0
  9
$LIMMAX
 10
12.0
 20
9.0
  9
$ORTHOMODE
 70
     0
  9
$REGENMODE
 70
     1
  9
$FILLMODE
 70
     1
  9
$QTEXTMODE
 70
     0
  9
$MIRRTEXT
 70
     1
  9
$LTSCALE
 40
1.0
  9
$ATTMODE
 70
     1
  9
$TEXTSIZE
 40
0.2
  9
$TRACEWID
 40
0.05
  9
$TEXTSTYLE
  7
Standard
  9
$CLAYER
  8
0
  9
$CELTYPE
  6
ByLayer
  9
$CECOLOR
 62
   256
  9
$CELTSCALE
 40
1.0
  9
$DISPSILH
 70
     0
  9
$DIMSCALE
 40
1.0
  9
$DIMASZ
 40
0.18
  9
$DIMEXO
 40
0.0625
  9
$DIMDLI
 40
0.38
  9
$DIMRND
 40
0.0
  9
$DIMDLE
 40
0.0
  9
$DIMEXE
 40
0.18
  9
$DIMTP
 40
0.0
  9
$DIMTM
 40
0.0
  9
$DIMTXT
 40
0.18
  9
$DIMCEN
 40
0.09
  9
$DIMTSZ
 40
0.0
  9
$DIMTOL
 70
     0
  9
$DIMLIM
 70
     0
  9
$DIMTIH
 70
     1
  9
$DIMTOH
 70
     1
  9
$DIMSE1
 70
     0
  9
$DIMSE2
 70
     0
  9
$DIMTAD
 70
     0
  9
$DIMZIN
 70
     0
  9
$DIMBLK
  1

  9
$DIMASO
 70
     1
  9
$DIMSHO
 70
     1
  9
$DIMPOST
  1

  9
$DIMAPOST
  1

  9
$DIMALT
 70
     0
  9
$DIMALTD
 70
     2
  9
$DIMALTF
 40
25.4
  9
$DIMLFAC
 40
1.0
  9
$DIMTOFL
 70
     0
  9
$DIMTVP
 40
0.0
  9
$DIMTIX
 70
     0
  9
$DIMSOXD
 70
     0
  9
$DIMSAH
 70
     0
  9
$DIMBLK1
  1

  9
$DIMBLK2
  1

  9
$DIMSTYLE
  2
Standard
  9
$DIMCLRD
 70
     0
  9
$DIMCLRE
 70
     0
  9
$DIMCLRT
 70
     0
  9
$DIMTFAC
 40
1.0
  9
$DIMGAP
 40
0.09
  9
$DIMJUST
 70
     0
  9
$DIMSD1
 70
     0
  9
$DIMSD2
 70
     0
  9
$DIMTOLJ
 70
     1
  9
$DIMTZIN
 70
     0
  9
$DIMALTZ
 70
     0
  9
$DIMALTTZ
 70
     0
  9
$DIMUPT
 70
     0
  9
$DIMDEC
 70
     4
  9
$DIMTDEC
 70
     4
  9
$DIMALTU
 70
     2
  9
$DIMALTTD
 70
     2
  9
$DIMTXSTY
  7
Standard
  9
$DIMAUNIT
 70
     0
  9
$DIMADEC
 70
     0
  9
$DIMALTRND
 40
0.0
  9
$DIMAZIN
 70
     0
  9
$DIMDSEP
 70
    46
  9
$DIMATFIT
 70
     3
  9
$DIMFRAC
 70
     0
  9
$DIMLDRBLK
  1

  9
$DIMLUNIT
 70
     2
  9
$DIMLWD
 70
    -2
  9
$DIMLWE
 70
    -2
  9
$DIMTMOVE
 70
     0
  9
$LUNITS
 70
     2
  9
$LUPREC
 70
     4
  9
$SKETCHINC
 40
0.1
  9
$FILLETRAD
 40
0.5
  9
$AUNITS
 70
     0
  9
$AUPREC
 70
     0
  9
$MENU
  1
.
  9
$ELEVATION
 40
0.0
  9
$PELEVATION
 40
0.0
  9
$THICKNESS
 40
0.0
  9
$LIMCHECK
 70
     0
  9
$CHAMFERA
 40
0.5
  9
$CHAMFERB
 40
0.5
  9
$CHAMFERC
 40
1.0
  9
$CHAMFERD
 40
0.0
  9
$SKPOLY
 70
     0
  9
$TDCREATE
 40
2456672.709186771
  9
$TDUCREATE
 40
2456672.667520104
  9
$TDUPDATE
 40
2456672.709186783
  9
$TDUUPDATE
 40
2456672.667520116
  9
$TDINDWG
 40
0.0000000116
  9
$TDUSRTIMER
 40
0.0000000116
  9
$USRTIMER
 70
     1
  9
$ANGBASE
 50
0.0
  9
$ANGDIR
 70
     0
  9
$PDMODE
 70
     0
  9
$PDSIZE
 40
0.0
  9
$PLINEWID
 40
0.0
  9
$SPLFRAME
 70
     0
  9
$SPLINETYPE
 70
     6
  9
$SPLINESEGS
 70
     8
  9
$HANDSEED
  5
160
  9
$SURFTAB1
 70
     6
  9
$SURFTAB2
 70
     6
  9
$SURFTYPE
 70
     6
  9
$SURFU
 70
     6
  9
$SURFV
 70
     6
  9
$UCSBASE
  2

  9
$UCSNAME
  2

  9
$UCSORG
 10
0.0
 20
0.0
 30
0.0
  9
$UCSXDIR
 10
1.0
 20
0.0
 30
0.0
  9
$UCSYDIR
 10
0.0
 20
1.0
 30
0.0
  9
$UCSORTHOREF
  2

  9
$UCSORTHOVIEW
 70
     0
  9
$UCSORGTOP
 10
0.0
 20
0.0
 30
0.0
  9
$UCSORGBOTTOM
 10
0.0
 20
0.0
 30
0.0
  9
$UCSORGLEFT
 10
0.0
 20
0.0
 30
0.0
  9
$UCSORGRIGHT
 10
0.0
 20
0.0
 30
0.0
  9
$UCSORGFRONT
 10
0.0
 20
0.0
 30
0.0
  9
$UCSORGBACK
 10
0.0
 20
0.0
 30
0.0
  9
$PUCSBASE
  2

  9
$PUCSNAME
  2

  9
$PUCSORG
 10
0.0
 20
0.0
 30
0.0
  9
$PUCSXDIR
 10
1.0
 20
0.0
 30
0.0
  9
$PUCSYDIR
 10
0.0
 20
1.0
 30
0.0
  9
$PUCSORTHOREF
  2

  9
$PUCSORTHOVIEW
 70
     0
  9
$PUCSORGTOP
 10
0.0
 20
0.0
 30
0.0
  9
$PUCSORGBOTTOM
 10
0.0
 20
0.0
 30
0.0
  9
$PUCSORGLEFT
 10
0.0
 20
0.0
 30
0.0
  9
$PUCSORGRIGHT
 10
0.0
 20
0.0
 30
0.0
  9
$PUCSORGFRONT
 10
0.0
 20
0.0
 30
0.0
  9
$PUCSORGBACK
 10
0.0
 20
0.0
 30
0.0
  9
$USERI1
 70
     0
  9
$USERI2
 70
     0
  9
$USERI3
 70
     0
  9
$USERI4
 70
     0
  9
$USERI5
 70
     0
  9
$USERR1
 40
16.5
  9
$USERR2
 40
0.0
  9
$USERR3
 40
0.0
  9
$USERR4
 40
0.0
  9
$USERR5
 40
0.0
  9
$WORLDVIEW
 70
     1
  9
$SHADEDGE
 70
     3
  9
$SHADEDIF
 70
    70
  9
$TILEMODE
 70
     1
  9
$MAXACTVP
 70
    64
  9
$PINSBASE
 10
0.0
 20
0.0
 30
0.0
  9
$PLIMCHECK
 70
     0
  9
$PEXTMIN
 10
1.00000000000000E+20
 20
1.00000000000000E+20
 30
1.00000000000000E+20
  9
$PEXTMAX
 10
-1.00000000000000E+20
 20
-1.00000000000000E+20
 30
-1.00000000000000E+20
  9
$PLIMMIN
 10
0.0
 20
0.0
  9
$PLIMMAX
 10
12.0
 20
9.0
  9
$UNITMODE
 70
     0
  9
$VISRETAIN
 70
     1
  9
$PLINEGEN
 70
     0
  9
$PSLTSCALE
 70
     1
  9
$TREEDEPTH
 70
  3020
  9
$CMLSTYLE
  2
Standard
  9
$CMLJUST
 70
     0
  9
$CMLSCALE
 40
1.0
  9
$PROXYGRAPHICS
 70
     1
  9
$MEASUREMENT
 70
     1
  9
$CELWEIGHT
370
    -1
  9
$ENDCAPS
280
     0
  9
$JOINSTYLE
280
     0
  9
$LWDISPLAY
290
     0
  9
$INSUNITS
 70
     1
  9
$HYPERLINKBASE
  1

  9
$STYLESHEET
  1

  9
$XEDIT
290
     1
  9
$CEPSNTYPE
380
     0
  9
$PSTYLEMODE
290
     1
  9
$FINGERPRINTGUID
  2
{6DC1E28F-CA42-4D99-AA8C-130D10C8D50D}
  9
$VERSIONGUID
  2
{FAEB1C32-E019-11D5-929B-00C0DF256EC4}
  9
$EXTNAMES
290
     1
  9
$PSVPSCALE
 40
0.0
  9
$OLESTARTUP
290
     0
  0
ENDSEC
  0
SECTION
  2
CLASSES
  0
CLASS
  1
ACDBDICTIONARYWDFLT
  2
AcDbDictionaryWithDefault
  3
ObjectDBX Classes
 90
        0
280
     0
281
     0
  0
CLASS
  1
VISUALSTYLE
  2
AcDbVisualStyle
  3
ObjectDBX Classes
 90
     4095
280
     0
281
     0
  0
CLASS
  1
SCALE
  2
AcDbScale
  3
ObjectDBX Classes
 90
     1153
280
     0
281
     0
  0
CLASS
  1

  2
exOdDbPolyline
  3

 90
        0
280
     0
281
     1
  0
CLASS
  1

  2
exOdDbCircle
  3

 90
        0
280
     0
281
     1
  0
CLASS
  1

  2
exOdDbSpline
  3

 90
        0
280
     0
281
     1
  0
CLASS
  1
DICTIONARYVAR
  2
AcDbDictionaryVar
  3
ObjectDBX Classes
 90
        0
280
     0
281
     0
  0
CLASS
  1
ACDBPLACEHOLDER
  2
AcDbPlaceHolder
  3
ObjectDBX Classes
 90
        0
280
     0
281
     0
  0
CLASS
  1
LAYOUT
  2
AcDbLayout
  3
ObjectDBX Classes
 90
        0
280
     0
281
     0
  0
ENDSEC
  0
SECTION
  2
TABLES
  0
TABLE
  2
VPORT
  5
8
330
0
100
AcDbSymbolTable
 70
     1
  0
VPORT
  5
29
330
8
100
AcDbSymbolTableRecord
100
AcDbViewportTableRecord
  2
*Active
 70
     0
 10
0.0
 20
0.0
 11
1.0
 21
1.0
 12
131.7313828326502
 22
313.1492005144209
 13
0.0
 23
0.0
 14
0.5
 24
0.5
 15
0.5
 25
0.5
 16
0.0
 26
0.0
 36
1.0
 17
0.0
 27
0.0
 37
0.0
 40
119.6463256090368
 41
1.60267857142857
 42
50.0
 43
0.0
 44
0.0
 50
0.0
 51
0.0
 71
     0
 72
   100
 73
     1
 74
     3
 75
     0
 76
     0
 77
     0
 78
     0
281
     0
 65
     1
110
0.0
120
0.0
130
0.0
111
1.0
121
0.0
131
0.0
112
0.0
122
1.0
132
0.0
 79
     0
146
0.0
  0
ENDTAB
  0
TABLE
  2
LTYPE
  5
5
330
0
100
AcDbSymbolTable
 70
     9
  0
LTYPE
  5
14
330
5
100
AcDbSymbolTableRecord
100
AcDbLinetypeTableRecord
  2
ByBlock
 70
     0
  3

 72
    65
 73
     0
 40
0.0
  0
LTYPE
  5
15
330
5
100
AcDbSymbolTableRecord
100
AcDbLinetypeTableRecord
  2
ByLayer
 70
     0
  3

 72
    65
 73
     0
 40
0.0
  0
LTYPE
  5
16
330
5
100
AcDbSymbolTableRecord
100
AcDbLinetypeTableRecord
  2
Continuous
 70
     0
  3
Solid line
 72
    65
 73
     0
 40
0.0
  0
LTYPE
  5
3B
330
5
100
AcDbSymbolTableRecord
100
AcDbLinetypeTableRecord
  2
DASHED
 70
     0
  3
Dashed
 72
    65
 73
     2
 40
15.0
 49
7.0
 74
     0
 49
-8.0
 74
     0
  0
LTYPE
  5
3C
330
5
100
AcDbSymbolTableRecord
100
AcDbLinetypeTableRecord
  2
DOTTED
 70
     0
  3
Dotted
 72
    65
 73
     2
 40
1.0
 49
0.0
 74
     0
 49
-1.0
 74
     0
  0
LTYPE
  5
3D
330
5
100
AcDbSymbolTableRecord
100
AcDbLinetypeTableRecord
  2
DOT_CENTER
 70
     0
  3
Dot_Center
 72
    65
 73
     4
 40
14.0
 49
12.0
 74
     0
 49
-1.0
 74
     0
 49
0.0
 74
     0
 49
-1.0
 74
     0
  0
LTYPE
  5
3E
330
5
100
AcDbSymbolTableRecord
100
AcDbLinetypeTableRecord
  2
LONG_DASHED
 70
     0
  3
Long_Dashed
 72
    65
 73
     2
 40
15.0
 49
10.0
 74
     0
 49
-5.0
 74
     0
  0
LTYPE
  5
3F
330
5
100
AcDbSymbolTableRecord
100
AcDbLinetypeTableRecord
  2
DASH_CENTER
 70
     0
  3
Dash_Center
 72
    65
 73
     4
 40
14.0
 49
11.0
 74
     0
 49
-1.0
 74
     0
 49
1.0
 74
     0
 49
-1.0
 74
     0
  0
LTYPE
  5
40
330
5
100
AcDbSymbolTableRecord
100
AcDbLinetypeTableRecord
  2
PHANTOM
 70
     0
  3
Phantom
 72
    65
 73
     6
 40
13.0
 49
10.0
 74
     0
 49
-1.0
 74
     0
 49
0.0
 74
     0
 49
-1.0
 74
     0
 49
0.0
 74
     0
 49
-1.0
 74
     0
  0
LTYPE
  5
41
330
5
100
AcDbSymbolTableRecord
100
AcDbLinetypeTableRecord
  2
CENTER_DASH_DASH
 70
     0
  3
Center_Dash_Dash
 72
    65
 73
     6
 40
14.0
 49
9.0
 74
     0
 49
-1.0
 74
     0
 49
1.0
 74
     0
 49
-1.0
 74
     0
 49
1.0
 74
     0
 49
-1.0
 74
     0
  0
LTYPE
  5
42
330
5
100
AcDbSymbolTableRecord
100
AcDbLinetypeTableRecord
  2
HIDDEN
 70
     0
  3
HIDDEN
 72
    65
 73
     2
 40
4.0
 49
2.0
 74
     0
 49
-2.0
 74
     0
  0
ENDTAB
  0
TABLE
  2
LAYER
  5
2
330
0
100
AcDbSymbolTable
 70
     7
  0
LAYER
  5
10
330
2
100
AcDbSymbolTableRecord
100
AcDbLayerTableRecord
  2
0
 70
     0
 62
     7
  6
Continuous
370
    -3
390
F
  0
LAYER
  5
43
330
2
100
AcDbSymbolTableRecord
100
AcDbLayerTableRecord
  2
1
 70
     0
 62
     7
  6
Continuous
370
    -3
390
F
  0
LAYER
  5
44
330
2
100
AcDbSymbolTableRecord
100
AcDbLayerTableRecord
  2
BEZUGSACHSEN
 70
     0
 62
     7
  6
Continuous
370
    -3
390
F
  0
LAYER
  5
45
330
2
100
AcDbSymbolTableRecord
100
AcDbLayerTableRecord
  2
DEFAULT_2
 70
     0
 62
     7
  6
Continuous
370
    -3
390
F
  0
LAYER
  5
46
330
2
100
AcDbSymbolTableRecord
100
AcDbLayerTableRecord
  2
FASEN
 70
     0
 62
     7
  6
Continuous
370
    -3
390
F
  0
LAYER
  5
47
330
2
100
AcDbSymbolTableRecord
100
AcDbLayerTableRecord
  2
RUNDUNGEN
 70
     0
 62
     7
  6
Continuous
370
    -3
390
F
  0
LAYER
  5
48
330
2
100
AcDbSymbolTableRecord
100
AcDbLayerTableRecord
  2
TEIL_STARTBEZUEGE
 70
     0
 62
     7
  6
Continuous
370
    -3
390
F
  0
ENDTAB
  0
TABLE
  2
STYLE
  5
3
330
0
100
AcDbSymbolTable
 70
     2
  0
STYLE
  5
11
330
3
100
AcDbSymbolTableRecord
100
AcDbTextStyleTableRecord
  2
Standard
 70
     0
 40
0.0
 41
1.0
 50
0.0
 71
     0
 42
0.2
  3
txt
  4

  0
STYLE
  5
6F
330
3
100
AcDbSymbolTableRecord
100
AcDbTextStyleTableRecord
  2
CONVERTER_11
 70
     0
 40
0.0
 41
0.72
 50
0.0
 71
     0
 42
0.2
  3
txt.shx
  4

  0
ENDTAB
  0
TABLE
  2
VIEW
  5
6
330
0
100
AcDbSymbolTable
 70
     0
  0
ENDTAB
  0
TABLE
  2
UCS
  5
7
330
0
100
AcDbSymbolTable
 70
     0
  0
ENDTAB
  0
TABLE
  2
APPID
  5
9
330
0
100
AcDbSymbolTable
 70
     1
  0
APPID
  5
12
330
9
100
AcDbSymbolTableRecord
100
AcDbRegAppTableRecord
  2
ACAD
 70
     0
  0
ENDTAB
  0
TABLE
  2
DIMSTYLE
  5
A
330
0
100
AcDbSymbolTable
 70
     6
100
AcDbDimStyleTable
  0
DIMSTYLE
105
27
330
A
100
AcDbSymbolTableRecord
100
AcDbDimStyleTableRecord
  2
Standard
 70
     0
340
11
  0
DIMSTYLE
105
127
102
{ACAD_REACTORS
330
128
102
}
330
A
100
AcDbSymbolTableRecord
100
AcDbDimStyleTableRecord
  2
ME10_DIM_10
 70
     0
  3
\U+2300<>
 41
3.5
 42
2.0
 44
2.0
 71
     1
 73
     0
 74
     0
 77
     1
 78
     8
140
3.5
146
0.7
147
2.0
172
     1
173
     1
176
     2
177
     2
178
     3
271
     2
272
     0
340
6F
  0
DIMSTYLE
105
132
102
{ACAD_REACTORS
330
133
102
}
330
A
100
AcDbSymbolTableRecord
100
AcDbDimStyleTableRecord
  2
ME10_DIM_11
 70
     0
  3
\U+2300<>
 41
3.5
 42
2.0
 44
2.0
 71
     1
 73
     0
 74
     0
 77
     1
 78
     8
140
3.5
146
0.7
147
2.0
172
     1
173
     1
176
     2
177
     2
178
     3
271
     2
272
     0
340
6F
  0
DIMSTYLE
105
13D
102
{ACAD_REACTORS
330
13E
102
}
330
A
100
AcDbSymbolTableRecord
100
AcDbDimStyleTableRecord
  2
ME10_DIM_12
 70
     0
  3
<>
 41
3.5
 42
2.0
 44
2.0
 71
     1
 73
     0
 74
     0
 77
     1
 78
     8
140
3.5
146
0.7
147
2.0
172
     1
173
     1
176
     2
177
     2
178
     3
271
     0
272
     0
340
6F
  0
DIMSTYLE
105
148
102
{ACAD_REACTORS
330
149
102
}
330
A
100
AcDbSymbolTableRecord
100
AcDbDimStyleTableRecord
  2
ME10_DIM_13
 70
     0
  3
<>
 41
3.5
 42
2.0
 44
2.0
 71
     1
 73
     0
 74
     0
 77
     1
 78
     8
140
3.5
146
0.7
147
2.0
172
     1
173
     1
176
     2
177
     2
178
     3
271
     2
272
     0
340
6F
  0
DIMSTYLE
105
153
102
{ACAD_REACTORS
330
154
102
}
330
A
100
AcDbSymbolTableRecord
100
AcDbDimStyleTableRecord
  2
ME10_DIM_14
 70
     0
  3
<>
 41
3.5
 42
2.0
 44
2.0
 71
     1
 73
     0
 74
     0
 77
     1
 78
     8
140
3.5
146
0.7
147
2.0
172
     1
173
     1
176
     2
177
     2
178
     3
271
     0
272
     0
340
6F
  0
ENDTAB
  0
TABLE
  2
BLOCK_RECORD
  5
1
330
0
100
AcDbSymbolTable
 70
     8
  0
BLOCK_RECORD
  5
1F
330
1
100
AcDbSymbolTableRecord
100
AcDbBlockTableRecord
  2
*Model_Space
340
22
  0
BLOCK_RECORD
  5
1B
330
1
100
AcDbSymbolTableRecord
100
AcDbBlockTableRecord
  2
*Paper_Space
340
1E
  0
BLOCK_RECORD
  5
23
330
1
100
AcDbSymbolTableRecord
100
AcDbBlockTableRecord
  2
*Paper_Space0
340
26
  0
BLOCK_RECORD
  5
49
330
1
100
AcDbSymbolTableRecord
100
AcDbBlockTableRecord
  2
Urheberrecht_DE-EN
340
0
102
{BLKREFS
331
6E
102
}
  0
BLOCK_RECORD
  5
11C
330
1
100
AcDbSymbolTableRecord
100
AcDbBlockTableRecord
  2
*D2
340
0
  0
BLOCK_RECORD
  5
129
330
1
100
AcDbSymbolTableRecord
100
AcDbBlockTableRecord
  2
*D3
340
0
  0
BLOCK_RECORD
  5
134
330
1
100
AcDbSymbolTableRecord
100
AcDbBlockTableRecord
  2
*D4
340
0
  0
BLOCK_RECORD
  5
13F
330
1
100
AcDbSymbolTableRecord
100
AcDbBlockTableRecord
  2
*D5
340
0
  0
BLOCK_RECORD
  5
14A
330
1
100
AcDbSymbolTableRecord
100
AcDbBlockTableRecord
  2
*D6
340
0
  0
BLOCK_RECORD
  5
155
330
1
100
AcDbSymbolTableRecord
100
AcDbBlockTableRecord
  2
*D7
340
0
102
{BLKREFS
331
15B
102
}
  0
ENDTAB
  0
ENDSEC
  0
SECTION
  2
BLOCKS
  0
BLOCK
  5
20
330
1F
100
AcDbEntity
  8
0
100
AcDbBlockBegin
  2
*Model_Space
 70
     0
 10
0.0
 20
0.0
 30
0.0
  3
*Model_Space
  1

  0
ENDBLK
  5
21
330
1F
100
AcDbEntity
  8
0
100
AcDbBlockEnd
  0
BLOCK
  5
1C
330
1B
100
AcDbEntity
 67
     1
  8
0
100
AcDbBlockBegin
  2
*Paper_Space
 70
     0
 10
0.0
 20
0.0
 30
0.0
  3
*Paper_Space
  1

  0
ENDBLK
  5
1D
330
1B
100
AcDbEntity
 67
     1
  8
0
100
AcDbBlockEnd
  0
BLOCK
  5
24
330
23
100
AcDbEntity
  8
0
100
AcDbBlockBegin
  2
*Paper_Space0
 70
     0
 10
0.0
 20
0.0
 30
0.0
  3
*Paper_Space0
  1

  0
ENDBLK
  5
25
330
23
100
AcDbEntity
  8
0
100
AcDbBlockEnd
  0
BLOCK
  5
4A
330
49
100
AcDbEntity
  8
0
100
AcDbBlockBegin
  2
Urheberrecht_DE-EN
 70
     0
 10
86.7612908505324
 20
315.053893973074
 30
0.0
  3
Urheberrecht_DE-EN
  1

  0
MTEXT
  5
70
330
49
100
AcDbEntity
  8
1
 62
     1
100
AcDbMText
 10
86.7612908505324
 20
315.053893973074
 30
0.0
 40
2.0
 41
0.0
 71
     7
 72
     1
  1
We own the copyright of this document. It \Pdetermined and may neither be copied or \Pmade accessible to outsiders without our\Ppermission.
  7
CONVERTER_11
 11
0.0
 21
1.0
 31
0.0
 73
     1
 44
0.90036014405762
  0
MTEXT
  5
71
330
49
100
AcDbEntity
  8
1
 62
     1
100
AcDbMText
 10
86.7612908505324
 20
258.7645070557678
 30
0.0
 40
2.0
 41
0.0
 71
     7
 72
     1
  1
F\U+00fcr diese Unterlage behalten wir das Ur-\Pheberrecht. Sie darf nur f\U+00fcr den von uns \Pbestimmten Zweck benutzt und ohne unsere \PZustimmung weder vervielf\U+00e4ltigt noch\PDritten zug\U+00e4nglich gemacht werden.
  7
CONVERTER_11
 11
0.0
 21
1.0
 31
0.0
 73
     1
 44
0.90036014405762
  0
ENDBLK
  5
4B
330
49
100
AcDbEntity
  8
0
100
AcDbBlockEnd
  0
BLOCK
  5
125
330
11C
100
AcDbEntity
  8
0
100
AcDbBlockBegin
  2
*D2
 70
     1
 10
0.0
 20
0.0
 30
0.0
  3
*D2
  1

  0
LINE
  5
11D
330
11C
100
AcDbEntity
  8
1
  6
Continuous
 62
     2
100
AcDbLine
 10
178.566907260467
 20
305.840042756247
 30
0.0
 11
178.566907260467
 21
297.4646995708
 31
0.0
  0
LINE
  5
11E
330
11C
100
AcDbEntity
  8
1
  6
Continuous
 62
     2
100
AcDbLine
 10
178.566907260467
 20
297.4646995708
 30
0.0
 11
178.566907260467
 21
291.4646995708
 31
0.0
  0
LINE
  5
11F
330
11C
100
AcDbEntity
  8
1
  6
Continuous
 62
     2
100
AcDbLine
 10
178.566907260467
 20
291.4646995708
 30
0.0
 11
178.566907260467
 21
284.4646995708
 31
0.0
  0
LINE
  5
120
330
11C
100
AcDbEntity
  8
1
  6
Continuous
 62
     2
100
AcDbLine
 10
171.3762842006
 20
297.4646995708
 30
0.0
 11
180.566907260467
 21
297.4646995708
 31
0.0
  0
LINE
  5
121
330
11C
100
AcDbEntity
  8
1
  6
Continuous
 62
     2
100
AcDbLine
 10
171.3762842006
 20
291.4646995708
 30
0.0
 11
180.566907260467
 21
291.4646995708
 31
0.0
  0
SOLID
  5
122
330
11C
100
AcDbEntity
  8
1
 62
     2
100
AcDbTrace
 10
178.1061235189111
 20
300.9646995708
 30
0.0
 11
179.0276910020229
 21
300.9646995708
 31
0.0
 12
178.566907260467
 22
297.4646995708
 32
0.0
 13
178.566907260467
 23
297.4646995708
 33
0.0
  0
SOLID
  5
123
330
11C
100
AcDbEntity
  8
1
 62
     2
100
AcDbTrace
 10
179.0276910020229
 20
287.9646995708
 30
0.0
 11
178.1061235189111
 21
287.9646995708
 31
0.0
 12
178.566907260467
 22
291.4646995708
 32
0.0
 13
178.566907260467
 23
291.4646995708
 33
0.0
  0
MTEXT
  5
124
330
11C
100
AcDbEntity
  8
1
 62
     3
100
AcDbMText
 10
176.566907260467
 20
295.550042756247
 30
0.0
 40
3.5
 41
0.0
 71
     7
 72
     1
  1
\C3;%%c\C3;\C3;6\C2;\H2.45;\S^ ;\C3;
  7
CONVERTER_11
 11
0.0
 21
1.0
 31
0.0
 73
     1
 44
0.60024009603842
  0
ENDBLK
  5
126
330
11C
100
AcDbEntity
  8
0
100
AcDbBlockEnd
  0
BLOCK
  5
130
330
129
100
AcDbEntity
  8
0
100
AcDbBlockBegin
  2
*D3
 70
     1
 10
0.0
 20
0.0
 30
0.0
  3
*D3
  1

  0
LINE
  5
12A
330
129
100
AcDbEntity
  8
1
  6
Continuous
 62
     2
100
AcDbLine
 10
188.701474814768
 20
306.9646995708
 30
0.0
 11
188.701474814768
 21
281.9646995708
 31
0.0
  0
LINE
  5
12B
330
129
100
AcDbEntity
  8
1
  6
Continuous
 62
     2
100
AcDbLine
 10
160.4320549355
 20
306.9646995708
 30
0.0
 11
190.701474814768
 21
306.9646995708
 31
0.0
  0
LINE
  5
12C
330
129
100
AcDbEntity
  8
1
  6
Continuous
 62
     2
100
AcDbLine
 10
160.4320549355
 20
281.9646995708
 30
0.0
 11
190.701474814768
 21
281.9646995708
 31
0.0
  0
SOLID
  5
12D
330
129
100
AcDbEntity
  8
1
 62
     2
100
AcDbTrace
 10
189.1622585563239
 20
303.4646995708
 30
0.0
 11
188.2406910732121
 21
303.4646995708
 31
0.0
 12
188.701474814768
 22
306.9646995708
 32
0.0
 13
188.701474814768
 23
306.9646995708
 33
0.0
  0
SOLID
  5
12E
330
129
100
AcDbEntity
  8
1
 62
     2
100
AcDbTrace
 10
188.2406910732121
 20
285.4646995708
 30
0.0
 11
189.1622585563239
 21
285.4646995708
 31
0.0
 12
188.701474814768
 22
281.9646995708
 32
0.0
 13
188.701474814768
 23
281.9646995708
 33
0.0
  0
MTEXT
  5
12F
330
129
100
AcDbEntity
  8
1
 62
     3
100
AcDbMText
 10
186.701474814768
 20
286.023013600832
 30
0.0
 40
3.5
 41
0.0
 71
     7
 72
     1
  1
\C3;%%c\C3;\C3;25\C2;\H2.45;\S^ ;\C3;
  7
CONVERTER_11
 11
0.0
 21
1.0
 31
0.0
 73
     1
 44
0.60024009603842
  0
ENDBLK
  5
131
330
129
100
AcDbEntity
  8
0
100
AcDbBlockEnd
  0
BLOCK
  5
13B
330
134
100
AcDbEntity
  8
0
100
AcDbBlockBegin
  2
*D4
 70
     1
 10
0.0
 20
0.0
 30
0.0
  3
*D4
  1

  0
LINE
  5
135
330
134
100
AcDbEntity
  8
1
  6
Continuous
 62
     2
100
AcDbLine
 10
169.3762842006
 20
321.646761939079
 30
0.0
 11
129.3262842006
 21
321.646761939079
 31
0.0
  0
LINE
  5
136
330
134
100
AcDbEntity
  8
1
  6
Continuous
 62
     2
100
AcDbLine
 10
169.3762842006
 20
303.32762931
 30
0.0
 11
169.3762842006
 21
323.646761939079
 31
0.0
  0
LINE
  5
137
330
134
100
AcDbEntity
  8
1
  6
Continuous
 62
     2
100
AcDbLine
 10
129.3262842006
 20
312.4646359356
 30
0.0
 11
129.3262842006
 21
323.646761939079
 31
0.0
  0
SOLID
  5
138
330
134
100
AcDbEntity
  8
1
 62
     2
100
AcDbTrace
 10
165.8762842006
 20
321.1859781975231
 30
0.0
 11
165.8762842006
 21
322.1075456806349
 31
0.0
 12
169.3762842006
 22
321.646761939079
 32
0.0
 13
169.3762842006
 23
321.646761939079
 33
0.0
  0
SOLID
  5
139
330
134
100
AcDbEntity
  8
1
 62
     2
100
AcDbTrace
 10
132.8262842006
 20
322.1075456806349
 30
0.0
 11
132.8262842006
 21
321.1859781975231
 31
0.0
 12
129.3262842006
 22
321.646761939079
 32
0.0
 13
129.3262842006
 23
321.646761939079
 33
0.0
  0
MTEXT
  5
13A
330
134
100
AcDbEntity
  8
1
 62
     3
100
AcDbMText
 10
146.961973889508
 20
323.646761939079
 30
0.0
 40
3.5
 41
0.0
 71
     7
 72
     1
  1
\C3;\C3;\C3;40\C2;\H2.45;\S^ ;\C3;
  7
CONVERTER_11
 11
0.9999999999970619
 21
2.424068405545306E-6
 31
0.0
 73
     1
 44
0.60024009603842
  0
ENDBLK
  5
13C
330
134
100
AcDbEntity
  8
0
100
AcDbBlockEnd
  0
BLOCK
  5
146
330
13F
100
AcDbEntity
  8
0
100
AcDbBlockBegin
  2
*D5
 70
     1
 10
0.0
 20
0.0
 30
0.0
  3
*D5
  1

  0
LINE
  5
140
330
13F
100
AcDbEntity
  8
1
  6
Continuous
 62
     2
100
AcDbLine
 10
169.3762842006
 20
329.60322117778
 30
0.0
 11
109.3762842006
 21
329.60322117778
 31
0.0
  0
LINE
  5
141
330
13F
100
AcDbEntity
  8
1
  6
Continuous
 62
     2
100
AcDbLine
 10
169.3762842006
 20
303.32762931
 30
0.0
 11
169.3762842006
 21
331.60322117778
 31
0.0
  0
LINE
  5
142
330
13F
100
AcDbEntity
  8
1
  6
Continuous
 62
     2
100
AcDbLine
 10
109.3762842006
 20
312.4646995708
 30
0.0
 11
109.3762842006
 21
331.60322117778
 31
0.0
  0
SOLID
  5
143
330
13F
100
AcDbEntity
  8
1
 62
     2
100
AcDbTrace
 10
165.8762842006
 20
329.1424374362241
 30
0.0
 11
165.8762842006
 21
330.0640049193358
 31
0.0
 12
169.3762842006
 22
329.60322117778
 32
0.0
 13
169.3762842006
 23
329.60322117778
 33
0.0
  0
SOLID
  5
144
330
13F
100
AcDbEntity
  8
1
 62
     2
100
AcDbTrace
 10
112.8762842006
 20
330.0640049193358
 30
0.0
 11
112.8762842006
 21
329.1424374362241
 31
0.0
 12
109.3762842006
 22
329.60322117778
 32
0.0
 13
109.3762842006
 23
329.60322117778
 33
0.0
  0
MTEXT
  5
145
330
13F
100
AcDbEntity
  8
1
 62
     3
100
AcDbMText
 10
136.361730288638
 20
331.60322117778
 30
0.0
 40
3.5
 41
0.0
 71
     7
 72
     1
  1
\C3;\C3;\C3;60\C2;\H2.45;\S^ ;\C3;
  7
CONVERTER_11
 11
0.9999999999970619
 21
2.424068405545306E-6
 31
0.0
 73
     1
 44
0.60024009603842
  0
ENDBLK
  5
147
330
13F
100
AcDbEntity
  8
0
100
AcDbBlockEnd
  0
BLOCK
  5
151
330
14A
100
AcDbEntity
  8
0
100
AcDbBlockBegin
  2
*D6
 70
     1
 10
0.0
 20
0.0
 30
0.0
  3
*D6
  1

  0
LINE
  5
14B
330
14A
100
AcDbEntity
  8
1
  6
Continuous
 62
     2
100
AcDbLine
 10
169.3762842006
 20
338.387720622131
 30
0.0
 11
93.47628420059999
 21
338.387720622131
 31
0.0
  0
LINE
  5
14C
330
14A
100
AcDbEntity
  8
1
  6
Continuous
 62
     2
100
AcDbLine
 10
169.3762842006
 20
303.32762931
 30
0.0
 11
169.3762842006
 21
340.387720622131
 31
0.0
  0
LINE
  5
14D
330
14A
100
AcDbEntity
  8
1
  6
Continuous
 62
     2
100
AcDbLine
 10
93.47628420059999
 20
307.2612038056
 30
0.0
 11
93.47628420059999
 21
340.387720622131
 31
0.0
  0
SOLID
  5
14E
330
14A
100
AcDbEntity
  8
1
 62
     2
100
AcDbTrace
 10
165.8762842006
 20
337.9269368805751
 30
0.0
 11
165.8762842006
 21
338.8485043636869
 31
0.0
 12
169.3762842006
 22
338.387720622131
 32
0.0
 13
169.3762842006
 23
338.387720622131
 33
0.0
  0
SOLID
  5
14F
330
14A
100
AcDbEntity
  8
1
 62
     2
100
AcDbTrace
 10
96.97628420059999
 20
338.8485043636869
 30
0.0
 11
96.97628420059999
 21
337.9269368805751
 31
0.0
 12
93.47628420059999
 22
338.387720622131
 32
0.0
 13
93.47628420059999
 23
338.387720622131
 33
0.0
  0
MTEXT
  5
150
330
14A
100
AcDbEntity
  8
1
 62
     3
100
AcDbMText
 10
132.427006579189
 20
340.387720622131
 30
0.0
 40
3.5
 41
0.0
 71
     7
 72
     1
  1
\C3;\C3;\C3;76\C2;\H2.45;\S^ ;\C3;
  7
CONVERTER_11
 11
0.9999999999970619
 21
2.424068405545306E-6
 31
0.0
 73
     1
 44
0.60024009603842
  0
ENDBLK
  5
152
330
14A
100
AcDbEntity
  8
0
100
AcDbBlockEnd
  0
BLOCK
  5
159
330
155
100
AcDbEntity
  8
0
100
AcDbBlockBegin
  2
*D7
 70
     1
 10
0.0
 20
0.0
 30
0.0
  3
*D7
  1

  0
LINE
  5
156
330
155
100
AcDbEntity
  8
1
  6
Continuous
 62
     2
100
AcDbLine
 10
139.3265164885233
 20
316.1482888267084
 30
0.0
 11
129.5864079573891
 21
307.2919565702924
 31
0.0
  0
SOLID
  5
157
330
155
100
AcDbEntity
  8
1
 62
     2
100
AcDbTrace
 10
131.865985771748
 20
309.9874800157041
 30
0.0
 11
132.4859638455069
 21
309.3056341284341
 31
0.0
 12
129.5864079573891
 22
307.2919565702924
 32
0.0
 13
129.5864079573891
 23
307.2919565702924
 33
0.0
  0
MTEXT
  5
158
330
155
100
AcDbEntity
  8
1
 62
     3
100
AcDbMText
 10
133.1126448071798
 20
313.2013923697901
 30
0.0
 40
3.5
 41
0.0
 71
     7
 72
     1
  1
\C3; R\C3;\C3;1\C2;\H2.45;\S^ ;\C3;
  7
CONVERTER_11
 11
0.7398762432109738
 21
0.6727430005076351
 31
0.0
 73
     1
 44
0.60024009603842
  0
ENDBLK
  5
15A
330
155
100
AcDbEntity
  8
0
100
AcDbBlockEnd
  0
ENDSEC
  0
SECTION
  2
ENTITIES
  0
INSERT
  5
6E
330
1F
100
AcDbEntity
  8
0
100
AcDbBlockReference
  2
Urheberrecht_DE-EN
 10
86.7612908505324
 20
315.053893973074
 30
0.0
  0
LINE
  5
72
330
1F
100
AcDbEntity
  8
0
  6
Continuous
 62
     7
100
AcDbLine
 10
93.4762842006
 20
283.6681953353
 30
0.0
 11
93.4762842006
 21
289.9896995708
 31
0.0
  0
LINE
  5
73
330
1F
100
AcDbEntity
  8
0
  6
Continuous
 62
     7
100
AcDbLine
 10
93.4762842006
 20
298.9396995708
 30
0.0
 11
93.4762842006
 21
305.2612038056
 31
0.0
  0
LINE
  5
74
330
1F
100
AcDbEntity
  8
0
  6
Continuous
 62
     9
100
AcDbLine
 10
94.0462602176
 20
305.8604521363
 30
0.0
 11
94.0462602176
 21
299.6005415704
 31
0.0
  0
LINE
  5
75
330
1F
100
AcDbEntity
  8
0
  6
Continuous
 62
     9
100
AcDbLine
 10
94.0462602176
 20
289.3288575712
 30
0.0
 11
94.0462602176
 21
283.0689470053
 31
0.0
  0
LINE
  5
76
330
1F
100
AcDbEntity
  8
0
  6
Continuous
 62
     7
100
AcDbLine
 10
94.4262842006
 20
290.322245272
 30
0.0
 11
94.4262842006
 21
290.9396995708
 31
0.0
  0
LINE
  5
77
330
1F
100
AcDbEntity
  8
0
  6
Continuous
 62
     7
100
AcDbLine
 10
94.4262842006
 20
297.9896995708
 30
0.0
 11
94.4262842006
 21
298.6071538696
 31
0.0
  0
LINE
  5
78
330
1F
100
AcDbEntity
  8
RUNDUNGEN
  6
Continuous
 62
     9
100
AcDbLine
 10
95.6762842006
 20
289.2024568781
 30
0.0
 11
95.6762842006
 21
290.9396995708
 31
0.0
  0
LINE
  5
79
330
1F
100
AcDbEntity
  8
RUNDUNGEN
  6
Continuous
 62
     9
100
AcDbLine
 10
95.6762842006
 20
297.9896995708
 30
0.0
 11
95.6762842006
 21
299.7269422635
 31
0.0
  0
LINE
  5
7A
330
1F
100
AcDbEntity
  8
RUNDUNGEN
  6
Continuous
 62
     7
100
AcDbLine
 10
96.5762842006
 20
298.3365835417
 30
0.0
 11
96.5762842006
 21
290.5928155999
 31
0.0
  0
LINE
  5
7B
330
1F
100
AcDbEntity
  8
0
  6
Continuous
 62
     7
100
AcDbLine
 10
94.196468557
 20
289.5596995708
 30
0.0
 11
94.0957833531
 21
289.3774867786
 31
0.0
  0
LINE
  5
7C
330
1F
100
AcDbEntity
  8
0
  6
Continuous
 62
     7
100
AcDbLine
 10
94.0957833531
 20
299.5519123631
 30
0.0
 11
94.196468557
 21
299.3696995708
 31
0.0
  0
LWPOLYLINE
  5
7D
330
1F
100
AcDbEntity
  8
BEZUGSACHSEN
  6
DOT_CENTER
 62
     7
100
AcDbPolyline
 90
        2
 70
     0
 43
0.25
 10
104.3762842006
 20
294.4646995708
 10
104.3762842006
 20
289.4646995708
  0
LWPOLYLINE
  5
7E
330
1F
100
AcDbEntity
  8
BEZUGSACHSEN
  6
DOT_CENTER
 62
     7
100
AcDbPolyline
 90
        2
 70
     0
 43
0.25
 10
104.3762842006
 20
294.4646995708
 10
104.3762842006
 20
299.4646995708
  0
LINE
  5
7F
330
1F
100
AcDbEntity
  8
0
  6
Continuous
 62
     7
100
AcDbLine
 10
108.3762842006
 20
306.5784255982
 30
0.0
 11
108.3762842006
 21
282.3509735434
 31
0.0
  0
LINE
  5
80
330
1F
100
AcDbEntity
  8
0
  6
Continuous
 62
     9
100
AcDbLine
 10
108.6986226624
 20
282.4373438739
 30
0.0
 11
108.6986226624
 21
306.4920552677
 31
0.0
  0
LINE
  5
81
330
1F
100
AcDbEntity
  8
0
  6
Continuous
 62
     9
100
AcDbLine
 10
108.8021502804
 20
282.4509735434
 30
0.0
 11
108.8021502804
 21
306.4784255982
 31
0.0
  0
LINE
  5
82
330
1F
100
AcDbEntity
  8
0
  6
Continuous
 62
     9
100
AcDbLine
 10
109.2221070374
 20
282.4509735434
 30
0.0
 11
109.2221070374
 21
306.4784255982
 31
0.0
  0
LINE
  5
83
330
1F
100
AcDbEntity
  8
0
  6
Continuous
 62
     7
100
AcDbLine
 10
109.3762842006
 20
310.4646995708
 30
0.0
 11
109.3762842006
 21
278.4646995708
 31
0.0
  0
LINE
  5
84
330
1F
100
AcDbEntity
  8
0
  6
Continuous
 62
     7
100
AcDbLine
 10
93.4762842006
 20
289.9896995708
 30
0.0
 11
94.4262842006
 21
290.9396995708
 31
0.0
  0
LINE
  5
85
330
1F
100
AcDbEntity
  8
0
  6
Continuous
 62
     7
100
AcDbLine
 10
94.4262842006
 20
297.9896995708
 30
0.0
 11
93.4762842006
 21
298.9396995708
 31
0.0
  0
LWPOLYLINE
  5
86
330
1F
100
AcDbEntity
  8
BEZUGSACHSEN
  6
DOT_CENTER
 62
     7
100
AcDbPolyline
 90
        2
 70
     0
 43
0.25
 10
116.3762842006
 20
316.0633837244
 10
116.3762842006
 20
302.0633837244
  0
LINE
  5
87
330
1F
100
AcDbEntity
  8
0
  6
Continuous
 62
     9
100
AcDbLine
 10
93.4762842006
 20
289.7973043907
 30
0.0
 11
94.4262842006
 21
290.322245272
 31
0.0
  0
LINE
  5
88
330
1F
100
AcDbEntity
  8
0
  6
Continuous
 62
     7
100
AcDbLine
 10
123.3411245018
 20
278.4646995708
 30
0.0
 11
109.3762842006
 21
278.4646995708
 31
0.0
  0
LINE
  5
89
330
1F
100
AcDbEntity
  8
0
  6
Continuous
 62
     7
100
AcDbLine
 10
127.4114438995
 20
278.4646995708
 30
0.0
 11
129.3262842006
 21
278.4646995708
 31
0.0
  0
LINE
  5
8A
330
1F
100
AcDbEntity
  8
0
  6
Continuous
 62
     9
100
AcDbLine
 10
94.4262842006
 20
298.6071538696
 30
0.0
 11
93.4762842006
 21
299.1320947509
 31
0.0
  0
LINE
  5
8B
330
1F
100
AcDbEntity
  8
0
  6
Continuous
 62
     7
100
AcDbLine
 10
126.4137842006
 20
308.7367022837
 30
0.0
 11
127.4114438995
 21
310.4646995708
 31
0.0
  0
LINE
  5
8C
330
1F
100
AcDbEntity
  8
0
  6
Continuous
 62
     7
100
AcDbLine
 10
124.5887842006
 20
281.2396995708
 30
0.0
 11
126.1637842006
 21
281.2396995708
 31
0.0
  0
LINE
  5
8D
330
1F
100
AcDbEntity
  8
0
  6
Continuous
 62
     7
100
AcDbLine
 10
117.7290854332
 20
281.4809597398
 30
0.0
 11
123.3411245018
 21
281.4809597398
 31
0.0
  0
LINE
  5
8E
330
1F
100
AcDbEntity
  8
0
  6
Continuous
 62
     7
100
AcDbLine
 10
127.4114438995
 20
281.4809597398
 30
0.0
 11
129.3262842006
 21
281.4809597398
 31
0.0
  0
LINE
  5
8F
330
1F
100
AcDbEntity
  8
0
  6
Continuous
 62
     7
100
AcDbLine
 10
130.3262842006
 20
281.9646995708
 30
0.0
 11
148.8762842006
 21
281.9646995708
 31
0.0
  0
LINE
  5
90
330
1F
100
AcDbEntity
  8
0
  6
Continuous
 62
     7
100
AcDbLine
 10
153.8762842006
 20
281.9646995708
 30
0.0
 11
158.4320549355
 21
281.9646995708
 31
0.0
  0
LINE
  5
91
330
1F
100
AcDbEntity
  8
0
  6
Continuous
 62
     7
100
AcDbLine
 10
109.2221070374
 20
282.4509735434
 30
0.0
 11
108.8021502804
 21
282.4509735434
 31
0.0
  0
LINE
  5
92
330
1F
100
AcDbEntity
  8
0
  6
Continuous
 62
     7
100
AcDbLine
 10
108.3762842006
 20
282.3509735434
 30
0.0
 11
94.0462602176
 21
283.0689470053
 31
0.0
  0
LINE
  5
93
330
1F
100
AcDbEntity
  8
0
  6
Continuous
 62
     7
100
AcDbLine
 10
126.4137842006
 20
280.192696858
 30
0.0
 11
127.4114438995
 21
278.4646995708
 31
0.0
  0
LINE
  5
94
330
1F
100
AcDbEntity
  8
FASEN
  6
Continuous
 62
     9
100
AcDbLine
 10
120.8261991957
 20
284.7146995708
 30
0.0
 11
120.8261991957
 21
285.1146995708
 31
0.0
  0
LINE
  5
95
330
1F
100
AcDbEntity
  8
FASEN
  6
Continuous
 62
     9
100
AcDbLine
 10
120.8407842006
 20
291.3501995708
 30
0.0
 11
120.8407842006
 21
290.9501995708
 31
0.0
  0
LINE
  5
96
330
1F
100
AcDbEntity
  8
FASEN
  6
Continuous
 62
     9
100
AcDbLine
 10
120.8407842006
 20
297.5791995708
 30
0.0
 11
120.8407842006
 21
297.9791995708
 31
0.0
  0
LINE
  5
97
330
1F
100
AcDbEntity
  8
0
  6
Continuous
 62
     7
100
AcDbLine
 10
123.3411245018
 20
310.4646995708
 30
0.0
 11
123.3411245018
 21
297.9791995708
 31
0.0
  0
LINE
  5
98
330
1F
100
AcDbEntity
  8
0
  6
Continuous
 62
     7
100
AcDbLine
 10
123.3411245018
 20
290.9501995708
 30
0.0
 11
123.3411245018
 21
285.1146995708
 31
0.0
  0
LINE
  5
99
330
1F
100
AcDbEntity
  8
0
  6
Continuous
 62
     7
100
AcDbLine
 10
123.3411245018
 20
281.4809597398
 30
0.0
 11
123.3411245018
 21
278.4646995708
 31
0.0
  0
LINE
  5
9A
330
1F
100
AcDbEntity
  8
0
  6
Continuous
 62
     7
100
AcDbLine
 10
108.6986226624
 20
282.4373438739
 30
0.0
 11
108.8021502804
 21
282.4509735434
 31
0.0
  0
LINE
  5
9B
330
1F
100
AcDbEntity
  8
0
  6
Continuous
 62
     7
100
AcDbLine
 10
120.8261991957
 20
284.7146995708
 30
0.0
 11
124.3387842006
 21
284.7146995708
 31
0.0
  0
LINE
  5
9C
330
1F
100
AcDbEntity
  8
0
  6
Continuous
 62
     7
100
AcDbLine
 10
126.4137842006
 20
284.7146995708
 30
0.0
 11
129.3262842006
 21
284.7146995708
 31
0.0
  0
LINE
  5
9D
330
1F
100
AcDbEntity
  8
0
  6
Continuous
 62
     7
100
AcDbLine
 10
120.8261991957
 20
285.1146995708
 30
0.0
 11
124.3387842006
 21
285.1146995708
 31
0.0
  0
LINE
  5
9E
330
1F
100
AcDbEntity
  8
0
  6
Continuous
 62
     7
100
AcDbLine
 10
126.4137842006
 20
285.1146995708
 30
0.0
 11
129.3262842006
 21
285.1146995708
 31
0.0
  0
LINE
  5
9F
330
1F
100
AcDbEntity
  8
0
  6
Continuous
 62
     7
100
AcDbLine
 10
124.3387842006
 20
308.7366476168
 30
0.0
 11
124.3387842006
 21
297.7480617238
 31
0.0
  0
LINE
  5
A0
330
1F
100
AcDbEntity
  8
0
  6
Continuous
 62
     7
100
AcDbLine
 10
124.3387842006
 20
280.1927943684
 30
0.0
 11
124.3387842006
 21
291.1813374179
 31
0.0
  0
LINE
  5
A1
330
1F
100
AcDbEntity
  8
0
  6
Continuous
 62
     9
100
AcDbLine
 10
124.5887842006
 20
281.2396995708
 30
0.0
 11
124.5887842006
 21
291.5508318662
 31
0.0
  0
LINE
  5
A2
330
1F
100
AcDbEntity
  8
0
  6
Continuous
 62
     9
100
AcDbLine
 10
124.5887842006
 20
297.3785672754
 30
0.0
 11
124.5887842006
 21
307.6896995708
 31
0.0
  0
LINE
  5
A3
330
1F
100
AcDbEntity
  8
0
  6
Continuous
 62
     9
100
AcDbLine
 10
126.1637842006
 20
281.2396995708
 30
0.0
 11
126.1637842006
 21
291.5508318662
 31
0.0
  0
LINE
  5
A4
330
1F
100
AcDbEntity
  8
0
  6
Continuous
 62
     9
100
AcDbLine
 10
126.1637842006
 20
297.3785672754
 30
0.0
 11
126.1637842006
 21
307.6896995708
 31
0.0
  0
LINE
  5
A5
330
1F
100
AcDbEntity
  8
0
  6
Continuous
 62
     7
100
AcDbLine
 10
108.6986226624
 20
282.4373438739
 30
0.0
 11
108.3762842006
 21
282.3509735434
 31
0.0
  0
LINE
  5
A6
330
1F
100
AcDbEntity
  8
0
  6
Continuous
 62
     7
100
AcDbLine
 10
126.4137842006
 20
280.1927943684
 30
0.0
 11
126.4137842006
 21
291.1813374179
 31
0.0
  0
LINE
  5
A7
330
1F
100
AcDbEntity
  8
0
  6
Continuous
 62
     7
100
AcDbLine
 10
126.4137842006
 20
297.7480617238
 30
0.0
 11
126.4137842006
 21
308.7366476168
 31
0.0
  0
LINE
  5
A8
330
1F
100
AcDbEntity
  8
0
  6
Continuous
 62
     7
100
AcDbLine
 10
127.4114438995
 20
290.9501995708
 30
0.0
 11
127.4114438995
 21
285.1146995708
 31
0.0
  0
LINE
  5
A9
330
1F
100
AcDbEntity
  8
0
  6
Continuous
 62
     7
100
AcDbLine
 10
127.4114438995
 20
278.4646995708
 30
0.0
 11
127.4114438995
 21
281.4809597398
 31
0.0
  0
LINE
  5
AA
330
1F
100
AcDbEntity
  8
0
  6
Continuous
 62
     7
100
AcDbLine
 10
127.4114438995
 20
297.9791995708
 30
0.0
 11
127.4114438995
 21
310.4646995708
 31
0.0
  0
LINE
  5
AB
330
1F
100
AcDbEntity
  8
RUNDUNGEN
  6
Continuous
 62
     9
100
AcDbLine
 10
96.2522453107
 20
289.5596995708
 30
0.0
 11
95.6762842006
 21
289.5596995708
 31
0.0
  0
LINE
  5
AC
330
1F
100
AcDbEntity
  8
0
  6
Continuous
 62
     9
100
AcDbLine
 10
95.6762842006
 20
289.5596995708
 30
0.0
 11
94.196468557
 21
289.5596995708
 31
0.0
  0
LINE
  5
AD
330
1F
100
AcDbEntity
  8
0
  6
Continuous
 62
     7
100
AcDbLine
 10
95.6762842006
 20
290.9396995708
 30
0.0
 11
94.4262842006
 21
290.9396995708
 31
0.0
  0
LINE
  5
AE
330
1F
100
AcDbEntity
  8
0
  6
Continuous
 62
     7
100
AcDbLine
 10
120.8407842006
 20
290.9501995708
 30
0.0
 11
124.3387842006
 21
290.9501995708
 31
0.0
  0
LINE
  5
AF
330
1F
100
AcDbEntity
  8
0
  6
Continuous
 62
     7
100
AcDbLine
 10
126.4137842006
 20
290.9501995708
 30
0.0
 11
129.3262842006
 21
290.9501995708
 31
0.0
  0
LINE
  5
B0
330
1F
100
AcDbEntity
  8
0
  6
Continuous
 62
     7
100
AcDbLine
 10
124.4447687727
 20
291.3501995708
 30
0.0
 11
120.8407842006
 21
291.3501995708
 31
0.0
  0
LINE
  5
B1
330
1F
100
AcDbEntity
  8
RUNDUNGEN
  6
Continuous
 62
     7
100
AcDbLine
 10
126.3077996286
 20
291.3501995708
 30
0.0
 11
129.3529405481
 21
291.3501995708
 31
0.0
  0
LINE
  5
B2
330
1F
100
AcDbEntity
  8
BEZUGSACHSEN
  6
HIDDEN
 62
     8
100
AcDbLine
 10
169.3762842006
 20
291.4646995708
 30
0.0
 11
148.8762842006
 21
291.4646995708
 31
0.0
  0
LINE
  5
B3
330
1F
100
AcDbEntity
  8
DEFAULT_2
  6
HIDDEN
 62
     8
100
AcDbLine
 10
130.3762842006
 20
291.4646995708
 30
0.0
 11
148.8762842006
 21
291.4646995708
 31
0.0
  0
LINE
  5
B4
330
1F
100
AcDbEntity
  8
0
  6
Continuous
 62
     7
100
AcDbLine
 10
124.5887842006
 20
291.5508318662
 30
0.0
 11
126.1637842006
 21
291.5508318662
 31
0.0
  0
LINE
  5
B5
330
1F
100
AcDbEntity
  8
0
  6
Continuous
 62
     7
100
AcDbLine
 10
129.3262842006
 20
310.4646359356
 30
0.0
 11
129.3262842006
 21
297.9791995708
 31
0.0
  0
LINE
  5
B6
330
1F
100
AcDbEntity
  8
RUNDUNGEN
  6
Continuous
 62
     7
100
AcDbLine
 10
129.3262842006
 20
297.9791995708
 30
0.0
 11
129.3262842006
 21
297.7686560702
 31
0.0
  0
LINE
  5
B7
330
1F
100
AcDbEntity
  8
RUNDUNGEN
  6
Continuous
 62
     7
100
AcDbLine
 10
129.3262842006
 20
291.1607430714
 30
0.0
 11
129.3262842006
 21
290.9501995708
 31
0.0
  0
LINE
  5
B8
330
1F
100
AcDbEntity
  8
0
  6
Continuous
 62
     7
100
AcDbLine
 10
129.3262842006
 20
290.9501995708
 30
0.0
 11
129.3262842006
 21
285.1146995708
 31
0.0
  0
LINE
  5
B9
330
1F
100
AcDbEntity
  8
RUNDUNGEN
  6
Continuous
 62
     7
100
AcDbLine
 10
129.3262842006
 20
285.1146995708
 30
0.0
 11
129.3262842006
 21
284.7146995708
 31
0.0
  0
LINE
  5
BA
330
1F
100
AcDbEntity
  8
0
  6
Continuous
 62
     7
100
AcDbLine
 10
129.3262842006
 20
281.4809597398
 30
0.0
 11
129.3262842006
 21
278.4647080405
 31
0.0
  0
LINE
  5
BB
330
1F
100
AcDbEntity
  8
FASEN
  6
Continuous
 62
     7
100
AcDbLine
 10
129.3262842006
 20
281.4809597398
 30
0.0
 11
129.3262842006
 21
285.1146995708
 31
0.0
  0
LINE
  5
BC
330
1F
100
AcDbEntity
  8
RUNDUNGEN
  6
Continuous
 62
     9
100
AcDbLine
 10
130.3262842006
 20
306.9646995708
 30
0.0
 11
130.3262842006
 21
281.9646995708
 31
0.0
  0
LINE
  5
BD
330
1F
100
AcDbEntity
  8
DEFAULT_2
  6
HIDDEN
 62
     8
100
AcDbLine
 10
130.3762842006
 20
297.4646995708
 30
0.0
 11
130.3762842006
 21
291.4646995708
 31
0.0
  0
LWPOLYLINE
  5
BE
330
1F
100
AcDbEntity
  8
BEZUGSACHSEN
  6
DOT_CENTER
 62
     7
100
AcDbPolyline
 90
        2
 70
     0
 43
0.25
 10
104.3762842006
 20
294.4646995708
 10
99.3762842006
 20
294.4646995708
  0
LWPOLYLINE
  5
BF
330
1F
100
AcDbEntity
  8
TEIL_STARTBEZUEGE
  6
DOT_CENTER
 62
     7
100
AcDbPolyline
 90
        2
 70
     0
 43
0.25
 10
172.3762842006
 20
294.4646995708
 10
90.4762842006
 20
294.4646995708
  0
LWPOLYLINE
  5
C0
330
1F
100
AcDbEntity
  8
BEZUGSACHSEN
  6
DOT_CENTER
 62
     7
100
AcDbPolyline
 90
        2
 70
     0
 43
0.25
 10
104.3762842006
 20
294.4646995708
 10
109.3762842006
 20
294.4646995708
  0
LWPOLYLINE
  5
C1
330
1F
100
AcDbEntity
  8
FASEN
  6
DOT_CENTER
 62
     9
100
AcDbPolyline
 90
        2
 70
     0
 43
0.25
 10
101.7769534354
 20
294.4646995051
 10
102.3762399273
 20
294.4646995462
  0
LINE
  5
C2
330
1F
100
AcDbEntity
  8
0
  6
Continuous
 62
     7
100
AcDbLine
 10
123.3411245018
 20
278.4646995708
 30
0.0
 11
124.3387842006
 21
280.192696858
 31
0.0
  0
LINE
  5
C3
330
1F
100
AcDbEntity
  8
0
  6
Continuous
 62
     7
100
AcDbLine
 10
126.1637842006
 20
297.3785672754
 30
0.0
 11
124.5887842006
 21
297.3785672754
 31
0.0
  0
LINE
  5
C4
330
1F
100
AcDbEntity
  8
0
  6
Continuous
 62
     7
100
AcDbLine
 10
123.3411245018
 20
310.4646995708
 30
0.0
 11
124.3387842006
 21
308.7367022837
 31
0.0
  0
LINE
  5
C5
330
1F
100
AcDbEntity
  8
DEFAULT_2
  6
HIDDEN
 62
     8
100
AcDbLine
 10
169.3762842006
 20
297.4646995708
 30
0.0
 11
130.3762842006
 21
297.4646995708
 31
0.0
  0
LINE
  5
C6
330
1F
100
AcDbEntity
  8
0
  6
Continuous
 62
     7
100
AcDbLine
 10
120.8407842006
 20
297.5791995708
 30
0.0
 11
124.4447687727
 21
297.5791995708
 31
0.0
  0
LINE
  5
C7
330
1F
100
AcDbEntity
  8
RUNDUNGEN
  6
Continuous
 62
     7
100
AcDbLine
 10
126.3077996286
 20
297.5791995708
 30
0.0
 11
129.3529405481
 21
297.5791995708
 31
0.0
  0
LINE
  5
C8
330
1F
100
AcDbEntity
  8
0
  6
Continuous
 62
     7
100
AcDbLine
 10
120.8407842006
 20
297.9791995708
 30
0.0
 11
124.3387842006
 21
297.9791995708
 31
0.0
  0
LINE
  5
C9
330
1F
100
AcDbEntity
  8
0
  6
Continuous
 62
     7
100
AcDbLine
 10
126.4137842006
 20
297.9791995708
 30
0.0
 11
129.3262842006
 21
297.9791995708
 31
0.0
  0
LINE
  5
CA
330
1F
100
AcDbEntity
  8
0
  6
Continuous
 62
     7
100
AcDbLine
 10
95.6762842006
 20
297.9896995708
 30
0.0
 11
94.4262842006
 21
297.9896995708
 31
0.0
  0
LINE
  5
CB
330
1F
100
AcDbEntity
  8
0
  6
Continuous
 62
     9
100
AcDbLine
 10
95.6762842006
 20
299.3696995708
 30
0.0
 11
94.196468557
 21
299.3696995708
 31
0.0
  0
LINE
  5
CC
330
1F
100
AcDbEntity
  8
RUNDUNGEN
  6
Continuous
 62
     9
100
AcDbLine
 10
95.6762842006
 20
299.3696995708
 30
0.0
 11
96.2522453107
 21
299.3696995708
 31
0.0
  0
LINE
  5
CD
330
1F
100
AcDbEntity
  8
0
  6
Continuous
 62
     7
100
AcDbLine
 10
108.6986226624
 20
306.4920552677
 30
0.0
 11
108.3762842006
 21
306.5784255982
 31
0.0
  0
LINE
  5
CE
330
1F
100
AcDbEntity
  8
0
  6
Continuous
 62
     7
100
AcDbLine
 10
108.6986226624
 20
306.4920552677
 30
0.0
 11
108.8021502804
 21
306.4784255982
 31
0.0
  0
LINE
  5
CF
330
1F
100
AcDbEntity
  8
0
  6
Continuous
 62
     7
100
AcDbLine
 10
108.3762842006
 20
306.5784255982
 30
0.0
 11
94.0462602176
 21
305.8604521363
 31
0.0
  0
LINE
  5
D0
330
1F
100
AcDbEntity
  8
0
  6
Continuous
 62
     7
100
AcDbLine
 10
109.2221070374
 20
306.4784255982
 30
0.0
 11
108.8021502804
 21
306.4784255982
 31
0.0
  0
LINE
  5
D1
330
1F
100
AcDbEntity
  8
RUNDUNGEN
  6
Continuous
 62
     7
100
AcDbLine
 10
158.4320549355
 20
306.9646995708
 30
0.0
 11
130.3262842006
 21
306.9646995708
 31
0.0
  0
LINE
  5
D2
330
1F
100
AcDbEntity
  8
0
  6
Continuous
 62
     7
100
AcDbLine
 10
130.3262842006
 20
306.9646995708
 30
0.0
 11
158.4320549355
 21
306.9646995708
 31
0.0
  0
LINE
  5
D3
330
1F
100
AcDbEntity
  8
0
  6
Continuous
 62
     7
100
AcDbLine
 10
124.5887842006
 20
307.6896995708
 30
0.0
 11
126.1637842006
 21
307.6896995708
 31
0.0
  0
LINE
  5
D4
330
1F
100
AcDbEntity
  8
BEZUGSACHSEN
  6
Continuous
 62
     7
100
AcDbLine
 10
123.3411245018
 20
310.4646995708
 30
0.0
 11
121.3762842006
 21
310.4646995708
 31
0.0
  0
LINE
  5
D5
330
1F
100
AcDbEntity
  8
BEZUGSACHSEN
  6
Continuous
 62
     7
100
AcDbLine
 10
111.3762842006
 20
310.4646995708
 30
0.0
 11
109.3762842006
 21
310.4646995708
 31
0.0
  0
LINE
  5
D6
330
1F
100
AcDbEntity
  8
0
  6
Continuous
 62
     7
100
AcDbLine
 10
109.3762842006
 20
310.4646995708
 30
0.0
 11
111.3762842006
 21
310.4646995708
 31
0.0
  0
LINE
  5
D7
330
1F
100
AcDbEntity
  8
0
  6
Continuous
 62
     7
100
AcDbLine
 10
121.3762842006
 20
310.4646995708
 30
0.0
 11
123.3411245018
 21
310.4646995708
 31
0.0
  0
LINE
  5
D8
330
1F
100
AcDbEntity
  8
0
  6
Continuous
 62
     7
100
AcDbLine
 10
127.4114438995
 20
310.4646995708
 30
0.0
 11
129.3262842006
 21
310.4646995708
 31
0.0
  0
LINE
  5
D9
330
1F
100
AcDbEntity
  8
BEZUGSACHSEN
  6
HIDDEN
 62
     8
100
AcDbLine
 10
148.8762842006
 20
291.4646995708
 30
0.0
 11
148.8762842006
 21
281.9646995708
 31
0.0
  0
LWPOLYLINE
  5
DA
330
1F
100
AcDbEntity
  8
BEZUGSACHSEN
  6
DOT_CENTER
 62
     7
100
AcDbPolyline
 90
        2
 70
     0
 43
0.25
 10
151.3762842006
 20
278.9646995708
 10
151.3762842006
 20
295.8063905235
  0
LINE
  5
DB
330
1F
100
AcDbEntity
  8
BEZUGSACHSEN
  6
HIDDEN
 62
     8
100
AcDbLine
 10
153.8762842006
 20
291.4646995708
 30
0.0
 11
153.8762842006
 21
281.9646995708
 31
0.0
  0
LINE
  5
DC
330
1F
100
AcDbEntity
  8
0
  6
Continuous
 62
     7
100
AcDbLine
 10
158.8546731972
 20
282.0583917838
 30
0.0
 11
168.7989024624
 21
286.6954620446
 31
0.0
  0
LINE
  5
DD
330
1F
100
AcDbEntity
  8
RUNDUNGEN
  6
Continuous
 62
     7
100
AcDbLine
 10
168.7989024624
 20
302.233937097
 30
0.0
 11
158.8546731972
 21
306.8710073579
 31
0.0
  0
LINE
  5
DE
330
1F
100
AcDbEntity
  8
0
  6
Continuous
 62
     7
100
AcDbLine
 10
158.8546731972
 20
306.8710073579
 30
0.0
 11
168.7989024624
 21
302.233937097
 31
0.0
  0
LINE
  5
DF
330
1F
100
AcDbEntity
  8
RUNDUNGEN
  6
Continuous
 62
     9
100
AcDbLine
 10
158.4320549355
 20
281.9646995708
 30
0.0
 11
158.4320549355
 21
306.9646995708
 31
0.0
  0
LINE
  5
E0
330
1F
100
AcDbEntity
  8
RUNDUNGEN
  6
Continuous
 62
     9
100
AcDbLine
 10
158.8546731972
 20
282.0583917838
 30
0.0
 11
158.8546731972
 21
306.8710073579
 31
0.0
  0
LINE
  5
E1
330
1F
100
AcDbEntity
  8
RUNDUNGEN
  6
Continuous
 62
     9
100
AcDbLine
 10
168.7989024624
 20
286.6954620446
 30
0.0
 11
168.7989024624
 21
302.233937097
 31
0.0
  0
LINE
  5
E2
330
1F
100
AcDbEntity
  8
RUNDUNGEN
  6
Continuous
 62
     7
100
AcDbLine
 10
169.3762842006
 20
287.6017698316
 30
0.0
 11
169.3762842006
 21
301.32762931
 31
0.0
  0
LINE
  5
E3
330
1F
100
AcDbEntity
  8
BEZUGSACHSEN
  6
HIDDEN
 62
     8
100
AcDbLine
 10
154.376273563
 20
291.4646995708
 30
0.0
 11
154.376273563
 21
281.9646995708
 31
0.0
  0
LINE
  5
E4
330
1F
100
AcDbEntity
  8
BEZUGSACHSEN
  6
HIDDEN
 62
     8
100
AcDbLine
 10
148.3762948382
 20
291.4646995708
 30
0.0
 11
148.3762948382
 21
281.9646995708
 31
0.0
  0
ARC
  5
E5
330
1F
100
AcDbEntity
  8
FASEN
  6
Continuous
 62
     7
100
AcDbCircle
 10
122.2453039235
 20
287.9524989039
 30
0.0
 40
7.891580868599881
100
AcDbArc
 50
231.4754833830966
 51
235.0904116744173
  0
ARC
  5
E6
330
1F
100
AcDbEntity
  8
FASEN
  6
Continuous
 62
     7
100
AcDbCircle
 10
120.8261991957
 20
281.6146995708
 30
0.0
 40
3.5
100
AcDbArc
 50
90.0
 51
177.3161918300953
  0
ARC
  5
E7
330
1F
100
AcDbEntity
  8
FASEN
  6
Continuous
 62
     7
100
AcDbCircle
 10
120.8261991957
 20
281.6146995708
 30
0.0
 40
3.099981417500032
100
AcDbArc
 50
90.0
 51
182.472615119493
  0
ARC
  5
E8
330
1F
100
AcDbEntity
  8
RUNDUNGEN
  6
Continuous
 62
     7
100
AcDbCircle
 10
95.6762842006
 20
291.8396995708
 30
0.0
 40
0.9000000000000341
100
AcDbArc
 50
270.0
 51
352.9880362120755
  0
ARC
  5
E9
330
1F
100
AcDbEntity
  8
0
  6
Continuous
 62
     7
100
AcDbCircle
 10
94.0762842006
 20
283.6681953348
 30
0.0
 40
0.5999999999999943
100
AcDbArc
 50
179.9999999522486
 51
267.1317229390192
  0
ARC
  5
EA
330
1F
100
AcDbEntity
  8
0
  6
Continuous
 62
     7
100
AcDbCircle
 10
109.2221070374
 20
282.0509735434
 30
0.0
 40
0.3999999999998977
100
AcDbArc
 50
67.30156454046462
 51
90.0
  0
ARC
  5
EB
330
1F
100
AcDbEntity
  8
0
  6
Continuous
 62
     7
100
AcDbCircle
 10
124.5887842006
 20
280.9896995708
 30
0.0
 40
0.25
100
AcDbArc
 50
90.0
 51
180.0
  0
ARC
  5
EC
330
1F
100
AcDbEntity
  8
0
  6
Continuous
 62
     7
100
AcDbCircle
 10
41.784609204
 20
319.7752126401
 30
0.0
 40
90.09947276600688
100
AcDbArc
 50
334.8479477141801
 51
336.3847181612001
  0
ARC
  5
ED
330
1F
100
AcDbEntity
  8
0
  6
Continuous
 62
     7
100
AcDbCircle
 10
120.8407842006
 20
294.4646995708
 30
0.0
 40
3.514499999999998
100
AcDbArc
 50
90.0
 51
270.0
  0
ARC
  5
EE
330
1F
100
AcDbEntity
  8
FASEN
  6
Continuous
 62
     7
100
AcDbCircle
 10
120.8407842006
 20
294.4646995708
 30
0.0
 40
3.114489022599969
100
AcDbArc
 50
90.0
 51
270.0
  0
ARC
  5
EF
330
1F
100
AcDbEntity
  8
RUNDUNGEN
  6
Continuous
 62
     7
100
AcDbCircle
 10
95.6762842006
 20
297.0896995708
 30
0.0
 40
0.899999999999941
100
AcDbArc
 50
7.01196202158928
 51
90.0
  0
ARC
  5
F0
330
1F
100
AcDbEntity
  8
0
  6
Continuous
 62
     7
100
AcDbCircle
 10
94.0762842006
 20
305.2612038068
 30
0.0
 40
0.5999999999697994
100
AcDbArc
 50
92.86827706098055
 51
180.0
  0
ARC
  5
F1
330
1F
100
AcDbEntity
  8
0
  6
Continuous
 62
     7
100
AcDbCircle
 10
108.8021502804
 20
306.8784255982
 30
0.0
 40
0.3999999999743193
100
AcDbArc
 50
255.0000000050954
 51
270.0
  0
ARC
  5
F2
330
1F
100
AcDbEntity
  8
0
  6
Continuous
 62
     7
100
AcDbCircle
 10
109.2221070374
 20
306.8784255982
 30
0.0
 40
0.4000000000000341
100
AcDbArc
 50
270.0
 51
292.6984354595353
  0
ARC
  5
F3
330
1F
100
AcDbEntity
  8
0
  6
Continuous
 62
     7
100
AcDbCircle
 10
124.5887842006
 20
307.9396995708
 30
0.0
 40
0.25
100
AcDbArc
 50
180.0
 51
270.0
  0
ARC
  5
F4
330
1F
100
AcDbEntity
  8
0
  6
Continuous
 62
     7
100
AcDbCircle
 10
154.3431063382
 20
-237.2514315473
 30
0.0
 40
540.1736479691002
100
AcDbArc
 50
96.23504095310001
 51
96.40370831109999
  0
ARC
  5
F5
330
1F
100
AcDbEntity
  8
RUNDUNGEN
  6
Continuous
 62
     7
100
AcDbCircle
 10
168.3762842006
 20
287.6017698316
 30
0.0
 40
0.9999999999918526
100
AcDbArc
 50
295.0000000039673
 51
0.0
  0
ARC
  5
F6
330
1F
100
AcDbEntity
  8
RUNDUNGEN
  6
Continuous
 62
     7
100
AcDbCircle
 10
158.4320549355
 20
282.9646995708
 30
0.0
 40
1.0
100
AcDbArc
 50
270.0
 51
294.9999999987737
  0
ARC
  5
F7
330
1F
100
AcDbEntity
  8
RUNDUNGEN
  6
Continuous
 62
     7
100
AcDbCircle
 10
130.3262842006
 20
280.9646995708
 30
0.0
 40
1.0
100
AcDbArc
 50
90.0
 51
172.9880349410749
  0
ARC
  5
F8
330
1F
100
AcDbEntity
  8
0
  6
Continuous
 62
     7
100
AcDbCircle
 10
126.1637842006
 20
280.9896995708
 30
0.0
 40
0.25
100
AcDbArc
 50
0.0
 51
90.0
  0
ARC
  5
F9
330
1F
100
AcDbEntity
  8
0
  6
Continuous
 62
     7
100
AcDbCircle
 10
154.3431063382
 20
826.1808306889
 30
0.0
 40
540.1736479691003
100
AcDbArc
 50
263.5962916889
 51
263.7649590469
  0
ARC
  5
FA
330
1F
100
AcDbEntity
  8
0
  6
Continuous
 62
     7
100
AcDbCircle
 10
208.9679591973
 20
319.7752126401
 30
0.0
 40
90.09947276599952
100
AcDbArc
 50
203.6152818388
 51
205.1520522858199
  0
ARC
  5
FB
330
1F
100
AcDbEntity
  8
RUNDUNGEN
  6
Continuous
 62
     7
100
AcDbCircle
 10
130.3262842006
 20
307.9646995708
 30
0.0
 40
1.0
100
AcDbArc
 50
180.0
 51
270.0
  0
ARC
  5
FC
330
1F
100
AcDbEntity
  8
RUNDUNGEN
  6
Continuous
 62
     7
100
AcDbCircle
 10
158.4320549355
 20
305.9646995708
 30
0.0
 40
1.000000000040203
100
AcDbArc
 50
65.00000000364744
 51
90.0
  0
ARC
  5
FD
330
1F
100
AcDbEntity
  8
RUNDUNGEN
  6
Continuous
 62
     7
100
AcDbCircle
 10
168.3762842006
 20
301.32762931
 30
0.0
 40
1.0
100
AcDbArc
 50
0.0
 51
64.99999999603273
  0
ARC
  5
FE
330
1F
100
AcDbEntity
  8
0
  6
Continuous
 62
     7
100
AcDbCircle
 10
126.1637842006
 20
307.9396995708
 30
0.0
 40
0.25
100
AcDbArc
 50
270.0
 51
0.0
  0
CIRCLE
  5
FF
330
1F
100
AcDbEntity
  8
FASEN
  6
Continuous
 62
     7
100
AcDbCircle
 10
104.3762842006
 20
294.4646995708
 30
0.0
 40
2.0
  0
SPLINE
  5
100
330
1F
100
AcDbEntity
  8
0
  6
Continuous
 62
     2
100
AcDbSpline
210
0.0
220
0.0
230
1.0
 70
     8
 71
     3
 72
   117
 73
   113
 74
   111
 42
0.0000000001
 43
0.0000000001
 44
0.00000001
 40
0.0
 40
0.0
 40
0.0
 40
0.0
 40
0.0011043856896289
 40
0.0040235633534441
 40
0.0087635669128663
 40
0.0153304346047816
 40
0.0237302089553793
 40
0.033968936752373
 40
0.0460526690166199
 40
0.0583425900201845
 40
0.0720808918519054
 40
0.0872538396734973
 40
0.1038477092972107
 40
0.1218487877840018
 40
0.1412433739028654
 40
0.1620177785111658
 40
0.1841583248908776
 40
0.2111198364356807
 40
0.239843875777858
 40
0.270326521357605
 40
0.3025639091352056
 40
0.3365522351867501
 40
0.3722877577265354
 40
0.4097667987199696
 40
0.4489770508854636
 40
0.4898715027152014
 40
0.5323945342033979
 40
0.5764906169372217
 40
0.6221043192401938
 40
0.6691803115954117
 40
0.7176633723876139
 40
0.7759448447683753
 40
0.836057489225335
 40
0.8979925679155714
 40
0.9617416151706094
 40
1.027296444508366
 40
1.094649155046306
 40
1.16377095244499
 40
1.234548572917927
 40
1.306847817559238
 40
1.380534759086063
 40
1.455475770041033
 40
1.531537553694581
 40
1.624135963588734
 40
1.718120128363817
 40
1.813453824508831
 40
1.910101355246468
 40
2.008027569509991
 40
2.107175025956141
 40
2.207395323665091
 40
2.308517539492896
 40
2.410371134279612
 40
2.512786025564691
 40
2.641365039657505
 40
2.770403034624073
 40
2.899747003504269
 40
3.029244111849291
 40
3.158741686552739
 40
3.288086658496518
 40
3.417125599760807
 40
3.545704910029567
 40
3.64811925155637
 40
3.749971677596079
 40
3.851092282009656
 40
3.95131070166652
 40
4.050456189095979
 40
4.148380512182886
 40
4.245026372519582
 40
4.340358755959006
 40
4.434342103068627
 40
4.526940328047061
 40
4.603002476124185
 40
4.67794408100551
 40
4.751631539951884
 40
4.82393091928974
 40
4.894707985379075
 40
4.963828232872529
 40
5.031178233617748
 40
5.096729596017001
 40
5.160474964285707
 40
5.222406697195538
 40
5.282516874401644
 40
5.340797303380784
 40
5.38928089598292
 40
5.436358488091354
 40
5.481974479299732
 40
5.526073161291903
 40
5.568598723609773
 40
5.609495259098489
 40
5.648706769066692
 40
5.686185969425281
 40
5.721920704491328
 40
5.755907553852742
 40
5.788143033319799
 40
5.81862359652949
 40
5.847345636962202
 40
5.874305490535185
 40
5.896445021081975
 40
5.917218757700809
 40
5.936612913395899
 40
5.954613688765017
 40
5.971207272335321
 40
5.986379840943467
 40
6.000117560193299
 40
6.01240658505093
 40
6.024486490678419
 40
6.034721835817416
 40
6.043118866950695
 40
6.049683826307478
 40
6.054422951834293
 40
6.057342477166065
 40
6.058448631599018
 40
6.058448631599018
 40
6.058448631599018
 40
6.058448631599018
 10
154.376273563
 20
281.9646687528
 30
0.0
 10
154.3759158381104
 20
281.9647556524591
 30
0.0
 10
154.3746125536055
 20
281.965072250444
 30
0.0
 10
154.3717731696185
 20
281.9657587251703
 30
0.0
 10
154.3671631420184
 20
281.9668697458918
 30
0.0
 10
154.3607757012295
 20
281.9684029851619
 30
0.0
 10
154.3526042949601
 20
281.9703570093295
 30
0.0
 10
154.3426422688223
 20
281.9727299647076
 30
0.0
 10
154.331416493197
 20
281.9753936061712
 30
0.0
 10
154.3190532916065
 20
281.9783163653477
 30
0.0
 10
154.3056849128232
 20
281.9814630589453
 30
0.0
 10
154.2909162374145
 20
281.9849222309076
 30
0.0
 10
154.2747595482431
 20
281.9886860543004
 30
0.0
 10
154.2572271300962
 20
281.9927467098815
 30
0.0
 10
154.2383312662147
 20
281.9970963718179
 30
0.0
 10
154.218084237864
 20
282.0017272065053
 30
0.0
 10
154.1953709013289
 20
282.0068875514044
 30
0.0
 10
154.1700643322886
 20
282.0125943333798
 30
0.0
 10
154.1420329502555
 20
282.0188583666979
 30
0.0
 10
154.1122711447059
 20
282.0254424092304
 30
0.0
 10
154.0807800803268
 20
282.0323331443834
 30
0.0
 10
154.04756092376
 20
282.0395172632715
 30
0.0
 10
154.0126148400147
 20
282.0469814497524
 30
0.0
 10
153.9759458297148
 20
282.0547117871295
 30
0.0
 10
153.9375720844471
 20
282.0626914454866
 30
0.0
 10
153.8975284227851
 20
282.070898159748
 30
0.0
 10
153.8558638381396
 20
282.0793066346079
 30
0.0
 10
153.8126301607317
 20
282.0878909839723
 30
0.0
 10
153.7678792210995
 20
282.0966253217645
 30
0.0
 10
153.7216628464984
 20
282.1054837558282
 30
0.0
 10
153.6712658831775
 20
282.1149607381952
 30
0.0
 10
153.6165580938056
 20
282.1250254785346
 30
0.0
 10
153.5573925808206
 20
282.1356389883061
 30
0.0
 10
153.4963831832139
 20
282.1462919856102
 30
0.0
 10
153.4335347716377
 20
282.1569551298577
 30
0.0
 10
153.3688522184885
 20
282.1675991021648
 30
0.0
 10
153.30234735965
 20
282.1781934123263
 30
0.0
 10
153.2340670031421
 20
282.1887025816794
 30
0.0
 10
153.1641005426388
 20
282.199089309911
 30
0.0
 10
153.0925721528834
 20
282.2093103552589
 30
0.0
 10
153.0196130011345
 20
282.2193214752022
 30
0.0
 10
152.9453542414188
 20
282.2290784066242
 30
0.0
 10
152.8647843804976
 20
282.2391818194576
 30
0.0
 10
152.7778446305908
 20
282.2494918516841
 30
0.0
 10
152.6844457421597
 20
282.2598632605914
 30
0.0
 10
152.5896283111556
 20
282.269665170782
 30
0.0
 10
152.4934299506656
 20
282.2788599802087
 30
0.0
 10
152.3958958337491
 20
282.2874093423966
 30
0.0
 10
152.2971092316633
 20
282.2952725094358
 30
0.0
 10
152.197200092341
 20
282.3024189671002
 30
0.0
 10
152.0963361548155
 20
282.3088142558302
 30
0.0
 10
151.9946927372042
 20
282.3144234202281
 30
0.0
 10
151.883863762096
 20
282.3196133637403
 30
0.0
 10
151.7639338373694
 20
282.3240776260416
 30
0.0
 10
151.634990086661
 20
282.3275083383568
 30
0.0
 10
151.5057111698162
 20
282.3295764529423
 30
0.0
 10
151.3762643437387
 20
282.3302697364625
 30
0.0
 10
151.2468171859125
 20
282.3295759751273
 30
0.0
 10
151.1175374711902
 20
282.3275074001876
 30
0.0
 10
150.9885929833418
 20
282.3240762539486
 30
0.0
 10
150.8686628415192
 20
282.3196116162089
 30
0.0
 10
150.7578343564445
 20
282.3144213429608
 30
0.0
 10
150.6561920654865
 20
282.3088119067983
 30
0.0
 10
150.5553296987921
 20
282.3024163822129
 30
0.0
 10
150.4554223975754
 20
282.2952697300969
 30
0.0
 10
150.3566377261363
 20
282.2874064156627
 30
0.0
 10
150.2591054681316
 20
282.2788569599646
 30
0.0
 10
150.162908746984
 20
282.2696620759644
 30
0.0
 10
150.0680925989923
 20
282.2598600755383
 30
0.0
 10
149.9746945026089
 20
282.2494885264356
 30
0.0
 10
149.8877549909078
 20
282.2391782913402
 30
0.0
 10
149.8071849033149
 20
282.2290746138958
 30
0.0
 10
149.7329256838049
 20
282.2193174059047
 30
0.0
 10
149.6599661470508
 20
282.2093060367526
 30
0.0
 10
149.5884377484554
 20
282.1990848233495
 30
0.0
 10
149.5184719566672
 20
282.1886980619141
 30
0.0
 10
149.4501932009631
 20
282.1781890410216
 30
0.0
 10
149.3836908963975
 20
282.1675950684958
 30
0.0
 10
149.3190115954968
 20
282.156951565169
 30
0.0
 10
149.2561666448314
 20
282.1462889294891
 30
0.0
 10
149.1951603807332
 20
282.1356363808657
 30
0.0
 10
149.1359971377587
 20
282.1250231605611
 30
0.0
 10
149.0812903469345
 20
282.1149584803176
 30
0.0
 10
149.0308930478112
 20
282.1054813210358
 30
0.0
 10
148.9846752433912
 20
282.096622519264
 30
0.0
 10
148.93992219514
 20
282.0878876957051
 30
0.0
 10
148.896686102253
 20
282.0793028135926
 30
0.0
 10
148.8550191672162
 20
282.0708938300526
 30
0.0
 10
148.814973592206
 20
282.0626867022029
 30
0.0
 10
148.7765987079435
 20
282.0547067893747
 30
0.0
 10
148.7399294976336
 20
282.046976383152
 30
0.0
 10
148.7049841078966
 20
282.0395123062522
 30
0.0
 10
148.6717663211322
 20
282.0323284331998
 30
0.0
 10
148.6402770495711
 20
282.0254380305286
 30
0.0
 10
148.6105172070695
 20
282.0188543575372
 30
0.0
 10
148.5824877055194
 20
282.0125906812665
 30
0.0
 10
148.5571826669672
 20
282.0068841928717
 30
0.0
 10
148.5344704236556
 20
282.0017240640971
 30
0.0
 10
148.5142240862667
 20
281.9970933692765
 30
0.0
 10
148.495328679663
 20
281.9927438034334
 30
0.0
 10
148.4777965935083
 20
281.9886832206936
 30
0.0
 10
148.4616402194456
 20
281.9849194673932
 30
0.0
 10
148.446871950655
 20
281.9814603833223
 30
0.0
 10
148.4335041784013
 20
281.9783138159218
 30
0.0
 10
148.4211427049982
 20
281.9753914332456
 30
0.0
 10
148.4099195705939
 20
281.9727283632657
 30
0.0
 10
148.399960788372
 20
281.9703561064566
 30
0.0
 10
148.3917920053586
 20
281.968402627243
 30
0.0
 10
148.3854063753497
 20
281.9668697411119
 30
0.0
 10
148.3807971545358
 20
281.9657588423254
 30
0.0
 10
148.3779573811115
 20
281.9650722217866
 30
0.0
 10
148.3766534177689
 20
281.9647554297078
 30
0.0
 10
148.3762951218
 20
281.9646683833
 30
0.0
 11
154.376273563
 21
281.9646687528
 31
0.0
 11
154.3752003623652
 21
281.9649293447202
 31
0.0
 11
154.3723630516859
 21
281.9656158331337
 31
0.0
 11
154.3677550063568
 21
281.9667264869902
 31
0.0
 11
154.3613696017729
 21
281.9682595752403
 31
0.0
 11
154.3532002133289
 21
281.9702133668342
 31
0.0
 11
154.3432402164196
 21
281.972586130722
 31
0.0
 11
154.3314829864398
 21
281.975376135854
 31
0.0
 11
154.3195227031377
 21
281.9782034634979
 31
0.0
 11
154.3061498598292
 21
281.9813511609207
 31
0.0
 11
154.2913767374954
 21
281.9848113924317
 31
0.0
 11
154.2752156171174
 21
281.9885763223402
 31
0.0
 11
154.2576787796763
 21
281.9926381149556
 31
0.0
 11
154.2387785061529
 21
281.996988934587
 31
0.0
 11
154.2185270775286
 21
282.0016209455438
 31
0.0
 11
154.1969367747842
 21
282.0065263121351
 31
0.0
 11
154.1706355977415
 21
282.0124568425458
 31
0.0
 11
154.14260288959
 21
282.0187208436492
 31
0.0
 11
154.1128398123002
 21
282.0253049845786
 31
0.0
 11
154.0813475278426
 21
282.0321959344674
 31
0.0
 11
154.048127198188
 21
282.0393803624488
 31
0.0
 11
154.0131799853067
 21
282.0468449376561
 31
0.0
 11
153.9765070511695
 21
282.0545763292228
 31
0.0
 11
153.9381180025024
 21
282.0625591117773
 31
0.0
 11
153.8980562250528
 21
282.0707694819292
 31
0.0
 11
153.8563735493235
 21
282.0791815417834
 31
0.0
 11
153.8131218058174
 21
282.0877693934449
 31
0.0
 11
153.7683528250375
 21
282.0965071390184
 31
0.0
 11
153.7221184374865
 21
282.1053688806088
 31
0.0
 11
153.6744704736673
 21
282.1143287203209
 31
0.0
 11
153.6171508208122
 21
282.124873264855
 31
0.0
 11
153.5579825506206
 21
282.135486738657
 31
0.0
 11
153.4969705330412
 21
282.1461397984646
 31
0.0
 11
153.4341196380226
 21
282.1568031010151
 31
0.0
 11
153.3694347355134
 21
282.1674473030462
 31
0.0
 11
153.3029206954623
 21
282.1780430612956
 31
0.0
 11
153.2346034394032
 21
282.1885585451261
 31
0.0
 11
153.1645930959529
 21
282.1989519742897
 31
0.0
 11
153.0930208453198
 21
282.2091790811639
 31
0.0
 11
153.0200178677126
 21
282.2191955981265
 31
0.0
 11
152.9457153433399
 21
282.2289572575551
 31
0.0
 11
152.8702444524103
 21
282.2384197918272
 31
0.0
 11
152.7782903295267
 21
282.2493241395671
 31
0.0
 11
152.6848802678219
 21
282.2596963910477
 31
0.0
 11
152.5900518768161
 21
282.2694989356108
 31
0.0
 11
152.4938427660296
 21
282.2786941625987
 31
0.0
 11
152.3962905449827
 21
282.2872444613532
 31
0.0
 11
152.2974557860099
 21
282.2951126592757
 31
0.0
 11
152.1974909127033
 21
282.3022633360033
 31
0.0
 11
152.0965713114692
 21
282.3086615092324
 31
0.0
 11
151.9948723687138
 21
282.3142721966594
 31
0.0
 11
151.8925694708435
 21
282.3190604159809
 31
0.0
 11
151.7640795133303
 21
282.3238451503881
 31
0.0
 11
151.6350871862588
 21
282.3272778900624
 31
0.0
 11
151.5057597586755
 21
282.32934640653
 31
0.0
 11
151.376264499627
 21
282.3300384713178
 31
0.0
 11
151.2467687767406
 21
282.3293459338104
 31
0.0
 11
151.1174403533637
 21
282.3272769548361
 31
0.0
 11
150.9884470914247
 21
282.3238437730859
 31
0.0
 11
150.8599568528517
 21
282.3190586272511
 31
0.0
 11
150.7576545193899
 21
282.3142701077886
 31
0.0
 11
150.6559567619671
 21
282.3086591519579
 31
0.0
 11
150.5550387900335
 21
282.302260747643
 31
0.0
 11
150.4550758130396
 21
282.2951098827274
 31
0.0
 11
150.3562430404359
 21
282.287241545095
 31
0.0
 11
150.2586927259072
 21
282.2786911540292
 31
0.0
 11
150.1624853000754
 21
282.2694958544127
 31
0.0
 11
150.0676582377969
 21
282.2596932225279
 31
0.0
 11
149.974249013928
 21
282.2493208346575
 31
0.0
 11
149.882295103325
 21
282.2384162670839
 31
0.0
 11
149.8068238776471
 21
282.2289534733744
 31
0.0
 11
149.7325207920098
 21
282.2191915264902
 31
0.0
 11
149.6595173280393
 21
282.2091747478528
 31
0.0
 11
149.5879449673615
 21
282.1989474588839
 31
0.0
 11
149.5179351916027
 21
282.188553981005
 31
0.0
 11
149.449619482389
 21
282.1780386356381
 31
0.0
 11
149.3831081299276
 21
282.1674432312508
 31
0.0
 11
149.3184266594639
 21
282.1567995246099
 31
0.0
 11
149.255579404818
 21
282.1461367595284
 31
0.0
 11
149.1945706998099
 21
282.1354841798198
 31
0.0
 11
149.1354048782595
 21
282.1248710292969
 31
0.0
 11
149.0780862739871
 21
282.1143265517732
 31
0.0
 11
149.0304378065744
 21
282.1053665124413
 31
0.0
 11
148.9842018648838
 21
282.0965043809419
 31
0.0
 11
148.939430651382
 21
282.0877661262248
 31
0.0
 11
148.8961763685356
 21
282.0791777172399
 31
0.0
 11
148.8544912188111
 21
282.0707651229373
 31
0.0
 11
148.8144274046753
 21
282.0625543122668
 31
0.0
 11
148.7760371285947
 21
282.0545712541785
 31
0.0
 11
148.7393640441538
 21
282.0468398030138
 31
0.0
 11
148.7044176094095
 21
282.0393753546816
 31
0.0
 11
148.6711987335365
 21
282.0321911904819
 31
0.0
 11
148.6397083257096
 21
282.0253005917152
 31
0.0
 11
148.6099472951034
 21
282.0187168396816
 31
0.0
 11
148.5819165508928
 21
282.0124532156814
 31
0.0
 11
148.5556170022524
 21
282.0065230010148
 31
0.0
 11
148.5340276967142
 21
282.0016178303545
 31
0.0
 11
148.5137769232589
 21
281.9969859508687
 31
0.0
 11
148.4948770712789
 21
281.9926352187164
 31
0.0
 11
148.4773405301666
 21
281.9885734900567
 31
0.0
 11
148.4611796893142
 21
281.9848086210483
 31
0.0
 11
148.4464069381143
 21
281.9813484678504
 31
0.0
 11
148.433034665959
 21
281.9782008866217
 31
0.0
 11
148.4210752622406
 21
281.9753737335212
 31
0.0
 11
148.4093217687297
 21
281.9725845561771
 31
0.0
 11
148.3993650793188
 21
281.9702125051469
 31
0.0
 11
148.3911983776661
 21
281.9682592729617
 31
0.0
 11
148.3848148474297
 21
281.9667265521531
 31
0.0
 11
148.3802076722678
 21
281.9656160352525
 31
0.0
 11
148.3773700358386
 21
281.964929414791
 31
0.0
 11
148.3762951218
 21
281.9646683833
 31
0.0
  0
SPLINE
  5
101
330
1F
100
AcDbEntity
  8
BEZUGSACHSEN
  6
Continuous
 62
     7
100
AcDbSpline
210
0.0
220
0.0
230
1.0
 70
     8
 71
     3
 72
    15
 73
    11
 74
     9
 42
0.0000000001
 43
0.0000000001
 44
0.00000001
 40
0.0
 40
0.0
 40
0.0
 40
0.0
 40
0.9628201222447625
 40
1.9260055497075
 40
2.746145156376183
 40
3.566131340559075
 40
4.124321692980471
 40
4.682477186041597
 40
4.882745115048082
 40
5.083000347091263
 40
5.083000347091263
 40
5.083000347091263
 40
5.083000347091263
 10
116.3762842006
 20
309.6633837244
 30
0.0
 10
116.0552945102903
 20
309.6693162277994
 30
0.0
 10
115.4131933424271
 20
309.6811834854593
 30
0.0
 10
114.5012831286559
 20
309.770778650157
 30
0.0
 10
113.6429836214708
 20
309.9002425368809
 30
0.0
 10
112.924483273329
 20
310.045831007207
 30
0.0
 10
112.2972266336954
 20
310.1983244163393
 30
0.0
 10
111.8740511007201
 20
310.3149080468038
 30
0.0
 10
111.5675986559507
 20
310.4055099036865
 30
0.0
 10
111.4400543379583
 20
310.4449700987374
 30
0.0
 10
111.3762842006
 20
310.4646995708
 30
0.0
 11
116.3762842006
 21
309.6633837244
 31
0.0
 11
115.4139484028179
 21
309.6939189517053
 31
0.0
 11
114.455016965681
 21
309.7843438738616
 31
0.0
 11
113.6441035223233
 21
309.9070156383734
 31
0.0
 11
112.8403327247913
 21
310.0692803828053
 31
0.0
 11
112.2979210808888
 21
310.201060799011
 31
0.0
 11
111.7597408892181
 21
310.3490460541129
 31
0.0
 11
111.5677164619386
 21
310.405913115902
 31
0.0
 11
111.3762842006
 21
310.4646995708
 31
0.0
  0
SPLINE
  5
102
330
1F
100
AcDbEntity
  8
BEZUGSACHSEN
  6
Continuous
 62
     7
100
AcDbSpline
210
0.0
220
0.0
230
1.0
 70
     8
 71
     3
 72
    19
 73
    15
 74
    13
 42
0.0000000001
 43
0.0000000001
 44
0.00000001
 40
0.0
 40
0.0
 40
0.0
 40
0.0
 40
0.3715010537622468
 40
0.743023433314633
 40
1.150310896299738
 40
1.557602067172237
 40
2.037137143474955
 40
2.516686726589054
 40
2.99623865804668
 40
3.475776081868941
 40
3.883084356962228
 40
4.290388930925942
 40
4.661924006646138
 40
5.033437741191235
 40
5.033437741191235
 40
5.033437741191235
 40
5.033437741191235
 10
148.8762842006
 20
281.9646995708
 30
0.0
 10
148.9979036983847
 20
281.9880544215104
 30
0.0
 10
149.2411496754468
 20
282.0347654636021
 30
0.0
 10
149.6200901495926
 20
282.0938010192091
 30
0.0
 10
150.0123452730484
 20
282.1437468554693
 30
0.0
 10
150.4418850620711
 20
282.1842927958986
 30
0.0
 10
150.8966773140548
 20
282.2109657228733
 30
0.0
 10
151.3762528336131
 20
282.2203828346321
 30
0.0
 10
151.8558291903152
 20
282.2109683660817
 30
0.0
 10
152.3106288368539
 20
282.1842973167026
 30
0.0
 10
152.7401809223299
 20
282.1437518387276
 30
0.0
 10
153.1324516758331
 20
282.0938048982338
 30
0.0
 10
153.5114062230424
 20
282.0347676330847
 30
0.0
 10
153.7546605369242
 20
281.9880551443503
 30
0.0
 10
153.8762842006
 20
281.9646995708
 30
0.0
 11
148.8762842006
 21
281.9646995708
 31
0.0
 11
149.2415236895609
 21
282.0326197345959
 31
0.0
 11
149.6085360552977
 21
282.0903328345344
 31
0.0
 11
150.0125901304823
 21
282.1415517942229
 31
0.0
 11
150.4180795010023
 21
282.1798201658372
 31
0.0
 11
150.8967944123094
 21
282.207854485819
 31
0.0
 11
151.376252059881
 21
282.2172442062617
 31
0.0
 11
151.8557121069433
 21
282.2078570748678
 31
0.0
 11
152.3344295023618
 21
282.1798250187576
 31
0.0
 11
152.7399360469612
 21
282.1415565820696
 31
0.0
 11
153.144007214456
 21
282.0903363949248
 31
0.0
 11
153.5110321958862
 21
282.032621791083
 31
0.0
 11
153.8762842006
 21
281.9646995708
 31
0.0
  0
SPLINE
  5
103
330
1F
100
AcDbEntity
  8
BEZUGSACHSEN
  6
Continuous
 62
     7
100
AcDbSpline
210
0.0
220
0.0
230
1.0
 70
     8
 71
     3
 72
    15
 73
    11
 74
     9
 42
0.0000000001
 43
0.0000000001
 44
0.00000001
 40
0.0
 40
0.0
 40
0.0
 40
0.0
 40
0.2002489394674639
 40
0.4005105764431074
 40
0.9586560728551661
 40
1.516836420976108
 40
2.336828142707617
 40
3.156973315677734
 40
4.120169472651299
 40
5.08300028983691
 40
5.08300028983691
 40
5.08300028983691
 40
5.08300028983691
 10
121.3762842006
 20
310.4646995708
 30
0.0
 10
121.3125160636502
 20
310.4449707299626
 30
0.0
 10
121.1849757463011
 20
310.4055117973093
 30
0.0
 10
120.8785305594314
 20
310.3149119430334
 30
0.0
 10
120.4553636015119
 20
310.1983302018681
 30
0.0
 10
119.8281118968608
 20
310.045836916986
 30
0.0
 10
119.1096113841786
 20
309.9002473658541
 30
0.0
 10
118.2513048340708
 20
309.7707814046299
 30
0.0
 10
117.339385769766
 20
309.6811840645483
 30
0.0
 10
116.697277457399
 20
309.6693164207419
 30
0.0
 10
116.3762842006
 20
309.6633837244
 30
0.0
 11
121.3762842006
 21
310.4646995708
 31
0.0
 11
121.1848579501595
 21
310.4059149775793
 31
0.0
 11
120.9928395785822
 21
310.3490496259055
 31
0.0
 11
120.4546691741566
 21
310.2010664817118
 31
0.0
 11
119.9122674585372
 21
310.069287576262
 31
0.0
 11
119.1084914729705
 21
309.9070205471574
 31
0.0
 11
118.2975726797181
 21
309.7843469334652
 31
0.0
 11
117.3386306706702
 21
309.6939198352495
 31
0.0
 11
116.3762842006
 21
309.6633837244
 31
0.0
  0
SPLINE
  5
104
330
1F
100
AcDbEntity
  8
RUNDUNGEN
  6
Continuous
 62
     7
100
AcDbSpline
210
0.0
220
0.0
230
1.0
 70
     8
 71
     3
 72
    15
 73
    11
 74
     9
 42
0.0000000001
 43
0.0000000001
 44
0.00000001
 40
0.0
 40
0.0
 40
0.0
 40
0.0
 40
0.0931623162932727
 40
0.1866550545951507
 40
0.2771610326423265
 40
0.3676563365628993
 40
0.4555076255240424
 40
0.5433695152668226
 40
0.6298939393197761
 40
0.7163624470413616
 40
0.7163624470413616
 40
0.7163624470413616
 40
0.7163624470413616
 10
95.6762842006
 20
299.7269422635
 30
0.0
 10
95.70740177085655
 20
299.7284515274941
 30
0.0
 10
95.76974727713207
 20
299.7314754084413
 30
0.0
 10
95.8611752144972
 20
299.7127789091012
 30
0.0
 10
95.94640714325504
 20
299.6785001662402
 30
0.0
 10
96.02307331696015
 20
299.6313426155114
 30
0.0
 10
96.09164387249875
 20
299.5746484942343
 30
0.0
 10
96.15198053429748
 20
299.5111886098643
 30
0.0
 10
96.20589876597919
 20
299.4427725155437
 30
0.0
 10
96.2367997918289
 20
299.3940519697502
 30
0.0
 10
96.2522453107
 20
299.3696995708
 30
0.0
 11
95.6762842006
 21
299.7269422635
 31
0.0
 11
95.76944433346921
 21
299.7275800886468
 31
0.0
 11
95.86124041458292
 21
299.7098495610927
 31
0.0
 11
95.94526345550031
 21
299.6762123695145
 31
0.0
 11
96.02256092428227
 21
299.6291538808904
 31
0.0
 11
96.09043333799002
 21
299.5733758885492
 31
0.0
 11
96.15125302811808
 21
299.5099670803133
 31
0.0
 11
96.20469546177571
 21
299.4419201682419
 31
0.0
 11
96.2522453107
 21
299.3696995708
 31
0.0
  0
SPLINE
  5
105
330
1F
100
AcDbEntity
  8
RUNDUNGEN
  6
Continuous
 62
     7
100
AcDbSpline
210
0.0
220
0.0
230
1.0
 70
     8
 71
     3
 72
    11
 73
     7
 74
     5
 42
0.0000000001
 43
0.0000000001
 44
0.00000001
 40
0.0
 40
0.0
 40
0.0
 40
0.0
 40
0.2750623372454802
 40
0.5511071088871466
 40
0.8235221050757341
 40
1.095557809806655
 40
1.095557809806655
 40
1.095557809806655
 40
1.095557809806655
 10
96.5762842006
 20
290.5928155999
 30
0.0
 10
96.57138987422616
 20
290.5010331382254
 30
0.0
 10
96.56158374051532
 20
290.3171403973778
 30
0.0
 10
96.49006055273881
 20
290.0504373797604
 30
0.0
 10
96.38775778375121
 20
289.7960725131054
 30
0.0
 10
96.29739515134796
 20
289.638453949923
 30
0.0
 10
96.2522453107
 20
289.5596995708
 30
0.0
 11
96.5762842006
 21
290.5928155999
 31
0.0
 11
96.55212068446454
 21
290.3188166695026
 31
0.0
 11
96.48448883760351
 21
290.0511851144855
 31
0.0
 11
96.38208309284856
 21
289.7987509773534
 31
0.0
 11
96.2522453107
 21
289.5596995708
 31
0.0
  0
SPLINE
  5
106
330
1F
100
AcDbEntity
  8
RUNDUNGEN
  6
Continuous
 62
     7
100
AcDbSpline
210
0.0
220
0.0
230
1.0
 70
     8
 71
     3
 72
    15
 73
    11
 74
     9
 42
0.0000000001
 43
0.0000000001
 44
0.00000001
 40
0.0
 40
0.0
 40
0.0
 40
0.0
 40
0.0864708479093316
 40
0.1729975736127045
 40
0.2608622577583708
 40
0.3487164648780408
 40
0.4392125794163997
 40
0.5297191468249295
 40
0.6232058226796277
 40
0.7163622618866844
 40
0.7163622618866844
 40
0.7163622618866844
 40
0.7163622618866844
 10
96.2522453107
 20
289.5596995708
 30
0.0
 10
96.23679937503098
 20
289.5353465111759
 30
0.0
 10
96.20589752247
 20
289.4866246548871
 30
0.0
 10
96.15197741224378
 20
289.4182068470067
 30
0.0
 10
96.09163788647102
 20
289.3547459552999
 30
0.0
 10
96.02306461152763
 20
289.2980517216607
 30
0.0
 10
95.94639676995166
 20
289.2508942013343
 30
0.0
 10
95.86116579627473
 20
289.2166170345922
 30
0.0
 10
95.7697412475471
 20
289.1979233952405
 30
0.0
 10
95.70739978166355
 20
289.2009475007119
 30
0.0
 10
95.6762842006
 20
289.2024568781
 30
0.0
 11
96.2522453107
 21
289.5596995708
 31
0.0
 11
96.20469412107464
 21
289.4874770542046
 31
0.0
 11
96.15124987480621
 21
289.4194286390743
 31
0.0
 11
96.090427342219
 21
289.3560186852051
 31
0.0
 11
96.02255173062771
 21
289.3002399880194
 31
0.0
 11
95.94525299970057
 21
289.2531820137366
 31
0.0
 11
95.861228922209
 21
289.2195458256981
 31
0.0
 11
95.76943845056276
 21
289.2018182235669
 31
0.0
 11
95.6762842006
 21
289.2024568781
 31
0.0
  0
SPLINE
  5
107
330
1F
100
AcDbEntity
  8
0
  6
Continuous
 62
     7
100
AcDbSpline
210
0.0
220
0.0
230
1.0
 70
     8
 71
     3
 72
    25
 73
    21
 74
    19
 42
0.0000000001
 43
0.0000000001
 44
0.00000001
 40
0.0
 40
0.0
 40
0.0
 40
0.0
 40
0.0604406726547501
 40
0.120890937575213
 40
0.1783788230780265
 40
0.2358687180460825
 40
0.2893007099529427
 40
0.3427196953703817
 40
0.3907247440460359
 40
0.4388250889697379
 40
0.4810912364933886
 40
0.5230165749436719
 40
0.5426397734310053
 40
0.5622645056817269
 40
0.5820559875223267
 40
0.6018420342654455
 40
0.6453512810164845
 40
0.6892978002300867
 40
0.7409879875071843
 40
0.7925232210234044
 40
0.7925232210234044
 40
0.7925232210234044
 40
0.7925232210234044
 10
94.0462602176
 20
289.3288575712
 30
0.0
 10
94.03171301878369
 20
289.3149152646047
 30
0.0
 10
94.00261631243096
 20
289.2870284386938
 30
0.0
 10
93.95755172505999
 20
289.2481952802759
 30
0.0
 10
93.9115771882206
 20
289.2120248376071
 30
0.0
 10
93.86551711543206
 20
289.179871244052
 30
0.0
 10
93.81864119727075
 20
289.1514388529629
 30
0.0
 10
93.77245589003329
 20
289.1282427133851
 30
0.0
 10
93.72595797331276
 20
289.110044422333
 30
0.0
 10
93.68100413292905
 20
289.0989441812767
 30
0.0
 10
93.63686200828002
 20
289.0952702384098
 30
0.0
 10
93.6021302693211
 20
289.0996351632426
 30
0.0
 10
93.57648329296583
 20
289.1084997586889
 30
0.0
 10
93.55889101133991
 20
289.1174784221296
 30
0.0
 10
93.54280878828084
 20
289.1290426354872
 30
0.0
 10
93.52279623828598
 20
289.1483130482042
 30
0.0
 10
93.50292325579653
 20
289.1786194123147
 30
0.0
 10
93.48672402945348
 20
289.2223138111718
 30
0.0
 10
93.4775483291385
 20
289.2707897058766
 30
0.0
 10
93.47670515487755
 20
289.305224703582
 30
0.0
 10
93.4762842006
 20
289.3224163569
 30
0.0
 11
94.0462602176
 21
289.3288575712
 31
0.0
 11
94.00225755937844
 21
289.2874227913599
 31
0.0
 11
93.95651094490756
 21
289.2479072021146
 31
0.0
 11
93.91124919516803
 21
289.2124638530897
 31
0.0
 11
93.86405758950127
 21
289.1796303278749
 31
0.0
 11
93.81828984734481
 21
289.1520569432978
 31
0.0
 11
93.77048316928676
 21
289.128221894817
 31
0.0
 11
93.72565416816134
 21
289.1110508332176
 31
0.0
 11
93.67888356590441
 21
289.0998190058372
 31
0.0
 11
93.63672955735534
 21
289.0967421909687
 31
0.0
 11
93.59520020965076
 21
289.102490867634
 31
0.0
 11
93.57666016614297
 21
289.108920230402
 31
0.0
 11
93.55919793017443
 21
289.1178756997304
 31
0.0
 11
93.54311199958603
 21
289.129405903135
 31
0.0
 11
93.52885388728839
 21
289.1431242805693
 31
0.0
 11
93.50449549257768
 21
289.1791759540389
 31
0.0
 11
93.48871747719159
 21
289.2201924236757
 31
0.0
 11
93.47894101924243
 21
289.27094965302
 31
0.0
 11
93.4762842006
 21
289.3224163569
 31
0.0
  0
SPLINE
  5
108
330
1F
100
AcDbEntity
  8
FASEN
  6
Continuous
 62
     7
100
AcDbSpline
210
0.0
220
0.0
230
1.0
 70
     8
 71
     3
 72
    39
 73
    35
 74
    33
 42
0.0000000001
 43
0.0000000001
 44
0.00000001
 40
0.0
 40
0.0
 40
0.0
 40
0.0
 40
0.2553577285359853
 40
0.5109896323666921
 40
0.7663075576909075
 40
1.02154600207939
 40
1.276529593129965
 40
1.531532755333507
 40
1.786374926178458
 40
2.041212220299173
 40
2.29617946091621
 40
2.551148967990664
 40
2.806438834216793
 40
3.061729585171892
 40
3.317263360185352
 40
3.572798987527175
 40
3.828233600008921
 40
4.083666629324683
 40
4.338551083541867
 40
4.593435980631222
 40
4.847479664007607
 40
5.101516738195301
 40
5.354764944582739
 40
5.608016841191267
 40
5.860907655030732
 40
6.113791644778055
 40
6.366940163674284
 40
6.620098299809767
 40
6.874044587939267
 40
7.127973589650019
 40
7.382778237938242
 40
7.637655536292703
 40
7.89321623553538
 40
8.148518090540126
 40
8.148518090540126
 40
8.148518090540126
 40
8.148518090540126
 10
101.7770358711
 20
294.4646995708
 30
0.0
 10
101.7794454299734
 20
294.5498545402936
 30
0.0
 10
101.7842671348419
 20
294.7202559094052
 30
0.0
 10
101.8235156581511
 20
294.9732992082417
 30
0.0
 10
101.885628995538
 20
295.2213550845138
 30
0.0
 10
101.9722966220261
 20
295.4618493096416
 30
0.0
 10
102.0822342307813
 20
295.6924671288134
 30
0.0
 10
102.2144048704556
 20
295.9109698667336
 30
0.0
 10
102.3676358465857
 20
296.1151880505253
 30
0.0
 10
102.5403019543383
 20
296.303244002696
 30
0.0
 10
102.7308035103489
 20
296.4732682285055
 30
0.0
 10
102.9372160898137
 20
296.6238273576595
 30
0.0
 10
103.1575343274849
 20
296.7533953728727
 30
0.0
 10
103.3895947495378
 20
296.8609570859965
 30
0.0
 10
103.6311008747325
 20
296.9454366639549
 30
0.0
 10
103.8796759502407
 20
297.0062217372134
 30
0.0
 10
104.1329211895028
 20
297.0427313576485
 30
0.0
 10
104.3882853219436
 20
297.0547403621537
 30
0.0
 10
104.643434253001
 20
297.0420912732728
 30
0.0
 10
104.8957270840755
 20
297.0050174908315
 30
0.0
 10
105.1429677296842
 20
296.9437424938429
 30
0.0
 10
105.3825860605623
 20
296.8589381816712
 30
0.0
 10
105.6124830472109
 20
296.7511301832002
 30
0.0
 10
105.8303913999344
 20
296.6215208133891
 30
0.0
 10
106.0343444141974
 20
296.4711045969492
 30
0.0
 10
106.2224536020413
 20
296.3013355225957
 30
0.0
 10
106.3927894462395
 20
296.1136163143798
 30
0.0
 10
106.5439548347734
 20
295.9097068351292
 30
0.0
 10
106.6743112560082
 20
295.6915967832288
 30
0.0
 10
106.7828085093882
 20
295.4612443139101
 30
0.0
 10
106.8683431807121
 20
295.2210370273061
 30
0.0
 10
106.9296583481961
 20
294.9731115230832
 30
0.0
 10
106.9683217910068
 20
294.7201876787818
 30
0.0
 10
106.9731297625045
 20
294.5498335017314
 30
0.0
 10
106.9755325302
 20
294.4646995708
 30
0.0
 11
101.7770358711
 21
294.4646995708
 31
0.0
 11
101.7895963258268
 21
294.7197482024374
 31
0.0
 11
101.8273494240635
 21
294.9725769465106
 31
0.0
 11
101.8897394356586
 21
295.2201546705591
 31
0.0
 11
101.976214173081
 21
295.4602979263078
 31
0.0
 11
102.0859468620448
 21
295.6904617129421
 31
0.0
 11
102.2179495734913
 21
295.9086403024154
 31
0.0
 11
102.3708767337544
 21
296.1124976439433
 31
0.0
 11
102.5432386197376
 21
296.3002033357459
 31
0.0
 11
102.7334348644926
 21
296.4700081715692
 31
0.0
 11
102.939429366797
 21
296.6202603414641
 31
0.0
 11
103.1594634183995
 21
296.7497127726238
 31
0.0
 11
103.3910812759954
 21
296.857074476997
 31
0.0
 11
103.6322710378124
 21
296.9414842451952
 31
0.0
 11
103.8804928781857
 21
297.0021832962806
 31
0.0
 11
104.1333110045523
 21
297.0386502160048
 31
0.0
 11
104.3884629346553
 21
297.0506304092479
 31
0.0
 11
104.6430348607958
 21
297.0380121913566
 31
0.0
 11
104.8952064828478
 21
297.0009206317254
 31
0.0
 11
105.1417866204765
 21
296.9397942970531
 31
0.0
 11
105.3812499290304
 21
296.8549876999143
 31
0.0
 11
105.6105406855001
 21
296.747468385203
 31
0.0
 11
105.8281826766145
 21
296.6179751929512
 31
0.0
 11
106.0317110756173
 21
296.4678753777488
 31
0.0
 11
106.2194184306485
 21
296.2984166478536
 31
0.0
 11
106.3895559854797
 21
296.110966961123
 31
0.0
 11
106.5403166732674
 21
295.9075947483962
 31
0.0
 11
106.6706279615558
 21
295.6896321704169
 31
0.0
 11
106.7788505743146
 21
295.4599197327966
 31
0.0
 11
106.8642729803521
 21
295.2198605289821
 31
0.0
 11
106.9258321915993
 21
294.9725289686687
 31
0.0
 11
106.963082966304
 21
294.7196976992788
 31
0.0
 11
106.9755325302
 21
294.4646995708
 31
0.0
  0
SPLINE
  5
109
330
1F
100
AcDbEntity
  8
0
  6
Continuous
 62
     7
100
AcDbSpline
210
0.0
220
0.0
230
1.0
 70
     8
 71
     3
 72
    25
 73
    21
 74
    19
 42
0.0000000001
 43
0.0000000001
 44
0.00000001
 40
0.0
 40
0.0
 40
0.0
 40
0.0
 40
0.0515355898441807
 40
0.1032261445869448
 40
0.1471729976750289
 40
0.19068254032378
 40
0.2104686838998135
 40
0.2302602712835614
 40
0.2498850527399083
 40
0.2695082948645153
 40
0.3114337745126051
 40
0.3537000625620613
 40
0.401800148466308
 40
0.449804938648524
 40
0.5032236942373529
 40
0.5566554561621515
 40
0.6141450523773073
 40
0.6716326391944227
 40
0.7320826682014631
 40
0.7925231052246167
 40
0.7925231052246167
 40
0.7925231052246167
 40
0.7925231052246167
 10
93.4762842006
 20
299.6069827847
 30
0.0
 10
93.47670515663482
 20
299.6241745571746
 30
0.0
 10
93.47754833449788
 20
299.6586097969097
 30
0.0
 10
93.4867241759652
 20
299.7070860328054
 30
0.0
 10
93.50292370131257
 20
299.7507806843273
 30
0.0
 10
93.52279709183318
 20
299.7810871036069
 30
0.0
 10
93.54281004436714
 20
299.8003573433452
 30
0.0
 10
93.55889250364639
 20
299.8119213688125
 30
0.0
 10
93.57648494377311
 20
299.8208998608399
 30
0.0
 10
93.60213207525567
 20
299.8297642422735
 30
0.0
 10
93.63686395181061
 20
299.83412891001
 30
0.0
 10
93.6810060586765
 20
299.8304546750689
 30
0.0
 10
93.72595971071425
 20
299.8193542150029
 30
0.0
 10
93.77245732012781
 20
299.8011558302951
 30
0.0
 10
93.81864234968813
 20
299.7779596758703
 30
0.0
 10
93.86551800195905
 20
299.7495273361178
 30
0.0
 10
93.9115778122404
 20
299.7173738498038
 30
0.0
 10
93.95755210772761
 20
299.6812035503052
 30
0.0
 10
94.00261648567252
 20
299.6423705427925
 30
0.0
 10
94.0317130765082
 20
299.6144838236456
 30
0.0
 10
94.0462602176
 20
299.6005415704
 30
0.0
 11
93.4762842006
 21
299.6069827847
 31
0.0
 11
93.47894104774072
 21
299.6584498439113
 31
0.0
 11
93.48871766260208
 21
299.7092074172523
 31
0.0
 11
93.5044959825174
 21
299.7502241274689
 31
0.0
 11
93.52885487594556
 21
299.7862758210832
 31
0.0
 11
93.54311324939394
 21
299.7999940667516
 31
0.0
 11
93.55919942857021
 21
299.8115241045086
 31
0.0
 11
93.5766618123744
 21
299.8204793933975
 31
0.0
 11
93.59520195809976
 21
299.8269085945892
 31
0.0
 11
93.63673149117108
 21
299.8326569618879
 31
0.0
 11
93.67888561908187
 21
299.8295798519516
 31
0.0
 11
93.72565590654969
 21
299.8183478230088
 31
0.0
 11
93.77048459697447
 21
299.8011766729239
 31
0.0
 11
93.81829100420222
 21
299.7773415963217
 31
0.0
 11
93.86405850024947
 21
299.7497682489015
 31
0.0
 11
93.9112498232953
 21
299.7169348405776
 31
0.0
 11
93.95651131439674
 21
299.6814916457254
 31
0.0
 11
94.00225773596708
 21
299.6419761940582
 31
0.0
 11
94.0462602176
 21
299.6005415704
 31
0.0
  0
SPLINE
  5
10A
330
1F
100
AcDbEntity
  8
RUNDUNGEN
  6
Continuous
 62
     7
100
AcDbSpline
210
0.0
220
0.0
230
1.0
 70
     8
 71
     3
 72
    11
 73
     7
 74
     5
 42
0.0000000001
 43
0.0000000001
 44
0.00000001
 40
0.0
 40
0.0
 40
0.0
 40
0.0
 40
0.0238381022456266
 40
0.0476864043346487
 40
0.1197902706049221
 40
0.1918689067559428
 40
0.1918689067559428
 40
0.1918689067559428
 40
0.1918689067559428
 10
129.3262842006
 20
297.7686560702
 30
0.0
 10
129.3263637924205
 20
297.760709193102
 30
0.0
 10
129.3265230101171
 20
297.7448120385976
 30
0.0
 10
129.3287222907005
 20
297.7049399376053
 30
0.0
 10
129.3352353343194
 20
297.6491420356695
 30
0.0
 10
129.3470394986998
 20
297.6025110058092
 30
0.0
 10
129.3529405481
 20
297.5791995708
 30
0.0
 11
129.3262842006
 21
297.7686560702
 31
0.0
 11
129.326701968792
 21
297.744821628977
 31
0.0
 11
129.3279572734568
 21
297.7210063875815
 31
0.0
 11
129.336790732386
 21
297.6494456613801
 31
0.0
 11
129.3529405481
 21
297.5791995708
 31
0.0
  0
SPLINE
  5
10B
330
1F
100
AcDbEntity
  8
RUNDUNGEN
  6
Continuous
 62
     7
100
AcDbSpline
210
0.0
220
0.0
230
1.0
 70
     8
 71
     3
 72
    13
 73
     9
 74
     7
 42
0.0000000001
 43
0.0000000001
 44
0.00000001
 40
0.0
 40
0.0
 40
0.0
 40
0.0
 40
0.779995047159463
 40
1.560060158422452
 40
1.95008491812383
 40
2.340101756285609
 40
2.730136247670523
 40
3.120152921393418
 40
3.120152921393418
 40
3.120152921393418
 40
3.120152921393418
 10
129.3529405481
 20
297.5791995708
 30
0.0
 10
129.3697408091143
 20
297.3197404888343
 30
0.0
 10
129.4033428402491
 20
296.8007990186422
 30
0.0
 10
129.4560094509693
 20
296.1528854868102
 30
0.0
 10
129.4901269008629
 20
295.6339550577636
 30
0.0
 10
129.5102854399295
 20
295.2444406860129
 30
0.0
 10
129.523643936973
 20
294.8546024586748
 30
0.0
 10
129.5254041258596
 20
294.5945809087839
 30
0.0
 10
129.5262842002
 20
294.4645731035
 30
0.0
 11
129.3529405481
 21
297.5791995708
 31
0.0
 11
129.4054739014353
 21
296.8009756182126
 31
0.0
 11
129.4638710508443
 21
296.0230994386374
 31
0.0
 11
129.489222155951
 21
295.6338994455105
 31
0.0
 11
129.5091518612606
 21
295.2443921401926
 31
0.0
 11
129.5218576731945
 21
294.8545646567939
 31
0.0
 11
129.5262842002
 21
294.4645731035
 31
0.0
  0
SPLINE
  5
10C
330
1F
100
AcDbEntity
  8
RUNDUNGEN
  6
Continuous
 62
     7
100
AcDbSpline
210
0.0
220
0.0
230
1.0
 70
     8
 71
     3
 72
    13
 73
     9
 74
     7
 42
0.0000000001
 43
0.0000000001
 44
0.00000001
 40
0.0
 40
0.0
 40
0.0
 40
0.0
 40
0.3899850646691706
 40
0.779987943492527
 40
1.169973161420015
 40
1.559966299068874
 40
2.339968177882794
 40
3.119899999947389
 40
3.119899999947389
 40
3.119899999947389
 40
3.119899999947389
 10
129.5262842002
 20
294.4645731035
 30
0.0
 10
129.5254023659456
 20
294.334575848341
 30
0.0
 10
129.5236386571553
 20
294.0745753998696
 30
0.0
 10
129.5102770791823
 20
293.6847689269148
 30
0.0
 10
129.4901173339638
 20
293.2952862843276
 30
0.0
 10
129.4560004856814
 20
292.7763980744347
 30
0.0
 10
129.4033381750314
 20
292.1285370667513
 30
0.0
 10
129.3697392541004
 20
291.6096376348452
 30
0.0
 10
129.3529405481
 20
291.3501995708
 30
0.0
 11
129.5262842002
 21
294.4645731035
 31
0.0
 11
129.5218527598909
 21
294.0746132170991
 31
0.0
 11
129.5091438127884
 21
293.6848174652571
 31
0.0
 11
129.4892128652589
 21
293.295341885108
 31
0.0
 11
129.4638621719249
 21
292.906173554227
 31
0.0
 11
129.4054691539837
 21
292.1283604748763
 31
0.0
 11
129.3529405481
 21
291.3501995708
 31
0.0
  0
SPLINE
  5
10D
330
1F
100
AcDbEntity
  8
RUNDUNGEN
  6
Continuous
 62
     7
100
AcDbSpline
210
0.0
220
0.0
230
1.0
 70
     8
 71
     3
 72
    11
 73
     7
 74
     5
 42
0.0000000001
 43
0.0000000001
 44
0.00000001
 40
0.0
 40
0.0
 40
0.0
 40
0.0
 40
0.0241822872394307
 40
0.0483754850997649
 40
0.1201406551889739
 40
0.1918681084485904
 40
0.1918681084485904
 40
0.1918681084485904
 40
0.1918681084485904
 10
129.3529405481
 20
291.3501995708
 30
0.0
 10
129.3508100351995
 20
291.3424241818903
 30
0.0
 10
129.3465480481487
 20
291.3268698959527
 30
0.0
 10
129.3376690683715
 20
291.287818165985
 30
0.0
 10
129.3284819962309
 20
291.2325142294499
 30
0.0
 10
129.3270166707574
 20
291.1846625981725
 30
0.0
 10
129.3262842006
 20
291.1607430714
 30
0.0
 11
129.3529405481
 21
291.3501995708
 31
0.0
 11
129.3467206327071
 21
291.3268308808787
 31
0.0
 11
129.3413014783949
 21
291.3032524248383
 31
0.0
 11
129.3300798365516
 21
291.2323700265135
 31
0.0
 11
129.3262842006
 21
291.1607430714
 31
0.0
  0
SPLINE
  5
10E
330
1F
100
AcDbEntity
  8
0
  6
Continuous
 62
     7
100
AcDbSpline
210
0.0
220
0.0
230
1.0
 70
     8
 71
     3
 72
    19
 73
    15
 74
    13
 42
0.0000000001
 43
0.0000000001
 44
0.00000001
 40
0.0
 40
0.0
 40
0.0
 40
0.0
 40
0.0161946968990544
 40
0.0325629814980438
 40
0.0487883952711906
 40
0.0649854784792319
 40
0.0811702249041159
 40
0.0973487888772611
 40
0.1135238754753639
 40
0.1297004761023316
 40
0.1620346810742621
 40
0.19438425435872
 40
0.2267297214024457
 40
0.2590669274064465
 40
0.2590669274064465
 40
0.2590669274064465
 40
0.2590669274064465
 10
126.1637842006
 20
291.5508318662
 30
0.0
 10
126.1691912880171
 20
291.5503206210619
 30
0.0
 10
126.1800634203341
 20
291.5492926508519
 30
0.0
 10
126.1951063152718
 20
291.5424888134124
 30
0.0
 10
126.2085102089397
 20
291.5332038697401
 30
0.0
 10
126.2202699951925
 20
291.521983359803
 30
0.0
 10
126.2309081750947
 20
291.5097660489702
 30
0.0
 10
126.2405626794404
 20
291.496764908787
 30
0.0
 10
126.2494113212541
 20
291.4832138732265
 30
0.0
 10
126.2603001150289
 20
291.4645961583084
 30
0.0
 10
126.2725713536414
 20
291.4405717518333
 30
0.0
 10
126.2855476238065
 20
291.410934001456
 30
0.0
 10
126.2973282748624
 20
291.380800388601
 30
0.0
 10
126.3043094745588
 20
291.3603989748685
 30
0.0
 10
126.3077996286
 20
291.3501995708
 30
0.0
 11
126.1637842006
 21
291.5508318662
 31
0.0
 11
126.1797996723625
 21
291.5484291860554
 31
0.0
 11
126.1948741121932
 21
291.5420509414298
 31
0.0
 11
126.2082517682596
 21
291.5328693092068
 31
0.0
 11
126.2200877464747
 21
291.5218124052939
 31
0.0
 11
126.2307463022788
 21
291.5096328648671
 31
0.0
 11
126.2404293012876
 21
291.4966719442813
 31
0.0
 11
126.2492978319052
 21
291.4831448384881
 31
0.0
 11
126.2574908404258
 21
291.4691964687186
 31
0.0
 11
126.2722777157377
 21
291.4404414842868
 31
0.0
 11
126.2853487897186
 21
291.4108502369884
 31
0.0
 11
126.2971112469026
 21
291.3807192921099
 31
0.0
 11
126.3077996286
 21
291.3501995708
 31
0.0
  0
SPLINE
  5
10F
330
1F
100
AcDbEntity
  8
0
  6
Continuous
 62
     7
100
AcDbSpline
210
0.0
220
0.0
230
1.0
 70
     8
 71
     3
 72
    19
 73
    15
 74
    13
 42
0.0000000001
 43
0.0000000001
 44
0.00000001
 40
0.0
 40
0.0
 40
0.0
 40
0.0
 40
0.0323151378287939
 40
0.0646399977349627
 40
0.0969742998662356
 40
0.1292882109373913
 40
0.1454536097175279
 40
0.1616217906205717
 40
0.1778063534628034
 40
0.1939890918787681
 40
0.2101993892851543
 40
0.2264513050805382
 40
0.2428488340938752
 40
0.2590606653081778
 40
0.2590606653081778
 40
0.2590606653081778
 40
0.2590606653081778
 10
124.4447687727
 20
291.3501995708
 30
0.0
 10
124.4482575949553
 20
291.3603916631425
 30
0.0
 10
124.4552362890854
 20
291.3807789141399
 30
0.0
 10
124.4670099529524
 20
291.4108942663495
 30
0.0
 10
124.4799553368356
 20
291.4405247907205
 30
0.0
 10
124.4922152309282
 20
291.4645386683848
 30
0.0
 10
124.5031217524105
 20
291.4831313305061
 30
0.0
 10
124.5119689063375
 20
291.4966774797675
 30
0.0
 10
124.5215782680336
 20
291.5097097834131
 30
0.0
 10
124.5321899756777
 20
291.5219599837433
 30
0.0
 10
124.5439923832275
 20
291.5331583078784
 30
0.0
 10
124.5574397431167
 20
291.5424136934797
 30
0.0
 10
124.5724843647438
 20
291.5492675734232
 30
0.0
 10
124.5833715881685
 20
291.5503124186052
 30
0.0
 10
124.5887842006
 20
291.5508318662
 30
0.0
 11
124.4447687727
 21
291.3501995708
 31
0.0
 11
124.4554524884529
 21
291.3806975436934
 31
0.0
 11
124.4672040925758
 21
291.4108106034597
 31
0.0
 11
124.480252574727
 21
291.4403951299536
 31
0.0
 11
124.4950312526788
 21
291.4691315098006
 31
0.0
 11
124.5032315196179
 21
291.4830626167146
 31
0.0
 11
124.5120922821296
 21
291.4965865570215
 31
0.0
 11
124.5217442249454
 21
291.5095780955861
 31
0.0
 11
124.5323793970641
 21
291.5217753959695
 31
0.0
 11
124.5442461766271
 21
291.5328186420868
 31
0.0
 11
124.5576640476464
 21
291.5419884569339
 31
0.0
 11
124.5727556206978
 21
291.5484012083385
 31
0.0
 11
124.5887842006
 21
291.5508318662
 31
0.0
  0
SPLINE
  5
110
330
1F
100
AcDbEntity
  8
0
  6
Continuous
 62
     7
100
AcDbSpline
210
0.0
220
0.0
230
1.0
 70
     8
 71
     3
 72
    19
 73
    15
 74
    13
 42
0.0000000001
 43
0.0000000001
 44
0.00000001
 40
0.0
 40
0.0
 40
0.0
 40
0.0
 40
0.0162157578354129
 40
0.0326226839530862
 40
0.0488914581999589
 40
0.0651130425070364
 40
0.0812845011927677
 40
0.0974608274058388
 40
0.1136293934440578
 40
0.1297937134544321
 40
0.1620993999219431
 40
0.1944270045387864
 40
0.2267452804731701
 40
0.2590534185094358
 40
0.2590534185094358
 40
0.2590534185094358
 40
0.2590534185094358
 10
124.5887842006
 20
297.3785672754
 30
0.0
 10
124.5833703737803
 20
297.3790905781155
 30
0.0
 10
124.5724788962983
 20
297.3801433527851
 30
0.0
 10
124.5574353159552
 20
297.38702195358
 30
0.0
 10
124.5439688928261
 20
297.39626853916
 30
0.0
 10
124.5321487322314
 20
297.4074579524278
 30
0.0
 10
124.5215475858666
 20
297.4197144833896
 30
0.0
 10
124.5119562256755
 20
297.432751811286
 30
0.0
 10
124.5031112548779
 20
297.4462955311651
 30
0.0
 10
124.4921998593628
 20
297.4648819230977
 30
0.0
 10
124.4799431182392
 20
297.4888917228284
 30
0.0
 10
124.467006088706
 20
297.5185180004029
 30
0.0
 10
124.4552348195649
 20
297.5486269713164
 30
0.0
 10
124.4482570901245
 20
297.569009770117
 30
0.0
 10
124.4447687727
 20
297.5791995708
 30
0.0
 11
124.5887842006
 21
297.3785672754
 31
0.0
 11
124.5727536491718
 21
297.3810110886265
 31
0.0
 11
124.5576588268467
 21
297.3874402070422
 31
0.0
 11
124.5442206322979
 21
297.3966101548482
 31
0.0
 11
124.5323366837243
 21
297.4076515118178
 31
0.0
 11
124.5217149854831
 21
297.4198455924513
 31
0.0
 11
124.5120789349561
 21
297.4328386698387
 31
0.0
 11
124.5032198724845
 21
297.4463641842414
 31
0.0
 11
124.4950168541252
 21
297.4602924192765
 31
0.0
 11
124.4802412740305
 21
297.4890211437697
 31
0.0
 11
124.4671992776002
 21
297.5186012105271
 31
0.0
 11
124.4554508113413
 21
297.5487084272688
 31
0.0
 11
124.4447687727
 21
297.5791995708
 31
0.0
  0
SPLINE
  5
111
330
1F
100
AcDbEntity
  8
0
  6
Continuous
 62
     7
100
AcDbSpline
210
0.0
220
0.0
230
1.0
 70
     8
 71
     3
 72
    19
 73
    15
 74
    13
 42
0.0000000001
 43
0.0000000001
 44
0.00000001
 40
0.0
 40
0.0
 40
0.0
 40
0.0
 40
0.0323407211758917
 40
0.0646896689035308
 40
0.0970430072890867
 40
0.1293811553276955
 40
0.1455604632504639
 40
0.1617380090196286
 40
0.1779190469384637
 40
0.1941069132404144
 40
0.2103064803086714
 40
0.226532950394734
 40
0.242887347357637
 40
0.2590698531263426
 40
0.2590698531263426
 40
0.2590698531263426
 40
0.2590698531263426
 10
126.3077996286
 20
297.5791995708
 30
0.0
 10
126.3043090784868
 20
297.5689990633788
 30
0.0
 10
126.2973270903645
 20
297.5485954538199
 30
0.0
 10
126.285544870488
 20
297.5184585982187
 30
0.0
 10
126.272566670763
 20
297.4888176161683
 30
0.0
 10
126.2602934038123
 20
297.4647903448039
 30
0.0
 10
126.2494027378803
 20
297.4461702025043
 30
0.0
 10
126.240551725382
 20
297.4326176350394
 30
0.0
 10
126.2308932359151
 20
297.4196160793429
 30
0.0
 10
126.2202518230301
 20
297.4073981174666
 30
0.0
 10
126.2084920051446
 20
297.3961746282588
 30
0.0
 10
126.1950902124314
 20
297.3868916253557
 30
0.0
 10
126.1800506991778
 20
297.380101155233
 30
0.0
 10
126.1691872363752
 20
297.3790767647392
 30
0.0
 10
126.1637842006
 20
297.3785672754
 30
0.0
 11
126.3077996286
 21
297.5791995708
 31
0.0
 11
126.2971099995097
 21
297.5486765618381
 31
0.0
 11
126.2853460218876
 21
297.518542474004
 31
0.0
 11
126.2722730061231
 21
297.4889479683735
 31
0.0
 11
126.2574838205369
 21
297.4601897381035
 31
0.0
 11
126.2492890663523
 21
297.4462392539286
 31
0.0
 11
126.240418095506
 21
297.4327108074783
 31
0.0
 11
126.2307316236153
 21
297.4197493935724
 31
0.0
 11
126.2200699027301
 21
297.4075684772203
 31
0.0
 11
126.2082327797824
 21
297.3965091601746
 31
0.0
 11
126.1948531683115
 21
297.3873285105057
 31
0.0
 11
126.1797883683887
 21
297.3809631273038
 31
0.0
 11
126.1637842006
 21
297.3785672754
 31
0.0
  0
SPLINE
  5
112
330
1F
100
AcDbEntity
  8
0
  6
Continuous
 62
     7
100
AcDbSpline
210
0.0
220
0.0
230
1.0
 70
     8
 71
     3
 72
    11
 73
     7
 74
     5
 42
0.0000000001
 43
0.0000000001
 44
0.00000001
 40
0.0
 40
0.0
 40
0.0
 40
0.0
 40
0.0552416256497796
 40
0.1107067483609458
 40
0.1596632275787495
 40
0.2081601316479434
 40
0.2081601316479434
 40
0.2081601316479434
 40
0.2081601316479434
 10
124.4447687727
 20
297.5791995708
 30
0.0
 10
124.4293909423465
 20
297.5894946176659
 30
0.0
 10
124.3985730658763
 20
297.61012636319
 30
0.0
 10
124.3648240795405
 20
297.6522479469602
 30
0.0
 10
124.3430939482028
 20
297.6992759194361
 30
0.0
 10
124.3402162595555
 20
297.7318509953593
 30
0.0
 10
124.3387842006
 20
297.7480617238
 30
0.0
 11
124.4447687727
 21
297.5791995708
 31
0.0
 11
124.4004820819179
 21
297.6122196589888
 31
0.0
 11
124.3654891811276
 21
297.6552530963561
 31
0.0
 11
124.3457972452588
 21
297.7000745702179
 31
0.0
 11
124.3387842006
 21
297.7480617238
 31
0.0
  0
SPLINE
  5
113
330
1F
100
AcDbEntity
  8
FASEN
  6
Continuous
 62
     7
100
AcDbSpline
210
0.0
220
0.0
230
1.0
 70
     8
 71
     3
 72
    39
 73
    35
 74
    33
 42
0.0000000001
 43
0.0000000001
 44
0.00000001
 40
0.0
 40
0.0
 40
0.0
 40
0.0
 40
0.2552997430496216
 40
0.5108651138541399
 40
0.7657436254048218
 40
1.020544604082731
 40
1.274474439860918
 40
1.528422259799899
 40
1.781580156157256
 40
2.034730868670328
 40
2.287617451999209
 40
2.540506722663186
 40
2.793756932961653
 40
3.047007599868024
 40
3.301045674592754
 40
3.55508745228304
 40
3.809971904982708
 40
4.064857118375981
 40
4.320289560590649
 40
4.5757240600441
 40
4.831260712436727
 40
5.086793620528153
 40
5.34208270442175
 40
5.597373532527333
 40
5.85234357319302
 40
6.107309239533465
 40
6.362145686660806
 40
6.616987169757416
 40
6.871987285940023
 40
7.126970727504911
 40
7.382214249649668
 40
7.637530302449446
 40
7.893156983601072
 40
8.148517859153548
 40
8.148517859153548
 40
8.148517859153548
 40
8.148517859153548
 10
106.9755325302
 20
294.4646995708
 30
0.0
 10
106.9731493746047
 20
294.3795651006141
 30
0.0
 10
106.9683805838491
 20
294.2092075817035
 30
0.0
 10
106.9296546756504
 20
293.9562898675842
 30
0.0
 10
106.8683426094025
 20
293.7083653918539
 30
0.0
 10
106.7828231322207
 20
293.4681527344135
 30
0.0
 10
106.6743287833893
 20
293.2377989709001
 30
0.0
 10
106.5439641515907
 20
293.0196924362641
 30
0.0
 10
106.3927805458291
 20
292.8157948062728
 30
0.0
 10
106.2224374030484
 20
292.6280816537473
 30
0.0
 10
106.0343483024113
 20
292.4582900793085
 30
0.0
 10
105.8304106016485
 20
292.3078515148224
 30
0.0
 10
105.6124914556644
 20
292.1782584489645
 30
0.0
 10
105.3825835022792
 20
292.0704741358169
 30
0.0
 10
105.1429677797451
 20
291.9856635724221
 30
0.0
 10
104.8957308232752
 20
291.9243743363253
 30
0.0
 10
104.6434379238689
 20
291.887301559753
 30
0.0
 10
104.3882887027936
 20
291.874659715517
 30
0.0
 10
104.1329249147489
 20
291.8866741304874
 30
0.0
 10
103.8796798260236
 20
291.9231831561641
 30
0.0
 10
103.631102071933
 20
291.9839564609584
 30
0.0
 10
103.3895938328304
 20
292.0684304857213
 30
0.0
 10
103.1575413264333
 20
292.1760093424341
 30
0.0
 10
102.9372317086725
 20
292.3055903385317
 30
0.0
 10
102.7308103132127
 20
292.456135955245
 30
0.0
 10
102.5402946048185
 20
292.6261439824313
 30
0.0
 10
102.3676274163628
 20
292.8141983548537
 30
0.0
 10
102.2144052233648
 20
293.0184216021178
 30
0.0
 10
102.0822495954603
 20
293.2369319252937
 30
0.0
 10
101.97231844854
 20
293.467552764185
 30
0.0
 10
101.8856319055
 20
293.7080402612468
 30
0.0
 10
101.8235102489116
 20
293.9560964408441
 30
0.0
 10
101.7843340012178
 20
294.2091472140644
 30
0.0
 10
101.7794677373613
 20
294.3795449977381
 30
0.0
 10
101.7770358711
 20
294.4646995708
 30
0.0
 11
106.9755325302
 21
294.4646995708
 31
0.0
 11
106.9631217487012
 21
294.2097016662914
 31
0.0
 11
106.9258391479387
 21
293.956870365945
 31
0.0
 11
106.8642739195694
 21
293.7095390531152
 31
0.0
 11
106.7788637544322
 21
293.4694793888097
 31
0.0
 11
106.6706438194724
 21
293.2397647676476
 31
0.0
 11
106.5403240249606
 21
293.021805490694
 31
0.0
 11
106.3895494582863
 21
292.8184438656703
 31
0.0
 11
106.2194068291824
 21
292.6309958221823
 31
0.0
 11
106.0317129317326
 21
292.4615183166311
 31
0.0
 11
105.8281974927145
 21
292.3114035295573
 31
0.0
 11
105.6105504126679
 21
292.1819221889579
 31
0.0
 11
105.3812491686905
 21
292.0744194457421
 31
0.0
 11
105.1417857689201
 21
291.9896101091084
 31
0.0
 11
104.8952100611649
 21
291.9284738256339
 31
0.0
 11
104.6430389665035
 21
291.8913817342221
 31
0.0
 11
104.3884659907311
 21
291.8787693588345
 31
0.0
 11
104.1333148688893
 21
291.8907542475945
 31
0.0
 11
103.8804966411444
 21
291.9272196727392
 31
0.0
 11
103.632271642811
 21
291.987910124364
 31
0.0
 11
103.3910817766609
 21
292.072316969964
 31
0.0
 11
103.1594713806201
 21
292.1796908066333
 31
0.0
 11
102.939441971639
 21
292.3091530254396
 31
0.0
 11
102.7334401498354
 21
292.4593960653804
 31
0.0
 11
102.543233567162
 21
292.6291869571271
 31
0.0
 11
102.3708699353602
 21
292.8168898958803
 31
0.0
 11
102.2179505372069
 21
293.0207522003294
 31
0.0
 11
102.0859613931004
 21
293.2389354377497
 31
0.0
 11
101.9762324940597
 21
293.4691008656218
 31
0.0
 11
101.8897433806422
 21
293.7092443411883
 31
0.0
 11
101.8273571555505
 21
293.9568210883518
 31
0.0
 11
101.7896402654926
 21
294.2096499560092
 31
0.0
 11
101.7770358711
 21
294.4646995708
 31
0.0
  0
SPLINE
  5
114
330
1F
100
AcDbEntity
  8
0
  6
Continuous
 62
     7
100
AcDbSpline
210
0.0
220
0.0
230
1.0
 70
     8
 71
     3
 72
    11
 73
     7
 74
     5
 42
0.0000000001
 43
0.0000000001
 44
0.00000001
 40
0.0
 40
0.0
 40
0.0
 40
0.0
 40
0.0484884450412966
 40
0.0974363655380517
 40
0.1529099109386769
 40
0.2081599367786977
 40
0.2081599367786977
 40
0.2081599367786977
 40
0.2081599367786977
 10
126.4137842006
 20
297.7480617238
 30
0.0
 10
126.4123526252225
 20
297.7318538276573
 30
0.0
 10
126.4094759088902
 20
297.6992844496992
 30
0.0
 10
126.3877501216581
 20
297.6522580466791
 30
0.0
 10
126.354001959623
 20
297.6101317961467
 30
0.0
 10
126.3231796651105
 20
297.589496426925
 30
0.0
 10
126.3077996286
 20
297.5791995708
 30
0.0
 11
126.4137842006
 21
297.7480617238
 31
0.0
 11
126.4067734564532
 21
297.7000827829089
 31
0.0
 11
126.3870877546227
 21
297.6552679185847
 31
0.0
 11
126.3520922788773
 21
297.6122257193301
 31
0.0
 11
126.3077996286
 21
297.5791995708
 31
0.0
  0
SPLINE
  5
115
330
1F
100
AcDbEntity
  8
0
  6
Continuous
 62
     7
100
AcDbSpline
210
0.0
220
0.0
230
1.0
 70
     8
 71
     3
 72
    11
 73
     7
 74
     5
 42
0.0000000001
 43
0.0000000001
 44
0.00000001
 40
0.0
 40
0.0
 40
0.0
 40
0.0
 40
0.048496904042927
 40
0.0974533832194612
 40
0.1529185059114165
 40
0.2081601315589988
 40
0.2081601315589988
 40
0.2081601315589988
 40
0.2081601315589988
 10
124.3387842006
 20
291.1813374179
 30
0.0
 10
124.3402162595546
 20
291.1975481463322
 30
0.0
 10
124.3430939481998
 20
291.2301232222335
 30
0.0
 10
124.364824079548
 20
291.277151194674
 30
0.0
 10
124.398573065883
 20
291.3192727784148
 30
0.0
 10
124.4293909423471
 20
291.3399045239346
 30
0.0
 10
124.4447687727
 20
291.3501995708
 30
0.0
 11
124.3387842006
 21
291.1813374179
 31
0.0
 11
124.3457972452588
 21
291.2293245714555
 31
0.0
 11
124.3654891811276
 21
291.2741460452722
 31
0.0
 11
124.4004820819179
 21
291.3171794826148
 31
0.0
 11
124.4447687727
 21
291.3501995708
 31
0.0
  0
SPLINE
  5
116
330
1F
100
AcDbEntity
  8
0
  6
Continuous
 62
     7
100
AcDbSpline
210
0.0
220
0.0
230
1.0
 70
     8
 71
     3
 72
    11
 73
     7
 74
     5
 42
0.0000000001
 43
0.0000000001
 44
0.00000001
 40
0.0
 40
0.0
 40
0.0
 40
0.0
 40
0.0552500258399301
 40
0.1107235712405732
 40
0.1596714917258787
 40
0.2081599366806688
 40
0.2081599366806688
 40
0.2081599366806688
 40
0.2081599366806688
 10
126.3077996286
 20
291.3501995708
 30
0.0
 10
126.3231796651106
 20
291.339902714675
 30
0.0
 10
126.3540019596233
 20
291.3192673454535
 30
0.0
 10
126.3877501216544
 20
291.2771410949233
 30
0.0
 10
126.4094759088793
 20
291.230114691937
 30
0.0
 10
126.4123526252196
 20
291.197545314013
 30
0.0
 10
126.4137842006
 20
291.1813374179
 30
0.0
 11
126.3077996286
 21
291.3501995708
 31
0.0
 11
126.3520922788773
 21
291.3171734222699
 31
0.0
 11
126.3870877546227
 21
291.2741312230154
 31
0.0
 11
126.4067734564532
 21
291.2293163587037
 31
0.0
 11
126.4137842006
 21
291.1813374179
 31
0.0
  0
SPLINE
  5
117
330
1F
100
AcDbEntity
  8
RUNDUNGEN
  6
Continuous
 62
     7
100
AcDbSpline
210
0.0
220
0.0
230
1.0
 70
     8
 71
     3
 72
    11
 73
     7
 74
     5
 42
0.0000000001
 43
0.0000000001
 44
0.00000001
 40
0.0
 40
0.0
 40
0.0
 40
0.0
 40
0.2720357131354625
 40
0.5444507173279192
 40
0.8204954809743269
 40
1.095557810860549
 40
1.095557810860549
 40
1.095557810860549
 40
1.095557810860549
 10
96.2522453107
 20
299.3696995708
 30
0.0
 10
96.29739515314989
 20
299.2909451894952
 30
0.0
 10
96.38775778909111
 20
299.1333266220656
 30
0.0
 10
96.49006056075774
 20
298.87896175323
 30
0.0
 10
96.56158374296263
 20
298.6122587366403
 30
0.0
 10
96.57138987503731
 20
298.4283660009179
 30
0.0
 10
96.5762842006
 20
298.3365835417
 30
0.0
 11
96.2522453107
 21
299.3696995708
 31
0.0
 11
96.38208309814341
 21
299.1306481575581
 31
0.0
 11
96.48448884622998
 21
298.8782140131402
 31
0.0
 11
96.55212068762415
 21
298.6105824649882
 31
0.0
 11
96.5762842006
 21
298.3365835417
 31
0.0
  0
SPLINE
  5
118
330
1F
100
AcDbEntity
  8
0
  6
Continuous
 62
     7
100
AcDbSpline
210
0.0
220
0.0
230
1.0
 70
    24
 71
     3
 72
     9
 73
     5
 74
     3
 42
0.0000000001
 43
0.0000000001
 44
0.00000001
 40
0.0
 40
0.0
 40
0.0
 40
0.0
 40
0.0347035326447683
 40
0.0694070654714549
 40
0.0694070654714549
 40
0.0694070654714549
 40
0.0694070654714549
 10
94.0957833529366
 20
299.55191236307
 30
0.0
 10
94.08752949700461
 20
299.5600172308688
 30
0.0
 10
94.07102178509734
 20
299.5762269665087
 30
0.0
 10
94.05451407330288
 20
299.5924367022634
 30
0.0
 10
94.046260217384
 20
299.600541570162
 30
0.0
 11
94.0957833529366
 21
299.55191236307
 31
0.0
 11
94.07102178516881
 21
299.5762269664949
 31
0.0
 11
94.046260217384
 21
299.600541570162
 31
0.0
  0
SPLINE
  5
119
330
1F
100
AcDbEntity
  8
0
  6
Continuous
 62
     7
100
AcDbSpline
210
0.0
220
0.0
230
1.0
 70
    24
 71
     3
 72
     9
 73
     5
 74
     3
 42
0.0000000001
 43
0.0000000001
 44
0.00000001
 40
0.0
 40
0.0
 40
0.0
 40
0.0
 40
0.0347035328266865
 40
0.0694070654714549
 40
0.0694070654714549
 40
0.0694070654714549
 40
0.0694070654714549
 10
94.046260217384
 20
289.328857571438
 30
0.0
 10
94.05451407330287
 20
289.3369624393366
 30
0.0
 10
94.07102178509736
 20
289.3531721750914
 30
0.0
 10
94.08752949700462
 20
289.3693819107314
 30
0.0
 10
94.0957833529366
 20
289.37748677853
 30
0.0
 11
94.046260217384
 21
289.328857571438
 31
0.0
 11
94.07102178516881
 21
289.3531721751052
 31
0.0
 11
94.0957833529366
 21
289.37748677853
 31
0.0
  0
SPLINE
  5
11A
330
1F
100
AcDbEntity
  8
0
  6
Continuous
 62
     7
100
AcDbSpline
210
0.0
220
0.0
230
1.0
 70
     8
 71
     3
 72
    11
 73
     7
 74
     5
 42
0.0000000001
 43
0.0000000001
 44
0.00000001
 40
0.0
 40
0.0
 40
0.0
 40
0.0
 40
0.2552059509701124
 40
0.5103908164668172
 40
0.6573137754944258
 40
0.8040138995188002
 40
0.8040138995188002
 40
0.8040138995188002
 40
0.8040138995188002
 10
94.196468557
 20
289.5596995708
 30
0.0
 10
94.23547871217926
 20
289.6354126770102
 30
0.0
 10
94.31349579946412
 20
289.7868326339078
 30
0.0
 10
94.38253092986687
 20
289.9957398568242
 30
0.0
 10
94.41986640074941
 20
290.175379796411
 30
0.0
 10
94.42414601660491
 20
290.2733148882783
 30
0.0
 10
94.4262842006
 20
290.322245272
 30
0.0
 11
94.196468557
 21
289.5596995708
 31
0.0
 11
94.30739534111675
 21
289.7895371786366
 31
0.0
 11
94.38790994280939
 21
290.0316873685867
 31
0.0
 11
94.41595170270006
 21
290.1759094736596
 31
0.0
 11
94.4262842006
 21
290.322245272
 31
0.0
  0
SPLINE
  5
11B
330
1F
100
AcDbEntity
  8
0
  6
Continuous
 62
     7
100
AcDbSpline
210
0.0
220
0.0
230
1.0
 70
     8
 71
     3
 72
    11
 73
     7
 74
     5
 42
0.0000000001
 43
0.0000000001
 44
0.00000001
 40
0.0
 40
0.0
 40
0.0
 40
0.0
 40
0.2243303823009969
 40
0.4487450664826262
 40
0.6263697311305526
 40
0.8039157765718892
 40
0.8039157765718892
 40
0.8039157765718892
 40
0.8039157765718892
 10
94.4262842006
 20
298.6071538696
 30
0.0
 10
94.42131002312938
 20
298.6819867274245
 30
0.0
 10
94.41135979892505
 20
298.831680564769
 30
0.0
 10
94.35099816041486
 20
299.0329440439657
 30
0.0
 10
94.27927910504901
 20
299.2124601266745
 30
0.0
 10
94.22406799924448
 20
299.3172941579759
 30
0.0
 10
94.196468557
 20
299.3696995708
 30
0.0
 11
94.4262842006
 21
298.6071538696
 31
0.0
 11
94.40304124958116
 21
298.8302768976613
 31
0.0
 11
94.34306001727654
 21
299.0465272207768
 31
0.0
 11
94.27645273697982
 21
299.2111904883952
 31
0.0
 11
94.196468557
 21
299.3696995708
 31
0.0
  0
DIMENSION
  5
128
330
1F
100
AcDbEntity
  8
1
100
AcDbDimension
  2
*D2
 10
178.566907260467
 20
297.4646995708
 30
0.0
 11
174.816907260467
 21
303.145042756247
 31
0.0
 70
    32
  1
<>
 71
     5
 42
-1.0
 53
90.0
  3
ME10_DIM_10
100
AcDbAlignedDimension
 13
169.3762842006
 23
291.4646995708
 33
0.0
 14
169.3762842006
 24
297.4646995708
 34
0.0
 50
90.0
100
AcDbRotatedDimension
  0
DIMENSION
  5
133
330
1F
100
AcDbEntity
  8
1
100
AcDbDimension
  2
*D3
 10
188.701474814768
 20
306.9646995708
 30
0.0
 11
184.951474814768
 21
294.878013600832
 31
0.0
 70
    32
  1
<>
 71
     5
 42
-1.0
 53
90.0
  3
ME10_DIM_11
100
AcDbAlignedDimension
 13
158.4320549355
 23
281.9646995708
 33
0.0
 14
158.4320549355
 24
306.9646995708
 34
0.0
 50
90.0
100
AcDbRotatedDimension
  0
DIMENSION
  5
13E
330
1F
100
AcDbEntity
  8
1
100
AcDbDimension
  2
*D4
 10
169.3762842006
 20
321.646761939079
 30
0.0
 11
149.061973889508
 21
325.396761939079
 31
0.0
 70
    32
  1
<>
 71
     5
 42
-1.0
 53
0.00013888888889
  3
ME10_DIM_12
100
AcDbAlignedDimension
 13
129.3262842006
 23
310.4646359356
 33
0.0
 14
169.3762842006
 24
301.32762931
 34
0.0
100
AcDbRotatedDimension
  0
DIMENSION
  5
149
330
1F
100
AcDbEntity
  8
1
100
AcDbDimension
  2
*D5
 10
169.3762842006
 20
329.60322117778
 30
0.0
 11
138.461730288638
 21
333.35322117778
 31
0.0
 70
    32
  1
<>
 71
     5
 42
-1.0
 53
0.00013888888889
  3
ME10_DIM_13
100
AcDbAlignedDimension
 13
109.3762842006
 23
310.4646995708
 33
0.0
 14
169.3762842006
 24
301.32762931
 34
0.0
100
AcDbRotatedDimension
  0
DIMENSION
  5
154
330
1F
100
AcDbEntity
  8
1
100
AcDbDimension
  2
*D6
 10
169.3762842006
 20
338.387720622131
 30
0.0
 11
134.527006579189
 21
342.137720622131
 31
0.0
 70
    32
  1
<>
 71
     5
 42
-1.0
 53
0.00013888888889
  3
ME10_DIM_14
100
AcDbAlignedDimension
 13
93.4762842006
 23
305.2612038056
 33
0.0
 14
169.3762842006
 24
301.32762931
 34
0.0
100
AcDbRotatedDimension
  0
INSERT
  5
15B
330
1F
100
AcDbEntity
  8
1
100
AcDbBlockReference
  2
*D7
 10
0.0
 20
0.0
 30
0.0
  0
ENDSEC
  0
SECTION
  2
OBJECTS
  0
DICTIONARY
  5
C
330
0
100
AcDbDictionary
281
     1
  3
ACAD_GROUP
350
D
  3
ACAD_LAYOUT
350
1A
  3
ACAD_MLEADERSTYLE
350
15E
  3
ACAD_MLINESTYLE
350
17
  3
ACAD_PLOTSETTINGS
350
19
  3
ACAD_PLOTSTYLENAME
350
E
  3
ACAD_SCALELIST
350
4C
  3
ACAD_VISUALSTYLE
350
2A
  3
AcDbVariableDictionary
350
15C
  0
DICTIONARY
  5
D
102
{ACAD_REACTORS
330
C
102
}
330
C
100
AcDbDictionary
281
     1
  0
DICTIONARY
  5
1A
102
{ACAD_REACTORS
330
C
102
}
330
C
100
AcDbDictionary
281
     1
  3
Layout1
350
1E
  3
Layout2
350
26
  3
Model
350
22
  0
DICTIONARY
  5
15E
102
{ACAD_REACTORS
330
C
102
}
330
C
100
AcDbDictionary
281
     1
  0
DICTIONARY
  5
17
102
{ACAD_REACTORS
330
C
102
}
330
C
100
AcDbDictionary
281
     1
  3
Standard
350
18
  0
DICTIONARY
  5
19
102
{ACAD_REACTORS
330
C
102
}
330
C
100
AcDbDictionary
281
     1
  0
ACDBDICTIONARYWDFLT
  5
E
102
{ACAD_REACTORS
330
C
102
}
330
C
100
AcDbDictionary
281
     1
  3
Normal
350
F
100
AcDbDictionaryWithDefault
340
F
  0
DICTIONARY
  5
4C
102
{ACAD_REACTORS
330
C
102
}
330
C
100
AcDbDictionary
281
     1
  3
A0
350
4D
  3
A1
350
4E
  3
A2
350
4F
  3
A3
350
50
  3
A4
350
51
  3
A5
350
52
  3
A6
350
53
  3
A7
350
54
  3
A8
350
55
  3
A9
350
56
  3
B0
350
57
  3
B1
350
58
  3
B2
350
59
  3
B3
350
5A
  3
B4
350
5B
  3
B5
350
5C
  3
B6
350
5D
  3
B7
350
5E
  3
B8
350
5F
  3
B9
350
60
  3
C0
350
61
  3
C1
350
62
  3
C2
350
63
  3
C3
350
64
  3
C4
350
65
  3
C5
350
66
  3
C6
350
67
  3
C7
350
68
  3
C8
350
69
  3
C9
350
6A
  3
D0
350
6B
  3
D1
350
6C
  3
D2
350
6D
  0
DICTIONARY
  5
2A
102
{ACAD_REACTORS
330
C
102
}
330
C
100
AcDbDictionary
281
     1
  3
2dWireframe
350
2F
  3
3D Hidden
350
31
  3
3dWireframe
350
30
  3
Basic
350
32
  3
Brighten
350
36
  3
ColorChange
350
3A
  3
Conceptual
350
34
  3
Dim
350
35
  3
Facepattern
350
39
  3
Flat
350
2B
  3
FlatWithEdges
350
2C
  3
Gouraud
350
2D
  3
GouraudWithEdges
350
2E
  3
Linepattern
350
38
  3
Realistic
350
33
  3
Thicken
350
37
  0
DICTIONARY
  5
15C
102
{ACAD_REACTORS
330
C
102
}
330
C
100
AcDbDictionary
281
     1
  3
CANNOSCALE
350
15F
  0
LAYOUT
  5
1E
102
{ACAD_REACTORS
330
1A
102
}
330
1A
100
AcDbPlotSettings
  1

  2
none_device
  4

  6

 40
0.0
 41
0.0
 42
0.0
 43
0.0
 44
0.0
 45
0.0
 46
0.0
 47
0.0
 48
0.0
 49
0.0
140
0.0
141
0.0
142
1.0
143
1.0
 70
   688
 72
     0
 73
     0
 74
     5
  7

 75
    16
147
1.0
148
0.0
149
0.0
100
AcDbLayout
  1
Layout1
 70
     1
 71
     1
 10
0.0
 20
0.0
 11
12.0
 21
9.0
 12
0.0
 22
0.0
 32
0.0
 14
1.00000000000000E+20
 24
1.00000000000000E+20
 34
1.00000000000000E+20
 15
-1.00000000000000E+20
 25
-1.00000000000000E+20
 35
-1.00000000000000E+20
146
0.0
 13
0.0
 23
0.0
 33
0.0
 16
1.0
 26
0.0
 36
0.0
 17
0.0
 27
1.0
 37
0.0
 76
     0
330
1B
  0
LAYOUT
  5
26
102
{ACAD_REACTORS
330
1A
102
}
330
1A
100
AcDbPlotSettings
  1

  2
none_device
  4

  6

 40
0.0
 41
0.0
 42
0.0
 43
0.0
 44
0.0
 45
0.0
 46
0.0
 47
0.0
 48
0.0
 49
0.0
140
0.0
141
0.0
142
1.0
143
1.0
 70
   688
 72
     0
 73
     0
 74
     5
  7

 75
    16
147
1.0
148
0.0
149
0.0
100
AcDbLayout
  1
Layout2
 70
     1
 71
     2
 10
0.0
 20
0.0
 11
0.0
 21
0.0
 12
0.0
 22
0.0
 32
0.0
 14
0.0
 24
0.0
 34
0.0
 15
0.0
 25
0.0
 35
0.0
146
0.0
 13
0.0
 23
0.0
 33
0.0
 16
1.0
 26
0.0
 36
0.0
 17
0.0
 27
1.0
 37
0.0
 76
     0
330
23
  0
LAYOUT
  5
22
102
{ACAD_REACTORS
330
1A
102
}
330
1A
100
AcDbPlotSettings
  1

  2
none_device
  4

  6

 40
0.0
 41
0.0
 42
0.0
 43
0.0
 44
0.0
 45
0.0
 46
0.0
 47
0.0
 48
0.0
 49
0.0
140
0.0
141
0.0
142
1.0
143
1.0
 70
  1712
 72
     0
 73
     0
 74
     0
  7

 75
     0
147
1.0
148
0.0
149
0.0
100
AcDbLayout
  1
Model
 70
     1
 71
     0
 10
0.0
 20
0.0
 11
12.0
 21
9.0
 12
0.0
 22
0.0
 32
0.0
 14
72.7612908505324
 24
258.7645070557678
 34
0.0
 15
190.701474814768
 25
367.533893973074
 35
0.0
146
0.0
 13
0.0
 23
0.0
 33
0.0
 16
1.0
 26
0.0
 36
0.0
 17
0.0
 27
1.0
 37
0.0
 76
     0
330
1F
331
29
  0
MLINESTYLE
  5
18
102
{ACAD_REACTORS
330
17
102
}
330
17
100
AcDbMlineStyle
  2
Standard
 70
     0
  3

 62
   256
 51
90.0
 52
90.0
 71
     2
 49
0.5
 62
   256
  6
BYLAYER
 49
-0.5
 62
   256
  6
BYLAYER
  0
ACDBPLACEHOLDER
  5
F
102
{ACAD_REACTORS
330
E
102
}
330
E
  0
SCALE
  5
4D
102
{ACAD_REACTORS
330
4C
102
}
330
4C
100
AcDbScale
 70
     0
300
1:1
140
1.0
141
1.0
290
     1
  0
SCALE
  5
4E
102
{ACAD_REACTORS
330
4C
102
}
330
4C
100
AcDbScale
 70
     0
300
1:2
140
1.0
141
2.0
290
     0
  0
SCALE
  5
4F
102
{ACAD_REACTORS
330
4C
102
}
330
4C
100
AcDbScale
 70
     0
300
1:4
140
1.0
141
4.0
290
     0
  0
SCALE
  5
50
102
{ACAD_REACTORS
330
4C
102
}
330
4C
100
AcDbScale
 70
     0
300
1:5
140
1.0
141
5.0
290
     0
  0
SCALE
  5
51
102
{ACAD_REACTORS
330
4C
102
}
330
4C
100
AcDbScale
 70
     0
300
1:8
140
1.0
141
8.0
290
     0
  0
SCALE
  5
52
102
{ACAD_REACTORS
330
4C
102
}
330
4C
100
AcDbScale
 70
     0
300
1:10
140
1.0
141
10.0
290
     0
  0
SCALE
  5
53
102
{ACAD_REACTORS
330
4C
102
}
330
4C
100
AcDbScale
 70
     0
300
1:16
140
1.0
141
16.0
290
     0
  0
SCALE
  5
54
102
{ACAD_REACTORS
330
4C
102
}
330
4C
100
AcDbScale
 70
     0
300
1:20
140
1.0
141
20.0
290
     0
  0
SCALE
  5
55
102
{ACAD_REACTORS
330
4C
102
}
330
4C
100
AcDbScale
 70
     0
300
1:30
140
1.0
141
30.0
290
     0
  0
SCALE
  5
56
102
{ACAD_REACTORS
330
4C
102
}
330
4C
100
AcDbScale
 70
     0
300
1:40
140
1.0
141
40.0
290
     0
  0
SCALE
  5
57
102
{ACAD_REACTORS
330
4C
102
}
330
4C
100
AcDbScale
 70
     0
300
1:50
140
1.0
141
50.0
290
     0
  0
SCALE
  5
58
102
{ACAD_REACTORS
330
4C
102
}
330
4C
100
AcDbScale
 70
     0
300
1:100
140
1.0
141
100.0
290
     0
  0
SCALE
  5
59
102
{ACAD_REACTORS
330
4C
102
}
330
4C
100
AcDbScale
 70
     0
300
2:1
140
2.0
141
1.0
290
     0
  0
SCALE
  5
5A
102
{ACAD_REACTORS
330
4C
102
}
330
4C
100
AcDbScale
 70
     0
300
4:1
140
4.0
141
1.0
290
     0
  0
SCALE
  5
5B
102
{ACAD_REACTORS
330
4C
102
}
330
4C
100
AcDbScale
 70
     0
300
8:1
140
8.0
141
1.0
290
     0
  0
SCALE
  5
5C
102
{ACAD_REACTORS
330
4C
102
}
330
4C
100
AcDbScale
 70
     0
300
10:1
140
10.0
141
1.0
290
     0
  0
SCALE
  5
5D
102
{ACAD_REACTORS
330
4C
102
}
330
4C
100
AcDbScale
 70
     0
300
100:1
140
100.0
141
1.0
290
     0
  0
SCALE
  5
5E
102
{ACAD_REACTORS
330
4C
102
}
330
4C
100
AcDbScale
 70
     0
300
1/128" = 1'-0"
140
0.0078125
141
12.0
290
     0
  0
SCALE
  5
5F
102
{ACAD_REACTORS
330
4C
102
}
330
4C
100
AcDbScale
 70
     0
300
1/64" = 1'-0"
140
0.015625
141
12.0
290
     0
  0
SCALE
  5
60
102
{ACAD_REACTORS
330
4C
102
}
330
4C
100
AcDbScale
 70
     0
300
1/32" = 1'-0"
140
0.03125
141
12.0
290
     0
  0
SCALE
  5
61
102
{ACAD_REACTORS
330
4C
102
}
330
4C
100
AcDbScale
 70
     0
300
1/16" = 1'-0"
140
0.0625
141
12.0
290
     0
  0
SCALE
  5
62
102
{ACAD_REACTORS
330
4C
102
}
330
4C
100
AcDbScale
 70
     0
300
3/32" = 1'-0"
140
0.09375
141
12.0
290
     0
  0
SCALE
  5
63
102
{ACAD_REACTORS
330
4C
102
}
330
4C
100
AcDbScale
 70
     0
300
1/8" = 1'-0"
140
0.125
141
12.0
290
     0
  0
SCALE
  5
64
102
{ACAD_REACTORS
330
4C
102
}
330
4C
100
AcDbScale
 70
     0
300
3/16" = 1'-0"
140
0.1875
141
12.0
290
     0
  0
SCALE
  5
65
102
{ACAD_REACTORS
330
4C
102
}
330
4C
100
AcDbScale
 70
     0
300
1/4" = 1'-0"
140
0.25
141
12.0
290
     0
  0
SCALE
  5
66
102
{ACAD_REACTORS
330
4C
102
}
330
4C
100
AcDbScale
 70
     0
300
3/8" = 1'-0"
140
0.375
141
12.0
290
     0
  0
SCALE
  5
67
102
{ACAD_REACTORS
330
4C
102
}
330
4C
100
AcDbScale
 70
     0
300
1/2" = 1'-0"
140
0.5
141
12.0
290
     0
  0
SCALE
  5
68
102
{ACAD_REACTORS
330
4C
102
}
330
4C
100
AcDbScale
 70
     0
300
3/4" = 1'-0"
140
0.75
141
12.0
290
     0
  0
SCALE
  5
69
102
{ACAD_REACTORS
330
4C
102
}
330
4C
100
AcDbScale
 70
     0
300
1" = 1'-0"
140
1.0
141
12.0
290
     0
  0
SCALE
  5
6A
102
{ACAD_REACTORS
330
4C
102
}
330
4C
100
AcDbScale
 70
     0
300
1-1/2" = 1'-0"
140
1.5
141
12.0
290
     0
  0
SCALE
  5
6B
102
{ACAD_REACTORS
330
4C
102
}
330
4C
100
AcDbScale
 70
     0
300
3" = 1'-0"
140
3.0
141
12.0
290
     0
  0
SCALE
  5
6C
102
{ACAD_REACTORS
330
4C
102
}
330
4C
100
AcDbScale
 70
     0
300
6" = 1'-0"
140
6.0
141
12.0
290
     0
  0
SCALE
  5
6D
102
{ACAD_REACTORS
330
4C
102
}
330
4C
100
AcDbScale
 70
     0
300
1'-0" = 1'-0"
140
12.0
141
12.0
290
     0
  0
VISUALSTYLE
  5
2F
102
{ACAD_REACTORS
330
2A
102
}
330
2A
100
AcDbVisualStyle
  2
2dWireframe
 70
     4
 71
     0
 72
     2
 73
     0
 90
        0
 40
-0.6
 41
-30.0
 62
     5
 63
     7
 74
     1
 91
        4
 64
     7
 65
   257
 75
     1
175
     1
 42
1.0
 92
        0
 66
   257
 43
1.0
 76
     1
 77
     6
 78
     2
 67
     7
 79
     5
170
     0
171
     0
290
     0
174
     0
 93
        1
 44
0.0
173
     0
291
     0
 45
0.0
1001
ACAD
1000
AcDbSavedByObjectVersion
1070
     0
  0
VISUALSTYLE
  5
31
102
{ACAD_REACTORS
330
2A
102
}
330
2A
100
AcDbVisualStyle
  2
3D Hidden
 70
     6
 71
     1
 72
     2
 73
     2
 90
        0
 40
-0.6
 41
-30.0
 62
     5
 63
     7
 74
     2
 91
        2
 64
     7
 65
   257
 75
     2
175
     1
 42
40.0
 92
        0
 66
   257
 43
1.0
 76
     1
 77
     6
 78
     2
 67
     7
 79
     3
170
     0
171
     0
290
     0
174
     0
 93
        1
 44
0.0
173
     0
291
     0
 45
0.0
1001
ACAD
1000
AcDbSavedByObjectVersion
1070
     0
  0
VISUALSTYLE
  5
30
102
{ACAD_REACTORS
330
2A
102
}
330
2A
100
AcDbVisualStyle
  2
3dWireframe
 70
     5
 71
     0
 72
     2
 73
     0
 90
        0
 40
-0.6
 41
-30.0
 62
     5
 63
     7
 74
     1
 91
        4
 64
     7
 65
   257
 75
     1
175
     1
 42
1.0
 92
        0
 66
   257
 43
1.0
 76
     1
 77
     6
 78
     2
 67
     7
 79
     5
170
     0
171
     0
290
     0
174
     0
 93
        1
 44
0.0
173
     0
291
     0
 45
0.0
1001
ACAD
1000
AcDbSavedByObjectVersion
1070
     0
  0
VISUALSTYLE
  5
32
102
{ACAD_REACTORS
330
2A
102
}
330
2A
100
AcDbVisualStyle
  2
Basic
 70
     7
 71
     1
 72
     0
 73
     1
 90
        0
 40
-0.6
 41
-30.0
 62
     5
 63
     7
 74
     0
 91
        4
 64
     7
 65
   257
 75
     1
175
     1
 42
1.0
 92
        8
 66
     7
 43
1.0
 76
     1
 77
     6
 78
     2
 67
     7
 79
     5
170
     0
171
     0
290
     0
174
     0
 93
        1
 44
0.0
173
     0
291
     1
 45
0.0
1001
ACAD
1000
AcDbSavedByObjectVersion
1070
     0
  0
VISUALSTYLE
  5
36
102
{ACAD_REACTORS
330
2A
102
}
330
2A
100
AcDbVisualStyle
  2
Brighten
 70
    12
 71
     2
 72
     2
 73
     0
 90
        0
 40
-0.6
 41
-30.0
 62
     5
 63
     7
 74
     1
 91
        4
 64
     7
 65
   257
 75
     1
175
     1
 42
1.0
 92
        8
 66
     7
 43
1.0
 76
     1
 77
     6
 78
     2
 67
     7
 79
     5
170
     0
171
     0
290
     0
174
     0
 93
        1
 44
50.0
173
     0
291
     1
 45
0.0
1001
ACAD
1000
AcDbSavedByObjectVersion
1070
     0
  0
VISUALSTYLE
  5
3A
102
{ACAD_REACTORS
330
2A
102
}
330
2A
100
AcDbVisualStyle
  2
ColorChange
 70
    16
 71
     2
 72
     2
 73
     3
 90
        0
 40
-0.6
 41
-30.0
 62
     5
 63
     8
 74
     1
 91
        4
 64
     7
 65
   257
 75
     1
175
     1
 42
1.0
 92
        8
 66
     8
 43
1.0
 76
     1
 77
     6
 78
     2
 67
     7
 79
     5
170
     0
171
     0
290
     0
174
     0
 93
        1
 44
0.0
173
     0
291
     1
 45
0.0
1001
ACAD
1000
AcDbSavedByObjectVersion
1070
     0
  0
VISUALSTYLE
  5
34
102
{ACAD_REACTORS
330
2A
102
}
330
2A
100
AcDbVisualStyle
  2
Conceptual
 70
     9
 71
     3
 72
     2
 73
     0
 90
        0
 40
-0.6
 41
-30.0
 62
     5
 63
     7
 74
     2
 91
        2
 64
     7
 65
   257
 75
     1
175
     1
 42
40.0
 92
        8
 66
     7
 43
1.0
 76
     1
 77
     6
 78
     2
 67
     7
 79
     3
170
     0
171
     0
290
     0
174
     0
 93
        1
 44
0.0
173
     0
291
     0
 45
0.0
1001
ACAD
1000
AcDbSavedByObjectVersion
1070
     0
  0
VISUALSTYLE
  5
35
102
{ACAD_REACTORS
330
2A
102
}
330
2A
100
AcDbVisualStyle
  2
Dim
 70
    11
 71
     2
 72
     2
 73
     0
 90
        0
 40
-0.6
 41
-30.0
 62
     5
 63
     7
 74
     1
 91
        4
 64
     7
 65
   257
 75
     1
175
     1
 42
1.0
 92
        8
 66
     7
 43
1.0
 76
     1
 77
     6
 78
     2
 67
     7
 79
     5
170
     0
171
     0
290
     0
174
     0
 93
        1
 44
-50.0
173
     0
291
     1
 45
0.0
1001
ACAD
1000
AcDbSavedByObjectVersion
1070
     0
  0
VISUALSTYLE
  5
39
102
{ACAD_REACTORS
330
2A
102
}
330
2A
100
AcDbVisualStyle
  2
Facepattern
 70
    15
 71
     2
 72
     2
 73
     0
 90
        0
 40
-0.6
 41
-30.0
 62
     5
 63
     7
 74
     1
 91
        4
 64
     7
 65
   257
 75
     1
175
     1
 42
1.0
 92
        8
 66
     7
 43
1.0
 76
     1
 77
     6
 78
     2
 67
     7
 79
     5
170
     0
171
     0
290
     0
174
     0
 93
        1
 44
0.0
173
     0
291
     1
 45
0.0
1001
ACAD
1000
AcDbSavedByObjectVersion
1070
     0
  0
VISUALSTYLE
  5
2B
102
{ACAD_REACTORS
330
2A
102
}
330
2A
100
AcDbVisualStyle
  2
Flat
 70
     0
 71
     2
 72
     1
 73
     1
 90
        2
 40
-0.6
 41
30.0
 62
     5
 63
     7
 74
     0
 91
        4
 64
     7
 65
   257
 75
     1
175
     1
 42
1.0
 92
        8
 66
     7
 43
1.0
 76
     1
 77
     6
 78
     2
 67
     7
 79
     5
170
     0
171
     0
290
     0
174
     0
 93
       13
 44
0.0
173
     0
291
     1
 45
0.0
1001
ACAD
1000
AcDbSavedByObjectVersion
1070
     0
  0
VISUALSTYLE
  5
2C
102
{ACAD_REACTORS
330
2A
102
}
330
2A
100
AcDbVisualStyle
  2
FlatWithEdges
 70
     1
 71
     2
 72
     1
 73
     1
 90
        2
 40
-0.6
 41
30.0
 62
     5
 63
     7
 74
     1
 91
        4
 64
     7
 65
   257
 75
     1
175
     1
 42
1.0
 92
        0
 66
   257
 43
1.0
 76
     1
 77
     6
 78
     2
 67
     7
 79
     5
170
     0
171
     0
290
     0
174
     0
 93
       13
 44
0.0
173
     0
291
     1
 45
0.0
1001
ACAD
1000
AcDbSavedByObjectVersion
1070
     0
  0
VISUALSTYLE
  5
2D
102
{ACAD_REACTORS
330
2A
102
}
330
2A
100
AcDbVisualStyle
  2
Gouraud
 70
     2
 71
     2
 72
     2
 73
     1
 90
        2
 40
-0.6
 41
30.0
 62
     5
 63
     7
 74
     0
 91
        4
 64
     7
 65
   257
 75
     1
175
     1
 42
1.0
 92
        0
 66
     7
 43
1.0
 76
     1
 77
     6
 78
     2
 67
     7
 79
     5
170
     0
171
     0
290
     0
174
     0
 93
       13
 44
0.0
173
     0
291
     1
 45
0.0
1001
ACAD
1000
AcDbSavedByObjectVersion
1070
     0
  0
VISUALSTYLE
  5
2E
102
{ACAD_REACTORS
330
2A
102
}
330
2A
100
AcDbVisualStyle
  2
GouraudWithEdges
 70
     3
 71
     2
 72
     2
 73
     1
 90
        2
 40
-0.6
 41
30.0
 62
     5
 63
     7
 74
     1
 91
        4
 64
     7
 65
   257
 75
     1
175
     1
 42
1.0
 92
        0
 66
   257
 43
1.0
 76
     1
 77
     6
 78
     2
 67
     7
 79
     5
170
     0
171
     0
290
     0
174
     0
 93
       13
 44
0.0
173
     0
291
     1
 45
0.0
1001
ACAD
1000
AcDbSavedByObjectVersion
1070
     0
  0
VISUALSTYLE
  5
38
102
{ACAD_REACTORS
330
2A
102
}
330
2A
100
AcDbVisualStyle
  2
Linepattern
 70
    14
 71
     2
 72
     2
 73
     0
 90
        0
 40
-0.6
 41
-30.0
 62
     5
 63
     7
 74
     1
 91
        4
 64
     7
 65
   257
 75
     7
175
     7
 42
1.0
 92
        8
 66
     7
 43
1.0
 76
     1
 77
     6
 78
     2
 67
     7
 79
     5
170
     0
171
     0
290
     0
174
     0
 93
        1
 44
0.0
173
     0
291
     1
 45
0.0
1001
ACAD
1000
AcDbSavedByObjectVersion
1070
     0
  0
VISUALSTYLE
  5
33
102
{ACAD_REACTORS
330
2A
102
}
330
2A
100
AcDbVisualStyle
  2
Realistic
 70
     8
 71
     2
 72
     2
 73
     0
 90
        0
 40
-0.6
 41
-30.0
 62
     5
 63
     7
 74
     1
 91
        0
 64
     7
 65
   257
 75
     1
175
     1
 42
1.0
 92
        8
 66
     8
 43
1.0
 76
     1
 77
     6
 78
     2
 67
     7
 79
     5
170
     0
171
     0
290
     0
174
     0
 93
       13
 44
0.0
173
     0
291
     0
 45
0.0
1001
ACAD
1000
AcDbSavedByObjectVersion
1070
     0
  0
VISUALSTYLE
  5
37
102
{ACAD_REACTORS
330
2A
102
}
330
2A
100
AcDbVisualStyle
  2
Thicken
 70
    13
 71
     2
 72
     2
 73
     0
 90
        0
 40
-0.6
 41
-30.0
 62
     5
 63
     7
 74
     1
 91
        4
 64
     7
 65
   257
 75
     1
175
     1
 42
1.0
 92
       12
 66
     7
 43
1.0
 76
     1
 77
     6
 78
     2
 67
     7
 79
     5
170
     0
171
     0
290
     0
174
     0
 93
        1
 44
0.0
173
     0
291
     1
 45
0.0
1001
ACAD
1000
AcDbSavedByObjectVersion
1070
     0
  0
DICTIONARYVAR
  5
15F
102
{ACAD_REACTORS
330
15C
102
}
330
15C
100
DictionaryVariables
280
     0
  1
1:1
  0
ENDSEC
  0
EOF
