  0
SECTION
  2
HEADER
  9
$ACADVER
  1
AC1015
  9
$ACADMAINTVER
 70
     6
  9
$DWGCODEPAGE
  3
ANSI_1252
  9
$INSBASE
 10
0.0
 20
0.0
 30
0.0
  9
$EXTMIN
 10
26.7306740637183
 20
268.7106562416
 30
0.0
  9
$EXTMAX
 10
222.315189989641
 20
396.756419690351
 30
0.0
  9
$LIMMIN
 10
0.0
 20
0.0
  9
$LIMMAX
 10
12.0
 20
9.0
  9
$ORTHOMODE
 70
     0
  9
$REGENMODE
 70
     1
  9
$FILLMODE
 70
     1
  9
$QTEXTMODE
 70
     0
  9
$MIRRTEXT
 70
     1
  9
$LTSCALE
 40
1.0
  9
$ATTMODE
 70
     1
  9
$TEXTSIZE
 40
0.2
  9
$TRACEWID
 40
0.05
  9
$TEXTSTYLE
  7
Standard
  9
$CLAYER
  8
0
  9
$CELTYPE
  6
ByLayer
  9
$CECOLOR
 62
   256
  9
$CELTSCALE
 40
1.0
  9
$DISPSILH
 70
     0
  9
$DIMSCALE
 40
1.0
  9
$DIMASZ
 40
0.18
  9
$DIMEXO
 40
0.0625
  9
$DIMDLI
 40
0.38
  9
$DIMRND
 40
0.0
  9
$DIMDLE
 40
0.0
  9
$DIMEXE
 40
0.18
  9
$DIMTP
 40
0.0
  9
$DIMTM
 40
0.0
  9
$DIMTXT
 40
0.18
  9
$DIMCEN
 40
0.09
  9
$DIMTSZ
 40
0.0
  9
$DIMTOL
 70
     0
  9
$DIMLIM
 70
     0
  9
$DIMTIH
 70
     1
  9
$DIMTOH
 70
     1
  9
$DIMSE1
 70
     0
  9
$DIMSE2
 70
     0
  9
$DIMTAD
 70
     0
  9
$DIMZIN
 70
     0
  9
$DIMBLK
  1

  9
$DIMASO
 70
     1
  9
$DIMSHO
 70
     1
  9
$DIMPOST
  1

  9
$DIMAPOST
  1

  9
$DIMALT
 70
     0
  9
$DIMALTD
 70
     2
  9
$DIMALTF
 40
25.4
  9
$DIMLFAC
 40
1.0
  9
$DIMTOFL
 70
     0
  9
$DIMTVP
 40
0.0
  9
$DIMTIX
 70
     0
  9
$DIMSOXD
 70
     0
  9
$DIMSAH
 70
     0
  9
$DIMBLK1
  1

  9
$DIMBLK2
  1

  9
$DIMSTYLE
  2
Standard
  9
$DIMCLRD
 70
     0
  9
$DIMCLRE
 70
     0
  9
$DIMCLRT
 70
     0
  9
$DIMTFAC
 40
1.0
  9
$DIMGAP
 40
0.09
  9
$DIMJUST
 70
     0
  9
$DIMSD1
 70
     0
  9
$DIMSD2
 70
     0
  9
$DIMTOLJ
 70
     1
  9
$DIMTZIN
 70
     0
  9
$DIMALTZ
 70
     0
  9
$DIMALTTZ
 70
     0
  9
$DIMUPT
 70
     0
  9
$DIMDEC
 70
     4
  9
$DIMTDEC
 70
     4
  9
$DIMALTU
 70
     2
  9
$DIMALTTD
 70
     2
  9
$DIMTXSTY
  7
Standard
  9
$DIMAUNIT
 70
     0
  9
$DIMADEC
 70
     0
  9
$DIMALTRND
 40
0.0
  9
$DIMAZIN
 70
     0
  9
$DIMDSEP
 70
    46
  9
$DIMATFIT
 70
     3
  9
$DIMFRAC
 70
     0
  9
$DIMLDRBLK
  1

  9
$DIMLUNIT
 70
     2
  9
$DIMLWD
 70
    -2
  9
$DIMLWE
 70
    -2
  9
$DIMTMOVE
 70
     0
  9
$LUNITS
 70
     2
  9
$LUPREC
 70
     4
  9
$SKETCHINC
 40
0.1
  9
$FILLETRAD
 40
0.5
  9
$AUNITS
 70
     0
  9
$AUPREC
 70
     0
  9
$MENU
  1
.
  9
$ELEVATION
 40
0.0
  9
$PELEVATION
 40
0.0
  9
$THICKNESS
 40
0.0
  9
$LIMCHECK
 70
     0
  9
$CHAMFERA
 40
0.5
  9
$CHAMFERB
 40
0.5
  9
$CHAMFERC
 40
1.0
  9
$CHAMFERD
 40
0.0
  9
$SKPOLY
 70
     0
  9
$TDCREATE
 40
2456748.734861551
  9
$TDUCREATE
 40
2456748.651528217
  9
$TDUPDATE
 40
2456748.734861562
  9
$TDUUPDATE
 40
2456748.651528229
  9
$TDINDWG
 40
0.0000000116
  9
$TDUSRTIMER
 40
0.0000000116
  9
$USRTIMER
 70
     1
  9
$ANGBASE
 50
0.0
  9
$ANGDIR
 70
     0
  9
$PDMODE
 70
     0
  9
$PDSIZE
 40
0.0
  9
$PLINEWID
 40
0.0
  9
$SPLFRAME
 70
     0
  9
$SPLINETYPE
 70
     6
  9
$SPLINESEGS
 70
     8
  9
$HANDSEED
  5
150
  9
$SURFTAB1
 70
     6
  9
$SURFTAB2
 70
     6
  9
$SURFTYPE
 70
     6
  9
$SURFU
 70
     6
  9
$SURFV
 70
     6
  9
$UCSBASE
  2

  9
$UCSNAME
  2

  9
$UCSORG
 10
0.0
 20
0.0
 30
0.0
  9
$UCSXDIR
 10
1.0
 20
0.0
 30
0.0
  9
$UCSYDIR
 10
0.0
 20
1.0
 30
0.0
  9
$UCSORTHOREF
  2

  9
$UCSORTHOVIEW
 70
     0
  9
$UCSORGTOP
 10
0.0
 20
0.0
 30
0.0
  9
$UCSORGBOTTOM
 10
0.0
 20
0.0
 30
0.0
  9
$UCSORGLEFT
 10
0.0
 20
0.0
 30
0.0
  9
$UCSORGRIGHT
 10
0.0
 20
0.0
 30
0.0
  9
$UCSORGFRONT
 10
0.0
 20
0.0
 30
0.0
  9
$UCSORGBACK
 10
0.0
 20
0.0
 30
0.0
  9
$PUCSBASE
  2

  9
$PUCSNAME
  2

  9
$PUCSORG
 10
0.0
 20
0.0
 30
0.0
  9
$PUCSXDIR
 10
1.0
 20
0.0
 30
0.0
  9
$PUCSYDIR
 10
0.0
 20
1.0
 30
0.0
  9
$PUCSORTHOREF
  2

  9
$PUCSORTHOVIEW
 70
     0
  9
$PUCSORGTOP
 10
0.0
 20
0.0
 30
0.0
  9
$PUCSORGBOTTOM
 10
0.0
 20
0.0
 30
0.0
  9
$PUCSORGLEFT
 10
0.0
 20
0.0
 30
0.0
  9
$PUCSORGRIGHT
 10
0.0
 20
0.0
 30
0.0
  9
$PUCSORGFRONT
 10
0.0
 20
0.0
 30
0.0
  9
$PUCSORGBACK
 10
0.0
 20
0.0
 30
0.0
  9
$USERI1
 70
     0
  9
$USERI2
 70
     0
  9
$USERI3
 70
     0
  9
$USERI4
 70
     0
  9
$USERI5
 70
     0
  9
$USERR1
 40
16.5
  9
$USERR2
 40
0.0
  9
$USERR3
 40
0.0
  9
$USERR4
 40
0.0
  9
$USERR5
 40
0.0
  9
$WORLDVIEW
 70
     1
  9
$SHADEDGE
 70
     3
  9
$SHADEDIF
 70
    70
  9
$TILEMODE
 70
     1
  9
$MAXACTVP
 70
    64
  9
$PINSBASE
 10
0.0
 20
0.0
 30
0.0
  9
$PLIMCHECK
 70
     0
  9
$PEXTMIN
 10
1.00000000000000E+20
 20
1.00000000000000E+20
 30
1.00000000000000E+20
  9
$PEXTMAX
 10
-1.00000000000000E+20
 20
-1.00000000000000E+20
 30
-1.00000000000000E+20
  9
$PLIMMIN
 10
0.0
 20
0.0
  9
$PLIMMAX
 10
12.0
 20
9.0
  9
$UNITMODE
 70
     0
  9
$VISRETAIN
 70
     1
  9
$PLINEGEN
 70
     0
  9
$PSLTSCALE
 70
     1
  9
$TREEDEPTH
 70
  3020
  9
$CMLSTYLE
  2
Standard
  9
$CMLJUST
 70
     0
  9
$CMLSCALE
 40
1.0
  9
$PROXYGRAPHICS
 70
     1
  9
$MEASUREMENT
 70
     1
  9
$CELWEIGHT
370
    -1
  9
$ENDCAPS
280
     0
  9
$JOINSTYLE
280
     0
  9
$LWDISPLAY
290
     0
  9
$INSUNITS
 70
     1
  9
$HYPERLINKBASE
  1

  9
$STYLESHEET
  1

  9
$XEDIT
290
     1
  9
$CEPSNTYPE
380
     0
  9
$PSTYLEMODE
290
     1
  9
$FINGERPRINTGUID
  2
{3544DC58-FF7C-4CE2-9EC0-484E1B97FA02}
  9
$VERSIONGUID
  2
{FAEB1C32-E019-11D5-929B-00C0DF256EC4}
  9
$EXTNAMES
290
     1
  9
$PSVPSCALE
 40
0.0
  9
$OLESTARTUP
290
     0
  0
ENDSEC
  0
SECTION
  2
CLASSES
  0
CLASS
  1
ACDBDICTIONARYWDFLT
  2
AcDbDictionaryWithDefault
  3
ObjectDBX Classes
 90
        0
280
     0
281
     0
  0
CLASS
  1
VISUALSTYLE
  2
AcDbVisualStyle
  3
ObjectDBX Classes
 90
     4095
280
     0
281
     0
  0
CLASS
  1
SCALE
  2
AcDbScale
  3
ObjectDBX Classes
 90
     1153
280
     0
281
     0
  0
CLASS
  1

  2
exOdDbPolyline
  3

 90
        0
280
     0
281
     1
  0
CLASS
  1

  2
exOdDbCircle
  3

 90
        0
280
     0
281
     1
  0
CLASS
  1

  2
exOdDbSpline
  3

 90
        0
280
     0
281
     1
  0
CLASS
  1
DICTIONARYVAR
  2
AcDbDictionaryVar
  3
ObjectDBX Classes
 90
        0
280
     0
281
     0
  0
CLASS
  1
ACDBPLACEHOLDER
  2
AcDbPlaceHolder
  3
ObjectDBX Classes
 90
        0
280
     0
281
     0
  0
CLASS
  1
LAYOUT
  2
AcDbLayout
  3
ObjectDBX Classes
 90
        0
280
     0
281
     0
  0
ENDSEC
  0
SECTION
  2
TABLES
  0
TABLE
  2
VPORT
  5
8
330
0
100
AcDbSymbolTable
 70
     1
  0
VPORT
  5
29
330
8
100
AcDbSymbolTableRecord
100
AcDbViewportTableRecord
  2
*Active
 70
     0
 10
0.0
 20
0.0
 11
1.0
 21
1.0
 12
124.5229320266797
 22
332.7335379659755
 13
0.0
 23
0.0
 14
0.5
 24
0.5
 15
0.5
 25
0.5
 16
0.0
 26
0.0
 36
1.0
 17
0.0
 27
0.0
 37
0.0
 40
140.8503397936261
 41
1.60267857142857
 42
50.0
 43
0.0
 44
0.0
 50
0.0
 51
0.0
 71
     0
 72
   100
 73
     1
 74
     3
 75
     0
 76
     0
 77
     0
 78
     0
281
     0
 65
     1
110
0.0
120
0.0
130
0.0
111
1.0
121
0.0
131
0.0
112
0.0
122
1.0
132
0.0
 79
     0
146
0.0
  0
ENDTAB
  0
TABLE
  2
LTYPE
  5
5
330
0
100
AcDbSymbolTable
 70
     8
  0
LTYPE
  5
14
330
5
100
AcDbSymbolTableRecord
100
AcDbLinetypeTableRecord
  2
ByBlock
 70
     0
  3

 72
    65
 73
     0
 40
0.0
  0
LTYPE
  5
15
330
5
100
AcDbSymbolTableRecord
100
AcDbLinetypeTableRecord
  2
ByLayer
 70
     0
  3

 72
    65
 73
     0
 40
0.0
  0
LTYPE
  5
16
330
5
100
AcDbSymbolTableRecord
100
AcDbLinetypeTableRecord
  2
Continuous
 70
     0
  3
Solid line
 72
    65
 73
     0
 40
0.0
  0
LTYPE
  5
3B
330
5
100
AcDbSymbolTableRecord
100
AcDbLinetypeTableRecord
  2
DASHED
 70
     0
  3
Dashed
 72
    65
 73
     2
 40
15.0
 49
7.0
 74
     0
 49
-8.0
 74
     0
  0
LTYPE
  5
3C
330
5
100
AcDbSymbolTableRecord
100
AcDbLinetypeTableRecord
  2
DOTTED
 70
     0
  3
Dotted
 72
    65
 73
     2
 40
1.0
 49
0.0
 74
     0
 49
-1.0
 74
     0
  0
LTYPE
  5
3D
330
5
100
AcDbSymbolTableRecord
100
AcDbLinetypeTableRecord
  2
DOT_CENTER
 70
     0
  3
Dot_Center
 72
    65
 73
     4
 40
14.0
 49
12.0
 74
     0
 49
-1.0
 74
     0
 49
0.0
 74
     0
 49
-1.0
 74
     0
  0
LTYPE
  5
3E
330
5
100
AcDbSymbolTableRecord
100
AcDbLinetypeTableRecord
  2
LONG_DASHED
 70
     0
  3
Long_Dashed
 72
    65
 73
     2
 40
15.0
 49
10.0
 74
     0
 49
-5.0
 74
     0
  0
LTYPE
  5
3F
330
5
100
AcDbSymbolTableRecord
100
AcDbLinetypeTableRecord
  2
DASH_CENTER
 70
     0
  3
Dash_Center
 72
    65
 73
     4
 40
14.0
 49
11.0
 74
     0
 49
-1.0
 74
     0
 49
1.0
 74
     0
 49
-1.0
 74
     0
  0
LTYPE
  5
40
330
5
100
AcDbSymbolTableRecord
100
AcDbLinetypeTableRecord
  2
PHANTOM
 70
     0
  3
Phantom
 72
    65
 73
     6
 40
13.0
 49
10.0
 74
     0
 49
-1.0
 74
     0
 49
0.0
 74
     0
 49
-1.0
 74
     0
 49
0.0
 74
     0
 49
-1.0
 74
     0
  0
LTYPE
  5
41
330
5
100
AcDbSymbolTableRecord
100
AcDbLinetypeTableRecord
  2
CENTER_DASH_DASH
 70
     0
  3
Center_Dash_Dash
 72
    65
 73
     6
 40
14.0
 49
9.0
 74
     0
 49
-1.0
 74
     0
 49
1.0
 74
     0
 49
-1.0
 74
     0
 49
1.0
 74
     0
 49
-1.0
 74
     0
  0
ENDTAB
  0
TABLE
  2
LAYER
  5
2
330
0
100
AcDbSymbolTable
 70
     7
  0
LAYER
  5
10
330
2
100
AcDbSymbolTableRecord
100
AcDbLayerTableRecord
  2
0
 70
     0
 62
     7
  6
Continuous
370
    -3
390
F
  0
LAYER
  5
42
330
2
100
AcDbSymbolTableRecord
100
AcDbLayerTableRecord
  2
1
 70
     0
 62
     7
  6
Continuous
370
    -3
390
F
  0
LAYER
  5
43
330
2
100
AcDbSymbolTableRecord
100
AcDbLayerTableRecord
  2
BEZUGSACHSEN
 70
     0
 62
     7
  6
Continuous
370
    -3
390
F
  0
LAYER
  5
44
330
2
100
AcDbSymbolTableRecord
100
AcDbLayerTableRecord
  2
DEFAULT_2
 70
     0
 62
     7
  6
Continuous
370
    -3
390
F
  0
LAYER
  5
45
330
2
100
AcDbSymbolTableRecord
100
AcDbLayerTableRecord
  2
FASEN
 70
     0
 62
     7
  6
Continuous
370
    -3
390
F
  0
LAYER
  5
46
330
2
100
AcDbSymbolTableRecord
100
AcDbLayerTableRecord
  2
GEWINDE
 70
     0
 62
     7
  6
Continuous
370
    -3
390
F
  0
LAYER
  5
47
330
2
100
AcDbSymbolTableRecord
100
AcDbLayerTableRecord
  2
RUNDUNGEN
 70
     0
 62
     7
  6
Continuous
370
    -3
390
F
  0
ENDTAB
  0
TABLE
  2
STYLE
  5
3
330
0
100
AcDbSymbolTable
 70
     2
  0
STYLE
  5
11
330
3
100
AcDbSymbolTableRecord
100
AcDbTextStyleTableRecord
  2
Standard
 70
     0
 40
0.0
 41
1.0
 50
0.0
 71
     0
 42
0.2
  3
txt
  4

  0
STYLE
  5
6E
330
3
100
AcDbSymbolTableRecord
100
AcDbTextStyleTableRecord
  2
CONVERTER_11
 70
     0
 40
0.0
 41
0.72
 50
0.0
 71
     0
 42
0.2
  3
txt.shx
  4

  0
ENDTAB
  0
TABLE
  2
VIEW
  5
6
330
0
100
AcDbSymbolTable
 70
     0
  0
ENDTAB
  0
TABLE
  2
UCS
  5
7
330
0
100
AcDbSymbolTable
 70
     0
  0
ENDTAB
  0
TABLE
  2
APPID
  5
9
330
0
100
AcDbSymbolTable
 70
     1
  0
APPID
  5
12
330
9
100
AcDbSymbolTableRecord
100
AcDbRegAppTableRecord
  2
ACAD
 70
     0
  0
ENDTAB
  0
TABLE
  2
DIMSTYLE
  5
A
330
0
100
AcDbSymbolTable
 70
     6
100
AcDbDimStyleTable
  0
DIMSTYLE
105
27
330
A
100
AcDbSymbolTableRecord
100
AcDbDimStyleTableRecord
  2
Standard
 70
     0
340
11
  0
DIMSTYLE
105
117
102
{ACAD_REACTORS
330
118
102
}
330
A
100
AcDbSymbolTableRecord
100
AcDbDimStyleTableRecord
  2
ME10_DIM_10
 70
     0
  3
\U+2300<>
 41
3.5
 42
2.0
 44
2.0
 71
     1
 73
     0
 74
     0
 77
     1
 78
     8
140
3.5
146
0.7
147
2.0
172
     1
173
     1
176
     2
177
     2
178
     3
271
     2
272
     0
340
6E
  0
DIMSTYLE
105
122
102
{ACAD_REACTORS
330
123
102
}
330
A
100
AcDbSymbolTableRecord
100
AcDbDimStyleTableRecord
  2
ME10_DIM_11
 70
     0
  3
\U+2300<>
 41
3.5
 42
2.0
 44
2.0
 71
     1
 73
     0
 74
     0
 77
     1
 78
     8
140
3.5
146
0.7
147
2.0
172
     1
173
     1
176
     2
177
     2
178
     3
271
     2
272
     0
340
6E
  0
DIMSTYLE
105
12D
102
{ACAD_REACTORS
330
12E
102
}
330
A
100
AcDbSymbolTableRecord
100
AcDbDimStyleTableRecord
  2
ME10_DIM_12
 70
     0
  3
<>
 41
3.5
 42
2.0
 44
2.0
 71
     1
 73
     0
 74
     0
 77
     1
 78
     8
140
3.5
146
0.7
147
2.0
172
     1
173
     1
176
     2
177
     2
178
     3
271
     2
272
     0
340
6E
  0
DIMSTYLE
105
138
102
{ACAD_REACTORS
330
139
102
}
330
A
100
AcDbSymbolTableRecord
100
AcDbDimStyleTableRecord
  2
ME10_DIM_13
 70
     0
  3
<>
 41
3.5
 42
2.0
 44
2.0
 71
     1
 73
     0
 74
     0
 77
     1
 78
     8
140
3.5
146
0.7
147
2.0
172
     1
173
     1
176
     2
177
     2
178
     3
271
     2
272
     0
340
6E
  0
DIMSTYLE
105
143
102
{ACAD_REACTORS
330
144
102
}
330
A
100
AcDbSymbolTableRecord
100
AcDbDimStyleTableRecord
  2
ME10_DIM_14
 70
     0
  3
<>
 41
3.5
 42
2.0
 44
2.0
 71
     1
 73
     0
 74
     0
 77
     1
 78
     8
140
3.5
146
0.7
147
2.0
172
     1
173
     1
176
     2
177
     2
178
     3
271
     2
272
     0
340
6E
  0
ENDTAB
  0
TABLE
  2
BLOCK_RECORD
  5
1
330
0
100
AcDbSymbolTable
 70
     8
  0
BLOCK_RECORD
  5
1F
330
1
100
AcDbSymbolTableRecord
100
AcDbBlockTableRecord
  2
*Model_Space
340
22
  0
BLOCK_RECORD
  5
1B
330
1
100
AcDbSymbolTableRecord
100
AcDbBlockTableRecord
  2
*Paper_Space
340
1E
  0
BLOCK_RECORD
  5
23
330
1
100
AcDbSymbolTableRecord
100
AcDbBlockTableRecord
  2
*Paper_Space0
340
26
  0
BLOCK_RECORD
  5
48
330
1
100
AcDbSymbolTableRecord
100
AcDbBlockTableRecord
  2
Urheberrecht_DE-EN
340
0
102
{BLKREFS
331
6D
102
}
  0
BLOCK_RECORD
  5
10E
330
1
100
AcDbSymbolTableRecord
100
AcDbBlockTableRecord
  2
*D2
340
0
  0
BLOCK_RECORD
  5
119
330
1
100
AcDbSymbolTableRecord
100
AcDbBlockTableRecord
  2
*D3
340
0
  0
BLOCK_RECORD
  5
124
330
1
100
AcDbSymbolTableRecord
100
AcDbBlockTableRecord
  2
*D4
340
0
  0
BLOCK_RECORD
  5
12F
330
1
100
AcDbSymbolTableRecord
100
AcDbBlockTableRecord
  2
*D5
340
0
  0
BLOCK_RECORD
  5
13A
330
1
100
AcDbSymbolTableRecord
100
AcDbBlockTableRecord
  2
*D6
340
0
  0
BLOCK_RECORD
  5
145
330
1
100
AcDbSymbolTableRecord
100
AcDbBlockTableRecord
  2
*D7
340
0
102
{BLKREFS
331
14B
102
}
  0
ENDTAB
  0
ENDSEC
  0
SECTION
  2
BLOCKS
  0
BLOCK
  5
20
330
1F
100
AcDbEntity
  8
0
100
AcDbBlockBegin
  2
*Model_Space
 70
     0
 10
0.0
 20
0.0
 30
0.0
  3
*Model_Space
  1

  0
ENDBLK
  5
21
330
1F
100
AcDbEntity
  8
0
100
AcDbBlockEnd
  0
BLOCK
  5
1C
330
1B
100
AcDbEntity
 67
     1
  8
0
100
AcDbBlockBegin
  2
*Paper_Space
 70
     0
 10
0.0
 20
0.0
 30
0.0
  3
*Paper_Space
  1

  0
ENDBLK
  5
1D
330
1B
100
AcDbEntity
 67
     1
  8
0
100
AcDbBlockEnd
  0
BLOCK
  5
24
330
23
100
AcDbEntity
  8
0
100
AcDbBlockBegin
  2
*Paper_Space0
 70
     0
 10
0.0
 20
0.0
 30
0.0
  3
*Paper_Space0
  1

  0
ENDBLK
  5
25
330
23
100
AcDbEntity
  8
0
100
AcDbBlockEnd
  0
BLOCK
  5
49
330
48
100
AcDbEntity
  8
0
100
AcDbBlockBegin
  2
Urheberrecht_DE-EN
 70
     0
 10
40.7306740637183
 20
333.897723297856
 30
0.0
  3
Urheberrecht_DE-EN
  1

  0
MTEXT
  5
6F
330
48
100
AcDbEntity
  8
1
 62
     1
100
AcDbMText
 10
40.7306740637183
 20
333.897723297856
 30
0.0
 40
2.0
 41
0.0
 71
     7
 72
     1
  1
We own the copyright of this document. It \Pdetermined and may neither be copied or \Pmade accessible to outsiders without our\Ppermission.
  7
CONVERTER_11
 11
0.0
 21
1.0
 31
0.0
 73
     1
 44
0.90036014405762
  0
MTEXT
  5
70
330
48
100
AcDbEntity
  8
1
 62
     1
100
AcDbMText
 10
40.7306740637183
 20
277.6083363805498
 30
0.0
 40
2.0
 41
0.0
 71
     7
 72
     1
  1
F\U+00fcr diese Unterlage behalten wir das Ur-\Pheberrecht. Sie darf nur f\U+00fcr den von uns \Pbestimmten Zweck benutzt und ohne unsere \PZustimmung weder vervielf\U+00e4ltigt noch\PDritten zug\U+00e4nglich gemacht werden.
  7
CONVERTER_11
 11
0.0
 21
1.0
 31
0.0
 73
     1
 44
0.90036014405762
  0
ENDBLK
  5
4A
330
48
100
AcDbEntity
  8
0
100
AcDbBlockEnd
  0
BLOCK
  5
115
330
10E
100
AcDbEntity
  8
0
100
AcDbBlockBegin
  2
*D2
 70
     1
 10
0.0
 20
0.0
 30
0.0
  3
*D2
  1

  0
LINE
  5
10F
330
10E
100
AcDbEntity
  8
1
  6
Continuous
 62
     2
100
AcDbLine
 10
212.066562920995
 20
334.7106562416
 30
0.0
 11
212.066562920995
 21
302.7106562416
 31
0.0
  0
LINE
  5
110
330
10E
100
AcDbEntity
  8
1
  6
Continuous
 62
     2
100
AcDbLine
 10
201.7049965705
 20
334.7106562416
 30
0.0
 11
214.066562920995
 21
334.7106562416
 31
0.0
  0
LINE
  5
111
330
10E
100
AcDbEntity
  8
1
  6
Continuous
 62
     2
100
AcDbLine
 10
201.7049965705
 20
302.7106562416
 30
0.0
 11
214.066562920995
 21
302.7106562416
 31
0.0
  0
SOLID
  5
112
330
10E
100
AcDbEntity
  8
1
 62
     2
100
AcDbTrace
 10
212.5273466625509
 20
331.2106562416
 30
0.0
 11
211.6057791794391
 21
331.2106562416
 31
0.0
 12
212.066562920995
 22
334.7106562416
 32
0.0
 13
212.066562920995
 23
334.7106562416
 33
0.0
  0
SOLID
  5
113
330
10E
100
AcDbEntity
  8
1
 62
     2
100
AcDbTrace
 10
211.6057791794391
 20
306.2106562416
 30
0.0
 11
212.5273466625509
 21
306.2106562416
 31
0.0
 12
212.066562920995
 22
302.7106562416
 32
0.0
 13
212.066562920995
 23
302.7106562416
 33
0.0
  0
MTEXT
  5
114
330
10E
100
AcDbEntity
  8
1
 62
     3
100
AcDbMText
 10
210.066562920995
 20
309.095072677059
 30
0.0
 40
3.5
 41
0.0
 71
     7
 72
     1
  1
\C3;%%c\C3;\C3;32\C2;\H2.45;\S^ ;\C3;
  7
CONVERTER_11
 11
0.0
 21
1.0
 31
0.0
 73
     1
 44
0.60024009603842
  0
ENDBLK
  5
116
330
10E
100
AcDbEntity
  8
0
100
AcDbBlockEnd
  0
BLOCK
  5
120
330
119
100
AcDbEntity
  8
0
100
AcDbBlockBegin
  2
*D3
 70
     1
 10
0.0
 20
0.0
 30
0.0
  3
*D3
  1

  0
LINE
  5
11A
330
119
100
AcDbEntity
  8
1
  6
Continuous
 62
     2
100
AcDbLine
 10
220.315189989641
 20
354.7106562416
 30
0.0
 11
220.315189989641
 21
282.7106562416
 31
0.0
  0
LINE
  5
11B
330
119
100
AcDbEntity
  8
1
  6
Continuous
 62
     2
100
AcDbLine
 10
193.2907830082
 20
354.7106562416
 30
0.0
 11
222.315189989641
 21
354.7106562416
 31
0.0
  0
LINE
  5
11C
330
119
100
AcDbEntity
  8
1
  6
Continuous
 62
     2
100
AcDbLine
 10
193.2907830082
 20
282.7106562416
 30
0.0
 11
222.315189989641
 21
282.7106562416
 31
0.0
  0
SOLID
  5
11D
330
119
100
AcDbEntity
  8
1
 62
     2
100
AcDbTrace
 10
220.7759737311969
 20
351.2106562416
 30
0.0
 11
219.8544062480851
 21
351.2106562416
 31
0.0
 12
220.315189989641
 22
354.7106562416
 32
0.0
 13
220.315189989641
 23
354.7106562416
 33
0.0
  0
SOLID
  5
11E
330
119
100
AcDbEntity
  8
1
 62
     2
100
AcDbTrace
 10
219.8544062480851
 20
286.2106562416
 30
0.0
 11
220.7759737311969
 21
286.2106562416
 31
0.0
 12
220.315189989641
 22
282.7106562416
 32
0.0
 13
220.315189989641
 23
282.7106562416
 33
0.0
  0
MTEXT
  5
11F
330
119
100
AcDbEntity
  8
1
 62
     3
100
AcDbMText
 10
218.315189989641
 20
309.760284537433
 30
0.0
 40
3.5
 41
0.0
 71
     7
 72
     1
  1
\C3;%%c\C3;\C3;72\C2;\H2.45;\S^ ;\C3;
  7
CONVERTER_11
 11
0.0
 21
1.0
 31
0.0
 73
     1
 44
0.60024009603842
  0
ENDBLK
  5
121
330
119
100
AcDbEntity
  8
0
100
AcDbBlockEnd
  0
BLOCK
  5
12B
330
124
100
AcDbEntity
  8
0
100
AcDbBlockBegin
  2
*D4
 70
     1
 10
0.0
 20
0.0
 30
0.0
  3
*D4
  1

  0
LINE
  5
125
330
124
100
AcDbEntity
  8
1
  6
Continuous
 62
     2
100
AcDbLine
 10
199.7049965705
 20
376.488716390033
 30
0.0
 11
128.7049965705
 21
376.488716390033
 31
0.0
  0
LINE
  5
126
330
124
100
AcDbEntity
  8
1
  6
Continuous
 62
     2
100
AcDbLine
 10
199.7049965705
 20
348.2964426793
 30
0.0
 11
199.7049965705
 21
378.488716390033
 31
0.0
  0
LINE
  5
127
330
124
100
AcDbEntity
  8
1
  6
Continuous
 62
     2
100
AcDbLine
 10
128.7049965705
 20
370.7106193205
 30
0.0
 11
128.7049965705
 21
378.488716390033
 31
0.0
  0
SOLID
  5
128
330
124
100
AcDbEntity
  8
1
 62
     2
100
AcDbTrace
 10
196.2049965705
 20
376.0279326484771
 30
0.0
 11
196.2049965705
 21
376.9495001315889
 31
0.0
 12
199.7049965705
 22
376.488716390033
 32
0.0
 13
199.7049965705
 23
376.488716390033
 33
0.0
  0
SOLID
  5
129
330
124
100
AcDbEntity
  8
1
 62
     2
100
AcDbTrace
 10
132.2049965705
 20
376.9495001315889
 30
0.0
 11
132.2049965705
 21
376.0279326484771
 31
0.0
 12
128.7049965705
 22
376.488716390033
 32
0.0
 13
128.7049965705
 23
376.488716390033
 33
0.0
  0
MTEXT
  5
12A
330
124
100
AcDbEntity
  8
1
 62
     3
100
AcDbMText
 10
163.15652083439
 20
378.488716390033
 30
0.0
 40
3.5
 41
0.0
 71
     7
 72
     1
  1
\C3;\C3;\C3;71\C2;\H2.45;\S^ ;\C3;
  7
CONVERTER_11
 11
0.9999999999970619
 21
2.424068405545306E-6
 31
0.0
 73
     1
 44
0.60024009603842
  0
ENDBLK
  5
12C
330
124
100
AcDbEntity
  8
0
100
AcDbBlockEnd
  0
BLOCK
  5
136
330
12F
100
AcDbEntity
  8
0
100
AcDbBlockBegin
  2
*D5
 70
     1
 10
0.0
 20
0.0
 30
0.0
  3
*D5
  1

  0
LINE
  5
130
330
12F
100
AcDbEntity
  8
1
  6
Continuous
 62
     2
100
AcDbLine
 10
199.7049965705
 20
383.806046854155
 30
0.0
 11
99.7049965705
 21
383.806046854155
 31
0.0
  0
LINE
  5
131
330
12F
100
AcDbEntity
  8
1
  6
Continuous
 62
     2
100
AcDbLine
 10
199.7049965705
 20
348.2964426793
 30
0.0
 11
199.7049965705
 21
385.806046854155
 31
0.0
  0
LINE
  5
132
330
12F
100
AcDbEntity
  8
1
  6
Continuous
 62
     2
100
AcDbLine
 10
99.7049965705
 20
370.7106562416
 30
0.0
 11
99.7049965705
 21
385.806046854155
 31
0.0
  0
SOLID
  5
133
330
12F
100
AcDbEntity
  8
1
 62
     2
100
AcDbTrace
 10
196.2049965705
 20
383.3452631125991
 30
0.0
 11
196.2049965705
 21
384.2668305957109
 31
0.0
 12
199.7049965705
 22
383.806046854155
 32
0.0
 13
199.7049965705
 23
383.806046854155
 33
0.0
  0
SOLID
  5
134
330
12F
100
AcDbEntity
  8
1
 62
     2
100
AcDbTrace
 10
103.2049965705
 20
384.2668305957109
 30
0.0
 11
103.2049965705
 21
383.3452631125991
 31
0.0
 12
99.7049965705
 22
383.806046854155
 32
0.0
 13
99.7049965705
 23
383.806046854155
 33
0.0
  0
MTEXT
  5
135
330
12F
100
AcDbEntity
  8
1
 62
     3
100
AcDbMText
 10
147.927071766522
 20
385.806046854155
 30
0.0
 40
3.5
 41
0.0
 71
     7
 72
     1
  1
\C3;\C3;\C3;100\C2;\H2.45;\S^ ;\C3;
  7
CONVERTER_11
 11
0.9999999999970619
 21
2.424068405545306E-6
 31
0.0
 73
     1
 44
0.60024009603842
  0
ENDBLK
  5
137
330
12F
100
AcDbEntity
  8
0
100
AcDbBlockEnd
  0
BLOCK
  5
141
330
13A
100
AcDbEntity
  8
0
100
AcDbBlockBegin
  2
*D6
 70
     1
 10
0.0
 20
0.0
 30
0.0
  3
*D6
  1

  0
LINE
  5
13B
330
13A
100
AcDbEntity
  8
1
  6
Continuous
 62
     2
100
AcDbLine
 10
199.7049965705
 20
391.256419690351
 30
0.0
 11
49.7049965705
 21
391.256419690351
 31
0.0
  0
LINE
  5
13C
330
13A
100
AcDbEntity
  8
1
  6
Continuous
 62
     2
100
AcDbLine
 10
199.7049965705
 20
348.2964426793
 30
0.0
 11
199.7049965705
 21
393.256419690351
 31
0.0
  0
LINE
  5
13D
330
13A
100
AcDbEntity
  8
1
  6
Continuous
 62
     2
100
AcDbLine
 10
49.7049965705
 20
354.3108478042
 30
0.0
 11
49.7049965705
 21
393.256419690351
 31
0.0
  0
SOLID
  5
13E
330
13A
100
AcDbEntity
  8
1
 62
     2
100
AcDbTrace
 10
196.2049965705
 20
390.7956359487951
 30
0.0
 11
196.2049965705
 21
391.7172034319069
 31
0.0
 12
199.7049965705
 22
391.256419690351
 32
0.0
 13
199.7049965705
 23
391.256419690351
 33
0.0
  0
SOLID
  5
13F
330
13A
100
AcDbEntity
  8
1
 62
     2
100
AcDbTrace
 10
53.2049965705
 20
391.7172034319069
 30
0.0
 11
53.2049965705
 21
390.7956359487951
 31
0.0
 12
49.7049965705
 22
391.256419690351
 32
0.0
 13
49.7049965705
 23
391.256419690351
 33
0.0
  0
MTEXT
  5
140
330
13A
100
AcDbEntity
  8
1
 62
     3
100
AcDbMText
 10
129.833309164329
 20
393.256419690351
 30
0.0
 40
3.5
 41
0.0
 71
     7
 72
     1
  1
\C3;\C3;\C3;150\C2;\H2.45;\S^ ;\C3;
  7
CONVERTER_11
 11
0.9999999999970619
 21
2.424068405545306E-6
 31
0.0
 73
     1
 44
0.60024009603842
  0
ENDBLK
  5
142
330
13A
100
AcDbEntity
  8
0
100
AcDbBlockEnd
  0
BLOCK
  5
149
330
145
100
AcDbEntity
  8
0
100
AcDbBlockBegin
  2
*D7
 70
     1
 10
0.0
 20
0.0
 30
0.0
  3
*D7
  1

  0
LINE
  5
146
330
145
100
AcDbEntity
  8
1
  6
Continuous
 62
     2
100
AcDbLine
 10
139.2536365074488
 20
365.0250548959694
 30
0.0
 11
130.0940648208003
 21
356.2521635209179
 31
0.0
  0
SOLID
  5
147
330
145
100
AcDbEntity
  8
1
 62
     2
100
AcDbTrace
 10
132.3029936023941
 20
359.0058801538214
 30
0.0
 11
132.940440488786
 21
358.3403366969695
 31
0.0
 12
130.0940648208003
 22
356.2521635209179
 32
0.0
 13
130.0940648208003
 23
356.2521635209179
 33
0.0
  0
MTEXT
  5
148
330
145
100
AcDbEntity
  8
1
 62
     3
100
AcDbMText
 10
132.5116167026217
 20
361.337024398357
 30
0.0
 40
3.5
 41
0.0
 71
     7
 72
     1
  1
\C3; R\C3;\C3;5\C2;\H2.45;\S^ ;\C3;
  7
CONVERTER_11
 11
0.722186349939927
 21
0.6916985441364218
 31
0.0
 73
     1
 44
0.60024009603842
  0
ENDBLK
  5
14A
330
145
100
AcDbEntity
  8
0
100
AcDbBlockEnd
  0
ENDSEC
  0
SECTION
  2
ENTITIES
  0
INSERT
  5
6D
330
1F
100
AcDbEntity
  8
0
100
AcDbBlockReference
  2
Urheberrecht_DE-EN
 10
40.7306740637183
 20
333.897723297856
 30
0.0
  0
LINE
  5
71
330
1F
100
AcDbEntity
  8
BEZUGSACHSEN
  6
Continuous
 62
     7
100
AcDbLine
 10
49.7049965705
 20
285.1104867231
 30
0.0
 11
49.7049965705
 21
306.7006562416
 31
0.0
  0
LINE
  5
72
330
1F
100
AcDbEntity
  8
BEZUGSACHSEN
  6
Continuous
 62
     7
100
AcDbLine
 10
49.7049965705
 20
330.7206562416
 30
0.0
 11
49.7049965705
 21
352.3108478042
 31
0.0
  0
LINE
  5
73
330
1F
100
AcDbEntity
  8
BEZUGSACHSEN
  6
Continuous
 62
     9
100
AcDbLine
 10
51.6049220858
 20
354.30834251
 30
0.0
 11
51.6049220858
 21
334.3871886279
 31
0.0
  0
LINE
  5
74
330
1F
100
AcDbEntity
  8
BEZUGSACHSEN
  6
Continuous
 62
     9
100
AcDbLine
 10
51.6049220858
 20
303.0341238554
 30
0.0
 11
51.6049220858
 21
283.1129699733
 31
0.0
  0
LINE
  5
75
330
1F
100
AcDbEntity
  8
BEZUGSACHSEN
  6
Continuous
 62
     7
100
AcDbLine
 10
51.7049965705
 20
306.3070162933
 30
0.0
 11
51.7049965705
 21
308.7006562416
 31
0.0
  0
LINE
  5
76
330
1F
100
AcDbEntity
  8
BEZUGSACHSEN
  6
Continuous
 62
     7
100
AcDbLine
 10
51.7049965705
 20
328.7206562416
 30
0.0
 11
51.7049965705
 21
331.11429619
 31
0.0
  0
LINE
  5
77
330
1F
100
AcDbEntity
  8
BEZUGSACHSEN
  6
Continuous
 62
     9
100
AcDbLine
 10
57.7049965705
 20
302.3520086542
 30
0.0
 11
57.7049965705
 21
308.7006562416
 31
0.0
  0
LINE
  5
78
330
1F
100
AcDbEntity
  8
BEZUGSACHSEN
  6
Continuous
 62
     9
100
AcDbLine
 10
57.7049965705
 20
328.7206562416
 30
0.0
 11
57.7049965705
 21
335.0693038291
 31
0.0
  0
LINE
  5
79
330
1F
100
AcDbEntity
  8
BEZUGSACHSEN
  6
Continuous
 62
     7
100
AcDbLine
 10
59.7049965705
 20
331.5803117674
 30
0.0
 11
59.7049965705
 21
305.8410007158
 31
0.0
  0
LINE
  5
7A
330
1F
100
AcDbEntity
  8
BEZUGSACHSEN
  6
Continuous
 62
     7
100
AcDbLine
 10
50.9719494975
 20
303.7006562416
 30
0.0
 11
50.8508392461
 21
303.4683202462
 31
0.0
  0
LINE
  5
7B
330
1F
100
AcDbEntity
  8
BEZUGSACHSEN
  6
Continuous
 62
     7
100
AcDbLine
 10
50.8508392461
 20
333.9529922371
 30
0.0
 11
50.9719494975
 21
333.7206562416
 31
0.0
  0
LINE
  5
7C
330
1F
100
AcDbEntity
  8
BEZUGSACHSEN
  6
Continuous
 62
     7
100
AcDbLine
 10
116.4574013063
 20
268.7106562416
 30
0.0
 11
99.7049965705
 21
268.7106562416
 31
0.0
  0
LINE
  5
7D
330
1F
100
AcDbEntity
  8
BEZUGSACHSEN
  6
Continuous
 62
     7
100
AcDbLine
 10
122.9525918347
 20
268.7106562416
 30
0.0
 11
128.7049965705
 21
268.7106562416
 31
0.0
  0
LINE
  5
7E
330
1F
100
AcDbEntity
  8
BEZUGSACHSEN
  6
Continuous
 62
     7
100
AcDbLine
 10
49.7049965705
 20
306.7006562416
 30
0.0
 11
51.7049965705
 21
308.7006562416
 31
0.0
  0
LINE
  5
7F
330
1F
100
AcDbEntity
  8
BEZUGSACHSEN
  6
Continuous
 62
     7
100
AcDbLine
 10
118.8299965705
 20
272.7106562416
 30
0.0
 11
120.5799965705
 21
272.7106562416
 31
0.0
  0
LINE
  5
80
330
1F
100
AcDbEntity
  8
BEZUGSACHSEN
  6
Continuous
 62
     7
100
AcDbLine
 10
51.7049965705
 20
328.7206562416
 30
0.0
 11
49.7049965705
 21
330.7206562416
 31
0.0
  0
LWPOLYLINE
  5
81
330
1F
100
AcDbEntity
  8
BEZUGSACHSEN
  6
DOT_CENTER
 62
     7
100
AcDbPolyline
 90
        2
 70
     0
 43
0.25
 10
84.7049965705
 20
318.7106562416
 10
84.7049965705
 20
309.7106562416
  0
LWPOLYLINE
  5
82
330
1F
100
AcDbEntity
  8
BEZUGSACHSEN
  6
DOT_CENTER
 62
     7
100
AcDbPolyline
 90
        2
 70
     0
 43
0.25
 10
84.7049965705
 20
318.7106562416
 10
84.7049965705
 20
327.7106562416
  0
LINE
  5
83
330
1F
100
AcDbEntity
  8
FASEN
  6
Continuous
 62
     7
100
AcDbLine
 10
105.106482535
 20
279.8808996109
 30
0.0
 11
116.4574013063
 21
279.8808996109
 31
0.0
  0
LINE
  5
84
330
1F
100
AcDbEntity
  8
0
  6
Continuous
 62
     7
100
AcDbLine
 10
122.9525918347
 20
279.8808996109
 30
0.0
 11
128.7049965705
 21
279.8808996109
 31
0.0
  0
LINE
  5
85
330
1F
100
AcDbEntity
  8
BEZUGSACHSEN
  6
Continuous
 62
     7
100
AcDbLine
 10
99.0044252818
 20
281.0284062416
 30
0.0
 11
98.0830592296
 21
281.0284062416
 31
0.0
  0
LINE
  5
86
330
1F
100
AcDbEntity
  8
GEWINDE
  6
Continuous
 62
     7
100
AcDbLine
 10
138.9549965705
 20
282.7106562416
 30
0.0
 11
133.7049965705
 21
282.7106562416
 31
0.0
  0
LINE
  5
87
330
1F
100
AcDbEntity
  8
0
  6
Continuous
 62
     7
100
AcDbLine
 10
133.7049965705
 20
282.7106562416
 30
0.0
 11
138.9549965705
 21
282.7106562416
 31
0.0
  0
LINE
  5
88
330
1F
100
AcDbEntity
  8
0
  6
Continuous
 62
     7
100
AcDbLine
 10
156.4549965705
 20
282.7106562416
 30
0.0
 11
166.9549965705
 21
282.7106562416
 31
0.0
  0
LINE
  5
89
330
1F
100
AcDbEntity
  8
0
  6
Continuous
 62
     7
100
AcDbLine
 10
184.4549965705
 20
282.7106562416
 30
0.0
 11
191.2907830082
 21
282.7106562416
 31
0.0
  0
LINE
  5
8A
330
1F
100
AcDbEntity
  8
BEZUGSACHSEN
  6
Continuous
 62
     7
100
AcDbLine
 10
97.2049965705
 20
280.8284062416
 30
0.0
 11
51.6049220858
 21
283.1129699733
 31
0.0
  0
LINE
  5
8B
330
1F
100
AcDbEntity
  8
BEZUGSACHSEN
  6
Continuous
 62
     7
100
AcDbLine
 10
97.8242401845
 20
280.9943320679
 30
0.0
 11
97.2049965705
 21
280.8284062416
 31
0.0
  0
LINE
  5
8C
330
1F
100
AcDbEntity
  8
0
  6
Continuous
 62
     7
100
AcDbLine
 10
118.8299965705
 20
285.1882756579
 30
0.0
 11
120.5799965705
 21
285.1882756579
 31
0.0
  0
LINE
  5
8D
330
1F
100
AcDbEntity
  8
FASEN
  6
Continuous
 62
     7
100
AcDbLine
 10
112.6768704924
 20
286.8106562416
 30
0.0
 11
128.7049965705
 21
286.8106562416
 31
0.0
  0
LINE
  5
8E
330
1F
100
AcDbEntity
  8
0
  6
Continuous
 62
     7
100
AcDbLine
 10
112.6768704924
 20
287.2106562416
 30
0.0
 11
128.7049965705
 21
287.2106562416
 31
0.0
  0
LINE
  5
8F
330
1F
100
AcDbEntity
  8
BEZUGSACHSEN
  6
Continuous
 62
     7
100
AcDbLine
 10
97.2049965705
 20
356.5929062416
 30
0.0
 11
97.2049965705
 21
280.8284062416
 31
0.0
  0
LINE
  5
90
330
1F
100
AcDbEntity
  8
BEZUGSACHSEN
  6
Continuous
 62
     9
100
AcDbLine
 10
97.8242401845
 20
280.9943320679
 30
0.0
 11
97.8242401845
 21
356.4269804153
 31
0.0
  0
LINE
  5
91
330
1F
100
AcDbEntity
  8
BEZUGSACHSEN
  6
Continuous
 62
     9
100
AcDbLine
 10
98.0830592296
 20
281.0284062416
 30
0.0
 11
98.0830592296
 21
356.3929062416
 31
0.0
  0
LINE
  5
92
330
1F
100
AcDbEntity
  8
BEZUGSACHSEN
  6
Continuous
 62
     9
100
AcDbLine
 10
99.0044252818
 20
281.0284062416
 30
0.0
 11
99.0044252818
 21
356.3929062416
 31
0.0
  0
LINE
  5
93
330
1F
100
AcDbEntity
  8
BEZUGSACHSEN
  6
Continuous
 62
     7
100
AcDbLine
 10
99.7049965705
 20
368.7106562416
 30
0.0
 11
99.7049965705
 21
268.7106562416
 31
0.0
  0
LINE
  5
94
330
1F
100
AcDbEntity
  8
BEZUGSACHSEN
  6
Continuous
 62
     7
100
AcDbLine
 10
121.5799965705
 20
366.3332515058
 30
0.0
 11
122.9525918347
 21
368.7106562416
 31
0.0
  0
LINE
  5
95
330
1F
100
AcDbEntity
  8
BEZUGSACHSEN
  6
Continuous
 62
     7
100
AcDbLine
 10
121.5799965705
 20
271.0880609774
 30
0.0
 11
122.9525918347
 21
268.7106562416
 31
0.0
  0
LWPOLYLINE
  5
96
330
1F
100
AcDbEntity
  8
BEZUGSACHSEN
  6
DOT_CENTER
 62
     7
100
AcDbPolyline
 90
        2
 70
     0
 43
0.25
 10
106.7049965705
 20
360.860028097
 10
106.7049965705
 20
371.7106562416
  0
LINE
  5
97
330
1F
100
AcDbEntity
  8
BEZUGSACHSEN
  6
Continuous
 62
     9
100
AcDbLine
 10
49.7049965705
 20
305.2644722726
 30
0.0
 11
51.7049965705
 21
306.3070162933
 31
0.0
  0
LINE
  5
98
330
1F
100
AcDbEntity
  8
BEZUGSACHSEN
  6
Continuous
 62
     9
100
AcDbLine
 10
51.7049965705
 20
331.11429619
 30
0.0
 11
49.7049965705
 21
332.1568402107
 31
0.0
  0
LINE
  5
99
330
1F
100
AcDbEntity
  8
FASEN
  6
Continuous
 62
     9
100
AcDbLine
 10
112.6768704924
 20
286.8106562416
 30
0.0
 11
112.6768704924
 21
287.2106562416
 31
0.0
  0
LWPOLYLINE
  5
9A
330
1F
100
AcDbEntity
  8
DEFAULT_2
  6
DASHED
 62
     8
100
AcDbPolyline
 90
        2
 70
     0
 43
0.35
 10
135.7049965705
 20
302.7106562416
 10
138.9549965705
 20
302.7106562416
  0
LWPOLYLINE
  5
9B
330
1F
100
AcDbEntity
  8
DEFAULT_2
  6
DASHED
 62
     8
100
AcDbPolyline
 90
        2
 70
     0
 43
0.35
 10
138.9549965705
 20
302.7106562416
 10
166.9549965705
 20
302.7106562416
  0
LWPOLYLINE
  5
9C
330
1F
100
AcDbEntity
  8
DEFAULT_2
  6
DASHED
 62
     8
100
AcDbPolyline
 90
        2
 70
     0
 43
0.35
 10
166.9549965705
 20
302.7106562416
 10
199.7049965705
 20
302.7106562416
  0
LINE
  5
9D
330
1F
100
AcDbEntity
  8
BEZUGSACHSEN
  6
Continuous
 62
     9
100
AcDbLine
 10
59.2588425174
 20
303.7006562416
 30
0.0
 11
50.9719494975
 21
303.7006562416
 31
0.0
  0
LINE
  5
9E
330
1F
100
AcDbEntity
  8
FASEN
  6
Continuous
 62
     9
100
AcDbLine
 10
114.7049965705
 20
309.1106562416
 30
0.0
 11
114.7049965705
 21
308.7106562416
 31
0.0
  0
LINE
  5
9F
330
1F
100
AcDbEntity
  8
FASEN
  6
Continuous
 62
     9
100
AcDbLine
 10
114.7049965705
 20
328.3106562416
 30
0.0
 11
114.7049965705
 21
328.7106562416
 31
0.0
  0
LINE
  5
A0
330
1F
100
AcDbEntity
  8
0
  6
Continuous
 62
     7
100
AcDbLine
 10
116.4574013063
 20
368.7106562416
 30
0.0
 11
116.4574013063
 21
328.7106562416
 31
0.0
  0
LINE
  5
A1
330
1F
100
AcDbEntity
  8
0
  6
Continuous
 62
     7
100
AcDbLine
 10
116.4574013063
 20
308.7106562416
 30
0.0
 11
116.4574013063
 21
287.2106562416
 31
0.0
  0
LINE
  5
A2
330
1F
100
AcDbEntity
  8
0
  6
Continuous
 62
     7
100
AcDbLine
 10
116.4574013063
 20
279.8808996109
 30
0.0
 11
116.4574013063
 21
268.7106562416
 31
0.0
  0
LINE
  5
A3
330
1F
100
AcDbEntity
  8
0
  6
Continuous
 62
     7
100
AcDbLine
 10
117.8299965705
 20
366.3332180793
 30
0.0
 11
117.8299965705
 21
328.7106562416
 31
0.0
  0
LINE
  5
A4
330
1F
100
AcDbEntity
  8
0
  6
Continuous
 62
     7
100
AcDbLine
 10
117.8299965705
 20
308.7106562416
 30
0.0
 11
117.8299965705
 21
287.2106562416
 31
0.0
  0
LINE
  5
A5
330
1F
100
AcDbEntity
  8
0
  6
Continuous
 62
     7
100
AcDbLine
 10
117.8299965705
 20
271.0880985114
 30
0.0
 11
117.8299965705
 21
283.8287124885
 31
0.0
  0
LINE
  5
A6
330
1F
100
AcDbEntity
  8
0
  6
Continuous
 62
     9
100
AcDbLine
 10
118.8299965705
 20
272.7106562416
 30
0.0
 11
118.8299965705
 21
285.1882756579
 31
0.0
  0
LINE
  5
A7
330
1F
100
AcDbEntity
  8
0
  6
Continuous
 62
     9
100
AcDbLine
 10
118.8299965705
 20
287.2106562416
 30
0.0
 11
118.8299965705
 21
308.7106562416
 31
0.0
  0
LINE
  5
A8
330
1F
100
AcDbEntity
  8
0
  6
Continuous
 62
     9
100
AcDbLine
 10
118.8299965705
 20
328.7106562416
 30
0.0
 11
118.8299965705
 21
364.7106562416
 31
0.0
  0
LINE
  5
A9
330
1F
100
AcDbEntity
  8
BEZUGSACHSEN
  6
Continuous
 62
     7
100
AcDbLine
 10
57.7049965705
 20
308.7006562416
 30
0.0
 11
51.7049965705
 21
308.7006562416
 31
0.0
  0
LINE
  5
AA
330
1F
100
AcDbEntity
  8
0
  6
Continuous
 62
     7
100
AcDbLine
 10
114.7049965705
 20
308.7106562416
 30
0.0
 11
128.7049965705
 21
308.7106562416
 31
0.0
  0
LINE
  5
AB
330
1F
100
AcDbEntity
  8
FASEN
  6
Continuous
 62
     7
100
AcDbLine
 10
128.7049965705
 20
309.1106562416
 30
0.0
 11
114.7049965705
 21
309.1106562416
 31
0.0
  0
LINE
  5
AC
330
1F
100
AcDbEntity
  8
0
  6
Continuous
 62
     9
100
AcDbLine
 10
120.5799965705
 20
272.7106562416
 30
0.0
 11
120.5799965705
 21
285.1882756579
 31
0.0
  0
LINE
  5
AD
330
1F
100
AcDbEntity
  8
0
  6
Continuous
 62
     9
100
AcDbLine
 10
120.5799965705
 20
287.2106562416
 30
0.0
 11
120.5799965705
 21
308.7106562416
 31
0.0
  0
LINE
  5
AE
330
1F
100
AcDbEntity
  8
0
  6
Continuous
 62
     9
100
AcDbLine
 10
120.5799965705
 20
328.7106562416
 30
0.0
 11
120.5799965705
 21
364.7106562416
 31
0.0
  0
LINE
  5
AF
330
1F
100
AcDbEntity
  8
0
  6
Continuous
 62
     7
100
AcDbLine
 10
121.5799965705
 20
271.0880985114
 30
0.0
 11
121.5799965705
 21
283.8287124885
 31
0.0
  0
LINE
  5
B0
330
1F
100
AcDbEntity
  8
0
  6
Continuous
 62
     7
100
AcDbLine
 10
121.5799965705
 20
287.2106562416
 30
0.0
 11
121.5799965705
 21
308.7106562416
 31
0.0
  0
LINE
  5
B1
330
1F
100
AcDbEntity
  8
0
  6
Continuous
 62
     7
100
AcDbLine
 10
121.5799965705
 20
328.7106562416
 30
0.0
 11
121.5799965705
 21
366.3332180793
 31
0.0
  0
LINE
  5
B2
330
1F
100
AcDbEntity
  8
0
  6
Continuous
 62
     7
100
AcDbLine
 10
122.9525918347
 20
368.7106562416
 30
0.0
 11
122.9525918347
 21
328.7106562416
 31
0.0
  0
LINE
  5
B3
330
1F
100
AcDbEntity
  8
0
  6
Continuous
 62
     7
100
AcDbLine
 10
122.9525918347
 20
308.7106562416
 30
0.0
 11
122.9525918347
 21
287.2106562416
 31
0.0
  0
LINE
  5
B4
330
1F
100
AcDbEntity
  8
0
  6
Continuous
 62
     7
100
AcDbLine
 10
122.9525918347
 20
279.8808996109
 30
0.0
 11
122.9525918347
 21
268.7106562416
 31
0.0
  0
LWPOLYLINE
  5
B5
330
1F
100
AcDbEntity
  8
BEZUGSACHSEN
  6
DOT_CENTER
 62
     7
100
AcDbPolyline
 90
        2
 70
     0
 43
0.25
 10
202.7049965705
 20
318.7106562416
 10
46.7049965705
 20
318.7106562416
  0
LINE
  5
B6
330
1F
100
AcDbEntity
  8
0
  6
Continuous
 62
     7
100
AcDbLine
 10
128.7049965705
 20
368.7106193205
 30
0.0
 11
128.7049965705
 21
328.7106562416
 31
0.0
  0
LINE
  5
B7
330
1F
100
AcDbEntity
  8
0
  6
Continuous
 62
     7
100
AcDbLine
 10
128.7049965705
 20
308.7106562416
 30
0.0
 11
128.7049965705
 21
287.2106562416
 31
0.0
  0
LINE
  5
B8
330
1F
100
AcDbEntity
  8
0
  6
Continuous
 62
     7
100
AcDbLine
 10
128.7049965705
 20
279.8808996109
 30
0.0
 11
128.7049965705
 21
268.7106581094
 31
0.0
  0
LINE
  5
B9
330
1F
100
AcDbEntity
  8
FASEN
  6
Continuous
 62
     7
100
AcDbLine
 10
128.7049965705
 20
279.8808996109
 30
0.0
 11
128.7049965705
 21
287.2106562416
 31
0.0
  0
LINE
  5
BA
330
1F
100
AcDbEntity
  8
FASEN
  6
Continuous
 62
     7
100
AcDbLine
 10
128.7049965705
 20
308.7106562416
 30
0.0
 11
128.7049965705
 21
328.7106562416
 31
0.0
  0
LINE
  5
BB
330
1F
100
AcDbEntity
  8
RUNDUNGEN
  6
Continuous
 62
     9
100
AcDbLine
 10
133.7049965705
 20
354.7106562416
 30
0.0
 11
133.7049965705
 21
282.7106562416
 31
0.0
  0
LWPOLYLINE
  5
BC
330
1F
100
AcDbEntity
  8
DEFAULT_2
  6
DASHED
 62
     8
100
AcDbPolyline
 90
        2
 70
     0
 43
0.35
 10
135.7049965705
 20
334.7106562416
 10
135.7049965705
 20
302.7106562416
  0
LINE
  5
BD
330
1F
100
AcDbEntity
  8
FASEN
  6
Continuous
 62
     7
100
AcDbLine
 10
114.7049965705
 20
328.3106562416
 30
0.0
 11
128.7049965705
 21
328.3106562416
 31
0.0
  0
LINE
  5
BE
330
1F
100
AcDbEntity
  8
0
  6
Continuous
 62
     7
100
AcDbLine
 10
114.7049965705
 20
328.7106562416
 30
0.0
 11
128.7049965705
 21
328.7106562416
 31
0.0
  0
LINE
  5
BF
330
1F
100
AcDbEntity
  8
BEZUGSACHSEN
  6
Continuous
 62
     7
100
AcDbLine
 10
57.7049965705
 20
328.7206562416
 30
0.0
 11
51.7049965705
 21
328.7206562416
 31
0.0
  0
LWPOLYLINE
  5
C0
330
1F
100
AcDbEntity
  8
GEWINDE
  6
DASHED
 62
     8
100
AcDbPolyline
 90
        2
 70
     0
 43
0.35
 10
138.9549965705
 20
302.7106562416
 10
138.9549965705
 20
282.7106562416
  0
LINE
  5
C1
330
1F
100
AcDbEntity
  8
BEZUGSACHSEN
  6
Continuous
 62
     7
100
AcDbLine
 10
116.4574013063
 20
268.7106562416
 30
0.0
 11
117.8299965705
 21
271.0880609774
 31
0.0
  0
LINE
  5
C2
330
1F
100
AcDbEntity
  8
BEZUGSACHSEN
  6
Continuous
 62
     9
100
AcDbLine
 10
50.9719494975
 20
333.7206562416
 30
0.0
 11
59.2588425174
 21
333.7206562416
 31
0.0
  0
LWPOLYLINE
  5
C3
330
1F
100
AcDbEntity
  8
DEFAULT_2
  6
DASHED
 62
     8
100
AcDbPolyline
 90
        2
 70
     0
 43
0.35
 10
199.7049965705
 20
334.7106562416
 10
135.7049965705
 20
334.7106562416
  0
LINE
  5
C4
330
1F
100
AcDbEntity
  8
BEZUGSACHSEN
  6
Continuous
 62
     7
100
AcDbLine
 10
116.4574013063
 20
368.7106562416
 30
0.0
 11
117.8299965705
 21
366.3332515058
 31
0.0
  0
LWPOLYLINE
  5
C5
330
1F
100
AcDbEntity
  8
GEWINDE
  6
DOT_CENTER
 62
     7
100
AcDbPolyline
 90
        2
 70
     0
 43
0.25
 10
147.7049965705
 20
279.7106562416
 10
147.7049965705
 20
308.3174111964
  0
LINE
  5
C6
330
1F
100
AcDbEntity
  8
BEZUGSACHSEN
  6
Continuous
 62
     7
100
AcDbLine
 10
97.8242401845
 20
356.4269804153
 30
0.0
 11
97.2049965705
 21
356.5929062416
 31
0.0
  0
LWPOLYLINE
  5
C7
330
1F
100
AcDbEntity
  8
GEWINDE
  6
DASHED
 62
     8
100
AcDbPolyline
 90
        2
 70
     0
 43
0.35
 10
156.4549965705
 20
302.7106562416
 10
156.4549965705
 20
282.7106562416
  0
LINE
  5
C8
330
1F
100
AcDbEntity
  8
RUNDUNGEN
  6
Continuous
 62
     7
100
AcDbLine
 10
191.2907830082
 20
354.7106562416
 30
0.0
 11
133.7049965705
 21
354.7106562416
 31
0.0
  0
LINE
  5
C9
330
1F
100
AcDbEntity
  8
0
  6
Continuous
 62
     7
100
AcDbLine
 10
133.7049965705
 20
354.7106562416
 30
0.0
 11
191.2907830082
 21
354.7106562416
 31
0.0
  0
LWPOLYLINE
  5
CA
330
1F
100
AcDbEntity
  8
GEWINDE
  6
DASHED
 62
     8
100
AcDbPolyline
 90
        2
 70
     0
 43
0.35
 10
166.9549965705
 20
302.7106562416
 10
166.9549965705
 20
282.7106562416
  0
LINE
  5
CB
330
1F
100
AcDbEntity
  8
BEZUGSACHSEN
  6
Continuous
 62
     7
100
AcDbLine
 10
97.2049965705
 20
356.5929062416
 30
0.0
 11
51.6049220858
 21
354.30834251
 31
0.0
  0
LINE
  5
CC
330
1F
100
AcDbEntity
  8
BEZUGSACHSEN
  6
Continuous
 62
     7
100
AcDbLine
 10
99.0044252818
 20
356.3929062416
 30
0.0
 11
98.0830592296
 21
356.3929062416
 31
0.0
  0
LINE
  5
CD
330
1F
100
AcDbEntity
  8
BEZUGSACHSEN
  6
Continuous
 62
     7
100
AcDbLine
 10
118.8299965705
 20
364.7106562416
 30
0.0
 11
120.5799965705
 21
364.7106562416
 31
0.0
  0
LWPOLYLINE
  5
CE
330
1F
100
AcDbEntity
  8
GEWINDE
  6
DOT_CENTER
 62
     7
100
AcDbPolyline
 90
        2
 70
     0
 43
0.25
 10
175.7049965705
 20
279.7106562416
 10
175.7049965705
 20
308.3174111964
  0
LINE
  5
CF
330
1F
100
AcDbEntity
  8
BEZUGSACHSEN
  6
Continuous
 62
     7
100
AcDbLine
 10
116.4574013063
 20
368.7106562416
 30
0.0
 11
111.7049965705
 21
368.7106562416
 31
0.0
  0
LINE
  5
D0
330
1F
100
AcDbEntity
  8
BEZUGSACHSEN
  6
Continuous
 62
     7
100
AcDbLine
 10
101.7049965705
 20
368.7106562416
 30
0.0
 11
99.7049965705
 21
368.7106562416
 31
0.0
  0
LINE
  5
D1
330
1F
100
AcDbEntity
  8
BEZUGSACHSEN
  6
Continuous
 62
     7
100
AcDbLine
 10
122.9525918347
 20
368.7106562416
 30
0.0
 11
128.7049965705
 21
368.7106562416
 31
0.0
  0
LWPOLYLINE
  5
D2
330
1F
100
AcDbEntity
  8
GEWINDE
  6
DASHED
 62
     8
100
AcDbPolyline
 90
        2
 70
     0
 43
0.35
 10
184.4549965705
 20
302.7106562416
 10
184.4549965705
 20
282.7106562416
  0
LINE
  5
D3
330
1F
100
AcDbEntity
  8
RUNDUNGEN
  6
Continuous
 62
     9
100
AcDbLine
 10
191.2907830082
 20
282.7106562416
 30
0.0
 11
191.2907830082
 21
354.7106562416
 31
0.0
  0
LINE
  5
D4
330
1F
100
AcDbEntity
  8
RUNDUNGEN
  6
Continuous
 62
     9
100
AcDbLine
 10
191.9978897893
 20
283.0035494604
 30
0.0
 11
191.9978897893
 21
354.4177630228
 31
0.0
  0
LINE
  5
D5
330
1F
100
AcDbEntity
  8
0
  6
Continuous
 62
     7
100
AcDbLine
 10
191.9978897893
 20
283.0035494604
 30
0.0
 11
199.4121033517
 21
290.4177630228
 31
0.0
  0
LINE
  5
D6
330
1F
100
AcDbEntity
  8
0
  6
Continuous
 62
     7
100
AcDbLine
 10
191.9978897893
 20
354.4177630228
 30
0.0
 11
199.4121033517
 21
347.0035494604
 31
0.0
  0
LINE
  5
D7
330
1F
100
AcDbEntity
  8
RUNDUNGEN
  6
Continuous
 62
     7
100
AcDbLine
 10
199.4121033517
 20
347.0035494604
 30
0.0
 11
191.9978897893
 21
354.4177630228
 31
0.0
  0
LINE
  5
D8
330
1F
100
AcDbEntity
  8
RUNDUNGEN
  6
Continuous
 62
     9
100
AcDbLine
 10
199.4121033517
 20
290.4177630228
 30
0.0
 11
199.4121033517
 21
347.0035494604
 31
0.0
  0
LINE
  5
D9
330
1F
100
AcDbEntity
  8
RUNDUNGEN
  6
Continuous
 62
     7
100
AcDbLine
 10
199.7049965705
 20
346.2964426793
 30
0.0
 11
199.7049965705
 21
291.124869804
 31
0.0
  0
LWPOLYLINE
  5
DA
330
1F
100
AcDbEntity
  8
GEWINDE
  6
DASHED
 62
     8
100
AcDbPolyline
 90
        2
 70
     0
 43
0.35
 10
185.7049965705
 20
302.7106562416
 10
185.7049965705
 20
282.7106562416
  0
LWPOLYLINE
  5
DB
330
1F
100
AcDbEntity
  8
GEWINDE
  6
DASHED
 62
     8
100
AcDbPolyline
 90
        2
 70
     0
 43
0.35
 10
157.7049965705
 20
302.7106562416
 10
157.7049965705
 20
282.7106562416
  0
LWPOLYLINE
  5
DC
330
1F
100
AcDbEntity
  8
GEWINDE
  6
DASHED
 62
     8
100
AcDbPolyline
 90
        2
 70
     0
 43
0.35
 10
165.7049965705
 20
302.7106562416
 10
165.7049965705
 20
282.7106562416
  0
LWPOLYLINE
  5
DD
330
1F
100
AcDbEntity
  8
GEWINDE
  6
DASHED
 62
     8
100
AcDbPolyline
 90
        2
 70
     0
 43
0.35
 10
137.7049965705
 20
302.7106562416
 10
137.7049965705
 20
282.7106562416
  0
ARC
  5
DE
330
1F
100
AcDbEntity
  8
FASEN
  6
Continuous
 62
     7
100
AcDbCircle
 10
117.6056505934
 20
294.2419195116
 30
0.0
 40
19.03859487300014
100
AcDbArc
 50
227.4837701983003
 51
228.9651953375289
  0
ARC
  5
DF
330
1F
100
AcDbEntity
  8
FASEN
  6
Continuous
 62
     7
100
AcDbCircle
 10
112.6768704924
 20
279.2106562416
 30
0.0
 40
8.0
100
AcDbArc
 50
90.0
 51
172.8323734889971
  0
ARC
  5
E0
330
1F
100
AcDbEntity
  8
FASEN
  6
Continuous
 62
     7
100
AcDbCircle
 10
112.6768704924
 20
279.2106562416
 30
0.0
 40
7.599982194900008
100
AcDbArc
 50
90.0
 51
174.9405171273014
  0
ARC
  5
E1
330
1F
100
AcDbEntity
  8
BEZUGSACHSEN
  6
Continuous
 62
     7
100
AcDbCircle
 10
57.7049965705
 20
310.7006562416
 30
0.0
 40
2.0
100
AcDbArc
 50
270.0
 51
355.2350520603931
  0
ARC
  5
E2
330
1F
100
AcDbEntity
  8
BEZUGSACHSEN
  6
Continuous
 62
     7
100
AcDbCircle
 10
51.7049965705
 20
285.1104646786
 30
0.0
 40
2.0
100
AcDbArc
 50
180.0
 51
267.1318795137018
  0
ARC
  5
E3
330
1F
100
AcDbEntity
  8
BEZUGSACHSEN
  6
Continuous
 62
     7
100
AcDbCircle
 10
118.8299965705
 20
271.7106562416
 30
0.0
 40
1.0
100
AcDbArc
 50
90.0
 51
180.0
  0
ARC
  5
E4
330
1F
100
AcDbEntity
  8
BEZUGSACHSEN
  6
Continuous
 62
     7
100
AcDbCircle
 10
98.0830592296
 20
280.0284062416
 30
0.0
 40
1.0
100
AcDbArc
 50
90.0
 51
104.9999999996981
  0
ARC
  5
E5
330
1F
100
AcDbEntity
  8
BEZUGSACHSEN
  6
Continuous
 62
     7
100
AcDbCircle
 10
99.0044252818
 20
280.0284062416
 30
0.0
 40
1.000000000000087
100
AcDbArc
 50
45.52164291270372
 51
90.0
  0
ARC
  5
E6
330
1F
100
AcDbEntity
  8
0
  6
Continuous
 62
     7
100
AcDbCircle
 10
-124.892783312
 20
388.145123832
 30
0.0
 40
264.5204223901892
100
AcDbArc
 50
335.840076470599
 51
336.5770705490999
  0
ARC
  5
E7
330
1F
100
AcDbEntity
  8
BEZUGSACHSEN
  6
Continuous
 62
     7
100
AcDbCircle
 10
106.7202045817
 20
418.7634260085
 30
0.0
 40
50.30340021046194
100
AcDbArc
 50
264.2781515100879
 51
269.9826780126003
  0
ARC
  5
E8
330
1F
100
AcDbEntity
  8
BEZUGSACHSEN
  6
Continuous
 62
     7
100
AcDbCircle
 10
106.6897885695
 20
418.7634258078
 30
0.0
 40
50.30340000969741
100
AcDbArc
 50
270.0173219760583
 51
275.7218485011431
  0
ARC
  5
E9
330
1F
100
AcDbEntity
  8
0
  6
Continuous
 62
     7
100
AcDbCircle
 10
114.7049965705
 20
318.7106562416
 30
0.0
 40
10.0
100
AcDbArc
 50
90.0
 51
270.0
  0
ARC
  5
EA
330
1F
100
AcDbEntity
  8
FASEN
  6
Continuous
 62
     7
100
AcDbCircle
 10
114.7049965705
 20
318.7106562416
 30
0.0
 40
9.599999195899954
100
AcDbArc
 50
90.0
 51
270.0
  0
ARC
  5
EB
330
1F
100
AcDbEntity
  8
BEZUGSACHSEN
  6
Continuous
 62
     7
100
AcDbCircle
 10
57.7049965705
 20
326.7206562416
 30
0.0
 40
1.99999999999993
100
AcDbArc
 50
4.76494791109064
 51
90.0
  0
ARC
  5
EC
330
1F
100
AcDbEntity
  8
BEZUGSACHSEN
  6
Continuous
 62
     7
100
AcDbCircle
 10
51.7049965705
 20
352.3108478047
 30
0.0
 40
2.000000000047347
100
AcDbArc
 50
92.86812048629827
 51
180.0000000143238
  0
ARC
  5
ED
330
1F
100
AcDbEntity
  8
BEZUGSACHSEN
  6
Continuous
 62
     7
100
AcDbCircle
 10
118.8299965705
 20
365.7106562416
 30
0.0
 40
1.0
100
AcDbArc
 50
180.0
 51
270.0
  0
ARC
  5
EE
330
1F
100
AcDbEntity
  8
BEZUGSACHSEN
  6
Continuous
 62
     7
100
AcDbCircle
 10
98.0830592296
 20
357.3929062416
 30
0.0
 40
1.000000000009859
100
AcDbArc
 50
255.000000000301
 51
270.0
  0
ARC
  5
EF
330
1F
100
AcDbEntity
  8
BEZUGSACHSEN
  6
Continuous
 62
     7
100
AcDbCircle
 10
99.0044252818
 20
357.3929062416
 30
0.0
 40
1.0
100
AcDbArc
 50
270.0
 51
314.4783570872985
  0
ARC
  5
F0
330
1F
100
AcDbEntity
  8
BEZUGSACHSEN
  6
Continuous
 62
     7
100
AcDbCircle
 10
236.0350431687
 20
-1287.3321030483
 30
0.0
 40
1632.172763697999
100
AcDbArc
 50
96.2726189838
 51
96.48809068979999
  0
ARC
  5
F1
330
1F
100
AcDbEntity
  8
RUNDUNGEN
  6
Continuous
 62
     7
100
AcDbCircle
 10
133.7049965705
 20
277.7106562416
 30
0.0
 40
5.0
100
AcDbArc
 50
90.0
 51
180.0
  0
ARC
  5
F2
330
1F
100
AcDbEntity
  8
BEZUGSACHSEN
  6
Continuous
 62
     7
100
AcDbCircle
 10
120.5799965705
 20
271.7106562416
 30
0.0
 40
1.0
100
AcDbArc
 50
0.0
 51
90.0
  0
ARC
  5
F3
330
1F
100
AcDbEntity
  8
RUNDUNGEN
  6
Continuous
 62
     7
100
AcDbCircle
 10
198.7049965705
 20
291.124869804
 30
0.0
 40
1.00000000001906
100
AcDbArc
 50
315.0
 51
0.0
  0
ARC
  5
F4
330
1F
100
AcDbEntity
  8
RUNDUNGEN
  6
Continuous
 62
     7
100
AcDbCircle
 10
191.2907830082
 20
283.7106562416
 30
0.0
 40
1.0
100
AcDbArc
 50
270.0
 51
314.9999999959468
  0
ARC
  5
F5
330
1F
100
AcDbEntity
  8
BEZUGSACHSEN
  6
Continuous
 62
     7
100
AcDbCircle
 10
236.0350431687
 20
1924.7534155314
 30
0.0
 40
1632.1727636978
100
AcDbArc
 50
263.5119093102
 51
263.7273810162
  0
ARC
  5
F6
330
1F
100
AcDbEntity
  8
0
  6
Continuous
 62
     7
100
AcDbCircle
 10
364.302776453
 20
388.145123832
 30
0.0
 40
264.5204223902001
100
AcDbArc
 50
203.4229294508999
 51
204.159923529401
  0
ARC
  5
F7
330
1F
100
AcDbEntity
  8
RUNDUNGEN
  6
Continuous
 62
     7
100
AcDbCircle
 10
133.7049965705
 20
359.7106562416
 30
0.0
 40
5.0
100
AcDbArc
 50
180.0
 51
270.0
  0
ARC
  5
F8
330
1F
100
AcDbEntity
  8
RUNDUNGEN
  6
Continuous
 62
     7
100
AcDbCircle
 10
198.7049965705
 20
346.2964426793
 30
0.0
 40
1.0
100
AcDbArc
 50
0.0
 51
44.99999999594678
  0
ARC
  5
F9
330
1F
100
AcDbEntity
  8
BEZUGSACHSEN
  6
Continuous
 62
     7
100
AcDbCircle
 10
120.5799965705
 20
365.7106562416
 30
0.0
 40
1.0
100
AcDbArc
 50
270.0
 51
0.0
  0
ARC
  5
FA
330
1F
100
AcDbEntity
  8
RUNDUNGEN
  6
Continuous
 62
     7
100
AcDbCircle
 10
191.2907830082
 20
353.7106562416
 30
0.0
 40
0.9999999999482779
100
AcDbArc
 50
45.00000000405092
 51
90.0
  0
CIRCLE
  5
FB
330
1F
100
AcDbEntity
  8
BEZUGSACHSEN
  6
Continuous
 62
     7
100
AcDbCircle
 10
84.7049965705
 20
318.7106562416
 30
0.0
 40
6.0
  0
SPLINE
  5
FC
330
1F
100
AcDbEntity
  8
0
  6
Continuous
 62
     2
100
AcDbSpline
210
0.0
220
0.0
230
1.0
 70
     8
 71
     3
 72
    65
 73
    61
 74
    59
 42
0.0000000001
 43
0.0000000001
 44
0.00000001
 40
0.0
 40
0.0
 40
0.0
 40
0.0
 40
0.0147956421817222
 40
0.0592043652466811
 40
0.1332196603906116
 40
0.2366780611368732
 40
0.3693971888284984
 40
0.5312748722360373
 40
0.7221372407464544
 40
0.9414392851365019
 40
1.18859585114291
 40
1.46322440628442
 40
1.76479508777247
 40
2.091972192896118
 40
2.443352852416735
 40
2.818051838979499
 40
3.215041367603926
 40
3.632178986859886
 40
4.067305207665441
 40
4.519276812845633
 40
4.986893780655283
 40
5.467678437748533
 40
5.959225882332847
 40
6.460668633900218
 40
6.971171986491044
 40
7.488465552356305
 40
8.010381504884444
 40
8.536576363306189
 40
9.066749036123094
 40
9.59892769706792
 40
10.13118624290678
 40
10.66344484914027
 40
11.19562359754632
 40
11.72579591433744
 40
12.25198968552736
 40
12.77390464465234
 40
13.29119799712507
 40
13.80170093157323
 40
14.30314218560203
 40
14.79468829208287
 40
15.27547292556653
 40
15.74308988938316
 40
16.19506027262165
 40
16.63018549519209
 40
17.04732373846891
 40
17.44431406010954
 40
17.81901252343524
 40
18.17039258101122
 40
18.49757030156399
 40
18.79914162437752
 40
19.07376959365115
 40
19.320925333749
 40
19.54022742885067
 40
19.73109012001256
 40
19.8929676199927
 40
20.02568630734443
 40
20.12914436125625
 40
20.20315913209781
 40
20.24756696186677
 40
20.2623620883259
 40
20.2623620883259
 40
20.2623620883259
 40
20.2623620883259
 10
157.7049965705
 20
282.7106341609
 30
0.0
 10
157.7002455539705
 20
282.711957524907
 30
0.0
 10
157.6812344887902
 20
282.7172529304775
 30
0.0
 10
157.6384377466799
 20
282.7291012541717
 30
0.0
 10
157.5671342284852
 20
282.7487484881703
 30
0.0
 10
157.4673882889041
 20
282.7759851363519
 30
0.0
 10
157.3393011496523
 20
282.8106126534404
 30
0.0
 10
157.1829396991514
 20
282.8522881806863
 30
0.0
 10
156.9984931852284
 20
282.9006498706368
 30
0.0
 10
156.7862796914013
 20
282.955181882232
 30
0.0
 10
156.5466886176224
 20
283.0153498177621
 30
0.0
 10
156.2800811486661
 20
283.0805068671286
 30
0.0
 10
155.9870710412108
 20
283.1499563932728
 30
0.0
 10
155.6685939301975
 20
283.2228517323986
 30
0.0
 10
155.3257076046555
 20
283.2983052345785
 30
0.0
 10
154.9593700215919
 20
283.3754008390996
 30
0.0
 10
154.5707978094505
 20
283.4531902197959
 30
0.0
 10
154.1616428343564
 20
283.5306674529392
 30
0.0
 10
153.7336037531694
 20
283.6067869430709
 30
0.0
 10
153.2880969335455
 20
283.6806146304515
 30
0.0
 10
152.8266660838425
 20
283.7512328264582
 30
0.0
 10
152.3513066099055
 20
283.8177923043847
 30
0.0
 10
151.8639124593427
 20
283.8794082197123
 30
0.0
 10
151.3658693431666
 20
283.9354028624991
 30
0.0
 10
150.858539373142
 20
283.9851576181489
 30
0.0
 10
150.3437451304302
 20
284.0281850032925
 30
0.0
 10
149.8231510886916
 20
284.0639465156884
 30
0.0
 10
149.2977904903522
 20
284.0921042330798
 30
0.0
 10
148.7686436112569
 20
284.1123954090103
 30
0.0
 10
148.2372285905966
 20
284.1246955521275
 30
0.0
 10
147.7049913344695
 20
284.1288085744777
 30
0.0
 10
147.1727540503306
 20
284.1246953934188
 30
0.0
 10
146.6413391030725
 20
284.112395077657
 30
0.0
 10
146.1121926815512
 20
284.0921037683644
 30
0.0
 10
145.5868329009843
 20
284.0639459698336
 30
0.0
 10
145.0662396320375
 20
284.0281843643169
 30
0.0
 10
144.5514459412286
 20
283.9851568811532
 30
0.0
 10
144.0441166863015
 20
283.9354021078134
 30
0.0
 10
143.5460746550721
 20
283.8794075223827
 30
0.0
 10
143.0586814625502
 20
283.8177916270978
 30
0.0
 10
142.583322452368
 20
283.7512321214784
 30
0.0
 10
142.1218920190211
 20
283.680613959551
 30
0.0
 10
141.6763859336868
 20
283.6067863754527
 30
0.0
 10
141.2483473872265
 20
283.5306669166119
 30
0.0
 10
140.8391922857216
 20
283.4531896014085
 30
0.0
 10
140.4506197830403
 20
283.3754001547047
 30
0.0
 10
140.0842823106739
 20
283.2983045613291
 30
0.0
 10
139.7413961615363
 20
283.2228510478566
 30
0.0
 10
139.4229188471065
 20
283.1499556194816
 30
0.0
 10
139.1299085242165
 20
283.0805060327831
 30
0.0
 10
138.8633013076821
 20
283.0153490321462
 30
0.0
 10
138.6237106813307
 20
282.9551811776053
 30
0.0
 10
138.4114973383011
 20
282.9006491854015
 30
0.0
 10
138.2270507643679
 20
282.8522874746961
 30
0.0
 10
138.0706894142778
 20
282.8106119603787
 30
0.0
 10
137.9426025906058
 20
282.7759845157728
 30
0.0
 10
137.8428570684896
 20
282.748747998344
 30
0.0
 10
137.7715541171432
 20
282.7291009211475
 30
0.0
 10
137.7287580108582
 20
282.7172527158853
 30
0.0
 10
137.7097474167676
 20
282.7119573694067
 30
0.0
 10
137.7049965705
 20
282.7106340348
 30
0.0
 11
157.7049965705
 21
282.7106341609
 31
0.0
 11
157.6907430022711
 21
282.7146023872438
 31
0.0
 11
157.6479470467193
 21
282.7264615977007
 31
0.0
 11
157.5765896905076
 21
282.7461184445924
 31
0.0
 11
157.4767873721445
 21
282.7733790009758
 31
0.0
 11
157.3486654748007
 21
282.8080076924936
 31
0.0
 11
157.1922497107612
 21
282.8497029337727
 31
0.0
 11
157.007626648095
 21
282.8981050870842
 31
0.0
 11
156.7952259472526
 21
282.9526883167
 31
0.0
 11
156.5555106152837
 21
283.0128790779438
 31
0.0
 11
156.2887339506167
 21
283.07807918905
 31
0.0
 11
155.9952920026226
 21
283.1476255699093
 31
0.0
 11
155.6763615330645
 21
283.2206201841252
 31
0.0
 11
155.3331892439957
 21
283.2961261302516
 31
0.0
 11
154.9665208862405
 21
283.3732860029334
 31
0.0
 11
154.5772543775842
 21
283.4512107812519
 31
0.0
 11
154.1673972617333
 21
283.5288054845818
 31
0.0
 11
153.7389903411255
 21
283.6049785664931
 31
0.0
 11
153.293097826009
 21
283.6788581770243
 31
0.0
 11
152.8308627003178
 21
283.7495993754926
 31
0.0
 11
152.3547196278333
 21
283.8162451632166
 31
0.0
 11
151.8670521360082
 21
283.8778836876502
 31
0.0
 11
151.3687475271321
 21
283.9338957387849
 31
0.0
 11
150.8606820572451
 21
283.9837269670959
 31
0.0
 11
150.3451840225506
 21
284.0267898224546
 31
0.0
 11
149.8244944807994
 21
284.062548214677
 31
0.0
 11
149.2990535048447
 21
284.0907050933611
 31
0.0
 11
148.7692706062376
 21
284.1110310212682
 31
0.0
 11
148.2372340359451
 21
284.1233279735886
 31
0.0
 11
147.7049913547916
 21
284.1274374719931
 31
0.0
 11
147.1727486144883
 21
284.1233278121553
 31
0.0
 11
146.6407119606519
 21
284.1110306893348
 31
0.0
 11
146.1109294236387
 21
284.0907046231278
 31
0.0
 11
145.5854895405027
 21
284.0625476692957
 31
0.0
 11
145.0648009994828
 21
284.0267892044379
 31
0.0
 11
144.5493031885965
 21
283.9837262332918
 31
0.0
 11
144.0412381440679
 21
283.9338949518683
 31
0.0
 11
143.5429350317793
 21
283.877882993096
 31
0.0
 11
143.0552688789667
 21
283.8162445457
 31
0.0
 11
142.5791258410968
 21
283.7495986809967
 31
0.0
 11
142.1168907252077
 21
283.6788574448744
 31
0.0
 11
141.6709994203246
 21
283.6049780055535
 31
0.0
 11
141.24259349185
 21
283.5288050460151
 31
0.0
 11
140.8327357717366
 21
283.4512101797706
 31
0.0
 11
140.4434684888428
 21
283.37328522905
 31
0.0
 11
140.0768006470689
 21
283.2961254453057
 31
0.0
 11
139.7336289547688
 21
283.2206195881419
 31
0.0
 11
139.4146978933127
 21
283.1476248015844
 31
0.0
 11
139.1212553248333
 21
283.0780782578333
 31
0.0
 11
138.8544792332038
 21
283.0128782697792
 31
0.0
 11
138.6147647084974
 21
282.9526876849001
 31
0.0
 11
138.4023639628258
 21
282.8981044259821
 31
0.0
 11
138.2177405902555
 21
282.8497021824561
 31
0.0
 11
138.0613250066826
 21
282.8080069763124
 31
0.0
 11
137.9332035360054
 21
282.7733783938424
 31
0.0
 11
137.833401549757
 21
282.7461179378653
 31
0.0
 11
137.7620447036474
 21
282.7264612134174
 31
0.0
 11
137.7192496286746
 21
282.7146021703334
 31
0.0
 11
137.7049965705
 21
282.7106340348
 31
0.0
  0
SPLINE
  5
FD
330
1F
100
AcDbEntity
  8
0
  6
Continuous
 62
     2
100
AcDbSpline
210
0.0
220
0.0
230
1.0
 70
     8
 71
     3
 72
    65
 73
    61
 74
    59
 42
0.0000000001
 43
0.0000000001
 44
0.00000001
 40
0.0
 40
0.0
 40
0.0
 40
0.0
 40
0.0147956421817222
 40
0.0592043652466811
 40
0.133219660390639
 40
0.2366780611368458
 40
0.3693971888284709
 40
0.5312748722360647
 40
0.7221372407464268
 40
0.9414392851365019
 40
1.18859585114291
 40
1.46322440628442
 40
1.76479508777247
 40
2.091972192896118
 40
2.443352852416735
 40
2.818051838979499
 40
3.215041367603898
 40
3.632178986859858
 40
4.067305207665414
 40
4.519276812845662
 40
4.986893780655283
 40
5.467678437748533
 40
5.959225882332847
 40
6.460668633900189
 40
6.971171986491016
 40
7.488465552356305
 40
8.010381504884444
 40
8.536576363306217
 40
9.066749036123094
 40
9.59892769706792
 40
10.13118624290676
 40
10.66344484914027
 40
11.1956235975463
 40
11.72579591433744
 40
12.25198968552738
 40
12.77390464465234
 40
13.29119799712507
 40
13.80170093157323
 40
14.303142185602
 40
14.79468829208284
 40
15.27547292556653
 40
15.74308988938316
 40
16.19506027262171
 40
16.63018549519209
 40
17.04732373846895
 40
17.44431406010958
 40
17.81901252343527
 40
18.1703925810112
 40
18.49757030156399
 40
18.7991416243775
 40
19.07376959365116
 40
19.32092533374901
 40
19.54022742885065
 40
19.73109012001256
 40
19.89296761999274
 40
20.02568630734446
 40
20.12914436125626
 40
20.20315913209779
 40
20.24756696186678
 40
20.26236208832591
 40
20.26236208832591
 40
20.26236208832591
 40
20.26236208832591
 10
185.7049965705
 20
282.7106341609
 30
0.0
 10
185.7002455539705
 20
282.711957524907
 30
0.0
 10
185.6812344887903
 20
282.7172529304776
 30
0.0
 10
185.6384377466798
 20
282.7291012541717
 30
0.0
 10
185.5671342284853
 20
282.7487484881703
 30
0.0
 10
185.4673882889041
 20
282.7759851363518
 30
0.0
 10
185.3393011496524
 20
282.8106126534406
 30
0.0
 10
185.1829396991513
 20
282.8522881806862
 30
0.0
 10
184.9984931852285
 20
282.9006498706368
 30
0.0
 10
184.7862796914013
 20
282.9551818822321
 30
0.0
 10
184.5466886176224
 20
283.0153498177621
 30
0.0
 10
184.2800811486661
 20
283.0805068671286
 30
0.0
 10
183.9870710412108
 20
283.1499563932728
 30
0.0
 10
183.6685939301975
 20
283.2228517323986
 30
0.0
 10
183.3257076046554
 20
283.2983052345786
 30
0.0
 10
182.9593700215919
 20
283.3754008390996
 30
0.0
 10
182.5707978094505
 20
283.4531902197961
 30
0.0
 10
182.1616428343564
 20
283.530667452939
 30
0.0
 10
181.7336037531695
 20
283.6067869430709
 30
0.0
 10
181.2880969335455
 20
283.6806146304515
 30
0.0
 10
180.8266660838424
 20
283.7512328264582
 30
0.0
 10
180.3513066099056
 20
283.8177923043849
 30
0.0
 10
179.8639124593427
 20
283.8794082197122
 30
0.0
 10
179.3658693431666
 20
283.9354028624991
 30
0.0
 10
178.858539373142
 20
283.9851576181489
 30
0.0
 10
178.3437451304302
 20
284.0281850032925
 30
0.0
 10
177.8231510886917
 20
284.0639465156884
 30
0.0
 10
177.2977904903522
 20
284.0921042330799
 30
0.0
 10
176.7686436112569
 20
284.1123954090103
 30
0.0
 10
176.2372285905965
 20
284.1246955521274
 30
0.0
 10
175.7049913344696
 20
284.1288085744777
 30
0.0
 10
175.1727540503306
 20
284.1246953934188
 30
0.0
 10
174.6413391030725
 20
284.1123950776571
 30
0.0
 10
174.1121926815512
 20
284.0921037683643
 30
0.0
 10
173.5868329009843
 20
284.0639459698338
 30
0.0
 10
173.0662396320375
 20
284.0281843643168
 30
0.0
 10
172.5514459412285
 20
283.9851568811532
 30
0.0
 10
172.0441166863015
 20
283.9354021078134
 30
0.0
 10
171.546074655072
 20
283.8794075223826
 30
0.0
 10
171.0586814625502
 20
283.8177916270977
 30
0.0
 10
170.583322452368
 20
283.7512321214785
 30
0.0
 10
170.1218920190211
 20
283.6806139595509
 30
0.0
 10
169.6763859336867
 20
283.6067863754526
 30
0.0
 10
169.2483473872265
 20
283.5306669166119
 30
0.0
 10
168.8391922857215
 20
283.4531896014084
 30
0.0
 10
168.4506197830403
 20
283.3754001547047
 30
0.0
 10
168.0842823106739
 20
283.2983045613292
 30
0.0
 10
167.7413961615363
 20
283.2228510478566
 30
0.0
 10
167.4229188471065
 20
283.1499556194815
 30
0.0
 10
167.1299085242165
 20
283.0805060327831
 30
0.0
 10
166.8633013076821
 20
283.0153490321463
 30
0.0
 10
166.6237106813307
 20
282.9551811776053
 30
0.0
 10
166.4114973383011
 20
282.9006491854016
 30
0.0
 10
166.2270507643679
 20
282.852287474696
 30
0.0
 10
166.0706894142779
 20
282.8106119603788
 30
0.0
 10
165.9426025906058
 20
282.7759845157728
 30
0.0
 10
165.8428570684896
 20
282.7487479983441
 30
0.0
 10
165.7715541171431
 20
282.7291009211474
 30
0.0
 10
165.7287580108582
 20
282.7172527158853
 30
0.0
 10
165.7097474167676
 20
282.7119573694067
 30
0.0
 10
165.7049965705
 20
282.7106340348
 30
0.0
 11
185.7049965705
 21
282.7106341609
 31
0.0
 11
185.6907430022711
 21
282.7146023872438
 31
0.0
 11
185.6479470467193
 21
282.7264615977007
 31
0.0
 11
185.5765896905076
 21
282.7461184445924
 31
0.0
 11
185.4767873721446
 21
282.7733790009758
 31
0.0
 11
185.3486654748007
 21
282.8080076924936
 31
0.0
 11
185.1922497107611
 21
282.8497029337727
 31
0.0
 11
185.0076266480951
 21
282.8981050870842
 31
0.0
 11
184.7952259472526
 21
282.9526883167
 31
0.0
 11
184.5555106152837
 21
283.0128790779438
 31
0.0
 11
184.2887339506167
 21
283.07807918905
 31
0.0
 11
183.9952920026226
 21
283.1476255699093
 31
0.0
 11
183.6763615330645
 21
283.2206201841252
 31
0.0
 11
183.3331892439957
 21
283.2961261302516
 31
0.0
 11
182.9665208862405
 21
283.3732860029334
 31
0.0
 11
182.5772543775843
 21
283.4512107812519
 31
0.0
 11
182.1673972617333
 21
283.5288054845818
 31
0.0
 11
181.7389903411255
 21
283.6049785664931
 31
0.0
 11
181.2930978260089
 21
283.6788581770243
 31
0.0
 11
180.8308627003178
 21
283.7495993754926
 31
0.0
 11
180.3547196278333
 21
283.8162451632166
 31
0.0
 11
179.8670521360082
 21
283.8778836876502
 31
0.0
 11
179.3687475271321
 21
283.9338957387849
 31
0.0
 11
178.8606820572452
 21
283.9837269670959
 31
0.0
 11
178.3451840225506
 21
284.0267898224546
 31
0.0
 11
177.8244944807994
 21
284.062548214677
 31
0.0
 11
177.2990535048447
 21
284.0907050933611
 31
0.0
 11
176.7692706062376
 21
284.1110310212682
 31
0.0
 11
176.2372340359451
 21
284.1233279735886
 31
0.0
 11
175.7049913547917
 21
284.1274374719931
 31
0.0
 11
175.1727486144883
 21
284.1233278121553
 31
0.0
 11
174.640711960652
 21
284.1110306893348
 31
0.0
 11
174.1109294236387
 21
284.0907046231278
 31
0.0
 11
173.5854895405027
 21
284.0625476692957
 31
0.0
 11
173.0648009994828
 21
284.0267892044379
 31
0.0
 11
172.5493031885965
 21
283.9837262332918
 31
0.0
 11
172.0412381440679
 21
283.9338949518683
 31
0.0
 11
171.5429350317793
 21
283.877882993096
 31
0.0
 11
171.0552688789667
 21
283.8162445457
 31
0.0
 11
170.5791258410968
 21
283.7495986809967
 31
0.0
 11
170.1168907252077
 21
283.6788574448744
 31
0.0
 11
169.6709994203245
 21
283.6049780055535
 31
0.0
 11
169.24259349185
 21
283.5288050460151
 31
0.0
 11
168.8327357717366
 21
283.4512101797706
 31
0.0
 11
168.4434684888428
 21
283.37328522905
 31
0.0
 11
168.0768006470688
 21
283.2961254453057
 31
0.0
 11
167.7336289547689
 21
283.2206195881419
 31
0.0
 11
167.4146978933127
 21
283.1476248015844
 31
0.0
 11
167.1212553248334
 21
283.0780782578333
 31
0.0
 11
166.8544792332038
 21
283.0128782697792
 31
0.0
 11
166.6147647084974
 21
282.9526876849001
 31
0.0
 11
166.4023639628258
 21
282.8981044259821
 31
0.0
 11
166.2177405902555
 21
282.8497021824561
 31
0.0
 11
166.0613250066826
 21
282.8080069763124
 31
0.0
 11
165.9332035360054
 21
282.7733783938424
 31
0.0
 11
165.833401549757
 21
282.7461179378653
 31
0.0
 11
165.7620447036474
 21
282.7264612134174
 31
0.0
 11
165.7192496286746
 21
282.7146021703334
 31
0.0
 11
165.7049965705
 21
282.7106340348
 31
0.0
  0
SPLINE
  5
FE
330
1F
100
AcDbEntity
  8
GEWINDE
  6
Continuous
 62
     7
100
AcDbSpline
210
0.0
220
0.0
230
1.0
 70
     8
 71
     3
 72
    23
 73
    19
 74
    17
 42
0.0000000001
 43
0.0000000001
 44
0.00000001
 40
0.0
 40
0.0
 40
0.0
 40
0.0
 40
0.3436876539662963
 40
0.6873862139278107
 40
1.653067153889495
 40
2.618803058440191
 40
4.047382694855833
 40
5.476048939396311
 40
7.156463870548626
 40
8.836917492022756
 40
10.51737152265898
 40
12.19778686470728
 40
13.62645829883299
 40
15.05504312440966
 40
16.02078756925336
 40
16.98647704856672
 40
17.33017889116882
 40
17.67386982731509
 40
17.67386982731509
 40
17.67386982731509
 40
17.67386982731509
 10
166.9549965705
 20
282.7106562416
 30
0.0
 10
167.0663829642104
 20
282.7374485028566
 30
0.0
 10
167.2891592861761
 20
282.7910338755494
 30
0.0
 10
167.826231409911
 20
282.9142684242553
 30
0.0
 10
168.5680131925095
 20
283.0724106527455
 30
0.0
 10
169.6689397078494
 20
283.2787862698019
 30
0.0
 10
170.9285042690388
 20
283.4743329126676
 30
0.0
 10
172.4313797494073
 20
283.6484431358453
 30
0.0
 10
174.0243845026845
 20
283.7630933277817
 30
0.0
 10
175.7049792755031
 20
283.8037694763118
 30
0.0
 10
177.3855742243925
 20
283.7630949259295
 30
0.0
 10
178.9785810853757
 20
283.6484461138276
 30
0.0
 10
180.4814602999879
 20
283.4743368392052
 30
0.0
 10
181.7410312436663
 20
283.2787901707833
 30
0.0
 10
182.8419651646254
 20
283.0724137545347
 30
0.0
 10
183.5837536272562
 20
282.914270295232
 30
0.0
 10
184.1208306675793
 20
282.7910346604055
 30
0.0
 10
184.3436091144245
 20
282.7374487644632
 30
0.0
 10
184.4549965705
 20
282.7106562416
 30
0.0
 11
166.9549965705
 21
282.7106562416
 31
0.0
 11
167.2892936353676
 21
282.790447694211
 31
0.0
 11
167.6242563550483
 21
282.867445593817
 31
0.0
 11
168.568775354128
 21
283.0685016511312
 31
0.0
 11
169.5179925784333
 21
283.2463569249369
 31
0.0
 11
170.9297105058168
 21
283.4651999533512
 31
0.0
 11
172.348919980216
 21
283.6293087771992
 31
0.0
 11
174.0250124692755
 21
283.7497592191157
 31
0.0
 11
175.7049791456188
 21
283.7902109224391
 31
0.0
 11
177.3849462696555
 21
283.749760814438
 31
0.0
 11
179.06103928408
 21
283.6293119506461
 31
0.0
 11
180.4802540614467
 21
283.4652038082801
 31
0.0
 11
181.8919772790829
 21
283.2463610321718
 31
0.0
 11
182.84120298946
 21
283.0685046757895
 31
0.0
 11
183.7857303913419
 21
282.8674470781946
 31
0.0
 11
184.1206963155693
 21
282.790448466424
 31
0.0
 11
184.4549965705
 21
282.7106562416
 31
0.0
  0
SPLINE
  5
FF
330
1F
100
AcDbEntity
  8
GEWINDE
  6
Continuous
 62
     7
100
AcDbSpline
210
0.0
220
0.0
230
1.0
 70
     8
 71
     3
 72
    23
 73
    19
 74
    17
 42
0.0000000001
 43
0.0000000001
 44
0.00000001
 40
0.0
 40
0.0
 40
0.0
 40
0.0
 40
0.3436876539662963
 40
0.6873862139278384
 40
1.653067153889494
 40
2.61880305844019
 40
4.047382694855833
 40
5.476048939396311
 40
7.156463870548626
 40
8.836917492022785
 40
10.517371522659
 40
12.19778686470728
 40
13.62645829883296
 40
15.05504312440969
 40
16.02078756925336
 40
16.98647704856672
 40
17.33017889116884
 40
17.67386982731509
 40
17.67386982731509
 40
17.67386982731509
 40
17.67386982731509
 10
138.9549965705
 20
282.7106562416
 30
0.0
 10
139.0663829642104
 20
282.7374485028567
 30
0.0
 10
139.2891592861762
 20
282.7910338755495
 30
0.0
 10
139.826231409911
 20
282.9142684242552
 30
0.0
 10
140.5680131925095
 20
283.0724106527455
 30
0.0
 10
141.6689397078495
 20
283.278786269802
 30
0.0
 10
142.9285042690388
 20
283.4743329126676
 30
0.0
 10
144.4313797494073
 20
283.6484431358453
 30
0.0
 10
146.0243845026845
 20
283.7630933277816
 30
0.0
 10
147.7049792755031
 20
283.8037694763118
 30
0.0
 10
149.3855742243925
 20
283.7630949259295
 30
0.0
 10
150.9785810853757
 20
283.6484461138276
 30
0.0
 10
152.4814602999879
 20
283.4743368392052
 30
0.0
 10
153.7410312436664
 20
283.2787901707833
 30
0.0
 10
154.8419651646254
 20
283.0724137545346
 30
0.0
 10
155.5837536272562
 20
282.9142702952319
 30
0.0
 10
156.1208306675794
 20
282.7910346604055
 30
0.0
 10
156.3436091144245
 20
282.7374487644632
 30
0.0
 10
156.4549965705
 20
282.7106562416
 30
0.0
 11
138.9549965705
 21
282.7106562416
 31
0.0
 11
139.2892936353676
 21
282.790447694211
 31
0.0
 11
139.6242563550483
 21
282.867445593817
 31
0.0
 11
140.568775354128
 21
283.0685016511312
 31
0.0
 11
141.5179925784333
 21
283.2463569249369
 31
0.0
 11
142.9297105058168
 21
283.4651999533512
 31
0.0
 11
144.348919980216
 21
283.6293087771992
 31
0.0
 11
146.0250124692755
 21
283.7497592191157
 31
0.0
 11
147.7049791456188
 21
283.7902109224391
 31
0.0
 11
149.3849462696555
 21
283.749760814438
 31
0.0
 11
151.06103928408
 21
283.6293119506461
 31
0.0
 11
152.4802540614467
 21
283.4652038082801
 31
0.0
 11
153.8919772790829
 21
283.2463610321718
 31
0.0
 11
154.84120298946
 21
283.0685046757895
 31
0.0
 11
155.7857303913419
 21
282.8674470781946
 31
0.0
 11
156.1206963155693
 21
282.790448466424
 31
0.0
 11
156.4549965705
 21
282.7106562416
 31
0.0
  0
SPLINE
  5
100
330
1F
100
AcDbEntity
  8
BEZUGSACHSEN
  6
Continuous
 62
     7
100
AcDbSpline
210
0.0
220
0.0
230
1.0
 70
     8
 71
     3
 72
    47
 73
    43
 74
    41
 42
0.0000000001
 43
0.0000000001
 44
0.00000001
 40
0.0
 40
0.0
 40
0.0
 40
0.0
 40
0.6366022431821733
 40
1.27359500217129
 40
1.592921746398886
 40
1.912076344884462
 40
2.231392290413864
 40
2.550826842715973
 40
3.189774321146221
 40
3.829081696996303
 40
4.468337152521977
 40
5.107221744801739
 40
5.426176341291731
 40
5.745033356831402
 40
6.063356731594492
 40
6.3817802148911
 40
7.017059195669257
 40
7.652639340983621
 40
8.287532214223244
 40
8.922347946485196
 40
9.559226748569538
 40
10.1961343593683
 40
10.83451785503076
 40
11.47287689974124
 40
12.1123448736597
 40
12.75189588948583
 40
13.39354300516913
 40
14.03487957352924
 40
14.3561520577176
 40
14.6773210771508
 40
14.99840882476689
 40
15.31959604125562
 40
15.96011121028499
 40
16.60099592087734
 40
17.23809108075947
 40
17.87482555198331
 40
18.19205670331297
 40
18.50917199099182
 40
18.82571084627951
 40
19.14241581827497
 40
19.7733897499702
 40
20.40398930735506
 40
20.40398930735506
 40
20.40398930735506
 40
20.40398930735506
 10
78.2055809762
 20
318.7106562222
 30
0.0
 10
78.2115866200867
 20
318.9229360318952
 30
0.0
 10
78.22360159194841
 20
319.3476258717209
 30
0.0
 10
78.30486693715643
 20
319.8737686328365
 30
0.0
 10
78.39758653375756
 20
320.288743008961
 30
0.0
 10
78.48287949790166
 20
320.5965669846508
 30
0.0
 10
78.5831181113416
 20
320.899859661426
 30
0.0
 10
78.73660366049683
 20
321.2972970239632
 30
0.0
 10
78.96507560726975
 20
321.7793966008518
 30
0.0
 10
79.29469056781909
 20
322.3282124737089
 30
0.0
 10
79.67691778491218
 20
322.841748013071
 30
0.0
 10
80.03577248204095
 20
323.2362507751591
 30
0.0
 10
80.3447258356061
 20
323.5291240732045
 30
0.0
 10
80.58662094457983
 20
323.7368458943091
 30
0.0
 10
80.83826419806893
 20
323.9323552914164
 30
0.0
 10
81.18555830523246
 20
324.175850494054
 30
0.0
 10
81.64129863999216
 20
324.4477325640764
 30
0.0
 10
82.21677806467672
 20
324.7190616765893
 30
0.0
 10
82.81588882983891
 20
324.9328453074031
 30
0.0
 10
83.4333392323017
 20
325.0875350387751
 30
0.0
 10
84.06360979400118
 20
325.1813420224263
 30
0.0
 10
84.70120372873157
 20
325.2134687472324
 30
0.0
 10
85.33938237296425
 20
325.183039174283
 30
0.0
 10
85.97239479415721
 20
325.0903679191187
 30
0.0
 10
86.59362847858816
 20
324.935875957893
 30
0.0
 10
87.19776423054947
 20
324.7208388253706
 30
0.0
 10
87.77824330411595
 20
324.4469154596712
 30
0.0
 10
88.23787232833654
 20
324.1717485816156
 30
0.0
 10
88.58777131701073
 20
323.925138882739
 30
0.0
 10
88.84090294617859
 20
323.727234690348
 30
0.0
 10
89.08390158554451
 20
323.5170561609355
 30
0.0
 10
89.39314592904967
 20
323.2215368207872
 30
0.0
 10
89.75146611984825
 20
322.8240658380543
 30
0.0
 10
90.13141653818346
 20
322.308399076535
 30
0.0
 10
90.45788956775222
 20
321.7588029200743
 30
0.0
 10
90.68326070771153
 20
321.2776973783671
 30
0.0
 10
90.83435169086356
 20
320.8817071907471
 30
0.0
 10
90.93276460841324
 20
320.5802808399519
 30
0.0
 10
91.01643138658346
 20
320.2745854720126
 30
0.0
 10
91.1072507440228
 20
319.8630334542727
 30
0.0
 10
91.18676571969536
 20
319.341608237764
 30
0.0
 10
91.19853800431434
 20
318.9209319486275
 30
0.0
 10
91.2044223999
 20
318.7106562223
 30
0.0
 11
78.2055809762
 21
318.7106562222
 31
0.0
 11
78.23682964723979
 21
319.3464910565578
 31
0.0
 11
78.33027084961341
 21
319.9765930456862
 31
0.0
 11
78.40021135664784
 21
320.2881663036124
 31
0.0
 11
78.48535269562399
 21
320.5957546813705
 31
0.0
 11
78.58557723376194
 21
320.8989340260237
 31
0.0
 11
78.70065712351398
 21
321.1969190125232
 31
0.0
 11
78.9742530177583
 21
321.7743262923916
 31
0.0
 11
79.30347253143644
 21
322.3223485844837
 31
0.0
 11
79.68509678678382
 21
322.8351940438083
 31
0.0
 11
80.11503142291264
 21
323.3077717949872
 31
0.0
 11
80.34650368397375
 21
323.527208863372
 31
0.0
 11
80.58840608500103
 21
323.7349419246216
 31
0.0
 11
80.83977989215552
 21
323.9302390828119
 31
0.0
 11
81.10050917044742
 21
324.1130333884019
 31
0.0
 11
81.64604281465725
 21
324.4385674518326
 31
0.0
 11
82.22095263477597
 21
324.7095671194502
 31
0.0
 11
82.81889882252284
 21
324.9229899791665
 31
0.0
 11
83.43469135474632
 21
325.0772319033799
 31
0.0
 11
84.06462363672398
 21
325.1710398383684
 31
0.0
 11
84.70072675846166
 21
325.2030417634507
 31
0.0
 11
85.33838771748037
 21
325.1726774936992
 31
0.0
 11
85.97000525039093
 21
325.0801487841887
 31
0.0
 11
86.59057812251332
 21
324.9258484275684
 31
0.0
 11
87.19307892964972
 21
324.7113297121979
 31
0.0
 11
87.77338612599586
 21
324.4375513731468
 31
0.0
 11
88.32361111403877
 21
324.1080592541984
 31
0.0
 11
88.58621841820903
 21
323.9229824785268
 31
0.0
 11
88.8392388756256
 21
323.7251689623749
 31
0.0
 11
89.08208717700086
 21
323.5151164827696
 31
0.0
 11
89.31428961240944
 21
323.2932082651973
 31
0.0
 11
89.7432056701412
 21
322.8175080474377
 31
0.0
 11
90.12331632879665
 21
322.3015147340628
 31
0.0
 11
90.44875547448268
 21
321.7538107946938
 31
0.0
 11
90.71883633257826
 21
321.1771938361025
 31
0.0
 11
90.83192677775668
 21
320.8808053164475
 31
0.0
 11
90.93037088109502
 21
320.5793573703647
 31
0.0
 11
91.01385368647065
 21
320.2740256358308
 31
0.0
 11
91.08240310991467
 21
319.9648282622454
 31
0.0
 11
91.17383018783922
 21
319.3405132841285
 31
0.0
 11
91.2044223999
 21
318.7106562223
 31
0.0
  0
SPLINE
  5
101
330
1F
100
AcDbEntity
  8
BEZUGSACHSEN
  6
Continuous
 62
     7
100
AcDbSpline
210
0.0
220
0.0
230
1.0
 70
     8
 71
     3
 72
    47
 73
    43
 74
    41
 42
0.0000000001
 43
0.0000000001
 44
0.00000001
 40
0.0
 40
0.0
 40
0.0
 40
0.0
 40
0.6302393213932962
 40
1.260854867260068
 40
1.577476088334401
 40
1.893930800152088
 40
2.210999113792434
 40
2.528183472132822
 40
3.164887038187534
 40
3.801951183345599
 40
4.442851001562592
 40
5.083381259720965
 40
5.40452729223952
 40
5.725573838681671
 40
6.046670709952895
 40
6.367871027078317
 40
7.009090242476804
 40
7.65061976388702
 40
8.290330346413365
 40
8.929958764396664
 40
9.568647011281099
 40
10.20735923008397
 40
10.84445705810161
 40
11.48152626488742
 40
12.1164346221456
 40
12.75141965570689
 40
13.38691908727739
 40
14.02211738520741
 40
14.34050449133141
 40
14.65879153783371
 40
14.9776158686149
 40
15.29653774939582
 40
15.93537694096518
 40
16.57458694061023
 40
17.2138627498362
 40
17.85277859066562
 40
18.17219860076056
 40
18.49150024070709
 40
18.81067156629684
 40
19.13001452414959
 40
19.7671962701763
 40
20.40398968276329
 40
20.40398968276329
 40
20.40398968276329
 40
20.40398968276329
 10
91.2044102084
 20
318.7106562603
 30
0.0
 10
91.1985410066286
 20
318.5005002384338
 30
0.0
 10
91.18679909943685
 20
318.0800627410271
 30
0.0
 10
91.10735235692921
 20
317.5588992987888
 30
0.0
 10
91.01662085183338
 20
317.1475078313725
 30
0.0
 10
90.9330154695117
 20
316.8418699910903
 30
0.0
 10
90.83466352813585
 20
316.5404861449052
 30
0.0
 10
90.68364471728023
 20
316.1445129653069
 30
0.0
 10
90.45836212967822
 20
315.6634061566151
 30
0.0
 10
90.13198409493434
 20
315.1137719316043
 30
0.0
 10
89.75211703290238
 20
314.5980440689382
 30
0.0
 10
89.39386259362388
 20
314.2005186667346
 30
0.0
 10
89.08468185595774
 20
313.9049653117993
 30
0.0
 10
88.8417568999282
 20
313.6947804033658
 30
0.0
 10
88.58870799660046
 20
313.4968709390498
 30
0.0
 10
88.23892548813429
 20
313.2502475875824
 30
0.0
 10
87.77944025038838
 20
312.9750409782798
 30
0.0
 10
87.19904454343762
 20
312.7010008715368
 30
0.0
 10
86.59489023560025
 20
312.4858123941993
 30
0.0
 10
85.97347508819091
 20
312.3311505551957
 30
0.0
 10
85.34020587675037
 20
312.2383401821774
 30
0.0
 10
84.7017464123102
 20
312.2078294323693
 30
0.0
 10
84.06391339875532
 20
312.2399311747511
 30
0.0
 10
83.43348341176232
 20
312.3337442371274
 30
0.0
 10
82.8159097422674
 20
312.4884580534162
 30
0.0
 10
82.21676633083766
 20
312.7022546254731
 30
0.0
 10
81.64130910936645
 20
312.9735759938862
 30
0.0
 10
81.18562371640671
 20
313.2454208775049
 30
0.0
 10
80.83836781865672
 20
313.4888814300895
 30
0.0
 10
80.58674823735115
 20
313.6843639564196
 30
0.0
 10
80.34487318708013
 20
313.8920570151339
 30
0.0
 10
80.03593690340476
 20
314.1848945632914
 30
0.0
 10
79.67709414651375
 20
314.5793522122317
 30
0.0
 10
79.29486724126434
 20
315.09283687817
 30
0.0
 10
78.96524279600064
 20
315.6416046568731
 30
0.0
 10
78.73675535008039
 20
316.1236680733632
 30
0.0
 10
78.58325385012033
 20
316.5210776325397
 30
0.0
 10
78.4829970471971
 20
316.824359995832
 30
0.0
 10
78.3976805542721
 20
317.1321838675349
 30
0.0
 10
78.30491809891228
 20
317.5472247346419
 30
0.0
 10
78.22362573202265
 20
318.0734975337367
 30
0.0
 10
78.21158593248259
 20
318.4983131834512
 30
0.0
 10
78.2055678677
 20
318.7106562621
 30
0.0
 11
91.2044102084
 21
318.7106562603
 31
0.0
 11
91.17387062962318
 21
318.0811573037017
 31
0.0
 11
91.08253935410758
 21
317.4571905058658
 31
0.0
 11
91.01404461540218
 21
317.148066795348
 31
0.0
 11
90.93062579054124
 21
316.8428048024789
 31
0.0
 11
90.83223904669119
 21
316.5413875432695
 31
0.0
 11
90.71920841558708
 21
316.2450262880285
 31
0.0
 11
90.44922827907473
 21
315.668396288015
 31
0.0
 11
90.12389165722138
 21
315.1206675161516
 31
0.0
 11
89.74385516242944
 21
314.6046008154075
 31
0.0
 11
89.31500466476872
 21
314.128821179155
 31
0.0
 11
89.0828675303987
 21
313.9069042463876
 31
0.0
 11
88.84008503706235
 21
313.6968386711217
 31
0.0
 11
88.58715542876402
 21
313.4990260982497
 31
0.0
 11
88.32464103292969
 21
313.3139427772799
 31
0.0
 11
87.77458285133088
 21
312.984400550771
 31
0.0
 11
87.19444201967988
 21
312.7105452198167
 31
0.0
 11
86.59183670938833
 21
312.4958443362493
 31
0.0
 11
85.97113743906704
 21
312.3413874525748
 31
0.0
 11
85.33920862514464
 21
312.248712478375
 31
0.0
 11
84.70122249796347
 21
312.2182658041319
 31
0.0
 11
84.06492750983863
 21
312.2502397083664
 31
0.0
 11
83.43480423573094
 21
312.3440577965078
 31
0.0
 11
82.8189203274895
 21
312.4983161307576
 31
0.0
 11
82.22088785767052
 21
312.7117714138711
 31
0.0
 11
81.6460521091238
 21
312.98273892063
 31
0.0
 11
81.10058542158241
 21
313.3082277383731
 31
0.0
 11
80.83988312880551
 21
313.4909971665795
 31
0.0
 11
80.58853387699719
 21
313.6862667176789
 31
0.0
 11
80.34665057864763
 21
313.8939718545379
 31
0.0
 11
80.11519474734742
 21
314.1133787008257
 31
0.0
 11
79.6852717164672
 21
314.5859056314908
 31
0.0
 11
79.3036505770094
 21
315.0986967483846
 31
0.0
 11
78.97441910283035
 21
315.6466750295887
 31
0.0
 11
78.70080479568632
 21
316.2240385741504
 31
0.0
 11
78.58571254322636
 21
316.5220031966691
 31
0.0
 11
78.4854728547995
 21
316.8251624652667
 31
0.0
 11
78.40030577458225
 21
317.1327610730756
 31
0.0
 11
78.33034274710856
 21
317.444345892213
 31
0.0
 11
78.23685385016833
 21
318.0746318619272
 31
0.0
 11
78.2055678677
 21
318.7106562621
 31
0.0
  0
SPLINE
  5
102
330
1F
100
AcDbEntity
  8
BEZUGSACHSEN
  6
Continuous
 62
     7
100
AcDbSpline
210
0.0
220
0.0
230
1.0
 70
     8
 71
     3
 72
    27
 73
    23
 74
    21
 42
0.0000000001
 43
0.0000000001
 44
0.00000001
 40
0.0
 40
0.0
 40
0.0
 40
0.0
 40
0.1219765139516402
 40
0.2439857714748875
 40
0.3566831398307193
 40
0.4694418149413816
 40
0.5721317672399472
 40
0.6745445880592764
 40
0.7225206520860786
 40
0.7704888797564196
 40
0.817141293606536
 40
0.8637898734421725
 40
0.9102318001048434
 40
0.9566751324369657
 40
1.004175175771881
 40
1.051683100158247
 40
1.153672388732848
 40
1.256049376635734
 40
1.370745138041719
 40
1.485385401826015
 40
1.611534903875992
 40
1.737631876008374
 40
1.737631876008374
 40
1.737631876008374
 40
1.737631876008374
 10
50.8508392461
 20
303.4683202462
 30
0.0
 10
50.81558422849662
 20
303.4480407209352
 30
0.0
 10
50.74506472937622
 20
303.407476226537
 30
0.0
 10
50.63741232619113
 20
303.3566803656457
 30
0.0
 10
50.52925431032669
 20
303.3149287297791
 30
0.0
 10
50.42367508937777
 20
303.285514144637
 30
0.0
 10
50.3188435442508
 20
303.2685995572441
 30
0.0
 10
50.23411587440886
 20
303.266734333998
 30
0.0
 10
50.16829193798725
 20
303.2736896419743
 30
0.0
 10
50.12158473474923
 20
303.2828867691127
 30
0.0
 10
50.07640411743472
 20
303.2964202141288
 30
0.0
 10
50.03326450678514
 20
303.3142134729711
 30
0.0
 10
49.99231003020636
 20
303.3364418306872
 30
0.0
 10
49.95366260373346
 20
303.36297686239
 30
0.0
 10
49.91775652510211
 20
303.3936721399199
 30
0.0
 10
49.87231720357553
 20
303.4412096130268
 30
0.0
 10
49.82377406351156
 20
303.510378980107
 30
0.0
 10
49.77754835457262
 20
303.606537034804
 30
0.0
 10
49.74358248077694
 20
303.7121124677752
 30
0.0
 10
49.7206270565605
 20
303.8285301586775
 30
0.0
 10
49.70718249819495
 20
303.9502774673676
 30
0.0
 10
49.70572511189887
 20
304.0343808309187
 30
0.0
 10
49.7049965705
 20
304.0764237555
 30
0.0
 11
50.8508392461
 21
303.4683202462
 31
0.0
 11
50.74429462203946
 21
303.4089357950398
 31
0.0
 11
50.63400173287079
 21
303.3567655207431
 31
0.0
 11
50.52868372502117
 21
303.3166554963487
 31
0.0
 11
50.41995999649775
 21
303.2867611880496
 31
0.0
 11
50.31849584441104
 21
303.270941828252
 31
0.0
 11
50.21609630382855
 21
303.269292599139
 31
0.0
 11
50.16839244759291
 21
303.2743960116986
 31
0.0
 11
50.12134167730743
 21
303.2837328142228
 31
0.0
 11
50.0766621098638
 21
303.2971560765347
 31
0.0
 11
50.03355597326641
 21
303.3149872567628
 31
0.0
 11
49.99273338046955
 21
303.3371315216972
 31
0.0
 11
49.95444612392341
 21
303.3634197149459
 31
0.0
 11
49.91830902691356
 21
303.394247694713
 31
0.0
 11
49.88545652654668
 21
303.4285655632241
 31
0.0
 11
49.82628413232371
 21
303.5116344668275
 31
0.0
 11
49.7813844087491
 21
303.6036402409669
 31
0.0
 11
49.74574624916902
 21
303.7126587681366
 31
0.0
 11
49.72289468577164
 21
303.8249984144367
 31
0.0
 11
49.70912792943221
 21
303.950394480114
 31
0.0
 11
49.7049965705
 21
304.0764237555
 31
0.0
  0
SPLINE
  5
103
330
1F
100
AcDbEntity
  8
BEZUGSACHSEN
  6
Continuous
 62
     7
100
AcDbSpline
210
0.0
220
0.0
230
1.0
 70
     8
 71
     3
 72
    27
 73
    23
 74
    21
 42
0.0000000001
 43
0.0000000001
 44
0.00000001
 40
0.0
 40
0.0
 40
0.0
 40
0.0
 40
0.1260969825534952
 40
0.2522464959256713
 40
0.3668867952605601
 40
0.4815825894063557
 40
0.5839596006984277
 40
0.6859489161467764
 40
0.7334568410537912
 40
0.7809568848925379
 40
0.8274002264541882
 40
0.8738421607451904
 40
0.9204907319308917
 40
0.9671431399560104
 40
1.015111401829191
 40
1.063087497126442
 40
1.165500418729819
 40
1.268190478970112
 40
1.38094915391832
 40
1.493646517793323
 40
1.615655563745695
 40
1.73763186759445
 40
1.73763186759445
 40
1.73763186759445
 40
1.73763186759445
 10
49.7049965705
 20
333.3448887278
 30
0.0
 10
49.70572511198388
 20
333.3869316558614
 30
0.0
 10
49.70718249845521
 20
333.4710350266731
 30
0.0
 10
49.72062706046407
 20
333.5927823542325
 30
0.0
 10
49.74358249376569
 20
333.7092000706098
 30
0.0
 10
49.77754839410183
 20
333.8147755284042
 30
0.0
 10
49.82377415294945
 20
333.910933590667
 30
0.0
 10
49.87231732150075
 20
333.980102956338
 30
0.0
 10
49.91775664707185
 20
334.0276404379337
 30
0.0
 10
49.95366272516799
 20
334.0583357214044
 30
0.0
 10
49.9923101562531
 20
334.0848707571391
 30
0.0
 10
50.03326464345253
 20
334.1070991030685
 30
0.0
 10
50.07640426962723
 20
334.124892319959
 30
0.0
 10
50.12158490423045
 20
334.1384257270205
 30
0.0
 10
50.16829212720056
 20
334.1476228523563
 30
0.0
 10
50.23411611838998
 20
334.1545781727324
 30
0.0
 10
50.31884387039381
 20
334.1527129160624
 30
0.0
 10
50.42367547389743
 20
334.1357982550803
 30
0.0
 10
50.52925471625969
 20
334.1063836222076
 30
0.0
 10
50.63741265435792
 20
334.0646319847563
 30
0.0
 10
50.74506491562379
 20
334.0138361576373
 30
0.0
 10
50.8155842904376
 20
333.9732717294041
 30
0.0
 10
50.8508392461
 20
333.9529922371
 30
0.0
 11
49.7049965705
 21
333.3448887278
 31
0.0
 11
49.70912793009397
 21
333.4709180135911
 31
0.0
 11
49.722894689263
 21
333.596314090348
 31
0.0
 11
49.74574626536497
 21
333.7086537703424
 31
0.0
 11
49.78138445473866
 21
333.8176723222173
 31
0.0
 11
49.8262842195388
 21
333.9096781022639
 31
0.0
 11
49.88545664849294
 21
333.992747014122
 31
0.0
 11
49.91830914865447
 21
334.0270648835505
 31
0.0
 11
49.95444624358129
 21
334.0578928665356
 31
0.0
 11
49.99273350844273
 21
334.0841810639794
 31
0.0
 11
50.03355611637998
 21
334.1063253170011
 31
0.0
 11
50.07666225999658
 21
334.1241564576313
 31
0.0
 11
50.1213418320307
 21
334.1375796844188
 31
0.0
 11
50.16839263776183
 21
334.1469164840411
 31
0.0
 11
50.2160965250128
 21
334.1520199006532
 31
0.0
 11
50.31849616587245
 21
334.1503706392563
 31
0.0
 11
50.41996041620758
 21
334.1345512089226
 31
0.0
 11
50.52868413266441
 21
334.1046568573509
 31
0.0
 11
50.63400212496173
 21
334.0645468047102
 31
0.0
 11
50.74429481086713
 21
334.012376595491
 31
0.0
 11
50.8508392461
 21
333.9529922371
 31
0.0
  0
SPLINE
  5
104
330
1F
100
AcDbEntity
  8
0
  6
Continuous
 62
     7
100
AcDbSpline
210
0.0
220
0.0
230
1.0
 70
     8
 71
     3
 72
    19
 73
    15
 74
    13
 42
0.0000000001
 43
0.0000000001
 44
0.00000001
 40
0.0
 40
0.0
 40
0.0
 40
0.0
 40
0.1162460235697769
 40
0.2327881717864211
 40
0.3491890045827318
 40
0.4655468550543541
 40
0.5819071369584528
 40
0.6982738488605806
 40
0.814620607214542
 40
0.9309998277728276
 40
1.163276323411678
 40
1.396138921729267
 40
1.629013178013218
 40
1.861351539670724
 40
1.861351539670724
 40
1.861351539670724
 40
1.861351539670724
 10
118.8299965705
 20
285.1882756579
 30
0.0
 10
118.7912124996597
 20
285.1864347110122
 30
0.0
 10
118.7135455595951
 20
285.1827481276158
 30
0.0
 10
118.5999354745282
 20
285.1543426426573
 30
0.0
 10
118.4917477865861
 20
285.110488728421
 30
0.0
 10
118.390771920634
 20
285.0518920401798
 30
0.0
 10
118.2980034639031
 20
284.9812071788735
 30
0.0
 10
118.2139160849096
 20
284.9004495738048
 30
0.0
 10
118.1386124415408
 20
284.8114819350522
 30
0.0
 10
118.049961197385
 20
284.6841224872845
 30
0.0
 10
117.959964451645
 20
284.5113371092054
 30
0.0
 10
117.8850709324731
 20
284.2904121190388
 30
0.0
 10
117.8385340071331
 20
284.0613921994669
 30
0.0
 10
117.8328401964114
 20
283.9062128066388
 30
0.0
 10
117.8299965705
 20
283.8287124885
 30
0.0
 11
118.8299965705
 21
285.1882756579
 31
0.0
 11
118.7141252189496
 21
285.178950000515
 31
0.0
 11
118.6008006942615
 21
285.15175396376
 31
0.0
 11
118.4929275616524
 21
285.1080213542247
 31
0.0
 11
118.3921388221422
 21
285.0498768845451
 31
0.0
 11
118.2994515170947
 21
284.9795293281709
 31
0.0
 11
118.2153761514692
 21
284.8990772024447
 31
0.0
 11
118.1400773935375
 21
284.8103829792201
 31
0.0
 11
118.0734506642222
 21
284.7149628455035
 31
0.0
 11
117.9655608781137
 21
284.5092636367551
 31
0.0
 11
117.8898027412619
 21
284.2890689628958
 31
0.0
 11
117.8448427274453
 21
284.0605760387222
 31
0.0
 11
117.8299965705
 21
283.8287124885
 31
0.0
  0
SPLINE
  5
105
330
1F
100
AcDbEntity
  8
BEZUGSACHSEN
  6
Continuous
 62
     7
100
AcDbSpline
210
0.0
220
0.0
230
1.0
 70
     8
 71
     3
 72
    15
 73
    11
 74
     9
 42
0.0000000001
 43
0.0000000001
 44
0.00000001
 40
0.0
 40
0.0
 40
0.0
 40
0.0
 40
0.1110371613065595
 40
0.2222522336999865
 40
0.3333980191772461
 40
0.4445069474912624
 40
0.5556201065286069
 40
0.666752564216204
 40
0.777887603351287
 40
0.8889820915969563
 40
0.8889820915969563
 40
0.8889820915969563
 40
0.8889820915969563
 10
51.6049220858
 20
303.0341238554
 30
0.0
 10
51.56828035893949
 20
303.0396560082146
 30
0.0
 10
51.4949381954192
 20
303.050729177825
 30
0.0
 10
51.38842164540678
 20
303.0837477413489
 30
0.0
 10
51.28600873764546
 20
303.1273380288305
 30
0.0
 10
51.18855877201959
 20
303.1811175366668
 30
0.0
 10
51.09625397628108
 20
303.2432126720091
 30
0.0
 10
51.00925734814533
 20
303.3124993456327
 30
0.0
 10
50.92700459268096
 20
303.3873812972459
 30
0.0
 10
50.87622460630143
 20
303.4413438787867
 30
0.0
 10
50.8508392461
 20
303.4683202462
 30
0.0
 11
51.6049220858
 21
303.0341238554
 31
0.0
 11
51.49557980074916
 21
303.0534504146096
 31
0.0
 11
51.38908784714649
 21
303.0855168479217
 31
0.0
 11
51.28681966651744
 21
303.1290439068642
 31
0.0
 11
51.18941680005977
 21
303.1825030085861
 31
0.0
 11
51.09714503327315
 21
303.2444066043245
 31
0.0
 11
51.01004792986437
 21
303.313432090411
 31
0.0
 11
50.92800802537784
 21
303.3884017575798
 31
0.0
 11
50.8508392461
 21
303.4683202462
 31
0.0
  0
SPLINE
  5
106
330
1F
100
AcDbEntity
  8
BEZUGSACHSEN
  6
Continuous
 62
     7
100
AcDbSpline
210
0.0
220
0.0
230
1.0
 70
     8
 71
     3
 72
    11
 73
     7
 74
     5
 42
0.0000000001
 43
0.0000000001
 44
0.00000001
 40
0.0
 40
0.0
 40
0.0
 40
0.0
 40
0.5462907431041997
 40
1.093000863589424
 40
1.64607010711947
 40
2.198197048716618
 40
2.198197048716618
 40
2.198197048716618
 40
2.198197048716618
 10
59.2588425174
 20
333.7206562416
 30
0.0
 10
59.32191331926546
 20
333.5497246123747
 30
0.0
 10
59.44810334129386
 20
333.2077301328482
 30
0.0
 10
59.58774065431983
 20
332.6764560036431
 30
0.0
 10
59.68522901833244
 20
332.1330315986824
 30
0.0
 10
59.69841113284748
 20
331.7644469581091
 30
0.0
 10
59.7049965705
 20
331.5803117674
 30
0.0
 11
59.2588425174
 21
333.7206562416
 31
0.0
 11
59.43969385002919
 21
333.2051697029905
 31
0.0
 11
59.58018533472751
 21
332.6768193471013
 31
0.0
 11
59.67225198795793
 21
332.1314668743813
 31
0.0
 11
59.7049965705
 21
331.5803117674
 31
0.0
  0
SPLINE
  5
107
330
1F
100
AcDbEntity
  8
0
  6
Continuous
 62
     7
100
AcDbSpline
210
0.0
220
0.0
230
1.0
 70
     8
 71
     3
 72
    19
 73
    15
 74
    13
 42
0.0000000001
 43
0.0000000001
 44
0.00000001
 40
0.0
 40
0.0
 40
0.0
 40
0.0
 40
0.2323383480550553
 40
0.4652125956681784
 40
0.698076113255428
 40
0.9303535186914914
 40
1.046733461738404
 40
1.163080940800523
 40
1.279447997383997
 40
1.395808629511543
 40
1.512165904502403
 40
1.628566140348548
 40
1.745106920541244
 40
1.861351602804265
 40
1.861351602804265
 40
1.861351602804265
 40
1.861351602804265
 10
121.5799965705
 20
283.8287124885
 30
0.0
 10
121.5771529449001
 20
283.9062128021384
 30
0.0
 10
121.5714591347411
 20
284.0613921876105
 30
0.0
 10
121.5249221589533
 20
284.2904124016323
 30
0.0
 10
121.4500284131728
 20
284.511337963532
 30
0.0
 10
121.3600311089151
 20
284.6841240277329
 30
0.0
 10
121.2713791711308
 20
284.8114839534489
 30
0.0
 10
121.1960749067815
 20
284.9004518523603
 30
0.0
 10
121.1119869329413
 20
284.9812095223128
 30
0.0
 10
121.0192181990851
 20
285.0518940886877
 30
0.0
 10
120.9182423868262
 20
285.1104903128629
 30
0.0
 10
120.8100553373089
 20
285.1543435640219
 30
0.0
 10
120.6964462279539
 20
285.1827483234724
 30
0.0
 10
120.6187801931618
 20
285.1864347761194
 30
0.0
 10
120.5799965705
 20
285.1882756579
 30
0.0
 11
121.5799965705
 21
283.8287124885
 31
0.0
 11
121.5651504164079
 21
284.0605760252746
 31
0.0
 11
121.5201904148486
 21
284.289068943023
 31
0.0
 11
121.4444319361531
 21
284.5092644714264
 31
0.0
 11
121.3365415249736
 21
284.7149643796704
 31
0.0
 11
121.2699142011501
 21
284.8103849794575
 31
0.0
 11
121.1946147445934
 21
284.8990795549759
 31
0.0
 11
121.1105388782406
 21
284.9795316559734
 31
0.0
 11
121.0178510522394
 21
285.0498791052541
 31
0.0
 11
120.9170626173203
 21
285.1080229512728
 31
0.0
 11
120.8091898885266
 21
285.1517549680071
 31
0.0
 11
120.6958665999727
 21
285.178950293327
 31
0.0
 11
120.5799965705
 21
285.1882756579
 31
0.0
  0
SPLINE
  5
108
330
1F
100
AcDbEntity
  8
BEZUGSACHSEN
  6
Continuous
 62
     7
100
AcDbSpline
210
0.0
220
0.0
230
1.0
 70
     8
 71
     3
 72
    19
 73
    15
 74
    13
 42
0.0000000001
 43
0.0000000001
 44
0.00000001
 40
0.0
 40
0.0
 40
0.0
 40
0.0
 40
0.1462385988599965
 40
0.2927479275616234
 40
0.4364790706697206
 40
0.5801659236728818
 40
0.7203799973196837
 40
0.8606059383157276
 40
0.9980411884229738
 40
1.135484020432178
 40
1.405415631053895
 40
1.675815514048139
 40
1.943997429495178
 40
2.211934834802403
 40
2.211934834802403
 40
2.211934834802403
 40
2.211934834802403
 10
57.7049965705
 20
335.0693038291
 30
0.0
 10
57.7537113758672
 20
335.0726119064117
 30
0.0
 10
57.85123117176229
 20
335.0792341852407
 30
0.0
 10
57.99656743209001
 20
335.0628748724918
 30
0.0
 10
58.13722436919964
 20
335.0277031064188
 30
0.0
 10
58.27007650263702
 20
334.9748974197886
 30
0.0
 10
58.39453096569682
 20
334.9072256320441
 30
0.0
 10
58.50933352286069
 20
334.8279254306518
 30
0.0
 10
58.61544346063094
 20
334.7388407910854
 30
0.0
 10
58.74454592578816
 20
334.6108932555388
 30
0.0
 10
58.88758577566672
 20
334.4350909666478
 30
0.0
 10
59.03249337735847
 20
334.2074055007728
 30
0.0
 10
59.15713012581593
 20
333.9687428812763
 30
0.0
 10
59.22494869697004
 20
333.8033266408041
 30
0.0
 10
59.2588425174
 20
333.7206562416
 30
0.0
 11
57.7049965705
 21
335.0693038291
 31
0.0
 11
57.8511304324044
 21
335.0748375621474
 31
0.0
 11
57.99683979324854
 21
335.0595481684709
 31
0.0
 11
58.13626987477431
 21
335.0246498323376
 31
0.0
 11
58.26990221168508
 21
334.9718453793272
 31
0.0
 11
58.39321600250243
 21
334.9051093662392
 31
0.0
 11
58.50874711383013
 21
334.8256368751268
 31
0.0
 11
58.61415966359299
 21
334.7374516024078
 31
0.0
 11
58.71194816726049
 21
334.6408703380695
 31
0.0
 11
58.88319656312175
 21
334.4322149731066
 31
0.0
 11
59.02953898365232
 21
334.2048386491928
 31
0.0
 11
59.15340660945909
 21
333.9669766071394
 31
0.0
 11
59.2588425174
 21
333.7206562416
 31
0.0
  0
SPLINE
  5
109
330
1F
100
AcDbEntity
  8
BEZUGSACHSEN
  6
Continuous
 62
     7
100
AcDbSpline
210
0.0
220
0.0
230
1.0
 70
     8
 71
     3
 72
    11
 73
     7
 74
     5
 42
0.0000000001
 43
0.0000000001
 44
0.00000001
 40
0.0
 40
0.0
 40
0.0
 40
0.0
 40
0.5521269406194901
 40
1.105196183265034
 40
1.651906304669094
 40
2.198197048716957
 40
2.198197048716957
 40
2.198197048716957
 40
2.198197048716957
 10
59.7049965705
 20
305.8410007158
 30
0.0
 10
59.69841113287094
 20
305.6568655254173
 30
0.0
 10
59.68522901840177
 20
305.2882808854658
 30
0.0
 10
59.58774065460432
 20
304.7448564807906
 30
0.0
 10
59.44810334158083
 20
304.2135823512435
 30
0.0
 10
59.32191331936207
 20
303.8715878711251
 30
0.0
 10
59.2588425174
 20
303.7006562416
 30
0.0
 11
59.7049965705
 21
305.8410007158
 31
0.0
 11
59.67225198807319
 21
305.2898456097913
 31
0.0
 11
59.58018533512982
 21
304.7444931379198
 31
0.0
 11
59.43969385029639
 21
304.2161427811158
 31
0.0
 11
59.2588425174
 21
303.7006562416
 31
0.0
  0
SPLINE
  5
10A
330
1F
100
AcDbEntity
  8
BEZUGSACHSEN
  6
Continuous
 62
     7
100
AcDbSpline
210
0.0
220
0.0
230
1.0
 70
     8
 71
     3
 72
    19
 73
    15
 74
    13
 42
0.0000000001
 43
0.0000000001
 44
0.00000001
 40
0.0
 40
0.0
 40
0.0
 40
0.0
 40
0.2679411643010107
 40
0.5361267936528407
 40
0.8065304773314309
 40
1.076465993182484
 40
1.213913376080381
 40
1.351353104797097
 40
1.491586366984147
 40
1.631807897489912
 40
1.775491562712645
 40
1.919219204693945
 40
2.065713007335337
 40
2.211936409347419
 40
2.211936409347419
 40
2.211936409347419
 40
2.211936409347419
 10
59.2588425174
 20
303.7006562416
 30
0.0
 10
59.22494827363536
 20
303.6179846618939
 30
0.0
 10
59.15712886156318
 20
303.4525660743108
 30
0.0
 10
59.03249035527152
 20
303.2139001006569
 30
0.0
 10
58.88757955593844
 20
302.9862121046548
 30
0.0
 10
58.74453592441576
 20
302.8104076133471
 30
0.0
 10
58.61542953751208
 20
302.682457894237
 30
0.0
 10
58.50931443844822
 20
302.5933708734337
 30
0.0
 10
58.39450501080756
 20
302.514069233094
 30
0.0
 10
58.27004539857768
 20
302.4463987656299
 30
0.0
 10
58.13719184343959
 20
302.3935960789339
 30
0.0
 10
57.99654104455756
 20
302.3584298149435
 30
0.0
 10
57.8512156614312
 20
302.3420776130611
 30
0.0
 10
57.75370624235627
 20
302.3487003464272
 30
0.0
 10
57.7049965705
 20
302.3520086542
 30
0.0
 11
59.2588425174
 21
303.7006562416
 31
0.0
 11
59.15340525776856
 21
303.4543323657609
 31
0.0
 11
59.02953574220444
 21
303.2164671204964
 31
0.0
 11
58.88319025589117
 21
302.9890882499242
 31
0.0
 11
58.71193806476266
 21
302.780430947748
 31
0.0
 11
58.61414562608336
 21
302.683847191336
 31
0.0
 11
58.50872863682866
 21
302.5956602455549
 31
0.0
 11
58.39318999311522
 21
302.5161857865604
 31
0.0
 11
58.26986798322187
 21
302.4494492935955
 31
0.0
 11
58.13623729502201
 21
302.3966493426195
 31
0.0
 11
57.99680959381422
 21
302.3617559162269
 31
0.0
 11
57.85111515528355
 21
302.3464730894737
 31
0.0
 11
57.7049965705
 21
302.3520086542
 31
0.0
  0
SPLINE
  5
10B
330
1F
100
AcDbEntity
  8
BEZUGSACHSEN
  6
Continuous
 62
     7
100
AcDbSpline
210
0.0
220
0.0
230
1.0
 70
     8
 71
     3
 72
    15
 73
    11
 74
     9
 42
0.0000000001
 43
0.0000000001
 44
0.00000001
 40
0.0
 40
0.0
 40
0.0
 40
0.0
 40
0.111094483135354
 40
0.2222295181605338
 40
0.333362040223787
 40
0.4444752610525572
 40
0.5555842178285628
 40
0.6667300353886804
 40
0.7779450181442694
 40
0.8889820871539444
 40
0.8889820871539444
 40
0.8889820871539444
 40
0.8889820871539444
 10
50.8508392461
 20
333.9529922371
 30
0.0
 10
50.87622460567733
 20
333.979968602775
 30
0.0
 10
50.92700459103744
 20
334.0339311810821
 30
0.0
 10
51.00925736030156
 20
334.108813144486
 30
0.0
 10
51.09625401224924
 20
334.1780998534157
 30
0.0
 10
51.18855885266709
 20
334.2401950165112
 30
0.0
 10
51.28600887464343
 20
334.293974508619
 30
0.0
 10
51.38842178849537
 20
334.3375647541953
 30
0.0
 10
51.49493828706377
 20
334.3705833100419
 30
0.0
 10
51.56828038977997
 20
334.3816564766536
 30
0.0
 10
51.6049220858
 20
334.3871886279
 30
0.0
 11
50.8508392461
 21
333.9529922371
 31
0.0
 11
50.9280080232144
 21
334.0329107207053
 31
0.0
 11
51.01004792347827
 21
334.1078803864025
 31
0.0
 11
51.09714507208935
 21
334.1769059190984
 31
0.0
 11
51.18941689366192
 21
334.2388095440862
 31
0.0
 11
51.28681980172404
 21
334.2922686291597
 31
0.0
 11
51.389088025091
 21
334.3357956696112
 31
0.0
 11
51.49557989318109
 21
334.3678620760206
 31
0.0
 11
51.6049220858
 21
334.3871886279
 31
0.0
  0
SPLINE
  5
10C
330
1F
100
AcDbEntity
  8
BEZUGSACHSEN
  6
Continuous
 62
     7
100
AcDbSpline
210
0.0
220
0.0
230
1.0
 70
     8
 71
     3
 72
    11
 73
     7
 74
     5
 42
0.0000000001
 43
0.0000000001
 44
0.00000001
 40
0.0
 40
0.0
 40
0.0
 40
0.0
 40
0.9140556660003448
 40
1.828030949185892
 40
2.279806974883472
 40
2.730944124862247
 40
2.730944124862247
 40
2.730944124862247
 40
2.730944124862247
 10
50.9719494973854
 20
303.700656241785
 30
0.0
 10
51.10460420434867
 20
303.9753728394516
 30
0.0
 10
51.36990195251005
 20
304.5247818759789
 30
0.0
 10
51.58525716582531
 20
305.2574927970873
 30
0.0
 10
51.68895137948977
 20
305.8554380032271
 30
0.0
 10
51.69965069700764
 20
306.1565612186873
 30
0.0
 10
51.7049965705
 20
306.3070162933
 30
0.0
 11
50.9719494973854
 21
303.700656241785
 31
0.0
 11
51.34675702716089
 21
304.5343330833555
 31
0.0
 11
51.60604838755877
 21
305.4107569583709
 31
0.0
 11
51.67876536105738
 21
305.8566423911452
 31
0.0
 11
51.7049965705
 21
306.3070162933
 31
0.0
  0
SPLINE
  5
10D
330
1F
100
AcDbEntity
  8
BEZUGSACHSEN
  6
Continuous
 62
     7
100
AcDbSpline
210
0.0
220
0.0
230
1.0
 70
     8
 71
     3
 72
    11
 73
     7
 74
     5
 42
0.0000000001
 43
0.0000000001
 44
0.00000001
 40
0.0
 40
0.0
 40
0.0
 40
0.0
 40
0.824919236672416
 40
1.650116891930981
 40
2.190492152293428
 40
2.730585915378203
 40
2.730585915378203
 40
2.730585915378203
 40
2.730585915378203
 10
51.7049965705
 20
331.11429619
 30
0.0
 10
51.68726326616181
 20
331.3894864819768
 30
0.0
 10
51.65179067231587
 20
331.9399599454375
 30
0.0
 10
51.44335585568052
 20
332.6446935305906
 30
0.0
 10
51.2131294247008
 20
333.2369072556708
 30
0.0
 10
51.05232884189883
 20
333.559434589116
 30
0.0
 10
50.9719494973854
 20
333.720656241415
 30
0.0
 11
51.7049965705
 21
331.11429619
 31
0.0
 11
51.62142111638429
 21
331.9349708456959
 31
0.0
 11
51.40345967427253
 21
332.7308627855953
 31
0.0
 11
51.20552459571333
 21
333.233681964513
 31
0.0
 11
50.9719494973854
 21
333.720656241415
 31
0.0
  0
DIMENSION
  5
118
330
1F
100
AcDbEntity
  8
1
100
AcDbDimension
  2
*D2
 10
212.066562920995
 20
334.7106562416
 30
0.0
 11
208.316562920995
 21
317.950072677059
 31
0.0
 70
    32
  1
<>
 71
     5
 42
-1.0
 53
90.0
  3
ME10_DIM_10
100
AcDbAlignedDimension
 13
199.7049965705
 23
302.7106562416
 33
0.0
 14
199.7049965705
 24
334.7106562416
 34
0.0
 50
90.0
100
AcDbRotatedDimension
  0
DIMENSION
  5
123
330
1F
100
AcDbEntity
  8
1
100
AcDbDimension
  2
*D3
 10
220.315189989641
 20
354.7106562416
 30
0.0
 11
216.565189989641
 21
318.615284537433
 31
0.0
 70
    32
  1
<>
 71
     5
 42
-1.0
 53
90.0
  3
ME10_DIM_11
100
AcDbAlignedDimension
 13
191.2907830082
 23
282.7106562416
 33
0.0
 14
191.2907830082
 24
354.7106562416
 34
0.0
 50
90.0
100
AcDbRotatedDimension
  0
DIMENSION
  5
12E
330
1F
100
AcDbEntity
  8
1
100
AcDbDimension
  2
*D4
 10
199.7049965705
 20
376.488716390033
 30
0.0
 11
164.83652083439
 21
380.238716390033
 31
0.0
 70
    32
  1
<>
 71
     5
 42
-1.0
 53
0.00013888888889
  3
ME10_DIM_12
100
AcDbAlignedDimension
 13
128.7049965705
 23
368.7106193205
 33
0.0
 14
199.7049965705
 24
346.2964426793
 34
0.0
100
AcDbRotatedDimension
  0
DIMENSION
  5
139
330
1F
100
AcDbEntity
  8
1
100
AcDbDimension
  2
*D5
 10
199.7049965705
 20
383.806046854155
 30
0.0
 11
150.867071766522
 21
387.556046854155
 31
0.0
 70
    32
  1
<>
 71
     5
 42
-1.0
 53
0.00013888888889
  3
ME10_DIM_13
100
AcDbAlignedDimension
 13
99.7049965705
 23
368.7106562416
 33
0.0
 14
199.7049965705
 24
346.2964426793
 34
0.0
100
AcDbRotatedDimension
  0
DIMENSION
  5
144
330
1F
100
AcDbEntity
  8
1
100
AcDbDimension
  2
*D6
 10
199.7049965705
 20
391.256419690351
 30
0.0
 11
132.773309164329
 21
395.006419690351
 31
0.0
 70
    32
  1
<>
 71
     5
 42
-1.0
 53
0.00013888888889
  3
ME10_DIM_14
100
AcDbAlignedDimension
 13
49.7049965705
 23
352.3108478042
 33
0.0
 14
199.7049965705
 24
346.2964426793
 34
0.0
100
AcDbRotatedDimension
  0
INSERT
  5
14B
330
1F
100
AcDbEntity
  8
1
100
AcDbBlockReference
  2
*D7
 10
0.0
 20
0.0
 30
0.0
  0
ENDSEC
  0
SECTION
  2
OBJECTS
  0
DICTIONARY
  5
C
330
0
100
AcDbDictionary
281
     1
  3
ACAD_GROUP
350
D
  3
ACAD_LAYOUT
350
1A
  3
ACAD_MLEADERSTYLE
350
14E
  3
ACAD_MLINESTYLE
350
17
  3
ACAD_PLOTSETTINGS
350
19
  3
ACAD_PLOTSTYLENAME
350
E
  3
ACAD_SCALELIST
350
4B
  3
ACAD_VISUALSTYLE
350
2A
  3
AcDbVariableDictionary
350
14C
  0
DICTIONARY
  5
D
102
{ACAD_REACTORS
330
C
102
}
330
C
100
AcDbDictionary
281
     1
  0
DICTIONARY
  5
1A
102
{ACAD_REACTORS
330
C
102
}
330
C
100
AcDbDictionary
281
     1
  3
Layout1
350
1E
  3
Layout2
350
26
  3
Model
350
22
  0
DICTIONARY
  5
14E
102
{ACAD_REACTORS
330
C
102
}
330
C
100
AcDbDictionary
281
     1
  0
DICTIONARY
  5
17
102
{ACAD_REACTORS
330
C
102
}
330
C
100
AcDbDictionary
281
     1
  3
Standard
350
18
  0
DICTIONARY
  5
19
102
{ACAD_REACTORS
330
C
102
}
330
C
100
AcDbDictionary
281
     1
  0
ACDBDICTIONARYWDFLT
  5
E
102
{ACAD_REACTORS
330
C
102
}
330
C
100
AcDbDictionary
281
     1
  3
Normal
350
F
100
AcDbDictionaryWithDefault
340
F
  0
DICTIONARY
  5
4B
102
{ACAD_REACTORS
330
C
102
}
330
C
100
AcDbDictionary
281
     1
  3
A0
350
4C
  3
A1
350
4D
  3
A2
350
4E
  3
A3
350
4F
  3
A4
350
50
  3
A5
350
51
  3
A6
350
52
  3
A7
350
53
  3
A8
350
54
  3
A9
350
55
  3
B0
350
56
  3
B1
350
57
  3
B2
350
58
  3
B3
350
59
  3
B4
350
5A
  3
B5
350
5B
  3
B6
350
5C
  3
B7
350
5D
  3
B8
350
5E
  3
B9
350
5F
  3
C0
350
60
  3
C1
350
61
  3
C2
350
62
  3
C3
350
63
  3
C4
350
64
  3
C5
350
65
  3
C6
350
66
  3
C7
350
67
  3
C8
350
68
  3
C9
350
69
  3
D0
350
6A
  3
D1
350
6B
  3
D2
350
6C
  0
DICTIONARY
  5
2A
102
{ACAD_REACTORS
330
C
102
}
330
C
100
AcDbDictionary
281
     1
  3
2dWireframe
350
2F
  3
3D Hidden
350
31
  3
3dWireframe
350
30
  3
Basic
350
32
  3
Brighten
350
36
  3
ColorChange
350
3A
  3
Conceptual
350
34
  3
Dim
350
35
  3
Facepattern
350
39
  3
Flat
350
2B
  3
FlatWithEdges
350
2C
  3
Gouraud
350
2D
  3
GouraudWithEdges
350
2E
  3
Linepattern
350
38
  3
Realistic
350
33
  3
Thicken
350
37
  0
DICTIONARY
  5
14C
102
{ACAD_REACTORS
330
C
102
}
330
C
100
AcDbDictionary
281
     1
  3
CANNOSCALE
350
14F
  0
LAYOUT
  5
1E
102
{ACAD_REACTORS
330
1A
102
}
330
1A
100
AcDbPlotSettings
  1

  2
none_device
  4

  6

 40
0.0
 41
0.0
 42
0.0
 43
0.0
 44
0.0
 45
0.0
 46
0.0
 47
0.0
 48
0.0
 49
0.0
140
0.0
141
0.0
142
1.0
143
1.0
 70
   688
 72
     0
 73
     0
 74
     5
  7

 75
    16
147
1.0
148
0.0
149
0.0
100
AcDbLayout
  1
Layout1
 70
     1
 71
     1
 10
0.0
 20
0.0
 11
12.0
 21
9.0
 12
0.0
 22
0.0
 32
0.0
 14
1.00000000000000E+20
 24
1.00000000000000E+20
 34
1.00000000000000E+20
 15
-1.00000000000000E+20
 25
-1.00000000000000E+20
 35
-1.00000000000000E+20
146
0.0
 13
0.0
 23
0.0
 33
0.0
 16
1.0
 26
0.0
 36
0.0
 17
0.0
 27
1.0
 37
0.0
 76
     0
330
1B
  0
LAYOUT
  5
26
102
{ACAD_REACTORS
330
1A
102
}
330
1A
100
AcDbPlotSettings
  1

  2
none_device
  4

  6

 40
0.0
 41
0.0
 42
0.0
 43
0.0
 44
0.0
 45
0.0
 46
0.0
 47
0.0
 48
0.0
 49
0.0
140
0.0
141
0.0
142
1.0
143
1.0
 70
   688
 72
     0
 73
     0
 74
     5
  7

 75
    16
147
1.0
148
0.0
149
0.0
100
AcDbLayout
  1
Layout2
 70
     1
 71
     2
 10
0.0
 20
0.0
 11
0.0
 21
0.0
 12
0.0
 22
0.0
 32
0.0
 14
0.0
 24
0.0
 34
0.0
 15
0.0
 25
0.0
 35
0.0
146
0.0
 13
0.0
 23
0.0
 33
0.0
 16
1.0
 26
0.0
 36
0.0
 17
0.0
 27
1.0
 37
0.0
 76
     0
330
23
  0
LAYOUT
  5
22
102
{ACAD_REACTORS
330
1A
102
}
330
1A
100
AcDbPlotSettings
  1

  2
none_device
  4

  6

 40
0.0
 41
0.0
 42
0.0
 43
0.0
 44
0.0
 45
0.0
 46
0.0
 47
0.0
 48
0.0
 49
0.0
140
0.0
141
0.0
142
1.0
143
1.0
 70
  1712
 72
     0
 73
     0
 74
     0
  7

 75
     0
147
1.0
148
0.0
149
0.0
100
AcDbLayout
  1
Model
 70
     1
 71
     0
 10
0.0
 20
0.0
 11
12.0
 21
9.0
 12
0.0
 22
0.0
 32
0.0
 14
26.7306740637183
 24
268.7106562416
 34
0.0
 15
222.315189989641
 25
396.756419690351
 35
0.0
146
0.0
 13
0.0
 23
0.0
 33
0.0
 16
1.0
 26
0.0
 36
0.0
 17
0.0
 27
1.0
 37
0.0
 76
     0
330
1F
331
29
  0
MLINESTYLE
  5
18
102
{ACAD_REACTORS
330
17
102
}
330
17
100
AcDbMlineStyle
  2
Standard
 70
     0
  3

 62
   256
 51
90.0
 52
90.0
 71
     2
 49
0.5
 62
   256
  6
BYLAYER
 49
-0.5
 62
   256
  6
BYLAYER
  0
ACDBPLACEHOLDER
  5
F
102
{ACAD_REACTORS
330
E
102
}
330
E
  0
SCALE
  5
4C
102
{ACAD_REACTORS
330
4B
102
}
330
4B
100
AcDbScale
 70
     0
300
1:1
140
1.0
141
1.0
290
     1
  0
SCALE
  5
4D
102
{ACAD_REACTORS
330
4B
102
}
330
4B
100
AcDbScale
 70
     0
300
1:2
140
1.0
141
2.0
290
     0
  0
SCALE
  5
4E
102
{ACAD_REACTORS
330
4B
102
}
330
4B
100
AcDbScale
 70
     0
300
1:4
140
1.0
141
4.0
290
     0
  0
SCALE
  5
4F
102
{ACAD_REACTORS
330
4B
102
}
330
4B
100
AcDbScale
 70
     0
300
1:5
140
1.0
141
5.0
290
     0
  0
SCALE
  5
50
102
{ACAD_REACTORS
330
4B
102
}
330
4B
100
AcDbScale
 70
     0
300
1:8
140
1.0
141
8.0
290
     0
  0
SCALE
  5
51
102
{ACAD_REACTORS
330
4B
102
}
330
4B
100
AcDbScale
 70
     0
300
1:10
140
1.0
141
10.0
290
     0
  0
SCALE
  5
52
102
{ACAD_REACTORS
330
4B
102
}
330
4B
100
AcDbScale
 70
     0
300
1:16
140
1.0
141
16.0
290
     0
  0
SCALE
  5
53
102
{ACAD_REACTORS
330
4B
102
}
330
4B
100
AcDbScale
 70
     0
300
1:20
140
1.0
141
20.0
290
     0
  0
SCALE
  5
54
102
{ACAD_REACTORS
330
4B
102
}
330
4B
100
AcDbScale
 70
     0
300
1:30
140
1.0
141
30.0
290
     0
  0
SCALE
  5
55
102
{ACAD_REACTORS
330
4B
102
}
330
4B
100
AcDbScale
 70
     0
300
1:40
140
1.0
141
40.0
290
     0
  0
SCALE
  5
56
102
{ACAD_REACTORS
330
4B
102
}
330
4B
100
AcDbScale
 70
     0
300
1:50
140
1.0
141
50.0
290
     0
  0
SCALE
  5
57
102
{ACAD_REACTORS
330
4B
102
}
330
4B
100
AcDbScale
 70
     0
300
1:100
140
1.0
141
100.0
290
     0
  0
SCALE
  5
58
102
{ACAD_REACTORS
330
4B
102
}
330
4B
100
AcDbScale
 70
     0
300
2:1
140
2.0
141
1.0
290
     0
  0
SCALE
  5
59
102
{ACAD_REACTORS
330
4B
102
}
330
4B
100
AcDbScale
 70
     0
300
4:1
140
4.0
141
1.0
290
     0
  0
SCALE
  5
5A
102
{ACAD_REACTORS
330
4B
102
}
330
4B
100
AcDbScale
 70
     0
300
8:1
140
8.0
141
1.0
290
     0
  0
SCALE
  5
5B
102
{ACAD_REACTORS
330
4B
102
}
330
4B
100
AcDbScale
 70
     0
300
10:1
140
10.0
141
1.0
290
     0
  0
SCALE
  5
5C
102
{ACAD_REACTORS
330
4B
102
}
330
4B
100
AcDbScale
 70
     0
300
100:1
140
100.0
141
1.0
290
     0
  0
SCALE
  5
5D
102
{ACAD_REACTORS
330
4B
102
}
330
4B
100
AcDbScale
 70
     0
300
1/128" = 1'-0"
140
0.0078125
141
12.0
290
     0
  0
SCALE
  5
5E
102
{ACAD_REACTORS
330
4B
102
}
330
4B
100
AcDbScale
 70
     0
300
1/64" = 1'-0"
140
0.015625
141
12.0
290
     0
  0
SCALE
  5
5F
102
{ACAD_REACTORS
330
4B
102
}
330
4B
100
AcDbScale
 70
     0
300
1/32" = 1'-0"
140
0.03125
141
12.0
290
     0
  0
SCALE
  5
60
102
{ACAD_REACTORS
330
4B
102
}
330
4B
100
AcDbScale
 70
     0
300
1/16" = 1'-0"
140
0.0625
141
12.0
290
     0
  0
SCALE
  5
61
102
{ACAD_REACTORS
330
4B
102
}
330
4B
100
AcDbScale
 70
     0
300
3/32" = 1'-0"
140
0.09375
141
12.0
290
     0
  0
SCALE
  5
62
102
{ACAD_REACTORS
330
4B
102
}
330
4B
100
AcDbScale
 70
     0
300
1/8" = 1'-0"
140
0.125
141
12.0
290
     0
  0
SCALE
  5
63
102
{ACAD_REACTORS
330
4B
102
}
330
4B
100
AcDbScale
 70
     0
300
3/16" = 1'-0"
140
0.1875
141
12.0
290
     0
  0
SCALE
  5
64
102
{ACAD_REACTORS
330
4B
102
}
330
4B
100
AcDbScale
 70
     0
300
1/4" = 1'-0"
140
0.25
141
12.0
290
     0
  0
SCALE
  5
65
102
{ACAD_REACTORS
330
4B
102
}
330
4B
100
AcDbScale
 70
     0
300
3/8" = 1'-0"
140
0.375
141
12.0
290
     0
  0
SCALE
  5
66
102
{ACAD_REACTORS
330
4B
102
}
330
4B
100
AcDbScale
 70
     0
300
1/2" = 1'-0"
140
0.5
141
12.0
290
     0
  0
SCALE
  5
67
102
{ACAD_REACTORS
330
4B
102
}
330
4B
100
AcDbScale
 70
     0
300
3/4" = 1'-0"
140
0.75
141
12.0
290
     0
  0
SCALE
  5
68
102
{ACAD_REACTORS
330
4B
102
}
330
4B
100
AcDbScale
 70
     0
300
1" = 1'-0"
140
1.0
141
12.0
290
     0
  0
SCALE
  5
69
102
{ACAD_REACTORS
330
4B
102
}
330
4B
100
AcDbScale
 70
     0
300
1-1/2" = 1'-0"
140
1.5
141
12.0
290
     0
  0
SCALE
  5
6A
102
{ACAD_REACTORS
330
4B
102
}
330
4B
100
AcDbScale
 70
     0
300
3" = 1'-0"
140
3.0
141
12.0
290
     0
  0
SCALE
  5
6B
102
{ACAD_REACTORS
330
4B
102
}
330
4B
100
AcDbScale
 70
     0
300
6" = 1'-0"
140
6.0
141
12.0
290
     0
  0
SCALE
  5
6C
102
{ACAD_REACTORS
330
4B
102
}
330
4B
100
AcDbScale
 70
     0
300
1'-0" = 1'-0"
140
12.0
141
12.0
290
     0
  0
VISUALSTYLE
  5
2F
102
{ACAD_REACTORS
330
2A
102
}
330
2A
100
AcDbVisualStyle
  2
2dWireframe
 70
     4
 71
     0
 72
     2
 73
     0
 90
        0
 40
-0.6
 41
-30.0
 62
     5
 63
     7
 74
     1
 91
        4
 64
     7
 65
   257
 75
     1
175
     1
 42
1.0
 92
        0
 66
   257
 43
1.0
 76
     1
 77
     6
 78
     2
 67
     7
 79
     5
170
     0
171
     0
290
     0
174
     0
 93
        1
 44
0.0
173
     0
291
     0
 45
0.0
1001
ACAD
1000
AcDbSavedByObjectVersion
1070
     0
  0
VISUALSTYLE
  5
31
102
{ACAD_REACTORS
330
2A
102
}
330
2A
100
AcDbVisualStyle
  2
3D Hidden
 70
     6
 71
     1
 72
     2
 73
     2
 90
        0
 40
-0.6
 41
-30.0
 62
     5
 63
     7
 74
     2
 91
        2
 64
     7
 65
   257
 75
     2
175
     1
 42
40.0
 92
        0
 66
   257
 43
1.0
 76
     1
 77
     6
 78
     2
 67
     7
 79
     3
170
     0
171
     0
290
     0
174
     0
 93
        1
 44
0.0
173
     0
291
     0
 45
0.0
1001
ACAD
1000
AcDbSavedByObjectVersion
1070
     0
  0
VISUALSTYLE
  5
30
102
{ACAD_REACTORS
330
2A
102
}
330
2A
100
AcDbVisualStyle
  2
3dWireframe
 70
     5
 71
     0
 72
     2
 73
     0
 90
        0
 40
-0.6
 41
-30.0
 62
     5
 63
     7
 74
     1
 91
        4
 64
     7
 65
   257
 75
     1
175
     1
 42
1.0
 92
        0
 66
   257
 43
1.0
 76
     1
 77
     6
 78
     2
 67
     7
 79
     5
170
     0
171
     0
290
     0
174
     0
 93
        1
 44
0.0
173
     0
291
     0
 45
0.0
1001
ACAD
1000
AcDbSavedByObjectVersion
1070
     0
  0
VISUALSTYLE
  5
32
102
{ACAD_REACTORS
330
2A
102
}
330
2A
100
AcDbVisualStyle
  2
Basic
 70
     7
 71
     1
 72
     0
 73
     1
 90
        0
 40
-0.6
 41
-30.0
 62
     5
 63
     7
 74
     0
 91
        4
 64
     7
 65
   257
 75
     1
175
     1
 42
1.0
 92
        8
 66
     7
 43
1.0
 76
     1
 77
     6
 78
     2
 67
     7
 79
     5
170
     0
171
     0
290
     0
174
     0
 93
        1
 44
0.0
173
     0
291
     1
 45
0.0
1001
ACAD
1000
AcDbSavedByObjectVersion
1070
     0
  0
VISUALSTYLE
  5
36
102
{ACAD_REACTORS
330
2A
102
}
330
2A
100
AcDbVisualStyle
  2
Brighten
 70
    12
 71
     2
 72
     2
 73
     0
 90
        0
 40
-0.6
 41
-30.0
 62
     5
 63
     7
 74
     1
 91
        4
 64
     7
 65
   257
 75
     1
175
     1
 42
1.0
 92
        8
 66
     7
 43
1.0
 76
     1
 77
     6
 78
     2
 67
     7
 79
     5
170
     0
171
     0
290
     0
174
     0
 93
        1
 44
50.0
173
     0
291
     1
 45
0.0
1001
ACAD
1000
AcDbSavedByObjectVersion
1070
     0
  0
VISUALSTYLE
  5
3A
102
{ACAD_REACTORS
330
2A
102
}
330
2A
100
AcDbVisualStyle
  2
ColorChange
 70
    16
 71
     2
 72
     2
 73
     3
 90
        0
 40
-0.6
 41
-30.0
 62
     5
 63
     8
 74
     1
 91
        4
 64
     7
 65
   257
 75
     1
175
     1
 42
1.0
 92
        8
 66
     8
 43
1.0
 76
     1
 77
     6
 78
     2
 67
     7
 79
     5
170
     0
171
     0
290
     0
174
     0
 93
        1
 44
0.0
173
     0
291
     1
 45
0.0
1001
ACAD
1000
AcDbSavedByObjectVersion
1070
     0
  0
VISUALSTYLE
  5
34
102
{ACAD_REACTORS
330
2A
102
}
330
2A
100
AcDbVisualStyle
  2
Conceptual
 70
     9
 71
     3
 72
     2
 73
     0
 90
        0
 40
-0.6
 41
-30.0
 62
     5
 63
     7
 74
     2
 91
        2
 64
     7
 65
   257
 75
     1
175
     1
 42
40.0
 92
        8
 66
     7
 43
1.0
 76
     1
 77
     6
 78
     2
 67
     7
 79
     3
170
     0
171
     0
290
     0
174
     0
 93
        1
 44
0.0
173
     0
291
     0
 45
0.0
1001
ACAD
1000
AcDbSavedByObjectVersion
1070
     0
  0
VISUALSTYLE
  5
35
102
{ACAD_REACTORS
330
2A
102
}
330
2A
100
AcDbVisualStyle
  2
Dim
 70
    11
 71
     2
 72
     2
 73
     0
 90
        0
 40
-0.6
 41
-30.0
 62
     5
 63
     7
 74
     1
 91
        4
 64
     7
 65
   257
 75
     1
175
     1
 42
1.0
 92
        8
 66
     7
 43
1.0
 76
     1
 77
     6
 78
     2
 67
     7
 79
     5
170
     0
171
     0
290
     0
174
     0
 93
        1
 44
-50.0
173
     0
291
     1
 45
0.0
1001
ACAD
1000
AcDbSavedByObjectVersion
1070
     0
  0
VISUALSTYLE
  5
39
102
{ACAD_REACTORS
330
2A
102
}
330
2A
100
AcDbVisualStyle
  2
Facepattern
 70
    15
 71
     2
 72
     2
 73
     0
 90
        0
 40
-0.6
 41
-30.0
 62
     5
 63
     7
 74
     1
 91
        4
 64
     7
 65
   257
 75
     1
175
     1
 42
1.0
 92
        8
 66
     7
 43
1.0
 76
     1
 77
     6
 78
     2
 67
     7
 79
     5
170
     0
171
     0
290
     0
174
     0
 93
        1
 44
0.0
173
     0
291
     1
 45
0.0
1001
ACAD
1000
AcDbSavedByObjectVersion
1070
     0
  0
VISUALSTYLE
  5
2B
102
{ACAD_REACTORS
330
2A
102
}
330
2A
100
AcDbVisualStyle
  2
Flat
 70
     0
 71
     2
 72
     1
 73
     1
 90
        2
 40
-0.6
 41
30.0
 62
     5
 63
     7
 74
     0
 91
        4
 64
     7
 65
   257
 75
     1
175
     1
 42
1.0
 92
        8
 66
     7
 43
1.0
 76
     1
 77
     6
 78
     2
 67
     7
 79
     5
170
     0
171
     0
290
     0
174
     0
 93
       13
 44
0.0
173
     0
291
     1
 45
0.0
1001
ACAD
1000
AcDbSavedByObjectVersion
1070
     0
  0
VISUALSTYLE
  5
2C
102
{ACAD_REACTORS
330
2A
102
}
330
2A
100
AcDbVisualStyle
  2
FlatWithEdges
 70
     1
 71
     2
 72
     1
 73
     1
 90
        2
 40
-0.6
 41
30.0
 62
     5
 63
     7
 74
     1
 91
        4
 64
     7
 65
   257
 75
     1
175
     1
 42
1.0
 92
        0
 66
   257
 43
1.0
 76
     1
 77
     6
 78
     2
 67
     7
 79
     5
170
     0
171
     0
290
     0
174
     0
 93
       13
 44
0.0
173
     0
291
     1
 45
0.0
1001
ACAD
1000
AcDbSavedByObjectVersion
1070
     0
  0
VISUALSTYLE
  5
2D
102
{ACAD_REACTORS
330
2A
102
}
330
2A
100
AcDbVisualStyle
  2
Gouraud
 70
     2
 71
     2
 72
     2
 73
     1
 90
        2
 40
-0.6
 41
30.0
 62
     5
 63
     7
 74
     0
 91
        4
 64
     7
 65
   257
 75
     1
175
     1
 42
1.0
 92
        0
 66
     7
 43
1.0
 76
     1
 77
     6
 78
     2
 67
     7
 79
     5
170
     0
171
     0
290
     0
174
     0
 93
       13
 44
0.0
173
     0
291
     1
 45
0.0
1001
ACAD
1000
AcDbSavedByObjectVersion
1070
     0
  0
VISUALSTYLE
  5
2E
102
{ACAD_REACTORS
330
2A
102
}
330
2A
100
AcDbVisualStyle
  2
GouraudWithEdges
 70
     3
 71
     2
 72
     2
 73
     1
 90
        2
 40
-0.6
 41
30.0
 62
     5
 63
     7
 74
     1
 91
        4
 64
     7
 65
   257
 75
     1
175
     1
 42
1.0
 92
        0
 66
   257
 43
1.0
 76
     1
 77
     6
 78
     2
 67
     7
 79
     5
170
     0
171
     0
290
     0
174
     0
 93
       13
 44
0.0
173
     0
291
     1
 45
0.0
1001
ACAD
1000
AcDbSavedByObjectVersion
1070
     0
  0
VISUALSTYLE
  5
38
102
{ACAD_REACTORS
330
2A
102
}
330
2A
100
AcDbVisualStyle
  2
Linepattern
 70
    14
 71
     2
 72
     2
 73
     0
 90
        0
 40
-0.6
 41
-30.0
 62
     5
 63
     7
 74
     1
 91
        4
 64
     7
 65
   257
 75
     7
175
     7
 42
1.0
 92
        8
 66
     7
 43
1.0
 76
     1
 77
     6
 78
     2
 67
     7
 79
     5
170
     0
171
     0
290
     0
174
     0
 93
        1
 44
0.0
173
     0
291
     1
 45
0.0
1001
ACAD
1000
AcDbSavedByObjectVersion
1070
     0
  0
VISUALSTYLE
  5
33
102
{ACAD_REACTORS
330
2A
102
}
330
2A
100
AcDbVisualStyle
  2
Realistic
 70
     8
 71
     2
 72
     2
 73
     0
 90
        0
 40
-0.6
 41
-30.0
 62
     5
 63
     7
 74
     1
 91
        0
 64
     7
 65
   257
 75
     1
175
     1
 42
1.0
 92
        8
 66
     8
 43
1.0
 76
     1
 77
     6
 78
     2
 67
     7
 79
     5
170
     0
171
     0
290
     0
174
     0
 93
       13
 44
0.0
173
     0
291
     0
 45
0.0
1001
ACAD
1000
AcDbSavedByObjectVersion
1070
     0
  0
VISUALSTYLE
  5
37
102
{ACAD_REACTORS
330
2A
102
}
330
2A
100
AcDbVisualStyle
  2
Thicken
 70
    13
 71
     2
 72
     2
 73
     0
 90
        0
 40
-0.6
 41
-30.0
 62
     5
 63
     7
 74
     1
 91
        4
 64
     7
 65
   257
 75
     1
175
     1
 42
1.0
 92
       12
 66
     7
 43
1.0
 76
     1
 77
     6
 78
     2
 67
     7
 79
     5
170
     0
171
     0
290
     0
174
     0
 93
        1
 44
0.0
173
     0
291
     1
 45
0.0
1001
ACAD
1000
AcDbSavedByObjectVersion
1070
     0
  0
DICTIONARYVAR
  5
14F
102
{ACAD_REACTORS
330
14C
102
}
330
14C
100
DictionaryVariables
280
     0
  1
1:1
  0
ENDSEC
  0
EOF
