  0
SECTION
  2
HEADER
  9
$ACADVER
  1
AC1015
  9
$ACADMAINTVER
 70
     6
  9
$DWGCODEPAGE
  3
ANSI_1252
  9
$INSBASE
 10
0.0
 20
0.0
 30
0.0
  9
$EXTMIN
 10
24.5645046460469
 20
257.0311496253
 30
0.0
  9
$EXTMAX
 10
221.31540526444
 20
384.387300729006
 30
0.0
  9
$LIMMIN
 10
0.0
 20
0.0
  9
$LIMMAX
 10
12.0
 20
9.0
  9
$ORTHOMODE
 70
     0
  9
$REGENMODE
 70
     1
  9
$FILLMODE
 70
     1
  9
$QTEXTMODE
 70
     0
  9
$MIRRTEXT
 70
     1
  9
$LTSCALE
 40
1.0
  9
$ATTMODE
 70
     1
  9
$TEXTSIZE
 40
0.2
  9
$TRACEWID
 40
0.05
  9
$TEXTSTYLE
  7
Standard
  9
$CLAYER
  8
0
  9
$CELTYPE
  6
ByLayer
  9
$CECOLOR
 62
   256
  9
$CELTSCALE
 40
1.0
  9
$DISPSILH
 70
     0
  9
$DIMSCALE
 40
1.0
  9
$DIMASZ
 40
0.18
  9
$DIMEXO
 40
0.0625
  9
$DIMDLI
 40
0.38
  9
$DIMRND
 40
0.0
  9
$DIMDLE
 40
0.0
  9
$DIMEXE
 40
0.18
  9
$DIMTP
 40
0.0
  9
$DIMTM
 40
0.0
  9
$DIMTXT
 40
0.18
  9
$DIMCEN
 40
0.09
  9
$DIMTSZ
 40
0.0
  9
$DIMTOL
 70
     0
  9
$DIMLIM
 70
     0
  9
$DIMTIH
 70
     1
  9
$DIMTOH
 70
     1
  9
$DIMSE1
 70
     0
  9
$DIMSE2
 70
     0
  9
$DIMTAD
 70
     0
  9
$DIMZIN
 70
     0
  9
$DIMBLK
  1

  9
$DIMASO
 70
     1
  9
$DIMSHO
 70
     1
  9
$DIMPOST
  1

  9
$DIMAPOST
  1

  9
$DIMALT
 70
     0
  9
$DIMALTD
 70
     2
  9
$DIMALTF
 40
25.4
  9
$DIMLFAC
 40
1.0
  9
$DIMTOFL
 70
     0
  9
$DIMTVP
 40
0.0
  9
$DIMTIX
 70
     0
  9
$DIMSOXD
 70
     0
  9
$DIMSAH
 70
     0
  9
$DIMBLK1
  1

  9
$DIMBLK2
  1

  9
$DIMSTYLE
  2
Standard
  9
$DIMCLRD
 70
     0
  9
$DIMCLRE
 70
     0
  9
$DIMCLRT
 70
     0
  9
$DIMTFAC
 40
1.0
  9
$DIMGAP
 40
0.09
  9
$DIMJUST
 70
     0
  9
$DIMSD1
 70
     0
  9
$DIMSD2
 70
     0
  9
$DIMTOLJ
 70
     1
  9
$DIMTZIN
 70
     0
  9
$DIMALTZ
 70
     0
  9
$DIMALTTZ
 70
     0
  9
$DIMUPT
 70
     0
  9
$DIMDEC
 70
     4
  9
$DIMTDEC
 70
     4
  9
$DIMALTU
 70
     2
  9
$DIMALTTD
 70
     2
  9
$DIMTXSTY
  7
Standard
  9
$DIMAUNIT
 70
     0
  9
$DIMADEC
 70
     0
  9
$DIMALTRND
 40
0.0
  9
$DIMAZIN
 70
     0
  9
$DIMDSEP
 70
    46
  9
$DIMATFIT
 70
     3
  9
$DIMFRAC
 70
     0
  9
$DIMLDRBLK
  1

  9
$DIMLUNIT
 70
     2
  9
$DIMLWD
 70
    -2
  9
$DIMLWE
 70
    -2
  9
$DIMTMOVE
 70
     0
  9
$LUNITS
 70
     2
  9
$LUPREC
 70
     4
  9
$SKETCHINC
 40
0.1
  9
$FILLETRAD
 40
0.5
  9
$AUNITS
 70
     0
  9
$AUPREC
 70
     0
  9
$MENU
  1
.
  9
$ELEVATION
 40
0.0
  9
$PELEVATION
 40
0.0
  9
$THICKNESS
 40
0.0
  9
$LIMCHECK
 70
     0
  9
$CHAMFERA
 40
0.5
  9
$CHAMFERB
 40
0.5
  9
$CHAMFERC
 40
1.0
  9
$CHAMFERD
 40
0.0
  9
$SKPOLY
 70
     0
  9
$TDCREATE
 40
2456748.735020694
  9
$TDUCREATE
 40
2456748.651687361
  9
$TDUPDATE
 40
2456748.735020706
  9
$TDUUPDATE
 40
2456748.651687372
  9
$TDINDWG
 40
0.0000000116
  9
$TDUSRTIMER
 40
0.0000000116
  9
$USRTIMER
 70
     1
  9
$ANGBASE
 50
0.0
  9
$ANGDIR
 70
     0
  9
$PDMODE
 70
     0
  9
$PDSIZE
 40
0.0
  9
$PLINEWID
 40
0.0
  9
$SPLFRAME
 70
     0
  9
$SPLINETYPE
 70
     6
  9
$SPLINESEGS
 70
     8
  9
$HANDSEED
  5
146
  9
$SURFTAB1
 70
     6
  9
$SURFTAB2
 70
     6
  9
$SURFTYPE
 70
     6
  9
$SURFU
 70
     6
  9
$SURFV
 70
     6
  9
$UCSBASE
  2

  9
$UCSNAME
  2

  9
$UCSORG
 10
0.0
 20
0.0
 30
0.0
  9
$UCSXDIR
 10
1.0
 20
0.0
 30
0.0
  9
$UCSYDIR
 10
0.0
 20
1.0
 30
0.0
  9
$UCSORTHOREF
  2

  9
$UCSORTHOVIEW
 70
     0
  9
$UCSORGTOP
 10
0.0
 20
0.0
 30
0.0
  9
$UCSORGBOTTOM
 10
0.0
 20
0.0
 30
0.0
  9
$UCSORGLEFT
 10
0.0
 20
0.0
 30
0.0
  9
$UCSORGRIGHT
 10
0.0
 20
0.0
 30
0.0
  9
$UCSORGFRONT
 10
0.0
 20
0.0
 30
0.0
  9
$UCSORGBACK
 10
0.0
 20
0.0
 30
0.0
  9
$PUCSBASE
  2

  9
$PUCSNAME
  2

  9
$PUCSORG
 10
0.0
 20
0.0
 30
0.0
  9
$PUCSXDIR
 10
1.0
 20
0.0
 30
0.0
  9
$PUCSYDIR
 10
0.0
 20
1.0
 30
0.0
  9
$PUCSORTHOREF
  2

  9
$PUCSORTHOVIEW
 70
     0
  9
$PUCSORGTOP
 10
0.0
 20
0.0
 30
0.0
  9
$PUCSORGBOTTOM
 10
0.0
 20
0.0
 30
0.0
  9
$PUCSORGLEFT
 10
0.0
 20
0.0
 30
0.0
  9
$PUCSORGRIGHT
 10
0.0
 20
0.0
 30
0.0
  9
$PUCSORGFRONT
 10
0.0
 20
0.0
 30
0.0
  9
$PUCSORGBACK
 10
0.0
 20
0.0
 30
0.0
  9
$USERI1
 70
     0
  9
$USERI2
 70
     0
  9
$USERI3
 70
     0
  9
$USERI4
 70
     0
  9
$USERI5
 70
     0
  9
$USERR1
 40
16.5
  9
$USERR2
 40
0.0
  9
$USERR3
 40
0.0
  9
$USERR4
 40
0.0
  9
$USERR5
 40
0.0
  9
$WORLDVIEW
 70
     1
  9
$SHADEDGE
 70
     3
  9
$SHADEDIF
 70
    70
  9
$TILEMODE
 70
     1
  9
$MAXACTVP
 70
    64
  9
$PINSBASE
 10
0.0
 20
0.0
 30
0.0
  9
$PLIMCHECK
 70
     0
  9
$PEXTMIN
 10
1.00000000000000E+20
 20
1.00000000000000E+20
 30
1.00000000000000E+20
  9
$PEXTMAX
 10
-1.00000000000000E+20
 20
-1.00000000000000E+20
 30
-1.00000000000000E+20
  9
$PLIMMIN
 10
0.0
 20
0.0
  9
$PLIMMAX
 10
12.0
 20
9.0
  9
$UNITMODE
 70
     0
  9
$VISRETAIN
 70
     1
  9
$PLINEGEN
 70
     0
  9
$PSLTSCALE
 70
     1
  9
$TREEDEPTH
 70
  3020
  9
$CMLSTYLE
  2
Standard
  9
$CMLJUST
 70
     0
  9
$CMLSCALE
 40
1.0
  9
$PROXYGRAPHICS
 70
     1
  9
$MEASUREMENT
 70
     1
  9
$CELWEIGHT
370
    -1
  9
$ENDCAPS
280
     0
  9
$JOINSTYLE
280
     0
  9
$LWDISPLAY
290
     0
  9
$INSUNITS
 70
     1
  9
$HYPERLINKBASE
  1

  9
$STYLESHEET
  1

  9
$XEDIT
290
     1
  9
$CEPSNTYPE
380
     0
  9
$PSTYLEMODE
290
     1
  9
$FINGERPRINTGUID
  2
{373CD165-DE87-40F0-859F-C026646448D0}
  9
$VERSIONGUID
  2
{FAEB1C32-E019-11D5-929B-00C0DF256EC4}
  9
$EXTNAMES
290
     1
  9
$PSVPSCALE
 40
0.0
  9
$OLESTARTUP
290
     0
  0
ENDSEC
  0
SECTION
  2
CLASSES
  0
CLASS
  1
ACDBDICTIONARYWDFLT
  2
AcDbDictionaryWithDefault
  3
ObjectDBX Classes
 90
        0
280
     0
281
     0
  0
CLASS
  1
VISUALSTYLE
  2
AcDbVisualStyle
  3
ObjectDBX Classes
 90
     4095
280
     0
281
     0
  0
CLASS
  1
SCALE
  2
AcDbScale
  3
ObjectDBX Classes
 90
     1153
280
     0
281
     0
  0
CLASS
  1

  2
exOdDbPolyline
  3

 90
        0
280
     0
281
     1
  0
CLASS
  1

  2
exOdDbCircle
  3

 90
        0
280
     0
281
     1
  0
CLASS
  1

  2
exOdDbSpline
  3

 90
        0
280
     0
281
     1
  0
CLASS
  1
DICTIONARYVAR
  2
AcDbDictionaryVar
  3
ObjectDBX Classes
 90
        0
280
     0
281
     0
  0
CLASS
  1
ACDBPLACEHOLDER
  2
AcDbPlaceHolder
  3
ObjectDBX Classes
 90
        0
280
     0
281
     0
  0
CLASS
  1
LAYOUT
  2
AcDbLayout
  3
ObjectDBX Classes
 90
        0
280
     0
281
     0
  0
ENDSEC
  0
SECTION
  2
TABLES
  0
TABLE
  2
VPORT
  5
8
330
0
100
AcDbSymbolTable
 70
     1
  0
VPORT
  5
29
330
8
100
AcDbSymbolTableRecord
100
AcDbViewportTableRecord
  2
*Active
 70
     0
 10
0.0
 20
0.0
 11
1.0
 21
1.0
 12
122.9399549552435
 22
320.709225177153
 13
0.0
 23
0.0
 14
0.5
 24
0.5
 15
0.5
 25
0.5
 16
0.0
 26
0.0
 36
1.0
 17
0.0
 27
0.0
 37
0.0
 40
140.0917662140766
 41
1.60267857142857
 42
50.0
 43
0.0
 44
0.0
 50
0.0
 51
0.0
 71
     0
 72
   100
 73
     1
 74
     3
 75
     0
 76
     0
 77
     0
 78
     0
281
     0
 65
     1
110
0.0
120
0.0
130
0.0
111
1.0
121
0.0
131
0.0
112
0.0
122
1.0
132
0.0
 79
     0
146
0.0
  0
ENDTAB
  0
TABLE
  2
LTYPE
  5
5
330
0
100
AcDbSymbolTable
 70
     8
  0
LTYPE
  5
14
330
5
100
AcDbSymbolTableRecord
100
AcDbLinetypeTableRecord
  2
ByBlock
 70
     0
  3

 72
    65
 73
     0
 40
0.0
  0
LTYPE
  5
15
330
5
100
AcDbSymbolTableRecord
100
AcDbLinetypeTableRecord
  2
ByLayer
 70
     0
  3

 72
    65
 73
     0
 40
0.0
  0
LTYPE
  5
16
330
5
100
AcDbSymbolTableRecord
100
AcDbLinetypeTableRecord
  2
Continuous
 70
     0
  3
Solid line
 72
    65
 73
     0
 40
0.0
  0
LTYPE
  5
3B
330
5
100
AcDbSymbolTableRecord
100
AcDbLinetypeTableRecord
  2
DASHED
 70
     0
  3
Dashed
 72
    65
 73
     2
 40
15.0
 49
7.0
 74
     0
 49
-8.0
 74
     0
  0
LTYPE
  5
3C
330
5
100
AcDbSymbolTableRecord
100
AcDbLinetypeTableRecord
  2
DOTTED
 70
     0
  3
Dotted
 72
    65
 73
     2
 40
1.0
 49
0.0
 74
     0
 49
-1.0
 74
     0
  0
LTYPE
  5
3D
330
5
100
AcDbSymbolTableRecord
100
AcDbLinetypeTableRecord
  2
DOT_CENTER
 70
     0
  3
Dot_Center
 72
    65
 73
     4
 40
14.0
 49
12.0
 74
     0
 49
-1.0
 74
     0
 49
0.0
 74
     0
 49
-1.0
 74
     0
  0
LTYPE
  5
3E
330
5
100
AcDbSymbolTableRecord
100
AcDbLinetypeTableRecord
  2
LONG_DASHED
 70
     0
  3
Long_Dashed
 72
    65
 73
     2
 40
15.0
 49
10.0
 74
     0
 49
-5.0
 74
     0
  0
LTYPE
  5
3F
330
5
100
AcDbSymbolTableRecord
100
AcDbLinetypeTableRecord
  2
DASH_CENTER
 70
     0
  3
Dash_Center
 72
    65
 73
     4
 40
14.0
 49
11.0
 74
     0
 49
-1.0
 74
     0
 49
1.0
 74
     0
 49
-1.0
 74
     0
  0
LTYPE
  5
40
330
5
100
AcDbSymbolTableRecord
100
AcDbLinetypeTableRecord
  2
PHANTOM
 70
     0
  3
Phantom
 72
    65
 73
     6
 40
13.0
 49
10.0
 74
     0
 49
-1.0
 74
     0
 49
0.0
 74
     0
 49
-1.0
 74
     0
 49
0.0
 74
     0
 49
-1.0
 74
     0
  0
LTYPE
  5
41
330
5
100
AcDbSymbolTableRecord
100
AcDbLinetypeTableRecord
  2
CENTER_DASH_DASH
 70
     0
  3
Center_Dash_Dash
 72
    65
 73
     6
 40
14.0
 49
9.0
 74
     0
 49
-1.0
 74
     0
 49
1.0
 74
     0
 49
-1.0
 74
     0
 49
1.0
 74
     0
 49
-1.0
 74
     0
  0
ENDTAB
  0
TABLE
  2
LAYER
  5
2
330
0
100
AcDbSymbolTable
 70
     7
  0
LAYER
  5
10
330
2
100
AcDbSymbolTableRecord
100
AcDbLayerTableRecord
  2
0
 70
     0
 62
     7
  6
Continuous
370
    -3
390
F
  0
LAYER
  5
42
330
2
100
AcDbSymbolTableRecord
100
AcDbLayerTableRecord
  2
1
 70
     0
 62
     7
  6
Continuous
370
    -3
390
F
  0
LAYER
  5
43
330
2
100
AcDbSymbolTableRecord
100
AcDbLayerTableRecord
  2
BEZUGSACHSEN
 70
     0
 62
     7
  6
Continuous
370
    -3
390
F
  0
LAYER
  5
44
330
2
100
AcDbSymbolTableRecord
100
AcDbLayerTableRecord
  2
DEFAULT_2
 70
     0
 62
     7
  6
Continuous
370
    -3
390
F
  0
LAYER
  5
45
330
2
100
AcDbSymbolTableRecord
100
AcDbLayerTableRecord
  2
FASEN
 70
     0
 62
     7
  6
Continuous
370
    -3
390
F
  0
LAYER
  5
46
330
2
100
AcDbSymbolTableRecord
100
AcDbLayerTableRecord
  2
GEWINDE
 70
     0
 62
     7
  6
Continuous
370
    -3
390
F
  0
LAYER
  5
47
330
2
100
AcDbSymbolTableRecord
100
AcDbLayerTableRecord
  2
RUNDUNGEN
 70
     0
 62
     7
  6
Continuous
370
    -3
390
F
  0
ENDTAB
  0
TABLE
  2
STYLE
  5
3
330
0
100
AcDbSymbolTable
 70
     2
  0
STYLE
  5
11
330
3
100
AcDbSymbolTableRecord
100
AcDbTextStyleTableRecord
  2
Standard
 70
     0
 40
0.0
 41
1.0
 50
0.0
 71
     0
 42
0.2
  3
txt
  4

  0
STYLE
  5
6E
330
3
100
AcDbSymbolTableRecord
100
AcDbTextStyleTableRecord
  2
CONVERTER_11
 70
     0
 40
0.0
 41
0.72
 50
0.0
 71
     0
 42
0.2
  3
txt.shx
  4

  0
ENDTAB
  0
TABLE
  2
VIEW
  5
6
330
0
100
AcDbSymbolTable
 70
     0
  0
ENDTAB
  0
TABLE
  2
UCS
  5
7
330
0
100
AcDbSymbolTable
 70
     0
  0
ENDTAB
  0
TABLE
  2
APPID
  5
9
330
0
100
AcDbSymbolTable
 70
     1
  0
APPID
  5
12
330
9
100
AcDbSymbolTableRecord
100
AcDbRegAppTableRecord
  2
ACAD
 70
     0
  0
ENDTAB
  0
TABLE
  2
DIMSTYLE
  5
A
330
0
100
AcDbSymbolTable
 70
     6
100
AcDbDimStyleTable
  0
DIMSTYLE
105
27
330
A
100
AcDbSymbolTableRecord
100
AcDbDimStyleTableRecord
  2
Standard
 70
     0
340
11
  0
DIMSTYLE
105
10D
102
{ACAD_REACTORS
330
10E
102
}
330
A
100
AcDbSymbolTableRecord
100
AcDbDimStyleTableRecord
  2
ME10_DIM_10
 70
     0
  3
\U+2300<>
 41
3.5
 42
2.0
 44
2.0
 71
     1
 73
     0
 74
     0
 77
     1
 78
     8
140
3.5
146
0.7
147
2.0
172
     1
173
     1
176
     2
177
     2
178
     3
271
     2
272
     0
340
6E
  0
DIMSTYLE
105
118
102
{ACAD_REACTORS
330
119
102
}
330
A
100
AcDbSymbolTableRecord
100
AcDbDimStyleTableRecord
  2
ME10_DIM_11
 70
     0
  3
\U+2300<>
 41
3.5
 42
2.0
 44
2.0
 71
     1
 73
     0
 74
     0
 77
     1
 78
     8
140
3.5
146
0.7
147
2.0
172
     1
173
     1
176
     2
177
     2
178
     3
271
     2
272
     0
340
6E
  0
DIMSTYLE
105
123
102
{ACAD_REACTORS
330
124
102
}
330
A
100
AcDbSymbolTableRecord
100
AcDbDimStyleTableRecord
  2
ME10_DIM_12
 70
     0
  3
<>
 41
3.5
 42
2.0
 44
2.0
 71
     1
 73
     0
 74
     0
 77
     1
 78
     8
140
3.5
146
0.7
147
2.0
172
     1
173
     1
176
     2
177
     2
178
     3
271
     2
272
     0
340
6E
  0
DIMSTYLE
105
12E
102
{ACAD_REACTORS
330
12F
102
}
330
A
100
AcDbSymbolTableRecord
100
AcDbDimStyleTableRecord
  2
ME10_DIM_13
 70
     0
  3
<>
 41
3.5
 42
2.0
 44
2.0
 71
     1
 73
     0
 74
     0
 77
     1
 78
     8
140
3.5
146
0.7
147
2.0
172
     1
173
     1
176
     2
177
     2
178
     3
271
     2
272
     0
340
6E
  0
DIMSTYLE
105
139
102
{ACAD_REACTORS
330
13A
102
}
330
A
100
AcDbSymbolTableRecord
100
AcDbDimStyleTableRecord
  2
ME10_DIM_14
 70
     0
  3
<>
 41
3.5
 42
2.0
 44
2.0
 71
     1
 73
     0
 74
     0
 77
     1
 78
     8
140
3.5
146
0.7
147
2.0
172
     1
173
     1
176
     2
177
     2
178
     3
271
     2
272
     0
340
6E
  0
ENDTAB
  0
TABLE
  2
BLOCK_RECORD
  5
1
330
0
100
AcDbSymbolTable
 70
     8
  0
BLOCK_RECORD
  5
1F
330
1
100
AcDbSymbolTableRecord
100
AcDbBlockTableRecord
  2
*Model_Space
340
22
  0
BLOCK_RECORD
  5
1B
330
1
100
AcDbSymbolTableRecord
100
AcDbBlockTableRecord
  2
*Paper_Space
340
1E
  0
BLOCK_RECORD
  5
23
330
1
100
AcDbSymbolTableRecord
100
AcDbBlockTableRecord
  2
*Paper_Space0
340
26
  0
BLOCK_RECORD
  5
48
330
1
100
AcDbSymbolTableRecord
100
AcDbBlockTableRecord
  2
Urheberrecht_DE-EN
340
0
102
{BLKREFS
331
6D
102
}
  0
BLOCK_RECORD
  5
104
330
1
100
AcDbSymbolTableRecord
100
AcDbBlockTableRecord
  2
*D2
340
0
  0
BLOCK_RECORD
  5
10F
330
1
100
AcDbSymbolTableRecord
100
AcDbBlockTableRecord
  2
*D3
340
0
  0
BLOCK_RECORD
  5
11A
330
1
100
AcDbSymbolTableRecord
100
AcDbBlockTableRecord
  2
*D4
340
0
  0
BLOCK_RECORD
  5
125
330
1
100
AcDbSymbolTableRecord
100
AcDbBlockTableRecord
  2
*D5
340
0
  0
BLOCK_RECORD
  5
130
330
1
100
AcDbSymbolTableRecord
100
AcDbBlockTableRecord
  2
*D6
340
0
  0
BLOCK_RECORD
  5
13B
330
1
100
AcDbSymbolTableRecord
100
AcDbBlockTableRecord
  2
*D7
340
0
102
{BLKREFS
331
141
102
}
  0
ENDTAB
  0
ENDSEC
  0
SECTION
  2
BLOCKS
  0
BLOCK
  5
20
330
1F
100
AcDbEntity
  8
0
100
AcDbBlockBegin
  2
*Model_Space
 70
     0
 10
0.0
 20
0.0
 30
0.0
  3
*Model_Space
  1

  0
ENDBLK
  5
21
330
1F
100
AcDbEntity
  8
0
100
AcDbBlockEnd
  0
BLOCK
  5
1C
330
1B
100
AcDbEntity
 67
     1
  8
0
100
AcDbBlockBegin
  2
*Paper_Space
 70
     0
 10
0.0
 20
0.0
 30
0.0
  3
*Paper_Space
  1

  0
ENDBLK
  5
1D
330
1B
100
AcDbEntity
 67
     1
  8
0
100
AcDbBlockEnd
  0
BLOCK
  5
24
330
23
100
AcDbEntity
  8
0
100
AcDbBlockBegin
  2
*Paper_Space0
 70
     0
 10
0.0
 20
0.0
 30
0.0
  3
*Paper_Space0
  1

  0
ENDBLK
  5
25
330
23
100
AcDbEntity
  8
0
100
AcDbBlockEnd
  0
BLOCK
  5
49
330
48
100
AcDbEntity
  8
0
100
AcDbBlockBegin
  2
Urheberrecht_DE-EN
 70
     0
 10
38.5645046460469
 20
317.659642279686
 30
0.0
  3
Urheberrecht_DE-EN
  1

  0
MTEXT
  5
6F
330
48
100
AcDbEntity
  8
1
 62
     1
100
AcDbMText
 10
38.5645046460469
 20
317.659642279686
 30
0.0
 40
2.0
 41
0.0
 71
     7
 72
     1
  1
We own the copyright of this document. It \Pdetermined and may neither be copied or \Pmade accessible to outsiders without our\Ppermission.
  7
CONVERTER_11
 11
0.0
 21
1.0
 31
0.0
 73
     1
 44
0.90036014405762
  0
MTEXT
  5
70
330
48
100
AcDbEntity
  8
1
 62
     1
100
AcDbMText
 10
38.5645046460469
 20
261.3702553623798
 30
0.0
 40
2.0
 41
0.0
 71
     7
 72
     1
  1
F\U+00fcr diese Unterlage behalten wir das Ur-\Pheberrecht. Sie darf nur f\U+00fcr den von uns \Pbestimmten Zweck benutzt und ohne unsere \PZustimmung weder vervielf\U+00e4ltigt noch\PDritten zug\U+00e4nglich gemacht werden.
  7
CONVERTER_11
 11
0.0
 21
1.0
 31
0.0
 73
     1
 44
0.90036014405762
  0
ENDBLK
  5
4A
330
48
100
AcDbEntity
  8
0
100
AcDbBlockEnd
  0
BLOCK
  5
10B
330
104
100
AcDbEntity
  8
0
100
AcDbBlockBegin
  2
*D2
 70
     1
 10
0.0
 20
0.0
 30
0.0
  3
*D2
  1

  0
LINE
  5
105
330
104
100
AcDbEntity
  8
1
  6
Continuous
 62
     2
100
AcDbLine
 10
210.445658355819
 20
317.0311496253
 30
0.0
 11
210.445658355819
 21
297.0311496253
 31
0.0
  0
LINE
  5
106
330
104
100
AcDbEntity
  8
1
  6
Continuous
 62
     2
100
AcDbLine
 10
201.3528506424
 20
317.0311496253
 30
0.0
 11
212.445658355819
 21
317.0311496253
 31
0.0
  0
LINE
  5
107
330
104
100
AcDbEntity
  8
1
  6
Continuous
 62
     2
100
AcDbLine
 10
201.3528506424
 20
297.0311496253
 30
0.0
 11
212.445658355819
 21
297.0311496253
 31
0.0
  0
SOLID
  5
108
330
104
100
AcDbEntity
  8
1
 62
     2
100
AcDbTrace
 10
210.9064420973749
 20
313.5311496253
 30
0.0
 11
209.9848746142631
 21
313.5311496253
 31
0.0
 12
210.445658355819
 22
317.0311496253
 32
0.0
 13
210.445658355819
 23
317.0311496253
 33
0.0
  0
SOLID
  5
109
330
104
100
AcDbEntity
  8
1
 62
     2
100
AcDbTrace
 10
209.9848746142631
 20
300.5311496253
 30
0.0
 11
210.9064420973749
 21
300.5311496253
 31
0.0
 12
210.445658355819
 22
297.0311496253
 32
0.0
 13
210.445658355819
 23
297.0311496253
 33
0.0
  0
MTEXT
  5
10A
330
104
100
AcDbEntity
  8
1
 62
     3
100
AcDbMText
 10
208.445658355819
 20
297.917401950219
 30
0.0
 40
3.5
 41
0.0
 71
     7
 72
     1
  1
\C3;%%c\C3;\C3;20\C2;\H2.45;\S^ ;\C3;
  7
CONVERTER_11
 11
0.0
 21
1.0
 31
0.0
 73
     1
 44
0.60024009603842
  0
ENDBLK
  5
10C
330
104
100
AcDbEntity
  8
0
100
AcDbBlockEnd
  0
BLOCK
  5
116
330
10F
100
AcDbEntity
  8
0
100
AcDbBlockBegin
  2
*D3
 70
     1
 10
0.0
 20
0.0
 30
0.0
  3
*D3
  1

  0
LINE
  5
110
330
10F
100
AcDbEntity
  8
1
  6
Continuous
 62
     2
100
AcDbLine
 10
219.31540526444
 20
333.0311496253
 30
0.0
 11
219.31540526444
 21
281.0311496253
 31
0.0
  0
LINE
  5
111
330
10F
100
AcDbEntity
  8
1
  6
Continuous
 62
     2
100
AcDbLine
 10
188.2641144567
 20
333.0311496253
 30
0.0
 11
221.31540526444
 21
333.0311496253
 31
0.0
  0
LINE
  5
112
330
10F
100
AcDbEntity
  8
1
  6
Continuous
 62
     2
100
AcDbLine
 10
188.2641144567
 20
281.0311496253
 30
0.0
 11
221.31540526444
 21
281.0311496253
 31
0.0
  0
SOLID
  5
113
330
10F
100
AcDbEntity
  8
1
 62
     2
100
AcDbTrace
 10
219.7761890059959
 20
329.5311496253
 30
0.0
 11
218.8546215228841
 21
329.5311496253
 31
0.0
 12
219.31540526444
 22
333.0311496253
 32
0.0
 13
219.31540526444
 23
333.0311496253
 33
0.0
  0
SOLID
  5
114
330
10F
100
AcDbEntity
  8
1
 62
     2
100
AcDbTrace
 10
218.8546215228841
 20
284.5311496253
 30
0.0
 11
219.7761890059959
 21
284.5311496253
 31
0.0
 12
219.31540526444
 22
281.0311496253
 32
0.0
 13
219.31540526444
 23
281.0311496253
 33
0.0
  0
MTEXT
  5
115
330
10F
100
AcDbEntity
  8
1
 62
     3
100
AcDbMText
 10
217.31540526444
 20
298.174496063512
 30
0.0
 40
3.5
 41
0.0
 71
     7
 72
     1
  1
\C3;%%c\C3;\C3;52\C2;\H2.45;\S^ ;\C3;
  7
CONVERTER_11
 11
0.0
 21
1.0
 31
0.0
 73
     1
 44
0.60024009603842
  0
ENDBLK
  5
117
330
10F
100
AcDbEntity
  8
0
100
AcDbBlockEnd
  0
BLOCK
  5
121
330
11A
100
AcDbEntity
  8
0
100
AcDbBlockBegin
  2
*D4
 70
     1
 10
0.0
 20
0.0
 30
0.0
  3
*D4
  1

  0
LINE
  5
11B
330
11A
100
AcDbEntity
  8
1
  6
Continuous
 62
     2
100
AcDbLine
 10
199.3528506424
 20
364.490030384578
 30
0.0
 11
128.3528506424
 21
364.490030384578
 31
0.0
  0
LINE
  5
11C
330
11A
100
AcDbEntity
  8
1
  6
Continuous
 62
     2
100
AcDbLine
 10
199.3528506424
 20
328.3940793645
 30
0.0
 11
199.3528506424
 21
366.490030384578
 31
0.0
  0
LINE
  5
11D
330
11A
100
AcDbEntity
  8
1
  6
Continuous
 62
     2
100
AcDbLine
 10
128.3528506424
 20
359.0311127041
 30
0.0
 11
128.3528506424
 21
366.490030384578
 31
0.0
  0
SOLID
  5
11E
330
11A
100
AcDbEntity
  8
1
 62
     2
100
AcDbTrace
 10
195.8528506424
 20
364.0292466430221
 30
0.0
 11
195.8528506424
 21
364.9508141261339
 31
0.0
 12
199.3528506424
 22
364.490030384578
 32
0.0
 13
199.3528506424
 23
364.490030384578
 33
0.0
  0
SOLID
  5
11F
330
11A
100
AcDbEntity
  8
1
 62
     2
100
AcDbTrace
 10
131.8528506424
 20
364.9508141261339
 30
0.0
 11
131.8528506424
 21
364.0292466430221
 31
0.0
 12
128.3528506424
 22
364.490030384578
 32
0.0
 13
128.3528506424
 23
364.490030384578
 33
0.0
  0
MTEXT
  5
120
330
11A
100
AcDbEntity
  8
1
 62
     3
100
AcDbMText
 10
161.845982679781
 20
366.490030384578
 30
0.0
 40
3.5
 41
0.0
 71
     7
 72
     1
  1
\C3;\C3;\C3;71\C2;\H2.45;\S^ ;\C3;
  7
CONVERTER_11
 11
0.9999999999970619
 21
2.424068405545306E-6
 31
0.0
 73
     1
 44
0.60024009603842
  0
ENDBLK
  5
122
330
11A
100
AcDbEntity
  8
0
100
AcDbBlockEnd
  0
BLOCK
  5
12C
330
125
100
AcDbEntity
  8
0
100
AcDbBlockBegin
  2
*D5
 70
     1
 10
0.0
 20
0.0
 30
0.0
  3
*D5
  1

  0
LINE
  5
126
330
125
100
AcDbEntity
  8
1
  6
Continuous
 62
     2
100
AcDbLine
 10
199.3528506424
 20
371.431571443499
 30
0.0
 11
99.3528506424
 21
371.431571443499
 31
0.0
  0
LINE
  5
127
330
125
100
AcDbEntity
  8
1
  6
Continuous
 62
     2
100
AcDbLine
 10
199.3528506424
 20
328.3940793645
 30
0.0
 11
199.3528506424
 21
373.431571443499
 31
0.0
  0
LINE
  5
128
330
125
100
AcDbEntity
  8
1
  6
Continuous
 62
     2
100
AcDbLine
 10
99.3528506424
 20
359.0311496253
 30
0.0
 11
99.3528506424
 21
373.431571443499
 31
0.0
  0
SOLID
  5
129
330
125
100
AcDbEntity
  8
1
 62
     2
100
AcDbTrace
 10
195.8528506424
 20
370.9707877019432
 30
0.0
 11
195.8528506424
 21
371.8923551850549
 31
0.0
 12
199.3528506424
 22
371.431571443499
 32
0.0
 13
199.3528506424
 23
371.431571443499
 33
0.0
  0
SOLID
  5
12A
330
125
100
AcDbEntity
  8
1
 62
     2
100
AcDbTrace
 10
102.8528506424
 20
371.8923551850549
 30
0.0
 11
102.8528506424
 21
370.9707877019432
 31
0.0
 12
99.3528506424
 22
371.431571443499
 32
0.0
 13
99.3528506424
 23
371.431571443499
 33
0.0
  0
MTEXT
  5
12B
330
125
100
AcDbEntity
  8
1
 62
     3
100
AcDbMText
 10
148.116918185054
 20
373.431571443499
 30
0.0
 40
3.5
 41
0.0
 71
     7
 72
     1
  1
\C3;\C3;\C3;100\C2;\H2.45;\S^ ;\C3;
  7
CONVERTER_11
 11
0.9999999999970619
 21
2.424068405545306E-6
 31
0.0
 73
     1
 44
0.60024009603842
  0
ENDBLK
  5
12D
330
125
100
AcDbEntity
  8
0
100
AcDbBlockEnd
  0
BLOCK
  5
137
330
130
100
AcDbEntity
  8
0
100
AcDbBlockBegin
  2
*D6
 70
     1
 10
0.0
 20
0.0
 30
0.0
  3
*D6
  1

  0
LINE
  5
131
330
130
100
AcDbEntity
  8
1
  6
Continuous
 62
     2
100
AcDbLine
 10
199.3528506424
 20
378.887300729006
 30
0.0
 11
49.3528506424
 21
378.887300729006
 31
0.0
  0
LINE
  5
132
330
130
100
AcDbEntity
  8
1
  6
Continuous
 62
     2
100
AcDbLine
 10
199.3528506424
 20
328.3940793645
 30
0.0
 11
199.3528506424
 21
380.887300729006
 31
0.0
  0
LINE
  5
133
330
130
100
AcDbEntity
  8
1
  6
Continuous
 62
     2
100
AcDbLine
 10
49.3528506424
 20
342.6313411878
 30
0.0
 11
49.3528506424
 21
380.887300729006
 31
0.0
  0
SOLID
  5
134
330
130
100
AcDbEntity
  8
1
 62
     2
100
AcDbTrace
 10
195.8528506424
 20
378.4265169874501
 30
0.0
 11
195.8528506424
 21
379.3480844705618
 31
0.0
 12
199.3528506424
 22
378.887300729006
 32
0.0
 13
199.3528506424
 23
378.887300729006
 33
0.0
  0
SOLID
  5
135
330
130
100
AcDbEntity
  8
1
 62
     2
100
AcDbTrace
 10
52.8528506424
 20
379.3480844705618
 30
0.0
 11
52.8528506424
 21
378.4265169874501
 31
0.0
 12
49.3528506424
 22
378.887300729006
 32
0.0
 13
49.3528506424
 23
378.887300729006
 33
0.0
  0
MTEXT
  5
136
330
130
100
AcDbEntity
  8
1
 62
     3
100
AcDbMText
 10
126.778106781705
 20
380.887300729006
 30
0.0
 40
3.5
 41
0.0
 71
     7
 72
     1
  1
\C3;\C3;\C3;150\C2;\H2.45;\S^ ;\C3;
  7
CONVERTER_11
 11
0.9999999999970619
 21
2.424068405545306E-6
 31
0.0
 73
     1
 44
0.60024009603842
  0
ENDBLK
  5
138
330
130
100
AcDbEntity
  8
0
100
AcDbBlockEnd
  0
BLOCK
  5
13F
330
13B
100
AcDbEntity
  8
0
100
AcDbBlockBegin
  2
*D7
 70
     1
 10
0.0
 20
0.0
 30
0.0
  3
*D7
  1

  0
LINE
  5
13C
330
13B
100
AcDbEntity
  8
1
  6
Continuous
 62
     2
100
AcDbLine
 10
139.210364110119
 20
340.7935154622946
 30
0.0
 11
128.8305103199622
 21
335.898442892518
 31
0.0
  0
SOLID
  5
13D
330
13B
100
AcDbEntity
  8
1
 62
     2
100
AcDbTrace
 10
131.7996052280741
 20
337.8081017843378
 30
0.0
 11
132.1926918632632
 21
336.974573426593
 31
0.0
 12
128.8305103199622
 22
335.898442892518
 32
0.0
 13
128.8305103199622
 23
335.898442892518
 33
0.0
  0
MTEXT
  5
13E
330
13B
100
AcDbEntity
  8
1
 62
     3
100
AcDbMText
 10
131.6461283785086
 20
339.4375147998213
 30
0.0
 40
3.5
 41
0.0
 71
     7
 72
     1
  1
\C3; R\C3;\C3;5\C2;\H2.45;\S^ ;\C3;
  7
CONVERTER_11
 11
0.9044680644875512
 21
0.4265413465563954
 31
0.0
 73
     1
 44
0.60024009603842
  0
ENDBLK
  5
140
330
13B
100
AcDbEntity
  8
0
100
AcDbBlockEnd
  0
ENDSEC
  0
SECTION
  2
ENTITIES
  0
INSERT
  5
6D
330
1F
100
AcDbEntity
  8
0
100
AcDbBlockReference
  2
Urheberrecht_DE-EN
 10
38.5645046460469
 20
317.659642279686
 30
0.0
  0
LINE
  5
71
330
1F
100
AcDbEntity
  8
BEZUGSACHSEN
  6
Continuous
 62
     7
100
AcDbLine
 10
49.3528506424
 20
273.4309801067
 30
0.0
 11
49.3528506424
 21
295.0211496253
 31
0.0
  0
LINE
  5
72
330
1F
100
AcDbEntity
  8
BEZUGSACHSEN
  6
Continuous
 62
     7
100
AcDbLine
 10
49.3528506424
 20
319.0411496253
 30
0.0
 11
49.3528506424
 21
340.6313411878
 31
0.0
  0
LINE
  5
73
330
1F
100
AcDbEntity
  8
BEZUGSACHSEN
  6
Continuous
 62
     9
100
AcDbLine
 10
51.2527761577
 20
342.6288358936
 30
0.0
 11
51.2527761577
 21
322.7076820115
 31
0.0
  0
LINE
  5
74
330
1F
100
AcDbEntity
  8
BEZUGSACHSEN
  6
Continuous
 62
     9
100
AcDbLine
 10
51.2527761577
 20
291.354617239
 30
0.0
 11
51.2527761577
 21
271.433463357
 31
0.0
  0
LINE
  5
75
330
1F
100
AcDbEntity
  8
BEZUGSACHSEN
  6
Continuous
 62
     7
100
AcDbLine
 10
51.3528506424
 20
294.6275096769
 30
0.0
 11
51.3528506424
 21
297.0211496253
 31
0.0
  0
LINE
  5
76
330
1F
100
AcDbEntity
  8
BEZUGSACHSEN
  6
Continuous
 62
     7
100
AcDbLine
 10
51.3528506424
 20
317.0411496253
 30
0.0
 11
51.3528506424
 21
319.4347895736
 31
0.0
  0
LINE
  5
77
330
1F
100
AcDbEntity
  8
BEZUGSACHSEN
  6
Continuous
 62
     9
100
AcDbLine
 10
57.3528506424
 20
290.6725020378
 30
0.0
 11
57.3528506424
 21
297.0211496253
 31
0.0
  0
LINE
  5
78
330
1F
100
AcDbEntity
  8
BEZUGSACHSEN
  6
Continuous
 62
     9
100
AcDbLine
 10
57.3528506424
 20
317.0411496253
 30
0.0
 11
57.3528506424
 21
323.3897972127
 31
0.0
  0
LINE
  5
79
330
1F
100
AcDbEntity
  8
BEZUGSACHSEN
  6
Continuous
 62
     7
100
AcDbLine
 10
59.3528506424
 20
319.9008051511
 30
0.0
 11
59.3528506424
 21
294.1614940995
 31
0.0
  0
LINE
  5
7A
330
1F
100
AcDbEntity
  8
BEZUGSACHSEN
  6
Continuous
 62
     7
100
AcDbLine
 10
50.6198035694
 20
292.0211496253
 30
0.0
 11
50.498693318
 21
291.7888136298
 31
0.0
  0
LINE
  5
7B
330
1F
100
AcDbEntity
  8
BEZUGSACHSEN
  6
Continuous
 62
     7
100
AcDbLine
 10
50.498693318
 20
322.2734856207
 30
0.0
 11
50.6198035694
 21
322.0411496253
 31
0.0
  0
LINE
  5
7C
330
1F
100
AcDbEntity
  8
BEZUGSACHSEN
  6
Continuous
 62
     7
100
AcDbLine
 10
116.1052553782
 20
257.0311496253
 30
0.0
 11
99.3528506424
 21
257.0311496253
 31
0.0
  0
LINE
  5
7D
330
1F
100
AcDbEntity
  8
BEZUGSACHSEN
  6
Continuous
 62
     7
100
AcDbLine
 10
122.6004459066
 20
257.0311496253
 30
0.0
 11
128.3528506424
 21
257.0311496253
 31
0.0
  0
LINE
  5
7E
330
1F
100
AcDbEntity
  8
BEZUGSACHSEN
  6
Continuous
 62
     7
100
AcDbLine
 10
49.3528506424
 20
295.0211496253
 30
0.0
 11
51.3528506424
 21
297.0211496253
 31
0.0
  0
LINE
  5
7F
330
1F
100
AcDbEntity
  8
BEZUGSACHSEN
  6
Continuous
 62
     7
100
AcDbLine
 10
118.4778506424
 20
261.0311496253
 30
0.0
 11
120.2278506424
 21
261.0311496253
 31
0.0
  0
LINE
  5
80
330
1F
100
AcDbEntity
  8
BEZUGSACHSEN
  6
Continuous
 62
     7
100
AcDbLine
 10
51.3528506424
 20
317.0411496253
 30
0.0
 11
49.3528506424
 21
319.0411496253
 31
0.0
  0
LWPOLYLINE
  5
81
330
1F
100
AcDbEntity
  8
BEZUGSACHSEN
  6
DOT_CENTER
 62
     7
100
AcDbPolyline
 90
        2
 70
     0
 43
0.25
 10
84.3528506424
 20
307.0311496253
 10
84.3528506424
 20
298.0311496253
  0
LWPOLYLINE
  5
82
330
1F
100
AcDbEntity
  8
BEZUGSACHSEN
  6
DOT_CENTER
 62
     7
100
AcDbPolyline
 90
        2
 70
     0
 43
0.25
 10
84.3528506424
 20
307.0311496253
 10
84.3528506424
 20
316.0311496253
  0
LINE
  5
83
330
1F
100
AcDbEntity
  8
FASEN
  6
Continuous
 62
     7
100
AcDbLine
 10
104.7543366068
 20
268.2013929946
 30
0.0
 11
116.1052553782
 21
268.2013929946
 31
0.0
  0
LINE
  5
84
330
1F
100
AcDbEntity
  8
0
  6
Continuous
 62
     7
100
AcDbLine
 10
122.6004459066
 20
268.2013929946
 30
0.0
 11
128.3528506424
 21
268.2013929946
 31
0.0
  0
LINE
  5
85
330
1F
100
AcDbEntity
  8
BEZUGSACHSEN
  6
Continuous
 62
     7
100
AcDbLine
 10
98.6522793537
 20
269.3488996253
 30
0.0
 11
97.7309133015
 21
269.3488996253
 31
0.0
  0
LINE
  5
86
330
1F
100
AcDbEntity
  8
BEZUGSACHSEN
  6
Continuous
 62
     7
100
AcDbLine
 10
96.8528506424
 20
269.1488996253
 30
0.0
 11
51.2527761577
 21
271.433463357
 31
0.0
  0
LINE
  5
87
330
1F
100
AcDbEntity
  8
BEZUGSACHSEN
  6
Continuous
 62
     7
100
AcDbLine
 10
97.4720942564
 20
269.3148254516
 30
0.0
 11
96.8528506424
 21
269.1488996253
 31
0.0
  0
LINE
  5
88
330
1F
100
AcDbEntity
  8
0
  6
Continuous
 62
     7
100
AcDbLine
 10
118.4778506424
 20
273.5087690415
 30
0.0
 11
120.2278506424
 21
273.5087690415
 31
0.0
  0
LINE
  5
89
330
1F
100
AcDbEntity
  8
FASEN
  6
Continuous
 62
     7
100
AcDbLine
 10
112.3247245643
 20
275.1311496253
 30
0.0
 11
128.3528506424
 21
275.1311496253
 31
0.0
  0
LINE
  5
8A
330
1F
100
AcDbEntity
  8
0
  6
Continuous
 62
     7
100
AcDbLine
 10
112.3247245643
 20
275.5311496253
 30
0.0
 11
128.3528506424
 21
275.5311496253
 31
0.0
  0
LINE
  5
8B
330
1F
100
AcDbEntity
  8
BEZUGSACHSEN
  6
Continuous
 62
     7
100
AcDbLine
 10
96.8528506424
 20
344.9133996253
 30
0.0
 11
96.8528506424
 21
269.1488996253
 31
0.0
  0
LINE
  5
8C
330
1F
100
AcDbEntity
  8
BEZUGSACHSEN
  6
Continuous
 62
     9
100
AcDbLine
 10
97.4720942564
 20
269.3148254516
 30
0.0
 11
97.4720942564
 21
344.747473799
 31
0.0
  0
LINE
  5
8D
330
1F
100
AcDbEntity
  8
BEZUGSACHSEN
  6
Continuous
 62
     9
100
AcDbLine
 10
97.7309133015
 20
269.3488996253
 30
0.0
 11
97.7309133015
 21
344.7133996253
 31
0.0
  0
LINE
  5
8E
330
1F
100
AcDbEntity
  8
BEZUGSACHSEN
  6
Continuous
 62
     9
100
AcDbLine
 10
98.6522793537
 20
269.3488996253
 30
0.0
 11
98.6522793537
 21
344.7133996253
 31
0.0
  0
LINE
  5
8F
330
1F
100
AcDbEntity
  8
BEZUGSACHSEN
  6
Continuous
 62
     7
100
AcDbLine
 10
99.3528506424
 20
357.0311496253
 30
0.0
 11
99.3528506424
 21
257.0311496253
 31
0.0
  0
LINE
  5
90
330
1F
100
AcDbEntity
  8
BEZUGSACHSEN
  6
Continuous
 62
     7
100
AcDbLine
 10
121.2278506424
 20
354.6537448895
 30
0.0
 11
122.6004459066
 21
357.0311496253
 31
0.0
  0
LINE
  5
91
330
1F
100
AcDbEntity
  8
0
  6
Continuous
 62
     7
100
AcDbLine
 10
133.3528506424
 20
281.0311496253
 30
0.0
 11
167.3528506424
 21
281.0311496253
 31
0.0
  0
LINE
  5
92
330
1F
100
AcDbEntity
  8
0
  6
Continuous
 62
     7
100
AcDbLine
 10
181.3528506424
 20
281.0311496253
 30
0.0
 11
186.2641144567
 21
281.0311496253
 31
0.0
  0
LINE
  5
93
330
1F
100
AcDbEntity
  8
BEZUGSACHSEN
  6
Continuous
 62
     7
100
AcDbLine
 10
121.2278506424
 20
259.4085543611
 30
0.0
 11
122.6004459066
 21
257.0311496253
 31
0.0
  0
LWPOLYLINE
  5
94
330
1F
100
AcDbEntity
  8
BEZUGSACHSEN
  6
DOT_CENTER
 62
     7
100
AcDbPolyline
 90
        2
 70
     0
 43
0.25
 10
106.3528506424
 20
349.1805214806
 10
106.3528506424
 20
360.0311496253
  0
LINE
  5
95
330
1F
100
AcDbEntity
  8
BEZUGSACHSEN
  6
Continuous
 62
     9
100
AcDbLine
 10
49.3528506424
 20
293.5849656562
 30
0.0
 11
51.3528506424
 21
294.6275096769
 31
0.0
  0
LINE
  5
96
330
1F
100
AcDbEntity
  8
BEZUGSACHSEN
  6
Continuous
 62
     9
100
AcDbLine
 10
51.3528506424
 20
319.4347895736
 30
0.0
 11
49.3528506424
 21
320.4773335943
 31
0.0
  0
LINE
  5
97
330
1F
100
AcDbEntity
  8
FASEN
  6
Continuous
 62
     9
100
AcDbLine
 10
112.3247245643
 20
275.1311496253
 30
0.0
 11
112.3247245643
 21
275.5311496253
 31
0.0
  0
LINE
  5
98
330
1F
100
AcDbEntity
  8
BEZUGSACHSEN
  6
Continuous
 62
     9
100
AcDbLine
 10
58.9066965893
 20
292.0211496253
 30
0.0
 11
50.6198035694
 21
292.0211496253
 31
0.0
  0
LINE
  5
99
330
1F
100
AcDbEntity
  8
FASEN
  6
Continuous
 62
     9
100
AcDbLine
 10
114.3528506424
 20
297.4311496253
 30
0.0
 11
114.3528506424
 21
297.0311496253
 31
0.0
  0
LINE
  5
9A
330
1F
100
AcDbEntity
  8
FASEN
  6
Continuous
 62
     9
100
AcDbLine
 10
114.3528506424
 20
316.6311496253
 30
0.0
 11
114.3528506424
 21
317.0311496253
 31
0.0
  0
LINE
  5
9B
330
1F
100
AcDbEntity
  8
0
  6
Continuous
 62
     7
100
AcDbLine
 10
116.1052553782
 20
357.0311496253
 30
0.0
 11
116.1052553782
 21
317.0311496253
 31
0.0
  0
LINE
  5
9C
330
1F
100
AcDbEntity
  8
0
  6
Continuous
 62
     7
100
AcDbLine
 10
116.1052553782
 20
297.0311496253
 30
0.0
 11
116.1052553782
 21
275.5311496253
 31
0.0
  0
LINE
  5
9D
330
1F
100
AcDbEntity
  8
0
  6
Continuous
 62
     7
100
AcDbLine
 10
116.1052553782
 20
268.2013929946
 30
0.0
 11
116.1052553782
 21
257.0311496253
 31
0.0
  0
LINE
  5
9E
330
1F
100
AcDbEntity
  8
0
  6
Continuous
 62
     7
100
AcDbLine
 10
117.4778506424
 20
354.6537114629
 30
0.0
 11
117.4778506424
 21
317.0311496253
 31
0.0
  0
LINE
  5
9F
330
1F
100
AcDbEntity
  8
0
  6
Continuous
 62
     7
100
AcDbLine
 10
117.4778506424
 20
297.0311496253
 30
0.0
 11
117.4778506424
 21
275.5311496253
 31
0.0
  0
LINE
  5
A0
330
1F
100
AcDbEntity
  8
0
  6
Continuous
 62
     7
100
AcDbLine
 10
117.4778506424
 20
259.408591895
 30
0.0
 11
117.4778506424
 21
272.1492058721
 31
0.0
  0
LINE
  5
A1
330
1F
100
AcDbEntity
  8
0
  6
Continuous
 62
     9
100
AcDbLine
 10
118.4778506424
 20
261.0311496253
 30
0.0
 11
118.4778506424
 21
273.5087690415
 31
0.0
  0
LINE
  5
A2
330
1F
100
AcDbEntity
  8
0
  6
Continuous
 62
     9
100
AcDbLine
 10
118.4778506424
 20
275.5311496253
 30
0.0
 11
118.4778506424
 21
297.0311496253
 31
0.0
  0
LINE
  5
A3
330
1F
100
AcDbEntity
  8
0
  6
Continuous
 62
     9
100
AcDbLine
 10
118.4778506424
 20
317.0311496253
 30
0.0
 11
118.4778506424
 21
353.0311496253
 31
0.0
  0
LINE
  5
A4
330
1F
100
AcDbEntity
  8
BEZUGSACHSEN
  6
Continuous
 62
     7
100
AcDbLine
 10
57.3528506424
 20
297.0211496253
 30
0.0
 11
51.3528506424
 21
297.0211496253
 31
0.0
  0
LINE
  5
A5
330
1F
100
AcDbEntity
  8
0
  6
Continuous
 62
     7
100
AcDbLine
 10
114.3528506424
 20
297.0311496253
 30
0.0
 11
128.3528506424
 21
297.0311496253
 31
0.0
  0
LWPOLYLINE
  5
A6
330
1F
100
AcDbEntity
  8
DEFAULT_2
  6
DASHED
 62
     8
100
AcDbPolyline
 90
        2
 70
     0
 43
0.35
 10
144.3528506424
 20
297.0311496253
 10
167.3528506424
 20
297.0311496253
  0
LWPOLYLINE
  5
A7
330
1F
100
AcDbEntity
  8
DEFAULT_2
  6
DASHED
 62
     8
100
AcDbPolyline
 90
        2
 70
     0
 43
0.35
 10
167.3528506424
 20
297.0311496253
 10
199.3528506424
 20
297.0311496253
  0
LINE
  5
A8
330
1F
100
AcDbEntity
  8
FASEN
  6
Continuous
 62
     7
100
AcDbLine
 10
128.3528506424
 20
297.4311496253
 30
0.0
 11
114.3528506424
 21
297.4311496253
 31
0.0
  0
LINE
  5
A9
330
1F
100
AcDbEntity
  8
0
  6
Continuous
 62
     9
100
AcDbLine
 10
120.2278506424
 20
261.0311496253
 30
0.0
 11
120.2278506424
 21
273.5087690415
 31
0.0
  0
LINE
  5
AA
330
1F
100
AcDbEntity
  8
0
  6
Continuous
 62
     9
100
AcDbLine
 10
120.2278506424
 20
275.5311496253
 30
0.0
 11
120.2278506424
 21
297.0311496253
 31
0.0
  0
LINE
  5
AB
330
1F
100
AcDbEntity
  8
0
  6
Continuous
 62
     9
100
AcDbLine
 10
120.2278506424
 20
317.0311496253
 30
0.0
 11
120.2278506424
 21
353.0311496253
 31
0.0
  0
LINE
  5
AC
330
1F
100
AcDbEntity
  8
0
  6
Continuous
 62
     7
100
AcDbLine
 10
121.2278506424
 20
259.408591895
 30
0.0
 11
121.2278506424
 21
272.1492058721
 31
0.0
  0
LINE
  5
AD
330
1F
100
AcDbEntity
  8
0
  6
Continuous
 62
     7
100
AcDbLine
 10
121.2278506424
 20
275.5311496253
 30
0.0
 11
121.2278506424
 21
297.0311496253
 31
0.0
  0
LINE
  5
AE
330
1F
100
AcDbEntity
  8
0
  6
Continuous
 62
     7
100
AcDbLine
 10
121.2278506424
 20
317.0311496253
 30
0.0
 11
121.2278506424
 21
354.6537114629
 31
0.0
  0
LINE
  5
AF
330
1F
100
AcDbEntity
  8
0
  6
Continuous
 62
     7
100
AcDbLine
 10
122.6004459066
 20
357.0311496253
 30
0.0
 11
122.6004459066
 21
317.0311496253
 31
0.0
  0
LINE
  5
B0
330
1F
100
AcDbEntity
  8
0
  6
Continuous
 62
     7
100
AcDbLine
 10
122.6004459066
 20
297.0311496253
 30
0.0
 11
122.6004459066
 21
275.5311496253
 31
0.0
  0
LINE
  5
B1
330
1F
100
AcDbEntity
  8
0
  6
Continuous
 62
     7
100
AcDbLine
 10
122.6004459066
 20
268.2013929946
 30
0.0
 11
122.6004459066
 21
257.0311496253
 31
0.0
  0
LWPOLYLINE
  5
B2
330
1F
100
AcDbEntity
  8
BEZUGSACHSEN
  6
DOT_CENTER
 62
     7
100
AcDbPolyline
 90
        2
 70
     0
 43
0.25
 10
202.3528506424
 20
307.0311496253
 10
46.3528506424
 20
307.0311496253
  0
LINE
  5
B3
330
1F
100
AcDbEntity
  8
0
  6
Continuous
 62
     7
100
AcDbLine
 10
128.3528506424
 20
357.0311127041
 30
0.0
 11
128.3528506424
 21
317.0311496253
 31
0.0
  0
LINE
  5
B4
330
1F
100
AcDbEntity
  8
0
  6
Continuous
 62
     7
100
AcDbLine
 10
128.3528506424
 20
297.0311496253
 30
0.0
 11
128.3528506424
 21
275.5311496253
 31
0.0
  0
LINE
  5
B5
330
1F
100
AcDbEntity
  8
0
  6
Continuous
 62
     7
100
AcDbLine
 10
128.3528506424
 20
268.2013929946
 30
0.0
 11
128.3528506424
 21
257.031151493
 31
0.0
  0
LINE
  5
B6
330
1F
100
AcDbEntity
  8
FASEN
  6
Continuous
 62
     7
100
AcDbLine
 10
128.3528506424
 20
268.2013929946
 30
0.0
 11
128.3528506424
 21
275.5311496253
 31
0.0
  0
LINE
  5
B7
330
1F
100
AcDbEntity
  8
FASEN
  6
Continuous
 62
     7
100
AcDbLine
 10
128.3528506424
 20
297.0311496253
 30
0.0
 11
128.3528506424
 21
317.0311496253
 31
0.0
  0
LINE
  5
B8
330
1F
100
AcDbEntity
  8
RUNDUNGEN
  6
Continuous
 62
     9
100
AcDbLine
 10
133.3528506424
 20
333.0311496253
 30
0.0
 11
133.3528506424
 21
281.0311496253
 31
0.0
  0
LINE
  5
B9
330
1F
100
AcDbEntity
  8
FASEN
  6
Continuous
 62
     7
100
AcDbLine
 10
114.3528506424
 20
316.6311496253
 30
0.0
 11
128.3528506424
 21
316.6311496253
 31
0.0
  0
LWPOLYLINE
  5
BA
330
1F
100
AcDbEntity
  8
DEFAULT_2
  6
DASHED
 62
     8
100
AcDbPolyline
 90
        2
 70
     0
 43
0.35
 10
199.3528506424
 20
317.0311496253
 10
144.3528506424
 20
317.0311496253
  0
LINE
  5
BB
330
1F
100
AcDbEntity
  8
0
  6
Continuous
 62
     7
100
AcDbLine
 10
114.3528506424
 20
317.0311496253
 30
0.0
 11
128.3528506424
 21
317.0311496253
 31
0.0
  0
LINE
  5
BC
330
1F
100
AcDbEntity
  8
BEZUGSACHSEN
  6
Continuous
 62
     7
100
AcDbLine
 10
57.3528506424
 20
317.0411496253
 30
0.0
 11
51.3528506424
 21
317.0411496253
 31
0.0
  0
LINE
  5
BD
330
1F
100
AcDbEntity
  8
BEZUGSACHSEN
  6
Continuous
 62
     7
100
AcDbLine
 10
116.1052553782
 20
257.0311496253
 30
0.0
 11
117.4778506424
 21
259.4085543611
 31
0.0
  0
LINE
  5
BE
330
1F
100
AcDbEntity
  8
BEZUGSACHSEN
  6
Continuous
 62
     9
100
AcDbLine
 10
50.6198035694
 20
322.0411496253
 30
0.0
 11
58.9066965893
 21
322.0411496253
 31
0.0
  0
LINE
  5
BF
330
1F
100
AcDbEntity
  8
BEZUGSACHSEN
  6
Continuous
 62
     7
100
AcDbLine
 10
116.1052553782
 20
357.0311496253
 30
0.0
 11
117.4778506424
 21
354.6537448895
 31
0.0
  0
LWPOLYLINE
  5
C0
330
1F
100
AcDbEntity
  8
DEFAULT_2
  6
DASHED
 62
     8
100
AcDbPolyline
 90
        2
 70
     0
 43
0.35
 10
144.3528506424
 20
317.0311496253
 10
144.3528506424
 20
297.0311496253
  0
LINE
  5
C1
330
1F
100
AcDbEntity
  8
RUNDUNGEN
  6
Continuous
 62
     7
100
AcDbLine
 10
186.2641144567
 20
333.0311496253
 30
0.0
 11
133.3528506424
 21
333.0311496253
 31
0.0
  0
LINE
  5
C2
330
1F
100
AcDbEntity
  8
0
  6
Continuous
 62
     7
100
AcDbLine
 10
133.3528506424
 20
333.0311496253
 30
0.0
 11
186.2641144567
 21
333.0311496253
 31
0.0
  0
LINE
  5
C3
330
1F
100
AcDbEntity
  8
BEZUGSACHSEN
  6
Continuous
 62
     7
100
AcDbLine
 10
97.4720942564
 20
344.747473799
 30
0.0
 11
96.8528506424
 21
344.9133996253
 31
0.0
  0
LINE
  5
C4
330
1F
100
AcDbEntity
  8
BEZUGSACHSEN
  6
Continuous
 62
     7
100
AcDbLine
 10
96.8528506424
 20
344.9133996253
 30
0.0
 11
51.2527761577
 21
342.6288358936
 31
0.0
  0
LINE
  5
C5
330
1F
100
AcDbEntity
  8
BEZUGSACHSEN
  6
Continuous
 62
     7
100
AcDbLine
 10
98.6522793537
 20
344.7133996253
 30
0.0
 11
97.7309133015
 21
344.7133996253
 31
0.0
  0
LWPOLYLINE
  5
C6
330
1F
100
AcDbEntity
  8
GEWINDE
  6
DASHED
 62
     8
100
AcDbPolyline
 90
        2
 70
     0
 43
0.35
 10
167.3528506424
 20
297.0311496253
 10
167.3528506424
 20
281.0311496253
  0
LINE
  5
C7
330
1F
100
AcDbEntity
  8
BEZUGSACHSEN
  6
Continuous
 62
     7
100
AcDbLine
 10
118.4778506424
 20
353.0311496253
 30
0.0
 11
120.2278506424
 21
353.0311496253
 31
0.0
  0
LWPOLYLINE
  5
C8
330
1F
100
AcDbEntity
  8
GEWINDE
  6
DOT_CENTER
 62
     7
100
AcDbPolyline
 90
        2
 70
     0
 43
0.25
 10
174.3528506424
 20
278.0311496253
 10
174.3528506424
 20
302.8921072152
  0
LINE
  5
C9
330
1F
100
AcDbEntity
  8
0
  6
Continuous
 62
     7
100
AcDbLine
 10
186.6867327184
 20
281.1248418382
 30
0.0
 11
198.7754689041
 21
286.761912099
 31
0.0
  0
LINE
  5
CA
330
1F
100
AcDbEntity
  8
BEZUGSACHSEN
  6
Continuous
 62
     7
100
AcDbLine
 10
116.1052553782
 20
357.0311496253
 30
0.0
 11
111.3528506424
 21
357.0311496253
 31
0.0
  0
LINE
  5
CB
330
1F
100
AcDbEntity
  8
BEZUGSACHSEN
  6
Continuous
 62
     7
100
AcDbLine
 10
101.3528506424
 20
357.0311496253
 30
0.0
 11
99.3528506424
 21
357.0311496253
 31
0.0
  0
LINE
  5
CC
330
1F
100
AcDbEntity
  8
BEZUGSACHSEN
  6
Continuous
 62
     7
100
AcDbLine
 10
122.6004459066
 20
357.0311496253
 30
0.0
 11
128.3528506424
 21
357.0311496253
 31
0.0
  0
LINE
  5
CD
330
1F
100
AcDbEntity
  8
RUNDUNGEN
  6
Continuous
 62
     7
100
AcDbLine
 10
198.7754689041
 20
327.3003871515
 30
0.0
 11
186.6867327184
 21
332.9374574123
 31
0.0
  0
LINE
  5
CE
330
1F
100
AcDbEntity
  8
0
  6
Continuous
 62
     7
100
AcDbLine
 10
186.6867327184
 20
332.9374574123
 30
0.0
 11
198.7754689041
 21
327.3003871515
 31
0.0
  0
LWPOLYLINE
  5
CF
330
1F
100
AcDbEntity
  8
GEWINDE
  6
DASHED
 62
     8
100
AcDbPolyline
 90
        2
 70
     0
 43
0.35
 10
181.3528506424
 20
297.0311496253
 10
181.3528506424
 20
281.0311496253
  0
LINE
  5
D0
330
1F
100
AcDbEntity
  8
RUNDUNGEN
  6
Continuous
 62
     9
100
AcDbLine
 10
186.2641144567
 20
281.0311496253
 30
0.0
 11
186.2641144567
 21
333.0311496253
 31
0.0
  0
LINE
  5
D1
330
1F
100
AcDbEntity
  8
RUNDUNGEN
  6
Continuous
 62
     9
100
AcDbLine
 10
186.6867327184
 20
281.1248418382
 30
0.0
 11
186.6867327184
 21
332.9374574123
 31
0.0
  0
LINE
  5
D2
330
1F
100
AcDbEntity
  8
RUNDUNGEN
  6
Continuous
 62
     9
100
AcDbLine
 10
198.7754689041
 20
286.761912099
 30
0.0
 11
198.7754689041
 21
327.3003871515
 31
0.0
  0
LINE
  5
D3
330
1F
100
AcDbEntity
  8
RUNDUNGEN
  6
Continuous
 62
     7
100
AcDbLine
 10
199.3528506424
 20
326.3940793645
 30
0.0
 11
199.3528506424
 21
287.6682198861
 31
0.0
  0
LWPOLYLINE
  5
D4
330
1F
100
AcDbEntity
  8
GEWINDE
  6
DASHED
 62
     8
100
AcDbPolyline
 90
        2
 70
     0
 43
0.35
 10
182.3528506424
 20
297.0311496253
 10
182.3528506424
 20
281.0311496253
  0
LWPOLYLINE
  5
D5
330
1F
100
AcDbEntity
  8
GEWINDE
  6
DASHED
 62
     8
100
AcDbPolyline
 90
        2
 70
     0
 43
0.35
 10
166.3528506424
 20
297.0311496253
 10
166.3528506424
 20
281.0311496253
  0
ARC
  5
D6
330
1F
100
AcDbEntity
  8
FASEN
  6
Continuous
 62
     7
100
AcDbCircle
 10
117.2535046652
 20
282.5624128952
 30
0.0
 40
19.03859487300018
100
AcDbArc
 50
227.4837701983004
 51
228.9651953373314
  0
ARC
  5
D7
330
1F
100
AcDbEntity
  8
FASEN
  6
Continuous
 62
     7
100
AcDbCircle
 10
112.3247245643
 20
267.5311496253
 30
0.0
 40
8.0
100
AcDbArc
 50
90.0
 51
172.8323734889967
  0
ARC
  5
D8
330
1F
100
AcDbEntity
  8
FASEN
  6
Continuous
 62
     7
100
AcDbCircle
 10
112.3247245643
 20
267.5311496253
 30
0.0
 40
7.599982194900008
100
AcDbArc
 50
90.0
 51
174.9405171273009
  0
ARC
  5
D9
330
1F
100
AcDbEntity
  8
BEZUGSACHSEN
  6
Continuous
 62
     7
100
AcDbCircle
 10
57.3528506424
 20
299.0211496253
 30
0.0
 40
2.0
100
AcDbArc
 50
270.0
 51
355.2355361864946
  0
ARC
  5
DA
330
1F
100
AcDbEntity
  8
BEZUGSACHSEN
  6
Continuous
 62
     7
100
AcDbCircle
 10
51.3528506424
 20
273.4309580622
 30
0.0
 40
2.0
100
AcDbArc
 50
180.0
 51
267.1318795135584
  0
ARC
  5
DB
330
1F
100
AcDbEntity
  8
BEZUGSACHSEN
  6
Continuous
 62
     7
100
AcDbCircle
 10
118.4778506424
 20
260.0311496253
 30
0.0
 40
1.0
100
AcDbArc
 50
90.0
 51
180.0
  0
ARC
  5
DC
330
1F
100
AcDbEntity
  8
BEZUGSACHSEN
  6
Continuous
 62
     7
100
AcDbCircle
 10
97.7309133015
 20
268.3488996253
 30
0.0
 40
1.0
100
AcDbArc
 50
90.0
 51
104.999999999699
  0
ARC
  5
DD
330
1F
100
AcDbEntity
  8
BEZUGSACHSEN
  6
Continuous
 62
     7
100
AcDbCircle
 10
98.6522793537
 20
268.3488996253
 30
0.0
 40
1.000000000000047
100
AcDbArc
 50
45.52164291270143
 51
90.0
  0
ARC
  5
DE
330
1F
100
AcDbEntity
  8
0
  6
Continuous
 62
     7
100
AcDbCircle
 10
-125.2449292401
 20
376.4656172156
 30
0.0
 40
264.5204223901483
100
AcDbArc
 50
335.8400764706188
 51
336.5770705490999
  0
ARC
  5
DF
330
1F
100
AcDbEntity
  8
BEZUGSACHSEN
  6
Continuous
 62
     7
100
AcDbCircle
 10
106.3680586535
 20
407.0839193921
 30
0.0
 40
50.30340021035248
100
AcDbArc
 50
264.2781515101899
 51
269.9826780126003
  0
ARC
  5
E0
330
1F
100
AcDbEntity
  8
BEZUGSACHSEN
  6
Continuous
 62
     7
100
AcDbCircle
 10
106.3376426413
 20
407.0839191914
 30
0.0
 40
50.30340000969741
100
AcDbArc
 50
270.0173219760583
 51
275.7218485012678
  0
ARC
  5
E1
330
1F
100
AcDbEntity
  8
0
  6
Continuous
 62
     7
100
AcDbCircle
 10
114.3528506424
 20
307.0311496253
 30
0.0
 40
10.0
100
AcDbArc
 50
90.0
 51
270.0
  0
ARC
  5
E2
330
1F
100
AcDbEntity
  8
FASEN
  6
Continuous
 62
     7
100
AcDbCircle
 10
114.3528506424
 20
307.0311496253
 30
0.0
 40
9.599999195900011
100
AcDbArc
 50
90.0
 51
270.0
  0
ARC
  5
E3
330
1F
100
AcDbEntity
  8
BEZUGSACHSEN
  6
Continuous
 62
     7
100
AcDbCircle
 10
57.3528506424
 20
315.0411496253
 30
0.0
 40
1.99999999999998
100
AcDbArc
 50
4.76446378498717
 51
90.0
  0
ARC
  5
E4
330
1F
100
AcDbEntity
  8
BEZUGSACHSEN
  6
Continuous
 62
     7
100
AcDbCircle
 10
51.3528506424
 20
340.6313411883
 30
0.0
 40
2.000000000047404
100
AcDbArc
 50
92.86812048629818
 51
180.0000000143238
  0
ARC
  5
E5
330
1F
100
AcDbEntity
  8
BEZUGSACHSEN
  6
Continuous
 62
     7
100
AcDbCircle
 10
118.4778506424
 20
354.0311496253
 30
0.0
 40
1.0
100
AcDbArc
 50
180.0
 51
270.0
  0
ARC
  5
E6
330
1F
100
AcDbEntity
  8
BEZUGSACHSEN
  6
Continuous
 62
     7
100
AcDbCircle
 10
97.7309133015
 20
345.7133996253
 30
0.0
 40
1.000000000009914
100
AcDbArc
 50
255.0000000003019
 51
270.0
  0
ARC
  5
E7
330
1F
100
AcDbEntity
  8
BEZUGSACHSEN
  6
Continuous
 62
     7
100
AcDbCircle
 10
98.6522793537
 20
345.7133996253
 30
0.0
 40
1.0
100
AcDbArc
 50
270.0
 51
314.4783570872985
  0
ARC
  5
E8
330
1F
100
AcDbEntity
  8
BEZUGSACHSEN
  6
Continuous
 62
     7
100
AcDbCircle
 10
235.6828972406
 20
-1299.0116096647
 30
0.0
 40
1632.172763697999
100
AcDbArc
 50
96.2726189838
 51
96.48809068979999
  0
ARC
  5
E9
330
1F
100
AcDbEntity
  8
RUNDUNGEN
  6
Continuous
 62
     7
100
AcDbCircle
 10
133.3528506424
 20
276.0311496253
 30
0.0
 40
5.0
100
AcDbArc
 50
90.0
 51
180.0
  0
ARC
  5
EA
330
1F
100
AcDbEntity
  8
RUNDUNGEN
  6
Continuous
 62
     7
100
AcDbCircle
 10
198.3528506424
 20
287.6682198861
 30
0.0
 40
1.000000000040203
100
AcDbArc
 50
294.9999999963525
 51
0.0
  0
ARC
  5
EB
330
1F
100
AcDbEntity
  8
BEZUGSACHSEN
  6
Continuous
 62
     7
100
AcDbCircle
 10
120.2278506424
 20
260.0311496253
 30
0.0
 40
1.0
100
AcDbArc
 50
0.0
 51
90.0
  0
ARC
  5
EC
330
1F
100
AcDbEntity
  8
RUNDUNGEN
  6
Continuous
 62
     7
100
AcDbCircle
 10
186.2641144567
 20
282.0311496253
 30
0.0
 40
1.0
100
AcDbArc
 50
270.0
 51
294.9999999963525
  0
ARC
  5
ED
330
1F
100
AcDbEntity
  8
BEZUGSACHSEN
  6
Continuous
 62
     7
100
AcDbCircle
 10
235.6828972406
 20
1913.073908915
 30
0.0
 40
1632.1727636978
100
AcDbArc
 50
263.5119093102
 51
263.7273810162
  0
ARC
  5
EE
330
1F
100
AcDbEntity
  8
0
  6
Continuous
 62
     7
100
AcDbCircle
 10
363.9506305249
 20
376.4656172156
 30
0.0
 40
264.5204223902001
100
AcDbArc
 50
203.4229294508999
 51
204.1599235293812
  0
ARC
  5
EF
330
1F
100
AcDbEntity
  8
RUNDUNGEN
  6
Continuous
 62
     7
100
AcDbCircle
 10
133.3528506424
 20
338.0311496253
 30
0.0
 40
5.0
100
AcDbArc
 50
180.0
 51
270.0
  0
ARC
  5
F0
330
1F
100
AcDbEntity
  8
RUNDUNGEN
  6
Continuous
 62
     7
100
AcDbCircle
 10
198.3528506424
 20
326.3940793645
 30
0.0
 40
1.0
100
AcDbArc
 50
0.0
 51
65.00000000122631
  0
ARC
  5
F1
330
1F
100
AcDbEntity
  8
BEZUGSACHSEN
  6
Continuous
 62
     7
100
AcDbCircle
 10
120.2278506424
 20
354.0311496253
 30
0.0
 40
1.0
100
AcDbArc
 50
270.0
 51
0.0
  0
ARC
  5
F2
330
1F
100
AcDbEntity
  8
RUNDUNGEN
  6
Continuous
 62
     7
100
AcDbCircle
 10
186.2641144567
 20
332.0311496253
 30
0.0
 40
0.999999999949584
100
AcDbArc
 50
65.00000000122631
 51
90.0
  0
CIRCLE
  5
F3
330
1F
100
AcDbEntity
  8
BEZUGSACHSEN
  6
Continuous
 62
     7
100
AcDbCircle
 10
84.3528506424
 20
307.0311496253
 30
0.0
 40
6.0
  0
SPLINE
  5
F4
330
1F
100
AcDbEntity
  8
0
  6
Continuous
 62
     2
100
AcDbSpline
210
0.0
220
0.0
230
1.0
 70
     8
 71
     3
 72
    63
 73
    59
 74
    57
 42
0.0000000001
 43
0.0000000001
 44
0.00000001
 40
0.0
 40
0.0
 40
0.0
 40
0.0
 40
0.0126840443141984
 40
0.0508785474876297
 40
0.1147024256986356
 40
0.2038959688587011
 40
0.3181963421960359
 40
0.4577055436879087
 40
0.6224320606736351
 40
0.8116407744268639
 40
1.024568448268186
 40
1.261073839524745
 40
1.520912153884053
 40
1.802786434888238
 40
2.105203857158282
 40
2.426915992625241
 40
2.76672181682367
 40
3.123336045564265
 40
3.495254340738652
 40
3.880141267466468
 40
4.275826840341638
 40
4.681598858602714
 40
5.096711817720454
 40
5.518791112129475
 40
5.94555940475949
 40
6.376728144932737
 40
6.812164317946328
 40
7.250348030504854
 40
7.689653973826276
 40
8.129403951625013
 40
8.569155363725116
 40
9.008462842425939
 40
9.446645174595846
 40
9.882078566360862
 40
10.31324531643313
 40
10.74001279875914
 40
11.16209205827826
 40
11.57720396355636
 40
11.98297281300028
 40
12.37865620573817
 40
12.76354454659948
 40
13.13546425347735
 40
13.49207635625382
 40
13.83187942948132
 40
14.15359149506389
 40
14.45600996673799
 40
14.73788413593799
 40
14.99772088152539
 40
15.23422376983802
 40
15.44714982518332
 40
15.63635911113401
 40
15.80108634895124
 40
15.94059436740217
 40
16.05489290771942
 40
16.14408542272514
 40
16.20790803076488
 40
16.24610010975691
 40
16.25878270418962
 40
16.25878270418962
 40
16.25878270418962
 40
16.25878270418962
 10
182.3528506424
 20
281.031138324
 30
0.0
 10
182.3488102066404
 20
281.0323837114855
 30
0.0
 10
182.332603112312
 20
281.0373792400999
 30
0.0
 10
182.2960472348257
 20
281.0485827609207
 30
0.0
 10
182.2350840807094
 20
281.0671822928368
 30
0.0
 10
182.1497888349984
 20
281.0929623128396
 30
0.0
 10
182.0402480490025
 20
281.1257223018293
 30
0.0
 10
181.90642204566
 20
281.1651473544622
 30
0.0
 10
181.7484292992775
 20
281.2108932249927
 30
0.0
 10
181.5666357622775
 20
281.2624224906572
 30
0.0
 10
181.3614581355959
 20
281.3191763165396
 30
0.0
 10
181.1331305628197
 20
281.3805265103921
 30
0.0
 10
180.8820718018815
 20
281.4458150570702
 30
0.0
 10
180.609122528079
 20
281.5141808528356
 30
0.0
 10
180.3154562138032
 20
281.5846655016121
 30
0.0
 10
180.0022269751158
 20
281.6563101710976
 30
0.0
 10
179.6705370985037
 20
281.7281731384315
 30
0.0
 10
179.3215858921167
 20
281.7992807591108
 30
0.0
 10
178.9569643688656
 20
281.8685932054963
 30
0.0
 10
178.5785983763031
 20
281.935156206276
 30
0.0
 10
178.1881634474025
 20
281.9980157652332
 30
0.0
 10
177.7868485808514
 20
282.0564012337675
 30
0.0
 10
177.3759381941811
 20
282.1095925539624
 30
0.0
 10
176.9572731381762
 20
282.1569850263379
 30
0.0
 10
176.532547928512
 20
282.1979103140042
 30
0.0
 10
176.1027485115199
 20
282.2319541855726
 30
0.0
 10
175.6686265929735
 20
282.2588014412009
 30
0.0
 10
175.2313930931322
 20
282.2782200288989
 30
0.0
 10
174.7924457351821
 20
282.2899119596716
 30
0.0
 10
174.3528375521774
 20
282.2938186207104
 30
0.0
 10
173.9132288627665
 20
282.2899114171647
 30
0.0
 10
173.4742809862662
 20
282.2782190704456
 30
0.0
 10
173.0370483800411
 20
282.2588000805125
 30
0.0
 10
172.6029285394838
 20
282.231952450423
 30
0.0
 10
172.1731310085425
 20
282.1979083396927
 30
0.0
 10
171.7484067728323
 20
282.1569827960477
 30
0.0
 10
171.3297423902451
 20
282.1095900027066
 30
0.0
 10
170.9188334503858
 20
282.0563985663119
 30
0.0
 10
170.5175207261922
 20
281.9980131969139
 30
0.0
 10
170.1270871391118
 20
281.9351535526802
 30
0.0
 10
169.7487209869301
 20
281.8685902193741
 30
0.0
 10
169.3840992629791
 20
281.7992775817495
 30
0.0
 10
169.0351492175186
 20
281.7281700471787
 30
0.0
 10
168.703461002416
 20
281.6563071980444
 30
0.0
 10
168.390232378614
 20
281.5846624902091
 30
0.0
 10
168.0965658045474
 20
281.5141776846009
 30
0.0
 10
167.8236167650018
 20
281.4458118188803
 30
0.0
 10
167.5725593851145
 20
281.3805235027639
 30
0.0
 10
167.3442336619306
 20
281.3191737351042
 30
0.0
 10
167.1390571933393
 20
281.2624201600549
 30
0.0
 10
166.9572637786656
 20
281.2108908607688
 30
0.0
 10
166.7992710058291
 20
281.1651449498825
 30
0.0
 10
166.6654457446851
 20
281.1257200851637
 30
0.0
 10
166.5559062607543
 20
281.09296044733
 30
0.0
 10
166.4706123352589
 20
281.0671808192035
 30
0.0
 10
166.409650687646
 20
281.0485817438678
 30
0.0
 10
166.373096459605
 20
281.037378692827
 30
0.0
 10
166.3568906129215
 20
281.0323835005154
 30
0.0
 10
166.3528506424
 20
281.0311382444
 30
0.0
 11
182.3528506424
 21
281.031138324
 31
0.0
 11
182.3407288382969
 21
281.0348728715563
 31
0.0
 11
182.304213602925
 21
281.04607365985
 31
0.0
 11
182.2431658305099
 21
281.0646923846465
 31
0.0
 11
182.1577889305545
 21
281.0905046510221
 31
0.0
 11
182.0482786234896
 21
281.1232471004052
 31
0.0
 11
181.9144573581817
 21
281.1626766103223
 31
0.0
 11
181.7562284111849
 21
281.2084851873636
 31
0.0
 11
181.5741916440979
 21
281.2600851174863
 31
0.0
 11
181.3689677603188
 21
281.3168420713693
 31
0.0
 11
181.1405642440659
 21
281.3782149795351
 31
0.0
 11
180.8890882164166
 21
281.4436042533252
 31
0.0
 11
180.6156585620667
 21
281.5120829683667
 31
0.0
 11
180.3215908910729
 21
281.5826556413271
 31
0.0
 11
180.0079759513167
 21
281.65437988875
 31
0.0
 11
179.6758725288792
 21
281.7263195507209
 31
0.0
 11
179.3264364248166
 21
281.7975102616167
 31
0.0
 11
178.9610607555092
 21
281.866964120858
 31
0.0
 11
178.5819908836567
 21
281.9336272937477
 31
0.0
 11
178.1913332633811
 21
281.9965057185229
 31
0.0
 11
177.7897864681729
 21
282.0549103592773
 31
0.0
 11
177.3781087091479
 21
282.1082038068259
 31
0.0
 11
176.9587046355101
 21
282.1556501321306
 31
0.0
 11
176.5339026379148
 21
282.1965700347858
 31
0.0
 11
176.1040796343004
 21
282.230609248445
 31
0.0
 11
175.6694739197209
 21
282.2574892340014
 31
0.0
 11
175.2317207633667
 21
282.2769093280667
 31
0.0
 11
174.7925706598312
 21
282.2886096871354
 31
0.0
 11
174.3528380311834
 21
282.2925158715166
 31
0.0
 11
173.9131039728313
 21
282.2886091632812
 31
0.0
 11
173.4739523460667
 21
282.2769083277333
 31
0.0
 11
173.0362005887875
 21
282.257487843064
 31
0.0
 11
172.6015976794329
 21
282.2306075557784
 31
0.0
 11
172.1717766910457
 21
282.1965681035255
 31
0.0
 11
171.7469755345399
 21
282.1556479202139
 31
0.0
 11
171.3275715374251
 21
282.1082012288614
 31
0.0
 11
170.9158948627605
 21
282.0549076134773
 31
0.0
 11
170.5143512382001
 21
281.9965031893812
 31
0.0
 11
170.12369581466
 21
281.9336248358143
 31
0.0
 11
169.7446245967762
 21
281.8669611522747
 31
0.0
 11
169.37924757385
 21
281.7975068544833
 31
0.0
 11
169.0298135866771
 21
281.7263164024896
 31
0.0
 11
168.6977128973667
 21
281.6543771174333
 31
0.0
 11
168.3840980627458
 21
281.5826527237646
 31
0.0
 11
168.0900293972
 21
281.5120796980834
 31
0.0
 11
167.8165998810751
 21
281.4436008913336
 31
0.0
 11
167.5651254010008
 21
281.3782118996852
 31
0.0
 11
167.3367243219021
 21
281.3168395667756
 31
0.0
 11
167.1315020156021
 21
281.2600829808862
 31
0.0
 11
166.9494647139192
 21
281.2084828385802
 31
0.0
 11
166.7912350847517
 21
281.1626740257557
 31
0.0
 11
166.6574149635459
 21
281.1232448186552
 31
0.0
 11
166.5479064211955
 21
281.0905028658888
 31
0.0
 11
166.462530508163
 21
281.0646908879153
 31
0.0
 11
166.4014839550083
 21
281.0460725194333
 31
0.0
 11
166.3649710512823
 21
281.0348723962542
 31
0.0
 11
166.3528506424
 21
281.0311382444
 31
0.0
  0
SPLINE
  5
F5
330
1F
100
AcDbEntity
  8
GEWINDE
  6
Continuous
 62
     7
100
AcDbSpline
210
0.0
220
0.0
230
1.0
 70
     8
 71
     3
 72
    23
 73
    19
 74
    17
 42
0.0000000001
 43
0.0000000001
 44
0.00000001
 40
0.0
 40
0.0
 40
0.0
 40
0.0
 40
0.2768983474397434
 40
0.5538075402672358
 40
1.329559633430714
 40
2.105363781626628
 40
3.249973119640173
 40
4.39466451939098
 40
5.740138029591875
 40
7.085646352511052
 40
8.431154720862738
 40
9.776628276444997
 40
10.92131966406232
 40
12.0659289900621
 40
12.84173321701939
 40
13.61748538899529
 40
13.8943946357296
 40
14.17129303697287
 40
14.17129303697287
 40
14.17129303697287
 40
14.17129303697287
 10
167.3528506424
 20
281.0311496253
 30
0.0
 10
167.4420385143534
 20
281.0549161031761
 30
0.0
 10
167.6204177515172
 20
281.1024499897994
 30
0.0
 10
168.0499345178148
 20
281.2116990163963
 30
0.0
 10
168.6431274986147
 20
281.3520224382385
 30
0.0
 10
169.5230668925577
 20
281.5352884862542
 30
0.0
 10
170.5301633787258
 20
281.7092838743354
 30
0.0
 10
171.7321402932555
 20
281.8645110817748
 30
0.0
 10
173.0072011419056
 20
281.9669003625675
 30
0.0
 10
174.3528504914622
 20
282.0033162882842
 30
0.0
 10
175.6984998566762
 20
281.9669003795728
 30
0.0
 10
176.9735607326173
 20
281.8645111098765
 30
0.0
 10
178.1755376554428
 20
281.7092839113424
 30
0.0
 10
179.1826341610615
 20
281.5352885290648
 30
0.0
 10
180.0625736042268
 20
281.352022479307
 30
0.0
 10
180.6557666544982
 20
281.2116990447815
 30
0.0
 10
181.0852834813206
 20
281.1024500038953
 30
0.0
 10
181.2636627531369
 20
281.0549161078718
 30
0.0
 10
181.3528506424
 20
281.0311496253
 30
0.0
 11
167.3528506424
 21
281.0311496253
 31
0.0
 11
167.6205465883735
 21
281.1019421060038
 31
0.0
 11
167.8888821155589
 21
281.1703142196361
 31
0.0
 11
168.643865297104
 21
281.348616506866
 31
0.0
 11
169.4033909917239
 21
281.5067076058257
 31
0.0
 11
170.531349560442
 21
281.7012326785619
 31
0.0
 11
171.6666561665522
 21
281.8475108751127
 31
0.0
 11
173.0078283153845
 21
281.9550107999908
 31
0.0
 11
174.3528504764044
 21
281.9911775445231
 31
0.0
 11
175.6978726833039
 21
281.9550108160062
 31
0.0
 11
177.0390448784706
 21
281.8475109012014
 31
0.0
 11
178.1743514737806
 21
281.7012327157775
 31
0.0
 11
179.3023100324334
 21
281.5067076553677
 31
0.0
 11
180.0618358055803
 21
281.3486165471723
 31
0.0
 11
180.8168190648547
 21
281.1703142461754
 31
0.0
 11
181.0851546444339
 21
281.1019421198456
 31
0.0
 11
181.3528506424
 21
281.0311496253
 31
0.0
  0
SPLINE
  5
F6
330
1F
100
AcDbEntity
  8
BEZUGSACHSEN
  6
Continuous
 62
     7
100
AcDbSpline
210
0.0
220
0.0
230
1.0
 70
     8
 71
     3
 72
    27
 73
    23
 74
    21
 42
0.0000000001
 43
0.0000000001
 44
0.00000001
 40
0.0
 40
0.0
 40
0.0
 40
0.0
 40
0.1219765139516402
 40
0.2439857714749119
 40
0.3566831398333665
 40
0.4694418149629723
 40
0.5721317672948609
 40
0.6745445881155945
 40
0.7225206521221934
 40
0.7704888797708483
 40
0.8171412936045852
 40
0.8637898734267666
 40
0.9102318000825865
 40
0.9566751324135885
 40
1.004175175748941
 40
1.051683100138884
 40
1.153672388740057
 40
1.25604937667768
 40
1.370745138102738
 40
1.485385401889932
 40
1.611534903927477
 40
1.737631875972424
 40
1.737631875972424
 40
1.737631875972424
 40
1.737631875972424
 10
50.498693318
 20
291.7888136298
 30
0.0
 10
50.46343830039661
 20
291.7685341045351
 30
0.0
 10
50.3929188012762
 20
291.7279696101371
 30
0.0
 10
50.28526639809038
 20
291.6771737492453
 30
0.0
 10
50.17710838221905
 20
291.6354221133762
 30
0.0
 10
50.07152916125066
 20
291.6060075282349
 30
0.0
 10
49.96669761610493
 20
291.5890929408466
 30
0.0
 10
49.88196994625557
 20
291.5872277176186
 30
0.0
 10
49.81614600985178
 20
291.5941830256381
 30
0.0
 10
49.76943880663774
 20
291.6033801527915
 30
0.0
 10
49.72425818933369
 20
291.6169135977789
 30
0.0
 10
49.68111857868194
 20
291.6347068565849
 30
0.0
 10
49.6401641021038
 20
291.6569352142886
 30
0.0
 10
49.60151667563306
 20
291.6834702459906
 30
0.0
 10
49.56561059700094
 20
291.7141655235209
 30
0.0
 10
49.52017127547039
 20
291.7617029966386
 30
0.0
 10
49.4716281354099
 20
291.8308723637486
 30
0.0
 10
49.42540242647686
 20
291.9270304184773
 30
0.0
 10
49.39143655267863
 20
292.0326058514671
 30
0.0
 10
49.36848112846168
 20
292.1490235423726
 30
0.0
 10
49.35503657009757
 20
292.2707708510302
 30
0.0
 10
49.3535791837996
 20
292.3548742145479
 30
0.0
 10
49.3528506424
 20
292.3969171391
 30
0.0
 11
50.498693318
 21
291.7888136298
 31
0.0
 11
50.39214869393946
 21
291.7294291786399
 31
0.0
 11
50.28185580477079
 21
291.677258904343
 31
0.0
 11
50.17653779691836
 21
291.6371488799487
 31
0.0
 11
50.0678140683753
 21
291.6072545716496
 31
0.0
 11
49.96634991625416
 21
291.5914352118565
 31
0.0
 11
49.86395037566977
 21
291.5897859827745
 31
0.0
 11
49.81624651945721
 21
291.5948893953599
 31
0.0
 11
49.76919574919577
 21
291.6042261978939
 31
0.0
 11
49.72451618176235
 21
291.6176494601828
 31
0.0
 11
49.68141004516642
 21
291.6354806403793
 31
0.0
 11
49.64058745236955
 21
291.6576249052993
 31
0.0
 11
49.6023001958234
 21
291.683913098546
 31
0.0
 11
49.56616309881356
 21
291.7147410783138
 31
0.0
 11
49.53331059844668
 21
291.7490589468298
 31
0.0
 11
49.47413820422371
 21
291.8321278504658
 31
0.0
 11
49.4292384806491
 21
291.9241336246439
 31
0.0
 11
49.39360032106902
 21
292.0331521518336
 31
0.0
 11
49.37074875767163
 21
292.1454917981367
 31
0.0
 11
49.35698200133221
 21
292.2708878638015
 31
0.0
 11
49.3528506424
 21
292.3969171391
 31
0.0
  0
SPLINE
  5
F7
330
1F
100
AcDbEntity
  8
BEZUGSACHSEN
  6
Continuous
 62
     7
100
AcDbSpline
210
0.0
220
0.0
230
1.0
 70
     8
 71
     3
 72
    15
 73
    11
 74
     9
 42
0.0000000001
 43
0.0000000001
 44
0.00000001
 40
0.0
 40
0.0
 40
0.0
 40
0.0
 40
0.1110371613695914
 40
0.2222522337394115
 40
0.3333980191928325
 40
0.4445069474965869
 40
0.5556201065426463
 40
0.6667525642360632
 40
0.7778876033493329
 40
0.8889820915763147
 40
0.8889820915763147
 40
0.8889820915763147
 40
0.8889820915763147
 10
51.2527761577
 20
291.354617239
 30
0.0
 10
51.21613443081849
 20
291.3601493918195
 30
0.0
 10
51.14279226728479
 20
291.3712225614354
 30
0.0
 10
51.03627571728525
 20
291.404241125019
 30
0.0
 10
50.93386280953994
 20
291.447831412483
 30
0.0
 10
50.83641284391049
 20
291.5016109202975
 30
0.0
 10
50.74410804818203
 20
291.5637060556587
 30
0.0
 10
50.65711142005807
 20
291.6329927292913
 30
0.0
 10
50.57485866457819
 20
291.70787468087
 30
0.0
 10
50.52407867820075
 20
291.7618372623945
 30
0.0
 10
50.498693318
 20
291.7888136298
 30
0.0
 11
51.2527761577
 21
291.354617239
 31
0.0
 11
51.14343387258977
 21
291.3739437982357
 31
0.0
 11
51.03694191902148
 21
291.4060102315801
 31
0.0
 11
50.93467373841432
 21
291.4495372905131
 31
0.0
 11
50.83727087195977
 21
291.5029963922195
 31
0.0
 11
50.74499910517315
 21
291.5648999879734
 31
0.0
 11
50.65790200176438
 21
291.6339254740694
 31
0.0
 11
50.57586209727783
 21
291.7088951412058
 31
0.0
 11
50.498693318
 21
291.7888136298
 31
0.0
  0
SPLINE
  5
F8
330
1F
100
AcDbEntity
  8
BEZUGSACHSEN
  6
Continuous
 62
     7
100
AcDbSpline
210
0.0
220
0.0
230
1.0
 70
     8
 71
     3
 72
    27
 73
    23
 74
    21
 42
0.0000000001
 43
0.0000000001
 44
0.00000001
 40
0.0
 40
0.0
 40
0.0
 40
0.0
 40
0.1260969825550563
 40
0.2522464959406161
 40
0.3668867953082863
 40
0.4815825894691077
 40
0.5839596007297538
 40
0.6859489161603922
 40
0.7334568410791406
 40
0.7809568849230965
 40
0.8274002264735053
 40
0.8738421607620457
 40
0.9204907319727507
 40
0.9671431400291223
 40
1.015111401917243
 40
1.063087497217179
 40
1.165500418820056
 40
1.268190479056304
 40
1.380949154008053
 40
1.493646517894082
 40
1.615655563853472
 40
1.737631867703367
 40
1.737631867703367
 40
1.737631867703367
 40
1.737631867703367
 10
49.3528506424
 20
321.6653821114
 30
0.0
 10
49.35357918387634
 20
321.7074250394619
 30
0.0
 10
49.35503657033262
 20
321.7915284102785
 30
0.0
 10
49.36848113229684
 20
321.9132757378594
 30
0.0
 10
49.39143656561827
 20
322.029693454255
 30
0.0
 10
49.42540246596363
 20
322.1352689120507
 30
0.0
 10
49.47162822478884
 20
322.2314269743113
 30
0.0
 10
49.52017139331957
 20
322.3005963399804
 30
0.0
 10
49.56561071886953
 20
322.3481338215952
 30
0.0
 10
49.60151679696017
 20
322.3788291050768
 30
0.0
 10
49.64016422805678
 20
322.4053641407916
 30
0.0
 10
49.68111871527876
 20
322.4275924866876
 30
0.0
 10
49.7242583414797
 20
322.4453857035597
 30
0.0
 10
49.76943897610826
 20
322.458919110618
 30
0.0
 10
49.81614619909448
 20
322.4681162359556
 30
0.0
 10
49.8819701902886
 20
322.4750715563384
 30
0.0
 10
49.96669794229139
 20
322.4732062997003
 30
0.0
 10
50.07152954580179
 20
322.456291638752
 30
0.0
 10
50.17710878816361
 20
322.4268770058587
 30
0.0
 10
50.28526672625517
 20
322.3851253683712
 30
0.0
 10
50.39291898752107
 20
322.3343295412387
 30
0.0
 10
50.46343836233726
 20
322.2937651130043
 30
0.0
 10
50.498693318
 20
322.2734856207
 30
0.0
 11
49.3528506424
 21
321.6653821114
 31
0.0
 11
49.35698200196705
 21
321.7914113971935
 31
0.0
 11
49.37074876110495
 21
321.9168074739673
 31
0.0
 11
49.39360033721824
 21
322.0291471539928
 31
0.0
 11
49.42923852660169
 21
322.1381657058803
 31
0.0
 11
49.47413829137536
 21
322.2301714859049
 31
0.0
 11
49.53331072029866
 21
322.3132403977633
 31
0.0
 11
49.56616322045519
 21
322.3475582672127
 31
0.0
 11
49.60230031538129
 21
322.3783862502067
 31
0.0
 11
49.64058758024478
 21
322.4046744476277
 31
0.0
 11
49.68141018819641
 21
322.4268187006177
 31
0.0
 11
49.72451633184606
 21
322.4446498412334
 31
0.0
 11
49.76919590391346
 21
322.4580730680188
 31
0.0
 11
49.81624670965967
 21
322.4674098676418
 31
0.0
 11
49.8639505969128
 21
322.472513284259
 31
0.0
 11
49.96635023777245
 21
322.4708640228932
 31
0.0
 11
50.06781448810758
 21
322.4550445925857
 31
0.0
 11
50.17653820456441
 21
322.4251502410007
 31
0.0
 11
50.28185619686172
 21
322.385040188329
 31
0.0
 11
50.39214888276712
 21
322.3328699790933
 31
0.0
 11
50.498693318
 21
322.2734856207
 31
0.0
  0
SPLINE
  5
F9
330
1F
100
AcDbEntity
  8
BEZUGSACHSEN
  6
Continuous
 62
     7
100
AcDbSpline
210
0.0
220
0.0
230
1.0
 70
     8
 71
     3
 72
    15
 73
    11
 74
     9
 42
0.0000000001
 43
0.0000000001
 44
0.00000001
 40
0.0
 40
0.0
 40
0.0
 40
0.0
 40
0.111094483115778
 40
0.2222295181063934
 40
0.3333620401541025
 40
0.4444752609923963
 40
0.5555842177976491
 40
0.6667300353884359
 40
0.7779450181579889
 40
0.888982087169711
 40
0.888982087169711
 40
0.888982087169711
 40
0.888982087169711
 10
50.498693318
 20
322.2734856207
 30
0.0
 10
50.52407867756887
 20
322.3004619863739
 30
0.0
 10
50.57485866290862
 20
322.354424564675
 30
0.0
 10
50.65711143212786
 20
322.4293065280937
 30
0.0
 10
50.74410808405955
 20
322.4985932370229
 30
0.0
 10
50.83641292448847
 20
322.5606884001164
 30
0.0
 10
50.93386294649431
 20
322.6144678922192
 30
0.0
 10
51.03627586037415
 20
322.658058137792
 30
0.0
 10
51.14279235895783
 20
322.691076693641
 30
0.0
 10
51.21613446167929
 20
322.7021498602534
 30
0.0
 10
51.2527761577
 20
322.7076820115
 30
0.0
 11
50.498693318
 21
322.2734856207
 31
0.0
 11
50.57586209508628
 21
322.3534041043053
 31
0.0
 11
50.65790199530327
 21
322.4283737700025
 31
0.0
 11
50.74499914389456
 21
322.4973993026984
 31
0.0
 11
50.8372709654786
 21
322.5593029276861
 31
0.0
 11
50.93467387357406
 21
322.6127620127597
 31
0.0
 11
51.03694209697434
 21
322.6562890532113
 31
0.0
 11
51.143433965079
 21
322.6883554596207
 31
0.0
 11
51.2527761577
 21
322.7076820115
 31
0.0
  0
SPLINE
  5
FA
330
1F
100
AcDbEntity
  8
0
  6
Continuous
 62
     7
100
AcDbSpline
210
0.0
220
0.0
230
1.0
 70
     8
 71
     3
 72
    19
 73
    15
 74
    13
 42
0.0000000001
 43
0.0000000001
 44
0.00000001
 40
0.0
 40
0.0
 40
0.0
 40
0.0
 40
0.1162460235696223
 40
0.2327881717828304
 40
0.3491890045674164
 40
0.4655468550296774
 40
0.5819071369453883
 40
0.6982738488694914
 40
0.8146206072316899
 40
0.9309998277860686
 40
1.163276323427062
 40
1.396138921766325
 40
1.62901317806413
 40
1.861351539723916
 40
1.861351539723916
 40
1.861351539723916
 40
1.861351539723916
 10
118.4778506424
 20
273.5087690415
 30
0.0
 10
118.4390665715598
 20
273.5069280946121
 30
0.0
 10
118.3613996314965
 20
273.5032415112159
 30
0.0
 10
118.2477895464327
 20
273.4748360262713
 30
0.0
 10
118.1396018584853
 20
273.4309821120711
 30
0.0
 10
118.0386259925241
 20
273.3723854238483
 30
0.0
 10
117.945857535799
 20
273.3017005625197
 30
0.0
 10
117.8617701568058
 20
273.2209429574323
 30
0.0
 10
117.7864665134071
 20
273.1319753186951
 30
0.0
 10
117.6978152692095
 20
273.0046158709526
 30
0.0
 10
117.6078185234809
 20
272.8318304928549
 30
0.0
 10
117.5329250043598
 20
272.6109055026589
 30
0.0
 10
117.4863880790336
 20
272.3818855830729
 30
0.0
 10
117.4806942683115
 20
272.2267061902396
 30
0.0
 10
117.4778506424
 20
272.1492058721
 30
0.0
 11
118.4778506424
 21
273.5087690415
 31
0.0
 11
118.3619792908496
 21
273.4994433841171
 31
0.0
 11
118.2486547661615
 21
273.4722473473768
 31
0.0
 11
118.1407816335524
 21
273.4285147378727
 31
0.0
 11
118.0399928940422
 21
273.3703702682118
 31
0.0
 11
117.9473055889931
 21
273.3000227118204
 31
0.0
 11
117.8632302233567
 21
273.2195705860739
 31
0.0
 11
117.7879314654003
 21
273.1308763628595
 31
0.0
 11
117.7213047360622
 21
273.0354562291635
 31
0.0
 11
117.6134149499587
 21
272.8297570204101
 31
0.0
 11
117.5376568131419
 21
272.6095623465159
 31
0.0
 11
117.4926967993428
 21
272.3810694223247
 31
0.0
 11
117.4778506424
 21
272.1492058721
 31
0.0
  0
SPLINE
  5
FB
330
1F
100
AcDbEntity
  8
BEZUGSACHSEN
  6
Continuous
 62
     7
100
AcDbSpline
210
0.0
220
0.0
230
1.0
 70
     8
 71
     3
 72
    47
 73
    43
 74
    41
 42
0.0000000001
 43
0.0000000001
 44
0.00000001
 40
0.0
 40
0.0
 40
0.0
 40
0.0
 40
0.6366022431821166
 40
1.273595002171233
 40
1.592921746398884
 40
1.912076344884351
 40
2.231392290413861
 40
2.550826842715971
 40
3.189774321146166
 40
3.829081696996298
 40
4.468337152521926
 40
5.10722174480172
 40
5.426176341292818
 40
5.745033356839626
 40
6.063356731618409
 40
6.381780214931442
 40
7.017059195724513
 40
7.652639341040645
 40
8.287532214278327
 40
8.922347946526177
 40
9.559226748579626
 40
10.19613435935958
 40
10.83451785503862
 40
11.47287689976566
 40
12.11234487366902
 40
12.75189588948797
 40
13.39354300520458
 40
14.03487957356995
 40
14.3561520577265
 40
14.677321077125
 40
14.99840882472624
 40
15.31959604121679
 40
15.9601112102733
 40
16.60099592090766
 40
17.2380910808247
 40
17.87482555206526
 40
18.19205670339538
 40
18.50917199106412
 40
18.82571084632714
 40
19.14241581829475
 40
19.77338974997349
 40
20.40398930744159
 40
20.40398930744159
 40
20.40398930744159
 40
20.40398930744159
 10
77.8534350481
 20
307.0311496058
 30
0.0
 10
77.8594406919867
 20
307.2434294154952
 30
0.0
 10
77.87145566384841
 20
307.668119255321
 30
0.0
 10
77.95272100905643
 20
308.1942620164364
 30
0.0
 10
78.04544060565753
 20
308.6092363925609
 30
0.0
 10
78.13073356980169
 20
308.9170603682508
 30
0.0
 10
78.23097218324159
 20
309.2203530450261
 30
0.0
 10
78.3844577323968
 20
309.6177904075631
 30
0.0
 10
78.61292967916981
 20
310.0998899844519
 30
0.0
 10
78.94254463971903
 20
310.6487058573089
 30
0.0
 10
79.32477185681222
 20
311.1622413966709
 30
0.0
 10
79.68362655394117
 20
311.5567441587594
 30
0.0
 10
79.99257990750837
 20
311.8496174568065
 30
0.0
 10
80.2344750164835
 20
312.0573392779215
 30
0.0
 10
80.48611826996917
 20
312.2528486750542
 30
0.0
 10
80.83341237712604
 20
312.4963438777287
 30
0.0
 10
81.28915271188643
 20
312.7682259477737
 30
0.0
 10
81.86463213657565
 20
313.0395550602888
 30
0.0
 10
82.46374290173311
 20
313.2533386911011
 30
0.0
 10
83.08119330417969
 20
313.4080284224732
 30
0.0
 10
83.71146386585724
 20
313.5018354061276
 30
0.0
 10
84.34905780057677
 20
313.5339621309322
 30
0.0
 10
84.98723644481404
 20
313.5035325579823
 30
0.0
 10
85.6202488660138
 20
313.4108613028225
 30
0.0
 10
86.24148255044231
 20
313.2563693415926
 30
0.0
 10
86.84561830239952
 20
313.0413322090462
 30
0.0
 10
87.42609737596298
 20
312.7674088433167
 30
0.0
 10
87.88572640018438
 20
312.4922419652598
 30
0.0
 10
88.23562538884721
 20
312.2456322664024
 30
0.0
 10
88.4887570179965
 20
312.0477280740316
 30
0.0
 10
88.73175565735063
 20
311.8375495446298
 30
0.0
 10
89.04100000085577
 20
311.5420302044744
 30
0.0
 10
89.39932019165302
 20
311.1445592217078
 30
0.0
 10
89.77927060999619
 20
310.628892460153
 30
0.0
 10
90.10574363960782
 20
310.0792963036827
 30
0.0
 10
90.33111477960281
 20
309.5981907619722
 30
0.0
 10
90.48220576276171
 20
309.2022005743522
 30
0.0
 10
90.58061868031095
 20
308.9007742235689
 30
0.0
 10
90.66428545848314
 20
308.595078855652
 30
0.0
 10
90.75510481592633
 20
308.1835268379361
 30
0.0
 10
90.83461979159975
 20
307.6621016214143
 30
0.0
 10
90.8463920762155
 20
307.2414253322553
 30
0.0
 10
90.8522764718
 20
307.0311496059
 30
0.0
 11
77.8534350481
 21
307.0311496058
 31
0.0
 11
77.88468371913979
 21
307.6669844401578
 31
0.0
 11
77.97812492151341
 21
308.2970864292861
 31
0.0
 11
78.04806542854784
 21
308.6086596872124
 31
0.0
 11
78.13320676752399
 21
308.9162480649704
 31
0.0
 11
78.23343130566194
 21
309.2194274096237
 31
0.0
 11
78.34851119541398
 21
309.5174123961232
 31
0.0
 11
78.6221070896583
 21
310.0948196759916
 31
0.0
 11
78.95132660333644
 21
310.6428419680837
 31
0.0
 11
79.33295085868382
 21
311.1556874274083
 31
0.0
 11
79.76288549481262
 21
311.6282651785872
 31
0.0
 11
79.99435775587375
 21
311.8477022469737
 31
0.0
 11
80.23626015690101
 21
312.0554353082342
 31
0.0
 11
80.4876339640555
 21
312.2507324664501
 31
0.0
 11
80.74836324234742
 21
312.4335267720687
 31
0.0
 11
81.29389688655725
 21
312.7590608355284
 31
0.0
 11
81.86880670667597
 21
313.0300605031503
 31
0.0
 11
82.46675289442078
 21
313.2434833628665
 31
0.0
 11
83.08254542662974
 21
313.3977252870799
 31
0.0
 11
83.71247770857615
 21
313.4915332220685
 31
0.0
 11
84.34858083029499
 21
313.5235351471507
 31
0.0
 11
84.98624178933032
 21
313.4931708773991
 31
0.0
 11
85.6178593222576
 21
313.4006421678887
 31
0.0
 11
86.23843219436382
 21
313.2463418112659
 31
0.0
 11
86.84093300148638
 21
313.0318230958779
 31
0.0
 11
87.42124019785287
 21
312.7580447567919
 31
0.0
 11
87.97146518589881
 21
312.4285526378383
 31
0.0
 11
88.23407249004626
 21
312.2434758621896
 31
0.0
 11
88.48709294743811
 21
312.0456623460624
 31
0.0
 11
88.72994124880243
 21
311.8356098664672
 31
0.0
 11
88.96214368420947
 21
311.6137016488906
 31
0.0
 11
89.39105974194372
 21
311.1380014310967
 31
0.0
 11
89.77117040061678
 21
310.6220081176826
 31
0.0
 11
90.09660954634197
 21
310.0743041782962
 31
0.0
 11
90.36669040447164
 21
309.4976872197025
 31
0.0
 11
90.47978084965582
 21
309.2012987000492
 31
0.0
 11
90.578224952995
 21
308.8998507539773
 31
0.0
 11
90.66170775837064
 21
308.594519019469
 31
0.0
 11
90.73025718181468
 21
308.2853216459121
 31
0.0
 11
90.8216842597392
 21
307.6610066678118
 31
0.0
 11
90.8522764718
 21
307.0311496059
 31
0.0
  0
SPLINE
  5
FC
330
1F
100
AcDbEntity
  8
0
  6
Continuous
 62
     7
100
AcDbSpline
210
0.0
220
0.0
230
1.0
 70
     8
 71
     3
 72
    19
 73
    15
 74
    13
 42
0.0000000001
 43
0.0000000001
 44
0.00000001
 40
0.0
 40
0.0
 40
0.0
 40
0.0
 40
0.2323383481159176
 40
0.4652125957009685
 40
0.6980761132671712
 40
0.9303535187253552
 40
1.046733461805949
 40
1.163080940882971
 40
1.279447997434858
 40
1.395808629517894
 40
1.512165904488825
 40
1.628566140332248
 40
1.745106920524944
 40
1.861351602787951
 40
1.861351602787951
 40
1.861351602787951
 40
1.861351602787951
 10
121.2278506424
 20
272.1492058721
 30
0.0
 10
121.2250070167945
 20
272.2267061857589
 30
0.0
 10
121.2193132066255
 20
272.3818855712424
 30
0.0
 10
121.1727762307857
 20
272.610905785257
 30
0.0
 10
121.0978824850254
 20
272.8318313471511
 30
0.0
 10
121.0078851807759
 20
273.0046174113713
 30
0.0
 10
120.9192332429735
 20
273.1319773371036
 30
0.0
 10
120.8439289786212
 20
273.2209452360195
 30
0.0
 10
120.7598410047967
 20
273.3017029059593
 30
0.0
 10
120.6670722709609
 20
273.3723874723083
 30
0.0
 10
120.5660964587184
 20
273.4309836964665
 30
0.0
 10
120.457909409208
 20
273.4748369476221
 30
0.0
 10
120.3443002998539
 20
273.5032417070723
 30
0.0
 10
120.2666342650618
 20
273.5069281597193
 30
0.0
 10
120.2278506424
 20
273.5087690415
 30
0.0
 11
121.2278506424
 21
272.1492058721
 31
0.0
 11
121.2130044882822
 21
272.381069408934
 31
0.0
 11
121.1680444866936
 21
272.609562326648
 31
0.0
 11
121.0922860080112
 21
272.8297578550336
 31
0.0
 11
120.9843955968336
 21
273.0354577633037
 31
0.0
 11
120.9177682729894
 21
273.1308783631173
 31
0.0
 11
120.8424688164226
 21
273.2195729386466
 31
0.0
 11
120.7583929500921
 21
273.3000250396219
 31
0.0
 11
120.6657051241228
 21
273.3703724888709
 31
0.0
 11
120.5649166892182
 21
273.4285163348749
 31
0.0
 11
120.4570439604266
 21
273.4722483516071
 31
0.0
 11
120.3437206718727
 21
273.499443676927
 31
0.0
 11
120.2278506424
 21
273.5087690415
 31
0.0
  0
SPLINE
  5
FD
330
1F
100
AcDbEntity
  8
BEZUGSACHSEN
  6
Continuous
 62
     7
100
AcDbSpline
210
0.0
220
0.0
230
1.0
 70
     8
 71
     3
 72
    11
 73
     7
 74
     5
 42
0.0000000001
 43
0.0000000001
 44
0.00000001
 40
0.0
 40
0.0
 40
0.0
 40
0.0
 40
0.5462907431867488
 40
1.093000863684112
 40
1.646070107201773
 40
2.19819704871165
 40
2.19819704871165
 40
2.19819704871165
 40
2.19819704871165
 10
58.9066965893
 20
322.0411496253
 30
0.0
 10
58.969767391164
 20
321.8702179960449
 30
0.0
 10
59.09595741318135
 20
321.528223516481
 30
0.0
 10
59.23559472621847
 20
320.9969493872515
 30
0.0
 10
59.33308309022778
 20
320.4535249823195
 30
0.0
 10
59.34626520474622
 20
320.0849403417798
 30
0.0
 10
59.3528506424
 20
319.9008051511
 30
0.0
 11
58.9066965893
 21
322.0411496253
 31
0.0
 11
59.08754792192919
 21
321.5256630866031
 31
0.0
 11
59.2280394066275
 21
320.9973127307013
 31
0.0
 11
59.32010605985793
 21
320.4519602579938
 31
0.0
 11
59.3528506424
 21
319.9008051511
 31
0.0
  0
SPLINE
  5
FE
330
1F
100
AcDbEntity
  8
BEZUGSACHSEN
  6
Continuous
 62
     7
100
AcDbSpline
210
0.0
220
0.0
230
1.0
 70
     8
 71
     3
 72
    19
 73
    15
 74
    13
 42
0.0000000001
 43
0.0000000001
 44
0.00000001
 40
0.0
 40
0.0
 40
0.0
 40
0.0
 40
0.1462385987779287
 40
0.2927479274823123
 40
0.4364790706305207
 40
0.5801659236712524
 40
0.7203799973220112
 40
0.8606059383084802
 40
0.9980411884231252
 40
1.135484020451068
 40
1.405415631094979
 40
1.675815514092609
 40
1.943997429528503
 40
2.211934834755307
 40
2.211934834755307
 40
2.211934834755307
 40
2.211934834755307
 10
57.3528506424
 20
323.3897972127
 30
0.0
 10
57.40156544773835
 20
323.3931052900465
 30
0.0
 10
57.49908524360398
 20
323.3997275689471
 30
0.0
 10
57.6444215039213
 20
323.3833682561727
 30
0.0
 10
57.78507844104911
 20
323.3481964900684
 30
0.0
 10
57.91793057450793
 20
323.2953908034212
 30
0.0
 10
58.04238503759097
 20
323.2277190156991
 30
0.0
 10
58.15718759476873
 20
323.148418814324
 30
0.0
 10
58.26329753253516
 20
323.0593341747433
 30
0.0
 10
58.39239999768301
 20
322.9313866391643
 30
0.0
 10
58.53543984756119
 20
322.7555843502558
 30
0.0
 10
58.68034744925636
 20
322.527898884377
 30
0.0
 10
58.80498419769883
 20
322.2892362649067
 30
0.0
 10
58.87280276886727
 20
322.1238200244738
 30
0.0
 10
58.9066965893
 20
322.0411496253
 30
0.0
 11
57.3528506424
 21
323.3897972127
 31
0.0
 11
57.49898450421905
 21
323.3953309458327
 31
0.0
 11
57.6446938650657
 21
323.3800415521538
 31
0.0
 11
57.78412394662496
 21
323.345143215989
 31
0.0
 11
57.91775628356896
 21
323.2923387629606
 31
0.0
 11
58.04107007440042
 21
323.2256027498903
 31
0.0
 11
58.15660118573013
 21
323.1461302587977
 31
0.0
 11
58.26201373549299
 21
323.0579449860671
 31
0.0
 11
58.3598022391605
 21
322.9613637217022
 31
0.0
 11
58.53105063502176
 21
322.7527083567106
 31
0.0
 11
58.67739305555232
 21
322.5253320327928
 31
0.0
 11
58.80126068135908
 21
322.2874699907519
 31
0.0
 11
58.9066965893
 21
322.0411496253
 31
0.0
  0
SPLINE
  5
FF
330
1F
100
AcDbEntity
  8
BEZUGSACHSEN
  6
Continuous
 62
     7
100
AcDbSpline
210
0.0
220
0.0
230
1.0
 70
     8
 71
     3
 72
    47
 73
    43
 74
    41
 42
0.0000000001
 43
0.0000000001
 44
0.00000001
 40
0.0
 40
0.0
 40
0.0
 40
0.0
 40
0.6302393214779823
 40
1.260854867358693
 40
1.57747608842894
 40
1.893930800240205
 40
2.210999113876431
 40
2.528183472210844
 40
3.164887038236979
 40
3.801951183376277
 40
4.44285100161314
 40
5.083381259814464
 40
5.404527292356733
 40
5.72557383881049
 40
6.046670710069657
 40
6.367871027169601
 40
7.009090242528366
 40
7.650619763937596
 40
8.29033034649875
 40
8.929958764507596
 40
9.568647011375534
 40
10.20735923014728
 40
10.84445705815043
 40
11.48152626493418
 40
12.11643462219537
 40
12.75141965577902
 40
13.38691908739784
 40
14.02211738534973
 40
14.34050449145755
 40
14.6587915379342
 40
14.97761586869095
 40
15.29653774945509
 40
15.9353769410281
 40
16.57458694070116
 40
17.21386274993857
 40
17.85277859074395
 40
18.17219860081359
 40
18.49150024074626
 40
18.81067156634915
 40
19.130014524221
 40
19.76719627023017
 40
20.40398968278278
 40
20.40398968278278
 40
20.40398968278278
 40
20.40398968278278
 10
90.8522642802
 20
307.031149644
 30
0.0
 10
90.84639507845552
 20
306.820993622104
 30
0.0
 10
90.83465317131822
 20
306.4005561246609
 30
0.0
 10
90.7552064287616
 20
305.8793926823969
 30
0.0
 10
90.66447492369635
 20
305.4680012149738
 30
0.0
 10
90.58086954140177
 20
305.1623633746889
 30
0.0
 10
90.48251760003615
 20
304.860979528506
 30
0.0
 10
90.33149878918299
 20
304.4650063489204
 30
0.0
 10
90.10621620157636
 20
303.98389954025
 30
0.0
 10
89.7798381668226
 20
303.4342653152566
 30
0.0
 10
89.39997110479518
 20
302.9185374525698
 30
0.0
 10
89.04171666550113
 20
302.5210120503396
 30
0.0
 10
88.73253592779969
 20
302.2254586954035
 30
0.0
 10
88.48961097175678
 20
302.0152737869737
 30
0.0
 10
88.23656206844355
 20
301.8173643226539
 30
0.0
 10
87.886779560009
 20
301.5707409711856
 30
0.0
 10
87.4272943222708
 20
301.2955343619104
 30
0.0
 10
86.84689861530684
 20
301.0214942552021
 30
0.0
 10
86.24274430745469
 20
300.8063057778511
 30
0.0
 10
85.62132916003901
 20
300.6516439388128
 30
0.0
 10
84.98805994860771
 20
300.5588335657775
 30
0.0
 10
84.34960048418797
 20
300.5283228159691
 30
0.0
 10
83.71176747064912
 20
300.560424558352
 30
0.0
 10
83.08133748366068
 20
300.6542376207277
 30
0.0
 10
82.46376381415814
 20
300.8089514370187
 30
0.0
 10
81.86462040270838
 20
301.022748009094
 30
0.0
 10
81.2891631812186
 20
301.2940693775406
 30
0.0
 10
80.83347778825313
 20
301.5659142611855
 30
0.0
 10
80.4862218905228
 20
301.8093748137867
 30
0.0
 10
80.2346023092411
 20
302.0048573401107
 30
0.0
 10
79.99272725897733
 20
302.212550398799
 30
0.0
 10
79.68379097529375
 20
302.5053879469298
 30
0.0
 10
79.32494821840615
 20
302.899845595882
 30
0.0
 10
78.94272131316978
 20
303.4133302618473
 30
0.0
 10
78.61309686790919
 20
303.9620980405575
 30
0.0
 10
78.38460942198486
 20
304.444161457031
 30
0.0
 10
78.23110792201828
 20
304.8415710161826
 30
0.0
 10
78.13085111909277
 20
305.144853379465
 30
0.0
 10
78.04553462617127
 20
305.4526772511755
 30
0.0
 10
77.95277217080763
 20
305.8677181182855
 30
0.0
 10
77.87147980384425
 20
306.3939909173604
 30
0.0
 10
77.85944000435643
 20
306.818806567061
 30
0.0
 10
77.8534219396
 20
307.0311496457
 30
0.0
 11
90.8522642802
 21
307.031149644
 31
0.0
 11
90.82172470147876
 21
306.4016506873141
 31
0.0
 11
90.73039342595196
 21
305.7776838894658
 31
0.0
 11
90.66189868726545
 21
305.4685601789481
 31
0.0
 11
90.57847986242867
 21
305.163298186079
 31
0.0
 11
90.48009311858962
 21
304.8618809268703
 31
0.0
 11
90.36706248748708
 21
304.5655196716351
 31
0.0
 11
90.09708235097474
 21
303.9888896716532
 31
0.0
 11
89.77174572912139
 21
303.4411608998116
 31
0.0
 11
89.39170923432528
 21
302.9250941990459
 31
0.0
 11
88.96285873663547
 21
302.4493145627618
 31
0.0
 11
88.73072160223835
 21
302.2273976299884
 31
0.0
 11
88.48793910888739
 21
302.0173320547216
 31
0.0
 11
88.23500950060365
 21
301.8195194818506
 31
0.0
 11
87.97249510479641
 21
301.6344361608866
 31
0.0
 11
87.42243692322462
 21
301.3048939344098
 31
0.0
 11
86.84229609156316
 21
301.03103860348
 31
0.0
 11
86.23969078124034
 21
300.8163377198966
 31
0.0
 11
85.61899151090037
 21
300.6618808361914
 31
0.0
 11
84.98706269699679
 21
300.569205861977
 31
0.0
 11
84.34907656984687
 21
300.5387591877319
 31
0.0
 11
83.71278158173654
 21
300.5707330919664
 31
0.0
 11
83.08265830763094
 21
300.6645511801078
 31
0.0
 11
82.46677439938699
 21
300.8188095143601
 31
0.0
 11
81.86874192955054
 21
301.0322647974911
 31
0.0
 11
81.29390618096883
 21
301.3032323042891
 31
0.0
 11
80.74843949342235
 21
301.6287211220664
 31
0.0
 11
80.48773720066825
 21
301.8114905502771
 31
0.0
 11
80.23638794888464
 21
302.0067601013665
 31
0.0
 11
79.99450465054605
 21
302.2144652382007
 31
0.0
 11
79.76304881924742
 21
302.4338720844658
 31
0.0
 11
79.33312578836721
 21
302.9063990151358
 31
0.0
 11
78.95150464890939
 21
303.4191901320645
 31
0.0
 11
78.62227317473037
 21
303.967168413282
 31
0.0
 11
78.34865886758632
 21
304.5445319578171
 31
0.0
 11
78.23356661512636
 21
304.8424965803087
 31
0.0
 11
78.13332692669947
 21
305.1456558488917
 31
0.0
 11
78.04815984648084
 21
305.4532544567139
 31
0.0
 11
77.9781968189974
 21
305.7648392758686
 31
0.0
 11
77.8847079220169
 21
306.3951252455591
 31
0.0
 11
77.8534219396
 21
307.0311496457
 31
0.0
  0
SPLINE
  5
100
330
1F
100
AcDbEntity
  8
BEZUGSACHSEN
  6
Continuous
 62
     7
100
AcDbSpline
210
0.0
220
0.0
230
1.0
 70
     8
 71
     3
 72
    11
 73
     7
 74
     5
 42
0.0000000001
 43
0.0000000001
 44
0.00000001
 40
0.0
 40
0.0
 40
0.0
 40
0.0
 40
0.5521269407035837
 40
1.10519618333971
 40
1.651906304698612
 40
2.198197048720036
 40
2.198197048720036
 40
2.198197048720036
 40
2.198197048720036
 10
59.3528506424
 20
294.1614940995
 30
0.0
 10
59.34626520477224
 20
293.9773589090891
 30
0.0
 10
59.33308309030678
 20
293.6087742691124
 30
0.0
 10
59.23559472650955
 20
293.0653498644269
 30
0.0
 10
59.09595741347705
 20
292.5340757349099
 30
0.0
 10
58.96976739126153
 20
292.1920812548159
 30
0.0
 10
58.9066965893
 20
292.0211496253
 30
0.0
 11
59.3528506424
 21
294.1614940995
 31
0.0
 11
59.32010605997319
 21
293.610338993407
 31
0.0
 11
59.22803940702983
 21
293.0649865215451
 31
0.0
 11
59.08754792219641
 21
292.5366361647878
 31
0.0
 11
58.9066965893
 21
292.0211496253
 31
0.0
  0
SPLINE
  5
101
330
1F
100
AcDbEntity
  8
BEZUGSACHSEN
  6
Continuous
 62
     7
100
AcDbSpline
210
0.0
220
0.0
230
1.0
 70
     8
 71
     3
 72
    19
 73
    15
 74
    13
 42
0.0000000001
 43
0.0000000001
 44
0.00000001
 40
0.0
 40
0.0
 40
0.0
 40
0.0
 40
0.2679411643602311
 40
0.5361267937513925
 40
0.8065304774294824
 40
1.076465993279429
 40
1.213913376192035
 40
1.351353104918739
 40
1.491586367094626
 40
1.631807897573558
 40
1.775491562763784
 40
1.919219204738112
 40
2.065713007403905
 40
2.211936409353663
 40
2.211936409353663
 40
2.211936409353663
 40
2.211936409353663
 10
58.9066965893
 20
292.0211496253
 30
0.0
 10
58.87280234550016
 20
291.9384780455875
 30
0.0
 10
58.8049829333601
 20
291.773059457998
 30
0.0
 10
58.6803444270995
 20
291.5343934842942
 30
0.0
 10
58.5354336277987
 20
291.3067054882553
 30
0.0
 10
58.39238999627903
 20
291.1309009969369
 30
0.0
 10
58.26328360935175
 20
291.0029512778389
 30
0.0
 10
58.15716851026703
 20
290.913864257053
 30
0.0
 10
58.04235908261408
 20
290.8345626167473
 30
0.0
 10
57.917899470393
 20
290.7668921493182
 30
0.0
 10
57.78504591527688
 20
290.7140894626288
 30
0.0
 10
57.64439511640564
 20
290.6789231986238
 30
0.0
 10
57.49906973330016
 20
290.6625709966843
 30
0.0
 10
57.4015603142363
 20
290.6691937300355
 30
0.0
 10
57.3528506424
 20
290.6725020378
 30
0.0
 11
58.9066965893
 21
292.0211496253
 31
0.0
 11
58.80125932958354
 21
291.7748257494329
 31
0.0
 11
58.67738981402421
 21
291.5369605041215
 31
0.0
 11
58.53104432774595
 21
291.3095816335274
 31
0.0
 11
58.35979213662313
 21
291.1009243313479
 31
0.0
 11
58.26199969792113
 21
291.0043405749381
 31
0.0
 11
58.15658270864157
 21
290.9161536291711
 31
0.0
 11
58.04104406491885
 21
290.8366791702097
 31
0.0
 11
57.91772205503798
 21
290.7699426772782
 31
0.0
 11
57.78409136686829
 21
290.7171427263143
 31
0.0
 11
57.64466366567252
 21
290.6822492999024
 31
0.0
 11
57.49896922712226
 21
290.6669664731021
 31
0.0
 11
57.3528506424
 21
290.6725020378
 31
0.0
  0
SPLINE
  5
102
330
1F
100
AcDbEntity
  8
BEZUGSACHSEN
  6
Continuous
 62
     7
100
AcDbSpline
210
0.0
220
0.0
230
1.0
 70
     8
 71
     3
 72
    11
 73
     7
 74
     5
 42
0.0000000001
 43
0.0000000001
 44
0.00000001
 40
0.0
 40
0.0
 40
0.0
 40
0.0
 40
0.9140556660003536
 40
1.828030949185887
 40
2.279806974871125
 40
2.730944124762511
 40
2.730944124762511
 40
2.730944124762511
 40
2.730944124762511
 10
50.6198035692854
 20
292.021149625485
 30
0.0
 10
50.75245827624879
 20
292.2958662231515
 30
0.0
 10
51.01775602441042
 20
292.8452752596788
 30
0.0
 10
51.23311123772304
 20
293.5779861807837
 30
0.0
 10
51.33680545138537
 20
294.1759313868898
 30
0.0
 10
51.34750476890649
 20
294.4770546023165
 30
0.0
 10
51.3528506424
 20
294.6275096769
 30
0.0
 11
50.6198035692854
 21
292.021149625485
 31
0.0
 11
50.99461109906091
 21
292.8548264670555
 31
0.0
 11
51.25390245945874
 21
293.731250342071
 31
0.0
 11
51.32661943295736
 21
294.1771357748327
 31
0.0
 11
51.3528506424
 21
294.6275096769
 31
0.0
  0
SPLINE
  5
103
330
1F
100
AcDbEntity
  8
BEZUGSACHSEN
  6
Continuous
 62
     7
100
AcDbSpline
210
0.0
220
0.0
230
1.0
 70
     8
 71
     3
 72
    11
 73
     7
 74
     5
 42
0.0000000001
 43
0.0000000001
 44
0.00000001
 40
0.0
 40
0.0
 40
0.0
 40
0.0
 40
0.8249192367595066
 40
1.650116892030084
 40
2.190492152392525
 40
2.730585915477289
 40
2.730585915477289
 40
2.730585915477289
 40
2.730585915477289
 10
51.3528506424
 20
319.4347895736
 30
0.0
 10
51.33511733806372
 20
319.7099798656063
 30
0.0
 10
51.29964474422319
 20
320.2604533291009
 30
0.0
 10
51.09120992758241
 20
320.965186914287
 30
0.0
 10
50.86098349660066
 20
321.5574006393707
 30
0.0
 10
50.70018291379878
 20
321.8799279728159
 30
0.0
 10
50.6198035692854
 20
322.041149625115
 30
0.0
 11
51.3528506424
 21
319.4347895736
 31
0.0
 11
51.26927518828427
 21
320.2554642293834
 31
0.0
 11
51.05131374617248
 21
321.0513561692953
 31
0.0
 11
50.8533786676133
 21
321.5541753482131
 31
0.0
 11
50.6198035692854
 21
322.041149625115
 31
0.0
  0
DIMENSION
  5
10E
330
1F
100
AcDbEntity
  8
1
100
AcDbDimension
  2
*D2
 10
210.445658355819
 20
317.0311496253
 30
0.0
 11
206.695658355819
 21
306.772401950219
 31
0.0
 70
    32
  1
<>
 71
     5
 42
-1.0
 53
90.0
  3
ME10_DIM_10
100
AcDbAlignedDimension
 13
199.3528506424
 23
297.0311496253
 33
0.0
 14
199.3528506424
 24
317.0311496253
 34
0.0
 50
90.0
100
AcDbRotatedDimension
  0
DIMENSION
  5
119
330
1F
100
AcDbEntity
  8
1
100
AcDbDimension
  2
*D3
 10
219.31540526444
 20
333.0311496253
 30
0.0
 11
215.56540526444
 21
307.029496063512
 31
0.0
 70
    32
  1
<>
 71
     5
 42
-1.0
 53
90.0
  3
ME10_DIM_11
100
AcDbAlignedDimension
 13
186.2641144567
 23
281.0311496253
 33
0.0
 14
186.2641144567
 24
333.0311496253
 34
0.0
 50
90.0
100
AcDbRotatedDimension
  0
DIMENSION
  5
124
330
1F
100
AcDbEntity
  8
1
100
AcDbDimension
  2
*D4
 10
199.3528506424
 20
364.490030384578
 30
0.0
 11
163.525982679781
 21
368.240030384578
 31
0.0
 70
    32
  1
<>
 71
     5
 42
-1.0
 53
0.00013888888889
  3
ME10_DIM_12
100
AcDbAlignedDimension
 13
128.3528506424
 23
357.0311127041
 33
0.0
 14
199.3528506424
 24
326.3940793645
 34
0.0
100
AcDbRotatedDimension
  0
DIMENSION
  5
12F
330
1F
100
AcDbEntity
  8
1
100
AcDbDimension
  2
*D5
 10
199.3528506424
 20
371.431571443499
 30
0.0
 11
151.056918185054
 21
375.181571443499
 31
0.0
 70
    32
  1
<>
 71
     5
 42
-1.0
 53
0.00013888888889
  3
ME10_DIM_13
100
AcDbAlignedDimension
 13
99.3528506424
 23
357.0311496253
 33
0.0
 14
199.3528506424
 24
326.3940793645
 34
0.0
100
AcDbRotatedDimension
  0
DIMENSION
  5
13A
330
1F
100
AcDbEntity
  8
1
100
AcDbDimension
  2
*D6
 10
199.3528506424
 20
378.887300729006
 30
0.0
 11
129.718106781705
 21
382.637300729006
 31
0.0
 70
    32
  1
<>
 71
     5
 42
-1.0
 53
0.00013888888889
  3
ME10_DIM_14
100
AcDbAlignedDimension
 13
49.3528506424
 23
340.6313411878
 33
0.0
 14
199.3528506424
 24
326.3940793645
 34
0.0
100
AcDbRotatedDimension
  0
INSERT
  5
141
330
1F
100
AcDbEntity
  8
1
100
AcDbBlockReference
  2
*D7
 10
0.0
 20
0.0
 30
0.0
  0
ENDSEC
  0
SECTION
  2
OBJECTS
  0
DICTIONARY
  5
C
330
0
100
AcDbDictionary
281
     1
  3
ACAD_GROUP
350
D
  3
ACAD_LAYOUT
350
1A
  3
ACAD_MLEADERSTYLE
350
144
  3
ACAD_MLINESTYLE
350
17
  3
ACAD_PLOTSETTINGS
350
19
  3
ACAD_PLOTSTYLENAME
350
E
  3
ACAD_SCALELIST
350
4B
  3
ACAD_VISUALSTYLE
350
2A
  3
AcDbVariableDictionary
350
142
  0
DICTIONARY
  5
D
102
{ACAD_REACTORS
330
C
102
}
330
C
100
AcDbDictionary
281
     1
  0
DICTIONARY
  5
1A
102
{ACAD_REACTORS
330
C
102
}
330
C
100
AcDbDictionary
281
     1
  3
Layout1
350
1E
  3
Layout2
350
26
  3
Model
350
22
  0
DICTIONARY
  5
144
102
{ACAD_REACTORS
330
C
102
}
330
C
100
AcDbDictionary
281
     1
  0
DICTIONARY
  5
17
102
{ACAD_REACTORS
330
C
102
}
330
C
100
AcDbDictionary
281
     1
  3
Standard
350
18
  0
DICTIONARY
  5
19
102
{ACAD_REACTORS
330
C
102
}
330
C
100
AcDbDictionary
281
     1
  0
ACDBDICTIONARYWDFLT
  5
E
102
{ACAD_REACTORS
330
C
102
}
330
C
100
AcDbDictionary
281
     1
  3
Normal
350
F
100
AcDbDictionaryWithDefault
340
F
  0
DICTIONARY
  5
4B
102
{ACAD_REACTORS
330
C
102
}
330
C
100
AcDbDictionary
281
     1
  3
A0
350
4C
  3
A1
350
4D
  3
A2
350
4E
  3
A3
350
4F
  3
A4
350
50
  3
A5
350
51
  3
A6
350
52
  3
A7
350
53
  3
A8
350
54
  3
A9
350
55
  3
B0
350
56
  3
B1
350
57
  3
B2
350
58
  3
B3
350
59
  3
B4
350
5A
  3
B5
350
5B
  3
B6
350
5C
  3
B7
350
5D
  3
B8
350
5E
  3
B9
350
5F
  3
C0
350
60
  3
C1
350
61
  3
C2
350
62
  3
C3
350
63
  3
C4
350
64
  3
C5
350
65
  3
C6
350
66
  3
C7
350
67
  3
C8
350
68
  3
C9
350
69
  3
D0
350
6A
  3
D1
350
6B
  3
D2
350
6C
  0
DICTIONARY
  5
2A
102
{ACAD_REACTORS
330
C
102
}
330
C
100
AcDbDictionary
281
     1
  3
2dWireframe
350
2F
  3
3D Hidden
350
31
  3
3dWireframe
350
30
  3
Basic
350
32
  3
Brighten
350
36
  3
ColorChange
350
3A
  3
Conceptual
350
34
  3
Dim
350
35
  3
Facepattern
350
39
  3
Flat
350
2B
  3
FlatWithEdges
350
2C
  3
Gouraud
350
2D
  3
GouraudWithEdges
350
2E
  3
Linepattern
350
38
  3
Realistic
350
33
  3
Thicken
350
37
  0
DICTIONARY
  5
142
102
{ACAD_REACTORS
330
C
102
}
330
C
100
AcDbDictionary
281
     1
  3
CANNOSCALE
350
145
  0
LAYOUT
  5
1E
102
{ACAD_REACTORS
330
1A
102
}
330
1A
100
AcDbPlotSettings
  1

  2
none_device
  4

  6

 40
0.0
 41
0.0
 42
0.0
 43
0.0
 44
0.0
 45
0.0
 46
0.0
 47
0.0
 48
0.0
 49
0.0
140
0.0
141
0.0
142
1.0
143
1.0
 70
   688
 72
     0
 73
     0
 74
     5
  7

 75
    16
147
1.0
148
0.0
149
0.0
100
AcDbLayout
  1
Layout1
 70
     1
 71
     1
 10
0.0
 20
0.0
 11
12.0
 21
9.0
 12
0.0
 22
0.0
 32
0.0
 14
1.00000000000000E+20
 24
1.00000000000000E+20
 34
1.00000000000000E+20
 15
-1.00000000000000E+20
 25
-1.00000000000000E+20
 35
-1.00000000000000E+20
146
0.0
 13
0.0
 23
0.0
 33
0.0
 16
1.0
 26
0.0
 36
0.0
 17
0.0
 27
1.0
 37
0.0
 76
     0
330
1B
  0
LAYOUT
  5
26
102
{ACAD_REACTORS
330
1A
102
}
330
1A
100
AcDbPlotSettings
  1

  2
none_device
  4

  6

 40
0.0
 41
0.0
 42
0.0
 43
0.0
 44
0.0
 45
0.0
 46
0.0
 47
0.0
 48
0.0
 49
0.0
140
0.0
141
0.0
142
1.0
143
1.0
 70
   688
 72
     0
 73
     0
 74
     5
  7

 75
    16
147
1.0
148
0.0
149
0.0
100
AcDbLayout
  1
Layout2
 70
     1
 71
     2
 10
0.0
 20
0.0
 11
0.0
 21
0.0
 12
0.0
 22
0.0
 32
0.0
 14
0.0
 24
0.0
 34
0.0
 15
0.0
 25
0.0
 35
0.0
146
0.0
 13
0.0
 23
0.0
 33
0.0
 16
1.0
 26
0.0
 36
0.0
 17
0.0
 27
1.0
 37
0.0
 76
     0
330
23
  0
LAYOUT
  5
22
102
{ACAD_REACTORS
330
1A
102
}
330
1A
100
AcDbPlotSettings
  1

  2
none_device
  4

  6

 40
0.0
 41
0.0
 42
0.0
 43
0.0
 44
0.0
 45
0.0
 46
0.0
 47
0.0
 48
0.0
 49
0.0
140
0.0
141
0.0
142
1.0
143
1.0
 70
  1712
 72
     0
 73
     0
 74
     0
  7

 75
     0
147
1.0
148
0.0
149
0.0
100
AcDbLayout
  1
Model
 70
     1
 71
     0
 10
0.0
 20
0.0
 11
12.0
 21
9.0
 12
0.0
 22
0.0
 32
0.0
 14
24.5645046460469
 24
257.0311496253
 34
0.0
 15
221.31540526444
 25
384.387300729006
 35
0.0
146
0.0
 13
0.0
 23
0.0
 33
0.0
 16
1.0
 26
0.0
 36
0.0
 17
0.0
 27
1.0
 37
0.0
 76
     0
330
1F
331
29
  0
MLINESTYLE
  5
18
102
{ACAD_REACTORS
330
17
102
}
330
17
100
AcDbMlineStyle
  2
Standard
 70
     0
  3

 62
   256
 51
90.0
 52
90.0
 71
     2
 49
0.5
 62
   256
  6
BYLAYER
 49
-0.5
 62
   256
  6
BYLAYER
  0
ACDBPLACEHOLDER
  5
F
102
{ACAD_REACTORS
330
E
102
}
330
E
  0
SCALE
  5
4C
102
{ACAD_REACTORS
330
4B
102
}
330
4B
100
AcDbScale
 70
     0
300
1:1
140
1.0
141
1.0
290
     1
  0
SCALE
  5
4D
102
{ACAD_REACTORS
330
4B
102
}
330
4B
100
AcDbScale
 70
     0
300
1:2
140
1.0
141
2.0
290
     0
  0
SCALE
  5
4E
102
{ACAD_REACTORS
330
4B
102
}
330
4B
100
AcDbScale
 70
     0
300
1:4
140
1.0
141
4.0
290
     0
  0
SCALE
  5
4F
102
{ACAD_REACTORS
330
4B
102
}
330
4B
100
AcDbScale
 70
     0
300
1:5
140
1.0
141
5.0
290
     0
  0
SCALE
  5
50
102
{ACAD_REACTORS
330
4B
102
}
330
4B
100
AcDbScale
 70
     0
300
1:8
140
1.0
141
8.0
290
     0
  0
SCALE
  5
51
102
{ACAD_REACTORS
330
4B
102
}
330
4B
100
AcDbScale
 70
     0
300
1:10
140
1.0
141
10.0
290
     0
  0
SCALE
  5
52
102
{ACAD_REACTORS
330
4B
102
}
330
4B
100
AcDbScale
 70
     0
300
1:16
140
1.0
141
16.0
290
     0
  0
SCALE
  5
53
102
{ACAD_REACTORS
330
4B
102
}
330
4B
100
AcDbScale
 70
     0
300
1:20
140
1.0
141
20.0
290
     0
  0
SCALE
  5
54
102
{ACAD_REACTORS
330
4B
102
}
330
4B
100
AcDbScale
 70
     0
300
1:30
140
1.0
141
30.0
290
     0
  0
SCALE
  5
55
102
{ACAD_REACTORS
330
4B
102
}
330
4B
100
AcDbScale
 70
     0
300
1:40
140
1.0
141
40.0
290
     0
  0
SCALE
  5
56
102
{ACAD_REACTORS
330
4B
102
}
330
4B
100
AcDbScale
 70
     0
300
1:50
140
1.0
141
50.0
290
     0
  0
SCALE
  5
57
102
{ACAD_REACTORS
330
4B
102
}
330
4B
100
AcDbScale
 70
     0
300
1:100
140
1.0
141
100.0
290
     0
  0
SCALE
  5
58
102
{ACAD_REACTORS
330
4B
102
}
330
4B
100
AcDbScale
 70
     0
300
2:1
140
2.0
141
1.0
290
     0
  0
SCALE
  5
59
102
{ACAD_REACTORS
330
4B
102
}
330
4B
100
AcDbScale
 70
     0
300
4:1
140
4.0
141
1.0
290
     0
  0
SCALE
  5
5A
102
{ACAD_REACTORS
330
4B
102
}
330
4B
100
AcDbScale
 70
     0
300
8:1
140
8.0
141
1.0
290
     0
  0
SCALE
  5
5B
102
{ACAD_REACTORS
330
4B
102
}
330
4B
100
AcDbScale
 70
     0
300
10:1
140
10.0
141
1.0
290
     0
  0
SCALE
  5
5C
102
{ACAD_REACTORS
330
4B
102
}
330
4B
100
AcDbScale
 70
     0
300
100:1
140
100.0
141
1.0
290
     0
  0
SCALE
  5
5D
102
{ACAD_REACTORS
330
4B
102
}
330
4B
100
AcDbScale
 70
     0
300
1/128" = 1'-0"
140
0.0078125
141
12.0
290
     0
  0
SCALE
  5
5E
102
{ACAD_REACTORS
330
4B
102
}
330
4B
100
AcDbScale
 70
     0
300
1/64" = 1'-0"
140
0.015625
141
12.0
290
     0
  0
SCALE
  5
5F
102
{ACAD_REACTORS
330
4B
102
}
330
4B
100
AcDbScale
 70
     0
300
1/32" = 1'-0"
140
0.03125
141
12.0
290
     0
  0
SCALE
  5
60
102
{ACAD_REACTORS
330
4B
102
}
330
4B
100
AcDbScale
 70
     0
300
1/16" = 1'-0"
140
0.0625
141
12.0
290
     0
  0
SCALE
  5
61
102
{ACAD_REACTORS
330
4B
102
}
330
4B
100
AcDbScale
 70
     0
300
3/32" = 1'-0"
140
0.09375
141
12.0
290
     0
  0
SCALE
  5
62
102
{ACAD_REACTORS
330
4B
102
}
330
4B
100
AcDbScale
 70
     0
300
1/8" = 1'-0"
140
0.125
141
12.0
290
     0
  0
SCALE
  5
63
102
{ACAD_REACTORS
330
4B
102
}
330
4B
100
AcDbScale
 70
     0
300
3/16" = 1'-0"
140
0.1875
141
12.0
290
     0
  0
SCALE
  5
64
102
{ACAD_REACTORS
330
4B
102
}
330
4B
100
AcDbScale
 70
     0
300
1/4" = 1'-0"
140
0.25
141
12.0
290
     0
  0
SCALE
  5
65
102
{ACAD_REACTORS
330
4B
102
}
330
4B
100
AcDbScale
 70
     0
300
3/8" = 1'-0"
140
0.375
141
12.0
290
     0
  0
SCALE
  5
66
102
{ACAD_REACTORS
330
4B
102
}
330
4B
100
AcDbScale
 70
     0
300
1/2" = 1'-0"
140
0.5
141
12.0
290
     0
  0
SCALE
  5
67
102
{ACAD_REACTORS
330
4B
102
}
330
4B
100
AcDbScale
 70
     0
300
3/4" = 1'-0"
140
0.75
141
12.0
290
     0
  0
SCALE
  5
68
102
{ACAD_REACTORS
330
4B
102
}
330
4B
100
AcDbScale
 70
     0
300
1" = 1'-0"
140
1.0
141
12.0
290
     0
  0
SCALE
  5
69
102
{ACAD_REACTORS
330
4B
102
}
330
4B
100
AcDbScale
 70
     0
300
1-1/2" = 1'-0"
140
1.5
141
12.0
290
     0
  0
SCALE
  5
6A
102
{ACAD_REACTORS
330
4B
102
}
330
4B
100
AcDbScale
 70
     0
300
3" = 1'-0"
140
3.0
141
12.0
290
     0
  0
SCALE
  5
6B
102
{ACAD_REACTORS
330
4B
102
}
330
4B
100
AcDbScale
 70
     0
300
6" = 1'-0"
140
6.0
141
12.0
290
     0
  0
SCALE
  5
6C
102
{ACAD_REACTORS
330
4B
102
}
330
4B
100
AcDbScale
 70
     0
300
1'-0" = 1'-0"
140
12.0
141
12.0
290
     0
  0
VISUALSTYLE
  5
2F
102
{ACAD_REACTORS
330
2A
102
}
330
2A
100
AcDbVisualStyle
  2
2dWireframe
 70
     4
 71
     0
 72
     2
 73
     0
 90
        0
 40
-0.6
 41
-30.0
 62
     5
 63
     7
 74
     1
 91
        4
 64
     7
 65
   257
 75
     1
175
     1
 42
1.0
 92
        0
 66
   257
 43
1.0
 76
     1
 77
     6
 78
     2
 67
     7
 79
     5
170
     0
171
     0
290
     0
174
     0
 93
        1
 44
0.0
173
     0
291
     0
 45
0.0
1001
ACAD
1000
AcDbSavedByObjectVersion
1070
     0
  0
VISUALSTYLE
  5
31
102
{ACAD_REACTORS
330
2A
102
}
330
2A
100
AcDbVisualStyle
  2
3D Hidden
 70
     6
 71
     1
 72
     2
 73
     2
 90
        0
 40
-0.6
 41
-30.0
 62
     5
 63
     7
 74
     2
 91
        2
 64
     7
 65
   257
 75
     2
175
     1
 42
40.0
 92
        0
 66
   257
 43
1.0
 76
     1
 77
     6
 78
     2
 67
     7
 79
     3
170
     0
171
     0
290
     0
174
     0
 93
        1
 44
0.0
173
     0
291
     0
 45
0.0
1001
ACAD
1000
AcDbSavedByObjectVersion
1070
     0
  0
VISUALSTYLE
  5
30
102
{ACAD_REACTORS
330
2A
102
}
330
2A
100
AcDbVisualStyle
  2
3dWireframe
 70
     5
 71
     0
 72
     2
 73
     0
 90
        0
 40
-0.6
 41
-30.0
 62
     5
 63
     7
 74
     1
 91
        4
 64
     7
 65
   257
 75
     1
175
     1
 42
1.0
 92
        0
 66
   257
 43
1.0
 76
     1
 77
     6
 78
     2
 67
     7
 79
     5
170
     0
171
     0
290
     0
174
     0
 93
        1
 44
0.0
173
     0
291
     0
 45
0.0
1001
ACAD
1000
AcDbSavedByObjectVersion
1070
     0
  0
VISUALSTYLE
  5
32
102
{ACAD_REACTORS
330
2A
102
}
330
2A
100
AcDbVisualStyle
  2
Basic
 70
     7
 71
     1
 72
     0
 73
     1
 90
        0
 40
-0.6
 41
-30.0
 62
     5
 63
     7
 74
     0
 91
        4
 64
     7
 65
   257
 75
     1
175
     1
 42
1.0
 92
        8
 66
     7
 43
1.0
 76
     1
 77
     6
 78
     2
 67
     7
 79
     5
170
     0
171
     0
290
     0
174
     0
 93
        1
 44
0.0
173
     0
291
     1
 45
0.0
1001
ACAD
1000
AcDbSavedByObjectVersion
1070
     0
  0
VISUALSTYLE
  5
36
102
{ACAD_REACTORS
330
2A
102
}
330
2A
100
AcDbVisualStyle
  2
Brighten
 70
    12
 71
     2
 72
     2
 73
     0
 90
        0
 40
-0.6
 41
-30.0
 62
     5
 63
     7
 74
     1
 91
        4
 64
     7
 65
   257
 75
     1
175
     1
 42
1.0
 92
        8
 66
     7
 43
1.0
 76
     1
 77
     6
 78
     2
 67
     7
 79
     5
170
     0
171
     0
290
     0
174
     0
 93
        1
 44
50.0
173
     0
291
     1
 45
0.0
1001
ACAD
1000
AcDbSavedByObjectVersion
1070
     0
  0
VISUALSTYLE
  5
3A
102
{ACAD_REACTORS
330
2A
102
}
330
2A
100
AcDbVisualStyle
  2
ColorChange
 70
    16
 71
     2
 72
     2
 73
     3
 90
        0
 40
-0.6
 41
-30.0
 62
     5
 63
     8
 74
     1
 91
        4
 64
     7
 65
   257
 75
     1
175
     1
 42
1.0
 92
        8
 66
     8
 43
1.0
 76
     1
 77
     6
 78
     2
 67
     7
 79
     5
170
     0
171
     0
290
     0
174
     0
 93
        1
 44
0.0
173
     0
291
     1
 45
0.0
1001
ACAD
1000
AcDbSavedByObjectVersion
1070
     0
  0
VISUALSTYLE
  5
34
102
{ACAD_REACTORS
330
2A
102
}
330
2A
100
AcDbVisualStyle
  2
Conceptual
 70
     9
 71
     3
 72
     2
 73
     0
 90
        0
 40
-0.6
 41
-30.0
 62
     5
 63
     7
 74
     2
 91
        2
 64
     7
 65
   257
 75
     1
175
     1
 42
40.0
 92
        8
 66
     7
 43
1.0
 76
     1
 77
     6
 78
     2
 67
     7
 79
     3
170
     0
171
     0
290
     0
174
     0
 93
        1
 44
0.0
173
     0
291
     0
 45
0.0
1001
ACAD
1000
AcDbSavedByObjectVersion
1070
     0
  0
VISUALSTYLE
  5
35
102
{ACAD_REACTORS
330
2A
102
}
330
2A
100
AcDbVisualStyle
  2
Dim
 70
    11
 71
     2
 72
     2
 73
     0
 90
        0
 40
-0.6
 41
-30.0
 62
     5
 63
     7
 74
     1
 91
        4
 64
     7
 65
   257
 75
     1
175
     1
 42
1.0
 92
        8
 66
     7
 43
1.0
 76
     1
 77
     6
 78
     2
 67
     7
 79
     5
170
     0
171
     0
290
     0
174
     0
 93
        1
 44
-50.0
173
     0
291
     1
 45
0.0
1001
ACAD
1000
AcDbSavedByObjectVersion
1070
     0
  0
VISUALSTYLE
  5
39
102
{ACAD_REACTORS
330
2A
102
}
330
2A
100
AcDbVisualStyle
  2
Facepattern
 70
    15
 71
     2
 72
     2
 73
     0
 90
        0
 40
-0.6
 41
-30.0
 62
     5
 63
     7
 74
     1
 91
        4
 64
     7
 65
   257
 75
     1
175
     1
 42
1.0
 92
        8
 66
     7
 43
1.0
 76
     1
 77
     6
 78
     2
 67
     7
 79
     5
170
     0
171
     0
290
     0
174
     0
 93
        1
 44
0.0
173
     0
291
     1
 45
0.0
1001
ACAD
1000
AcDbSavedByObjectVersion
1070
     0
  0
VISUALSTYLE
  5
2B
102
{ACAD_REACTORS
330
2A
102
}
330
2A
100
AcDbVisualStyle
  2
Flat
 70
     0
 71
     2
 72
     1
 73
     1
 90
        2
 40
-0.6
 41
30.0
 62
     5
 63
     7
 74
     0
 91
        4
 64
     7
 65
   257
 75
     1
175
     1
 42
1.0
 92
        8
 66
     7
 43
1.0
 76
     1
 77
     6
 78
     2
 67
     7
 79
     5
170
     0
171
     0
290
     0
174
     0
 93
       13
 44
0.0
173
     0
291
     1
 45
0.0
1001
ACAD
1000
AcDbSavedByObjectVersion
1070
     0
  0
VISUALSTYLE
  5
2C
102
{ACAD_REACTORS
330
2A
102
}
330
2A
100
AcDbVisualStyle
  2
FlatWithEdges
 70
     1
 71
     2
 72
     1
 73
     1
 90
        2
 40
-0.6
 41
30.0
 62
     5
 63
     7
 74
     1
 91
        4
 64
     7
 65
   257
 75
     1
175
     1
 42
1.0
 92
        0
 66
   257
 43
1.0
 76
     1
 77
     6
 78
     2
 67
     7
 79
     5
170
     0
171
     0
290
     0
174
     0
 93
       13
 44
0.0
173
     0
291
     1
 45
0.0
1001
ACAD
1000
AcDbSavedByObjectVersion
1070
     0
  0
VISUALSTYLE
  5
2D
102
{ACAD_REACTORS
330
2A
102
}
330
2A
100
AcDbVisualStyle
  2
Gouraud
 70
     2
 71
     2
 72
     2
 73
     1
 90
        2
 40
-0.6
 41
30.0
 62
     5
 63
     7
 74
     0
 91
        4
 64
     7
 65
   257
 75
     1
175
     1
 42
1.0
 92
        0
 66
     7
 43
1.0
 76
     1
 77
     6
 78
     2
 67
     7
 79
     5
170
     0
171
     0
290
     0
174
     0
 93
       13
 44
0.0
173
     0
291
     1
 45
0.0
1001
ACAD
1000
AcDbSavedByObjectVersion
1070
     0
  0
VISUALSTYLE
  5
2E
102
{ACAD_REACTORS
330
2A
102
}
330
2A
100
AcDbVisualStyle
  2
GouraudWithEdges
 70
     3
 71
     2
 72
     2
 73
     1
 90
        2
 40
-0.6
 41
30.0
 62
     5
 63
     7
 74
     1
 91
        4
 64
     7
 65
   257
 75
     1
175
     1
 42
1.0
 92
        0
 66
   257
 43
1.0
 76
     1
 77
     6
 78
     2
 67
     7
 79
     5
170
     0
171
     0
290
     0
174
     0
 93
       13
 44
0.0
173
     0
291
     1
 45
0.0
1001
ACAD
1000
AcDbSavedByObjectVersion
1070
     0
  0
VISUALSTYLE
  5
38
102
{ACAD_REACTORS
330
2A
102
}
330
2A
100
AcDbVisualStyle
  2
Linepattern
 70
    14
 71
     2
 72
     2
 73
     0
 90
        0
 40
-0.6
 41
-30.0
 62
     5
 63
     7
 74
     1
 91
        4
 64
     7
 65
   257
 75
     7
175
     7
 42
1.0
 92
        8
 66
     7
 43
1.0
 76
     1
 77
     6
 78
     2
 67
     7
 79
     5
170
     0
171
     0
290
     0
174
     0
 93
        1
 44
0.0
173
     0
291
     1
 45
0.0
1001
ACAD
1000
AcDbSavedByObjectVersion
1070
     0
  0
VISUALSTYLE
  5
33
102
{ACAD_REACTORS
330
2A
102
}
330
2A
100
AcDbVisualStyle
  2
Realistic
 70
     8
 71
     2
 72
     2
 73
     0
 90
        0
 40
-0.6
 41
-30.0
 62
     5
 63
     7
 74
     1
 91
        0
 64
     7
 65
   257
 75
     1
175
     1
 42
1.0
 92
        8
 66
     8
 43
1.0
 76
     1
 77
     6
 78
     2
 67
     7
 79
     5
170
     0
171
     0
290
     0
174
     0
 93
       13
 44
0.0
173
     0
291
     0
 45
0.0
1001
ACAD
1000
AcDbSavedByObjectVersion
1070
     0
  0
VISUALSTYLE
  5
37
102
{ACAD_REACTORS
330
2A
102
}
330
2A
100
AcDbVisualStyle
  2
Thicken
 70
    13
 71
     2
 72
     2
 73
     0
 90
        0
 40
-0.6
 41
-30.0
 62
     5
 63
     7
 74
     1
 91
        4
 64
     7
 65
   257
 75
     1
175
     1
 42
1.0
 92
       12
 66
     7
 43
1.0
 76
     1
 77
     6
 78
     2
 67
     7
 79
     5
170
     0
171
     0
290
     0
174
     0
 93
        1
 44
0.0
173
     0
291
     1
 45
0.0
1001
ACAD
1000
AcDbSavedByObjectVersion
1070
     0
  0
DICTIONARYVAR
  5
145
102
{ACAD_REACTORS
330
142
102
}
330
142
100
DictionaryVariables
280
     0
  1
1:1
  0
ENDSEC
  0
EOF
