  0
SECTION
  2
HEADER
  9
$ACADVER
  1
AC1015
  9
$ACADMAINTVER
 70
     6
  9
$DWGCODEPAGE
  3
ANSI_1252
  9
$INSBASE
 10
0.0
 20
0.0
 30
0.0
  9
$EXTMIN
 10
42.5512006620734
 20
244.1526699679
 30
0.0
  9
$EXTMAX
 10
234.336954497407
 20
372.090315704984
 30
0.0
  9
$LIMMIN
 10
0.0
 20
0.0
  9
$LIMMAX
 10
12.0
 20
9.0
  9
$ORTHOMODE
 70
     0
  9
$REGENMODE
 70
     1
  9
$FILLMODE
 70
     1
  9
$QTEXTMODE
 70
     0
  9
$MIRRTEXT
 70
     1
  9
$LTSCALE
 40
1.0
  9
$ATTMODE
 70
     1
  9
$TEXTSIZE
 40
0.2
  9
$TRACEWID
 40
0.05
  9
$TEXTSTYLE
  7
Standard
  9
$CLAYER
  8
0
  9
$CELTYPE
  6
ByLayer
  9
$CECOLOR
 62
   256
  9
$CELTSCALE
 40
1.0
  9
$DISPSILH
 70
     0
  9
$DIMSCALE
 40
1.0
  9
$DIMASZ
 40
0.18
  9
$DIMEXO
 40
0.0625
  9
$DIMDLI
 40
0.38
  9
$DIMRND
 40
0.0
  9
$DIMDLE
 40
0.0
  9
$DIMEXE
 40
0.18
  9
$DIMTP
 40
0.0
  9
$DIMTM
 40
0.0
  9
$DIMTXT
 40
0.18
  9
$DIMCEN
 40
0.09
  9
$DIMTSZ
 40
0.0
  9
$DIMTOL
 70
     0
  9
$DIMLIM
 70
     0
  9
$DIMTIH
 70
     1
  9
$DIMTOH
 70
     1
  9
$DIMSE1
 70
     0
  9
$DIMSE2
 70
     0
  9
$DIMTAD
 70
     0
  9
$DIMZIN
 70
     0
  9
$DIMBLK
  1

  9
$DIMASO
 70
     1
  9
$DIMSHO
 70
     1
  9
$DIMPOST
  1

  9
$DIMAPOST
  1

  9
$DIMALT
 70
     0
  9
$DIMALTD
 70
     2
  9
$DIMALTF
 40
25.4
  9
$DIMLFAC
 40
1.0
  9
$DIMTOFL
 70
     0
  9
$DIMTVP
 40
0.0
  9
$DIMTIX
 70
     0
  9
$DIMSOXD
 70
     0
  9
$DIMSAH
 70
     0
  9
$DIMBLK1
  1

  9
$DIMBLK2
  1

  9
$DIMSTYLE
  2
Standard
  9
$DIMCLRD
 70
     0
  9
$DIMCLRE
 70
     0
  9
$DIMCLRT
 70
     0
  9
$DIMTFAC
 40
1.0
  9
$DIMGAP
 40
0.09
  9
$DIMJUST
 70
     0
  9
$DIMSD1
 70
     0
  9
$DIMSD2
 70
     0
  9
$DIMTOLJ
 70
     1
  9
$DIMTZIN
 70
     0
  9
$DIMALTZ
 70
     0
  9
$DIMALTTZ
 70
     0
  9
$DIMUPT
 70
     0
  9
$DIMDEC
 70
     4
  9
$DIMTDEC
 70
     4
  9
$DIMALTU
 70
     2
  9
$DIMALTTD
 70
     2
  9
$DIMTXSTY
  7
Standard
  9
$DIMAUNIT
 70
     0
  9
$DIMADEC
 70
     0
  9
$DIMALTRND
 40
0.0
  9
$DIMAZIN
 70
     0
  9
$DIMDSEP
 70
    46
  9
$DIMATFIT
 70
     3
  9
$DIMFRAC
 70
     0
  9
$DIMLDRBLK
  1

  9
$DIMLUNIT
 70
     2
  9
$DIMLWD
 70
    -2
  9
$DIMLWE
 70
    -2
  9
$DIMTMOVE
 70
     0
  9
$LUNITS
 70
     2
  9
$LUPREC
 70
     4
  9
$SKETCHINC
 40
0.1
  9
$FILLETRAD
 40
0.5
  9
$AUNITS
 70
     0
  9
$AUPREC
 70
     0
  9
$MENU
  1
.
  9
$ELEVATION
 40
0.0
  9
$PELEVATION
 40
0.0
  9
$THICKNESS
 40
0.0
  9
$LIMCHECK
 70
     0
  9
$CHAMFERA
 40
0.5
  9
$CHAMFERB
 40
0.5
  9
$CHAMFERC
 40
1.0
  9
$CHAMFERD
 40
0.0
  9
$SKPOLY
 70
     0
  9
$TDCREATE
 40
2456748.735098449
  9
$TDUCREATE
 40
2456748.651765116
  9
$TDUPDATE
 40
2456748.735098461
  9
$TDUUPDATE
 40
2456748.651765127
  9
$TDINDWG
 40
0.0000000116
  9
$TDUSRTIMER
 40
0.0000000116
  9
$USRTIMER
 70
     1
  9
$ANGBASE
 50
0.0
  9
$ANGDIR
 70
     0
  9
$PDMODE
 70
     0
  9
$PDSIZE
 40
0.0
  9
$PLINEWID
 40
0.0
  9
$SPLFRAME
 70
     0
  9
$SPLINETYPE
 70
     6
  9
$SPLINESEGS
 70
     8
  9
$HANDSEED
  5
146
  9
$SURFTAB1
 70
     6
  9
$SURFTAB2
 70
     6
  9
$SURFTYPE
 70
     6
  9
$SURFU
 70
     6
  9
$SURFV
 70
     6
  9
$UCSBASE
  2

  9
$UCSNAME
  2

  9
$UCSORG
 10
0.0
 20
0.0
 30
0.0
  9
$UCSXDIR
 10
1.0
 20
0.0
 30
0.0
  9
$UCSYDIR
 10
0.0
 20
1.0
 30
0.0
  9
$UCSORTHOREF
  2

  9
$UCSORTHOVIEW
 70
     0
  9
$UCSORGTOP
 10
0.0
 20
0.0
 30
0.0
  9
$UCSORGBOTTOM
 10
0.0
 20
0.0
 30
0.0
  9
$UCSORGLEFT
 10
0.0
 20
0.0
 30
0.0
  9
$UCSORGRIGHT
 10
0.0
 20
0.0
 30
0.0
  9
$UCSORGFRONT
 10
0.0
 20
0.0
 30
0.0
  9
$UCSORGBACK
 10
0.0
 20
0.0
 30
0.0
  9
$PUCSBASE
  2

  9
$PUCSNAME
  2

  9
$PUCSORG
 10
0.0
 20
0.0
 30
0.0
  9
$PUCSXDIR
 10
1.0
 20
0.0
 30
0.0
  9
$PUCSYDIR
 10
0.0
 20
1.0
 30
0.0
  9
$PUCSORTHOREF
  2

  9
$PUCSORTHOVIEW
 70
     0
  9
$PUCSORGTOP
 10
0.0
 20
0.0
 30
0.0
  9
$PUCSORGBOTTOM
 10
0.0
 20
0.0
 30
0.0
  9
$PUCSORGLEFT
 10
0.0
 20
0.0
 30
0.0
  9
$PUCSORGRIGHT
 10
0.0
 20
0.0
 30
0.0
  9
$PUCSORGFRONT
 10
0.0
 20
0.0
 30
0.0
  9
$PUCSORGBACK
 10
0.0
 20
0.0
 30
0.0
  9
$USERI1
 70
     0
  9
$USERI2
 70
     0
  9
$USERI3
 70
     0
  9
$USERI4
 70
     0
  9
$USERI5
 70
     0
  9
$USERR1
 40
16.5
  9
$USERR2
 40
0.0
  9
$USERR3
 40
0.0
  9
$USERR4
 40
0.0
  9
$USERR5
 40
0.0
  9
$WORLDVIEW
 70
     1
  9
$SHADEDGE
 70
     3
  9
$SHADEDIF
 70
    70
  9
$TILEMODE
 70
     1
  9
$MAXACTVP
 70
    64
  9
$PINSBASE
 10
0.0
 20
0.0
 30
0.0
  9
$PLIMCHECK
 70
     0
  9
$PEXTMIN
 10
1.00000000000000E+20
 20
1.00000000000000E+20
 30
1.00000000000000E+20
  9
$PEXTMAX
 10
-1.00000000000000E+20
 20
-1.00000000000000E+20
 30
-1.00000000000000E+20
  9
$PLIMMIN
 10
0.0
 20
0.0
  9
$PLIMMAX
 10
12.0
 20
9.0
  9
$UNITMODE
 70
     0
  9
$VISRETAIN
 70
     1
  9
$PLINEGEN
 70
     0
  9
$PSLTSCALE
 70
     1
  9
$TREEDEPTH
 70
  3020
  9
$CMLSTYLE
  2
Standard
  9
$CMLJUST
 70
     0
  9
$CMLSCALE
 40
1.0
  9
$PROXYGRAPHICS
 70
     1
  9
$MEASUREMENT
 70
     1
  9
$CELWEIGHT
370
    -1
  9
$ENDCAPS
280
     0
  9
$JOINSTYLE
280
     0
  9
$LWDISPLAY
290
     0
  9
$INSUNITS
 70
     1
  9
$HYPERLINKBASE
  1

  9
$STYLESHEET
  1

  9
$XEDIT
290
     1
  9
$CEPSNTYPE
380
     0
  9
$PSTYLEMODE
290
     1
  9
$FINGERPRINTGUID
  2
{49C25A33-C409-435A-91C0-70C6F7857238}
  9
$VERSIONGUID
  2
{FAEB1C32-E019-11D5-929B-00C0DF256EC4}
  9
$EXTNAMES
290
     1
  9
$PSVPSCALE
 40
0.0
  9
$OLESTARTUP
290
     0
  0
ENDSEC
  0
SECTION
  2
CLASSES
  0
CLASS
  1
ACDBDICTIONARYWDFLT
  2
AcDbDictionaryWithDefault
  3
ObjectDBX Classes
 90
        0
280
     0
281
     0
  0
CLASS
  1
VISUALSTYLE
  2
AcDbVisualStyle
  3
ObjectDBX Classes
 90
     4095
280
     0
281
     0
  0
CLASS
  1
SCALE
  2
AcDbScale
  3
ObjectDBX Classes
 90
     1153
280
     0
281
     0
  0
CLASS
  1

  2
exOdDbPolyline
  3

 90
        0
280
     0
281
     1
  0
CLASS
  1

  2
exOdDbCircle
  3

 90
        0
280
     0
281
     1
  0
CLASS
  1

  2
exOdDbSpline
  3

 90
        0
280
     0
281
     1
  0
CLASS
  1
DICTIONARYVAR
  2
AcDbDictionaryVar
  3
ObjectDBX Classes
 90
        0
280
     0
281
     0
  0
CLASS
  1
ACDBPLACEHOLDER
  2
AcDbPlaceHolder
  3
ObjectDBX Classes
 90
        0
280
     0
281
     0
  0
CLASS
  1
LAYOUT
  2
AcDbLayout
  3
ObjectDBX Classes
 90
        0
280
     0
281
     0
  0
ENDSEC
  0
SECTION
  2
TABLES
  0
TABLE
  2
VPORT
  5
8
330
0
100
AcDbSymbolTable
 70
     1
  0
VPORT
  5
29
330
8
100
AcDbSymbolTableRecord
100
AcDbViewportTableRecord
  2
*Active
 70
     0
 10
0.0
 20
0.0
 11
1.0
 21
1.0
 12
138.4440775797402
 22
308.121492836442
 13
0.0
 23
0.0
 14
0.5
 24
0.5
 15
0.5
 25
0.5
 16
0.0
 26
0.0
 36
1.0
 17
0.0
 27
0.0
 37
0.0
 40
140.7314103107924
 41
1.60267857142857
 42
50.0
 43
0.0
 44
0.0
 50
0.0
 51
0.0
 71
     0
 72
   100
 73
     1
 74
     3
 75
     0
 76
     0
 77
     0
 78
     0
281
     0
 65
     1
110
0.0
120
0.0
130
0.0
111
1.0
121
0.0
131
0.0
112
0.0
122
1.0
132
0.0
 79
     0
146
0.0
  0
ENDTAB
  0
TABLE
  2
LTYPE
  5
5
330
0
100
AcDbSymbolTable
 70
     8
  0
LTYPE
  5
14
330
5
100
AcDbSymbolTableRecord
100
AcDbLinetypeTableRecord
  2
ByBlock
 70
     0
  3

 72
    65
 73
     0
 40
0.0
  0
LTYPE
  5
15
330
5
100
AcDbSymbolTableRecord
100
AcDbLinetypeTableRecord
  2
ByLayer
 70
     0
  3

 72
    65
 73
     0
 40
0.0
  0
LTYPE
  5
16
330
5
100
AcDbSymbolTableRecord
100
AcDbLinetypeTableRecord
  2
Continuous
 70
     0
  3
Solid line
 72
    65
 73
     0
 40
0.0
  0
LTYPE
  5
3B
330
5
100
AcDbSymbolTableRecord
100
AcDbLinetypeTableRecord
  2
DASHED
 70
     0
  3
Dashed
 72
    65
 73
     2
 40
15.0
 49
7.0
 74
     0
 49
-8.0
 74
     0
  0
LTYPE
  5
3C
330
5
100
AcDbSymbolTableRecord
100
AcDbLinetypeTableRecord
  2
DOTTED
 70
     0
  3
Dotted
 72
    65
 73
     2
 40
1.0
 49
0.0
 74
     0
 49
-1.0
 74
     0
  0
LTYPE
  5
3D
330
5
100
AcDbSymbolTableRecord
100
AcDbLinetypeTableRecord
  2
DOT_CENTER
 70
     0
  3
Dot_Center
 72
    65
 73
     4
 40
14.0
 49
12.0
 74
     0
 49
-1.0
 74
     0
 49
0.0
 74
     0
 49
-1.0
 74
     0
  0
LTYPE
  5
3E
330
5
100
AcDbSymbolTableRecord
100
AcDbLinetypeTableRecord
  2
LONG_DASHED
 70
     0
  3
Long_Dashed
 72
    65
 73
     2
 40
15.0
 49
10.0
 74
     0
 49
-5.0
 74
     0
  0
LTYPE
  5
3F
330
5
100
AcDbSymbolTableRecord
100
AcDbLinetypeTableRecord
  2
DASH_CENTER
 70
     0
  3
Dash_Center
 72
    65
 73
     4
 40
14.0
 49
11.0
 74
     0
 49
-1.0
 74
     0
 49
1.0
 74
     0
 49
-1.0
 74
     0
  0
LTYPE
  5
40
330
5
100
AcDbSymbolTableRecord
100
AcDbLinetypeTableRecord
  2
PHANTOM
 70
     0
  3
Phantom
 72
    65
 73
     6
 40
13.0
 49
10.0
 74
     0
 49
-1.0
 74
     0
 49
0.0
 74
     0
 49
-1.0
 74
     0
 49
0.0
 74
     0
 49
-1.0
 74
     0
  0
LTYPE
  5
41
330
5
100
AcDbSymbolTableRecord
100
AcDbLinetypeTableRecord
  2
CENTER_DASH_DASH
 70
     0
  3
Center_Dash_Dash
 72
    65
 73
     6
 40
14.0
 49
9.0
 74
     0
 49
-1.0
 74
     0
 49
1.0
 74
     0
 49
-1.0
 74
     0
 49
1.0
 74
     0
 49
-1.0
 74
     0
  0
ENDTAB
  0
TABLE
  2
LAYER
  5
2
330
0
100
AcDbSymbolTable
 70
     7
  0
LAYER
  5
10
330
2
100
AcDbSymbolTableRecord
100
AcDbLayerTableRecord
  2
0
 70
     0
 62
     7
  6
Continuous
370
    -3
390
F
  0
LAYER
  5
42
330
2
100
AcDbSymbolTableRecord
100
AcDbLayerTableRecord
  2
1
 70
     0
 62
     7
  6
Continuous
370
    -3
390
F
  0
LAYER
  5
43
330
2
100
AcDbSymbolTableRecord
100
AcDbLayerTableRecord
  2
BEZUGSACHSEN
 70
     0
 62
     7
  6
Continuous
370
    -3
390
F
  0
LAYER
  5
44
330
2
100
AcDbSymbolTableRecord
100
AcDbLayerTableRecord
  2
DEFAULT_2
 70
     0
 62
     7
  6
Continuous
370
    -3
390
F
  0
LAYER
  5
45
330
2
100
AcDbSymbolTableRecord
100
AcDbLayerTableRecord
  2
FASEN
 70
     0
 62
     7
  6
Continuous
370
    -3
390
F
  0
LAYER
  5
46
330
2
100
AcDbSymbolTableRecord
100
AcDbLayerTableRecord
  2
GEWINDE
 70
     0
 62
     7
  6
Continuous
370
    -3
390
F
  0
LAYER
  5
47
330
2
100
AcDbSymbolTableRecord
100
AcDbLayerTableRecord
  2
RUNDUNGEN
 70
     0
 62
     7
  6
Continuous
370
    -3
390
F
  0
ENDTAB
  0
TABLE
  2
STYLE
  5
3
330
0
100
AcDbSymbolTable
 70
     2
  0
STYLE
  5
11
330
3
100
AcDbSymbolTableRecord
100
AcDbTextStyleTableRecord
  2
Standard
 70
     0
 40
0.0
 41
1.0
 50
0.0
 71
     0
 42
0.2
  3
txt
  4

  0
STYLE
  5
6E
330
3
100
AcDbSymbolTableRecord
100
AcDbTextStyleTableRecord
  2
CONVERTER_11
 70
     0
 40
0.0
 41
0.72
 50
0.0
 71
     0
 42
0.2
  3
txt.shx
  4

  0
ENDTAB
  0
TABLE
  2
VIEW
  5
6
330
0
100
AcDbSymbolTable
 70
     0
  0
ENDTAB
  0
TABLE
  2
UCS
  5
7
330
0
100
AcDbSymbolTable
 70
     0
  0
ENDTAB
  0
TABLE
  2
APPID
  5
9
330
0
100
AcDbSymbolTable
 70
     1
  0
APPID
  5
12
330
9
100
AcDbSymbolTableRecord
100
AcDbRegAppTableRecord
  2
ACAD
 70
     0
  0
ENDTAB
  0
TABLE
  2
DIMSTYLE
  5
A
330
0
100
AcDbSymbolTable
 70
     6
100
AcDbDimStyleTable
  0
DIMSTYLE
105
27
330
A
100
AcDbSymbolTableRecord
100
AcDbDimStyleTableRecord
  2
Standard
 70
     0
340
11
  0
DIMSTYLE
105
10D
102
{ACAD_REACTORS
330
10E
102
}
330
A
100
AcDbSymbolTableRecord
100
AcDbDimStyleTableRecord
  2
ME10_DIM_10
 70
     0
  3
\U+2300<>
 41
3.5
 42
2.0
 44
2.0
 71
     1
 73
     0
 74
     0
 77
     1
 78
     8
140
3.5
146
0.7
147
2.0
172
     1
173
     1
176
     2
177
     2
178
     3
271
     2
272
     0
340
6E
  0
DIMSTYLE
105
118
102
{ACAD_REACTORS
330
119
102
}
330
A
100
AcDbSymbolTableRecord
100
AcDbDimStyleTableRecord
  2
ME10_DIM_11
 70
     0
  3
\U+2300<>
 41
3.5
 42
2.0
 44
2.0
 71
     1
 73
     0
 74
     0
 77
     1
 78
     8
140
3.5
146
0.7
147
2.0
172
     1
173
     1
176
     2
177
     2
178
     3
271
     2
272
     0
340
6E
  0
DIMSTYLE
105
123
102
{ACAD_REACTORS
330
124
102
}
330
A
100
AcDbSymbolTableRecord
100
AcDbDimStyleTableRecord
  2
ME10_DIM_12
 70
     0
  3
<>
 41
3.5
 42
2.0
 44
2.0
 71
     1
 73
     0
 74
     0
 77
     1
 78
     8
140
3.5
146
0.7
147
2.0
172
     1
173
     1
176
     2
177
     2
178
     3
271
     2
272
     0
340
6E
  0
DIMSTYLE
105
12E
102
{ACAD_REACTORS
330
12F
102
}
330
A
100
AcDbSymbolTableRecord
100
AcDbDimStyleTableRecord
  2
ME10_DIM_13
 70
     0
  3
<>
 41
3.5
 42
2.0
 44
2.0
 71
     1
 73
     0
 74
     0
 77
     1
 78
     8
140
3.5
146
0.7
147
2.0
172
     1
173
     1
176
     2
177
     2
178
     3
271
     2
272
     0
340
6E
  0
DIMSTYLE
105
139
102
{ACAD_REACTORS
330
13A
102
}
330
A
100
AcDbSymbolTableRecord
100
AcDbDimStyleTableRecord
  2
ME10_DIM_14
 70
     0
  3
<>
 41
3.5
 42
2.0
 44
2.0
 71
     1
 73
     0
 74
     0
 77
     1
 78
     8
140
3.5
146
0.7
147
2.0
172
     1
173
     1
176
     2
177
     2
178
     3
271
     2
272
     0
340
6E
  0
ENDTAB
  0
TABLE
  2
BLOCK_RECORD
  5
1
330
0
100
AcDbSymbolTable
 70
     8
  0
BLOCK_RECORD
  5
1F
330
1
100
AcDbSymbolTableRecord
100
AcDbBlockTableRecord
  2
*Model_Space
340
22
  0
BLOCK_RECORD
  5
1B
330
1
100
AcDbSymbolTableRecord
100
AcDbBlockTableRecord
  2
*Paper_Space
340
1E
  0
BLOCK_RECORD
  5
23
330
1
100
AcDbSymbolTableRecord
100
AcDbBlockTableRecord
  2
*Paper_Space0
340
26
  0
BLOCK_RECORD
  5
48
330
1
100
AcDbSymbolTableRecord
100
AcDbBlockTableRecord
  2
Urheberrecht_DE-EN
340
0
102
{BLKREFS
331
6D
102
}
  0
BLOCK_RECORD
  5
104
330
1
100
AcDbSymbolTableRecord
100
AcDbBlockTableRecord
  2
*D2
340
0
  0
BLOCK_RECORD
  5
10F
330
1
100
AcDbSymbolTableRecord
100
AcDbBlockTableRecord
  2
*D3
340
0
  0
BLOCK_RECORD
  5
11A
330
1
100
AcDbSymbolTableRecord
100
AcDbBlockTableRecord
  2
*D4
340
0
  0
BLOCK_RECORD
  5
125
330
1
100
AcDbSymbolTableRecord
100
AcDbBlockTableRecord
  2
*D5
340
0
  0
BLOCK_RECORD
  5
130
330
1
100
AcDbSymbolTableRecord
100
AcDbBlockTableRecord
  2
*D6
340
0
  0
BLOCK_RECORD
  5
13B
330
1
100
AcDbSymbolTableRecord
100
AcDbBlockTableRecord
  2
*D7
340
0
102
{BLKREFS
331
141
102
}
  0
ENDTAB
  0
ENDSEC
  0
SECTION
  2
BLOCKS
  0
BLOCK
  5
20
330
1F
100
AcDbEntity
  8
0
100
AcDbBlockBegin
  2
*Model_Space
 70
     0
 10
0.0
 20
0.0
 30
0.0
  3
*Model_Space
  1

  0
ENDBLK
  5
21
330
1F
100
AcDbEntity
  8
0
100
AcDbBlockEnd
  0
BLOCK
  5
1C
330
1B
100
AcDbEntity
 67
     1
  8
0
100
AcDbBlockBegin
  2
*Paper_Space
 70
     0
 10
0.0
 20
0.0
 30
0.0
  3
*Paper_Space
  1

  0
ENDBLK
  5
1D
330
1B
100
AcDbEntity
 67
     1
  8
0
100
AcDbBlockEnd
  0
BLOCK
  5
24
330
23
100
AcDbEntity
  8
0
100
AcDbBlockBegin
  2
*Paper_Space0
 70
     0
 10
0.0
 20
0.0
 30
0.0
  3
*Paper_Space0
  1

  0
ENDBLK
  5
25
330
23
100
AcDbEntity
  8
0
100
AcDbBlockEnd
  0
BLOCK
  5
49
330
48
100
AcDbEntity
  8
0
100
AcDbBlockBegin
  2
Urheberrecht_DE-EN
 70
     0
 10
56.5512006620734
 20
313.320097966509
 30
0.0
  3
Urheberrecht_DE-EN
  1

  0
MTEXT
  5
6F
330
48
100
AcDbEntity
  8
1
 62
     1
100
AcDbMText
 10
56.5512006620734
 20
313.320097966509
 30
0.0
 40
2.0
 41
0.0
 71
     7
 72
     1
  1
We own the copyright of this document. It \Pdetermined and may neither be copied or \Pmade accessible to outsiders without our\Ppermission.
  7
CONVERTER_11
 11
0.0
 21
1.0
 31
0.0
 73
     1
 44
0.90036014405762
  0
MTEXT
  5
70
330
48
100
AcDbEntity
  8
1
 62
     1
100
AcDbMText
 10
56.5512006620734
 20
257.0307110492028
 30
0.0
 40
2.0
 41
0.0
 71
     7
 72
     1
  1
F\U+00fcr diese Unterlage behalten wir das Ur-\Pheberrecht. Sie darf nur f\U+00fcr den von uns \Pbestimmten Zweck benutzt und ohne unsere \PZustimmung weder vervielf\U+00e4ltigt noch\PDritten zug\U+00e4nglich gemacht werden.
  7
CONVERTER_11
 11
0.0
 21
1.0
 31
0.0
 73
     1
 44
0.90036014405762
  0
ENDBLK
  5
4A
330
48
100
AcDbEntity
  8
0
100
AcDbBlockEnd
  0
BLOCK
  5
10B
330
104
100
AcDbEntity
  8
0
100
AcDbBlockBegin
  2
*D2
 70
     1
 10
0.0
 20
0.0
 30
0.0
  3
*D2
  1

  0
LINE
  5
105
330
104
100
AcDbEntity
  8
1
  6
Continuous
 62
     2
100
AcDbLine
 10
224.376954645721
 20
303.1526699679
 30
0.0
 11
224.376954645721
 21
285.1526699679
 31
0.0
  0
LINE
  5
106
330
104
100
AcDbEntity
  8
1
  6
Continuous
 62
     2
100
AcDbLine
 10
215.5728385974
 20
303.1526699679
 30
0.0
 11
226.376954645721
 21
303.1526699679
 31
0.0
  0
LINE
  5
107
330
104
100
AcDbEntity
  8
1
  6
Continuous
 62
     2
100
AcDbLine
 10
215.5728385974
 20
285.1526699679
 30
0.0
 11
226.376954645721
 21
285.1526699679
 31
0.0
  0
SOLID
  5
108
330
104
100
AcDbEntity
  8
1
 62
     2
100
AcDbTrace
 10
224.8377383872769
 20
299.6526699679
 30
0.0
 11
223.9161709041651
 21
299.6526699679
 31
0.0
 12
224.376954645721
 22
303.1526699679
 32
0.0
 13
224.376954645721
 23
303.1526699679
 33
0.0
  0
SOLID
  5
109
330
104
100
AcDbEntity
  8
1
 62
     2
100
AcDbTrace
 10
223.9161709041651
 20
288.6526699679
 30
0.0
 11
224.8377383872769
 21
288.6526699679
 31
0.0
 12
224.376954645721
 22
285.1526699679
 32
0.0
 13
224.376954645721
 23
285.1526699679
 33
0.0
  0
MTEXT
  5
10A
330
104
100
AcDbEntity
  8
1
 62
     3
100
AcDbMText
 10
222.376954645721
 20
285.11061118363
 30
0.0
 40
3.5
 41
0.0
 71
     7
 72
     1
  1
\C3;%%c\C3;\C3;18\C2;\H2.45;\S^ ;\C3;
  7
CONVERTER_11
 11
0.0
 21
1.0
 31
0.0
 73
     1
 44
0.60024009603842
  0
ENDBLK
  5
10C
330
104
100
AcDbEntity
  8
0
100
AcDbBlockEnd
  0
BLOCK
  5
116
330
10F
100
AcDbEntity
  8
0
100
AcDbBlockBegin
  2
*D3
 70
     1
 10
0.0
 20
0.0
 30
0.0
  3
*D3
  1

  0
LINE
  5
110
330
10F
100
AcDbEntity
  8
1
  6
Continuous
 62
     2
100
AcDbLine
 10
232.336954497407
 20
319.1526699679
 30
0.0
 11
232.336954497407
 21
269.1526699679
 31
0.0
  0
LINE
  5
111
330
10F
100
AcDbEntity
  8
1
  6
Continuous
 62
     2
100
AcDbLine
 10
202.4841024117
 20
319.1526699679
 30
0.0
 11
234.336954497407
 21
319.1526699679
 31
0.0
  0
LINE
  5
112
330
10F
100
AcDbEntity
  8
1
  6
Continuous
 62
     2
100
AcDbLine
 10
202.4841024117
 20
269.1526699679
 30
0.0
 11
234.336954497407
 21
269.1526699679
 31
0.0
  0
SOLID
  5
113
330
10F
100
AcDbEntity
  8
1
 62
     2
100
AcDbTrace
 10
232.7977382389629
 20
315.6526699679
 30
0.0
 11
231.8761707558511
 21
315.6526699679
 31
0.0
 12
232.336954497407
 22
319.1526699679
 32
0.0
 13
232.336954497407
 23
319.1526699679
 33
0.0
  0
SOLID
  5
114
330
10F
100
AcDbEntity
  8
1
 62
     2
100
AcDbTrace
 10
231.8761707558511
 20
272.6526699679
 30
0.0
 11
232.7977382389629
 21
272.6526699679
 31
0.0
 12
232.336954497407
 22
269.1526699679
 32
0.0
 13
232.336954497407
 23
269.1526699679
 33
0.0
  0
MTEXT
  5
115
330
10F
100
AcDbEntity
  8
1
 62
     3
100
AcDbMText
 10
230.336954497407
 20
285.39296411172
 30
0.0
 40
3.5
 41
0.0
 71
     7
 72
     1
  1
\C3;%%c\C3;\C3;50\C2;\H2.45;\S^ ;\C3;
  7
CONVERTER_11
 11
0.0
 21
1.0
 31
0.0
 73
     1
 44
0.60024009603842
  0
ENDBLK
  5
117
330
10F
100
AcDbEntity
  8
0
100
AcDbBlockEnd
  0
BLOCK
  5
121
330
11A
100
AcDbEntity
  8
0
100
AcDbBlockBegin
  2
*D4
 70
     1
 10
0.0
 20
0.0
 30
0.0
  3
*D4
  1

  0
LINE
  5
11B
330
11A
100
AcDbEntity
  8
1
  6
Continuous
 62
     2
100
AcDbLine
 10
213.5728385974
 20
351.723845393747
 30
0.0
 11
142.5728385974
 21
351.723845393747
 31
0.0
  0
LINE
  5
11C
330
11A
100
AcDbEntity
  8
1
  6
Continuous
 62
     2
100
AcDbLine
 10
213.5728385974
 20
314.5155997071
 30
0.0
 11
213.5728385974
 21
353.723845393747
 31
0.0
  0
LINE
  5
11D
330
11A
100
AcDbEntity
  8
1
  6
Continuous
 62
     2
100
AcDbLine
 10
142.5728385974
 20
346.1526330468
 30
0.0
 11
142.5728385974
 21
353.723845393747
 31
0.0
  0
SOLID
  5
11E
330
11A
100
AcDbEntity
  8
1
 62
     2
100
AcDbTrace
 10
210.0728385974
 20
351.2630616521911
 30
0.0
 11
210.0728385974
 21
352.1846291353029
 31
0.0
 12
213.5728385974
 22
351.723845393747
 32
0.0
 13
213.5728385974
 23
351.723845393747
 33
0.0
  0
SOLID
  5
11F
330
11A
100
AcDbEntity
  8
1
 62
     2
100
AcDbTrace
 10
146.0728385974
 20
352.1846291353029
 30
0.0
 11
146.0728385974
 21
351.2630616521911
 31
0.0
 12
142.5728385974
 22
351.723845393747
 32
0.0
 13
142.5728385974
 23
351.723845393747
 33
0.0
  0
MTEXT
  5
120
330
11A
100
AcDbEntity
  8
1
 62
     3
100
AcDbMText
 10
174.936955535605
 20
353.723845393747
 30
0.0
 40
3.5
 41
0.0
 71
     7
 72
     1
  1
\C3;\C3;\C3;71\C2;\H2.45;\S^ ;\C3;
  7
CONVERTER_11
 11
0.9999999999970619
 21
2.424068405545306E-6
 31
0.0
 73
     1
 44
0.60024009603842
  0
ENDBLK
  5
122
330
11A
100
AcDbEntity
  8
0
100
AcDbBlockEnd
  0
BLOCK
  5
12C
330
125
100
AcDbEntity
  8
0
100
AcDbBlockBegin
  2
*D5
 70
     1
 10
0.0
 20
0.0
 30
0.0
  3
*D5
  1

  0
LINE
  5
126
330
125
100
AcDbEntity
  8
1
  6
Continuous
 62
     2
100
AcDbLine
 10
213.5728385974
 20
359.098551138691
 30
0.0
 11
113.5728385974
 21
359.098551138691
 31
0.0
  0
LINE
  5
127
330
125
100
AcDbEntity
  8
1
  6
Continuous
 62
     2
100
AcDbLine
 10
213.5728385974
 20
314.5155997071
 30
0.0
 11
213.5728385974
 21
361.098551138691
 31
0.0
  0
LINE
  5
128
330
125
100
AcDbEntity
  8
1
  6
Continuous
 62
     2
100
AcDbLine
 10
113.5728385974
 20
346.1526699679
 30
0.0
 11
113.5728385974
 21
361.098551138691
 31
0.0
  0
SOLID
  5
129
330
125
100
AcDbEntity
  8
1
 62
     2
100
AcDbTrace
 10
210.0728385974
 20
358.6377673971351
 30
0.0
 11
210.0728385974
 21
359.5593348802469
 31
0.0
 12
213.5728385974
 22
359.098551138691
 32
0.0
 13
213.5728385974
 23
359.098551138691
 33
0.0
  0
SOLID
  5
12A
330
125
100
AcDbEntity
  8
1
 62
     2
100
AcDbTrace
 10
117.0728385974
 20
359.5593348802469
 30
0.0
 11
117.0728385974
 21
358.6377673971351
 31
0.0
 12
113.5728385974
 22
359.098551138691
 32
0.0
 13
113.5728385974
 23
359.098551138691
 33
0.0
  0
MTEXT
  5
12B
330
125
100
AcDbEntity
  8
1
 62
     3
100
AcDbMText
 10
161.971073400773
 20
361.098551138691
 30
0.0
 40
3.5
 41
0.0
 71
     7
 72
     1
  1
\C3;\C3;\C3;100\C2;\H2.45;\S^ ;\C3;
  7
CONVERTER_11
 11
0.9999999999970619
 21
2.424068405545306E-6
 31
0.0
 73
     1
 44
0.60024009603842
  0
ENDBLK
  5
12D
330
125
100
AcDbEntity
  8
0
100
AcDbBlockEnd
  0
BLOCK
  5
137
330
130
100
AcDbEntity
  8
0
100
AcDbBlockBegin
  2
*D6
 70
     1
 10
0.0
 20
0.0
 30
0.0
  3
*D6
  1

  0
LINE
  5
131
330
130
100
AcDbEntity
  8
1
  6
Continuous
 62
     2
100
AcDbLine
 10
213.5728385974
 20
366.590315704984
 30
0.0
 11
63.57283859739999
 21
366.590315704984
 31
0.0
  0
LINE
  5
132
330
130
100
AcDbEntity
  8
1
  6
Continuous
 62
     2
100
AcDbLine
 10
213.5728385974
 20
314.5155997071
 30
0.0
 11
213.5728385974
 21
368.590315704984
 31
0.0
  0
LINE
  5
133
330
130
100
AcDbEntity
  8
1
  6
Continuous
 62
     2
100
AcDbLine
 10
63.57283859739999
 20
329.7528615304
 30
0.0
 11
63.57283859739999
 21
368.590315704984
 31
0.0
  0
SOLID
  5
134
330
130
100
AcDbEntity
  8
1
 62
     2
100
AcDbTrace
 10
210.0728385974
 20
366.1295319634281
 30
0.0
 11
210.0728385974
 21
367.0510994465399
 31
0.0
 12
213.5728385974
 22
366.590315704984
 32
0.0
 13
213.5728385974
 23
366.590315704984
 33
0.0
  0
SOLID
  5
135
330
130
100
AcDbEntity
  8
1
 62
     2
100
AcDbTrace
 10
67.0728385974
 20
367.0510994465399
 30
0.0
 11
67.0728385974
 21
366.1295319634281
 31
0.0
 12
63.57283859739999
 22
366.590315704984
 32
0.0
 13
63.57283859739999
 23
366.590315704984
 33
0.0
  0
MTEXT
  5
136
330
130
100
AcDbEntity
  8
1
 62
     3
100
AcDbMText
 10
145.114603126614
 20
368.590315704984
 30
0.0
 40
3.5
 41
0.0
 71
     7
 72
     1
  1
\C3;\C3;\C3;150\C2;\H2.45;\S^ ;\C3;
  7
CONVERTER_11
 11
0.9999999999970619
 21
2.424068405545306E-6
 31
0.0
 73
     1
 44
0.60024009603842
  0
ENDBLK
  5
138
330
130
100
AcDbEntity
  8
0
100
AcDbBlockEnd
  0
BLOCK
  5
13F
330
13B
100
AcDbEntity
  8
0
100
AcDbBlockBegin
  2
*D7
 70
     1
 10
0.0
 20
0.0
 30
0.0
  3
*D7
  1

  0
LINE
  5
13C
330
13B
100
AcDbEntity
  8
1
  6
Continuous
 62
     2
100
AcDbLine
 10
154.4675797269941
 20
331.6915234158097
 30
0.0
 11
146.5918436702633
 21
321.1384513733291
 31
0.0
  0
SOLID
  5
13D
330
13B
100
AcDbEntity
  8
1
 62
     2
100
AcDbTrace
 10
148.3159097317958
 20
324.2190224035043
 30
0.0
 11
149.0544740577264
 21
323.6678333593537
 31
0.0
 12
146.5918436702633
 22
321.1384513733291
 32
0.0
 13
146.5918436702633
 23
321.1384513733291
 33
0.0
  0
MTEXT
  5
13E
330
13B
100
AcDbEntity
  8
1
 62
     3
100
AcDbMText
 10
147.4220306243855
 20
325.5947834801776
 30
0.0
 40
3.5
 41
0.0
 71
     7
 72
     1
  1
\C3; R\C3;\C3;10\C2;\H2.45;\S^ ;\C3;
  7
CONVERTER_11
 11
0.598099492713665
 21
0.8014218594570882
 31
0.0
 73
     1
 44
0.60024009603842
  0
ENDBLK
  5
140
330
13B
100
AcDbEntity
  8
0
100
AcDbBlockEnd
  0
ENDSEC
  0
SECTION
  2
ENTITIES
  0
INSERT
  5
6D
330
1F
100
AcDbEntity
  8
0
100
AcDbBlockReference
  2
Urheberrecht_DE-EN
 10
56.5512006620734
 20
313.320097966509
 30
0.0
  0
LINE
  5
71
330
1F
100
AcDbEntity
  8
BEZUGSACHSEN
  6
Continuous
 62
     7
100
AcDbLine
 10
63.5728385974
 20
260.5525004493
 30
0.0
 11
63.5728385974
 21
282.1426699679
 31
0.0
  0
LINE
  5
72
330
1F
100
AcDbEntity
  8
BEZUGSACHSEN
  6
Continuous
 62
     7
100
AcDbLine
 10
63.5728385974
 20
306.1626699679
 30
0.0
 11
63.5728385974
 21
327.7528615304
 31
0.0
  0
LINE
  5
73
330
1F
100
AcDbEntity
  8
BEZUGSACHSEN
  6
Continuous
 62
     9
100
AcDbLine
 10
65.4727641127
 20
329.7503562362
 30
0.0
 11
65.4727641127
 21
309.8292023541
 31
0.0
  0
LINE
  5
74
330
1F
100
AcDbEntity
  8
BEZUGSACHSEN
  6
Continuous
 62
     9
100
AcDbLine
 10
65.4727641127
 20
278.4761375816
 30
0.0
 11
65.4727641127
 21
258.5549836996
 31
0.0
  0
LINE
  5
75
330
1F
100
AcDbEntity
  8
BEZUGSACHSEN
  6
Continuous
 62
     7
100
AcDbLine
 10
65.5728385974
 20
281.7490300195
 30
0.0
 11
65.5728385974
 21
284.1426699679
 31
0.0
  0
LINE
  5
76
330
1F
100
AcDbEntity
  8
BEZUGSACHSEN
  6
Continuous
 62
     7
100
AcDbLine
 10
65.5728385974
 20
304.1626699679
 30
0.0
 11
65.5728385974
 21
306.5563099163
 31
0.0
  0
LINE
  5
77
330
1F
100
AcDbEntity
  8
BEZUGSACHSEN
  6
Continuous
 62
     9
100
AcDbLine
 10
71.5728385974
 20
277.7940223804
 30
0.0
 11
71.5728385974
 21
284.1426699679
 31
0.0
  0
LINE
  5
78
330
1F
100
AcDbEntity
  8
BEZUGSACHSEN
  6
Continuous
 62
     9
100
AcDbLine
 10
71.5728385974
 20
304.1626699679
 30
0.0
 11
71.5728385974
 21
310.5113175553
 31
0.0
  0
LINE
  5
79
330
1F
100
AcDbEntity
  8
BEZUGSACHSEN
  6
Continuous
 62
     7
100
AcDbLine
 10
73.5728385974
 20
307.0223254937
 30
0.0
 11
73.5728385974
 21
281.2830144421
 31
0.0
  0
LINE
  5
7A
330
1F
100
AcDbEntity
  8
BEZUGSACHSEN
  6
Continuous
 62
     7
100
AcDbLine
 10
64.8397915244
 20
279.1426699679
 30
0.0
 11
64.718681273
 21
278.9103339724
 31
0.0
  0
LINE
  5
7B
330
1F
100
AcDbEntity
  8
BEZUGSACHSEN
  6
Continuous
 62
     7
100
AcDbLine
 10
64.718681273
 20
309.3950059633
 30
0.0
 11
64.8397915244
 21
309.1626699679
 31
0.0
  0
LINE
  5
7C
330
1F
100
AcDbEntity
  8
BEZUGSACHSEN
  6
Continuous
 62
     7
100
AcDbLine
 10
130.3252433332
 20
244.1526699679
 30
0.0
 11
113.5728385974
 21
244.1526699679
 31
0.0
  0
LINE
  5
7D
330
1F
100
AcDbEntity
  8
BEZUGSACHSEN
  6
Continuous
 62
     7
100
AcDbLine
 10
136.8204338616
 20
244.1526699679
 30
0.0
 11
142.5728385974
 21
244.1526699679
 31
0.0
  0
LINE
  5
7E
330
1F
100
AcDbEntity
  8
BEZUGSACHSEN
  6
Continuous
 62
     7
100
AcDbLine
 10
63.5728385974
 20
282.1426699679
 30
0.0
 11
65.5728385974
 21
284.1426699679
 31
0.0
  0
LINE
  5
7F
330
1F
100
AcDbEntity
  8
BEZUGSACHSEN
  6
Continuous
 62
     7
100
AcDbLine
 10
132.6978385974
 20
248.1526699679
 30
0.0
 11
134.4478385974
 21
248.1526699679
 31
0.0
  0
LINE
  5
80
330
1F
100
AcDbEntity
  8
BEZUGSACHSEN
  6
Continuous
 62
     7
100
AcDbLine
 10
65.5728385974
 20
304.1626699679
 30
0.0
 11
63.5728385974
 21
306.1626699679
 31
0.0
  0
LWPOLYLINE
  5
81
330
1F
100
AcDbEntity
  8
BEZUGSACHSEN
  6
DOT_CENTER
 62
     7
100
AcDbPolyline
 90
        2
 70
     0
 43
0.25
 10
98.5728385974
 20
294.1526699679
 10
98.5728385974
 20
285.1526699679
  0
LWPOLYLINE
  5
82
330
1F
100
AcDbEntity
  8
BEZUGSACHSEN
  6
DOT_CENTER
 62
     7
100
AcDbPolyline
 90
        2
 70
     0
 43
0.25
 10
98.5728385974
 20
294.1526699679
 10
98.5728385974
 20
303.1526699679
  0
LINE
  5
83
330
1F
100
AcDbEntity
  8
FASEN
  6
Continuous
 62
     7
100
AcDbLine
 10
118.9743245619
 20
255.3229133372
 30
0.0
 11
130.3252433332
 21
255.3229133372
 31
0.0
  0
LINE
  5
84
330
1F
100
AcDbEntity
  8
0
  6
Continuous
 62
     7
100
AcDbLine
 10
136.8204338616
 20
255.3229133372
 30
0.0
 11
142.5728385974
 21
255.3229133372
 31
0.0
  0
LINE
  5
85
330
1F
100
AcDbEntity
  8
BEZUGSACHSEN
  6
Continuous
 62
     7
100
AcDbLine
 10
112.8722673088
 20
256.4704199679
 30
0.0
 11
111.9509012565
 21
256.4704199679
 31
0.0
  0
LINE
  5
86
330
1F
100
AcDbEntity
  8
BEZUGSACHSEN
  6
Continuous
 62
     7
100
AcDbLine
 10
111.0728385974
 20
256.2704199679
 30
0.0
 11
65.4727641127
 21
258.5549836996
 31
0.0
  0
LINE
  5
87
330
1F
100
AcDbEntity
  8
BEZUGSACHSEN
  6
Continuous
 62
     7
100
AcDbLine
 10
111.6920822114
 20
256.4363457942
 30
0.0
 11
111.0728385974
 21
256.2704199679
 31
0.0
  0
LINE
  5
88
330
1F
100
AcDbEntity
  8
0
  6
Continuous
 62
     7
100
AcDbLine
 10
132.6978385974
 20
260.6302893842
 30
0.0
 11
134.4478385974
 21
260.6302893842
 31
0.0
  0
LINE
  5
89
330
1F
100
AcDbEntity
  8
FASEN
  6
Continuous
 62
     7
100
AcDbLine
 10
126.5447125193
 20
262.2526699679
 30
0.0
 11
142.5728385974
 21
262.2526699679
 31
0.0
  0
LINE
  5
8A
330
1F
100
AcDbEntity
  8
0
  6
Continuous
 62
     7
100
AcDbLine
 10
126.5447125193
 20
262.6526699679
 30
0.0
 11
142.5728385974
 21
262.6526699679
 31
0.0
  0
LINE
  5
8B
330
1F
100
AcDbEntity
  8
BEZUGSACHSEN
  6
Continuous
 62
     7
100
AcDbLine
 10
111.0728385974
 20
332.0349199679
 30
0.0
 11
111.0728385974
 21
256.2704199679
 31
0.0
  0
LINE
  5
8C
330
1F
100
AcDbEntity
  8
BEZUGSACHSEN
  6
Continuous
 62
     9
100
AcDbLine
 10
111.6920822114
 20
256.4363457942
 30
0.0
 11
111.6920822114
 21
331.8689941416
 31
0.0
  0
LINE
  5
8D
330
1F
100
AcDbEntity
  8
BEZUGSACHSEN
  6
Continuous
 62
     9
100
AcDbLine
 10
111.9509012565
 20
256.4704199679
 30
0.0
 11
111.9509012565
 21
331.8349199679
 31
0.0
  0
LINE
  5
8E
330
1F
100
AcDbEntity
  8
BEZUGSACHSEN
  6
Continuous
 62
     9
100
AcDbLine
 10
112.8722673088
 20
256.4704199679
 30
0.0
 11
112.8722673088
 21
331.8349199679
 31
0.0
  0
LINE
  5
8F
330
1F
100
AcDbEntity
  8
BEZUGSACHSEN
  6
Continuous
 62
     7
100
AcDbLine
 10
113.5728385974
 20
344.1526699679
 30
0.0
 11
113.5728385974
 21
244.1526699679
 31
0.0
  0
LINE
  5
90
330
1F
100
AcDbEntity
  8
BEZUGSACHSEN
  6
Continuous
 62
     7
100
AcDbLine
 10
135.4478385974
 20
341.7752652321
 30
0.0
 11
136.8204338616
 21
344.1526699679
 31
0.0
  0
LINE
  5
91
330
1F
100
AcDbEntity
  8
0
  6
Continuous
 62
     7
100
AcDbLine
 10
152.5728385974
 20
269.1526699679
 30
0.0
 11
183.5728385974
 21
269.1526699679
 31
0.0
  0
LINE
  5
92
330
1F
100
AcDbEntity
  8
0
  6
Continuous
 62
     7
100
AcDbLine
 10
195.5728385974
 20
269.1526699679
 30
0.0
 11
200.4841024117
 21
269.1526699679
 31
0.0
  0
LINE
  5
93
330
1F
100
AcDbEntity
  8
BEZUGSACHSEN
  6
Continuous
 62
     7
100
AcDbLine
 10
135.4478385974
 20
246.5300747037
 30
0.0
 11
136.8204338616
 21
244.1526699679
 31
0.0
  0
LWPOLYLINE
  5
94
330
1F
100
AcDbEntity
  8
BEZUGSACHSEN
  6
DOT_CENTER
 62
     7
100
AcDbPolyline
 90
        2
 70
     0
 43
0.25
 10
120.5728385974
 20
336.3020418232
 10
120.5728385974
 20
347.1526699679
  0
LINE
  5
95
330
1F
100
AcDbEntity
  8
BEZUGSACHSEN
  6
Continuous
 62
     9
100
AcDbLine
 10
63.5728385974
 20
280.7064859989
 30
0.0
 11
65.5728385974
 21
281.7490300195
 31
0.0
  0
LINE
  5
96
330
1F
100
AcDbEntity
  8
BEZUGSACHSEN
  6
Continuous
 62
     9
100
AcDbLine
 10
65.5728385974
 20
306.5563099163
 30
0.0
 11
63.5728385974
 21
307.5988539369
 31
0.0
  0
LINE
  5
97
330
1F
100
AcDbEntity
  8
FASEN
  6
Continuous
 62
     9
100
AcDbLine
 10
126.5447125193
 20
262.2526699679
 30
0.0
 11
126.5447125193
 21
262.6526699679
 31
0.0
  0
LINE
  5
98
330
1F
100
AcDbEntity
  8
BEZUGSACHSEN
  6
Continuous
 62
     9
100
AcDbLine
 10
73.1266845443
 20
279.1426699679
 30
0.0
 11
64.8397915244
 21
279.1426699679
 31
0.0
  0
LINE
  5
99
330
1F
100
AcDbEntity
  8
FASEN
  6
Continuous
 62
     9
100
AcDbLine
 10
128.5728385974
 20
284.5526699679
 30
0.0
 11
128.5728385974
 21
284.1526699679
 31
0.0
  0
LINE
  5
9A
330
1F
100
AcDbEntity
  8
FASEN
  6
Continuous
 62
     9
100
AcDbLine
 10
128.5728385974
 20
303.7526699679
 30
0.0
 11
128.5728385974
 21
304.1526699679
 31
0.0
  0
LINE
  5
9B
330
1F
100
AcDbEntity
  8
0
  6
Continuous
 62
     7
100
AcDbLine
 10
130.3252433332
 20
344.1526699679
 30
0.0
 11
130.3252433332
 21
304.1526699679
 31
0.0
  0
LINE
  5
9C
330
1F
100
AcDbEntity
  8
0
  6
Continuous
 62
     7
100
AcDbLine
 10
130.3252433332
 20
284.1526699679
 30
0.0
 11
130.3252433332
 21
262.6526699679
 31
0.0
  0
LINE
  5
9D
330
1F
100
AcDbEntity
  8
0
  6
Continuous
 62
     7
100
AcDbLine
 10
130.3252433332
 20
255.3229133372
 30
0.0
 11
130.3252433332
 21
244.1526699679
 31
0.0
  0
LINE
  5
9E
330
1F
100
AcDbEntity
  8
0
  6
Continuous
 62
     7
100
AcDbLine
 10
131.6978385974
 20
341.7752318055
 30
0.0
 11
131.6978385974
 21
304.1526699679
 31
0.0
  0
LINE
  5
9F
330
1F
100
AcDbEntity
  8
0
  6
Continuous
 62
     7
100
AcDbLine
 10
131.6978385974
 20
284.1526699679
 30
0.0
 11
131.6978385974
 21
262.6526699679
 31
0.0
  0
LINE
  5
A0
330
1F
100
AcDbEntity
  8
0
  6
Continuous
 62
     7
100
AcDbLine
 10
131.6978385974
 20
246.5301122376
 30
0.0
 11
131.6978385974
 21
259.2707262147
 31
0.0
  0
LINE
  5
A1
330
1F
100
AcDbEntity
  8
0
  6
Continuous
 62
     9
100
AcDbLine
 10
132.6978385974
 20
248.1526699679
 30
0.0
 11
132.6978385974
 21
260.6302893842
 31
0.0
  0
LINE
  5
A2
330
1F
100
AcDbEntity
  8
0
  6
Continuous
 62
     9
100
AcDbLine
 10
132.6978385974
 20
262.6526699679
 30
0.0
 11
132.6978385974
 21
284.1526699679
 31
0.0
  0
LINE
  5
A3
330
1F
100
AcDbEntity
  8
0
  6
Continuous
 62
     9
100
AcDbLine
 10
132.6978385974
 20
304.1526699679
 30
0.0
 11
132.6978385974
 21
340.1526699679
 31
0.0
  0
LINE
  5
A4
330
1F
100
AcDbEntity
  8
BEZUGSACHSEN
  6
Continuous
 62
     7
100
AcDbLine
 10
71.5728385974
 20
284.1426699679
 30
0.0
 11
65.5728385974
 21
284.1426699679
 31
0.0
  0
LINE
  5
A5
330
1F
100
AcDbEntity
  8
0
  6
Continuous
 62
     7
100
AcDbLine
 10
128.5728385974
 20
284.1526699679
 30
0.0
 11
142.5728385974
 21
284.1526699679
 31
0.0
  0
LINE
  5
A6
330
1F
100
AcDbEntity
  8
FASEN
  6
Continuous
 62
     7
100
AcDbLine
 10
142.5728385974
 20
284.5526699679
 30
0.0
 11
128.5728385974
 21
284.5526699679
 31
0.0
  0
LWPOLYLINE
  5
A7
330
1F
100
AcDbEntity
  8
GEWINDE
  6
DASHED
 62
     8
100
AcDbPolyline
 90
        2
 70
     0
 43
0.35
 10
213.5728385974
 20
285.1526699679
 10
183.5728385974
 20
285.1526699679
  0
LWPOLYLINE
  5
A8
330
1F
100
AcDbEntity
  8
DEFAULT_2
  6
DASHED
 62
     8
100
AcDbPolyline
 90
        2
 70
     0
 43
0.35
 10
160.5728385974
 20
285.1526699679
 10
183.5728385974
 20
285.1526699679
  0
LINE
  5
A9
330
1F
100
AcDbEntity
  8
0
  6
Continuous
 62
     9
100
AcDbLine
 10
134.4478385974
 20
248.1526699679
 30
0.0
 11
134.4478385974
 21
260.6302893842
 31
0.0
  0
LINE
  5
AA
330
1F
100
AcDbEntity
  8
0
  6
Continuous
 62
     9
100
AcDbLine
 10
134.4478385974
 20
262.6526699679
 30
0.0
 11
134.4478385974
 21
284.1526699679
 31
0.0
  0
LINE
  5
AB
330
1F
100
AcDbEntity
  8
0
  6
Continuous
 62
     9
100
AcDbLine
 10
134.4478385974
 20
304.1526699679
 30
0.0
 11
134.4478385974
 21
340.1526699679
 31
0.0
  0
LINE
  5
AC
330
1F
100
AcDbEntity
  8
0
  6
Continuous
 62
     7
100
AcDbLine
 10
135.4478385974
 20
246.5301122376
 30
0.0
 11
135.4478385974
 21
259.2707262147
 31
0.0
  0
LINE
  5
AD
330
1F
100
AcDbEntity
  8
0
  6
Continuous
 62
     7
100
AcDbLine
 10
135.4478385974
 20
262.6526699679
 30
0.0
 11
135.4478385974
 21
284.1526699679
 31
0.0
  0
LINE
  5
AE
330
1F
100
AcDbEntity
  8
0
  6
Continuous
 62
     7
100
AcDbLine
 10
135.4478385974
 20
304.1526699679
 30
0.0
 11
135.4478385974
 21
341.7752318055
 31
0.0
  0
LINE
  5
AF
330
1F
100
AcDbEntity
  8
0
  6
Continuous
 62
     7
100
AcDbLine
 10
136.8204338616
 20
344.1526699679
 30
0.0
 11
136.8204338616
 21
304.1526699679
 31
0.0
  0
LINE
  5
B0
330
1F
100
AcDbEntity
  8
0
  6
Continuous
 62
     7
100
AcDbLine
 10
136.8204338616
 20
284.1526699679
 30
0.0
 11
136.8204338616
 21
262.6526699679
 31
0.0
  0
LINE
  5
B1
330
1F
100
AcDbEntity
  8
0
  6
Continuous
 62
     7
100
AcDbLine
 10
136.8204338616
 20
255.3229133372
 30
0.0
 11
136.8204338616
 21
244.1526699679
 31
0.0
  0
LWPOLYLINE
  5
B2
330
1F
100
AcDbEntity
  8
BEZUGSACHSEN
  6
DOT_CENTER
 62
     7
100
AcDbPolyline
 90
        2
 70
     0
 43
0.25
 10
216.5728385974
 20
294.1526699679
 10
60.5728385974
 20
294.1526699679
  0
LINE
  5
B3
330
1F
100
AcDbEntity
  8
0
  6
Continuous
 62
     7
100
AcDbLine
 10
142.5728385974
 20
344.1526330468
 30
0.0
 11
142.5728385974
 21
304.1526699679
 31
0.0
  0
LINE
  5
B4
330
1F
100
AcDbEntity
  8
0
  6
Continuous
 62
     7
100
AcDbLine
 10
142.5728385974
 20
284.1526699679
 30
0.0
 11
142.5728385974
 21
262.6526699679
 31
0.0
  0
LINE
  5
B5
330
1F
100
AcDbEntity
  8
0
  6
Continuous
 62
     7
100
AcDbLine
 10
142.5728385974
 20
255.3229133372
 30
0.0
 11
142.5728385974
 21
244.1526718357
 31
0.0
  0
LINE
  5
B6
330
1F
100
AcDbEntity
  8
FASEN
  6
Continuous
 62
     7
100
AcDbLine
 10
142.5728385974
 20
255.3229133372
 30
0.0
 11
142.5728385974
 21
262.6526699679
 31
0.0
  0
LINE
  5
B7
330
1F
100
AcDbEntity
  8
FASEN
  6
Continuous
 62
     7
100
AcDbLine
 10
142.5728385974
 20
284.1526699679
 30
0.0
 11
142.5728385974
 21
304.1526699679
 31
0.0
  0
LWPOLYLINE
  5
B8
330
1F
100
AcDbEntity
  8
DEFAULT_2
  6
DASHED
 62
     8
100
AcDbPolyline
 90
        2
 70
     0
 43
0.35
 10
213.5728385974
 20
303.1526699679
 10
160.5728385974
 20
303.1526699679
  0
LINE
  5
B9
330
1F
100
AcDbEntity
  8
FASEN
  6
Continuous
 62
     7
100
AcDbLine
 10
128.5728385974
 20
303.7526699679
 30
0.0
 11
142.5728385974
 21
303.7526699679
 31
0.0
  0
LINE
  5
BA
330
1F
100
AcDbEntity
  8
0
  6
Continuous
 62
     7
100
AcDbLine
 10
128.5728385974
 20
304.1526699679
 30
0.0
 11
142.5728385974
 21
304.1526699679
 31
0.0
  0
LINE
  5
BB
330
1F
100
AcDbEntity
  8
BEZUGSACHSEN
  6
Continuous
 62
     7
100
AcDbLine
 10
71.5728385974
 20
304.1626699679
 30
0.0
 11
65.5728385974
 21
304.1626699679
 31
0.0
  0
LINE
  5
BC
330
1F
100
AcDbEntity
  8
RUNDUNGEN
  6
Continuous
 62
     9
100
AcDbLine
 10
152.5728385974
 20
319.1526699679
 30
0.0
 11
152.5728385974
 21
269.1526699679
 31
0.0
  0
LINE
  5
BD
330
1F
100
AcDbEntity
  8
BEZUGSACHSEN
  6
Continuous
 62
     7
100
AcDbLine
 10
130.3252433332
 20
244.1526699679
 30
0.0
 11
131.6978385974
 21
246.5300747037
 31
0.0
  0
LINE
  5
BE
330
1F
100
AcDbEntity
  8
BEZUGSACHSEN
  6
Continuous
 62
     9
100
AcDbLine
 10
64.8397915244
 20
309.1626699679
 30
0.0
 11
73.1266845443
 21
309.1626699679
 31
0.0
  0
LINE
  5
BF
330
1F
100
AcDbEntity
  8
BEZUGSACHSEN
  6
Continuous
 62
     7
100
AcDbLine
 10
130.3252433332
 20
344.1526699679
 30
0.0
 11
131.6978385974
 21
341.7752652321
 31
0.0
  0
LWPOLYLINE
  5
C0
330
1F
100
AcDbEntity
  8
DEFAULT_2
  6
DASHED
 62
     8
100
AcDbPolyline
 90
        2
 70
     0
 43
0.35
 10
160.5728385974
 20
303.1526699679
 10
160.5728385974
 20
285.1526699679
  0
LINE
  5
C1
330
1F
100
AcDbEntity
  8
RUNDUNGEN
  6
Continuous
 62
     7
100
AcDbLine
 10
200.4841024117
 20
319.1526699679
 30
0.0
 11
152.5728385974
 21
319.1526699679
 31
0.0
  0
LINE
  5
C2
330
1F
100
AcDbEntity
  8
0
  6
Continuous
 62
     7
100
AcDbLine
 10
152.5728385974
 20
319.1526699679
 30
0.0
 11
200.4841024117
 21
319.1526699679
 31
0.0
  0
LINE
  5
C3
330
1F
100
AcDbEntity
  8
BEZUGSACHSEN
  6
Continuous
 62
     7
100
AcDbLine
 10
111.6920822114
 20
331.8689941416
 30
0.0
 11
111.0728385974
 21
332.0349199679
 31
0.0
  0
LINE
  5
C4
330
1F
100
AcDbEntity
  8
BEZUGSACHSEN
  6
Continuous
 62
     7
100
AcDbLine
 10
111.0728385974
 20
332.0349199679
 30
0.0
 11
65.4727641127
 21
329.7503562362
 31
0.0
  0
LINE
  5
C5
330
1F
100
AcDbEntity
  8
BEZUGSACHSEN
  6
Continuous
 62
     7
100
AcDbLine
 10
112.8722673088
 20
331.8349199679
 30
0.0
 11
111.9509012565
 21
331.8349199679
 31
0.0
  0
LWPOLYLINE
  5
C6
330
1F
100
AcDbEntity
  8
GEWINDE
  6
DASHED
 62
     8
100
AcDbPolyline
 90
        2
 70
     0
 43
0.35
 10
183.5728385974
 20
285.1526699679
 10
183.5728385974
 20
269.1526699679
  0
LINE
  5
C7
330
1F
100
AcDbEntity
  8
BEZUGSACHSEN
  6
Continuous
 62
     7
100
AcDbLine
 10
132.6978385974
 20
340.1526699679
 30
0.0
 11
134.4478385974
 21
340.1526699679
 31
0.0
  0
LWPOLYLINE
  5
C8
330
1F
100
AcDbEntity
  8
GEWINDE
  6
DOT_CENTER
 62
     7
100
AcDbPolyline
 90
        2
 70
     0
 43
0.25
 10
189.5728385974
 20
266.1526699679
 10
189.5728385974
 20
290.4466862041
  0
LINE
  5
C9
330
1F
100
AcDbEntity
  8
0
  6
Continuous
 62
     7
100
AcDbLine
 10
200.9067206735
 20
269.2463621808
 30
0.0
 11
212.9954568592
 21
274.8834324417
 31
0.0
  0
LINE
  5
CA
330
1F
100
AcDbEntity
  8
BEZUGSACHSEN
  6
Continuous
 62
     7
100
AcDbLine
 10
130.3252433332
 20
344.1526699679
 30
0.0
 11
125.5728385974
 21
344.1526699679
 31
0.0
  0
LINE
  5
CB
330
1F
100
AcDbEntity
  8
BEZUGSACHSEN
  6
Continuous
 62
     7
100
AcDbLine
 10
115.5728385974
 20
344.1526699679
 30
0.0
 11
113.5728385974
 21
344.1526699679
 31
0.0
  0
LINE
  5
CC
330
1F
100
AcDbEntity
  8
BEZUGSACHSEN
  6
Continuous
 62
     7
100
AcDbLine
 10
136.8204338616
 20
344.1526699679
 30
0.0
 11
142.5728385974
 21
344.1526699679
 31
0.0
  0
LINE
  5
CD
330
1F
100
AcDbEntity
  8
RUNDUNGEN
  6
Continuous
 62
     7
100
AcDbLine
 10
212.9954568592
 20
313.4219074941
 30
0.0
 11
200.9067206735
 21
319.0589777549
 31
0.0
  0
LINE
  5
CE
330
1F
100
AcDbEntity
  8
0
  6
Continuous
 62
     7
100
AcDbLine
 10
200.9067206735
 20
319.0589777549
 30
0.0
 11
212.9954568592
 21
313.4219074941
 31
0.0
  0
LWPOLYLINE
  5
CF
330
1F
100
AcDbEntity
  8
GEWINDE
  6
DASHED
 62
     8
100
AcDbPolyline
 90
        2
 70
     0
 43
0.35
 10
195.5728385974
 20
285.1526699679
 10
195.5728385974
 20
269.1526699679
  0
LINE
  5
D0
330
1F
100
AcDbEntity
  8
RUNDUNGEN
  6
Continuous
 62
     9
100
AcDbLine
 10
200.4841024117
 20
269.1526699679
 30
0.0
 11
200.4841024117
 21
319.1526699679
 31
0.0
  0
LINE
  5
D1
330
1F
100
AcDbEntity
  8
RUNDUNGEN
  6
Continuous
 62
     9
100
AcDbLine
 10
200.9067206735
 20
269.2463621808
 30
0.0
 11
200.9067206735
 21
319.0589777549
 31
0.0
  0
LINE
  5
D2
330
1F
100
AcDbEntity
  8
RUNDUNGEN
  6
Continuous
 62
     9
100
AcDbLine
 10
212.9954568592
 20
274.8834324417
 30
0.0
 11
212.9954568592
 21
313.4219074941
 31
0.0
  0
LINE
  5
D3
330
1F
100
AcDbEntity
  8
RUNDUNGEN
  6
Continuous
 62
     7
100
AcDbLine
 10
213.5728385974
 20
275.7897402287
 30
0.0
 11
213.5728385974
 21
312.5155997071
 31
0.0
  0
LWPOLYLINE
  5
D4
330
1F
100
AcDbEntity
  8
GEWINDE
  6
DASHED
 62
     8
100
AcDbPolyline
 90
        2
 70
     0
 43
0.35
 10
196.5728385974
 20
285.1526699679
 10
196.5728385974
 20
269.1526699679
  0
LWPOLYLINE
  5
D5
330
1F
100
AcDbEntity
  8
GEWINDE
  6
DASHED
 62
     8
100
AcDbPolyline
 90
        2
 70
     0
 43
0.35
 10
182.5728385974
 20
285.1526699679
 10
182.5728385974
 20
269.1526699679
  0
ARC
  5
D6
330
1F
100
AcDbEntity
  8
FASEN
  6
Continuous
 62
     7
100
AcDbCircle
 10
131.4734926203
 20
269.6839332378
 30
0.0
 40
19.03859487300016
100
AcDbArc
 50
227.4837701983004
 51
228.9651953373314
  0
ARC
  5
D7
330
1F
100
AcDbEntity
  8
FASEN
  6
Continuous
 62
     7
100
AcDbCircle
 10
126.5447125193
 20
254.6526699679
 30
0.0
 40
8.0
100
AcDbArc
 50
90.0
 51
172.8323734889971
  0
ARC
  5
D8
330
1F
100
AcDbEntity
  8
FASEN
  6
Continuous
 62
     7
100
AcDbCircle
 10
126.5447125193
 20
254.6526699679
 30
0.0
 40
7.599982194900008
100
AcDbArc
 50
90.0
 51
174.9405171273014
  0
ARC
  5
D9
330
1F
100
AcDbEntity
  8
BEZUGSACHSEN
  6
Continuous
 62
     7
100
AcDbCircle
 10
71.5728385974
 20
286.1426699679
 30
0.0
 40
2.0
100
AcDbArc
 50
270.0
 51
355.2355361864931
  0
ARC
  5
DA
330
1F
100
AcDbEntity
  8
BEZUGSACHSEN
  6
Continuous
 62
     7
100
AcDbCircle
 10
65.5728385974
 20
260.5524784048
 30
0.0
 40
1.999999999999993
100
AcDbArc
 50
180.0
 51
267.1318795135589
  0
ARC
  5
DB
330
1F
100
AcDbEntity
  8
BEZUGSACHSEN
  6
Continuous
 62
     7
100
AcDbCircle
 10
132.6978385974
 20
247.1526699679
 30
0.0
 40
1.0
100
AcDbArc
 50
90.0
 51
180.0
  0
ARC
  5
DC
330
1F
100
AcDbEntity
  8
BEZUGSACHSEN
  6
Continuous
 62
     7
100
AcDbCircle
 10
111.9509012565
 20
255.4704199679
 30
0.0
 40
1.0
100
AcDbArc
 50
90.0
 51
104.9999999996981
  0
ARC
  5
DD
330
1F
100
AcDbEntity
  8
BEZUGSACHSEN
  6
Continuous
 62
     7
100
AcDbCircle
 10
112.8722673088
 20
255.4704199679
 30
0.0
 40
1.000000000000426
100
AcDbArc
 50
45.52164291268396
 51
90.0
  0
ARC
  5
DE
330
1F
100
AcDbEntity
  8
0
  6
Continuous
 62
     7
100
AcDbCircle
 10
-111.0249412851
 20
363.5871375583
 30
0.0
 40
264.5204223901892
100
AcDbArc
 50
335.840076470599
 51
336.5770705490999
  0
ARC
  5
DF
330
1F
100
AcDbEntity
  8
BEZUGSACHSEN
  6
Continuous
 62
     7
100
AcDbCircle
 10
120.5880466086
 20
394.2054397347
 30
0.0
 40
50.30340021036245
100
AcDbArc
 50
264.2781515100766
 51
269.9826780126003
  0
ARC
  5
E0
330
1F
100
AcDbEntity
  8
BEZUGSACHSEN
  6
Continuous
 62
     7
100
AcDbCircle
 10
120.5576305964
 20
394.205439534
 30
0.0
 40
50.30340000969741
100
AcDbArc
 50
270.0173219760583
 51
275.7218485011545
  0
ARC
  5
E1
330
1F
100
AcDbEntity
  8
0
  6
Continuous
 62
     7
100
AcDbCircle
 10
128.5728385974
 20
294.1526699679
 30
0.0
 40
10.0
100
AcDbArc
 50
90.0
 51
270.0
  0
ARC
  5
E2
330
1F
100
AcDbEntity
  8
FASEN
  6
Continuous
 62
     7
100
AcDbCircle
 10
128.5728385974
 20
294.1526699679
 30
0.0
 40
9.599999195900011
100
AcDbArc
 50
90.0
 51
270.0
  0
ARC
  5
E3
330
1F
100
AcDbEntity
  8
BEZUGSACHSEN
  6
Continuous
 62
     7
100
AcDbCircle
 10
71.5728385974
 20
302.1626699679
 30
0.0
 40
1.999999999999992
100
AcDbArc
 50
4.76446378498877
 51
90.0
  0
ARC
  5
E4
330
1F
100
AcDbEntity
  8
BEZUGSACHSEN
  6
Continuous
 62
     7
100
AcDbCircle
 10
65.5728385974
 20
327.7528615309
 30
0.0
 40
2.000000000047347
100
AcDbArc
 50
92.86812048629784
 51
180.0000000143238
  0
ARC
  5
E5
330
1F
100
AcDbEntity
  8
BEZUGSACHSEN
  6
Continuous
 62
     7
100
AcDbCircle
 10
132.6978385974
 20
341.1526699679
 30
0.0
 40
1.0
100
AcDbArc
 50
180.0
 51
270.0
  0
ARC
  5
E6
330
1F
100
AcDbEntity
  8
BEZUGSACHSEN
  6
Continuous
 62
     7
100
AcDbCircle
 10
111.9509012565
 20
332.8349199679
 30
0.0
 40
1.000000000009914
100
AcDbArc
 50
255.0000000003019
 51
270.0
  0
ARC
  5
E7
330
1F
100
AcDbEntity
  8
BEZUGSACHSEN
  6
Continuous
 62
     7
100
AcDbCircle
 10
112.8722673088
 20
332.8349199679
 30
0.0
 40
1.0
100
AcDbArc
 50
270.0
 51
314.478357087316
  0
ARC
  5
E8
330
1F
100
AcDbEntity
  8
BEZUGSACHSEN
  6
Continuous
 62
     7
100
AcDbCircle
 10
249.9028851956
 20
-1311.8900893221
 30
0.0
 40
1632.172763697999
100
AcDbArc
 50
96.2726189838
 51
96.48809068979999
  0
ARC
  5
E9
330
1F
100
AcDbEntity
  8
RUNDUNGEN
  6
Continuous
 62
     7
100
AcDbCircle
 10
152.5728385974
 20
259.1526699679
 30
0.0
 40
10.0
100
AcDbArc
 50
90.0
 51
180.0
  0
ARC
  5
EA
330
1F
100
AcDbEntity
  8
RUNDUNGEN
  6
Continuous
 62
     7
100
AcDbCircle
 10
212.5728385974
 20
275.7897402287
 30
0.0
 40
0.9999999999918526
100
AcDbArc
 50
295.0000000039673
 51
0.0
  0
ARC
  5
EB
330
1F
100
AcDbEntity
  8
BEZUGSACHSEN
  6
Continuous
 62
     7
100
AcDbCircle
 10
134.4478385974
 20
247.1526699679
 30
0.0
 40
1.0
100
AcDbArc
 50
0.0
 51
90.0
  0
ARC
  5
EC
330
1F
100
AcDbEntity
  8
RUNDUNGEN
  6
Continuous
 62
     7
100
AcDbCircle
 10
200.4841024117
 20
270.1526699679
 30
0.0
 40
1.0
100
AcDbArc
 50
270.0
 51
295.0000000015447
  0
ARC
  5
ED
330
1F
100
AcDbEntity
  8
BEZUGSACHSEN
  6
Continuous
 62
     7
100
AcDbCircle
 10
249.9028852009
 20
1900.1954293048
 30
0.0
 40
1632.1727637452
100
AcDbArc
 50
263.5119093102
 51
263.7273810162
  0
ARC
  5
EE
330
1F
100
AcDbEntity
  8
0
  6
Continuous
 62
     7
100
AcDbCircle
 10
378.1706184799
 20
363.5871375583
 30
0.0
 40
264.5204223902
100
AcDbArc
 50
203.4229294508999
 51
204.1599235294009
  0
ARC
  5
EF
330
1F
100
AcDbEntity
  8
RUNDUNGEN
  6
Continuous
 62
     7
100
AcDbCircle
 10
152.5728385974
 20
329.1526699679
 30
0.0
 40
10.0
100
AcDbArc
 50
180.0
 51
270.0
  0
ARC
  5
F0
330
1F
100
AcDbEntity
  8
BEZUGSACHSEN
  6
Continuous
 62
     7
100
AcDbCircle
 10
134.4478385974
 20
341.1526699679
 30
0.0
 40
1.0
100
AcDbArc
 50
270.0
 51
0.0
  0
ARC
  5
F1
330
1F
100
AcDbEntity
  8
RUNDUNGEN
  6
Continuous
 62
     7
100
AcDbCircle
 10
212.5728385974
 20
312.5155997071
 30
0.0
 40
1.0
100
AcDbArc
 50
0.0
 51
64.99999999603273
  0
ARC
  5
F2
330
1F
100
AcDbEntity
  8
RUNDUNGEN
  6
Continuous
 62
     7
100
AcDbCircle
 10
200.4841024117
 20
318.1526699679
 30
0.0
 40
0.9999999999918406
100
AcDbArc
 50
64.99999999603419
 51
90.0
  0
CIRCLE
  5
F3
330
1F
100
AcDbEntity
  8
BEZUGSACHSEN
  6
Continuous
 62
     7
100
AcDbCircle
 10
98.5728385974
 20
294.1526699679
 30
0.0
 40
6.0
  0
SPLINE
  5
F4
330
1F
100
AcDbEntity
  8
0
  6
Continuous
 62
     2
100
AcDbSpline
210
0.0
220
0.0
230
1.0
 70
     8
 71
     3
 72
    61
 73
    57
 74
    55
 42
0.0000000001
 43
0.0000000001
 44
0.00000001
 40
0.0
 40
0.0
 40
0.0
 40
0.0
 40
0.0119322688128615
 40
0.047819188910043
 40
0.1077183079666754
 40
0.1913765482658932
 40
0.2985352891843227
 40
0.4292231690969229
 40
0.5833684532871501
 40
0.7602060545523732
 40
0.9589593381460065
 40
1.179490306378604
 40
1.421514104943768
 40
1.683504631519943
 40
1.963841586329754
 40
2.261747983892886
 40
2.576412768590679
 40
2.906018332410224
 40
3.248623489465871
 40
3.602767094891297
 40
3.967134996523253
 40
4.340491856665685
 40
4.721508105003168
 40
5.108366852868708
 40
5.499455963211412
 40
5.894450146703438
 40
6.292980185457609
 40
6.69319580608204
 40
7.093336838782708
 40
7.493478240296974
 40
7.89369466243102
 40
8.29222440304865
 40
8.68721621116024
 40
9.078303352654698
 40
9.465162675763544
 40
9.846179326871626
 40
10.21953377165957
 40
10.5838989329246
 40
10.93804220869531
 40
11.28064801945515
 40
11.61025325567655
 40
11.92491677063484
 40
12.22282164657844
 40
12.50315812765189
 40
12.7651498898745
 40
13.00717412576944
 40
13.2277026903979
 40
13.42645371928871
 40
13.60329211412576
 40
13.75743874519604
 40
13.88812573927102
 40
13.99528280412284
 40
14.07894036310277
 40
14.13883872364479
 40
14.1747237464333
 40
14.18665481418047
 40
14.18665481418047
 40
14.18665481418047
 40
14.18665481418047
 10
196.5728385974
 20
269.1526525352
 30
0.0
 10
196.5690092623493
 20
269.1537277508359
 30
0.0
 10
196.5536630026341
 20
269.1580367335132
 30
0.0
 10
196.5190765795912
 20
269.167681894918
 30
0.0
 10
196.4614382695586
 20
269.1836704751153
 30
0.0
 10
196.3808479008046
 20
269.2057950443844
 30
0.0
 10
196.2774200627983
 20
269.2338622937036
 30
0.0
 10
196.1511753949771
 20
269.2675590473326
 30
0.0
 10
196.0023041878855
 20
269.3065434714985
 30
0.0
 10
195.8312332195559
 20
269.350305863467
 30
0.0
 10
195.6384132178813
 20
269.398323104929
 30
0.0
 10
195.4241192104173
 20
269.4500057757657
 30
0.0
 10
195.1888815936205
 20
269.504725166458
 30
0.0
 10
194.933706965454
 20
269.5616833546576
 30
0.0
 10
194.6597669756384
 20
269.6200209814626
 30
0.0
 10
194.3680096224487
 20
269.6789146042004
 30
0.0
 10
194.0594660217267
 20
269.7375520487076
 30
0.0
 10
193.7355665373612
 20
269.7950711994661
 30
0.0
 10
193.3979658984061
 20
269.8505454747843
 30
0.0
 10
193.0481904274081
 20
269.9032014780948
 30
0.0
 10
192.6875494941905
 20
269.9523061263464
 30
0.0
 10
192.3173363561885
 20
269.997219212914
 30
0.0
 10
191.9390269812596
 20
270.0372891242851
 30
0.0
 10
191.5542569673364
 20
270.0720515727079
 30
0.0
 10
191.1643351440104
 20
270.1010351731182
 30
0.0
 10
190.7701097701384
 20
270.1239156297107
 30
0.0
 10
190.3725211385919
 20
270.1404243454345
 30
0.0
 10
189.9729997381436
 20
270.150448204481
 30
0.0
 10
189.5728290239079
 20
270.153803458472
 30
0.0
 10
189.1726580447788
 20
270.1504478924249
 30
0.0
 10
188.77313636287
 20
270.1404236573669
 30
0.0
 10
188.3755483678854
 20
270.1239146659675
 30
0.0
 10
187.9813245526056
 20
270.1010340621466
 30
0.0
 10
187.5914040054452
 20
270.0720502367299
 30
0.0
 10
187.2066343494888
 20
270.037287501874
 30
0.0
 10
186.8283254704662
 20
269.9972174620763
 30
0.0
 10
186.4581139248909
 20
269.9523044021151
 30
0.0
 10
186.0974748366223
 20
269.903199756249
 30
0.0
 10
185.7477001905146
 20
269.8505436872695
 30
0.0
 10
185.4100995693507
 20
269.7950693113211
 30
0.0
 10
185.0862004184245
 20
269.7375500807001
 30
0.0
 10
184.7776578658213
 20
269.6789126905007
 30
0.0
 10
184.4859015958305
 20
269.6200192028249
 30
0.0
 10
184.2119618726202
 20
269.5616815392169
 30
0.0
 10
183.9567868792973
 20
269.5047231521143
 30
0.0
 10
183.7215495123365
 20
269.4500037630291
 30
0.0
 10
183.5072568795598
 20
269.3983213931897
 30
0.0
 10
183.3144381457534
 20
269.3503043912989
 30
0.0
 10
183.1433672286871
 20
269.306541952954
 30
0.0
 10
182.9944956190442
 20
269.2675574152734
 30
0.0
 10
182.8682513477366
 20
269.2338607463843
 30
0.0
 10
182.7648245625
 20
269.2057937455497
 30
0.0
 10
182.68423519382
 20
269.1836694567871
 30
0.0
 10
182.6265979552636
 20
269.1676811754593
 30
0.0
 10
182.5920127861642
 20
269.15803630327
 30
0.0
 10
182.5766675417669
 20
269.153727525055
 30
0.0
 10
182.5728385974
 20
269.152652399
 30
0.0
 11
196.5728385974
 21
269.1526525352
 31
0.0
 11
196.5613501173553
 21
269.155876487012
 31
0.0
 11
196.526784822031
 21
269.1655259115131
 31
0.0
 11
196.4690639019094
 21
269.1815321554221
 31
0.0
 11
196.3883924415442
 21
269.2036865376637
 31
0.0
 11
196.2849719749589
 21
269.2317436730577
 31
0.0
 11
196.1587059387471
 21
269.2654513881301
 31
0.0
 11
196.0095875434588
 21
269.3044958861383
 31
0.0
 11
195.8382671916548
 21
269.3483236659018
 31
0.0
 11
195.6454019431938
 21
269.3963430752623
 31
0.0
 11
195.4310182982955
 21
269.4480495617968
 31
0.0
 11
195.1952871517262
 21
269.5028797141679
 31
0.0
 11
194.9395875349144
 21
269.5599475858465
 31
0.0
 11
194.6653970770918
 21
269.6183290989399
 31
0.0
 11
194.3733796631201
 21
269.6772701851728
 31
0.0
 11
194.0642470156762
 21
269.7360148275948
 31
0.0
 11
193.739715952108
 21
269.7936292049679
 31
0.0
 11
193.401643715149
 21
269.8491760882163
 31
0.0
 11
193.0514441497206
 21
269.9018824221571
 31
0.0
 11
192.6904065201491
 21
269.9510331878998
 31
0.0
 11
192.3197651720724
 21
269.9959813370419
 31
0.0
 11
191.9408686960923
 21
270.0361166330666
 31
0.0
 11
191.555577580836
 21
270.0709081162869
 31
0.0
 11
191.1655637241124
 21
270.0998888649364
 31
0.0
 11
190.7712327564457
 21
270.1227688328459
 31
0.0
 11
190.3730462922473
 21
270.1393136664382
 31
0.0
 11
189.9729561552329
 21
270.14933490666
 31
0.0
 11
189.5728291472271
 21
270.1526850581587
 31
0.0
 11
189.1727017730838
 21
270.14933458551
 31
0.0
 11
188.7726108435589
 21
270.1393129759716
 31
0.0
 11
188.3744246899876
 21
270.1227678479626
 31
0.0
 11
187.9800961090188
 21
270.0998877538552
 31
0.0
 11
187.5900842380807
 21
270.0709068503202
 31
0.0
 11
187.2047925761494
 21
270.0361150248082
 31
0.0
 11
186.8258957211442
 21
269.995979483342
 31
0.0
 11
186.4552567932655
 21
269.9510314401832
 31
0.0
 11
186.0942219088794
 21
269.9018808247237
 31
0.0
 11
185.7440226960302
 21
269.849174363133
 31
0.0
 11
185.4059498338253
 21
269.7936272533346
 31
0.0
 11
185.081419116405
 21
269.7360128003281
 31
0.0
 11
184.7722877410966
 21
269.6772682648728
 31
0.0
 11
184.4802718369936
 21
269.6183273888878
 31
0.0
 11
184.2060818617523
 21
269.5599458841298
 31
0.0
 11
183.9503810606946
 21
269.5028776459325
 31
0.0
 11
183.7146495022045
 21
269.4480473341301
 31
0.0
 11
183.5002682042478
 21
269.3963413682893
 31
0.0
 11
183.3074051589785
 21
269.3483224422851
 31
0.0
 11
183.1360840503745
 21
269.304494418884
 31
0.0
 11
182.9869643566862
 21
269.2654495623134
 31
0.0
 11
182.8606991824681
 21
269.2317420527639
 31
0.0
 11
182.7572803400392
 21
269.2036853320304
 31
0.0
 11
182.6766095366166
 21
269.1815311304055
 31
0.0
 11
182.618889352494
 21
269.1655250709131
 31
0.0
 11
182.584325906204
 21
269.1558760791995
 31
0.0
 11
182.5728385974
 21
269.152652399
 31
0.0
  0
SPLINE
  5
F5
330
1F
100
AcDbEntity
  8
GEWINDE
  6
Continuous
 62
     7
100
AcDbSpline
210
0.0
220
0.0
230
1.0
 70
     8
 71
     3
 72
    23
 73
    19
 74
    17
 42
0.0000000001
 43
0.0000000001
 44
0.00000001
 40
0.0
 40
0.0
 40
0.0
 40
0.0
 40
0.235493380336461
 40
0.4709940396079714
 40
1.132890257857016
 40
1.794823380760993
 40
2.774258367108918
 40
3.753751448816489
 40
4.905912540091589
 40
6.058099768817858
 40
7.210287097580723
 40
8.362448288853667
 40
9.341941380773807
 40
10.3213763773491
 40
10.98330956442539
 40
11.64520584679102
 40
11.88070655930101
 40
12.11619999278691
 40
12.11619999278691
 40
12.11619999278691
 40
12.11619999278691
 10
183.5728385974
 20
269.1526699679
 30
0.0
 10
183.6492123643411
 20
269.1708092122826
 30
0.0
 10
183.801962258883
 20
269.207088261719
 30
0.0
 10
184.1702634687182
 20
269.2905279329516
 30
0.0
 10
184.6789489653592
 20
269.3975919170393
 30
0.0
 10
185.4339568975804
 20
269.5372964893148
 30
0.0
 10
186.2977158148685
 20
269.6696403348978
 30
0.0
 10
187.3282836453114
 20
269.7874487231149
 30
0.0
 10
188.4205570556716
 20
269.8650086434313
 30
0.0
 10
189.5728384030617
 20
269.8925174306468
 30
0.0
 10
190.7251197843651
 20
269.8650086629303
 30
0.0
 10
191.8173932657362
 20
269.7874487514093
 30
0.0
 10
192.8479611371056
 20
269.6696403674874
 30
0.0
 10
193.7117200833452
 20
269.5372965246473
 30
0.0
 10
194.4667280621015
 20
269.3975919500151
 30
0.0
 10
194.9754136185915
 20
269.2905279564121
 30
0.0
 10
195.3437148841504
 20
269.2070882738999
 30
0.0
 10
195.4964648132129
 20
269.1708092163406
 30
0.0
 10
195.5728385974
 20
269.1526699679
 30
0.0
 11
183.5728385974
 21
269.1526699679
 31
0.0
 11
183.8020523154391
 21
269.2066903681668
 31
0.0
 11
184.0317121334256
 21
269.2588145326179
 31
0.0
 11
184.6794593225976
 21
269.3949401461231
 31
0.0
 11
185.3303529889846
 21
269.5153265832938
 31
0.0
 11
186.2985221294186
 21
269.6634529077394
 31
0.0
 11
187.2717003444098
 21
269.7744973086765
 31
0.0
 11
188.4209760616529
 21
269.8559866086098
 31
0.0
 11
189.5728383698095
 21
269.88334776882
 31
0.0
 11
190.7247007784525
 21
269.8559866263568
 31
0.0
 11
191.8739765964572
 21
269.7744973336553
 31
0.0
 11
192.847154822579
 21
269.6634529401822
 31
0.0
 11
193.8153239743657
 21
269.5153266223148
 31
0.0
 11
194.4662177048023
 21
269.3949401785959
 31
0.0
 11
195.1139649574995
 21
269.258814555612
 31
0.0
 11
195.3436248275763
 21
269.2066903801363
 31
0.0
 11
195.5728385974
 21
269.1526699679
 31
0.0
  0
SPLINE
  5
F6
330
1F
100
AcDbEntity
  8
BEZUGSACHSEN
  6
Continuous
 62
     7
100
AcDbSpline
210
0.0
220
0.0
230
1.0
 70
     8
 71
     3
 72
    47
 73
    43
 74
    41
 42
0.0000000001
 43
0.0000000001
 44
0.00000001
 40
0.0
 40
0.0
 40
0.0
 40
0.0
 40
0.6366022431822308
 40
1.273595002171287
 40
1.592921746398886
 40
1.912076344884403
 40
2.231392290413855
 40
2.550826842715975
 40
3.189774321146216
 40
3.829081696996298
 40
4.468337152521936
 40
5.10722174480172
 40
5.426176341292789
 40
5.745033356839644
 40
6.063356731618393
 40
6.381780214931492
 40
7.017059195724533
 40
7.65263934104064
 40
8.287532214280276
 40
8.922347946542242
 40
9.559226748626564
 40
10.19613435942531
 40
10.83451785508778
 40
11.47287689979827
 40
12.11234487371733
 40
12.75189588954932
 40
13.3935430052475
 40
14.03487957361027
 40
14.35615205778548
 40
14.67732107720348
 40
14.99840882481299
 40
15.31959604130467
 40
15.96011121035948
 40
16.60099592098337
 40
17.23809108088046
 40
17.87482555210651
 40
18.19205670343462
 40
18.50917199110309
 40
18.82571084636611
 40
19.14241581833366
 40
19.77338975001241
 40
20.40398930748056
 40
20.40398930748056
 40
20.40398930748056
 40
20.40398930748056
 10
92.0734230031
 20
294.1526699484
 30
0.0
 10
92.0794286469867
 20
294.3649497580952
 30
0.0
 10
92.09144361884842
 20
294.7896395979209
 30
0.0
 10
92.17270896405645
 20
295.3157823590365
 30
0.0
 10
92.26542856065754
 20
295.7307567351609
 30
0.0
 10
92.35072152480164
 20
296.0385807108507
 30
0.0
 10
92.45096013824157
 20
296.341873387626
 30
0.0
 10
92.60444568739686
 20
296.7393107501632
 30
0.0
 10
92.83291763416972
 20
297.2214103270519
 30
0.0
 10
93.16253259471907
 20
297.7702261999089
 30
0.0
 10
93.54475981181227
 20
298.2837617392709
 30
0.0
 10
93.90361450894113
 20
298.6782645013595
 30
0.0
 10
94.2125678625084
 20
298.9711377994064
 30
0.0
 10
94.45446297148347
 20
299.1788596205215
 30
0.0
 10
94.70610622496926
 20
299.374369017654
 30
0.0
 10
95.05340033212596
 20
299.6178642203289
 30
0.0
 10
95.5091406668865
 20
299.8897462903735
 30
0.0
 10
96.0846200915762
 20
300.1610754028891
 30
0.0
 10
96.6837308567389
 20
300.3748590337031
 30
0.0
 10
97.3011812592017
 20
300.529548765075
 30
0.0
 10
97.9314518209012
 20
300.6233557487265
 30
0.0
 10
98.56904575563156
 20
300.6554824735323
 30
0.0
 10
99.20722439986426
 20
300.625052900583
 30
0.0
 10
99.84023682105739
 20
300.5323816454188
 30
0.0
 10
100.4614705054906
 20
300.3778896841924
 30
0.0
 10
101.0656062574545
 20
300.1628525516536
 30
0.0
 10
101.6460853310108
 20
299.8889291859135
 30
0.0
 10
102.1057143552262
 20
299.6137623078501
 30
0.0
 10
102.4556133439099
 20
299.3671526090021
 30
0.0
 10
102.7087449730823
 20
299.1692484166356
 30
0.0
 10
102.951743612448
 20
298.9590698872323
 30
0.0
 10
103.2609879559551
 20
298.6635505470751
 30
0.0
 10
103.61930814675
 20
298.2660795643112
 30
0.0
 10
103.9992585650782
 20
297.7504128027576
 30
0.0
 10
104.3257315946493
 20
297.20081664628
 30
0.0
 10
104.5511027346111
 20
296.7197111045683
 30
0.0
 10
104.702193717762
 20
296.3237209169513
 30
0.0
 10
104.800606635311
 20
296.0222945661689
 30
0.0
 10
104.8842734134831
 20
295.7165991982519
 30
0.0
 10
104.9750927709264
 20
295.3050471805363
 30
0.0
 10
105.0546077465998
 20
294.7836219640143
 30
0.0
 10
105.0663800312155
 20
294.3629456748554
 30
0.0
 10
105.0722644268
 20
294.1526699485
 30
0.0
 11
92.0734230031
 21
294.1526699484
 31
0.0
 11
92.10467167413981
 21
294.7885047827579
 31
0.0
 11
92.1981128765134
 21
295.4186067718862
 31
0.0
 11
92.26805338354785
 21
295.7301800298124
 31
0.0
 11
92.35319472252398
 21
296.0377684075704
 31
0.0
 11
92.45341926066192
 21
296.3409477522237
 31
0.0
 11
92.56849915041398
 21
296.6389327387232
 31
0.0
 11
92.8420950446583
 21
297.2163400185916
 31
0.0
 11
93.17131455833643
 21
297.7643623106837
 31
0.0
 11
93.55293881368382
 21
298.2772077700083
 31
0.0
 11
93.98287344981262
 21
298.7497855211872
 31
0.0
 11
94.21434571087376
 21
298.9692225895736
 31
0.0
 11
94.45624811190103
 21
299.1769556508341
 31
0.0
 11
94.70762191905553
 21
299.37225280905
 31
0.0
 11
94.96835119734745
 21
299.5550471146687
 31
0.0
 11
95.51388484155727
 21
299.8805811781284
 31
0.0
 11
96.08879466167596
 21
300.1515808457502
 31
0.0
 11
96.68674084942285
 21
300.3650037054664
 31
0.0
 11
97.30253338164634
 21
300.5192456296799
 31
0.0
 11
97.93246566362397
 21
300.6130535646685
 31
0.0
 11
98.56856878536163
 21
300.6450554897507
 31
0.0
 11
99.20622974438037
 21
300.6146912199991
 31
0.0
 11
99.83784727729093
 21
300.5221625104887
 31
0.0
 11
100.4584201494133
 21
300.3678621538659
 31
0.0
 11
101.0609209565497
 21
300.1533434384779
 31
0.0
 11
101.6412281528958
 21
299.8795650993919
 31
0.0
 11
102.1914531409388
 21
299.5500729804384
 31
0.0
 11
102.4540604451091
 21
299.3649962047896
 31
0.0
 11
102.7070809025256
 21
299.1671826886624
 31
0.0
 11
102.9499292039009
 21
298.9571302090671
 31
0.0
 11
103.1821316393095
 21
298.7352219914906
 31
0.0
 11
103.6110476970412
 21
298.2595217736967
 31
0.0
 11
103.9911583556966
 21
297.7435284602827
 31
0.0
 11
104.3165975013827
 21
297.1958245208962
 31
0.0
 11
104.5866783594783
 21
296.6192075623025
 31
0.0
 11
104.6997688046567
 21
296.3228190426491
 31
0.0
 11
104.798212907995
 21
296.0213710965772
 31
0.0
 11
104.8816957133706
 21
295.716039362069
 31
0.0
 11
104.9502451368147
 21
295.4068419885121
 31
0.0
 11
105.0416722147392
 21
294.7825270104119
 31
0.0
 11
105.0722644268
 21
294.1526699485
 31
0.0
  0
SPLINE
  5
F7
330
1F
100
AcDbEntity
  8
BEZUGSACHSEN
  6
Continuous
 62
     7
100
AcDbSpline
210
0.0
220
0.0
230
1.0
 70
     8
 71
     3
 72
    47
 73
    43
 74
    41
 42
0.0000000001
 43
0.0000000001
 44
0.00000001
 40
0.0
 40
0.0
 40
0.0
 40
0.0
 40
0.6302393214488244
 40
1.260854867304456
 40
1.577476088397276
 40
1.893930800238209
 40
2.210999113888282
 40
2.528183472224686
 40
3.164887038250769
 40
3.801951183390158
 40
4.442851001624561
 40
5.083381259806409
 40
5.40452729232904
 40
5.725573838771749
 40
6.046670710042447
 40
6.367871027164495
 40
7.009090242546476
 40
7.650619763946247
 40
8.290330346477951
 40
8.92995876446869
 40
9.568647011355202
 40
10.20735923015819
 40
10.84445705817584
 40
11.48152626496165
 40
12.1164346222204
 40
12.75141965578761
 40
13.38691908737477
 40
14.02211738532229
 40
14.34050449144875
 40
14.65879153794492
 40
14.97761586871
 40
15.29653774947527
 40
15.93537694104824
 40
16.57458694072139
 40
17.2138627499588
 40
17.85277859076414
 40
18.17219860083377
 40
18.4915002407665
 40
18.81067156637038
 40
19.13001452424958
 40
19.76719627029265
 40
20.4039896827964
 40
20.4039896827964
 40
20.4039896827964
 40
20.4039896827964
 10
105.0722522353
 20
294.1526699866
 30
0.0
 10
105.0663830335298
 20
293.9425139647152
 30
0.0
 10
105.0546411263412
 20
293.5220764672933
 30
0.0
 10
104.9751943838252
 20
293.0009130250351
 30
0.0
 10
104.8844628787326
 20
292.5895215576079
 30
0.0
 10
104.8008574964138
 20
292.283883717307
 30
0.0
 10
104.7025055550382
 20
291.9824998711115
 30
0.0
 10
104.5514867441833
 20
291.5865266915213
 30
0.0
 10
104.3262041565763
 20
291.10541988285
 30
0.0
 10
103.999826121823
 20
290.5557856578573
 30
0.0
 10
103.6199590598002
 20
290.0400577951763
 30
0.0
 10
103.2617046205285
 20
289.642532392946
 30
0.0
 10
102.9525238828591
 20
289.3469790380007
 30
0.0
 10
102.7095989268284
 20
289.1367941295659
 30
0.0
 10
102.4565500235016
 20
288.9388846652506
 30
0.0
 10
102.1067675150378
 20
288.6922613137914
 30
0.0
 10
101.6472822772854
 20
288.4170547045181
 30
0.0
 10
101.0668865703294
 20
288.1430145978059
 30
0.0
 10
100.4627322624996
 20
287.9278261204491
 30
0.0
 10
99.8413171150939
 20
287.7731642814088
 30
0.0
 10
99.20804790365128
 20
287.6803539083772
 30
0.0
 10
98.56958843921018
 20
287.6498431585693
 30
0.0
 10
97.9317554256553
 20
287.6819449009511
 30
0.0
 10
97.30132543866218
 20
287.7757579633276
 30
0.0
 10
96.68375176916496
 20
287.9304717796168
 30
0.0
 10
96.08460835773207
 20
288.1442683516902
 30
0.0
 10
95.50915113626593
 20
288.4155897201468
 30
0.0
 10
95.05346574331082
 20
288.6874346037955
 30
0.0
 10
94.70620984556015
 20
288.930895156387
 30
0.0
 10
94.45459026425537
 20
289.1263776827067
 30
0.0
 10
94.21271521397989
 20
289.3340707413965
 30
0.0
 10
93.90377893029402
 20
289.6269082895294
 30
0.0
 10
93.5449361734061
 20
290.0213659384818
 30
0.0
 10
93.1627092681698
 20
290.5348506044473
 30
0.0
 10
92.8330848229092
 20
291.0836183831575
 30
0.0
 10
92.60459737698486
 20
291.5656817996311
 30
0.0
 10
92.45109587701828
 20
291.9630913587825
 30
0.0
 10
92.35083907409262
 20
292.2663737220655
 30
0.0
 10
92.2655225811707
 20
292.5741975937785
 30
0.0
 10
92.17276012581581
 20
292.9892384609061
 30
0.0
 10
92.09146775892711
 20
293.515511259987
 30
0.0
 10
92.07942795938379
 20
293.940326909679
 30
0.0
 10
92.0734098946
 20
294.1526699883
 30
0.0
 11
105.0722522353
 21
294.1526699866
 31
0.0
 11
105.0417126565232
 21
293.5231710299461
 31
0.0
 11
104.9503813810076
 21
292.8992042321215
 31
0.0
 11
104.8818866423022
 21
292.5900805215848
 31
0.0
 11
104.7984678174412
 21
292.2848185286915
 31
0.0
 11
104.7000810735912
 21
291.9834012694719
 31
0.0
 11
104.5870504424871
 21
291.6870400142352
 31
0.0
 11
104.3170703059747
 21
291.1104100142533
 31
0.0
 11
103.9917336841214
 21
290.5626812424115
 31
0.0
 11
103.6116971893294
 21
290.0466145416459
 31
0.0
 11
103.1828466916687
 21
289.5708349053618
 31
0.0
 11
102.9507095572987
 21
289.3489179725885
 31
0.0
 11
102.7079270639624
 21
289.1388523973217
 31
0.0
 11
102.454997455664
 21
288.9410398244506
 31
0.0
 11
102.1924830598297
 21
288.7559565034866
 31
0.0
 11
101.6424248782309
 21
288.4264142770098
 31
0.0
 11
101.0622840465799
 21
288.15255894608
 31
0.0
 11
100.4596787362883
 21
287.9378580624966
 31
0.0
 11
99.83897946596701
 21
287.7834011787914
 31
0.0
 11
99.20705065204466
 21
287.6907262045769
 31
0.0
 11
98.56906452486346
 21
287.6602795303319
 31
0.0
 11
97.9327695367386
 21
287.6922534345664
 31
0.0
 11
97.30264626263093
 21
287.7860715227079
 31
0.0
 11
96.68676235438949
 21
287.94032985696
 31
0.0
 11
96.08872988457051
 21
288.1537851400911
 31
0.0
 11
95.51389413602381
 21
288.4247526468891
 31
0.0
 11
94.96842744848242
 21
288.7502414646664
 31
0.0
 11
94.7077251557055
 21
288.9330108928771
 31
0.0
 11
94.45637590389718
 21
289.1282804439664
 31
0.0
 11
94.2144926055476
 21
289.3359855808007
 31
0.0
 11
93.98303677424741
 21
289.5553924270658
 31
0.0
 11
93.5531137433672
 21
290.0279193577358
 31
0.0
 11
93.1714926039094
 21
290.5407104746645
 31
0.0
 11
92.84226112973036
 21
291.088688755882
 31
0.0
 11
92.56864682258632
 21
291.666052300417
 31
0.0
 11
92.45355457012636
 21
291.9640169229087
 31
0.0
 11
92.35331488169948
 21
292.2671761914917
 31
0.0
 11
92.26814780148223
 21
292.5747747993153
 31
0.0
 11
92.19818477400855
 21
292.8863596184798
 31
0.0
 11
92.10469587706834
 21
293.5166455882105
 31
0.0
 11
92.0734098946
 21
294.1526699883
 31
0.0
  0
SPLINE
  5
F8
330
1F
100
AcDbEntity
  8
BEZUGSACHSEN
  6
Continuous
 62
     7
100
AcDbSpline
210
0.0
220
0.0
230
1.0
 70
     8
 71
     3
 72
    27
 73
    23
 74
    21
 42
0.0000000001
 43
0.0000000001
 44
0.00000001
 40
0.0
 40
0.0
 40
0.0
 40
0.0
 40
0.1219765139516464
 40
0.2439857714748938
 40
0.3566831398307123
 40
0.4694418149413883
 40
0.5721317672392497
 40
0.6745445880580873
 40
0.7225206520876669
 40
0.7704888797598859
 40
0.8171412936033947
 40
0.8637898734269069
 40
0.9102318000827476
 40
0.9566751324136911
 40
1.004175175749081
 40
1.051683100139019
 40
1.153672388740191
 40
1.256049376677818
 40
1.37074513810293
 40
1.485385401890067
 40
1.611534903927612
 40
1.73763187597256
 40
1.73763187597256
 40
1.73763187597256
 40
1.73763187597256
 10
64.718681273
 20
278.9103339724
 30
0.0
 10
64.68342625539661
 20
278.8900544471351
 30
0.0
 10
64.61290675627622
 20
278.849489952737
 30
0.0
 10
64.5052543530911
 20
278.7986940918456
 30
0.0
 10
64.39709633722667
 20
278.7569424559791
 30
0.0
 10
64.29151711627804
 20
278.7275278708371
 30
0.0
 10
64.18668557115127
 20
278.7106132834441
 30
0.0
 10
64.10195790130605
 20
278.7087480602199
 30
0.0
 10
64.03613396488743
 20
278.7157033682385
 30
0.0
 10
63.98942676165379
 20
278.7249004953898
 30
0.0
 10
63.94424614433764
 20
278.7384339403774
 30
0.0
 10
63.9011065336823
 20
278.7562271991847
 30
0.0
 10
63.86015205710387
 20
278.7784555568887
 30
0.0
 10
63.821504630633
 20
278.8049905885905
 30
0.0
 10
63.78559855200098
 20
278.8356858661209
 30
0.0
 10
63.74015923047038
 20
278.8832233392387
 30
0.0
 10
63.69161609040991
 20
278.9523927063485
 30
0.0
 10
63.64539038147687
 20
279.0485507610774
 30
0.0
 10
63.61142450767865
 20
279.1541261940671
 30
0.0
 10
63.58846908346167
 20
279.2705438849724
 30
0.0
 10
63.57502452509758
 20
279.3922911936302
 30
0.0
 10
63.5735671387996
 20
279.4763945571479
 30
0.0
 10
63.5728385974
 20
279.5184374817
 30
0.0
 11
64.718681273
 21
278.9103339724
 31
0.0
 11
64.61213664893945
 21
278.8509495212398
 31
0.0
 11
64.50184375977078
 21
278.7987792469431
 31
0.0
 11
64.39652575192117
 21
278.7586692225487
 31
0.0
 11
64.28780202339775
 21
278.7287749142496
 31
0.0
 11
64.18633787131105
 21
278.7129555544565
 31
0.0
 11
64.08393833072856
 21
278.7113063253744
 31
0.0
 11
64.0362344744929
 21
278.71640973796
 31
0.0
 11
63.98918370420744
 21
278.725746540494
 31
0.0
 11
63.94450413676381
 21
278.7391698027828
 31
0.0
 11
63.90139800016642
 21
278.7570009829793
 31
0.0
 11
63.86057540736956
 21
278.7791452478993
 31
0.0
 11
63.8222881508234
 21
278.8054334411459
 31
0.0
 11
63.78615105381356
 21
278.8362614209137
 31
0.0
 11
63.75329855344668
 21
278.8705792894298
 31
0.0
 11
63.69412615922371
 21
278.9536481930658
 31
0.0
 11
63.6492264356491
 21
279.0456539672439
 31
0.0
 11
63.61358827606902
 21
279.1546724944337
 31
0.0
 11
63.59073671267164
 21
279.2670121407367
 31
0.0
 11
63.57696995633221
 21
279.3924082064015
 31
0.0
 11
63.5728385974
 21
279.5184374817
 31
0.0
  0
SPLINE
  5
F9
330
1F
100
AcDbEntity
  8
BEZUGSACHSEN
  6
Continuous
 62
     7
100
AcDbSpline
210
0.0
220
0.0
230
1.0
 70
     8
 71
     3
 72
    15
 73
    11
 74
     9
 42
0.0000000001
 43
0.0000000001
 44
0.00000001
 40
0.0
 40
0.0
 40
0.0
 40
0.0
 40
0.1110371613111078
 40
0.2222522337138441
 40
0.3333980191874084
 40
0.444506947493891
 40
0.5556201065416605
 40
0.6667525642487111
 40
0.7778876033851467
 40
0.8889820915694326
 40
0.8889820915694326
 40
0.8889820915694326
 40
0.8889820915694326
 10
65.4727641127
 20
278.4761375816
 30
0.0
 10
65.43612238583884
 20
278.4816697344221
 30
0.0
 10
65.3627802223157
 20
278.4927429040478
 30
0.0
 10
65.25626367231419
 20
278.5257614676162
 30
0.0
 10
65.15385076454753
 20
278.5693517550788
 30
0.0
 10
65.05640079891067
 20
278.6231312628972
 30
0.0
 10
64.96409600317757
 20
278.6852263982622
 30
0.0
 10
64.87709937505112
 20
278.7545130719143
 30
0.0
 10
64.79484661960672
 20
278.8293950235268
 30
0.0
 10
64.74406663320525
 20
278.8833576050188
 30
0.0
 10
64.718681273
 20
278.9103339724
 30
0.0
 11
65.4727641127
 21
278.4761375816
 31
0.0
 11
65.36342182764916
 21
278.4954641408357
 31
0.0
 11
65.25692987404649
 21
278.5275305741801
 31
0.0
 11
65.15466169341744
 21
278.5710576331131
 31
0.0
 11
65.05725882695978
 21
278.6245167348195
 31
0.0
 11
64.96498706017316
 21
278.6864203305765
 31
0.0
 11
64.87788995676438
 21
278.7554458166944
 31
0.0
 11
64.79585005227783
 21
278.8304154838651
 31
0.0
 11
64.718681273
 21
278.9103339724
 31
0.0
  0
SPLINE
  5
FA
330
1F
100
AcDbEntity
  8
BEZUGSACHSEN
  6
Continuous
 62
     7
100
AcDbSpline
210
0.0
220
0.0
230
1.0
 70
     8
 71
     3
 72
    27
 73
    23
 74
    21
 42
0.0000000001
 43
0.0000000001
 44
0.00000001
 40
0.0
 40
0.0
 40
0.0
 40
0.0
 40
0.1260969826408735
 40
0.2522464960255368
 40
0.3668867953575835
 40
0.4815825894843605
 40
0.5839596007456314
 40
0.6859489161926837
 40
0.7334568411148452
 40
0.7809568849594208
 40
0.8274002265081105
 40
0.8738421607840492
 40
0.9204907319642185
 40
0.9671431399886898
 40
1.015111401862019
 40
1.063087497159807
 40
1.165500418762669
 40
1.268190478996966
 40
1.380949153940737
 40
1.493646517821924
 40
1.615655563794724
 40
1.737631867657654
 40
1.737631867657654
 40
1.737631867657654
 40
1.737631867657654
 10
63.5728385974
 20
308.786902454
 30
0.0
 10
63.57356713888316
 20
308.8289453820905
 30
0.0
 10
63.57502452535259
 20
308.9130487529355
 30
0.0
 10
63.58846908736287
 20
309.0347960805275
 30
0.0
 10
63.61142452066402
 20
309.1512137969016
 30
0.0
 10
63.64539042099784
 20
309.2567892546789
 30
0.0
 10
63.69161617985637
 20
309.3529473169184
 30
0.0
 10
63.7401593484111
 20
309.4221166825772
 30
0.0
 10
63.78559867396845
 20
309.4696541641943
 30
0.0
 10
63.82150475205954
 20
309.5003494476763
 30
0.0
 10
63.8601521831523
 20
309.5268844833887
 30
0.0
 10
63.90110667035745
 20
309.5491128292833
 30
0.0
 10
63.94424629652942
 20
309.5669060461599
 30
0.0
 10
63.98942693113072
 20
309.5804394532205
 30
0.0
 10
64.0361341541008
 20
309.5896365785564
 30
0.0
 10
64.10195814528933
 20
309.5965918989382
 30
0.0
 10
64.18668589729057
 20
309.5947266423005
 30
0.0
 10
64.29151750079865
 20
309.5778119813637
 30
0.0
 10
64.39709674316471
 20
309.5483973485057
 30
0.0
 10
64.50525468126509
 20
309.5066457110363
 30
0.0
 10
64.61290694251966
 20
309.4558498838618
 30
0.0
 10
64.68342631733684
 20
309.415285455612
 30
0.0
 10
64.718681273
 20
309.3950059633
 30
0.0
 11
63.5728385974
 21
308.786902454
 31
0.0
 11
63.57696995699397
 21
308.9129317398785
 31
0.0
 11
63.590736716163
 21
309.0383278166479
 31
0.0
 11
63.61358829226496
 21
309.1506674966395
 31
0.0
 11
63.64922648163866
 21
309.2596860484944
 31
0.0
 11
63.6941262464388
 21
309.3516918285067
 31
0.0
 11
63.75329867539294
 21
309.4347607403632
 31
0.0
 11
63.78615117555447
 21
309.4690786098126
 31
0.0
 11
63.82228827048128
 21
309.4999065928068
 31
0.0
 11
63.86057553534273
 21
309.5261947902276
 31
0.0
 11
63.90139814327999
 21
309.5483390432178
 31
0.0
 11
63.94450428689657
 21
309.5661701838335
 31
0.0
 11
63.9891838589307
 21
309.5795934106188
 31
0.0
 11
64.03623466466182
 21
309.5889302102418
 31
0.0
 11
64.0839385519128
 21
309.594033626859
 31
0.0
 11
64.18633819277245
 21
309.592384365495
 31
0.0
 11
64.28780244310758
 21
309.5765649352001
 31
0.0
 11
64.3965261595644
 21
309.5466705836452
 31
0.0
 11
64.50184415186173
 21
309.5065605309871
 31
0.0
 11
64.61213683776712
 21
309.4543903217201
 31
0.0
 11
64.718681273
 21
309.3950059633
 31
0.0
  0
SPLINE
  5
FB
330
1F
100
AcDbEntity
  8
0
  6
Continuous
 62
     7
100
AcDbSpline
210
0.0
220
0.0
230
1.0
 70
     8
 71
     3
 72
    19
 73
    15
 74
    13
 42
0.0000000001
 43
0.0000000001
 44
0.00000001
 40
0.0
 40
0.0
 40
0.0
 40
0.0
 40
0.1162460235718655
 40
0.2327881717960303
 40
0.3491890045888303
 40
0.4655468550526289
 40
0.5819071369671174
 40
0.6982738488833043
 40
0.8146206072295182
 40
0.9309998277708473
 40
1.163276323414171
 40
1.396138921764812
 40
1.629013178065942
 40
1.861351539725944
 40
1.861351539725944
 40
1.861351539725944
 40
1.861351539725944
 10
132.6978385974
 20
260.6302893842
 30
0.0
 10
132.6590545265591
 20
260.6284484373048
 30
0.0
 10
132.5813875864913
 20
260.6247618538936
 30
0.0
 10
132.4677775014345
 20
260.5963563688893
 30
0.0
 10
132.3595898134886
 20
260.5525024546731
 30
0.0
 10
132.258613947525
 20
260.4939057664488
 30
0.0
 10
132.1658454908016
 20
260.4232209051218
 30
0.0
 10
132.0817581118183
 20
260.3424633000357
 30
0.0
 10
132.0064544684435
 20
260.2534956612939
 30
0.0
 10
131.9178032242754
 20
260.1261362135423
 30
0.0
 10
131.8278064785401
 20
259.9533508354512
 30
0.0
 10
131.7529129593761
 20
259.7324258452635
 30
0.0
 10
131.7063760340336
 20
259.5034059256743
 30
0.0
 10
131.7006822233115
 20
259.3482265328397
 30
0.0
 10
131.6978385974
 20
259.2707262147
 30
0.0
 11
132.6978385974
 21
260.6302893842
 31
0.0
 11
132.5819672458496
 21
260.6209637267889
 31
0.0
 11
132.4686427211615
 21
260.5937676900017
 31
0.0
 11
132.3607695885524
 21
260.5500350804758
 31
0.0
 11
132.2599808490422
 21
260.4918906108118
 31
0.0
 11
132.1672935439946
 21
260.4215430544204
 31
0.0
 11
132.0832181783692
 21
260.3410909286739
 31
0.0
 11
132.0079194204375
 21
260.2523967054594
 31
0.0
 11
131.9412926911222
 21
260.1569765717635
 31
0.0
 11
131.8334029050137
 21
259.95127736301
 31
0.0
 11
131.7576447681619
 21
259.7310826891159
 31
0.0
 11
131.7126847543453
 21
259.5025897649247
 31
0.0
 11
131.6978385974
 21
259.2707262147
 31
0.0
  0
SPLINE
  5
FC
330
1F
100
AcDbEntity
  8
0
  6
Continuous
 62
     7
100
AcDbSpline
210
0.0
220
0.0
230
1.0
 70
     8
 71
     3
 72
    19
 73
    15
 74
    13
 42
0.0000000001
 43
0.0000000001
 44
0.00000001
 40
0.0
 40
0.0
 40
0.0
 40
0.0
 40
0.2323383481142794
 40
0.4652125956936565
 40
0.6980761132641311
 40
0.9303535187232632
 40
1.046733461793695
 40
1.16308094087528
 40
1.279447997464935
 40
1.395808629584599
 40
1.512165904560336
 40
1.628566140402193
 40
1.745106920602382
 40
1.861351602867511
 40
1.861351602867511
 40
1.861351602867511
 40
1.861351602867511
 10
135.4478385974
 20
259.2707262147
 30
0.0
 10
135.4449949718019
 20
259.3482265283583
 30
0.0
 10
135.4393011616477
 20
259.5034059138395
 30
0.0
 10
135.3927641858515
 20
259.7324261278629
 30
0.0
 10
135.3178704400647
 20
259.9533516897504
 30
0.0
 10
135.2278731358093
 20
260.1261377539624
 30
0.0
 10
135.1392211980319
 20
260.2534976797094
 30
0.0
 10
135.0639169336863
 20
260.3424655786459
 30
0.0
 10
134.9798289598467
 20
260.4232232486083
 30
0.0
 10
134.8870602259888
 20
260.493907814973
 30
0.0
 10
134.7860844137209
 20
260.5525040391161
 30
0.0
 10
134.6778973642022
 20
260.5963572902541
 30
0.0
 10
134.5642882548577
 20
260.6247620497499
 30
0.0
 10
134.4866222200625
 20
260.628448502412
 30
0.0
 10
134.4478385974
 20
260.6302893842
 30
0.0
 11
135.4478385974
 21
259.2707262147
 31
0.0
 11
135.4329924433079
 21
259.5025897515339
 31
0.0
 11
135.3880324417486
 21
259.7310826692479
 31
0.0
 11
135.3122739630531
 21
259.9512781976336
 31
0.0
 11
135.2043835518735
 21
260.1569781059037
 31
0.0
 11
135.1377562280501
 21
260.2523987057195
 31
0.0
 11
135.0624567714934
 21
260.3410932812633
 31
0.0
 11
134.9783809051405
 21
260.4215453822698
 31
0.0
 11
134.8856930791394
 21
260.4918928315375
 31
0.0
 11
134.7849046442203
 21
260.550036677526
 31
0.0
 11
134.6770319154266
 21
260.5937686942488
 31
0.0
 11
134.5637086268727
 21
260.6209640196009
 31
0.0
 11
134.4478385974
 21
260.6302893842
 31
0.0
  0
SPLINE
  5
FD
330
1F
100
AcDbEntity
  8
BEZUGSACHSEN
  6
Continuous
 62
     7
100
AcDbSpline
210
0.0
220
0.0
230
1.0
 70
     8
 71
     3
 72
    11
 73
     7
 74
     5
 42
0.0000000001
 43
0.0000000001
 44
0.00000001
 40
0.0
 40
0.0
 40
0.0
 40
0.0
 40
0.5462907431867464
 40
1.093000863684057
 40
1.646070107201769
 40
2.198197048711589
 40
2.198197048711589
 40
2.198197048711589
 40
2.198197048711589
 10
73.1266845443
 20
309.1626699679
 30
0.0
 10
73.189755346164
 20
308.991738338645
 30
0.0
 10
73.31594536818133
 20
308.6497438590811
 30
0.0
 10
73.4555826812185
 20
308.1184697298514
 30
0.0
 10
73.55307104522774
 20
307.5750453249196
 30
0.0
 10
73.5662531597462
 20
307.2064606843799
 30
0.0
 10
73.5728385974
 20
307.0223254937
 30
0.0
 11
73.1266845443
 21
309.1626699679
 31
0.0
 11
73.3075358769292
 21
308.647183429203
 31
0.0
 11
73.44802736162751
 21
308.1188330733013
 31
0.0
 11
73.54009401485791
 21
307.5734806005938
 31
0.0
 11
73.5728385974
 21
307.0223254937
 31
0.0
  0
SPLINE
  5
FE
330
1F
100
AcDbEntity
  8
BEZUGSACHSEN
  6
Continuous
 62
     7
100
AcDbSpline
210
0.0
220
0.0
230
1.0
 70
     8
 71
     3
 72
    19
 73
    15
 74
    13
 42
0.0000000001
 43
0.0000000001
 44
0.00000001
 40
0.0
 40
0.0
 40
0.0
 40
0.0
 40
0.1462385988632251
 40
0.2927479275651071
 40
0.4364790706808298
 40
0.5801659236906482
 40
0.7203799973289757
 40
0.8606059383138466
 40
0.9980411884285024
 40
1.135484020456401
 40
1.405415631100306
 40
1.675815514097993
 40
1.943997429533839
 40
2.211934834760695
 40
2.211934834760695
 40
2.211934834760695
 40
2.211934834760695
 10
71.5728385974
 20
310.5113175553
 30
0.0
 10
71.62155340276675
 20
310.5146256326473
 30
0.0
 10
71.71907319866001
 20
310.5212479115473
 30
0.0
 10
71.86440945899457
 20
310.5048885987767
 30
0.0
 10
72.00506639609941
 20
310.4697168326683
 30
0.0
 10
72.13791852952916
 20
310.4169111460171
 30
0.0
 10
72.26237299259546
 20
310.3492393582963
 30
0.0
 10
72.37717554976909
 20
310.2699391569235
 30
0.0
 10
72.48328548753513
 20
310.1808545173432
 30
0.0
 10
72.61238795268306
 20
310.0529069817645
 30
0.0
 10
72.75542780256114
 20
309.8771046928556
 30
0.0
 10
72.90033540425634
 20
309.649419226977
 30
0.0
 10
73.0249721526989
 20
309.4107566075068
 30
0.0
 10
73.0927907238673
 20
309.2453403670739
 30
0.0
 10
73.1266845443
 20
309.1626699679
 30
0.0
 11
71.5728385974
 21
310.5113175553
 31
0.0
 11
71.7189724593044
 21
310.5168512884327
 31
0.0
 11
71.86468182014853
 21
310.5015618947538
 31
0.0
 11
72.0041119016743
 21
310.4666635585891
 31
0.0
 11
72.13774423858507
 21
310.4138591055606
 31
0.0
 11
72.26105802940242
 21
310.3471230924904
 31
0.0
 11
72.37658914073012
 21
310.2676506013977
 31
0.0
 11
72.482001690493
 21
310.1794653286671
 31
0.0
 11
72.5797901941605
 21
310.0828840643022
 31
0.0
 11
72.75103859002175
 21
309.8742286993107
 31
0.0
 11
72.89738101055232
 21
309.6468523753928
 31
0.0
 11
73.02124863635909
 21
309.4089903333519
 31
0.0
 11
73.1266845443
 21
309.1626699679
 31
0.0
  0
SPLINE
  5
FF
330
1F
100
AcDbEntity
  8
BEZUGSACHSEN
  6
Continuous
 62
     7
100
AcDbSpline
210
0.0
220
0.0
230
1.0
 70
     8
 71
     3
 72
    11
 73
     7
 74
     5
 42
0.0000000001
 43
0.0000000001
 44
0.00000001
 40
0.0
 40
0.0
 40
0.0
 40
0.0
 40
0.5521269407036968
 40
1.105196183339768
 40
1.65190630469867
 40
2.198197048720036
 40
2.198197048720036
 40
2.198197048720036
 40
2.198197048720036
 10
73.5728385974
 20
281.2830144421
 30
0.0
 10
73.56625315977224
 20
281.0988792516891
 30
0.0
 10
73.5530710453068
 20
280.7302946117124
 30
0.0
 10
73.45558268150955
 20
280.1868702070269
 30
0.0
 10
73.31594536847703
 20
279.6555960775099
 30
0.0
 10
73.18975534626153
 20
279.3136015974159
 30
0.0
 10
73.1266845443
 20
279.1426699679
 30
0.0
 11
73.5728385974
 21
281.2830144421
 31
0.0
 11
73.54009401497319
 21
280.7318593360069
 31
0.0
 11
73.44802736202982
 21
280.186506864145
 31
0.0
 11
73.3075358771964
 21
279.6581565073877
 31
0.0
 11
73.1266845443
 21
279.1426699679
 31
0.0
  0
SPLINE
  5
100
330
1F
100
AcDbEntity
  8
BEZUGSACHSEN
  6
Continuous
 62
     7
100
AcDbSpline
210
0.0
220
0.0
230
1.0
 70
     8
 71
     3
 72
    19
 73
    15
 74
    13
 42
0.0000000001
 43
0.0000000001
 44
0.00000001
 40
0.0
 40
0.0
 40
0.0
 40
0.0
 40
0.2679411643010136
 40
0.5361267936529037
 40
0.8065304773349355
 40
1.076465993208077
 40
1.213913376124702
 40
1.351353104848828
 40
1.491586367023507
 40
1.631807897514155
 40
1.775491562732467
 40
1.919219204718438
 40
2.06571300736476
 40
2.21193640937577
 40
2.21193640937577
 40
2.21193640937577
 40
2.21193640937577
 10
73.1266845443
 20
279.1426699679
 30
0.0
 10
73.09279030053536
 20
279.059998388194
 30
0.0
 10
73.02497088846316
 20
278.8945798006109
 30
0.0
 10
72.90033238217103
 20
278.655913826956
 30
0.0
 10
72.75542158283301
 20
278.4282258309468
 30
0.0
 10
72.6123779513106
 20
278.2524213396214
 30
0.0
 10
72.4832715644163
 20
278.1244716204793
 30
0.0
 10
72.37715646535698
 20
278.0353845996622
 30
0.0
 10
72.2623470377086
 20
277.9560829593436
 30
0.0
 10
72.13788742547226
 20
277.8884124919144
 30
0.0
 10
72.00503387033505
 20
277.8356098052324
 30
0.0
 10
71.8643830714575
 20
277.8004435412259
 30
0.0
 10
71.71905768833466
 20
277.7840913392829
 30
0.0
 10
71.62154826925675
 20
277.7907140726344
 30
0.0
 10
71.5728385974
 20
277.7940223804
 30
0.0
 11
73.1266845443
 21
279.1426699679
 31
0.0
 11
73.02124728466856
 21
278.8963460920609
 31
0.0
 11
72.89737776910442
 21
278.6584808467964
 31
0.0
 11
72.75103228279114
 21
278.4311019762201
 31
0.0
 11
72.57978009166266
 21
278.2224446740153
 31
0.0
 11
72.48198765298336
 21
278.1258609175767
 31
0.0
 11
72.37657066372866
 21
278.037673971784
 31
0.0
 11
72.26103202001522
 21
277.9581995128113
 31
0.0
 11
72.13771001012186
 21
277.8914630198782
 31
0.0
 11
72.00407932192199
 21
277.8386630689143
 31
0.0
 11
71.86465162071423
 21
277.8037696425023
 31
0.0
 11
71.71895718218354
 21
277.788486815702
 31
0.0
 11
71.5728385974
 21
277.7940223804
 31
0.0
  0
SPLINE
  5
101
330
1F
100
AcDbEntity
  8
BEZUGSACHSEN
  6
Continuous
 62
     7
100
AcDbSpline
210
0.0
220
0.0
230
1.0
 70
     8
 71
     3
 72
    15
 73
    11
 74
     9
 42
0.0000000001
 43
0.0000000001
 44
0.00000001
 40
0.0
 40
0.0
 40
0.0
 40
0.0
 40
0.1110944831967782
 40
0.2222295182205776
 40
0.3333620402644014
 40
0.4444752610827269
 40
0.5555842178662536
 40
0.6667300354300376
 40
0.7779450181763338
 40
0.8889820871814815
 40
0.8889820871814815
 40
0.8889820871814815
 40
0.8889820871814815
 10
64.718681273
 20
309.3950059633
 30
0.0
 10
64.74406663257352
 20
309.421982329007
 30
0.0
 10
64.79484661791166
 20
309.475944907363
 30
0.0
 10
64.87709938719584
 20
309.5508268707675
 30
0.0
 10
64.96409603915272
 20
309.6201135796689
 30
0.0
 10
65.056400879576
 20
309.6822087427414
 30
0.0
 10
65.15385090154136
 20
309.7359882348675
 30
0.0
 10
65.25626381538798
 20
309.7795784804624
 30
0.0
 10
65.36278031396728
 20
309.8125970362647
 30
0.0
 10
65.4361224166806
 20
309.823670202861
 30
0.0
 10
65.4727641127
 20
309.8292023541
 30
0.0
 11
64.718681273
 21
309.3950059633
 31
0.0
 11
64.79585005011441
 21
309.4749244469907
 31
0.0
 11
64.87788995037828
 21
309.5498941126858
 31
0.0
 11
64.96498709898934
 21
309.6189196453505
 31
0.0
 11
65.05725892056192
 21
309.6808232703195
 31
0.0
 11
65.15466182862404
 21
309.7342823554086
 31
0.0
 11
65.25693005199099
 21
309.7778093958696
 31
0.0
 11
65.36342192008108
 21
309.8098758022467
 31
0.0
 11
65.4727641127
 21
309.8292023541
 31
0.0
  0
SPLINE
  5
102
330
1F
100
AcDbEntity
  8
BEZUGSACHSEN
  6
Continuous
 62
     7
100
AcDbSpline
210
0.0
220
0.0
230
1.0
 70
     8
 71
     3
 72
    11
 73
     7
 74
     5
 42
0.0000000001
 43
0.0000000001
 44
0.00000001
 40
0.0
 40
0.0
 40
0.0
 40
0.0
 40
0.9140556660003477
 40
1.82803094918595
 40
2.27980697487113
 40
2.730944124762571
 40
2.730944124762571
 40
2.730944124762571
 40
2.730944124762571
 10
64.8397915242854
 20
279.142669968085
 30
0.0
 10
64.97244623124877
 20
279.4173865657515
 30
0.0
 10
65.2377439794104
 20
279.9667956022788
 30
0.0
 10
65.45309919272307
 20
280.6995065233838
 30
0.0
 10
65.55679340638538
 20
281.2974517294897
 30
0.0
 10
65.56749272390648
 20
281.5985749449165
 30
0.0
 10
65.5728385974
 20
281.7490300195
 30
0.0
 11
64.8397915242854
 21
279.142669968085
 31
0.0
 11
65.2145990540609
 21
279.9763468096555
 31
0.0
 11
65.47389041445878
 21
280.852770684671
 31
0.0
 11
65.54660738795738
 21
281.2986561174327
 31
0.0
 11
65.5728385974
 21
281.7490300195
 31
0.0
  0
SPLINE
  5
103
330
1F
100
AcDbEntity
  8
BEZUGSACHSEN
  6
Continuous
 62
     7
100
AcDbSpline
210
0.0
220
0.0
230
1.0
 70
     8
 71
     3
 72
    11
 73
     7
 74
     5
 42
0.0000000001
 43
0.0000000001
 44
0.00000001
 40
0.0
 40
0.0
 40
0.0
 40
0.0
 40
0.8249192366724153
 40
1.650116891930979
 40
2.19049215229343
 40
2.730585915378203
 40
2.730585915378203
 40
2.730585915378203
 40
2.730585915378203
 10
65.5728385974
 20
306.5563099163
 30
0.0
 10
65.55510529306181
 20
306.8315002082769
 30
0.0
 10
65.51963269921589
 20
307.3819736717378
 30
0.0
 10
65.31119788258052
 20
308.0867072568905
 30
0.0
 10
65.08097145160079
 20
308.6789209819708
 30
0.0
 10
64.92017086879882
 20
309.0014483154159
 30
0.0
 10
64.8397915242854
 20
309.162669967715
 30
0.0
 11
65.5728385974
 21
306.5563099163
 31
0.0
 11
65.48926314328429
 21
307.3769845719959
 31
0.0
 11
65.27130170117253
 21
308.1728765118953
 31
0.0
 11
65.07336662261332
 21
308.675695690813
 31
0.0
 11
64.8397915242854
 21
309.162669967715
 31
0.0
  0
DIMENSION
  5
10E
330
1F
100
AcDbEntity
  8
1
100
AcDbDimension
  2
*D2
 10
224.376954645721
 20
303.1526699679
 30
0.0
 11
220.626954645721
 21
293.54561118363
 31
0.0
 70
    32
  1
<>
 71
     5
 42
-1.0
 53
90.0
  3
ME10_DIM_10
100
AcDbAlignedDimension
 13
213.5728385974
 23
285.1526699679
 33
0.0
 14
213.5728385974
 24
303.1526699679
 34
0.0
 50
90.0
100
AcDbRotatedDimension
  0
DIMENSION
  5
119
330
1F
100
AcDbEntity
  8
1
100
AcDbDimension
  2
*D3
 10
232.336954497407
 20
319.1526699679
 30
0.0
 11
228.586954497407
 21
294.24796411172
 31
0.0
 70
    32
  1
<>
 71
     5
 42
-1.0
 53
90.0
  3
ME10_DIM_11
100
AcDbAlignedDimension
 13
200.4841024117
 23
269.1526699679
 33
0.0
 14
200.4841024117
 24
319.1526699679
 34
0.0
 50
90.0
100
AcDbRotatedDimension
  0
DIMENSION
  5
124
330
1F
100
AcDbEntity
  8
1
100
AcDbDimension
  2
*D4
 10
213.5728385974
 20
351.723845393747
 30
0.0
 11
176.616955535605
 21
355.473845393747
 31
0.0
 70
    32
  1
<>
 71
     5
 42
-1.0
 53
0.00013888888889
  3
ME10_DIM_12
100
AcDbAlignedDimension
 13
142.5728385974
 23
344.1526330468
 33
0.0
 14
213.5728385974
 24
312.5155997071
 34
0.0
100
AcDbRotatedDimension
  0
DIMENSION
  5
12F
330
1F
100
AcDbEntity
  8
1
100
AcDbDimension
  2
*D5
 10
213.5728385974
 20
359.098551138691
 30
0.0
 11
164.911073400773
 21
362.848551138691
 31
0.0
 70
    32
  1
<>
 71
     5
 42
-1.0
 53
0.00013888888889
  3
ME10_DIM_13
100
AcDbAlignedDimension
 13
113.5728385974
 23
344.1526699679
 33
0.0
 14
213.5728385974
 24
312.5155997071
 34
0.0
100
AcDbRotatedDimension
  0
DIMENSION
  5
13A
330
1F
100
AcDbEntity
  8
1
100
AcDbDimension
  2
*D6
 10
213.5728385974
 20
366.590315704984
 30
0.0
 11
148.054603126614
 21
370.340315704984
 31
0.0
 70
    32
  1
<>
 71
     5
 42
-1.0
 53
0.00013888888889
  3
ME10_DIM_14
100
AcDbAlignedDimension
 13
63.5728385974
 23
327.7528615304
 33
0.0
 14
213.5728385974
 24
312.5155997071
 34
0.0
100
AcDbRotatedDimension
  0
INSERT
  5
141
330
1F
100
AcDbEntity
  8
1
100
AcDbBlockReference
  2
*D7
 10
0.0
 20
0.0
 30
0.0
  0
ENDSEC
  0
SECTION
  2
OBJECTS
  0
DICTIONARY
  5
C
330
0
100
AcDbDictionary
281
     1
  3
ACAD_GROUP
350
D
  3
ACAD_LAYOUT
350
1A
  3
ACAD_MLEADERSTYLE
350
144
  3
ACAD_MLINESTYLE
350
17
  3
ACAD_PLOTSETTINGS
350
19
  3
ACAD_PLOTSTYLENAME
350
E
  3
ACAD_SCALELIST
350
4B
  3
ACAD_VISUALSTYLE
350
2A
  3
AcDbVariableDictionary
350
142
  0
DICTIONARY
  5
D
102
{ACAD_REACTORS
330
C
102
}
330
C
100
AcDbDictionary
281
     1
  0
DICTIONARY
  5
1A
102
{ACAD_REACTORS
330
C
102
}
330
C
100
AcDbDictionary
281
     1
  3
Layout1
350
1E
  3
Layout2
350
26
  3
Model
350
22
  0
DICTIONARY
  5
144
102
{ACAD_REACTORS
330
C
102
}
330
C
100
AcDbDictionary
281
     1
  0
DICTIONARY
  5
17
102
{ACAD_REACTORS
330
C
102
}
330
C
100
AcDbDictionary
281
     1
  3
Standard
350
18
  0
DICTIONARY
  5
19
102
{ACAD_REACTORS
330
C
102
}
330
C
100
AcDbDictionary
281
     1
  0
ACDBDICTIONARYWDFLT
  5
E
102
{ACAD_REACTORS
330
C
102
}
330
C
100
AcDbDictionary
281
     1
  3
Normal
350
F
100
AcDbDictionaryWithDefault
340
F
  0
DICTIONARY
  5
4B
102
{ACAD_REACTORS
330
C
102
}
330
C
100
AcDbDictionary
281
     1
  3
A0
350
4C
  3
A1
350
4D
  3
A2
350
4E
  3
A3
350
4F
  3
A4
350
50
  3
A5
350
51
  3
A6
350
52
  3
A7
350
53
  3
A8
350
54
  3
A9
350
55
  3
B0
350
56
  3
B1
350
57
  3
B2
350
58
  3
B3
350
59
  3
B4
350
5A
  3
B5
350
5B
  3
B6
350
5C
  3
B7
350
5D
  3
B8
350
5E
  3
B9
350
5F
  3
C0
350
60
  3
C1
350
61
  3
C2
350
62
  3
C3
350
63
  3
C4
350
64
  3
C5
350
65
  3
C6
350
66
  3
C7
350
67
  3
C8
350
68
  3
C9
350
69
  3
D0
350
6A
  3
D1
350
6B
  3
D2
350
6C
  0
DICTIONARY
  5
2A
102
{ACAD_REACTORS
330
C
102
}
330
C
100
AcDbDictionary
281
     1
  3
2dWireframe
350
2F
  3
3D Hidden
350
31
  3
3dWireframe
350
30
  3
Basic
350
32
  3
Brighten
350
36
  3
ColorChange
350
3A
  3
Conceptual
350
34
  3
Dim
350
35
  3
Facepattern
350
39
  3
Flat
350
2B
  3
FlatWithEdges
350
2C
  3
Gouraud
350
2D
  3
GouraudWithEdges
350
2E
  3
Linepattern
350
38
  3
Realistic
350
33
  3
Thicken
350
37
  0
DICTIONARY
  5
142
102
{ACAD_REACTORS
330
C
102
}
330
C
100
AcDbDictionary
281
     1
  3
CANNOSCALE
350
145
  0
LAYOUT
  5
1E
102
{ACAD_REACTORS
330
1A
102
}
330
1A
100
AcDbPlotSettings
  1

  2
none_device
  4

  6

 40
0.0
 41
0.0
 42
0.0
 43
0.0
 44
0.0
 45
0.0
 46
0.0
 47
0.0
 48
0.0
 49
0.0
140
0.0
141
0.0
142
1.0
143
1.0
 70
   688
 72
     0
 73
     0
 74
     5
  7

 75
    16
147
1.0
148
0.0
149
0.0
100
AcDbLayout
  1
Layout1
 70
     1
 71
     1
 10
0.0
 20
0.0
 11
12.0
 21
9.0
 12
0.0
 22
0.0
 32
0.0
 14
1.00000000000000E+20
 24
1.00000000000000E+20
 34
1.00000000000000E+20
 15
-1.00000000000000E+20
 25
-1.00000000000000E+20
 35
-1.00000000000000E+20
146
0.0
 13
0.0
 23
0.0
 33
0.0
 16
1.0
 26
0.0
 36
0.0
 17
0.0
 27
1.0
 37
0.0
 76
     0
330
1B
  0
LAYOUT
  5
26
102
{ACAD_REACTORS
330
1A
102
}
330
1A
100
AcDbPlotSettings
  1

  2
none_device
  4

  6

 40
0.0
 41
0.0
 42
0.0
 43
0.0
 44
0.0
 45
0.0
 46
0.0
 47
0.0
 48
0.0
 49
0.0
140
0.0
141
0.0
142
1.0
143
1.0
 70
   688
 72
     0
 73
     0
 74
     5
  7

 75
    16
147
1.0
148
0.0
149
0.0
100
AcDbLayout
  1
Layout2
 70
     1
 71
     2
 10
0.0
 20
0.0
 11
0.0
 21
0.0
 12
0.0
 22
0.0
 32
0.0
 14
0.0
 24
0.0
 34
0.0
 15
0.0
 25
0.0
 35
0.0
146
0.0
 13
0.0
 23
0.0
 33
0.0
 16
1.0
 26
0.0
 36
0.0
 17
0.0
 27
1.0
 37
0.0
 76
     0
330
23
  0
LAYOUT
  5
22
102
{ACAD_REACTORS
330
1A
102
}
330
1A
100
AcDbPlotSettings
  1

  2
none_device
  4

  6

 40
0.0
 41
0.0
 42
0.0
 43
0.0
 44
0.0
 45
0.0
 46
0.0
 47
0.0
 48
0.0
 49
0.0
140
0.0
141
0.0
142
1.0
143
1.0
 70
  1712
 72
     0
 73
     0
 74
     0
  7

 75
     0
147
1.0
148
0.0
149
0.0
100
AcDbLayout
  1
Model
 70
     1
 71
     0
 10
0.0
 20
0.0
 11
12.0
 21
9.0
 12
0.0
 22
0.0
 32
0.0
 14
42.5512006620734
 24
244.1526699679
 34
0.0
 15
234.336954497407
 25
372.090315704984
 35
0.0
146
0.0
 13
0.0
 23
0.0
 33
0.0
 16
1.0
 26
0.0
 36
0.0
 17
0.0
 27
1.0
 37
0.0
 76
     0
330
1F
331
29
  0
MLINESTYLE
  5
18
102
{ACAD_REACTORS
330
17
102
}
330
17
100
AcDbMlineStyle
  2
Standard
 70
     0
  3

 62
   256
 51
90.0
 52
90.0
 71
     2
 49
0.5
 62
   256
  6
BYLAYER
 49
-0.5
 62
   256
  6
BYLAYER
  0
ACDBPLACEHOLDER
  5
F
102
{ACAD_REACTORS
330
E
102
}
330
E
  0
SCALE
  5
4C
102
{ACAD_REACTORS
330
4B
102
}
330
4B
100
AcDbScale
 70
     0
300
1:1
140
1.0
141
1.0
290
     1
  0
SCALE
  5
4D
102
{ACAD_REACTORS
330
4B
102
}
330
4B
100
AcDbScale
 70
     0
300
1:2
140
1.0
141
2.0
290
     0
  0
SCALE
  5
4E
102
{ACAD_REACTORS
330
4B
102
}
330
4B
100
AcDbScale
 70
     0
300
1:4
140
1.0
141
4.0
290
     0
  0
SCALE
  5
4F
102
{ACAD_REACTORS
330
4B
102
}
330
4B
100
AcDbScale
 70
     0
300
1:5
140
1.0
141
5.0
290
     0
  0
SCALE
  5
50
102
{ACAD_REACTORS
330
4B
102
}
330
4B
100
AcDbScale
 70
     0
300
1:8
140
1.0
141
8.0
290
     0
  0
SCALE
  5
51
102
{ACAD_REACTORS
330
4B
102
}
330
4B
100
AcDbScale
 70
     0
300
1:10
140
1.0
141
10.0
290
     0
  0
SCALE
  5
52
102
{ACAD_REACTORS
330
4B
102
}
330
4B
100
AcDbScale
 70
     0
300
1:16
140
1.0
141
16.0
290
     0
  0
SCALE
  5
53
102
{ACAD_REACTORS
330
4B
102
}
330
4B
100
AcDbScale
 70
     0
300
1:20
140
1.0
141
20.0
290
     0
  0
SCALE
  5
54
102
{ACAD_REACTORS
330
4B
102
}
330
4B
100
AcDbScale
 70
     0
300
1:30
140
1.0
141
30.0
290
     0
  0
SCALE
  5
55
102
{ACAD_REACTORS
330
4B
102
}
330
4B
100
AcDbScale
 70
     0
300
1:40
140
1.0
141
40.0
290
     0
  0
SCALE
  5
56
102
{ACAD_REACTORS
330
4B
102
}
330
4B
100
AcDbScale
 70
     0
300
1:50
140
1.0
141
50.0
290
     0
  0
SCALE
  5
57
102
{ACAD_REACTORS
330
4B
102
}
330
4B
100
AcDbScale
 70
     0
300
1:100
140
1.0
141
100.0
290
     0
  0
SCALE
  5
58
102
{ACAD_REACTORS
330
4B
102
}
330
4B
100
AcDbScale
 70
     0
300
2:1
140
2.0
141
1.0
290
     0
  0
SCALE
  5
59
102
{ACAD_REACTORS
330
4B
102
}
330
4B
100
AcDbScale
 70
     0
300
4:1
140
4.0
141
1.0
290
     0
  0
SCALE
  5
5A
102
{ACAD_REACTORS
330
4B
102
}
330
4B
100
AcDbScale
 70
     0
300
8:1
140
8.0
141
1.0
290
     0
  0
SCALE
  5
5B
102
{ACAD_REACTORS
330
4B
102
}
330
4B
100
AcDbScale
 70
     0
300
10:1
140
10.0
141
1.0
290
     0
  0
SCALE
  5
5C
102
{ACAD_REACTORS
330
4B
102
}
330
4B
100
AcDbScale
 70
     0
300
100:1
140
100.0
141
1.0
290
     0
  0
SCALE
  5
5D
102
{ACAD_REACTORS
330
4B
102
}
330
4B
100
AcDbScale
 70
     0
300
1/128" = 1'-0"
140
0.0078125
141
12.0
290
     0
  0
SCALE
  5
5E
102
{ACAD_REACTORS
330
4B
102
}
330
4B
100
AcDbScale
 70
     0
300
1/64" = 1'-0"
140
0.015625
141
12.0
290
     0
  0
SCALE
  5
5F
102
{ACAD_REACTORS
330
4B
102
}
330
4B
100
AcDbScale
 70
     0
300
1/32" = 1'-0"
140
0.03125
141
12.0
290
     0
  0
SCALE
  5
60
102
{ACAD_REACTORS
330
4B
102
}
330
4B
100
AcDbScale
 70
     0
300
1/16" = 1'-0"
140
0.0625
141
12.0
290
     0
  0
SCALE
  5
61
102
{ACAD_REACTORS
330
4B
102
}
330
4B
100
AcDbScale
 70
     0
300
3/32" = 1'-0"
140
0.09375
141
12.0
290
     0
  0
SCALE
  5
62
102
{ACAD_REACTORS
330
4B
102
}
330
4B
100
AcDbScale
 70
     0
300
1/8" = 1'-0"
140
0.125
141
12.0
290
     0
  0
SCALE
  5
63
102
{ACAD_REACTORS
330
4B
102
}
330
4B
100
AcDbScale
 70
     0
300
3/16" = 1'-0"
140
0.1875
141
12.0
290
     0
  0
SCALE
  5
64
102
{ACAD_REACTORS
330
4B
102
}
330
4B
100
AcDbScale
 70
     0
300
1/4" = 1'-0"
140
0.25
141
12.0
290
     0
  0
SCALE
  5
65
102
{ACAD_REACTORS
330
4B
102
}
330
4B
100
AcDbScale
 70
     0
300
3/8" = 1'-0"
140
0.375
141
12.0
290
     0
  0
SCALE
  5
66
102
{ACAD_REACTORS
330
4B
102
}
330
4B
100
AcDbScale
 70
     0
300
1/2" = 1'-0"
140
0.5
141
12.0
290
     0
  0
SCALE
  5
67
102
{ACAD_REACTORS
330
4B
102
}
330
4B
100
AcDbScale
 70
     0
300
3/4" = 1'-0"
140
0.75
141
12.0
290
     0
  0
SCALE
  5
68
102
{ACAD_REACTORS
330
4B
102
}
330
4B
100
AcDbScale
 70
     0
300
1" = 1'-0"
140
1.0
141
12.0
290
     0
  0
SCALE
  5
69
102
{ACAD_REACTORS
330
4B
102
}
330
4B
100
AcDbScale
 70
     0
300
1-1/2" = 1'-0"
140
1.5
141
12.0
290
     0
  0
SCALE
  5
6A
102
{ACAD_REACTORS
330
4B
102
}
330
4B
100
AcDbScale
 70
     0
300
3" = 1'-0"
140
3.0
141
12.0
290
     0
  0
SCALE
  5
6B
102
{ACAD_REACTORS
330
4B
102
}
330
4B
100
AcDbScale
 70
     0
300
6" = 1'-0"
140
6.0
141
12.0
290
     0
  0
SCALE
  5
6C
102
{ACAD_REACTORS
330
4B
102
}
330
4B
100
AcDbScale
 70
     0
300
1'-0" = 1'-0"
140
12.0
141
12.0
290
     0
  0
VISUALSTYLE
  5
2F
102
{ACAD_REACTORS
330
2A
102
}
330
2A
100
AcDbVisualStyle
  2
2dWireframe
 70
     4
 71
     0
 72
     2
 73
     0
 90
        0
 40
-0.6
 41
-30.0
 62
     5
 63
     7
 74
     1
 91
        4
 64
     7
 65
   257
 75
     1
175
     1
 42
1.0
 92
        0
 66
   257
 43
1.0
 76
     1
 77
     6
 78
     2
 67
     7
 79
     5
170
     0
171
     0
290
     0
174
     0
 93
        1
 44
0.0
173
     0
291
     0
 45
0.0
1001
ACAD
1000
AcDbSavedByObjectVersion
1070
     0
  0
VISUALSTYLE
  5
31
102
{ACAD_REACTORS
330
2A
102
}
330
2A
100
AcDbVisualStyle
  2
3D Hidden
 70
     6
 71
     1
 72
     2
 73
     2
 90
        0
 40
-0.6
 41
-30.0
 62
     5
 63
     7
 74
     2
 91
        2
 64
     7
 65
   257
 75
     2
175
     1
 42
40.0
 92
        0
 66
   257
 43
1.0
 76
     1
 77
     6
 78
     2
 67
     7
 79
     3
170
     0
171
     0
290
     0
174
     0
 93
        1
 44
0.0
173
     0
291
     0
 45
0.0
1001
ACAD
1000
AcDbSavedByObjectVersion
1070
     0
  0
VISUALSTYLE
  5
30
102
{ACAD_REACTORS
330
2A
102
}
330
2A
100
AcDbVisualStyle
  2
3dWireframe
 70
     5
 71
     0
 72
     2
 73
     0
 90
        0
 40
-0.6
 41
-30.0
 62
     5
 63
     7
 74
     1
 91
        4
 64
     7
 65
   257
 75
     1
175
     1
 42
1.0
 92
        0
 66
   257
 43
1.0
 76
     1
 77
     6
 78
     2
 67
     7
 79
     5
170
     0
171
     0
290
     0
174
     0
 93
        1
 44
0.0
173
     0
291
     0
 45
0.0
1001
ACAD
1000
AcDbSavedByObjectVersion
1070
     0
  0
VISUALSTYLE
  5
32
102
{ACAD_REACTORS
330
2A
102
}
330
2A
100
AcDbVisualStyle
  2
Basic
 70
     7
 71
     1
 72
     0
 73
     1
 90
        0
 40
-0.6
 41
-30.0
 62
     5
 63
     7
 74
     0
 91
        4
 64
     7
 65
   257
 75
     1
175
     1
 42
1.0
 92
        8
 66
     7
 43
1.0
 76
     1
 77
     6
 78
     2
 67
     7
 79
     5
170
     0
171
     0
290
     0
174
     0
 93
        1
 44
0.0
173
     0
291
     1
 45
0.0
1001
ACAD
1000
AcDbSavedByObjectVersion
1070
     0
  0
VISUALSTYLE
  5
36
102
{ACAD_REACTORS
330
2A
102
}
330
2A
100
AcDbVisualStyle
  2
Brighten
 70
    12
 71
     2
 72
     2
 73
     0
 90
        0
 40
-0.6
 41
-30.0
 62
     5
 63
     7
 74
     1
 91
        4
 64
     7
 65
   257
 75
     1
175
     1
 42
1.0
 92
        8
 66
     7
 43
1.0
 76
     1
 77
     6
 78
     2
 67
     7
 79
     5
170
     0
171
     0
290
     0
174
     0
 93
        1
 44
50.0
173
     0
291
     1
 45
0.0
1001
ACAD
1000
AcDbSavedByObjectVersion
1070
     0
  0
VISUALSTYLE
  5
3A
102
{ACAD_REACTORS
330
2A
102
}
330
2A
100
AcDbVisualStyle
  2
ColorChange
 70
    16
 71
     2
 72
     2
 73
     3
 90
        0
 40
-0.6
 41
-30.0
 62
     5
 63
     8
 74
     1
 91
        4
 64
     7
 65
   257
 75
     1
175
     1
 42
1.0
 92
        8
 66
     8
 43
1.0
 76
     1
 77
     6
 78
     2
 67
     7
 79
     5
170
     0
171
     0
290
     0
174
     0
 93
        1
 44
0.0
173
     0
291
     1
 45
0.0
1001
ACAD
1000
AcDbSavedByObjectVersion
1070
     0
  0
VISUALSTYLE
  5
34
102
{ACAD_REACTORS
330
2A
102
}
330
2A
100
AcDbVisualStyle
  2
Conceptual
 70
     9
 71
     3
 72
     2
 73
     0
 90
        0
 40
-0.6
 41
-30.0
 62
     5
 63
     7
 74
     2
 91
        2
 64
     7
 65
   257
 75
     1
175
     1
 42
40.0
 92
        8
 66
     7
 43
1.0
 76
     1
 77
     6
 78
     2
 67
     7
 79
     3
170
     0
171
     0
290
     0
174
     0
 93
        1
 44
0.0
173
     0
291
     0
 45
0.0
1001
ACAD
1000
AcDbSavedByObjectVersion
1070
     0
  0
VISUALSTYLE
  5
35
102
{ACAD_REACTORS
330
2A
102
}
330
2A
100
AcDbVisualStyle
  2
Dim
 70
    11
 71
     2
 72
     2
 73
     0
 90
        0
 40
-0.6
 41
-30.0
 62
     5
 63
     7
 74
     1
 91
        4
 64
     7
 65
   257
 75
     1
175
     1
 42
1.0
 92
        8
 66
     7
 43
1.0
 76
     1
 77
     6
 78
     2
 67
     7
 79
     5
170
     0
171
     0
290
     0
174
     0
 93
        1
 44
-50.0
173
     0
291
     1
 45
0.0
1001
ACAD
1000
AcDbSavedByObjectVersion
1070
     0
  0
VISUALSTYLE
  5
39
102
{ACAD_REACTORS
330
2A
102
}
330
2A
100
AcDbVisualStyle
  2
Facepattern
 70
    15
 71
     2
 72
     2
 73
     0
 90
        0
 40
-0.6
 41
-30.0
 62
     5
 63
     7
 74
     1
 91
        4
 64
     7
 65
   257
 75
     1
175
     1
 42
1.0
 92
        8
 66
     7
 43
1.0
 76
     1
 77
     6
 78
     2
 67
     7
 79
     5
170
     0
171
     0
290
     0
174
     0
 93
        1
 44
0.0
173
     0
291
     1
 45
0.0
1001
ACAD
1000
AcDbSavedByObjectVersion
1070
     0
  0
VISUALSTYLE
  5
2B
102
{ACAD_REACTORS
330
2A
102
}
330
2A
100
AcDbVisualStyle
  2
Flat
 70
     0
 71
     2
 72
     1
 73
     1
 90
        2
 40
-0.6
 41
30.0
 62
     5
 63
     7
 74
     0
 91
        4
 64
     7
 65
   257
 75
     1
175
     1
 42
1.0
 92
        8
 66
     7
 43
1.0
 76
     1
 77
     6
 78
     2
 67
     7
 79
     5
170
     0
171
     0
290
     0
174
     0
 93
       13
 44
0.0
173
     0
291
     1
 45
0.0
1001
ACAD
1000
AcDbSavedByObjectVersion
1070
     0
  0
VISUALSTYLE
  5
2C
102
{ACAD_REACTORS
330
2A
102
}
330
2A
100
AcDbVisualStyle
  2
FlatWithEdges
 70
     1
 71
     2
 72
     1
 73
     1
 90
        2
 40
-0.6
 41
30.0
 62
     5
 63
     7
 74
     1
 91
        4
 64
     7
 65
   257
 75
     1
175
     1
 42
1.0
 92
        0
 66
   257
 43
1.0
 76
     1
 77
     6
 78
     2
 67
     7
 79
     5
170
     0
171
     0
290
     0
174
     0
 93
       13
 44
0.0
173
     0
291
     1
 45
0.0
1001
ACAD
1000
AcDbSavedByObjectVersion
1070
     0
  0
VISUALSTYLE
  5
2D
102
{ACAD_REACTORS
330
2A
102
}
330
2A
100
AcDbVisualStyle
  2
Gouraud
 70
     2
 71
     2
 72
     2
 73
     1
 90
        2
 40
-0.6
 41
30.0
 62
     5
 63
     7
 74
     0
 91
        4
 64
     7
 65
   257
 75
     1
175
     1
 42
1.0
 92
        0
 66
     7
 43
1.0
 76
     1
 77
     6
 78
     2
 67
     7
 79
     5
170
     0
171
     0
290
     0
174
     0
 93
       13
 44
0.0
173
     0
291
     1
 45
0.0
1001
ACAD
1000
AcDbSavedByObjectVersion
1070
     0
  0
VISUALSTYLE
  5
2E
102
{ACAD_REACTORS
330
2A
102
}
330
2A
100
AcDbVisualStyle
  2
GouraudWithEdges
 70
     3
 71
     2
 72
     2
 73
     1
 90
        2
 40
-0.6
 41
30.0
 62
     5
 63
     7
 74
     1
 91
        4
 64
     7
 65
   257
 75
     1
175
     1
 42
1.0
 92
        0
 66
   257
 43
1.0
 76
     1
 77
     6
 78
     2
 67
     7
 79
     5
170
     0
171
     0
290
     0
174
     0
 93
       13
 44
0.0
173
     0
291
     1
 45
0.0
1001
ACAD
1000
AcDbSavedByObjectVersion
1070
     0
  0
VISUALSTYLE
  5
38
102
{ACAD_REACTORS
330
2A
102
}
330
2A
100
AcDbVisualStyle
  2
Linepattern
 70
    14
 71
     2
 72
     2
 73
     0
 90
        0
 40
-0.6
 41
-30.0
 62
     5
 63
     7
 74
     1
 91
        4
 64
     7
 65
   257
 75
     7
175
     7
 42
1.0
 92
        8
 66
     7
 43
1.0
 76
     1
 77
     6
 78
     2
 67
     7
 79
     5
170
     0
171
     0
290
     0
174
     0
 93
        1
 44
0.0
173
     0
291
     1
 45
0.0
1001
ACAD
1000
AcDbSavedByObjectVersion
1070
     0
  0
VISUALSTYLE
  5
33
102
{ACAD_REACTORS
330
2A
102
}
330
2A
100
AcDbVisualStyle
  2
Realistic
 70
     8
 71
     2
 72
     2
 73
     0
 90
        0
 40
-0.6
 41
-30.0
 62
     5
 63
     7
 74
     1
 91
        0
 64
     7
 65
   257
 75
     1
175
     1
 42
1.0
 92
        8
 66
     8
 43
1.0
 76
     1
 77
     6
 78
     2
 67
     7
 79
     5
170
     0
171
     0
290
     0
174
     0
 93
       13
 44
0.0
173
     0
291
     0
 45
0.0
1001
ACAD
1000
AcDbSavedByObjectVersion
1070
     0
  0
VISUALSTYLE
  5
37
102
{ACAD_REACTORS
330
2A
102
}
330
2A
100
AcDbVisualStyle
  2
Thicken
 70
    13
 71
     2
 72
     2
 73
     0
 90
        0
 40
-0.6
 41
-30.0
 62
     5
 63
     7
 74
     1
 91
        4
 64
     7
 65
   257
 75
     1
175
     1
 42
1.0
 92
       12
 66
     7
 43
1.0
 76
     1
 77
     6
 78
     2
 67
     7
 79
     5
170
     0
171
     0
290
     0
174
     0
 93
        1
 44
0.0
173
     0
291
     1
 45
0.0
1001
ACAD
1000
AcDbSavedByObjectVersion
1070
     0
  0
DICTIONARYVAR
  5
145
102
{ACAD_REACTORS
330
142
102
}
330
142
100
DictionaryVariables
280
     0
  1
1:1
  0
ENDSEC
  0
EOF
