  0
SECTION
  2
HEADER
  9
$ACADVER
  1
AC1015
  9
$ACADMAINTVER
 70
     6
  9
$DWGCODEPAGE
  3
ANSI_1252
  9
$INSBASE
 10
0.0
 20
0.0
 30
0.0
  9
$EXTMIN
 10
14.6372570252057
 20
264.8118977516
 30
0.0
  9
$EXTMAX
 10
208.482787489525
 20
392.094204425203
 30
0.0
  9
$LIMMIN
 10
0.0
 20
0.0
  9
$LIMMAX
 10
12.0
 20
9.0
  9
$ORTHOMODE
 70
     0
  9
$REGENMODE
 70
     1
  9
$FILLMODE
 70
     1
  9
$QTEXTMODE
 70
     0
  9
$MIRRTEXT
 70
     1
  9
$LTSCALE
 40
1.0
  9
$ATTMODE
 70
     1
  9
$TEXTSIZE
 40
0.2
  9
$TRACEWID
 40
0.05
  9
$TEXTSTYLE
  7
Standard
  9
$CLAYER
  8
0
  9
$CELTYPE
  6
ByLayer
  9
$CECOLOR
 62
   256
  9
$CELTSCALE
 40
1.0
  9
$DISPSILH
 70
     0
  9
$DIMSCALE
 40
1.0
  9
$DIMASZ
 40
0.18
  9
$DIMEXO
 40
0.0625
  9
$DIMDLI
 40
0.38
  9
$DIMRND
 40
0.0
  9
$DIMDLE
 40
0.0
  9
$DIMEXE
 40
0.18
  9
$DIMTP
 40
0.0
  9
$DIMTM
 40
0.0
  9
$DIMTXT
 40
0.18
  9
$DIMCEN
 40
0.09
  9
$DIMTSZ
 40
0.0
  9
$DIMTOL
 70
     0
  9
$DIMLIM
 70
     0
  9
$DIMTIH
 70
     1
  9
$DIMTOH
 70
     1
  9
$DIMSE1
 70
     0
  9
$DIMSE2
 70
     0
  9
$DIMTAD
 70
     0
  9
$DIMZIN
 70
     0
  9
$DIMBLK
  1

  9
$DIMASO
 70
     1
  9
$DIMSHO
 70
     1
  9
$DIMPOST
  1

  9
$DIMAPOST
  1

  9
$DIMALT
 70
     0
  9
$DIMALTD
 70
     2
  9
$DIMALTF
 40
25.4
  9
$DIMLFAC
 40
1.0
  9
$DIMTOFL
 70
     0
  9
$DIMTVP
 40
0.0
  9
$DIMTIX
 70
     0
  9
$DIMSOXD
 70
     0
  9
$DIMSAH
 70
     0
  9
$DIMBLK1
  1

  9
$DIMBLK2
  1

  9
$DIMSTYLE
  2
Standard
  9
$DIMCLRD
 70
     0
  9
$DIMCLRE
 70
     0
  9
$DIMCLRT
 70
     0
  9
$DIMTFAC
 40
1.0
  9
$DIMGAP
 40
0.09
  9
$DIMJUST
 70
     0
  9
$DIMSD1
 70
     0
  9
$DIMSD2
 70
     0
  9
$DIMTOLJ
 70
     1
  9
$DIMTZIN
 70
     0
  9
$DIMALTZ
 70
     0
  9
$DIMALTTZ
 70
     0
  9
$DIMUPT
 70
     0
  9
$DIMDEC
 70
     4
  9
$DIMTDEC
 70
     4
  9
$DIMALTU
 70
     2
  9
$DIMALTTD
 70
     2
  9
$DIMTXSTY
  7
Standard
  9
$DIMAUNIT
 70
     0
  9
$DIMADEC
 70
     0
  9
$DIMALTRND
 40
0.0
  9
$DIMAZIN
 70
     0
  9
$DIMDSEP
 70
    46
  9
$DIMATFIT
 70
     3
  9
$DIMFRAC
 70
     0
  9
$DIMLDRBLK
  1

  9
$DIMLUNIT
 70
     2
  9
$DIMLWD
 70
    -2
  9
$DIMLWE
 70
    -2
  9
$DIMTMOVE
 70
     0
  9
$LUNITS
 70
     2
  9
$LUPREC
 70
     4
  9
$SKETCHINC
 40
0.1
  9
$FILLETRAD
 40
0.5
  9
$AUNITS
 70
     0
  9
$AUPREC
 70
     0
  9
$MENU
  1
.
  9
$ELEVATION
 40
0.0
  9
$PELEVATION
 40
0.0
  9
$THICKNESS
 40
0.0
  9
$LIMCHECK
 70
     0
  9
$CHAMFERA
 40
0.5
  9
$CHAMFERB
 40
0.5
  9
$CHAMFERC
 40
1.0
  9
$CHAMFERD
 40
0.0
  9
$SKPOLY
 70
     0
  9
$TDCREATE
 40
2456748.735178206
  9
$TDUCREATE
 40
2456748.651844873
  9
$TDUPDATE
 40
2456748.735178218
  9
$TDUUPDATE
 40
2456748.651844884
  9
$TDINDWG
 40
0.0000000116
  9
$TDUSRTIMER
 40
0.0000000116
  9
$USRTIMER
 70
     1
  9
$ANGBASE
 50
0.0
  9
$ANGDIR
 70
     0
  9
$PDMODE
 70
     0
  9
$PDSIZE
 40
0.0
  9
$PLINEWID
 40
0.0
  9
$SPLFRAME
 70
     0
  9
$SPLINETYPE
 70
     6
  9
$SPLINESEGS
 70
     8
  9
$HANDSEED
  5
146
  9
$SURFTAB1
 70
     6
  9
$SURFTAB2
 70
     6
  9
$SURFTYPE
 70
     6
  9
$SURFU
 70
     6
  9
$SURFV
 70
     6
  9
$UCSBASE
  2

  9
$UCSNAME
  2

  9
$UCSORG
 10
0.0
 20
0.0
 30
0.0
  9
$UCSXDIR
 10
1.0
 20
0.0
 30
0.0
  9
$UCSYDIR
 10
0.0
 20
1.0
 30
0.0
  9
$UCSORTHOREF
  2

  9
$UCSORTHOVIEW
 70
     0
  9
$UCSORGTOP
 10
0.0
 20
0.0
 30
0.0
  9
$UCSORGBOTTOM
 10
0.0
 20
0.0
 30
0.0
  9
$UCSORGLEFT
 10
0.0
 20
0.0
 30
0.0
  9
$UCSORGRIGHT
 10
0.0
 20
0.0
 30
0.0
  9
$UCSORGFRONT
 10
0.0
 20
0.0
 30
0.0
  9
$UCSORGBACK
 10
0.0
 20
0.0
 30
0.0
  9
$PUCSBASE
  2

  9
$PUCSNAME
  2

  9
$PUCSORG
 10
0.0
 20
0.0
 30
0.0
  9
$PUCSXDIR
 10
1.0
 20
0.0
 30
0.0
  9
$PUCSYDIR
 10
0.0
 20
1.0
 30
0.0
  9
$PUCSORTHOREF
  2

  9
$PUCSORTHOVIEW
 70
     0
  9
$PUCSORGTOP
 10
0.0
 20
0.0
 30
0.0
  9
$PUCSORGBOTTOM
 10
0.0
 20
0.0
 30
0.0
  9
$PUCSORGLEFT
 10
0.0
 20
0.0
 30
0.0
  9
$PUCSORGRIGHT
 10
0.0
 20
0.0
 30
0.0
  9
$PUCSORGFRONT
 10
0.0
 20
0.0
 30
0.0
  9
$PUCSORGBACK
 10
0.0
 20
0.0
 30
0.0
  9
$USERI1
 70
     0
  9
$USERI2
 70
     0
  9
$USERI3
 70
     0
  9
$USERI4
 70
     0
  9
$USERI5
 70
     0
  9
$USERR1
 40
16.5
  9
$USERR2
 40
0.0
  9
$USERR3
 40
0.0
  9
$USERR4
 40
0.0
  9
$USERR5
 40
0.0
  9
$WORLDVIEW
 70
     1
  9
$SHADEDGE
 70
     3
  9
$SHADEDIF
 70
    70
  9
$TILEMODE
 70
     1
  9
$MAXACTVP
 70
    64
  9
$PINSBASE
 10
0.0
 20
0.0
 30
0.0
  9
$PLIMCHECK
 70
     0
  9
$PEXTMIN
 10
1.00000000000000E+20
 20
1.00000000000000E+20
 30
1.00000000000000E+20
  9
$PEXTMAX
 10
-1.00000000000000E+20
 20
-1.00000000000000E+20
 30
-1.00000000000000E+20
  9
$PLIMMIN
 10
0.0
 20
0.0
  9
$PLIMMAX
 10
12.0
 20
9.0
  9
$UNITMODE
 70
     0
  9
$VISRETAIN
 70
     1
  9
$PLINEGEN
 70
     0
  9
$PSLTSCALE
 70
     1
  9
$TREEDEPTH
 70
  3020
  9
$CMLSTYLE
  2
Standard
  9
$CMLJUST
 70
     0
  9
$CMLSCALE
 40
1.0
  9
$PROXYGRAPHICS
 70
     1
  9
$MEASUREMENT
 70
     1
  9
$CELWEIGHT
370
    -1
  9
$ENDCAPS
280
     0
  9
$JOINSTYLE
280
     0
  9
$LWDISPLAY
290
     0
  9
$INSUNITS
 70
     1
  9
$HYPERLINKBASE
  1

  9
$STYLESHEET
  1

  9
$XEDIT
290
     1
  9
$CEPSNTYPE
380
     0
  9
$PSTYLEMODE
290
     1
  9
$FINGERPRINTGUID
  2
{10C75EB5-9480-48A4-9A8F-5EAC3A57DD93}
  9
$VERSIONGUID
  2
{FAEB1C32-E019-11D5-929B-00C0DF256EC4}
  9
$EXTNAMES
290
     1
  9
$PSVPSCALE
 40
0.0
  9
$OLESTARTUP
290
     0
  0
ENDSEC
  0
SECTION
  2
CLASSES
  0
CLASS
  1
ACDBDICTIONARYWDFLT
  2
AcDbDictionaryWithDefault
  3
ObjectDBX Classes
 90
        0
280
     0
281
     0
  0
CLASS
  1
VISUALSTYLE
  2
AcDbVisualStyle
  3
ObjectDBX Classes
 90
     4095
280
     0
281
     0
  0
CLASS
  1
SCALE
  2
AcDbScale
  3
ObjectDBX Classes
 90
     1153
280
     0
281
     0
  0
CLASS
  1

  2
exOdDbPolyline
  3

 90
        0
280
     0
281
     1
  0
CLASS
  1

  2
exOdDbCircle
  3

 90
        0
280
     0
281
     1
  0
CLASS
  1

  2
exOdDbSpline
  3

 90
        0
280
     0
281
     1
  0
CLASS
  1
DICTIONARYVAR
  2
AcDbDictionaryVar
  3
ObjectDBX Classes
 90
        0
280
     0
281
     0
  0
CLASS
  1
ACDBPLACEHOLDER
  2
AcDbPlaceHolder
  3
ObjectDBX Classes
 90
        0
280
     0
281
     0
  0
CLASS
  1
LAYOUT
  2
AcDbLayout
  3
ObjectDBX Classes
 90
        0
280
     0
281
     0
  0
ENDSEC
  0
SECTION
  2
TABLES
  0
TABLE
  2
VPORT
  5
8
330
0
100
AcDbSymbolTable
 70
     1
  0
VPORT
  5
29
330
8
100
AcDbSymbolTableRecord
100
AcDbViewportTableRecord
  2
*Active
 70
     0
 10
0.0
 20
0.0
 11
1.0
 21
1.0
 12
111.5600222573654
 22
328.4530510884015
 13
0.0
 23
0.0
 14
0.5
 24
0.5
 15
0.5
 25
0.5
 16
0.0
 26
0.0
 36
1.0
 17
0.0
 27
0.0
 37
0.0
 40
140.0105373409633
 41
1.60267857142857
 42
50.0
 43
0.0
 44
0.0
 50
0.0
 51
0.0
 71
     0
 72
   100
 73
     1
 74
     3
 75
     0
 76
     0
 77
     0
 78
     0
281
     0
 65
     1
110
0.0
120
0.0
130
0.0
111
1.0
121
0.0
131
0.0
112
0.0
122
1.0
132
0.0
 79
     0
146
0.0
  0
ENDTAB
  0
TABLE
  2
LTYPE
  5
5
330
0
100
AcDbSymbolTable
 70
     8
  0
LTYPE
  5
14
330
5
100
AcDbSymbolTableRecord
100
AcDbLinetypeTableRecord
  2
ByBlock
 70
     0
  3

 72
    65
 73
     0
 40
0.0
  0
LTYPE
  5
15
330
5
100
AcDbSymbolTableRecord
100
AcDbLinetypeTableRecord
  2
ByLayer
 70
     0
  3

 72
    65
 73
     0
 40
0.0
  0
LTYPE
  5
16
330
5
100
AcDbSymbolTableRecord
100
AcDbLinetypeTableRecord
  2
Continuous
 70
     0
  3
Solid line
 72
    65
 73
     0
 40
0.0
  0
LTYPE
  5
3B
330
5
100
AcDbSymbolTableRecord
100
AcDbLinetypeTableRecord
  2
DASHED
 70
     0
  3
Dashed
 72
    65
 73
     2
 40
15.0
 49
7.0
 74
     0
 49
-8.0
 74
     0
  0
LTYPE
  5
3C
330
5
100
AcDbSymbolTableRecord
100
AcDbLinetypeTableRecord
  2
DOTTED
 70
     0
  3
Dotted
 72
    65
 73
     2
 40
1.0
 49
0.0
 74
     0
 49
-1.0
 74
     0
  0
LTYPE
  5
3D
330
5
100
AcDbSymbolTableRecord
100
AcDbLinetypeTableRecord
  2
DOT_CENTER
 70
     0
  3
Dot_Center
 72
    65
 73
     4
 40
14.0
 49
12.0
 74
     0
 49
-1.0
 74
     0
 49
0.0
 74
     0
 49
-1.0
 74
     0
  0
LTYPE
  5
3E
330
5
100
AcDbSymbolTableRecord
100
AcDbLinetypeTableRecord
  2
LONG_DASHED
 70
     0
  3
Long_Dashed
 72
    65
 73
     2
 40
15.0
 49
10.0
 74
     0
 49
-5.0
 74
     0
  0
LTYPE
  5
3F
330
5
100
AcDbSymbolTableRecord
100
AcDbLinetypeTableRecord
  2
DASH_CENTER
 70
     0
  3
Dash_Center
 72
    65
 73
     4
 40
14.0
 49
11.0
 74
     0
 49
-1.0
 74
     0
 49
1.0
 74
     0
 49
-1.0
 74
     0
  0
LTYPE
  5
40
330
5
100
AcDbSymbolTableRecord
100
AcDbLinetypeTableRecord
  2
PHANTOM
 70
     0
  3
Phantom
 72
    65
 73
     6
 40
13.0
 49
10.0
 74
     0
 49
-1.0
 74
     0
 49
0.0
 74
     0
 49
-1.0
 74
     0
 49
0.0
 74
     0
 49
-1.0
 74
     0
  0
LTYPE
  5
41
330
5
100
AcDbSymbolTableRecord
100
AcDbLinetypeTableRecord
  2
CENTER_DASH_DASH
 70
     0
  3
Center_Dash_Dash
 72
    65
 73
     6
 40
14.0
 49
9.0
 74
     0
 49
-1.0
 74
     0
 49
1.0
 74
     0
 49
-1.0
 74
     0
 49
1.0
 74
     0
 49
-1.0
 74
     0
  0
ENDTAB
  0
TABLE
  2
LAYER
  5
2
330
0
100
AcDbSymbolTable
 70
     7
  0
LAYER
  5
10
330
2
100
AcDbSymbolTableRecord
100
AcDbLayerTableRecord
  2
0
 70
     0
 62
     7
  6
Continuous
370
    -3
390
F
  0
LAYER
  5
42
330
2
100
AcDbSymbolTableRecord
100
AcDbLayerTableRecord
  2
1
 70
     0
 62
     7
  6
Continuous
370
    -3
390
F
  0
LAYER
  5
43
330
2
100
AcDbSymbolTableRecord
100
AcDbLayerTableRecord
  2
BEZUGSACHSEN
 70
     0
 62
     7
  6
Continuous
370
    -3
390
F
  0
LAYER
  5
44
330
2
100
AcDbSymbolTableRecord
100
AcDbLayerTableRecord
  2
DEFAULT_2
 70
     0
 62
     7
  6
Continuous
370
    -3
390
F
  0
LAYER
  5
45
330
2
100
AcDbSymbolTableRecord
100
AcDbLayerTableRecord
  2
FASEN
 70
     0
 62
     7
  6
Continuous
370
    -3
390
F
  0
LAYER
  5
46
330
2
100
AcDbSymbolTableRecord
100
AcDbLayerTableRecord
  2
GEWINDE
 70
     0
 62
     7
  6
Continuous
370
    -3
390
F
  0
LAYER
  5
47
330
2
100
AcDbSymbolTableRecord
100
AcDbLayerTableRecord
  2
RUNDUNGEN
 70
     0
 62
     7
  6
Continuous
370
    -3
390
F
  0
ENDTAB
  0
TABLE
  2
STYLE
  5
3
330
0
100
AcDbSymbolTable
 70
     2
  0
STYLE
  5
11
330
3
100
AcDbSymbolTableRecord
100
AcDbTextStyleTableRecord
  2
Standard
 70
     0
 40
0.0
 41
1.0
 50
0.0
 71
     0
 42
0.2
  3
txt
  4

  0
STYLE
  5
6E
330
3
100
AcDbSymbolTableRecord
100
AcDbTextStyleTableRecord
  2
CONVERTER_11
 70
     0
 40
0.0
 41
0.72
 50
0.0
 71
     0
 42
0.2
  3
txt.shx
  4

  0
ENDTAB
  0
TABLE
  2
VIEW
  5
6
330
0
100
AcDbSymbolTable
 70
     0
  0
ENDTAB
  0
TABLE
  2
UCS
  5
7
330
0
100
AcDbSymbolTable
 70
     0
  0
ENDTAB
  0
TABLE
  2
APPID
  5
9
330
0
100
AcDbSymbolTable
 70
     1
  0
APPID
  5
12
330
9
100
AcDbSymbolTableRecord
100
AcDbRegAppTableRecord
  2
ACAD
 70
     0
  0
ENDTAB
  0
TABLE
  2
DIMSTYLE
  5
A
330
0
100
AcDbSymbolTable
 70
     6
100
AcDbDimStyleTable
  0
DIMSTYLE
105
27
330
A
100
AcDbSymbolTableRecord
100
AcDbDimStyleTableRecord
  2
Standard
 70
     0
340
11
  0
DIMSTYLE
105
10D
102
{ACAD_REACTORS
330
10E
102
}
330
A
100
AcDbSymbolTableRecord
100
AcDbDimStyleTableRecord
  2
ME10_DIM_10
 70
     0
  3
\U+2300<>
 41
3.5
 42
2.0
 44
2.0
 71
     1
 73
     0
 74
     0
 77
     1
 78
     8
140
3.5
146
0.7
147
2.0
172
     1
173
     1
176
     2
177
     2
178
     3
271
     2
272
     0
340
6E
  0
DIMSTYLE
105
118
102
{ACAD_REACTORS
330
119
102
}
330
A
100
AcDbSymbolTableRecord
100
AcDbDimStyleTableRecord
  2
ME10_DIM_11
 70
     0
  3
\U+2300<>
 41
3.5
 42
2.0
 44
2.0
 71
     1
 73
     0
 74
     0
 77
     1
 78
     8
140
3.5
146
0.7
147
2.0
172
     1
173
     1
176
     2
177
     2
178
     3
271
     2
272
     0
340
6E
  0
DIMSTYLE
105
123
102
{ACAD_REACTORS
330
124
102
}
330
A
100
AcDbSymbolTableRecord
100
AcDbDimStyleTableRecord
  2
ME10_DIM_12
 70
     0
  3
<>
 41
3.5
 42
2.0
 44
2.0
 71
     1
 73
     0
 74
     0
 77
     1
 78
     8
140
3.5
146
0.7
147
2.0
172
     1
173
     1
176
     2
177
     2
178
     3
271
     2
272
     0
340
6E
  0
DIMSTYLE
105
12E
102
{ACAD_REACTORS
330
12F
102
}
330
A
100
AcDbSymbolTableRecord
100
AcDbDimStyleTableRecord
  2
ME10_DIM_13
 70
     0
  3
<>
 41
3.5
 42
2.0
 44
2.0
 71
     1
 73
     0
 74
     0
 77
     1
 78
     8
140
3.5
146
0.7
147
2.0
172
     1
173
     1
176
     2
177
     2
178
     3
271
     2
272
     0
340
6E
  0
DIMSTYLE
105
139
102
{ACAD_REACTORS
330
13A
102
}
330
A
100
AcDbSymbolTableRecord
100
AcDbDimStyleTableRecord
  2
ME10_DIM_14
 70
     0
  3
<>
 41
3.5
 42
2.0
 44
2.0
 71
     1
 73
     0
 74
     0
 77
     1
 78
     8
140
3.5
146
0.7
147
2.0
172
     1
173
     1
176
     2
177
     2
178
     3
271
     2
272
     0
340
6E
  0
ENDTAB
  0
TABLE
  2
BLOCK_RECORD
  5
1
330
0
100
AcDbSymbolTable
 70
     8
  0
BLOCK_RECORD
  5
1F
330
1
100
AcDbSymbolTableRecord
100
AcDbBlockTableRecord
  2
*Model_Space
340
22
  0
BLOCK_RECORD
  5
1B
330
1
100
AcDbSymbolTableRecord
100
AcDbBlockTableRecord
  2
*Paper_Space
340
1E
  0
BLOCK_RECORD
  5
23
330
1
100
AcDbSymbolTableRecord
100
AcDbBlockTableRecord
  2
*Paper_Space0
340
26
  0
BLOCK_RECORD
  5
48
330
1
100
AcDbSymbolTableRecord
100
AcDbBlockTableRecord
  2
Urheberrecht_DE-EN
340
0
102
{BLKREFS
331
6D
102
}
  0
BLOCK_RECORD
  5
104
330
1
100
AcDbSymbolTableRecord
100
AcDbBlockTableRecord
  2
*D2
340
0
  0
BLOCK_RECORD
  5
10F
330
1
100
AcDbSymbolTableRecord
100
AcDbBlockTableRecord
  2
*D3
340
0
  0
BLOCK_RECORD
  5
11A
330
1
100
AcDbSymbolTableRecord
100
AcDbBlockTableRecord
  2
*D4
340
0
  0
BLOCK_RECORD
  5
125
330
1
100
AcDbSymbolTableRecord
100
AcDbBlockTableRecord
  2
*D5
340
0
  0
BLOCK_RECORD
  5
130
330
1
100
AcDbSymbolTableRecord
100
AcDbBlockTableRecord
  2
*D6
340
0
  0
BLOCK_RECORD
  5
13B
330
1
100
AcDbSymbolTableRecord
100
AcDbBlockTableRecord
  2
*D7
340
0
102
{BLKREFS
331
141
102
}
  0
ENDTAB
  0
ENDSEC
  0
SECTION
  2
BLOCKS
  0
BLOCK
  5
20
330
1F
100
AcDbEntity
  8
0
100
AcDbBlockBegin
  2
*Model_Space
 70
     0
 10
0.0
 20
0.0
 30
0.0
  3
*Model_Space
  1

  0
ENDBLK
  5
21
330
1F
100
AcDbEntity
  8
0
100
AcDbBlockEnd
  0
BLOCK
  5
1C
330
1B
100
AcDbEntity
 67
     1
  8
0
100
AcDbBlockBegin
  2
*Paper_Space
 70
     0
 10
0.0
 20
0.0
 30
0.0
  3
*Paper_Space
  1

  0
ENDBLK
  5
1D
330
1B
100
AcDbEntity
 67
     1
  8
0
100
AcDbBlockEnd
  0
BLOCK
  5
24
330
23
100
AcDbEntity
  8
0
100
AcDbBlockBegin
  2
*Paper_Space0
 70
     0
 10
0.0
 20
0.0
 30
0.0
  3
*Paper_Space0
  1

  0
ENDBLK
  5
25
330
23
100
AcDbEntity
  8
0
100
AcDbBlockEnd
  0
BLOCK
  5
49
330
48
100
AcDbEntity
  8
0
100
AcDbBlockBegin
  2
Urheberrecht_DE-EN
 70
     0
 10
28.6372570252057
 20
327.944643503805
 30
0.0
  3
Urheberrecht_DE-EN
  1

  0
MTEXT
  5
6F
330
48
100
AcDbEntity
  8
1
 62
     1
100
AcDbMText
 10
28.6372570252057
 20
327.944643503805
 30
0.0
 40
2.0
 41
0.0
 71
     7
 72
     1
  1
We own the copyright of this document. It \Pdetermined and may neither be copied or \Pmade accessible to outsiders without our\Ppermission.
  7
CONVERTER_11
 11
0.0
 21
1.0
 31
0.0
 73
     1
 44
0.90036014405762
  0
MTEXT
  5
70
330
48
100
AcDbEntity
  8
1
 62
     1
100
AcDbMText
 10
28.6372570252057
 20
271.6552565864988
 30
0.0
 40
2.0
 41
0.0
 71
     7
 72
     1
  1
F\U+00fcr diese Unterlage behalten wir das Ur-\Pheberrecht. Sie darf nur f\U+00fcr den von uns \Pbestimmten Zweck benutzt und ohne unsere \PZustimmung weder vervielf\U+00e4ltigt noch\PDritten zug\U+00e4nglich gemacht werden.
  7
CONVERTER_11
 11
0.0
 21
1.0
 31
0.0
 73
     1
 44
0.90036014405762
  0
ENDBLK
  5
4A
330
48
100
AcDbEntity
  8
0
100
AcDbBlockEnd
  0
BLOCK
  5
10B
330
104
100
AcDbEntity
  8
0
100
AcDbBlockBegin
  2
*D2
 70
     1
 10
0.0
 20
0.0
 30
0.0
  3
*D2
  1

  0
LINE
  5
105
330
104
100
AcDbEntity
  8
1
  6
Continuous
 62
     2
100
AcDbLine
 10
196.901369928197
 20
322.8118977516
 30
0.0
 11
196.901369928197
 21
306.8118977516
 31
0.0
  0
LINE
  5
106
330
104
100
AcDbEntity
  8
1
  6
Continuous
 62
     2
100
AcDbLine
 10
187.334088932
 20
322.8118977516
 30
0.0
 11
198.901369928197
 21
322.8118977516
 31
0.0
  0
LINE
  5
107
330
104
100
AcDbEntity
  8
1
  6
Continuous
 62
     2
100
AcDbLine
 10
187.334088932
 20
306.8118977516
 30
0.0
 11
198.901369928197
 21
306.8118977516
 31
0.0
  0
SOLID
  5
108
330
104
100
AcDbEntity
  8
1
 62
     2
100
AcDbTrace
 10
197.3621536697529
 20
319.3118977516
 30
0.0
 11
196.4405861866411
 21
319.3118977516
 31
0.0
 12
196.901369928197
 22
322.8118977516
 32
0.0
 13
196.901369928197
 23
322.8118977516
 33
0.0
  0
SOLID
  5
109
330
104
100
AcDbEntity
  8
1
 62
     2
100
AcDbTrace
 10
196.4405861866411
 20
310.3118977516
 30
0.0
 11
197.3621536697529
 21
310.3118977516
 31
0.0
 12
196.901369928197
 22
306.8118977516
 32
0.0
 13
196.901369928197
 23
306.8118977516
 33
0.0
  0
MTEXT
  5
10A
330
104
100
AcDbEntity
  8
1
 62
     3
100
AcDbMText
 10
194.901369928197
 20
306.169094099547
 30
0.0
 40
3.5
 41
0.0
 71
     7
 72
     1
  1
\C3;%%c\C3;\C3;16\C2;\H2.45;\S^ ;\C3;
  7
CONVERTER_11
 11
0.0
 21
1.0
 31
0.0
 73
     1
 44
0.60024009603842
  0
ENDBLK
  5
10C
330
104
100
AcDbEntity
  8
0
100
AcDbBlockEnd
  0
BLOCK
  5
116
330
10F
100
AcDbEntity
  8
0
100
AcDbBlockBegin
  2
*D3
 70
     1
 10
0.0
 20
0.0
 30
0.0
  3
*D3
  1

  0
LINE
  5
110
330
10F
100
AcDbEntity
  8
1
  6
Continuous
 62
     2
100
AcDbLine
 10
206.482787489525
 20
338.8118977516
 30
0.0
 11
206.482787489525
 21
290.8118977516
 31
0.0
  0
LINE
  5
111
330
10F
100
AcDbEntity
  8
1
  6
Continuous
 62
     2
100
AcDbLine
 10
174.2453527463
 20
338.8118977516
 30
0.0
 11
208.482787489525
 21
338.8118977516
 31
0.0
  0
LINE
  5
112
330
10F
100
AcDbEntity
  8
1
  6
Continuous
 62
     2
100
AcDbLine
 10
174.2453527463
 20
290.8118977516
 30
0.0
 11
208.482787489525
 21
290.8118977516
 31
0.0
  0
SOLID
  5
113
330
10F
100
AcDbEntity
  8
1
 62
     2
100
AcDbTrace
 10
206.9435712310809
 20
335.3118977516
 30
0.0
 11
206.0220037479691
 21
335.3118977516
 31
0.0
 12
206.482787489525
 22
338.8118977516
 32
0.0
 13
206.482787489525
 23
338.8118977516
 33
0.0
  0
SOLID
  5
114
330
10F
100
AcDbEntity
  8
1
 62
     2
100
AcDbTrace
 10
206.0220037479691
 20
294.3118977516
 30
0.0
 11
206.9435712310809
 21
294.3118977516
 31
0.0
 12
206.482787489525
 22
290.8118977516
 32
0.0
 13
206.482787489525
 23
290.8118977516
 33
0.0
  0
MTEXT
  5
115
330
10F
100
AcDbEntity
  8
1
 62
     3
100
AcDbMText
 10
204.482787489525
 20
306.137529946628
 30
0.0
 40
3.5
 41
0.0
 71
     7
 72
     1
  1
\C3;%%c\C3;\C3;48\C2;\H2.45;\S^ ;\C3;
  7
CONVERTER_11
 11
0.0
 21
1.0
 31
0.0
 73
     1
 44
0.60024009603842
  0
ENDBLK
  5
117
330
10F
100
AcDbEntity
  8
0
100
AcDbBlockEnd
  0
BLOCK
  5
121
330
11A
100
AcDbEntity
  8
0
100
AcDbBlockBegin
  2
*D4
 70
     1
 10
0.0
 20
0.0
 30
0.0
  3
*D4
  1

  0
LINE
  5
11B
330
11A
100
AcDbEntity
  8
1
  6
Continuous
 62
     2
100
AcDbLine
 10
185.334088932
 20
371.963120851823
 30
0.0
 11
114.334088932
 21
371.963120851823
 31
0.0
  0
LINE
  5
11C
330
11A
100
AcDbEntity
  8
1
  6
Continuous
 62
     2
100
AcDbLine
 10
185.334088932
 20
334.1748274908
 30
0.0
 11
185.334088932
 21
373.963120851823
 31
0.0
  0
LINE
  5
11D
330
11A
100
AcDbEntity
  8
1
  6
Continuous
 62
     2
100
AcDbLine
 10
114.334088932
 20
366.8118608305
 30
0.0
 11
114.334088932
 21
373.963120851823
 31
0.0
  0
SOLID
  5
11E
330
11A
100
AcDbEntity
  8
1
 62
     2
100
AcDbTrace
 10
181.834088932
 20
371.5023371102671
 30
0.0
 11
181.834088932
 21
372.4239045933789
 31
0.0
 12
185.334088932
 22
371.963120851823
 32
0.0
 13
185.334088932
 23
371.963120851823
 33
0.0
  0
SOLID
  5
11F
330
11A
100
AcDbEntity
  8
1
 62
     2
100
AcDbTrace
 10
117.834088932
 20
372.4239045933789
 30
0.0
 11
117.834088932
 21
371.5023371102671
 31
0.0
 12
114.334088932
 22
371.963120851823
 32
0.0
 13
114.334088932
 23
371.963120851823
 33
0.0
  0
MTEXT
  5
120
330
11A
100
AcDbEntity
  8
1
 62
     3
100
AcDbMText
 10
146.537410427394
 20
373.963120851823
 30
0.0
 40
3.5
 41
0.0
 71
     7
 72
     1
  1
\C3;\C3;\C3;71\C2;\H2.45;\S^ ;\C3;
  7
CONVERTER_11
 11
0.9999999999970619
 21
2.424068405545306E-6
 31
0.0
 73
     1
 44
0.60024009603842
  0
ENDBLK
  5
122
330
11A
100
AcDbEntity
  8
0
100
AcDbBlockEnd
  0
BLOCK
  5
12C
330
125
100
AcDbEntity
  8
0
100
AcDbBlockBegin
  2
*D5
 70
     1
 10
0.0
 20
0.0
 30
0.0
  3
*D5
  1

  0
LINE
  5
126
330
125
100
AcDbEntity
  8
1
  6
Continuous
 62
     2
100
AcDbLine
 10
185.334088932
 20
379.213923330666
 30
0.0
 11
85.334088932
 21
379.213923330666
 31
0.0
  0
LINE
  5
127
330
125
100
AcDbEntity
  8
1
  6
Continuous
 62
     2
100
AcDbLine
 10
185.334088932
 20
334.1748274908
 30
0.0
 11
185.334088932
 21
381.213923330666
 31
0.0
  0
LINE
  5
128
330
125
100
AcDbEntity
  8
1
  6
Continuous
 62
     2
100
AcDbLine
 10
85.334088932
 20
366.8118977516
 30
0.0
 11
85.334088932
 21
381.213923330666
 31
0.0
  0
SOLID
  5
129
330
125
100
AcDbEntity
  8
1
 62
     2
100
AcDbTrace
 10
181.834088932
 20
378.7531395891101
 30
0.0
 11
181.834088932
 21
379.6747070722218
 31
0.0
 12
185.334088932
 22
379.213923330666
 32
0.0
 13
185.334088932
 23
379.213923330666
 33
0.0
  0
SOLID
  5
12A
330
125
100
AcDbEntity
  8
1
 62
     2
100
AcDbTrace
 10
88.834088932
 20
379.6747070722218
 30
0.0
 11
88.834088932
 21
378.7531395891101
 31
0.0
 12
85.334088932
 22
379.213923330666
 32
0.0
 13
85.334088932
 23
379.213923330666
 33
0.0
  0
MTEXT
  5
12B
330
125
100
AcDbEntity
  8
1
 62
     3
100
AcDbMText
 10
134.142249477742
 20
381.213923330666
 30
0.0
 40
3.5
 41
0.0
 71
     7
 72
     1
  1
\C3;\C3;\C3;100\C2;\H2.45;\S^ ;\C3;
  7
CONVERTER_11
 11
0.9999999999970619
 21
2.424068405545306E-6
 31
0.0
 73
     1
 44
0.60024009603842
  0
ENDBLK
  5
12D
330
125
100
AcDbEntity
  8
0
100
AcDbBlockEnd
  0
BLOCK
  5
137
330
130
100
AcDbEntity
  8
0
100
AcDbBlockBegin
  2
*D6
 70
     1
 10
0.0
 20
0.0
 30
0.0
  3
*D6
  1

  0
LINE
  5
131
330
130
100
AcDbEntity
  8
1
  6
Continuous
 62
     2
100
AcDbLine
 10
185.334088932
 20
386.594204425203
 30
0.0
 11
35.334088932
 21
386.594204425203
 31
0.0
  0
LINE
  5
132
330
130
100
AcDbEntity
  8
1
  6
Continuous
 62
     2
100
AcDbLine
 10
185.334088932
 20
334.1748274908
 30
0.0
 11
185.334088932
 21
388.594204425203
 31
0.0
  0
LINE
  5
133
330
130
100
AcDbEntity
  8
1
  6
Continuous
 62
     2
100
AcDbLine
 10
35.334088932
 20
350.4120893142
 30
0.0
 11
35.334088932
 21
388.594204425203
 31
0.0
  0
SOLID
  5
134
330
130
100
AcDbEntity
  8
1
 62
     2
100
AcDbTrace
 10
181.834088932
 20
386.1334206836471
 30
0.0
 11
181.834088932
 21
387.0549881667588
 31
0.0
 12
185.334088932
 22
386.594204425203
 32
0.0
 13
185.334088932
 23
386.594204425203
 33
0.0
  0
SOLID
  5
135
330
130
100
AcDbEntity
  8
1
 62
     2
100
AcDbTrace
 10
38.834088932
 20
387.0549881667588
 30
0.0
 11
38.834088932
 21
386.1334206836471
 31
0.0
 12
35.334088932
 22
386.594204425203
 32
0.0
 13
35.334088932
 23
386.594204425203
 33
0.0
  0
MTEXT
  5
136
330
130
100
AcDbEntity
  8
1
 62
     3
100
AcDbMText
 10
113.943585429537
 20
388.594204425203
 30
0.0
 40
3.5
 41
0.0
 71
     7
 72
     1
  1
\C3;\C3;\C3;150\C2;\H2.45;\S^ ;\C3;
  7
CONVERTER_11
 11
0.9999999999970619
 21
2.424068405545306E-6
 31
0.0
 73
     1
 44
0.60024009603842
  0
ENDBLK
  5
138
330
130
100
AcDbEntity
  8
0
100
AcDbBlockEnd
  0
BLOCK
  5
13F
330
13B
100
AcDbEntity
  8
0
100
AcDbBlockBegin
  2
*D7
 70
     1
 10
0.0
 20
0.0
 30
0.0
  3
*D7
  1

  0
LINE
  5
13C
330
13B
100
AcDbEntity
  8
1
  6
Continuous
 62
     2
100
AcDbLine
 10
125.8261784267885
 20
350.8753768436289
 30
0.0
 11
118.4745412543253
 21
340.7084601469128
 31
0.0
  0
SOLID
  5
13D
330
13B
100
AcDbEntity
  8
1
 62
     2
100
AcDbTrace
 10
120.1519897116162
 20
343.8146617388277
 30
0.0
 11
120.8987761714067
 21
343.2746648782789
 31
0.0
 12
118.4745412543253
 22
340.7084601469128
 32
0.0
 13
118.4745412543253
 23
340.7084601469128
 33
0.0
  0
MTEXT
  5
13E
330
13B
100
AcDbEntity
  8
1
 62
     3
100
AcDbMText
 10
118.8733025191672
 20
344.6731581588986
 30
0.0
 40
3.5
 41
0.0
 71
     7
 72
     1
  1
\C3; R\C3;\C3;10\C2;\H2.45;\S^ ;\C3;
  7
CONVERTER_11
 11
0.5859547677674644
 21
0.8103437604687143
 31
0.0
 73
     1
 44
0.60024009603842
  0
ENDBLK
  5
140
330
13B
100
AcDbEntity
  8
0
100
AcDbBlockEnd
  0
ENDSEC
  0
SECTION
  2
ENTITIES
  0
INSERT
  5
6D
330
1F
100
AcDbEntity
  8
0
100
AcDbBlockReference
  2
Urheberrecht_DE-EN
 10
28.6372570252057
 20
327.944643503805
 30
0.0
  0
LINE
  5
71
330
1F
100
AcDbEntity
  8
BEZUGSACHSEN
  6
Continuous
 62
     7
100
AcDbLine
 10
35.334088932
 20
281.211728233
 30
0.0
 11
35.334088932
 21
302.8018977516
 31
0.0
  0
LINE
  5
72
330
1F
100
AcDbEntity
  8
BEZUGSACHSEN
  6
Continuous
 62
     7
100
AcDbLine
 10
35.334088932
 20
326.8218977516
 30
0.0
 11
35.334088932
 21
348.4120893142
 31
0.0
  0
LINE
  5
73
330
1F
100
AcDbEntity
  8
BEZUGSACHSEN
  6
Continuous
 62
     9
100
AcDbLine
 10
37.2340144473
 20
350.4095840199
 30
0.0
 11
37.2340144473
 21
330.4884301379
 31
0.0
  0
LINE
  5
74
330
1F
100
AcDbEntity
  8
BEZUGSACHSEN
  6
Continuous
 62
     9
100
AcDbLine
 10
37.2340144473
 20
299.1353653653
 30
0.0
 11
37.2340144473
 21
279.2142114833
 31
0.0
  0
LINE
  5
75
330
1F
100
AcDbEntity
  8
BEZUGSACHSEN
  6
Continuous
 62
     7
100
AcDbLine
 10
37.334088932
 20
302.4082578032
 30
0.0
 11
37.334088932
 21
304.8018977516
 31
0.0
  0
LINE
  5
76
330
1F
100
AcDbEntity
  8
BEZUGSACHSEN
  6
Continuous
 62
     7
100
AcDbLine
 10
37.334088932
 20
324.8218977516
 30
0.0
 11
37.334088932
 21
327.2155377
 31
0.0
  0
LINE
  5
77
330
1F
100
AcDbEntity
  8
BEZUGSACHSEN
  6
Continuous
 62
     9
100
AcDbLine
 10
43.334088932
 20
298.4532501642
 30
0.0
 11
43.334088932
 21
304.8018977516
 31
0.0
  0
LINE
  5
78
330
1F
100
AcDbEntity
  8
BEZUGSACHSEN
  6
Continuous
 62
     9
100
AcDbLine
 10
43.334088932
 20
324.8218977516
 30
0.0
 11
43.334088932
 21
331.170545339
 31
0.0
  0
LINE
  5
79
330
1F
100
AcDbEntity
  8
BEZUGSACHSEN
  6
Continuous
 62
     7
100
AcDbLine
 10
45.334088932
 20
327.6815532774
 30
0.0
 11
45.334088932
 21
301.9422422258
 31
0.0
  0
LINE
  5
7A
330
1F
100
AcDbEntity
  8
BEZUGSACHSEN
  6
Continuous
 62
     7
100
AcDbLine
 10
36.601041859
 20
299.8018977516
 30
0.0
 11
36.4799316076
 21
299.5695617562
 31
0.0
  0
LINE
  5
7B
330
1F
100
AcDbEntity
  8
BEZUGSACHSEN
  6
Continuous
 62
     7
100
AcDbLine
 10
36.4799316076
 20
330.0542337471
 30
0.0
 11
36.601041859
 21
329.8218977516
 31
0.0
  0
LINE
  5
7C
330
1F
100
AcDbEntity
  8
BEZUGSACHSEN
  6
Continuous
 62
     7
100
AcDbLine
 10
102.0864936678
 20
264.8118977516
 30
0.0
 11
85.334088932
 21
264.8118977516
 31
0.0
  0
LINE
  5
7D
330
1F
100
AcDbEntity
  8
BEZUGSACHSEN
  6
Continuous
 62
     7
100
AcDbLine
 10
108.5816841962
 20
264.8118977516
 30
0.0
 11
114.334088932
 21
264.8118977516
 31
0.0
  0
LINE
  5
7E
330
1F
100
AcDbEntity
  8
BEZUGSACHSEN
  6
Continuous
 62
     7
100
AcDbLine
 10
35.334088932
 20
302.8018977516
 30
0.0
 11
37.334088932
 21
304.8018977516
 31
0.0
  0
LINE
  5
7F
330
1F
100
AcDbEntity
  8
BEZUGSACHSEN
  6
Continuous
 62
     7
100
AcDbLine
 10
104.459088932
 20
268.8118977516
 30
0.0
 11
106.209088932
 21
268.8118977516
 31
0.0
  0
LINE
  5
80
330
1F
100
AcDbEntity
  8
BEZUGSACHSEN
  6
Continuous
 62
     7
100
AcDbLine
 10
37.334088932
 20
324.8218977516
 30
0.0
 11
35.334088932
 21
326.8218977516
 31
0.0
  0
LWPOLYLINE
  5
81
330
1F
100
AcDbEntity
  8
BEZUGSACHSEN
  6
DOT_CENTER
 62
     7
100
AcDbPolyline
 90
        2
 70
     0
 43
0.25
 10
70.334088932
 20
314.8118977516
 10
70.334088932
 20
305.8118977516
  0
LWPOLYLINE
  5
82
330
1F
100
AcDbEntity
  8
BEZUGSACHSEN
  6
DOT_CENTER
 62
     7
100
AcDbPolyline
 90
        2
 70
     0
 43
0.25
 10
70.334088932
 20
314.8118977516
 10
70.334088932
 20
323.8118977516
  0
LINE
  5
83
330
1F
100
AcDbEntity
  8
FASEN
  6
Continuous
 62
     7
100
AcDbLine
 10
90.7355748964
 20
275.9821411209
 30
0.0
 11
102.0864936678
 21
275.9821411209
 31
0.0
  0
LINE
  5
84
330
1F
100
AcDbEntity
  8
0
  6
Continuous
 62
     7
100
AcDbLine
 10
108.5816841962
 20
275.9821411209
 30
0.0
 11
114.334088932
 21
275.9821411209
 31
0.0
  0
LINE
  5
85
330
1F
100
AcDbEntity
  8
BEZUGSACHSEN
  6
Continuous
 62
     7
100
AcDbLine
 10
84.6335176433
 20
277.1296477516
 30
0.0
 11
83.7121515911
 21
277.1296477516
 31
0.0
  0
LINE
  5
86
330
1F
100
AcDbEntity
  8
BEZUGSACHSEN
  6
Continuous
 62
     7
100
AcDbLine
 10
82.834088932
 20
276.9296477516
 30
0.0
 11
37.2340144473
 21
279.2142114833
 31
0.0
  0
LINE
  5
87
330
1F
100
AcDbEntity
  8
BEZUGSACHSEN
  6
Continuous
 62
     7
100
AcDbLine
 10
83.453332546
 20
277.0955735779
 30
0.0
 11
82.834088932
 21
276.9296477516
 31
0.0
  0
LINE
  5
88
330
1F
100
AcDbEntity
  8
0
  6
Continuous
 62
     7
100
AcDbLine
 10
104.459088932
 20
281.2895171679
 30
0.0
 11
106.209088932
 21
281.2895171679
 31
0.0
  0
LINE
  5
89
330
1F
100
AcDbEntity
  8
FASEN
  6
Continuous
 62
     7
100
AcDbLine
 10
98.3059628539
 20
282.9118977516
 30
0.0
 11
114.334088932
 21
282.9118977516
 31
0.0
  0
LINE
  5
8A
330
1F
100
AcDbEntity
  8
0
  6
Continuous
 62
     7
100
AcDbLine
 10
98.3059628539
 20
283.3118977516
 30
0.0
 11
114.334088932
 21
283.3118977516
 31
0.0
  0
LINE
  5
8B
330
1F
100
AcDbEntity
  8
BEZUGSACHSEN
  6
Continuous
 62
     7
100
AcDbLine
 10
82.834088932
 20
352.6941477516
 30
0.0
 11
82.834088932
 21
276.9296477516
 31
0.0
  0
LINE
  5
8C
330
1F
100
AcDbEntity
  8
BEZUGSACHSEN
  6
Continuous
 62
     9
100
AcDbLine
 10
83.453332546
 20
277.0955735779
 30
0.0
 11
83.453332546
 21
352.5282219253
 31
0.0
  0
LINE
  5
8D
330
1F
100
AcDbEntity
  8
BEZUGSACHSEN
  6
Continuous
 62
     9
100
AcDbLine
 10
83.7121515911
 20
277.1296477516
 30
0.0
 11
83.7121515911
 21
352.4941477516
 31
0.0
  0
LINE
  5
8E
330
1F
100
AcDbEntity
  8
BEZUGSACHSEN
  6
Continuous
 62
     9
100
AcDbLine
 10
84.6335176433
 20
277.1296477516
 30
0.0
 11
84.6335176433
 21
352.4941477516
 31
0.0
  0
LINE
  5
8F
330
1F
100
AcDbEntity
  8
BEZUGSACHSEN
  6
Continuous
 62
     7
100
AcDbLine
 10
85.334088932
 20
364.8118977516
 30
0.0
 11
85.334088932
 21
264.8118977516
 31
0.0
  0
LINE
  5
90
330
1F
100
AcDbEntity
  8
BEZUGSACHSEN
  6
Continuous
 62
     7
100
AcDbLine
 10
107.209088932
 20
362.4344930158
 30
0.0
 11
108.5816841962
 21
364.8118977516
 31
0.0
  0
LINE
  5
91
330
1F
100
AcDbEntity
  8
0
  6
Continuous
 62
     7
100
AcDbLine
 10
124.334088932
 20
290.8118977516
 30
0.0
 11
155.334088932
 21
290.8118977516
 31
0.0
  0
LINE
  5
92
330
1F
100
AcDbEntity
  8
0
  6
Continuous
 62
     7
100
AcDbLine
 10
167.334088932
 20
290.8118977516
 30
0.0
 11
172.2453527463
 21
290.8118977516
 31
0.0
  0
LINE
  5
93
330
1F
100
AcDbEntity
  8
BEZUGSACHSEN
  6
Continuous
 62
     7
100
AcDbLine
 10
107.209088932
 20
267.1893024874
 30
0.0
 11
108.5816841962
 21
264.8118977516
 31
0.0
  0
LWPOLYLINE
  5
94
330
1F
100
AcDbEntity
  8
BEZUGSACHSEN
  6
DOT_CENTER
 62
     7
100
AcDbPolyline
 90
        2
 70
     0
 43
0.25
 10
92.334088932
 20
356.9612696069
 10
92.334088932
 20
367.8118977516
  0
LINE
  5
95
330
1F
100
AcDbEntity
  8
BEZUGSACHSEN
  6
Continuous
 62
     9
100
AcDbLine
 10
35.334088932
 20
301.3657137826
 30
0.0
 11
37.334088932
 21
302.4082578032
 31
0.0
  0
LINE
  5
96
330
1F
100
AcDbEntity
  8
BEZUGSACHSEN
  6
Continuous
 62
     9
100
AcDbLine
 10
37.334088932
 20
327.2155377
 30
0.0
 11
35.334088932
 21
328.2580817206
 31
0.0
  0
LINE
  5
97
330
1F
100
AcDbEntity
  8
FASEN
  6
Continuous
 62
     9
100
AcDbLine
 10
98.3059628539
 20
282.9118977516
 30
0.0
 11
98.3059628539
 21
283.3118977516
 31
0.0
  0
LINE
  5
98
330
1F
100
AcDbEntity
  8
BEZUGSACHSEN
  6
Continuous
 62
     9
100
AcDbLine
 10
44.8879348789
 20
299.8018977516
 30
0.0
 11
36.601041859
 21
299.8018977516
 31
0.0
  0
LINE
  5
99
330
1F
100
AcDbEntity
  8
FASEN
  6
Continuous
 62
     9
100
AcDbLine
 10
100.334088932
 20
305.2118977516
 30
0.0
 11
100.334088932
 21
304.8118977516
 31
0.0
  0
LINE
  5
9A
330
1F
100
AcDbEntity
  8
FASEN
  6
Continuous
 62
     9
100
AcDbLine
 10
100.334088932
 20
324.4118977516
 30
0.0
 11
100.334088932
 21
324.8118977516
 31
0.0
  0
LINE
  5
9B
330
1F
100
AcDbEntity
  8
0
  6
Continuous
 62
     7
100
AcDbLine
 10
102.0864936678
 20
364.8118977516
 30
0.0
 11
102.0864936678
 21
324.8118977516
 31
0.0
  0
LINE
  5
9C
330
1F
100
AcDbEntity
  8
0
  6
Continuous
 62
     7
100
AcDbLine
 10
102.0864936678
 20
304.8118977516
 30
0.0
 11
102.0864936678
 21
283.3118977516
 31
0.0
  0
LINE
  5
9D
330
1F
100
AcDbEntity
  8
0
  6
Continuous
 62
     7
100
AcDbLine
 10
102.0864936678
 20
275.9821411209
 30
0.0
 11
102.0864936678
 21
264.8118977516
 31
0.0
  0
LINE
  5
9E
330
1F
100
AcDbEntity
  8
0
  6
Continuous
 62
     7
100
AcDbLine
 10
103.459088932
 20
362.4344595893
 30
0.0
 11
103.459088932
 21
324.8118977516
 31
0.0
  0
LINE
  5
9F
330
1F
100
AcDbEntity
  8
0
  6
Continuous
 62
     7
100
AcDbLine
 10
103.459088932
 20
304.8118977516
 30
0.0
 11
103.459088932
 21
283.3118977516
 31
0.0
  0
LINE
  5
A0
330
1F
100
AcDbEntity
  8
0
  6
Continuous
 62
     7
100
AcDbLine
 10
103.459088932
 20
267.1893400214
 30
0.0
 11
103.459088932
 21
279.9299539984
 31
0.0
  0
LINE
  5
A1
330
1F
100
AcDbEntity
  8
0
  6
Continuous
 62
     9
100
AcDbLine
 10
104.459088932
 20
268.8118977516
 30
0.0
 11
104.459088932
 21
281.2895171679
 31
0.0
  0
LINE
  5
A2
330
1F
100
AcDbEntity
  8
0
  6
Continuous
 62
     9
100
AcDbLine
 10
104.459088932
 20
283.3118977516
 30
0.0
 11
104.459088932
 21
304.8118977516
 31
0.0
  0
LINE
  5
A3
330
1F
100
AcDbEntity
  8
0
  6
Continuous
 62
     9
100
AcDbLine
 10
104.459088932
 20
324.8118977516
 30
0.0
 11
104.459088932
 21
360.8118977516
 31
0.0
  0
LINE
  5
A4
330
1F
100
AcDbEntity
  8
BEZUGSACHSEN
  6
Continuous
 62
     7
100
AcDbLine
 10
43.334088932
 20
304.8018977516
 30
0.0
 11
37.334088932
 21
304.8018977516
 31
0.0
  0
LINE
  5
A5
330
1F
100
AcDbEntity
  8
0
  6
Continuous
 62
     7
100
AcDbLine
 10
100.334088932
 20
304.8118977516
 30
0.0
 11
114.334088932
 21
304.8118977516
 31
0.0
  0
LINE
  5
A6
330
1F
100
AcDbEntity
  8
FASEN
  6
Continuous
 62
     7
100
AcDbLine
 10
114.334088932
 20
305.2118977516
 30
0.0
 11
100.334088932
 21
305.2118977516
 31
0.0
  0
LWPOLYLINE
  5
A7
330
1F
100
AcDbEntity
  8
GEWINDE
  6
DASHED
 62
     8
100
AcDbPolyline
 90
        2
 70
     0
 43
0.35
 10
185.334088932
 20
306.8118977516
 10
155.334088932
 20
306.8118977516
  0
LWPOLYLINE
  5
A8
330
1F
100
AcDbEntity
  8
DEFAULT_2
  6
DASHED
 62
     8
100
AcDbPolyline
 90
        2
 70
     0
 43
0.35
 10
132.334088932
 20
306.8118977516
 10
155.334088932
 20
306.8118977516
  0
LINE
  5
A9
330
1F
100
AcDbEntity
  8
0
  6
Continuous
 62
     9
100
AcDbLine
 10
106.209088932
 20
268.8118977516
 30
0.0
 11
106.209088932
 21
281.2895171679
 31
0.0
  0
LINE
  5
AA
330
1F
100
AcDbEntity
  8
0
  6
Continuous
 62
     9
100
AcDbLine
 10
106.209088932
 20
283.3118977516
 30
0.0
 11
106.209088932
 21
304.8118977516
 31
0.0
  0
LINE
  5
AB
330
1F
100
AcDbEntity
  8
0
  6
Continuous
 62
     9
100
AcDbLine
 10
106.209088932
 20
324.8118977516
 30
0.0
 11
106.209088932
 21
360.8118977516
 31
0.0
  0
LINE
  5
AC
330
1F
100
AcDbEntity
  8
0
  6
Continuous
 62
     7
100
AcDbLine
 10
107.209088932
 20
267.1893400214
 30
0.0
 11
107.209088932
 21
279.9299539984
 31
0.0
  0
LINE
  5
AD
330
1F
100
AcDbEntity
  8
0
  6
Continuous
 62
     7
100
AcDbLine
 10
107.209088932
 20
283.3118977516
 30
0.0
 11
107.209088932
 21
304.8118977516
 31
0.0
  0
LINE
  5
AE
330
1F
100
AcDbEntity
  8
0
  6
Continuous
 62
     7
100
AcDbLine
 10
107.209088932
 20
324.8118977516
 30
0.0
 11
107.209088932
 21
362.4344595893
 31
0.0
  0
LINE
  5
AF
330
1F
100
AcDbEntity
  8
0
  6
Continuous
 62
     7
100
AcDbLine
 10
108.5816841962
 20
364.8118977516
 30
0.0
 11
108.5816841962
 21
324.8118977516
 31
0.0
  0
LINE
  5
B0
330
1F
100
AcDbEntity
  8
0
  6
Continuous
 62
     7
100
AcDbLine
 10
108.5816841962
 20
304.8118977516
 30
0.0
 11
108.5816841962
 21
283.3118977516
 31
0.0
  0
LINE
  5
B1
330
1F
100
AcDbEntity
  8
0
  6
Continuous
 62
     7
100
AcDbLine
 10
108.5816841962
 20
275.9821411209
 30
0.0
 11
108.5816841962
 21
264.8118977516
 31
0.0
  0
LWPOLYLINE
  5
B2
330
1F
100
AcDbEntity
  8
BEZUGSACHSEN
  6
DOT_CENTER
 62
     7
100
AcDbPolyline
 90
        2
 70
     0
 43
0.25
 10
188.334088932
 20
314.8118977516
 10
32.334088932
 20
314.8118977516
  0
LINE
  5
B3
330
1F
100
AcDbEntity
  8
0
  6
Continuous
 62
     7
100
AcDbLine
 10
114.334088932
 20
364.8118608305
 30
0.0
 11
114.334088932
 21
324.8118977516
 31
0.0
  0
LINE
  5
B4
330
1F
100
AcDbEntity
  8
0
  6
Continuous
 62
     7
100
AcDbLine
 10
114.334088932
 20
304.8118977516
 30
0.0
 11
114.334088932
 21
283.3118977516
 31
0.0
  0
LINE
  5
B5
330
1F
100
AcDbEntity
  8
0
  6
Continuous
 62
     7
100
AcDbLine
 10
114.334088932
 20
275.9821411209
 30
0.0
 11
114.334088932
 21
264.8118996194
 31
0.0
  0
LINE
  5
B6
330
1F
100
AcDbEntity
  8
FASEN
  6
Continuous
 62
     7
100
AcDbLine
 10
114.334088932
 20
275.9821411209
 30
0.0
 11
114.334088932
 21
283.3118977516
 31
0.0
  0
LINE
  5
B7
330
1F
100
AcDbEntity
  8
FASEN
  6
Continuous
 62
     7
100
AcDbLine
 10
114.334088932
 20
304.8118977516
 30
0.0
 11
114.334088932
 21
324.8118977516
 31
0.0
  0
LWPOLYLINE
  5
B8
330
1F
100
AcDbEntity
  8
DEFAULT_2
  6
DASHED
 62
     8
100
AcDbPolyline
 90
        2
 70
     0
 43
0.35
 10
185.334088932
 20
322.8118977516
 10
132.334088932
 20
322.8118977516
  0
LINE
  5
B9
330
1F
100
AcDbEntity
  8
FASEN
  6
Continuous
 62
     7
100
AcDbLine
 10
100.334088932
 20
324.4118977516
 30
0.0
 11
114.334088932
 21
324.4118977516
 31
0.0
  0
LINE
  5
BA
330
1F
100
AcDbEntity
  8
0
  6
Continuous
 62
     7
100
AcDbLine
 10
100.334088932
 20
324.8118977516
 30
0.0
 11
114.334088932
 21
324.8118977516
 31
0.0
  0
LINE
  5
BB
330
1F
100
AcDbEntity
  8
BEZUGSACHSEN
  6
Continuous
 62
     7
100
AcDbLine
 10
43.334088932
 20
324.8218977516
 30
0.0
 11
37.334088932
 21
324.8218977516
 31
0.0
  0
LINE
  5
BC
330
1F
100
AcDbEntity
  8
RUNDUNGEN
  6
Continuous
 62
     9
100
AcDbLine
 10
124.334088932
 20
338.8118977516
 30
0.0
 11
124.334088932
 21
290.8118977516
 31
0.0
  0
LINE
  5
BD
330
1F
100
AcDbEntity
  8
BEZUGSACHSEN
  6
Continuous
 62
     7
100
AcDbLine
 10
102.0864936678
 20
264.8118977516
 30
0.0
 11
103.459088932
 21
267.1893024874
 31
0.0
  0
LINE
  5
BE
330
1F
100
AcDbEntity
  8
BEZUGSACHSEN
  6
Continuous
 62
     9
100
AcDbLine
 10
36.601041859
 20
329.8218977516
 30
0.0
 11
44.8879348789
 21
329.8218977516
 31
0.0
  0
LINE
  5
BF
330
1F
100
AcDbEntity
  8
BEZUGSACHSEN
  6
Continuous
 62
     7
100
AcDbLine
 10
102.0864936678
 20
364.8118977516
 30
0.0
 11
103.459088932
 21
362.4344930158
 31
0.0
  0
LWPOLYLINE
  5
C0
330
1F
100
AcDbEntity
  8
DEFAULT_2
  6
DASHED
 62
     8
100
AcDbPolyline
 90
        2
 70
     0
 43
0.35
 10
132.334088932
 20
322.8118977516
 10
132.334088932
 20
306.8118977516
  0
LINE
  5
C1
330
1F
100
AcDbEntity
  8
RUNDUNGEN
  6
Continuous
 62
     7
100
AcDbLine
 10
172.2453527463
 20
338.8118977516
 30
0.0
 11
124.334088932
 21
338.8118977516
 31
0.0
  0
LINE
  5
C2
330
1F
100
AcDbEntity
  8
0
  6
Continuous
 62
     7
100
AcDbLine
 10
124.334088932
 20
338.8118977516
 30
0.0
 11
172.2453527463
 21
338.8118977516
 31
0.0
  0
LINE
  5
C3
330
1F
100
AcDbEntity
  8
BEZUGSACHSEN
  6
Continuous
 62
     7
100
AcDbLine
 10
83.453332546
 20
352.5282219253
 30
0.0
 11
82.834088932
 21
352.6941477516
 31
0.0
  0
LINE
  5
C4
330
1F
100
AcDbEntity
  8
BEZUGSACHSEN
  6
Continuous
 62
     7
100
AcDbLine
 10
82.834088932
 20
352.6941477516
 30
0.0
 11
37.2340144473
 21
350.4095840199
 31
0.0
  0
LINE
  5
C5
330
1F
100
AcDbEntity
  8
BEZUGSACHSEN
  6
Continuous
 62
     7
100
AcDbLine
 10
84.6335176433
 20
352.4941477516
 30
0.0
 11
83.7121515911
 21
352.4941477516
 31
0.0
  0
LWPOLYLINE
  5
C6
330
1F
100
AcDbEntity
  8
GEWINDE
  6
DASHED
 62
     8
100
AcDbPolyline
 90
        2
 70
     0
 43
0.35
 10
155.334088932
 20
306.8118977516
 10
155.334088932
 20
290.8118977516
  0
LINE
  5
C7
330
1F
100
AcDbEntity
  8
0
  6
Continuous
 62
     7
100
AcDbLine
 10
172.6679710081
 20
290.9055899646
 30
0.0
 11
184.7567071938
 21
296.5426602254
 31
0.0
  0
LINE
  5
C8
330
1F
100
AcDbEntity
  8
BEZUGSACHSEN
  6
Continuous
 62
     7
100
AcDbLine
 10
104.459088932
 20
360.8118977516
 30
0.0
 11
106.209088932
 21
360.8118977516
 31
0.0
  0
LINE
  5
C9
330
1F
100
AcDbEntity
  8
RUNDUNGEN
  6
Continuous
 62
     7
100
AcDbLine
 10
184.7567071938
 20
333.0811352778
 30
0.0
 11
172.6679710081
 21
338.7182055386
 31
0.0
  0
LINE
  5
CA
330
1F
100
AcDbEntity
  8
0
  6
Continuous
 62
     7
100
AcDbLine
 10
172.6679710081
 20
338.7182055386
 30
0.0
 11
184.7567071938
 21
333.0811352778
 31
0.0
  0
LWPOLYLINE
  5
CB
330
1F
100
AcDbEntity
  8
GEWINDE
  6
DOT_CENTER
 62
     7
100
AcDbPolyline
 90
        2
 70
     0
 43
0.25
 10
161.334088932
 20
287.8118977516
 10
161.334088932
 20
312.5203951453
  0
LINE
  5
CC
330
1F
100
AcDbEntity
  8
BEZUGSACHSEN
  6
Continuous
 62
     7
100
AcDbLine
 10
102.0864936678
 20
364.8118977516
 30
0.0
 11
97.334088932
 21
364.8118977516
 31
0.0
  0
LINE
  5
CD
330
1F
100
AcDbEntity
  8
BEZUGSACHSEN
  6
Continuous
 62
     7
100
AcDbLine
 10
87.334088932
 20
364.8118977516
 30
0.0
 11
85.334088932
 21
364.8118977516
 31
0.0
  0
LINE
  5
CE
330
1F
100
AcDbEntity
  8
BEZUGSACHSEN
  6
Continuous
 62
     7
100
AcDbLine
 10
108.5816841962
 20
364.8118977516
 30
0.0
 11
114.334088932
 21
364.8118977516
 31
0.0
  0
LWPOLYLINE
  5
CF
330
1F
100
AcDbEntity
  8
GEWINDE
  6
DASHED
 62
     8
100
AcDbPolyline
 90
        2
 70
     0
 43
0.35
 10
167.334088932
 20
306.8118977516
 10
167.334088932
 20
290.8118977516
  0
LINE
  5
D0
330
1F
100
AcDbEntity
  8
RUNDUNGEN
  6
Continuous
 62
     9
100
AcDbLine
 10
172.2453527463
 20
290.8118977516
 30
0.0
 11
172.2453527463
 21
338.8118977516
 31
0.0
  0
LINE
  5
D1
330
1F
100
AcDbEntity
  8
RUNDUNGEN
  6
Continuous
 62
     9
100
AcDbLine
 10
172.6679710081
 20
290.9055899646
 30
0.0
 11
172.6679710081
 21
338.7182055386
 31
0.0
  0
LINE
  5
D2
330
1F
100
AcDbEntity
  8
RUNDUNGEN
  6
Continuous
 62
     9
100
AcDbLine
 10
184.7567071938
 20
296.5426602254
 30
0.0
 11
184.7567071938
 21
333.0811352778
 31
0.0
  0
LINE
  5
D3
330
1F
100
AcDbEntity
  8
RUNDUNGEN
  6
Continuous
 62
     7
100
AcDbLine
 10
185.334088932
 20
297.4489680124
 30
0.0
 11
185.334088932
 21
332.1748274908
 31
0.0
  0
LWPOLYLINE
  5
D4
330
1F
100
AcDbEntity
  8
GEWINDE
  6
DASHED
 62
     8
100
AcDbPolyline
 90
        2
 70
     0
 43
0.35
 10
168.334088932
 20
306.8118977516
 10
168.334088932
 20
290.8118977516
  0
LWPOLYLINE
  5
D5
330
1F
100
AcDbEntity
  8
GEWINDE
  6
DASHED
 62
     8
100
AcDbPolyline
 90
        2
 70
     0
 43
0.35
 10
154.334088932
 20
306.8118977516
 10
154.334088932
 20
290.8118977516
  0
ARC
  5
D6
330
1F
100
AcDbEntity
  8
FASEN
  6
Continuous
 62
     7
100
AcDbCircle
 10
103.2347429549
 20
290.3431610217
 30
0.0
 40
19.0385948731999
100
AcDbArc
 50
227.4837701982995
 51
228.9651953374995
  0
ARC
  5
D7
330
1F
100
AcDbEntity
  8
FASEN
  6
Continuous
 62
     7
100
AcDbCircle
 10
98.3059628539
 20
275.3118977516
 30
0.0
 40
8.0
100
AcDbArc
 50
90.0
 51
172.8323734889967
  0
ARC
  5
D8
330
1F
100
AcDbEntity
  8
FASEN
  6
Continuous
 62
     7
100
AcDbCircle
 10
98.3059628539
 20
275.3118977516
 30
0.0
 40
7.599982194900008
100
AcDbArc
 50
90.0
 51
174.9405171273013
  0
ARC
  5
D9
330
1F
100
AcDbEntity
  8
BEZUGSACHSEN
  6
Continuous
 62
     7
100
AcDbCircle
 10
43.334088932
 20
306.8018977516
 30
0.0
 40
2.0
100
AcDbArc
 50
270.0
 51
355.2355361864946
  0
ARC
  5
DA
330
1F
100
AcDbEntity
  8
BEZUGSACHSEN
  6
Continuous
 62
     7
100
AcDbCircle
 10
37.334088932
 20
281.2117061885
 30
0.0
 40
2.0
100
AcDbArc
 50
180.0
 51
267.1318795135584
  0
ARC
  5
DB
330
1F
100
AcDbEntity
  8
BEZUGSACHSEN
  6
Continuous
 62
     7
100
AcDbCircle
 10
104.459088932
 20
267.8118977516
 30
0.0
 40
1.0
100
AcDbArc
 50
90.0
 51
180.0
  0
ARC
  5
DC
330
1F
100
AcDbEntity
  8
BEZUGSACHSEN
  6
Continuous
 62
     7
100
AcDbCircle
 10
83.7121515911
 20
276.1296477516
 30
0.0
 40
1.0
100
AcDbArc
 50
90.0
 51
104.9999999996981
  0
ARC
  5
DD
330
1F
100
AcDbEntity
  8
BEZUGSACHSEN
  6
Continuous
 62
     7
100
AcDbCircle
 10
84.6335176433
 20
276.1296477516
 30
0.0
 40
1.000000000000087
100
AcDbArc
 50
45.52164291270372
 51
90.0
  0
ARC
  5
DE
330
1F
100
AcDbEntity
  8
0
  6
Continuous
 62
     7
100
AcDbCircle
 10
-139.2636909512
 20
384.2463653423
 30
0.0
 40
264.5204223909507
100
AcDbArc
 50
335.8400764706018
 51
336.5770705490999
  0
ARC
  5
DF
330
1F
100
AcDbEntity
  8
BEZUGSACHSEN
  6
Continuous
 62
     7
100
AcDbCircle
 10
92.3492969431
 20
414.8646675184
 30
0.0
 40
50.30340021035248
100
AcDbArc
 50
264.2781515101899
 51
269.9826780125999
  0
ARC
  5
E0
330
1F
100
AcDbEntity
  8
BEZUGSACHSEN
  6
Continuous
 62
     7
100
AcDbCircle
 10
92.3188809309
 20
414.8646673177
 30
0.0
 40
50.30340000969741
100
AcDbArc
 50
270.017321976058
 51
275.7218485012678
  0
ARC
  5
E1
330
1F
100
AcDbEntity
  8
0
  6
Continuous
 62
     7
100
AcDbCircle
 10
100.334088932
 20
314.8118977516
 30
0.0
 40
10.0
100
AcDbArc
 50
90.0
 51
270.0
  0
ARC
  5
E2
330
1F
100
AcDbEntity
  8
FASEN
  6
Continuous
 62
     7
100
AcDbCircle
 10
100.334088932
 20
314.8118977516
 30
0.0
 40
9.599999195900011
100
AcDbArc
 50
90.0
 51
270.0
  0
ARC
  5
E3
330
1F
100
AcDbEntity
  8
BEZUGSACHSEN
  6
Continuous
 62
     7
100
AcDbCircle
 10
43.334088932
 20
322.8218977516
 30
0.0
 40
1.999999999999984
100
AcDbArc
 50
4.76446378498879
 51
90.0
  0
ARC
  5
E4
330
1F
100
AcDbEntity
  8
BEZUGSACHSEN
  6
Continuous
 62
     7
100
AcDbCircle
 10
37.334088932
 20
348.4120893147
 30
0.0
 40
1.999999999947542
100
AcDbArc
 50
92.86812048644151
 51
180.0000000143238
  0
ARC
  5
E5
330
1F
100
AcDbEntity
  8
BEZUGSACHSEN
  6
Continuous
 62
     7
100
AcDbCircle
 10
104.459088932
 20
361.8118977516
 30
0.0
 40
1.0
100
AcDbArc
 50
180.0
 51
270.0
  0
ARC
  5
E6
330
1F
100
AcDbEntity
  8
BEZUGSACHSEN
  6
Continuous
 62
     7
100
AcDbCircle
 10
83.7121515911
 20
353.4941477516
 30
0.0
 40
1.000000000009914
100
AcDbArc
 50
255.0000000003019
 51
270.0
  0
ARC
  5
E7
330
1F
100
AcDbEntity
  8
BEZUGSACHSEN
  6
Continuous
 62
     7
100
AcDbCircle
 10
84.6335176433
 20
353.4941477516
 30
0.0
 40
1.0
100
AcDbArc
 50
270.0
 51
314.4783570872963
  0
ARC
  5
E8
330
1F
100
AcDbEntity
  8
BEZUGSACHSEN
  6
Continuous
 62
     7
100
AcDbCircle
 10
221.6641355344
 20
-1291.2308615761
 30
0.0
 40
1632.1727637359
100
AcDbArc
 50
96.2726189838
 51
96.48809068979999
  0
ARC
  5
E9
330
1F
100
AcDbEntity
  8
RUNDUNGEN
  6
Continuous
 62
     7
100
AcDbCircle
 10
124.334088932
 20
280.8118977516
 30
0.0
 40
10.0
100
AcDbArc
 50
90.0
 51
180.0
  0
ARC
  5
EA
330
1F
100
AcDbEntity
  8
BEZUGSACHSEN
  6
Continuous
 62
     7
100
AcDbCircle
 10
106.209088932
 20
267.8118977516
 30
0.0
 40
1.0
100
AcDbArc
 50
0.0
 51
90.0
  0
ARC
  5
EB
330
1F
100
AcDbEntity
  8
RUNDUNGEN
  6
Continuous
 62
     7
100
AcDbCircle
 10
184.334088932
 20
297.4489680124
 30
0.0
 40
0.9999999999918011
100
AcDbArc
 50
295.0000000039686
 51
0.0
  0
ARC
  5
EC
330
1F
100
AcDbEntity
  8
RUNDUNGEN
  6
Continuous
 62
     7
100
AcDbCircle
 10
172.2453527463
 20
291.8118977516
 30
0.0
 40
1.0
100
AcDbArc
 50
270.0
 51
295.0000000039673
  0
ARC
  5
ED
330
1F
100
AcDbEntity
  8
BEZUGSACHSEN
  6
Continuous
 62
     7
100
AcDbCircle
 10
221.6641355344
 20
1920.8546570791
 30
0.0
 40
1632.1727637357
100
AcDbArc
 50
263.5119093102
 51
263.7273810162
  0
ARC
  5
EE
330
1F
100
AcDbEntity
  8
0
  6
Continuous
 62
     7
100
AcDbCircle
 10
349.9318688149
 20
384.2463653421
 30
0.0
 40
264.5204223905999
100
AcDbArc
 50
203.4229294508999
 51
204.1599235293853
  0
ARC
  5
EF
330
1F
100
AcDbEntity
  8
RUNDUNGEN
  6
Continuous
 62
     7
100
AcDbCircle
 10
124.334088932
 20
348.8118977516
 30
0.0
 40
10.0
100
AcDbArc
 50
180.0
 51
270.0
  0
ARC
  5
F0
330
1F
100
AcDbEntity
  8
RUNDUNGEN
  6
Continuous
 62
     7
100
AcDbCircle
 10
184.334088932
 20
332.1748274908
 30
0.0
 40
1.0
100
AcDbArc
 50
0.0
 51
64.99999999603273
  0
ARC
  5
F1
330
1F
100
AcDbEntity
  8
BEZUGSACHSEN
  6
Continuous
 62
     7
100
AcDbCircle
 10
106.209088932
 20
361.8118977516
 30
0.0
 40
1.0
100
AcDbArc
 50
270.0
 51
0.0
  0
ARC
  5
F2
330
1F
100
AcDbEntity
  8
RUNDUNGEN
  6
Continuous
 62
     7
100
AcDbCircle
 10
172.2453527463
 20
337.8118977516
 30
0.0
 40
0.9999999999918526
100
AcDbArc
 50
64.99999999603273
 51
90.0
  0
CIRCLE
  5
F3
330
1F
100
AcDbEntity
  8
BEZUGSACHSEN
  6
Continuous
 62
     7
100
AcDbCircle
 10
70.334088932
 20
314.8118977516
 30
0.0
 40
6.0
  0
SPLINE
  5
F4
330
1F
100
AcDbEntity
  8
0
  6
Continuous
 62
     2
100
AcDbSpline
210
0.0
220
0.0
230
1.0
 70
     8
 71
     3
 72
    61
 73
    57
 74
    55
 42
0.0000000001
 43
0.0000000001
 44
0.00000001
 40
0.0
 40
0.0
 40
0.0
 40
0.0
 40
0.0119356602526952
 40
0.0478460252758043
 40
0.1078060647267239
 40
0.191570218495973
 40
0.2988864823361788
 40
0.4297963129981007
 40
0.5842420401239361
 40
0.761471174158598
 40
0.9607182620240325
 40
1.181851729449571
 40
1.424587504838793
 40
1.687381345032933
 40
1.968589692491695
 40
2.267409040244737
 40
2.582997929697919
 40
2.913493717202136
 40
3.256909637462573
 40
3.611748506718345
 40
3.976665249442085
 40
4.350401879587483
 40
4.731613313055225
 40
5.11848464316632
 40
5.509413586867079
 40
5.904097112158934
 40
6.302193826818026
 40
6.701889667060652
 40
7.101464480091771
 40
7.501039656586724
 40
7.900736280784201
 40
8.298832659349854
 40
8.69351374145777
 40
9.084440612298229
 40
9.471312379875544
 40
9.852524078716218
 40
10.22625818699057
 40
10.59117209793606
 40
10.94601054153401
 40
11.28942702614764
 40
11.61992241577346
 40
11.93550996959079
 40
12.23432772159942
 40
12.51553553645133
 40
12.77833058443673
 40
13.0210667485239
 40
13.24219769712552
 40
13.44144239437167
 40
13.61867221951967
 40
13.7731192200381
 40
13.90402809966453
 40
14.01134260360873
 40
14.09510594834558
 40
14.15506504531317
 40
14.1909732939726
 40
14.20290764167479
 40
14.20290764167479
 40
14.20290764167479
 40
14.20290764167479
 10
168.334088932
 20
290.8118835671
 30
0.0
 10
168.3302702099358
 20
290.8129999233964
 30
0.0
 10
168.314962244684
 20
290.8174750182336
 30
0.0
 10
168.2804530415622
 20
290.8274982986187
 30
0.0
 10
168.2229285888909
 20
290.8441217361279
 30
0.0
 10
168.1424747231312
 20
290.8671339893817
 30
0.0
 10
168.0391937717763
 20
290.8963374326301
 30
0.0
 10
167.9130900176575
 20
290.9314132907639
 30
0.0
 10
167.7643353641026
 20
290.9720130891405
 30
0.0
 10
167.5933357504211
 20
291.0176127081085
 30
0.0
 10
167.4005236309036
 20
291.0676734688722
 30
0.0
 10
167.1861577593173
 20
291.1215851287219
 30
0.0
 10
166.9507621089116
 20
291.1786940096717
 30
0.0
 10
166.6953444353041
 20
291.2381660673892
 30
0.0
 10
166.4210864476858
 20
291.2991011097206
 30
0.0
 10
166.1289511541783
 20
291.3606341563789
 30
0.0
 10
165.8199932783186
 20
291.421910238482
 30
0.0
 10
165.4956741898935
 20
291.4820218550743
 30
0.0
 10
165.1576821066021
 20
291.5399934262517
 30
0.0
 10
164.807576158466
 20
291.5950122656673
 30
0.0
 10
164.446692610743
 20
291.6463087125049
 30
0.0
 10
164.0763477483524
 20
291.6932137208365
 30
0.0
 10
163.6980309812276
 20
291.7350473544474
 30
0.0
 10
163.3133838206319
 20
291.771328059189
 30
0.0
 10
162.9237091446301
 20
291.8015681979369
 30
0.0
 10
162.5298425496397
 20
291.8254337767955
 30
0.0
 10
162.1327039669863
 20
291.8426495597844
 30
0.0
 10
161.7336985205677
 20
291.8531007609384
 30
0.0
 10
161.3340781354382
 20
291.8565991207465
 30
0.0
 10
160.9344574918459
 20
291.8531003925734
 30
0.0
 10
160.5354517861921
 20
291.8426487571488
 30
0.0
 10
160.1383138840889
 20
291.8254326469391
 30
0.0
 10
159.7444489209307
 20
291.801566878477
 30
0.0
 10
159.3547756287028
 20
291.7713264752628
 30
0.0
 10
158.9701289576238
 20
291.735045449384
 30
0.0
 10
158.5918128179513
 20
291.6932116634553
 30
0.0
 10
158.2214696633395
 20
291.6463066676004
 30
0.0
 10
157.8605880626801
 20
291.5950102115548
 30
0.0
 10
157.5104830359391
 20
291.539991294869
 30
0.0
 10
157.1724910595964
 20
291.4820196116166
 30
0.0
 10
156.8481723837599
 20
291.4219079062907
 30
0.0
 10
156.539215628797
 20
291.3606318780098
 30
0.0
 10
156.2470814859954
 20
291.2990989711836
 30
0.0
 10
155.9728238214479
 20
291.23816388883
 30
0.0
 10
155.717405832333
 20
291.1786916225207
 30
0.0
 10
155.4820104967229
 20
291.1215827487858
 30
0.0
 10
155.2676460960452
 20
291.0676714184734
 30
0.0
 10
155.0748353585886
 20
291.0176109296511
 30
0.0
 10
154.9038358991411
 20
290.9720112839311
 30
0.0
 10
154.7550809229068
 20
290.9314113849195
 30
0.0
 10
154.6289776365562
 20
290.8963356330127
 30
0.0
 10
154.5256978249649
 20
290.8671324712157
 30
0.0
 10
154.4452450848265
 20
290.84412053894
 30
0.0
 10
154.3877218707055
 20
290.8274974595722
 30
0.0
 10
154.3532140799796
 20
290.8174745402969
 30
0.0
 10
154.3379072296634
 20
290.8129997049926
 30
0.0
 10
154.334088932
 20
290.8118834562
 30
0.0
 11
168.334088932
 21
290.8118835671
 31
0.0
 11
168.322632282822
 21
290.8152309803222
 31
0.0
 11
168.2881497554642
 21
290.8252564290956
 31
0.0
 11
168.2305451061261
 21
290.841897063266
 31
0.0
 11
168.1500125957444
 21
290.8649393771323
 31
0.0
 11
168.0467429919029
 21
290.8941313179212
 31
0.0
 11
167.9206225827972
 21
290.9292173004633
 31
0.0
 11
167.7716253740066
 21
290.9698782694636
 31
0.0
 11
167.600380718788
 21
291.0155448218816
 31
0.0
 11
167.4075253903021
 21
291.0656070261623
 31
0.0
 11
167.1930704968287
 21
291.1195431836169
 31
0.0
 11
166.9571765704242
 21
291.176768284222
 31
0.0
 11
166.7012275019648
 21
291.2363558399594
 31
0.0
 11
166.4267109626209
 21
291.2973378398213
 31
0.0
 11
166.1343063870026
 21
291.3589216587109
 31
0.0
 11
165.8247460137092
 21
291.4203115799742
 31
0.0
 11
165.4997815328913
 21
291.4805241348513
 31
0.0
 11
165.1613071894326
 21
291.5385725035495
 31
0.0
 11
164.8107679909045
 21
291.5936442152529
 31
0.0
 11
164.4494814604867
 21
291.6449888552726
 31
0.0
 11
164.078704426989
 21
291.6919298836286
 31
0.0
 11
163.6998027511944
 21
291.7338306841765
 31
0.0
 11
163.3146391156359
 21
291.7701404611703
 31
0.0
 11
162.9248811910621
 21
291.8003761892896
 31
0.0
 11
162.5309197733449
 21
291.8242401052943
 31
0.0
 11
162.1331970686556
 21
291.8414924789568
 31
0.0
 11
161.7336378057004
 21
291.8519404497605
 31
0.0
 11
161.3340782570708
 21
291.8554330573505
 31
0.0
 11
160.9345183482662
 21
291.8519400719438
 31
0.0
 11
160.5349583122631
 21
291.8414916737881
 31
0.0
 11
160.1372359590384
 21
291.824238953061
 31
0.0
 11
159.7432769991379
 21
291.8003748694209
 31
0.0
 11
159.3535211684808
 21
291.7701389501537
 31
0.0
 11
158.9683571292244
 21
291.7338287943828
 31
0.0
 11
158.5894552166444
 21
291.6919277206953
 31
0.0
 11
158.2186807131446
 21
291.6449867871498
 31
0.0
 11
157.8573970225122
 21
291.5936422910029
 31
0.0
 11
157.5068582770987
 21
291.5385704377662
 31
0.0
 11
157.168383402642
 21
291.4805218265347
 31
0.0
 11
156.8434193422512
 21
291.4203091865139
 31
0.0
 11
156.5338603092474
 21
291.3589193729442
 31
0.0
 11
156.2414573181249
 21
291.2973357736817
 31
0.0
 11
155.9669413225519
 21
291.2363537820093
 31
0.0
 11
155.7109911040696
 21
291.1767658393991
 31
0.0
 11
155.4750968175046
 21
291.1195405746836
 31
0.0
 11
155.260644380025
 21
291.0656049789374
 31
0.0
 11
155.0677913837953
 21
291.015543304715
 31
0.0
 11
154.8965460752268
 21
290.96987652012
 31
0.0
 11
154.7475476438862
 21
290.92921519418
 31
0.0
 11
154.6214281582222
 21
290.8941294406483
 31
0.0
 11
154.5181602558722
 21
290.8649379504322
 31
0.0
 11
154.4376285246906
 21
290.8418958542952
 31
0.0
 11
154.3800247854525
 21
290.825255465629
 31
0.0
 11
154.3455443086551
 21
290.8152305446014
 31
0.0
 11
154.334088932
 21
290.8118834562
 31
0.0
  0
SPLINE
  5
F5
330
1F
100
AcDbEntity
  8
GEWINDE
  6
Continuous
 62
     7
100
AcDbSpline
210
0.0
220
0.0
230
1.0
 70
     8
 71
     3
 72
    23
 73
    19
 74
    17
 42
0.0000000001
 43
0.0000000001
 44
0.00000001
 40
0.0
 40
0.0
 40
0.0
 40
0.0
 40
0.2361014075009487
 40
0.4722107591961857
 40
1.135103944576409
 40
1.798036626330505
 40
2.778014469353133
 40
3.758054599011552
 40
4.910576522661366
 40
6.063125921994737
 40
7.215675422036913
 40
8.368197446305627
 40
9.348237586694816
 40
10.32821544048707
 40
10.99114818767348
 40
11.65404143848285
 40
11.89015084474769
 40
12.1262523069959
 40
12.1262523069959
 40
12.1262523069959
 40
12.1262523069959
 10
155.334088932
 20
290.8118977516
 30
0.0
 10
155.4104863725569
 20
290.830799647317
 30
0.0
 10
155.5632838242446
 20
290.8686040747503
 30
0.0
 10
155.9315358688439
 20
290.9555320811331
 30
0.0
 10
156.4401433685661
 20
291.0671098936201
 30
0.0
 10
157.1948968363595
 20
291.2127471168852
 30
0.0
 10
158.0584826525389
 20
291.3508110189633
 30
0.0
 10
159.0889535676933
 20
291.4738003535193
 30
0.0
 10
160.181436506262
 20
291.5548223421811
 30
0.0
 10
161.334088733948
 20
291.5835854495592
 30
0.0
 10
162.4867409958181
 20
291.5548223629395
 30
0.0
 10
163.5792240061097
 20
291.4738003837444
 30
0.0
 10
164.6096949628468
 20
291.3508110538454
 30
0.0
 10
165.4732808088301
 20
291.2127471546378
 30
0.0
 10
166.2280343242205
 20
291.0671099287759
 30
0.0
 10
166.7366418850161
 20
290.9555321061457
 30
0.0
 10
167.1048939866325
 20
290.8686040877463
 30
0.0
 10
167.2576914737163
 20
290.8307996516538
 30
0.0
 10
167.334088932
 20
290.8118977516
 30
0.0
 11
155.334088932
 21
290.8118977516
 31
0.0
 11
155.5633807098112
 21
290.8681930023065
 31
0.0
 11
155.793152774427
 21
290.9225292174869
 31
0.0
 11
156.4406943535313
 21
291.0643646099483
 31
0.0
 11
157.0916312689909
 21
291.1899069240483
 31
0.0
 11
158.0593581280451
 21
291.3443779539551
 31
0.0
 11
159.0325187486368
 21
291.4602962970696
 31
0.0
 11
160.1818940716853
 21
291.5454030022141
 31
0.0
 11
161.334088700482
 21
291.5739976743716
 31
0.0
 11
162.4862834304879
 21
291.5454030211274
 31
0.0
 11
163.6356588550117
 21
291.4602963238282
 31
0.0
 11
164.6088194873574
 21
291.3443779886668
 31
0.0
 11
165.5765463584218
 21
291.1899069656783
 31
0.0
 11
166.2274833391697
 21
291.0643646445791
 31
0.0
 11
166.8750249830442
 21
290.922529242028
 31
0.0
 11
167.1047971009573
 21
290.8681930151026
 31
0.0
 11
167.334088932
 21
290.8118977516
 31
0.0
  0
SPLINE
  5
F6
330
1F
100
AcDbEntity
  8
BEZUGSACHSEN
  6
Continuous
 62
     7
100
AcDbSpline
210
0.0
220
0.0
230
1.0
 70
     8
 71
     3
 72
    47
 73
    43
 74
    41
 42
0.0000000001
 43
0.0000000001
 44
0.00000001
 40
0.0
 40
0.0
 40
0.0
 40
0.0
 40
0.630239321394747
 40
1.260854867291827
 40
1.577476088390104
 40
1.893930800226039
 40
2.210999113872695
 40
2.528183472208542
 40
3.164887038232411
 40
3.801951183356803
 40
4.442851001559578
 40
5.083381259716093
 40
5.404527292235748
 40
5.725573838685104
 40
6.046670709971526
 40
6.367871027110049
 40
7.009090242507728
 40
7.650619763916234
 40
8.290330346466178
 40
8.929958764467006
 40
9.568647011333116
 40
10.20735923010549
 40
10.84445705810695
 40
11.48152626488579
 40
12.11643462214103
 40
12.75141965570752
 40
13.38691908729473
 40
14.02211738524218
 40
14.34050449136955
 40
14.65879153787242
 40
14.9776158686536
 40
15.29653774943458
 40
15.93537694100396
 40
16.57458694064891
 40
17.21386274987498
 40
17.85277859070435
 40
18.17219860079928
 40
18.49150024074582
 40
18.81067156633552
 40
19.13001452418826
 40
19.76719627021497
 40
20.40398968280202
 40
20.40398968280202
 40
20.40398968280202
 40
20.40398968280202
 10
76.8335025698
 20
314.8118977703
 30
0.0
 10
76.82763336805436
 20
314.6017417484319
 30
0.0
 10
76.81589146091386
 20
314.1813042510113
 30
0.0
 10
76.73644471835802
 20
313.6601408087606
 30
0.0
 10
76.64571321329672
 20
313.248749341313
 30
0.0
 10
76.56210783100397
 20
312.9431115010058
 30
0.0
 10
76.4637558896377
 20
312.6417276548101
 30
0.0
 10
76.31273707878348
 20
312.2457544752217
 30
0.0
 10
76.0874544911792
 20
311.7646476665558
 30
0.0
 10
75.76107645642833
 20
311.2150134415801
 30
0.0
 10
75.38120939439833
 20
310.6992855789335
 30
0.0
 10
75.02295495512317
 20
310.301760176734
 30
0.0
 10
74.71377421745548
 20
310.0062068217973
 30
0.0
 10
74.47084926142472
 20
309.7960219133534
 30
0.0
 10
74.21780035810131
 20
309.5981124490128
 30
0.0
 10
73.86801784964408
 20
309.3514890975165
 30
0.0
 10
73.4085326118886
 20
309.0762824882192
 30
0.0
 10
72.82813690491125
 20
308.8022423815162
 30
0.0
 10
72.22398259705298
 20
308.5870539042007
 30
0.0
 10
71.60256744963576
 20
308.4323920651997
 30
0.0
 10
70.9692982382065
 20
308.3395816921774
 30
0.0
 10
70.33083877378922
 20
308.3090709423568
 30
0.0
 10
69.69300576025094
 20
308.3411726847016
 30
0.0
 10
69.06257577326068
 20
308.4349857470402
 30
0.0
 10
68.44500210376349
 20
308.5896995633172
 30
0.0
 10
67.84585869233183
 20
308.8034961353903
 30
0.0
 10
67.27040147086595
 20
309.0748175038468
 30
0.0
 10
66.8147160779105
 20
309.3466623874954
 30
0.0
 10
66.46746018015787
 20
309.5901229400887
 30
0.0
 10
66.21584059885127
 20
309.7856054664193
 30
0.0
 10
65.97396554858008
 20
309.993298525134
 30
0.0
 10
65.66502926490485
 20
310.2861360732915
 30
0.0
 10
65.30618650801378
 20
310.6805937222319
 30
0.0
 10
64.92395960276428
 20
311.1940783881699
 30
0.0
 10
64.5943351575007
 20
311.7428461668732
 30
0.0
 10
64.36584771158033
 20
312.2249095833632
 30
0.0
 10
64.21234621162037
 20
312.6223191425398
 30
0.0
 10
64.11208940869707
 20
312.9256015058319
 30
0.0
 10
64.02677291577209
 20
313.2334253775349
 30
0.0
 10
63.93401046041227
 20
313.6484662446418
 30
0.0
 10
63.85271809352263
 20
314.1747390437367
 30
0.0
 10
63.84067829398259
 20
314.5995546934512
 30
0.0
 10
63.8346602292
 20
314.8118977721
 30
0.0
 11
76.8335025698
 21
314.8118977703
 31
0.0
 11
76.80296299107877
 21
314.1823988136975
 31
0.0
 11
76.71163171555196
 21
313.5584320158326
 31
0.0
 11
76.64313697686543
 21
313.2493083052861
 31
0.0
 11
76.55971815202867
 21
312.9440463123915
 31
0.0
 11
76.46133140818962
 21
312.6426290531718
 31
0.0
 11
76.34830077708708
 21
312.3462677979351
 31
0.0
 11
76.07832064057474
 21
311.7696377979557
 31
0.0
 11
75.75298401872139
 21
311.2219090261314
 31
0.0
 11
75.37294752392943
 21
310.7058423254051
 31
0.0
 11
74.94409702626871
 21
310.230062689155
 31
0.0
 11
74.71195989189869
 21
310.0081457563861
 31
0.0
 11
74.46917739856235
 21
309.7980801811091
 31
0.0
 11
74.21624779026402
 21
309.6002676082124
 31
0.0
 11
73.95373339442969
 21
309.4151842872199
 31
0.0
 11
73.40367521282879
 21
309.0856420607161
 31
0.0
 11
72.82353438116316
 21
308.8117867297967
 31
0.0
 11
72.22092907084036
 21
308.5970858462467
 31
0.0
 11
71.60022980050037
 21
308.4426289625748
 31
0.0
 11
70.9683009865968
 21
308.3499539883728
 31
0.0
 11
70.33031485944686
 21
308.3195073141152
 31
0.0
 11
69.69401987133654
 21
308.3514812183163
 31
0.0
 11
69.06389659723094
 21
308.4452993064244
 31
0.0
 11
68.4480126889895
 21
308.5995576406621
 31
0.0
 11
67.84998021917052
 21
308.8130129237911
 31
0.0
 11
67.27514447062379
 21
309.0839804305892
 31
0.0
 11
66.72967778308242
 21
309.4094692483663
 31
0.0
 11
66.46897549030551
 21
309.5922386765786
 31
0.0
 11
66.21762623849717
 21
309.7875082276789
 31
0.0
 11
65.97574294014761
 21
309.9952133645378
 31
0.0
 11
65.74428710884743
 21
310.2146202108258
 31
0.0
 11
65.3143640779672
 21
310.6871471414909
 31
0.0
 11
64.9327429385094
 21
311.1999382583845
 31
0.0
 11
64.60351146433035
 21
311.7479165395887
 31
0.0
 11
64.32989715718632
 21
312.3252800841504
 31
0.0
 11
64.21480490472636
 21
312.6232447066691
 31
0.0
 11
64.11456521629948
 21
312.9264039752667
 31
0.0
 11
64.02939813608225
 21
313.2340025830756
 31
0.0
 11
63.95943510860857
 21
313.545587402213
 31
0.0
 11
63.86594621166832
 21
314.1758733719271
 31
0.0
 11
63.8346602292
 21
314.8118977721
 31
0.0
  0
SPLINE
  5
F7
330
1F
100
AcDbEntity
  8
BEZUGSACHSEN
  6
Continuous
 62
     7
100
AcDbSpline
210
0.0
220
0.0
230
1.0
 70
     8
 71
     3
 72
    27
 73
    23
 74
    21
 42
0.0000000001
 43
0.0000000001
 44
0.00000001
 40
0.0
 40
0.0
 40
0.0
 40
0.0
 40
0.1219765139942586
 40
0.2439857715228533
 40
0.3566831398802963
 40
0.469441815004681
 40
0.5721317673312788
 40
0.6745445881519901
 40
0.722520652156126
 40
0.7704888798001258
 40
0.8171412936315076
 40
0.8637898734586799
 40
0.9102318001295966
 40
0.9566751324735651
 40
1.004175175802567
 40
1.051683100173786
 40
1.153672388749638
 40
1.256049376683325
 40
1.370745138108382
 40
1.485385401895578
 40
1.611534903933122
 40
1.737631875978013
 40
1.737631875978013
 40
1.737631875978013
 40
1.737631875978013
 10
36.4799316076
 20
299.5695617562
 30
0.0
 10
36.44467658999952
 20
299.5492822309009
 30
0.0
 10
36.3741570908957
 20
299.5087177364405
 30
0.0
 10
36.26650468769152
 20
299.4579218755471
 30
0.0
 10
36.15834667182147
 20
299.4161702396768
 30
0.0
 10
36.05276745085129
 20
299.3867556545513
 30
0.0
 10
35.94793590570126
 20
299.3698410672087
 30
0.0
 10
35.86320823585773
 20
299.3679758439906
 30
0.0
 10
35.79738429945305
 20
299.3749311519737
 30
0.0
 10
35.75067709623664
 20
299.3841282791008
 30
0.0
 10
35.70549647893021
 20
299.3976617240799
 30
0.0
 10
35.66235686827686
 20
299.4154549828999
 30
0.0
 10
35.6214023917046
 20
299.4376833406383
 30
0.0
 10
35.58275496524166
 20
299.4642183723626
 30
0.0
 10
35.54684888660545
 20
299.4949136498803
 30
0.0
 10
35.50140956506525
 20
299.5424511229661
 30
0.0
 10
35.45286642500459
 20
299.6116204900583
 30
0.0
 10
35.40664071607659
 20
299.7077785447786
 30
0.0
 10
35.37267484227859
 20
299.813353977767
 30
0.0
 10
35.34971941806169
 20
299.9297716686725
 30
0.0
 10
35.33627485969755
 20
300.0515189773301
 30
0.0
 10
35.3348174733996
 20
300.1356223408479
 30
0.0
 10
35.334088932
 20
300.1776652654
 30
0.0
 11
36.4799316076
 21
299.5695617562
 31
0.0
 11
36.37338698353946
 21
299.5101773049523
 31
0.0
 11
36.26309409437079
 21
299.458007030643
 31
0.0
 11
36.15777608651836
 21
299.4178970062515
 31
0.0
 11
36.04905235797531
 21
299.3880026979721
 31
0.0
 11
35.94758820585416
 21
299.3721833382134
 31
0.0
 11
35.84518866526976
 21
299.3705341091332
 31
0.0
 11
35.79748480905722
 21
299.3756375216956
 31
0.0
 11
35.75043403879577
 21
299.3849743242056
 31
0.0
 11
35.70575447136234
 21
299.3983975864863
 31
0.0
 11
35.66264833476642
 21
299.4162287666959
 31
0.0
 11
35.62182574196955
 21
299.4383730316475
 31
0.0
 11
35.5835384854234
 21
299.4646612249172
 31
0.0
 11
35.54740138841357
 21
299.4954892046752
 31
0.0
 11
35.51454888804668
 21
299.5298070731653
 31
0.0
 11
35.45537649382371
 21
299.6128759767702
 31
0.0
 11
35.41047677024911
 21
299.7048817509439
 31
0.0
 11
35.37483861066903
 21
299.8139002781336
 31
0.0
 11
35.35198704727163
 21
299.9262399244367
 31
0.0
 11
35.33822029093221
 21
300.0516359901015
 31
0.0
 11
35.334088932
 21
300.1776652654
 31
0.0
  0
SPLINE
  5
F8
330
1F
100
AcDbEntity
  8
BEZUGSACHSEN
  6
Continuous
 62
     7
100
AcDbSpline
210
0.0
220
0.0
230
1.0
 70
     8
 71
     3
 72
    15
 73
    11
 74
     9
 42
0.0000000001
 43
0.0000000001
 44
0.00000001
 40
0.0
 40
0.0
 40
0.0
 40
0.0
 40
0.1110371613799305
 40
0.2222522337398185
 40
0.3333980191847136
 40
0.4445069474869364
 40
0.555620106534706
 40
0.666752564241751
 40
0.7778876033865791
 40
0.8889820916338431
 40
0.8889820916338431
 40
0.8889820916338431
 40
0.8889820916338431
 10
37.2340144473
 20
299.1353653653
 30
0.0
 10
37.1973727204202
 20
299.1408975181473
 30
0.0
 10
37.12403055689665
 20
299.1519706878179
 30
0.0
 10
37.01751400688343
 20
299.1849892513353
 30
0.0
 10
36.91510109913661
 20
299.2285795387855
 30
0.0
 10
36.81765113350956
 20
299.2823590465979
 30
0.0
 10
36.72534633777732
 20
299.3444541819621
 30
0.0
 10
36.6383497096498
 20
299.4137408556167
 30
0.0
 10
36.55609695418383
 20
299.4886228072427
 30
0.0
 10
36.50531696780178
 20
299.5425853887863
 30
0.0
 10
36.4799316076
 20
299.5695617562
 30
0.0
 11
37.2340144473
 21
299.1353653653
 31
0.0
 11
37.12467216218977
 21
299.1546919245951
 31
0.0
 11
37.01818020862148
 21
299.1867583579051
 31
0.0
 11
36.91591202801432
 21
299.2302854168163
 31
0.0
 11
36.81850916155977
 21
299.2837445185195
 31
0.0
 11
36.72623739477315
 21
299.3456481142765
 31
0.0
 11
36.63914029136438
 21
299.4146736003944
 31
0.0
 11
36.55710038687783
 21
299.4896432675776
 31
0.0
 11
36.4799316076
 21
299.5695617562
 31
0.0
  0
SPLINE
  5
F9
330
1F
100
AcDbEntity
  8
BEZUGSACHSEN
  6
Continuous
 62
     7
100
AcDbSpline
210
0.0
220
0.0
230
1.0
 70
     8
 71
     3
 72
    27
 73
    23
 74
    21
 42
0.0000000001
 43
0.0000000001
 44
0.00000001
 40
0.0
 40
0.0
 40
0.0
 40
0.0
 40
0.1260969825526702
 40
0.2522464959214483
 40
0.3668867952585377
 40
0.4815825894074186
 40
0.5839596006898302
 40
0.685948916138315
 40
0.7334568410597284
 40
0.7809568849070059
 40
0.8274002264583187
 40
0.8738421607348725
 40
0.9204907319149983
 40
0.9671431399395092
 40
1.015111401812838
 40
1.063087497110634
 40
1.165500418713467
 40
1.26819047894777
 40
1.380949153891577
 40
1.49364651777275
 40
1.615655563740186
 40
1.737631867560525
 40
1.737631867560525
 40
1.737631867560525
 40
1.737631867560525
 10
35.334088932
 20
329.4461302378
 30
0.0
 10
35.33481747347628
 20
329.488173165861
 30
0.0
 10
35.33627485993237
 20
329.5722765366713
 30
0.0
 10
35.34971942189518
 20
329.6940238642358
 30
0.0
 10
35.37267485522
 20
329.8104415806108
 30
0.0
 10
35.40664075557133
 20
329.9160170383967
 30
0.0
 10
35.45286651438786
 20
330.0121751006709
 30
0.0
 10
35.50140968293782
 20
330.0813444663485
 30
0.0
 10
35.54684900853412
 20
330.1288819479315
 30
0.0
 10
35.58275508665063
 20
330.1595772313851
 30
0.0
 10
35.62140251775131
 20
330.186112267088
 30
0.0
 10
35.66235700495721
 20
330.2083406129834
 30
0.0
 10
35.70549663112946
 20
330.2261338298597
 30
0.0
 10
35.7506772657307
 20
330.2396672369205
 30
0.0
 10
35.79738448870079
 20
330.2488643622565
 30
0.0
 10
35.86320847988934
 20
330.2558196826383
 30
0.0
 10
35.94793623189054
 20
330.2539544260005
 30
0.0
 10
36.05276783539873
 20
330.237039765064
 30
0.0
 10
36.15834707776447
 20
330.2076251322054
 30
0.0
 10
36.26650501586425
 20
330.1658734947378
 30
0.0
 10
36.3741572771002
 20
330.1150776675655
 30
0.0
 10
36.44467665193392
 20
330.0745132393778
 30
0.0
 10
36.4799316076
 20
330.0542337471
 30
0.0
 11
35.334088932
 21
329.4461302378
 31
0.0
 11
35.33822029156705
 21
329.5721595235911
 31
0.0
 11
35.35198705070495
 21
329.697555600348
 31
0.0
 11
35.37483862681824
 21
329.8098952803423
 31
0.0
 11
35.41047681620169
 21
329.9189138322173
 31
0.0
 11
35.4553765809798
 21
330.0109196122639
 31
0.0
 11
35.51454900993417
 21
330.093988524122
 31
0.0
 11
35.54740151011878
 21
330.1283063935483
 31
0.0
 11
35.58353860506956
 21
330.1591343765185
 31
0.0
 11
35.62182586994125
 21
330.1854225739291
 31
0.0
 11
35.66264847787999
 21
330.2075668269178
 31
0.0
 11
35.70575462149657
 21
330.2253979675334
 31
0.0
 11
35.75043419353071
 21
330.2388211943188
 31
0.0
 11
35.79748499926183
 21
330.2481579939418
 31
0.0
 11
35.84518888651281
 21
330.253261410559
 31
0.0
 11
35.94758852737244
 21
330.251612149195
 31
0.0
 11
36.04905277770758
 21
330.2357927189002
 31
0.0
 11
36.15777649416441
 21
330.2058983673451
 31
0.0
 11
36.26309448646172
 21
330.1657883146871
 31
0.0
 11
36.37338717236712
 21
330.1136181054326
 31
0.0
 11
36.4799316076
 21
330.0542337471
 31
0.0
  0
SPLINE
  5
FA
330
1F
100
AcDbEntity
  8
BEZUGSACHSEN
  6
Continuous
 62
     7
100
AcDbSpline
210
0.0
220
0.0
230
1.0
 70
     8
 71
     3
 72
    15
 73
    11
 74
     9
 42
0.0000000001
 43
0.0000000001
 44
0.00000001
 40
0.0
 40
0.0
 40
0.0
 40
0.0
 40
0.111094483114265
 40
0.2222295180950639
 40
0.3333620401233845
 40
0.4444752609512276
 40
0.5555842177655245
 40
0.6667300353685195
 40
0.7779450181422913
 40
0.8889820871543628
 40
0.8889820871543628
 40
0.8889820871543628
 40
0.8889820871543628
 10
36.4799316076
 20
330.0542337471
 30
0.0
 10
36.50531696716851
 20
330.0812101127735
 30
0.0
 10
36.55609695250565
 20
330.135172691072
 30
0.0
 10
36.6383497217235
 20
330.2100546544775
 30
0.0
 10
36.72534637366324
 20
330.279341363376
 30
0.0
 10
36.81765121409779
 20
330.3414365264471
 30
0.0
 10
36.91510123609557
 20
330.3952160185696
 30
0.0
 10
37.01751414996981
 20
330.4388062641779
 30
0.0
 10
37.12403064855609
 20
330.4718248200407
 30
0.0
 10
37.19737275127913
 20
330.4828979866534
 30
0.0
 10
37.2340144473
 20
330.4884301379
 30
0.0
 11
36.4799316076
 21
330.0542337471
 31
0.0
 11
36.55710038468628
 21
330.1341522307032
 31
0.0
 11
36.63914028490327
 21
330.2091218963859
 31
0.0
 11
36.72623743349455
 21
330.2781474290505
 31
0.0
 11
36.8185092550786
 21
330.3400510540195
 31
0.0
 11
36.91591216317407
 21
330.3935101391118
 31
0.0
 11
37.01818038657434
 21
330.4370371795946
 31
0.0
 11
37.12467225467901
 21
330.4691035860186
 31
0.0
 11
37.2340144473
 21
330.4884301379
 31
0.0
  0
SPLINE
  5
FB
330
1F
100
AcDbEntity
  8
0
  6
Continuous
 62
     7
100
AcDbSpline
210
0.0
220
0.0
230
1.0
 70
     8
 71
     3
 72
    19
 73
    15
 74
    13
 42
0.0000000001
 43
0.0000000001
 44
0.00000001
 40
0.0
 40
0.0
 40
0.0
 40
0.0
 40
0.1162460235697769
 40
0.2327881717864078
 40
0.3491890045835006
 40
0.4655468550624352
 40
0.5819071369857103
 40
0.6982738489033326
 40
0.8146206072488873
 40
0.9309998277854462
 40
1.163276323398472
 40
1.396138921712142
 40
1.629013178008419
 40
1.861351539753228
 40
1.861351539753228
 40
1.861351539753228
 40
1.861351539753228
 10
104.459088932
 20
281.2895171679
 30
0.0
 10
104.4203048611597
 20
281.2876762210121
 30
0.0
 10
104.3426379210951
 20
281.2839896376158
 30
0.0
 10
104.229027836028
 20
281.2555841526573
 30
0.0
 10
104.1208401480833
 20
281.21173023842
 30
0.0
 10
104.0198642821283
 20
281.1531335501635
 30
0.0
 10
103.9270958254045
 20
281.0824486888243
 30
0.0
 10
103.8430084464187
 20
281.0016910837363
 30
0.0
 10
103.7677048030448
 20
280.9127234449955
 30
0.0
 10
103.6790535588801
 20
280.7853639972562
 30
0.0
 10
103.5890568131411
 20
280.6125786191949
 30
0.0
 10
103.514163293971
 20
280.3916536290338
 30
0.0
 10
103.4676263686281
 20
280.1626337094295
 30
0.0
 10
103.46193255791
 20
280.007454316568
 30
0.0
 10
103.459088932
 20
279.9299539984
 30
0.0
 11
104.459088932
 21
281.2895171679
 31
0.0
 11
104.3432175804496
 21
281.280191510515
 31
0.0
 11
104.2298930557615
 21
281.2529954737601
 31
0.0
 11
104.1220199231524
 21
281.2092628642227
 31
0.0
 11
104.0212311836422
 21
281.1511183945285
 31
0.0
 11
103.9285438785947
 21
281.0807708381225
 31
0.0
 11
103.8444685129692
 21
281.0003187123739
 31
0.0
 11
103.7691697550375
 21
280.9116244891603
 31
0.0
 11
103.7025430257222
 21
280.8162043554702
 31
0.0
 11
103.5946532396137
 21
280.6105051467509
 31
0.0
 11
103.5188951027619
 21
280.3903104728959
 31
0.0
 11
103.4739350889453
 21
280.1618175487097
 31
0.0
 11
103.459088932
 21
279.9299539984
 31
0.0
  0
SPLINE
  5
FC
330
1F
100
AcDbEntity
  8
0
  6
Continuous
 62
     7
100
AcDbSpline
210
0.0
220
0.0
230
1.0
 70
     8
 71
     3
 72
    19
 73
    15
 74
    13
 42
0.0000000001
 43
0.0000000001
 44
0.00000001
 40
0.0
 40
0.0
 40
0.0
 40
0.0
 40
0.2323383481440543
 40
0.465212595775116
 40
0.6980761133579861
 40
0.9303535187932088
 40
1.046733461852046
 40
1.16308094092067
 40
1.279447997488031
 40
1.395808629590277
 40
1.512165904568508
 40
1.628566140412721
 40
1.74510692060539
 40
1.861351602868411
 40
1.861351602868411
 40
1.861351602868411
 40
1.861351602868411
 10
107.209088932
 20
279.9299539984
 30
0.0
 10
107.206245306394
 20
280.0074543120681
 30
0.0
 10
107.2005514962239
 20
280.1626336975763
 30
0.0
 10
107.1540145203894
 20
280.3916539116225
 30
0.0
 10
107.0791207746333
 20
280.6125794735326
 30
0.0
 10
106.9891234703814
 20
280.7853655377426
 30
0.0
 10
106.9004715325696
 20
280.9127254634468
 30
0.0
 10
106.825167268212
 20
281.0016933623509
 30
0.0
 10
106.7410792943953
 20
281.0824510323101
 30
0.0
 10
106.6483105605666
 20
281.1531355986921
 30
0.0
 10
106.5473347483212
 20
281.2117318228651
 30
0.0
 10
106.4391476988082
 20
281.2555850740221
 30
0.0
 10
106.3255385894539
 20
281.2839898334723
 30
0.0
 10
106.2478725546618
 20
281.2876762861194
 30
0.0
 10
106.209088932
 20
281.2895171679
 30
0.0
 11
107.209088932
 21
279.9299539984
 31
0.0
 11
107.1942427778822
 21
280.1618175352621
 31
0.0
 11
107.1492827762936
 21
280.390310453023
 31
0.0
 11
107.0735242976112
 21
280.6105059814263
 31
0.0
 11
106.9656338864336
 21
280.8162058896704
 31
0.0
 11
106.8990065625894
 21
280.9116264894575
 31
0.0
 11
106.8237071060226
 21
281.0003210649758
 31
0.0
 11
106.7396312396921
 21
281.0807731659735
 31
0.0
 11
106.6469434137228
 21
281.1511206152542
 31
0.0
 11
106.5461549788182
 21
281.2092644612729
 31
0.0
 11
106.4382822500266
 21
281.2529964780072
 31
0.0
 11
106.3249589614727
 21
281.280191803327
 31
0.0
 11
106.209088932
 21
281.2895171679
 31
0.0
  0
SPLINE
  5
FD
330
1F
100
AcDbEntity
  8
BEZUGSACHSEN
  6
Continuous
 62
     7
100
AcDbSpline
210
0.0
220
0.0
230
1.0
 70
     8
 71
     3
 72
    11
 73
     7
 74
     5
 42
0.0000000001
 43
0.0000000001
 44
0.00000001
 40
0.0
 40
0.0
 40
0.0
 40
0.0
 40
0.5462907431276373
 40
1.09300086363709
 40
1.64607010714264
 40
2.198197048714765
 40
2.198197048714765
 40
2.198197048714765
 40
2.198197048714765
 10
44.8879348789
 20
329.8218977516
 30
0.0
 10
44.95100568076568
 20
329.6509661223664
 30
0.0
 10
45.07719570279459
 20
329.3089716428231
 30
0.0
 10
45.2168330158133
 20
328.7776975136085
 30
0.0
 10
45.31432137983332
 20
328.2342731086577
 30
0.0
 10
45.32750349434777
 20
327.8656884681008
 30
0.0
 10
45.334088932
 20
327.6815532774
 30
0.0
 11
44.8879348789
 21
329.8218977516
 31
0.0
 11
45.06878621152919
 21
329.3064112129657
 31
0.0
 11
45.20927769622751
 21
328.7780608570514
 31
0.0
 11
45.30134434945792
 21
328.2327083843562
 31
0.0
 11
45.334088932
 21
327.6815532774
 31
0.0
  0
SPLINE
  5
FE
330
1F
100
AcDbEntity
  8
BEZUGSACHSEN
  6
Continuous
 62
     7
100
AcDbSpline
210
0.0
220
0.0
230
1.0
 70
     8
 71
     3
 72
    19
 73
    15
 74
    13
 42
0.0000000001
 43
0.0000000001
 44
0.00000001
 40
0.0
 40
0.0
 40
0.0
 40
0.0
 40
0.1462385988371208
 40
0.2927479275055238
 40
0.4364790706252906
 40
0.5801659236564894
 40
0.7203799973156895
 40
0.8606059383133959
 40
0.9980411884211474
 40
1.135484020434586
 40
1.405415631082895
 40
1.67581551410997
 40
1.943997429561196
 40
2.211934834790346
 40
2.211934834790346
 40
2.211934834790346
 40
2.211934834790346
 10
43.334088932
 20
331.170545339
 30
0.0
 10
43.38280373735805
 20
331.1738534163475
 30
0.0
 10
43.48032353323142
 20
331.180475695248
 30
0.0
 10
43.62565979354708
 20
331.1641163824859
 30
0.0
 10
43.76631673065756
 20
331.1289446164158
 30
0.0
 10
43.89916886411665
 20
331.0761389297923
 30
0.0
 10
44.0236233271924
 20
331.0084671420471
 30
0.0
 10
44.13842588436041
 20
330.9291669406521
 30
0.0
 10
44.24453582213235
 20
330.8400823010844
 30
0.0
 10
44.37363828729343
 20
330.7121347655262
 30
0.0
 10
44.51667813716828
 20
330.5363324766044
 30
0.0
 10
44.66158573885179
 20
330.3086470106993
 30
0.0
 10
44.78622248729628
 20
330.069984391213
 30
0.0
 10
44.85404105846697
 20
329.9045681507746
 30
0.0
 10
44.8879348789
 20
329.8218977516
 30
0.0
 11
43.334088932
 21
331.170545339
 31
0.0
 11
43.4802227938782
 21
331.1760790721349
 31
0.0
 11
43.62593215469025
 21
331.160789678471
 31
0.0
 11
43.76536223622803
 21
331.1258913423375
 31
0.0
 11
43.89899457316897
 21
331.0730868893273
 31
0.0
 11
44.02230836400042
 21
331.0063508762393
 31
0.0
 11
44.13783947533013
 21
330.9268783851268
 31
0.0
 11
44.24325202509299
 21
330.838693112407
 31
0.0
 11
44.34104052876049
 21
330.7421118480627
 31
0.0
 11
44.51228892462176
 21
330.5334564830654
 31
0.0
 11
44.65863134515232
 21
330.3060801591126
 31
0.0
 11
44.7824989709591
 21
330.0682181170544
 31
0.0
 11
44.8879348789
 21
329.8218977516
 31
0.0
  0
SPLINE
  5
FF
330
1F
100
AcDbEntity
  8
BEZUGSACHSEN
  6
Continuous
 62
     7
100
AcDbSpline
210
0.0
220
0.0
230
1.0
 70
     8
 71
     3
 72
    11
 73
     7
 74
     5
 42
0.0000000001
 43
0.0000000001
 44
0.00000001
 40
0.0
 40
0.0
 40
0.0
 40
0.0
 40
0.5521269407036401
 40
1.105196183339711
 40
1.65190630469867
 40
2.198197048720039
 40
2.198197048720039
 40
2.198197048720039
 40
2.198197048720039
 10
45.334088932
 20
301.9422422258
 30
0.0
 10
45.32750349437224
 20
301.7581070353891
 30
0.0
 10
45.31432137990681
 20
301.3895223954124
 30
0.0
 10
45.21683301610955
 20
300.8460979907269
 30
0.0
 10
45.07719570307705
 20
300.3148238612099
 30
0.0
 10
44.95100568086153
 20
299.9728293811159
 30
0.0
 10
44.8879348789
 20
299.8018977516
 30
0.0
 11
45.334088932
 21
301.9422422258
 31
0.0
 11
45.3013443495732
 21
301.3910871197069
 31
0.0
 11
45.20927769662983
 21
300.8457346478451
 31
0.0
 11
45.0687862117964
 21
300.3173842910877
 31
0.0
 11
44.8879348789
 21
299.8018977516
 31
0.0
  0
SPLINE
  5
100
330
1F
100
AcDbEntity
  8
BEZUGSACHSEN
  6
Continuous
 62
     7
100
AcDbSpline
210
0.0
220
0.0
230
1.0
 70
     8
 71
     3
 72
    19
 73
    15
 74
    13
 42
0.0000000001
 43
0.0000000001
 44
0.00000001
 40
0.0
 40
0.0
 40
0.0
 40
0.0
 40
0.2679411643110159
 40
0.5361267936765225
 40
0.806530477348083
 40
1.076465993197522
 40
1.213913376111566
 40
1.351353104847352
 40
1.491586367042047
 40
1.631807897536892
 40
1.775491562731546
 40
1.919219204701169
 40
2.065713007362052
 40
2.211936409312885
 40
2.211936409312885
 40
2.211936409312885
 40
2.211936409312885
 10
44.8879348789
 20
299.8018977516
 30
0.0
 10
44.85404063512776
 20
299.7192261718933
 30
0.0
 10
44.78622122303995
 20
299.5538075843078
 30
0.0
 10
44.66158271671053
 20
299.3151416106681
 30
0.0
 10
44.51667191739781
 20
299.0874536146528
 30
0.0
 10
44.37362828587851
 20
298.9116491233367
 30
0.0
 10
44.24452189894892
 20
298.7836994042361
 30
0.0
 10
44.13840679986274
 20
298.6946123834376
 30
0.0
 10
44.02359737221543
 20
298.615310743099
 30
0.0
 10
43.89913775999865
 20
298.5476402756338
 30
0.0
 10
43.76628420488146
 20
298.4948375889304
 30
0.0
 10
43.62563340600563
 20
298.4596713249413
 30
0.0
 10
43.48030802289669
 20
298.4433191230624
 30
0.0
 10
43.38279860383581
 20
298.4499418564282
 30
0.0
 10
43.334088932
 20
298.4532501642
 30
0.0
 11
44.8879348789
 21
299.8018977516
 31
0.0
 11
44.782497619243
 21
299.555573875761
 31
0.0
 11
44.65862810364938
 21
299.3177086304964
 31
0.0
 11
44.51228261734909
 21
299.0903297599242
 31
0.0
 11
44.34103042622313
 21
298.881672457748
 31
0.0
 11
44.24323798752113
 21
298.7850887013361
 31
0.0
 11
44.13782099824157
 21
298.696901755555
 31
0.0
 11
44.02228235451886
 21
298.6174272965604
 31
0.0
 11
43.89896034463798
 21
298.5506908035954
 31
0.0
 11
43.76532965646829
 21
298.4978908526195
 31
0.0
 11
43.62590195527252
 21
298.4629974262269
 31
0.0
 11
43.48020751672226
 21
298.4477145994737
 31
0.0
 11
43.334088932
 21
298.4532501642
 31
0.0
  0
SPLINE
  5
101
330
1F
100
AcDbEntity
  8
BEZUGSACHSEN
  6
Continuous
 62
     7
100
AcDbSpline
210
0.0
220
0.0
230
1.0
 70
     8
 71
     3
 72
    47
 73
    43
 74
    41
 42
0.0000000001
 43
0.0000000001
 44
0.00000001
 40
0.0
 40
0.0
 40
0.0
 40
0.0
 40
0.636602243146122
 40
1.273595002082999
 40
1.592921746302664
 40
1.912076344797333
 40
2.231392290350214
 40
2.550826842673644
 40
3.189774321099365
 40
3.829081696919432
 40
4.468337152431106
 40
5.107221744709017
 40
5.426176341200076
 40
5.745033356746884
 40
6.063356731525691
 40
6.381780214838725
 40
7.017059195631766
 40
7.652639340947923
 40
8.287532214185573
 40
8.922347946433451
 40
9.559226748486878
 40
10.19613435926685
 40
10.83451785494588
 40
11.47287689967293
 40
12.1123448735763
 40
12.75189588939525
 40
13.39354300511184
 40
14.03487957347721
 40
14.35615205763379
 40
14.67732107703229
 40
14.99840882463352
 40
15.31959604112403
 40
15.96011121017867
 40
16.60099592079882
 40
17.23809108068223
 40
17.87482555189191
 40
18.19205670321816
 40
18.50917199089651
 40
18.8257108461842
 40
19.14241581817973
 40
19.77338974988721
 40
20.40398930735951
 40
20.40398930735951
 40
20.40398930735951
 40
20.40398930735951
 10
63.8346733377
 20
314.8118977322
 30
0.0
 10
63.84067898158628
 20
315.0241775418833
 30
0.0
 10
63.852693953447
 20
315.4488673816797
 30
0.0
 10
63.93395929865925
 20
315.9750101427622
 30
0.0
 10
64.02667889525962
 20
316.3899845188692
 30
0.0
 10
64.11197185940394
 20
316.6978084945674
 30
0.0
 10
64.21221047284138
 20
317.0011011713624
 30
0.0
 10
64.36569602198918
 20
317.398538533917
 30
0.0
 10
64.5941679687632
 20
317.8806381108012
 30
0.0
 10
64.92378292932445
 20
318.4294539836322
 30
0.0
 10
65.30601014641616
 20
318.9429895229755
 30
0.0
 10
65.66486484354164
 20
319.3374922850599
 30
0.0
 10
65.97381819710839
 20
319.6303655831065
 30
0.0
 10
66.21571330608353
 20
319.8380874042215
 30
0.0
 10
66.46735655956917
 20
320.0335968013542
 30
0.0
 10
66.81465066672604
 20
320.2770920040288
 30
0.0
 10
67.27039100148649
 20
320.5489740740736
 30
0.0
 10
67.8458704261756
 20
320.8203031865889
 30
0.0
 10
68.44498119133316
 20
321.034086817401
 30
0.0
 10
69.06243159377964
 20
321.1887765487733
 30
0.0
 10
69.69270215545723
 20
321.2825835324275
 30
0.0
 10
70.33029609017679
 20
321.3147102572324
 30
0.0
 10
70.96847473441403
 20
321.2842806842822
 30
0.0
 10
71.60148715561378
 20
321.1916094291226
 30
0.0
 10
72.22272084004231
 20
321.0371174678925
 30
0.0
 10
72.8268565919995
 20
320.8220803353462
 30
0.0
 10
73.40733566556301
 20
320.5481569696168
 30
0.0
 10
73.86696468978438
 20
320.2729900915598
 30
0.0
 10
74.21686367844723
 20
320.0263803927024
 30
0.0
 10
74.46999530759648
 20
319.8284762003315
 30
0.0
 10
74.71299394695062
 20
319.6182976709299
 30
0.0
 10
75.02223829045535
 20
319.3227783307748
 30
0.0
 10
75.38055848124897
 20
318.9253073480124
 30
0.0
 10
75.76050889959018
 20
318.4096405864773
 30
0.0
 10
76.08698192920873
 20
317.860044430042
 30
0.0
 10
76.31235306920621
 20
317.3789388883573
 30
0.0
 10
76.46344405236401
 20
316.9829487007458
 30
0.0
 10
76.5618569699133
 20
316.6815223499518
 30
0.0
 10
76.64552374808339
 20
316.3758269820127
 30
0.0
 10
76.73634310552394
 20
315.9642749642687
 30
0.0
 10
76.81585808119901
 20
315.4428497477267
 30
0.0
 10
76.82763036581531
 20
315.0221734585567
 30
0.0
 10
76.8335147614
 20
314.8118977322
 30
0.0
 11
63.8346733377
 21
314.8118977322
 31
0.0
 11
63.86592200873981
 21
315.4477325665217
 31
0.0
 11
63.95936321111341
 21
316.0778345555973
 31
0.0
 11
64.02930371814784
 21
316.3894078135154
 31
0.0
 11
64.11444505712399
 21
316.6969961912829
 31
0.0
 11
64.21466959526194
 21
317.0001755359609
 31
0.0
 11
64.32974948501399
 21
317.2981605224832
 31
0.0
 11
64.6033453792583
 21
317.8755678023466
 31
0.0
 11
64.93256489293644
 21
318.4235900944037
 31
0.0
 11
65.31418914828382
 21
318.9364355537109
 31
0.0
 11
65.74412378441264
 21
319.4090133048872
 31
0.0
 11
65.97559604547376
 21
319.6284503732736
 31
0.0
 11
66.21749844650103
 21
319.8361834345341
 31
0.0
 11
66.4688722536555
 21
320.0314805927501
 31
0.0
 11
66.72960153194742
 21
320.2142748983687
 31
0.0
 11
67.27513517615725
 21
320.5398089618284
 31
0.0
 11
67.85004499627597
 21
320.8108086294503
 31
0.0
 11
68.44799118402076
 21
321.0242314891664
 31
0.0
 11
69.06378371622974
 21
321.1784734133799
 31
0.0
 11
69.69371599817613
 21
321.2722813483684
 31
0.0
 11
70.32981911989499
 21
321.3042832734507
 31
0.0
 11
70.96748007893031
 21
321.2739190036991
 31
0.0
 11
71.5990976118576
 21
321.1813902941887
 31
0.0
 11
72.21967048396382
 21
321.0270899375659
 31
0.0
 11
72.82217129108638
 21
320.8125712221779
 31
0.0
 11
73.40247848745287
 21
320.5387928830919
 31
0.0
 11
73.95270347549881
 21
320.2093007641383
 31
0.0
 11
74.21531077964626
 21
320.0242239884896
 31
0.0
 11
74.46833123703811
 21
319.8264104723623
 31
0.0
 11
74.71117953840242
 21
319.6163579927671
 31
0.0
 11
74.94338197380945
 21
319.3944497751907
 31
0.0
 11
75.37229803154369
 21
318.9187495573992
 31
0.0
 11
75.75240869021678
 21
318.4027562440028
 31
0.0
 11
76.07784783594195
 21
317.8550523046555
 31
0.0
 11
76.34792869407164
 21
317.2784353460959
 31
0.0
 11
76.46101913925584
 21
316.9820468264467
 31
0.0
 11
76.559463242595
 21
316.6805988803647
 31
0.0
 11
76.64294604797063
 21
316.3752671458308
 31
0.0
 11
76.71149547141466
 21
316.0660697722453
 31
0.0
 11
76.8029225493392
 21
315.441754794116
 31
0.0
 11
76.8335147614
 21
314.8118977322
 31
0.0
  0
SPLINE
  5
102
330
1F
100
AcDbEntity
  8
BEZUGSACHSEN
  6
Continuous
 62
     7
100
AcDbSpline
210
0.0
220
0.0
230
1.0
 70
     8
 71
     3
 72
    11
 73
     7
 74
     5
 42
0.0000000001
 43
0.0000000001
 44
0.00000001
 40
0.0
 40
0.0
 40
0.0
 40
0.0
 40
0.9140556660003332
 40
1.828030949185931
 40
2.27980697487106
 40
2.730944124762502
 40
2.730944124762502
 40
2.730944124762502
 40
2.730944124762502
 10
36.6010418588854
 20
299.801897751785
 30
0.0
 10
36.73369656584878
 20
300.0766143494516
 30
0.0
 10
36.99899431401037
 20
300.6260233859789
 30
0.0
 10
37.21434952732298
 20
301.3587343070836
 30
0.0
 10
37.31804374098539
 20
301.9566795131898
 30
0.0
 10
37.32874305850649
 20
302.2578027286165
 30
0.0
 10
37.334088932
 20
302.4082578032
 30
0.0
 11
36.6010418588854
 21
299.801897751785
 31
0.0
 11
36.97584938866086
 21
300.6355745933555
 31
0.0
 11
37.23514074905873
 21
301.511998468371
 31
0.0
 11
37.30785772255736
 21
301.9578839011327
 31
0.0
 11
37.334088932
 21
302.4082578032
 31
0.0
  0
SPLINE
  5
103
330
1F
100
AcDbEntity
  8
BEZUGSACHSEN
  6
Continuous
 62
     7
100
AcDbSpline
210
0.0
220
0.0
230
1.0
 70
     8
 71
     3
 72
    11
 73
     7
 74
     5
 42
0.0000000001
 43
0.0000000001
 44
0.00000001
 40
0.0
 40
0.0
 40
0.0
 40
0.0
 40
0.824919236672416
 40
1.650116891930981
 40
2.190492152293428
 40
2.730585915378203
 40
2.730585915378203
 40
2.730585915378203
 40
2.730585915378203
 10
37.334088932
 20
327.2155377
 30
0.0
 10
37.31635562766181
 20
327.4907279919769
 30
0.0
 10
37.28088303381587
 20
328.0412014554376
 30
0.0
 10
37.07244821718051
 20
328.7459350405907
 30
0.0
 10
36.8422217862008
 20
329.3381487656708
 30
0.0
 10
36.68142120339883
 20
329.660676099116
 30
0.0
 10
36.6010418588854
 20
329.821897751415
 30
0.0
 11
37.334088932
 21
327.2155377
 31
0.0
 11
37.25051347788429
 21
328.0362123556959
 31
0.0
 11
37.03255203577253
 21
328.8321042955953
 31
0.0
 11
36.83461695721333
 21
329.3349234745131
 31
0.0
 11
36.6010418588854
 21
329.821897751415
 31
0.0
  0
DIMENSION
  5
10E
330
1F
100
AcDbEntity
  8
1
100
AcDbDimension
  2
*D2
 10
196.901369928197
 20
322.8118977516
 30
0.0
 11
193.151369928197
 21
314.604094099547
 31
0.0
 70
    32
  1
<>
 71
     5
 42
-1.0
 53
90.0
  3
ME10_DIM_10
100
AcDbAlignedDimension
 13
185.334088932
 23
306.8118977516
 33
0.0
 14
185.334088932
 24
322.8118977516
 34
0.0
 50
90.0
100
AcDbRotatedDimension
  0
DIMENSION
  5
119
330
1F
100
AcDbEntity
  8
1
100
AcDbDimension
  2
*D3
 10
206.482787489525
 20
338.8118977516
 30
0.0
 11
202.732787489525
 21
314.992529946628
 31
0.0
 70
    32
  1
<>
 71
     5
 42
-1.0
 53
90.0
  3
ME10_DIM_11
100
AcDbAlignedDimension
 13
172.2453527463
 23
290.8118977516
 33
0.0
 14
172.2453527463
 24
338.8118977516
 34
0.0
 50
90.0
100
AcDbRotatedDimension
  0
DIMENSION
  5
124
330
1F
100
AcDbEntity
  8
1
100
AcDbDimension
  2
*D4
 10
185.334088932
 20
371.963120851823
 30
0.0
 11
148.217410427394
 21
375.713120851823
 31
0.0
 70
    32
  1
<>
 71
     5
 42
-1.0
 53
0.00013888888889
  3
ME10_DIM_12
100
AcDbAlignedDimension
 13
114.334088932
 23
364.8118608305
 33
0.0
 14
185.334088932
 24
332.1748274908
 34
0.0
100
AcDbRotatedDimension
  0
DIMENSION
  5
12F
330
1F
100
AcDbEntity
  8
1
100
AcDbDimension
  2
*D5
 10
185.334088932
 20
379.213923330666
 30
0.0
 11
137.082249477742
 21
382.963923330666
 31
0.0
 70
    32
  1
<>
 71
     5
 42
-1.0
 53
0.00013888888889
  3
ME10_DIM_13
100
AcDbAlignedDimension
 13
85.334088932
 23
364.8118977516
 33
0.0
 14
185.334088932
 24
332.1748274908
 34
0.0
100
AcDbRotatedDimension
  0
DIMENSION
  5
13A
330
1F
100
AcDbEntity
  8
1
100
AcDbDimension
  2
*D6
 10
185.334088932
 20
386.594204425203
 30
0.0
 11
116.883585429537
 21
390.344204425203
 31
0.0
 70
    32
  1
<>
 71
     5
 42
-1.0
 53
0.00013888888889
  3
ME10_DIM_14
100
AcDbAlignedDimension
 13
35.334088932
 23
348.4120893142
 33
0.0
 14
185.334088932
 24
332.1748274908
 34
0.0
100
AcDbRotatedDimension
  0
INSERT
  5
141
330
1F
100
AcDbEntity
  8
1
100
AcDbBlockReference
  2
*D7
 10
0.0
 20
0.0
 30
0.0
  0
ENDSEC
  0
SECTION
  2
OBJECTS
  0
DICTIONARY
  5
C
330
0
100
AcDbDictionary
281
     1
  3
ACAD_GROUP
350
D
  3
ACAD_LAYOUT
350
1A
  3
ACAD_MLEADERSTYLE
350
144
  3
ACAD_MLINESTYLE
350
17
  3
ACAD_PLOTSETTINGS
350
19
  3
ACAD_PLOTSTYLENAME
350
E
  3
ACAD_SCALELIST
350
4B
  3
ACAD_VISUALSTYLE
350
2A
  3
AcDbVariableDictionary
350
142
  0
DICTIONARY
  5
D
102
{ACAD_REACTORS
330
C
102
}
330
C
100
AcDbDictionary
281
     1
  0
DICTIONARY
  5
1A
102
{ACAD_REACTORS
330
C
102
}
330
C
100
AcDbDictionary
281
     1
  3
Layout1
350
1E
  3
Layout2
350
26
  3
Model
350
22
  0
DICTIONARY
  5
144
102
{ACAD_REACTORS
330
C
102
}
330
C
100
AcDbDictionary
281
     1
  0
DICTIONARY
  5
17
102
{ACAD_REACTORS
330
C
102
}
330
C
100
AcDbDictionary
281
     1
  3
Standard
350
18
  0
DICTIONARY
  5
19
102
{ACAD_REACTORS
330
C
102
}
330
C
100
AcDbDictionary
281
     1
  0
ACDBDICTIONARYWDFLT
  5
E
102
{ACAD_REACTORS
330
C
102
}
330
C
100
AcDbDictionary
281
     1
  3
Normal
350
F
100
AcDbDictionaryWithDefault
340
F
  0
DICTIONARY
  5
4B
102
{ACAD_REACTORS
330
C
102
}
330
C
100
AcDbDictionary
281
     1
  3
A0
350
4C
  3
A1
350
4D
  3
A2
350
4E
  3
A3
350
4F
  3
A4
350
50
  3
A5
350
51
  3
A6
350
52
  3
A7
350
53
  3
A8
350
54
  3
A9
350
55
  3
B0
350
56
  3
B1
350
57
  3
B2
350
58
  3
B3
350
59
  3
B4
350
5A
  3
B5
350
5B
  3
B6
350
5C
  3
B7
350
5D
  3
B8
350
5E
  3
B9
350
5F
  3
C0
350
60
  3
C1
350
61
  3
C2
350
62
  3
C3
350
63
  3
C4
350
64
  3
C5
350
65
  3
C6
350
66
  3
C7
350
67
  3
C8
350
68
  3
C9
350
69
  3
D0
350
6A
  3
D1
350
6B
  3
D2
350
6C
  0
DICTIONARY
  5
2A
102
{ACAD_REACTORS
330
C
102
}
330
C
100
AcDbDictionary
281
     1
  3
2dWireframe
350
2F
  3
3D Hidden
350
31
  3
3dWireframe
350
30
  3
Basic
350
32
  3
Brighten
350
36
  3
ColorChange
350
3A
  3
Conceptual
350
34
  3
Dim
350
35
  3
Facepattern
350
39
  3
Flat
350
2B
  3
FlatWithEdges
350
2C
  3
Gouraud
350
2D
  3
GouraudWithEdges
350
2E
  3
Linepattern
350
38
  3
Realistic
350
33
  3
Thicken
350
37
  0
DICTIONARY
  5
142
102
{ACAD_REACTORS
330
C
102
}
330
C
100
AcDbDictionary
281
     1
  3
CANNOSCALE
350
145
  0
LAYOUT
  5
1E
102
{ACAD_REACTORS
330
1A
102
}
330
1A
100
AcDbPlotSettings
  1

  2
none_device
  4

  6

 40
0.0
 41
0.0
 42
0.0
 43
0.0
 44
0.0
 45
0.0
 46
0.0
 47
0.0
 48
0.0
 49
0.0
140
0.0
141
0.0
142
1.0
143
1.0
 70
   688
 72
     0
 73
     0
 74
     5
  7

 75
    16
147
1.0
148
0.0
149
0.0
100
AcDbLayout
  1
Layout1
 70
     1
 71
     1
 10
0.0
 20
0.0
 11
12.0
 21
9.0
 12
0.0
 22
0.0
 32
0.0
 14
1.00000000000000E+20
 24
1.00000000000000E+20
 34
1.00000000000000E+20
 15
-1.00000000000000E+20
 25
-1.00000000000000E+20
 35
-1.00000000000000E+20
146
0.0
 13
0.0
 23
0.0
 33
0.0
 16
1.0
 26
0.0
 36
0.0
 17
0.0
 27
1.0
 37
0.0
 76
     0
330
1B
  0
LAYOUT
  5
26
102
{ACAD_REACTORS
330
1A
102
}
330
1A
100
AcDbPlotSettings
  1

  2
none_device
  4

  6

 40
0.0
 41
0.0
 42
0.0
 43
0.0
 44
0.0
 45
0.0
 46
0.0
 47
0.0
 48
0.0
 49
0.0
140
0.0
141
0.0
142
1.0
143
1.0
 70
   688
 72
     0
 73
     0
 74
     5
  7

 75
    16
147
1.0
148
0.0
149
0.0
100
AcDbLayout
  1
Layout2
 70
     1
 71
     2
 10
0.0
 20
0.0
 11
0.0
 21
0.0
 12
0.0
 22
0.0
 32
0.0
 14
0.0
 24
0.0
 34
0.0
 15
0.0
 25
0.0
 35
0.0
146
0.0
 13
0.0
 23
0.0
 33
0.0
 16
1.0
 26
0.0
 36
0.0
 17
0.0
 27
1.0
 37
0.0
 76
     0
330
23
  0
LAYOUT
  5
22
102
{ACAD_REACTORS
330
1A
102
}
330
1A
100
AcDbPlotSettings
  1

  2
none_device
  4

  6

 40
0.0
 41
0.0
 42
0.0
 43
0.0
 44
0.0
 45
0.0
 46
0.0
 47
0.0
 48
0.0
 49
0.0
140
0.0
141
0.0
142
1.0
143
1.0
 70
  1712
 72
     0
 73
     0
 74
     0
  7

 75
     0
147
1.0
148
0.0
149
0.0
100
AcDbLayout
  1
Model
 70
     1
 71
     0
 10
0.0
 20
0.0
 11
12.0
 21
9.0
 12
0.0
 22
0.0
 32
0.0
 14
14.6372570252057
 24
264.8118977516
 34
0.0
 15
208.482787489525
 25
392.094204425203
 35
0.0
146
0.0
 13
0.0
 23
0.0
 33
0.0
 16
1.0
 26
0.0
 36
0.0
 17
0.0
 27
1.0
 37
0.0
 76
     0
330
1F
331
29
  0
MLINESTYLE
  5
18
102
{ACAD_REACTORS
330
17
102
}
330
17
100
AcDbMlineStyle
  2
Standard
 70
     0
  3

 62
   256
 51
90.0
 52
90.0
 71
     2
 49
0.5
 62
   256
  6
BYLAYER
 49
-0.5
 62
   256
  6
BYLAYER
  0
ACDBPLACEHOLDER
  5
F
102
{ACAD_REACTORS
330
E
102
}
330
E
  0
SCALE
  5
4C
102
{ACAD_REACTORS
330
4B
102
}
330
4B
100
AcDbScale
 70
     0
300
1:1
140
1.0
141
1.0
290
     1
  0
SCALE
  5
4D
102
{ACAD_REACTORS
330
4B
102
}
330
4B
100
AcDbScale
 70
     0
300
1:2
140
1.0
141
2.0
290
     0
  0
SCALE
  5
4E
102
{ACAD_REACTORS
330
4B
102
}
330
4B
100
AcDbScale
 70
     0
300
1:4
140
1.0
141
4.0
290
     0
  0
SCALE
  5
4F
102
{ACAD_REACTORS
330
4B
102
}
330
4B
100
AcDbScale
 70
     0
300
1:5
140
1.0
141
5.0
290
     0
  0
SCALE
  5
50
102
{ACAD_REACTORS
330
4B
102
}
330
4B
100
AcDbScale
 70
     0
300
1:8
140
1.0
141
8.0
290
     0
  0
SCALE
  5
51
102
{ACAD_REACTORS
330
4B
102
}
330
4B
100
AcDbScale
 70
     0
300
1:10
140
1.0
141
10.0
290
     0
  0
SCALE
  5
52
102
{ACAD_REACTORS
330
4B
102
}
330
4B
100
AcDbScale
 70
     0
300
1:16
140
1.0
141
16.0
290
     0
  0
SCALE
  5
53
102
{ACAD_REACTORS
330
4B
102
}
330
4B
100
AcDbScale
 70
     0
300
1:20
140
1.0
141
20.0
290
     0
  0
SCALE
  5
54
102
{ACAD_REACTORS
330
4B
102
}
330
4B
100
AcDbScale
 70
     0
300
1:30
140
1.0
141
30.0
290
     0
  0
SCALE
  5
55
102
{ACAD_REACTORS
330
4B
102
}
330
4B
100
AcDbScale
 70
     0
300
1:40
140
1.0
141
40.0
290
     0
  0
SCALE
  5
56
102
{ACAD_REACTORS
330
4B
102
}
330
4B
100
AcDbScale
 70
     0
300
1:50
140
1.0
141
50.0
290
     0
  0
SCALE
  5
57
102
{ACAD_REACTORS
330
4B
102
}
330
4B
100
AcDbScale
 70
     0
300
1:100
140
1.0
141
100.0
290
     0
  0
SCALE
  5
58
102
{ACAD_REACTORS
330
4B
102
}
330
4B
100
AcDbScale
 70
     0
300
2:1
140
2.0
141
1.0
290
     0
  0
SCALE
  5
59
102
{ACAD_REACTORS
330
4B
102
}
330
4B
100
AcDbScale
 70
     0
300
4:1
140
4.0
141
1.0
290
     0
  0
SCALE
  5
5A
102
{ACAD_REACTORS
330
4B
102
}
330
4B
100
AcDbScale
 70
     0
300
8:1
140
8.0
141
1.0
290
     0
  0
SCALE
  5
5B
102
{ACAD_REACTORS
330
4B
102
}
330
4B
100
AcDbScale
 70
     0
300
10:1
140
10.0
141
1.0
290
     0
  0
SCALE
  5
5C
102
{ACAD_REACTORS
330
4B
102
}
330
4B
100
AcDbScale
 70
     0
300
100:1
140
100.0
141
1.0
290
     0
  0
SCALE
  5
5D
102
{ACAD_REACTORS
330
4B
102
}
330
4B
100
AcDbScale
 70
     0
300
1/128" = 1'-0"
140
0.0078125
141
12.0
290
     0
  0
SCALE
  5
5E
102
{ACAD_REACTORS
330
4B
102
}
330
4B
100
AcDbScale
 70
     0
300
1/64" = 1'-0"
140
0.015625
141
12.0
290
     0
  0
SCALE
  5
5F
102
{ACAD_REACTORS
330
4B
102
}
330
4B
100
AcDbScale
 70
     0
300
1/32" = 1'-0"
140
0.03125
141
12.0
290
     0
  0
SCALE
  5
60
102
{ACAD_REACTORS
330
4B
102
}
330
4B
100
AcDbScale
 70
     0
300
1/16" = 1'-0"
140
0.0625
141
12.0
290
     0
  0
SCALE
  5
61
102
{ACAD_REACTORS
330
4B
102
}
330
4B
100
AcDbScale
 70
     0
300
3/32" = 1'-0"
140
0.09375
141
12.0
290
     0
  0
SCALE
  5
62
102
{ACAD_REACTORS
330
4B
102
}
330
4B
100
AcDbScale
 70
     0
300
1/8" = 1'-0"
140
0.125
141
12.0
290
     0
  0
SCALE
  5
63
102
{ACAD_REACTORS
330
4B
102
}
330
4B
100
AcDbScale
 70
     0
300
3/16" = 1'-0"
140
0.1875
141
12.0
290
     0
  0
SCALE
  5
64
102
{ACAD_REACTORS
330
4B
102
}
330
4B
100
AcDbScale
 70
     0
300
1/4" = 1'-0"
140
0.25
141
12.0
290
     0
  0
SCALE
  5
65
102
{ACAD_REACTORS
330
4B
102
}
330
4B
100
AcDbScale
 70
     0
300
3/8" = 1'-0"
140
0.375
141
12.0
290
     0
  0
SCALE
  5
66
102
{ACAD_REACTORS
330
4B
102
}
330
4B
100
AcDbScale
 70
     0
300
1/2" = 1'-0"
140
0.5
141
12.0
290
     0
  0
SCALE
  5
67
102
{ACAD_REACTORS
330
4B
102
}
330
4B
100
AcDbScale
 70
     0
300
3/4" = 1'-0"
140
0.75
141
12.0
290
     0
  0
SCALE
  5
68
102
{ACAD_REACTORS
330
4B
102
}
330
4B
100
AcDbScale
 70
     0
300
1" = 1'-0"
140
1.0
141
12.0
290
     0
  0
SCALE
  5
69
102
{ACAD_REACTORS
330
4B
102
}
330
4B
100
AcDbScale
 70
     0
300
1-1/2" = 1'-0"
140
1.5
141
12.0
290
     0
  0
SCALE
  5
6A
102
{ACAD_REACTORS
330
4B
102
}
330
4B
100
AcDbScale
 70
     0
300
3" = 1'-0"
140
3.0
141
12.0
290
     0
  0
SCALE
  5
6B
102
{ACAD_REACTORS
330
4B
102
}
330
4B
100
AcDbScale
 70
     0
300
6" = 1'-0"
140
6.0
141
12.0
290
     0
  0
SCALE
  5
6C
102
{ACAD_REACTORS
330
4B
102
}
330
4B
100
AcDbScale
 70
     0
300
1'-0" = 1'-0"
140
12.0
141
12.0
290
     0
  0
VISUALSTYLE
  5
2F
102
{ACAD_REACTORS
330
2A
102
}
330
2A
100
AcDbVisualStyle
  2
2dWireframe
 70
     4
 71
     0
 72
     2
 73
     0
 90
        0
 40
-0.6
 41
-30.0
 62
     5
 63
     7
 74
     1
 91
        4
 64
     7
 65
   257
 75
     1
175
     1
 42
1.0
 92
        0
 66
   257
 43
1.0
 76
     1
 77
     6
 78
     2
 67
     7
 79
     5
170
     0
171
     0
290
     0
174
     0
 93
        1
 44
0.0
173
     0
291
     0
 45
0.0
1001
ACAD
1000
AcDbSavedByObjectVersion
1070
     0
  0
VISUALSTYLE
  5
31
102
{ACAD_REACTORS
330
2A
102
}
330
2A
100
AcDbVisualStyle
  2
3D Hidden
 70
     6
 71
     1
 72
     2
 73
     2
 90
        0
 40
-0.6
 41
-30.0
 62
     5
 63
     7
 74
     2
 91
        2
 64
     7
 65
   257
 75
     2
175
     1
 42
40.0
 92
        0
 66
   257
 43
1.0
 76
     1
 77
     6
 78
     2
 67
     7
 79
     3
170
     0
171
     0
290
     0
174
     0
 93
        1
 44
0.0
173
     0
291
     0
 45
0.0
1001
ACAD
1000
AcDbSavedByObjectVersion
1070
     0
  0
VISUALSTYLE
  5
30
102
{ACAD_REACTORS
330
2A
102
}
330
2A
100
AcDbVisualStyle
  2
3dWireframe
 70
     5
 71
     0
 72
     2
 73
     0
 90
        0
 40
-0.6
 41
-30.0
 62
     5
 63
     7
 74
     1
 91
        4
 64
     7
 65
   257
 75
     1
175
     1
 42
1.0
 92
        0
 66
   257
 43
1.0
 76
     1
 77
     6
 78
     2
 67
     7
 79
     5
170
     0
171
     0
290
     0
174
     0
 93
        1
 44
0.0
173
     0
291
     0
 45
0.0
1001
ACAD
1000
AcDbSavedByObjectVersion
1070
     0
  0
VISUALSTYLE
  5
32
102
{ACAD_REACTORS
330
2A
102
}
330
2A
100
AcDbVisualStyle
  2
Basic
 70
     7
 71
     1
 72
     0
 73
     1
 90
        0
 40
-0.6
 41
-30.0
 62
     5
 63
     7
 74
     0
 91
        4
 64
     7
 65
   257
 75
     1
175
     1
 42
1.0
 92
        8
 66
     7
 43
1.0
 76
     1
 77
     6
 78
     2
 67
     7
 79
     5
170
     0
171
     0
290
     0
174
     0
 93
        1
 44
0.0
173
     0
291
     1
 45
0.0
1001
ACAD
1000
AcDbSavedByObjectVersion
1070
     0
  0
VISUALSTYLE
  5
36
102
{ACAD_REACTORS
330
2A
102
}
330
2A
100
AcDbVisualStyle
  2
Brighten
 70
    12
 71
     2
 72
     2
 73
     0
 90
        0
 40
-0.6
 41
-30.0
 62
     5
 63
     7
 74
     1
 91
        4
 64
     7
 65
   257
 75
     1
175
     1
 42
1.0
 92
        8
 66
     7
 43
1.0
 76
     1
 77
     6
 78
     2
 67
     7
 79
     5
170
     0
171
     0
290
     0
174
     0
 93
        1
 44
50.0
173
     0
291
     1
 45
0.0
1001
ACAD
1000
AcDbSavedByObjectVersion
1070
     0
  0
VISUALSTYLE
  5
3A
102
{ACAD_REACTORS
330
2A
102
}
330
2A
100
AcDbVisualStyle
  2
ColorChange
 70
    16
 71
     2
 72
     2
 73
     3
 90
        0
 40
-0.6
 41
-30.0
 62
     5
 63
     8
 74
     1
 91
        4
 64
     7
 65
   257
 75
     1
175
     1
 42
1.0
 92
        8
 66
     8
 43
1.0
 76
     1
 77
     6
 78
     2
 67
     7
 79
     5
170
     0
171
     0
290
     0
174
     0
 93
        1
 44
0.0
173
     0
291
     1
 45
0.0
1001
ACAD
1000
AcDbSavedByObjectVersion
1070
     0
  0
VISUALSTYLE
  5
34
102
{ACAD_REACTORS
330
2A
102
}
330
2A
100
AcDbVisualStyle
  2
Conceptual
 70
     9
 71
     3
 72
     2
 73
     0
 90
        0
 40
-0.6
 41
-30.0
 62
     5
 63
     7
 74
     2
 91
        2
 64
     7
 65
   257
 75
     1
175
     1
 42
40.0
 92
        8
 66
     7
 43
1.0
 76
     1
 77
     6
 78
     2
 67
     7
 79
     3
170
     0
171
     0
290
     0
174
     0
 93
        1
 44
0.0
173
     0
291
     0
 45
0.0
1001
ACAD
1000
AcDbSavedByObjectVersion
1070
     0
  0
VISUALSTYLE
  5
35
102
{ACAD_REACTORS
330
2A
102
}
330
2A
100
AcDbVisualStyle
  2
Dim
 70
    11
 71
     2
 72
     2
 73
     0
 90
        0
 40
-0.6
 41
-30.0
 62
     5
 63
     7
 74
     1
 91
        4
 64
     7
 65
   257
 75
     1
175
     1
 42
1.0
 92
        8
 66
     7
 43
1.0
 76
     1
 77
     6
 78
     2
 67
     7
 79
     5
170
     0
171
     0
290
     0
174
     0
 93
        1
 44
-50.0
173
     0
291
     1
 45
0.0
1001
ACAD
1000
AcDbSavedByObjectVersion
1070
     0
  0
VISUALSTYLE
  5
39
102
{ACAD_REACTORS
330
2A
102
}
330
2A
100
AcDbVisualStyle
  2
Facepattern
 70
    15
 71
     2
 72
     2
 73
     0
 90
        0
 40
-0.6
 41
-30.0
 62
     5
 63
     7
 74
     1
 91
        4
 64
     7
 65
   257
 75
     1
175
     1
 42
1.0
 92
        8
 66
     7
 43
1.0
 76
     1
 77
     6
 78
     2
 67
     7
 79
     5
170
     0
171
     0
290
     0
174
     0
 93
        1
 44
0.0
173
     0
291
     1
 45
0.0
1001
ACAD
1000
AcDbSavedByObjectVersion
1070
     0
  0
VISUALSTYLE
  5
2B
102
{ACAD_REACTORS
330
2A
102
}
330
2A
100
AcDbVisualStyle
  2
Flat
 70
     0
 71
     2
 72
     1
 73
     1
 90
        2
 40
-0.6
 41
30.0
 62
     5
 63
     7
 74
     0
 91
        4
 64
     7
 65
   257
 75
     1
175
     1
 42
1.0
 92
        8
 66
     7
 43
1.0
 76
     1
 77
     6
 78
     2
 67
     7
 79
     5
170
     0
171
     0
290
     0
174
     0
 93
       13
 44
0.0
173
     0
291
     1
 45
0.0
1001
ACAD
1000
AcDbSavedByObjectVersion
1070
     0
  0
VISUALSTYLE
  5
2C
102
{ACAD_REACTORS
330
2A
102
}
330
2A
100
AcDbVisualStyle
  2
FlatWithEdges
 70
     1
 71
     2
 72
     1
 73
     1
 90
        2
 40
-0.6
 41
30.0
 62
     5
 63
     7
 74
     1
 91
        4
 64
     7
 65
   257
 75
     1
175
     1
 42
1.0
 92
        0
 66
   257
 43
1.0
 76
     1
 77
     6
 78
     2
 67
     7
 79
     5
170
     0
171
     0
290
     0
174
     0
 93
       13
 44
0.0
173
     0
291
     1
 45
0.0
1001
ACAD
1000
AcDbSavedByObjectVersion
1070
     0
  0
VISUALSTYLE
  5
2D
102
{ACAD_REACTORS
330
2A
102
}
330
2A
100
AcDbVisualStyle
  2
Gouraud
 70
     2
 71
     2
 72
     2
 73
     1
 90
        2
 40
-0.6
 41
30.0
 62
     5
 63
     7
 74
     0
 91
        4
 64
     7
 65
   257
 75
     1
175
     1
 42
1.0
 92
        0
 66
     7
 43
1.0
 76
     1
 77
     6
 78
     2
 67
     7
 79
     5
170
     0
171
     0
290
     0
174
     0
 93
       13
 44
0.0
173
     0
291
     1
 45
0.0
1001
ACAD
1000
AcDbSavedByObjectVersion
1070
     0
  0
VISUALSTYLE
  5
2E
102
{ACAD_REACTORS
330
2A
102
}
330
2A
100
AcDbVisualStyle
  2
GouraudWithEdges
 70
     3
 71
     2
 72
     2
 73
     1
 90
        2
 40
-0.6
 41
30.0
 62
     5
 63
     7
 74
     1
 91
        4
 64
     7
 65
   257
 75
     1
175
     1
 42
1.0
 92
        0
 66
   257
 43
1.0
 76
     1
 77
     6
 78
     2
 67
     7
 79
     5
170
     0
171
     0
290
     0
174
     0
 93
       13
 44
0.0
173
     0
291
     1
 45
0.0
1001
ACAD
1000
AcDbSavedByObjectVersion
1070
     0
  0
VISUALSTYLE
  5
38
102
{ACAD_REACTORS
330
2A
102
}
330
2A
100
AcDbVisualStyle
  2
Linepattern
 70
    14
 71
     2
 72
     2
 73
     0
 90
        0
 40
-0.6
 41
-30.0
 62
     5
 63
     7
 74
     1
 91
        4
 64
     7
 65
   257
 75
     7
175
     7
 42
1.0
 92
        8
 66
     7
 43
1.0
 76
     1
 77
     6
 78
     2
 67
     7
 79
     5
170
     0
171
     0
290
     0
174
     0
 93
        1
 44
0.0
173
     0
291
     1
 45
0.0
1001
ACAD
1000
AcDbSavedByObjectVersion
1070
     0
  0
VISUALSTYLE
  5
33
102
{ACAD_REACTORS
330
2A
102
}
330
2A
100
AcDbVisualStyle
  2
Realistic
 70
     8
 71
     2
 72
     2
 73
     0
 90
        0
 40
-0.6
 41
-30.0
 62
     5
 63
     7
 74
     1
 91
        0
 64
     7
 65
   257
 75
     1
175
     1
 42
1.0
 92
        8
 66
     8
 43
1.0
 76
     1
 77
     6
 78
     2
 67
     7
 79
     5
170
     0
171
     0
290
     0
174
     0
 93
       13
 44
0.0
173
     0
291
     0
 45
0.0
1001
ACAD
1000
AcDbSavedByObjectVersion
1070
     0
  0
VISUALSTYLE
  5
37
102
{ACAD_REACTORS
330
2A
102
}
330
2A
100
AcDbVisualStyle
  2
Thicken
 70
    13
 71
     2
 72
     2
 73
     0
 90
        0
 40
-0.6
 41
-30.0
 62
     5
 63
     7
 74
     1
 91
        4
 64
     7
 65
   257
 75
     1
175
     1
 42
1.0
 92
       12
 66
     7
 43
1.0
 76
     1
 77
     6
 78
     2
 67
     7
 79
     5
170
     0
171
     0
290
     0
174
     0
 93
        1
 44
0.0
173
     0
291
     1
 45
0.0
1001
ACAD
1000
AcDbSavedByObjectVersion
1070
     0
  0
DICTIONARYVAR
  5
145
102
{ACAD_REACTORS
330
142
102
}
330
142
100
DictionaryVariables
280
     0
  1
1:1
  0
ENDSEC
  0
EOF
