  0
SECTION
  2
HEADER
  9
$ACADVER
  1
AC1015
  9
$ACADMAINTVER
 70
     6
  9
$DWGCODEPAGE
  3
ANSI_1252
  9
$INSBASE
 10
0.0
 20
0.0
 30
0.0
  9
$EXTMIN
 10
44.0454540584371
 20
267.7632160064
 30
0.0
  9
$EXTMAX
 10
216.866397398415
 20
395.307610812632
 30
0.0
  9
$LIMMIN
 10
0.0
 20
0.0
  9
$LIMMAX
 10
12.0
 20
9.0
  9
$ORTHOMODE
 70
     0
  9
$REGENMODE
 70
     1
  9
$FILLMODE
 70
     1
  9
$QTEXTMODE
 70
     0
  9
$MIRRTEXT
 70
     1
  9
$LTSCALE
 40
1.0
  9
$ATTMODE
 70
     1
  9
$TEXTSIZE
 40
0.2
  9
$TRACEWID
 40
0.05
  9
$TEXTSTYLE
  7
Standard
  9
$CLAYER
  8
0
  9
$CELTYPE
  6
ByLayer
  9
$CECOLOR
 62
   256
  9
$CELTSCALE
 40
1.0
  9
$DISPSILH
 70
     0
  9
$DIMSCALE
 40
1.0
  9
$DIMASZ
 40
0.18
  9
$DIMEXO
 40
0.0625
  9
$DIMDLI
 40
0.38
  9
$DIMRND
 40
0.0
  9
$DIMDLE
 40
0.0
  9
$DIMEXE
 40
0.18
  9
$DIMTP
 40
0.0
  9
$DIMTM
 40
0.0
  9
$DIMTXT
 40
0.18
  9
$DIMCEN
 40
0.09
  9
$DIMTSZ
 40
0.0
  9
$DIMTOL
 70
     0
  9
$DIMLIM
 70
     0
  9
$DIMTIH
 70
     1
  9
$DIMTOH
 70
     1
  9
$DIMSE1
 70
     0
  9
$DIMSE2
 70
     0
  9
$DIMTAD
 70
     0
  9
$DIMZIN
 70
     0
  9
$DIMBLK
  1

  9
$DIMASO
 70
     1
  9
$DIMSHO
 70
     1
  9
$DIMPOST
  1

  9
$DIMAPOST
  1

  9
$DIMALT
 70
     0
  9
$DIMALTD
 70
     2
  9
$DIMALTF
 40
25.4
  9
$DIMLFAC
 40
1.0
  9
$DIMTOFL
 70
     0
  9
$DIMTVP
 40
0.0
  9
$DIMTIX
 70
     0
  9
$DIMSOXD
 70
     0
  9
$DIMSAH
 70
     0
  9
$DIMBLK1
  1

  9
$DIMBLK2
  1

  9
$DIMSTYLE
  2
Standard
  9
$DIMCLRD
 70
     0
  9
$DIMCLRE
 70
     0
  9
$DIMCLRT
 70
     0
  9
$DIMTFAC
 40
1.0
  9
$DIMGAP
 40
0.09
  9
$DIMJUST
 70
     0
  9
$DIMSD1
 70
     0
  9
$DIMSD2
 70
     0
  9
$DIMTOLJ
 70
     1
  9
$DIMTZIN
 70
     0
  9
$DIMALTZ
 70
     0
  9
$DIMALTTZ
 70
     0
  9
$DIMUPT
 70
     0
  9
$DIMDEC
 70
     4
  9
$DIMTDEC
 70
     4
  9
$DIMALTU
 70
     2
  9
$DIMALTTD
 70
     2
  9
$DIMTXSTY
  7
Standard
  9
$DIMAUNIT
 70
     0
  9
$DIMADEC
 70
     0
  9
$DIMALTRND
 40
0.0
  9
$DIMAZIN
 70
     0
  9
$DIMDSEP
 70
    46
  9
$DIMATFIT
 70
     3
  9
$DIMFRAC
 70
     0
  9
$DIMLDRBLK
  1

  9
$DIMLUNIT
 70
     2
  9
$DIMLWD
 70
    -2
  9
$DIMLWE
 70
    -2
  9
$DIMTMOVE
 70
     0
  9
$LUNITS
 70
     2
  9
$LUPREC
 70
     4
  9
$SKETCHINC
 40
0.1
  9
$FILLETRAD
 40
0.5
  9
$AUNITS
 70
     0
  9
$AUPREC
 70
     0
  9
$MENU
  1
.
  9
$ELEVATION
 40
0.0
  9
$PELEVATION
 40
0.0
  9
$THICKNESS
 40
0.0
  9
$LIMCHECK
 70
     0
  9
$CHAMFERA
 40
0.5
  9
$CHAMFERB
 40
0.5
  9
$CHAMFERC
 40
1.0
  9
$CHAMFERD
 40
0.0
  9
$SKPOLY
 70
     0
  9
$TDCREATE
 40
2456748.73533463
  9
$TDUCREATE
 40
2456748.652001296
  9
$TDUPDATE
 40
2456748.735334641
  9
$TDUUPDATE
 40
2456748.652001308
  9
$TDINDWG
 40
0.0000000116
  9
$TDUSRTIMER
 40
0.0000000116
  9
$USRTIMER
 70
     1
  9
$ANGBASE
 50
0.0
  9
$ANGDIR
 70
     0
  9
$PDMODE
 70
     0
  9
$PDSIZE
 40
0.0
  9
$PLINEWID
 40
0.0
  9
$SPLFRAME
 70
     0
  9
$SPLINETYPE
 70
     6
  9
$SPLINESEGS
 70
     8
  9
$HANDSEED
  5
146
  9
$SURFTAB1
 70
     6
  9
$SURFTAB2
 70
     6
  9
$SURFTYPE
 70
     6
  9
$SURFU
 70
     6
  9
$SURFV
 70
     6
  9
$UCSBASE
  2

  9
$UCSNAME
  2

  9
$UCSORG
 10
0.0
 20
0.0
 30
0.0
  9
$UCSXDIR
 10
1.0
 20
0.0
 30
0.0
  9
$UCSYDIR
 10
0.0
 20
1.0
 30
0.0
  9
$UCSORTHOREF
  2

  9
$UCSORTHOVIEW
 70
     0
  9
$UCSORGTOP
 10
0.0
 20
0.0
 30
0.0
  9
$UCSORGBOTTOM
 10
0.0
 20
0.0
 30
0.0
  9
$UCSORGLEFT
 10
0.0
 20
0.0
 30
0.0
  9
$UCSORGRIGHT
 10
0.0
 20
0.0
 30
0.0
  9
$UCSORGFRONT
 10
0.0
 20
0.0
 30
0.0
  9
$UCSORGBACK
 10
0.0
 20
0.0
 30
0.0
  9
$PUCSBASE
  2

  9
$PUCSNAME
  2

  9
$PUCSORG
 10
0.0
 20
0.0
 30
0.0
  9
$PUCSXDIR
 10
1.0
 20
0.0
 30
0.0
  9
$PUCSYDIR
 10
0.0
 20
1.0
 30
0.0
  9
$PUCSORTHOREF
  2

  9
$PUCSORTHOVIEW
 70
     0
  9
$PUCSORGTOP
 10
0.0
 20
0.0
 30
0.0
  9
$PUCSORGBOTTOM
 10
0.0
 20
0.0
 30
0.0
  9
$PUCSORGLEFT
 10
0.0
 20
0.0
 30
0.0
  9
$PUCSORGRIGHT
 10
0.0
 20
0.0
 30
0.0
  9
$PUCSORGFRONT
 10
0.0
 20
0.0
 30
0.0
  9
$PUCSORGBACK
 10
0.0
 20
0.0
 30
0.0
  9
$USERI1
 70
     0
  9
$USERI2
 70
     0
  9
$USERI3
 70
     0
  9
$USERI4
 70
     0
  9
$USERI5
 70
     0
  9
$USERR1
 40
16.5
  9
$USERR2
 40
0.0
  9
$USERR3
 40
0.0
  9
$USERR4
 40
0.0
  9
$USERR5
 40
0.0
  9
$WORLDVIEW
 70
     1
  9
$SHADEDGE
 70
     3
  9
$SHADEDIF
 70
    70
  9
$TILEMODE
 70
     1
  9
$MAXACTVP
 70
    64
  9
$PINSBASE
 10
0.0
 20
0.0
 30
0.0
  9
$PLIMCHECK
 70
     0
  9
$PEXTMIN
 10
1.00000000000000E+20
 20
1.00000000000000E+20
 30
1.00000000000000E+20
  9
$PEXTMAX
 10
-1.00000000000000E+20
 20
-1.00000000000000E+20
 30
-1.00000000000000E+20
  9
$PLIMMIN
 10
0.0
 20
0.0
  9
$PLIMMAX
 10
12.0
 20
9.0
  9
$UNITMODE
 70
     0
  9
$VISRETAIN
 70
     1
  9
$PLINEGEN
 70
     0
  9
$PSLTSCALE
 70
     1
  9
$TREEDEPTH
 70
  3020
  9
$CMLSTYLE
  2
Standard
  9
$CMLJUST
 70
     0
  9
$CMLSCALE
 40
1.0
  9
$PROXYGRAPHICS
 70
     1
  9
$MEASUREMENT
 70
     1
  9
$CELWEIGHT
370
    -1
  9
$ENDCAPS
280
     0
  9
$JOINSTYLE
280
     0
  9
$LWDISPLAY
290
     0
  9
$INSUNITS
 70
     1
  9
$HYPERLINKBASE
  1

  9
$STYLESHEET
  1

  9
$XEDIT
290
     1
  9
$CEPSNTYPE
380
     0
  9
$PSTYLEMODE
290
     1
  9
$FINGERPRINTGUID
  2
{BBD43A89-56A5-4813-AB90-1B859FFFBB94}
  9
$VERSIONGUID
  2
{FAEB1C32-E019-11D5-929B-00C0DF256EC4}
  9
$EXTNAMES
290
     1
  9
$PSVPSCALE
 40
0.0
  9
$OLESTARTUP
290
     0
  0
ENDSEC
  0
SECTION
  2
CLASSES
  0
CLASS
  1
ACDBDICTIONARYWDFLT
  2
AcDbDictionaryWithDefault
  3
ObjectDBX Classes
 90
        0
280
     0
281
     0
  0
CLASS
  1
VISUALSTYLE
  2
AcDbVisualStyle
  3
ObjectDBX Classes
 90
     4095
280
     0
281
     0
  0
CLASS
  1
SCALE
  2
AcDbScale
  3
ObjectDBX Classes
 90
     1153
280
     0
281
     0
  0
CLASS
  1

  2
exOdDbPolyline
  3

 90
        0
280
     0
281
     1
  0
CLASS
  1

  2
exOdDbCircle
  3

 90
        0
280
     0
281
     1
  0
CLASS
  1

  2
exOdDbSpline
  3

 90
        0
280
     0
281
     1
  0
CLASS
  1
DICTIONARYVAR
  2
AcDbDictionaryVar
  3
ObjectDBX Classes
 90
        0
280
     0
281
     0
  0
CLASS
  1
ACDBPLACEHOLDER
  2
AcDbPlaceHolder
  3
ObjectDBX Classes
 90
        0
280
     0
281
     0
  0
CLASS
  1
LAYOUT
  2
AcDbLayout
  3
ObjectDBX Classes
 90
        0
280
     0
281
     0
  0
ENDSEC
  0
SECTION
  2
TABLES
  0
TABLE
  2
VPORT
  5
8
330
0
100
AcDbSymbolTable
 70
     1
  0
VPORT
  5
29
330
8
100
AcDbSymbolTableRecord
100
AcDbViewportTableRecord
  2
*Active
 70
     0
 10
0.0
 20
0.0
 11
1.0
 21
1.0
 12
130.4559257284261
 22
331.535413409516
 13
0.0
 23
0.0
 14
0.5
 24
0.5
 15
0.5
 25
0.5
 16
0.0
 26
0.0
 36
1.0
 17
0.0
 27
0.0
 37
0.0
 40
140.2988342868552
 41
1.60267857142857
 42
50.0
 43
0.0
 44
0.0
 50
0.0
 51
0.0
 71
     0
 72
   100
 73
     1
 74
     3
 75
     0
 76
     0
 77
     0
 78
     0
281
     0
 65
     1
110
0.0
120
0.0
130
0.0
111
1.0
121
0.0
131
0.0
112
0.0
122
1.0
132
0.0
 79
     0
146
0.0
  0
ENDTAB
  0
TABLE
  2
LTYPE
  5
5
330
0
100
AcDbSymbolTable
 70
     8
  0
LTYPE
  5
14
330
5
100
AcDbSymbolTableRecord
100
AcDbLinetypeTableRecord
  2
ByBlock
 70
     0
  3

 72
    65
 73
     0
 40
0.0
  0
LTYPE
  5
15
330
5
100
AcDbSymbolTableRecord
100
AcDbLinetypeTableRecord
  2
ByLayer
 70
     0
  3

 72
    65
 73
     0
 40
0.0
  0
LTYPE
  5
16
330
5
100
AcDbSymbolTableRecord
100
AcDbLinetypeTableRecord
  2
Continuous
 70
     0
  3
Solid line
 72
    65
 73
     0
 40
0.0
  0
LTYPE
  5
3B
330
5
100
AcDbSymbolTableRecord
100
AcDbLinetypeTableRecord
  2
DASHED
 70
     0
  3
Dashed
 72
    65
 73
     2
 40
15.0
 49
7.0
 74
     0
 49
-8.0
 74
     0
  0
LTYPE
  5
3C
330
5
100
AcDbSymbolTableRecord
100
AcDbLinetypeTableRecord
  2
DOTTED
 70
     0
  3
Dotted
 72
    65
 73
     2
 40
1.0
 49
0.0
 74
     0
 49
-1.0
 74
     0
  0
LTYPE
  5
3D
330
5
100
AcDbSymbolTableRecord
100
AcDbLinetypeTableRecord
  2
DOT_CENTER
 70
     0
  3
Dot_Center
 72
    65
 73
     4
 40
14.0
 49
12.0
 74
     0
 49
-1.0
 74
     0
 49
0.0
 74
     0
 49
-1.0
 74
     0
  0
LTYPE
  5
3E
330
5
100
AcDbSymbolTableRecord
100
AcDbLinetypeTableRecord
  2
LONG_DASHED
 70
     0
  3
Long_Dashed
 72
    65
 73
     2
 40
15.0
 49
10.0
 74
     0
 49
-5.0
 74
     0
  0
LTYPE
  5
3F
330
5
100
AcDbSymbolTableRecord
100
AcDbLinetypeTableRecord
  2
DASH_CENTER
 70
     0
  3
Dash_Center
 72
    65
 73
     4
 40
14.0
 49
11.0
 74
     0
 49
-1.0
 74
     0
 49
1.0
 74
     0
 49
-1.0
 74
     0
  0
LTYPE
  5
40
330
5
100
AcDbSymbolTableRecord
100
AcDbLinetypeTableRecord
  2
PHANTOM
 70
     0
  3
Phantom
 72
    65
 73
     6
 40
13.0
 49
10.0
 74
     0
 49
-1.0
 74
     0
 49
0.0
 74
     0
 49
-1.0
 74
     0
 49
0.0
 74
     0
 49
-1.0
 74
     0
  0
LTYPE
  5
41
330
5
100
AcDbSymbolTableRecord
100
AcDbLinetypeTableRecord
  2
CENTER_DASH_DASH
 70
     0
  3
Center_Dash_Dash
 72
    65
 73
     6
 40
14.0
 49
9.0
 74
     0
 49
-1.0
 74
     0
 49
1.0
 74
     0
 49
-1.0
 74
     0
 49
1.0
 74
     0
 49
-1.0
 74
     0
  0
ENDTAB
  0
TABLE
  2
LAYER
  5
2
330
0
100
AcDbSymbolTable
 70
     7
  0
LAYER
  5
10
330
2
100
AcDbSymbolTableRecord
100
AcDbLayerTableRecord
  2
0
 70
     0
 62
     7
  6
Continuous
370
    -3
390
F
  0
LAYER
  5
42
330
2
100
AcDbSymbolTableRecord
100
AcDbLayerTableRecord
  2
1
 70
     0
 62
     7
  6
Continuous
370
    -3
390
F
  0
LAYER
  5
43
330
2
100
AcDbSymbolTableRecord
100
AcDbLayerTableRecord
  2
BEZUGSACHSEN
 70
     0
 62
     7
  6
Continuous
370
    -3
390
F
  0
LAYER
  5
44
330
2
100
AcDbSymbolTableRecord
100
AcDbLayerTableRecord
  2
DEFAULT_2
 70
     0
 62
     7
  6
Continuous
370
    -3
390
F
  0
LAYER
  5
45
330
2
100
AcDbSymbolTableRecord
100
AcDbLayerTableRecord
  2
FASEN
 70
     0
 62
     7
  6
Continuous
370
    -3
390
F
  0
LAYER
  5
46
330
2
100
AcDbSymbolTableRecord
100
AcDbLayerTableRecord
  2
GEWINDE
 70
     0
 62
     7
  6
Continuous
370
    -3
390
F
  0
LAYER
  5
47
330
2
100
AcDbSymbolTableRecord
100
AcDbLayerTableRecord
  2
RUNDUNGEN
 70
     0
 62
     7
  6
Continuous
370
    -3
390
F
  0
ENDTAB
  0
TABLE
  2
STYLE
  5
3
330
0
100
AcDbSymbolTable
 70
     2
  0
STYLE
  5
11
330
3
100
AcDbSymbolTableRecord
100
AcDbTextStyleTableRecord
  2
Standard
 70
     0
 40
0.0
 41
1.0
 50
0.0
 71
     0
 42
0.2
  3
txt
  4

  0
STYLE
  5
6E
330
3
100
AcDbSymbolTableRecord
100
AcDbTextStyleTableRecord
  2
CONVERTER_11
 70
     0
 40
0.0
 41
0.72
 50
0.0
 71
     0
 42
0.2
  3
txt.shx
  4

  0
ENDTAB
  0
TABLE
  2
VIEW
  5
6
330
0
100
AcDbSymbolTable
 70
     0
  0
ENDTAB
  0
TABLE
  2
UCS
  5
7
330
0
100
AcDbSymbolTable
 70
     0
  0
ENDTAB
  0
TABLE
  2
APPID
  5
9
330
0
100
AcDbSymbolTable
 70
     1
  0
APPID
  5
12
330
9
100
AcDbSymbolTableRecord
100
AcDbRegAppTableRecord
  2
ACAD
 70
     0
  0
ENDTAB
  0
TABLE
  2
DIMSTYLE
  5
A
330
0
100
AcDbSymbolTable
 70
     6
100
AcDbDimStyleTable
  0
DIMSTYLE
105
27
330
A
100
AcDbSymbolTableRecord
100
AcDbDimStyleTableRecord
  2
Standard
 70
     0
340
11
  0
DIMSTYLE
105
10D
102
{ACAD_REACTORS
330
10E
102
}
330
A
100
AcDbSymbolTableRecord
100
AcDbDimStyleTableRecord
  2
ME10_DIM_10
 70
     0
  3
\U+2300<>
 41
3.5
 42
2.0
 44
2.0
 71
     1
 73
     0
 74
     0
 77
     1
 78
     8
140
3.5
146
0.7
147
2.0
172
     1
173
     1
176
     2
177
     2
178
     3
271
     2
272
     0
340
6E
  0
DIMSTYLE
105
118
102
{ACAD_REACTORS
330
119
102
}
330
A
100
AcDbSymbolTableRecord
100
AcDbDimStyleTableRecord
  2
ME10_DIM_11
 70
     0
  3
\U+2300<>
 41
3.5
 42
2.0
 44
2.0
 71
     1
 73
     0
 74
     0
 77
     1
 78
     8
140
3.5
146
0.7
147
2.0
172
     1
173
     1
176
     2
177
     2
178
     3
271
     2
272
     0
340
6E
  0
DIMSTYLE
105
123
102
{ACAD_REACTORS
330
124
102
}
330
A
100
AcDbSymbolTableRecord
100
AcDbDimStyleTableRecord
  2
ME10_DIM_12
 70
     0
  3
<>
 41
3.5
 42
2.0
 44
2.0
 71
     1
 73
     0
 74
     0
 77
     1
 78
     8
140
3.5
146
0.7
147
2.0
172
     1
173
     1
176
     2
177
     2
178
     3
271
     2
272
     0
340
6E
  0
DIMSTYLE
105
12E
102
{ACAD_REACTORS
330
12F
102
}
330
A
100
AcDbSymbolTableRecord
100
AcDbDimStyleTableRecord
  2
ME10_DIM_13
 70
     0
  3
<>
 41
3.5
 42
2.0
 44
2.0
 71
     1
 73
     0
 74
     0
 77
     1
 78
     8
140
3.5
146
0.7
147
2.0
172
     1
173
     1
176
     2
177
     2
178
     3
271
     2
272
     0
340
6E
  0
DIMSTYLE
105
139
102
{ACAD_REACTORS
330
13A
102
}
330
A
100
AcDbSymbolTableRecord
100
AcDbDimStyleTableRecord
  2
ME10_DIM_14
 70
     0
  3
<>
 41
3.5
 42
2.0
 44
2.0
 71
     1
 73
     0
 74
     0
 77
     1
 78
     8
140
3.5
146
0.7
147
2.0
172
     1
173
     1
176
     2
177
     2
178
     3
271
     2
272
     0
340
6E
  0
ENDTAB
  0
TABLE
  2
BLOCK_RECORD
  5
1
330
0
100
AcDbSymbolTable
 70
     8
  0
BLOCK_RECORD
  5
1F
330
1
100
AcDbSymbolTableRecord
100
AcDbBlockTableRecord
  2
*Model_Space
340
22
  0
BLOCK_RECORD
  5
1B
330
1
100
AcDbSymbolTableRecord
100
AcDbBlockTableRecord
  2
*Paper_Space
340
1E
  0
BLOCK_RECORD
  5
23
330
1
100
AcDbSymbolTableRecord
100
AcDbBlockTableRecord
  2
*Paper_Space0
340
26
  0
BLOCK_RECORD
  5
48
330
1
100
AcDbSymbolTableRecord
100
AcDbBlockTableRecord
  2
Urheberrecht_DE-EN
340
0
102
{BLKREFS
331
6D
102
}
  0
BLOCK_RECORD
  5
104
330
1
100
AcDbSymbolTableRecord
100
AcDbBlockTableRecord
  2
*D2
340
0
  0
BLOCK_RECORD
  5
10F
330
1
100
AcDbSymbolTableRecord
100
AcDbBlockTableRecord
  2
*D3
340
0
  0
BLOCK_RECORD
  5
11A
330
1
100
AcDbSymbolTableRecord
100
AcDbBlockTableRecord
  2
*D4
340
0
  0
BLOCK_RECORD
  5
125
330
1
100
AcDbSymbolTableRecord
100
AcDbBlockTableRecord
  2
*D5
340
0
  0
BLOCK_RECORD
  5
130
330
1
100
AcDbSymbolTableRecord
100
AcDbBlockTableRecord
  2
*D6
340
0
  0
BLOCK_RECORD
  5
13B
330
1
100
AcDbSymbolTableRecord
100
AcDbBlockTableRecord
  2
*D7
340
0
102
{BLKREFS
331
141
102
}
  0
ENDTAB
  0
ENDSEC
  0
SECTION
  2
BLOCKS
  0
BLOCK
  5
20
330
1F
100
AcDbEntity
  8
0
100
AcDbBlockBegin
  2
*Model_Space
 70
     0
 10
0.0
 20
0.0
 30
0.0
  3
*Model_Space
  1

  0
ENDBLK
  5
21
330
1F
100
AcDbEntity
  8
0
100
AcDbBlockEnd
  0
BLOCK
  5
1C
330
1B
100
AcDbEntity
 67
     1
  8
0
100
AcDbBlockBegin
  2
*Paper_Space
 70
     0
 10
0.0
 20
0.0
 30
0.0
  3
*Paper_Space
  1

  0
ENDBLK
  5
1D
330
1B
100
AcDbEntity
 67
     1
  8
0
100
AcDbBlockEnd
  0
BLOCK
  5
24
330
23
100
AcDbEntity
  8
0
100
AcDbBlockBegin
  2
*Paper_Space0
 70
     0
 10
0.0
 20
0.0
 30
0.0
  3
*Paper_Space0
  1

  0
ENDBLK
  5
25
330
23
100
AcDbEntity
  8
0
100
AcDbBlockEnd
  0
BLOCK
  5
49
330
48
100
AcDbEntity
  8
0
100
AcDbBlockBegin
  2
Urheberrecht_DE-EN
 70
     0
 10
58.0454540584371
 20
331.245506680864
 30
0.0
  3
Urheberrecht_DE-EN
  1

  0
MTEXT
  5
6F
330
48
100
AcDbEntity
  8
1
 62
     1
100
AcDbMText
 10
58.0454540584371
 20
331.245506680864
 30
0.0
 40
2.0
 41
0.0
 71
     7
 72
     1
  1
We own the copyright of this document. It \Pdetermined and may neither be copied or \Pmade accessible to outsiders without our\Ppermission.
  7
CONVERTER_11
 11
0.0
 21
1.0
 31
0.0
 73
     1
 44
0.90036014405762
  0
MTEXT
  5
70
330
48
100
AcDbEntity
  8
1
 62
     1
100
AcDbMText
 10
58.0454540584371
 20
274.9561197635578
 30
0.0
 40
2.0
 41
0.0
 71
     7
 72
     1
  1
F\U+00fcr diese Unterlage behalten wir das Ur-\Pheberrecht. Sie darf nur f\U+00fcr den von uns \Pbestimmten Zweck benutzt und ohne unsere \PZustimmung weder vervielf\U+00e4ltigt noch\PDritten zug\U+00e4nglich gemacht werden.
  7
CONVERTER_11
 11
0.0
 21
1.0
 31
0.0
 73
     1
 44
0.90036014405762
  0
ENDBLK
  5
4A
330
48
100
AcDbEntity
  8
0
100
AcDbBlockEnd
  0
BLOCK
  5
10B
330
104
100
AcDbEntity
  8
0
100
AcDbBlockBegin
  2
*D2
 70
     1
 10
0.0
 20
0.0
 30
0.0
  3
*D2
  1

  0
LINE
  5
105
330
104
100
AcDbEntity
  8
1
  6
Continuous
 62
     2
100
AcDbLine
 10
205.889408472561
 20
323.7632160064
 30
0.0
 11
205.889408472561
 21
311.7632160064
 31
0.0
  0
LINE
  5
106
330
104
100
AcDbEntity
  8
1
  6
Continuous
 62
     2
100
AcDbLine
 10
196.9871854925
 20
323.7632160064
 30
0.0
 11
207.889408472561
 21
323.7632160064
 31
0.0
  0
LINE
  5
107
330
104
100
AcDbEntity
  8
1
  6
Continuous
 62
     2
100
AcDbLine
 10
196.9871854925
 20
311.7632160064
 30
0.0
 11
207.889408472561
 21
311.7632160064
 31
0.0
  0
SOLID
  5
108
330
104
100
AcDbEntity
  8
1
 62
     2
100
AcDbTrace
 10
206.3501922141169
 20
320.2632160064
 30
0.0
 11
205.4286247310051
 21
320.2632160064
 31
0.0
 12
205.889408472561
 22
323.7632160064
 32
0.0
 13
205.889408472561
 23
323.7632160064
 33
0.0
  0
SOLID
  5
109
330
104
100
AcDbEntity
  8
1
 62
     2
100
AcDbTrace
 10
205.4286247310051
 20
315.2632160064
 30
0.0
 11
206.3501922141169
 21
315.2632160064
 31
0.0
 12
205.889408472561
 22
311.7632160064
 32
0.0
 13
205.889408472561
 23
311.7632160064
 33
0.0
  0
MTEXT
  5
10A
330
104
100
AcDbEntity
  8
1
 62
     3
100
AcDbMText
 10
203.889408472561
 20
308.974974910877
 30
0.0
 40
3.5
 41
0.0
 71
     7
 72
     1
  1
\C3;%%c\C3;\C3;12\C2;\H2.45;\S^ ;\C3;
  7
CONVERTER_11
 11
0.0
 21
1.0
 31
0.0
 73
     1
 44
0.60024009603842
  0
ENDBLK
  5
10C
330
104
100
AcDbEntity
  8
0
100
AcDbBlockEnd
  0
BLOCK
  5
116
330
10F
100
AcDbEntity
  8
0
100
AcDbBlockBegin
  2
*D3
 70
     1
 10
0.0
 20
0.0
 30
0.0
  3
*D3
  1

  0
LINE
  5
110
330
10F
100
AcDbEntity
  8
1
  6
Continuous
 62
     2
100
AcDbLine
 10
214.866397398415
 20
338.7632160064
 30
0.0
 11
214.866397398415
 21
296.7632160064
 31
0.0
  0
LINE
  5
111
330
10F
100
AcDbEntity
  8
1
  6
Continuous
 62
     2
100
AcDbLine
 10
183.8984493068
 20
338.7632160064
 30
0.0
 11
216.866397398415
 21
338.7632160064
 31
0.0
  0
LINE
  5
112
330
10F
100
AcDbEntity
  8
1
  6
Continuous
 62
     2
100
AcDbLine
 10
183.8984493068
 20
296.7632160064
 30
0.0
 11
216.866397398415
 21
296.7632160064
 31
0.0
  0
SOLID
  5
113
330
10F
100
AcDbEntity
  8
1
 62
     2
100
AcDbTrace
 10
215.3271811399709
 20
335.2632160064
 30
0.0
 11
214.4056136568591
 21
335.2632160064
 31
0.0
 12
214.866397398415
 22
338.7632160064
 32
0.0
 13
214.866397398415
 23
338.7632160064
 33
0.0
  0
SOLID
  5
114
330
10F
100
AcDbEntity
  8
1
 62
     2
100
AcDbTrace
 10
214.4056136568591
 20
300.2632160064
 30
0.0
 11
215.3271811399709
 21
300.2632160064
 31
0.0
 12
214.866397398415
 22
296.7632160064
 32
0.0
 13
214.866397398415
 23
296.7632160064
 33
0.0
  0
MTEXT
  5
115
330
10F
100
AcDbEntity
  8
1
 62
     3
100
AcDbMText
 10
212.866397398415
 20
308.982450574013
 30
0.0
 40
3.5
 41
0.0
 71
     7
 72
     1
  1
\C3;%%c\C3;\C3;42\C2;\H2.45;\S^ ;\C3;
  7
CONVERTER_11
 11
0.0
 21
1.0
 31
0.0
 73
     1
 44
0.60024009603842
  0
ENDBLK
  5
117
330
10F
100
AcDbEntity
  8
0
100
AcDbBlockEnd
  0
BLOCK
  5
121
330
11A
100
AcDbEntity
  8
0
100
AcDbBlockBegin
  2
*D4
 70
     1
 10
0.0
 20
0.0
 30
0.0
  3
*D4
  1

  0
LINE
  5
11B
330
11A
100
AcDbEntity
  8
1
  6
Continuous
 62
     2
100
AcDbLine
 10
194.9871854925
 20
375.226058350013
 30
0.0
 11
143.9871854925
 21
375.226058350013
 31
0.0
  0
LINE
  5
11C
330
11A
100
AcDbEntity
  8
1
  6
Continuous
 62
     2
100
AcDbLine
 10
194.9871854925
 20
334.1261457456
 30
0.0
 11
194.9871854925
 21
377.226058350013
 31
0.0
  0
LINE
  5
11D
330
11A
100
AcDbEntity
  8
1
  6
Continuous
 62
     2
100
AcDbLine
 10
143.9871854925
 20
369.7631790853
 30
0.0
 11
143.9871854925
 21
377.226058350013
 31
0.0
  0
SOLID
  5
11E
330
11A
100
AcDbEntity
  8
1
 62
     2
100
AcDbTrace
 10
191.4871854925
 20
374.7652746084571
 30
0.0
 11
191.4871854925
 21
375.6868420915688
 31
0.0
 12
194.9871854925
 22
375.226058350013
 32
0.0
 13
194.9871854925
 23
375.226058350013
 33
0.0
  0
SOLID
  5
11F
330
11A
100
AcDbEntity
  8
1
 62
     2
100
AcDbTrace
 10
147.4871854925
 20
375.6868420915688
 30
0.0
 11
147.4871854925
 21
374.7652746084571
 31
0.0
 12
143.9871854925
 22
375.226058350013
 32
0.0
 13
143.9871854925
 23
375.226058350013
 33
0.0
  0
MTEXT
  5
120
330
11A
100
AcDbEntity
  8
1
 62
     3
100
AcDbMText
 10
168.408321684925
 20
377.226058350013
 30
0.0
 40
3.5
 41
0.0
 71
     7
 72
     1
  1
\C3;\C3;\C3;51\C2;\H2.45;\S^ ;\C3;
  7
CONVERTER_11
 11
0.9999999999970619
 21
2.424068405545306E-6
 31
0.0
 73
     1
 44
0.60024009603842
  0
ENDBLK
  5
122
330
11A
100
AcDbEntity
  8
0
100
AcDbBlockEnd
  0
BLOCK
  5
12C
330
125
100
AcDbEntity
  8
0
100
AcDbBlockBegin
  2
*D5
 70
     1
 10
0.0
 20
0.0
 30
0.0
  3
*D5
  1

  0
LINE
  5
126
330
125
100
AcDbEntity
  8
1
  6
Continuous
 62
     2
100
AcDbLine
 10
194.9871854925
 20
382.279406791756
 30
0.0
 11
114.9871854925
 21
382.279406791756
 31
0.0
  0
LINE
  5
127
330
125
100
AcDbEntity
  8
1
  6
Continuous
 62
     2
100
AcDbLine
 10
194.9871854925
 20
334.1261457456
 30
0.0
 11
194.9871854925
 21
384.279406791756
 31
0.0
  0
LINE
  5
128
330
125
100
AcDbEntity
  8
1
  6
Continuous
 62
     2
100
AcDbLine
 10
114.9871854925
 20
369.7632160064
 30
0.0
 11
114.9871854925
 21
384.279406791756
 31
0.0
  0
SOLID
  5
129
330
125
100
AcDbEntity
  8
1
 62
     2
100
AcDbTrace
 10
191.4871854925
 20
381.8186230502001
 30
0.0
 11
191.4871854925
 21
382.7401905333119
 31
0.0
 12
194.9871854925
 22
382.279406791756
 32
0.0
 13
194.9871854925
 23
382.279406791756
 33
0.0
  0
SOLID
  5
12A
330
125
100
AcDbEntity
  8
1
 62
     2
100
AcDbTrace
 10
118.4871854925
 20
382.7401905333119
 30
0.0
 11
118.4871854925
 21
381.8186230502001
 31
0.0
 12
114.9871854925
 22
382.279406791756
 32
0.0
 13
114.9871854925
 23
382.279406791756
 33
0.0
  0
MTEXT
  5
12B
330
125
100
AcDbEntity
  8
1
 62
     3
100
AcDbMText
 10
154.095362633007
 20
384.279406791756
 30
0.0
 40
3.5
 41
0.0
 71
     7
 72
     1
  1
\C3;\C3;\C3;80\C2;\H2.45;\S^ ;\C3;
  7
CONVERTER_11
 11
0.9999999999970619
 21
2.424068405545306E-6
 31
0.0
 73
     1
 44
0.60024009603842
  0
ENDBLK
  5
12D
330
125
100
AcDbEntity
  8
0
100
AcDbBlockEnd
  0
BLOCK
  5
137
330
130
100
AcDbEntity
  8
0
100
AcDbBlockBegin
  2
*D6
 70
     1
 10
0.0
 20
0.0
 30
0.0
  3
*D6
  1

  0
LINE
  5
131
330
130
100
AcDbEntity
  8
1
  6
Continuous
 62
     2
100
AcDbLine
 10
194.9871854925
 20
389.807610812632
 30
0.0
 11
64.9871854925
 21
389.807610812632
 31
0.0
  0
LINE
  5
132
330
130
100
AcDbEntity
  8
1
  6
Continuous
 62
     2
100
AcDbLine
 10
194.9871854925
 20
334.1261457456
 30
0.0
 11
194.9871854925
 21
391.807610812632
 31
0.0
  0
LINE
  5
133
330
130
100
AcDbEntity
  8
1
  6
Continuous
 62
     2
100
AcDbLine
 10
64.9871854925
 20
353.363407569
 30
0.0
 11
64.9871854925
 21
391.807610812632
 31
0.0
  0
SOLID
  5
134
330
130
100
AcDbEntity
  8
1
 62
     2
100
AcDbTrace
 10
191.4871854925
 20
389.3468270710761
 30
0.0
 11
191.4871854925
 21
390.2683945541879
 31
0.0
 12
194.9871854925
 22
389.807610812632
 32
0.0
 13
194.9871854925
 23
389.807610812632
 33
0.0
  0
SOLID
  5
135
330
130
100
AcDbEntity
  8
1
 62
     2
100
AcDbTrace
 10
68.4871854925
 20
390.2683945541879
 30
0.0
 11
68.4871854925
 21
389.3468270710761
 31
0.0
 12
64.9871854925
 22
389.807610812632
 32
0.0
 13
64.9871854925
 23
389.807610812632
 33
0.0
  0
MTEXT
  5
136
330
130
100
AcDbEntity
  8
1
 62
     3
100
AcDbMText
 10
131.003241108469
 20
391.807610812632
 30
0.0
 40
3.5
 41
0.0
 71
     7
 72
     1
  1
\C3;\C3;\C3;130\C2;\H2.45;\S^ ;\C3;
  7
CONVERTER_11
 11
0.9999999999970619
 21
2.424068405545306E-6
 31
0.0
 73
     1
 44
0.60024009603842
  0
ENDBLK
  5
138
330
130
100
AcDbEntity
  8
0
100
AcDbBlockEnd
  0
BLOCK
  5
13F
330
13B
100
AcDbEntity
  8
0
100
AcDbBlockBegin
  2
*D7
 70
     1
 10
0.0
 20
0.0
 30
0.0
  3
*D7
  1

  0
LINE
  5
13C
330
13B
100
AcDbEntity
  8
1
  6
Continuous
 62
     2
100
AcDbLine
 10
156.7078477127413
 20
349.973942175579
 30
0.0
 11
144.8509940162953
 21
344.6975050833111
 31
0.0
  0
SOLID
  5
13D
330
13B
100
AcDbEntity
  8
1
 62
     2
100
AcDbTrace
 10
147.8613196838443
 20
346.5414847555899
 30
0.0
 11
148.2360023820895
 21
345.6995230571946
 31
0.0
 12
144.8509940162953
 22
344.6975050833111
 32
0.0
 13
144.8509940162953
 23
344.6975050833111
 33
0.0
  0
MTEXT
  5
13E
330
13B
100
AcDbEntity
  8
1
 62
     3
100
AcDbMText
 10
147.5807712847772
 20
348.1013835308089
 30
0.0
 40
3.5
 41
0.0
 71
     7
 72
     1
  1
\C3; R\C3;\C3;10\C2;\H2.45;\S^ ;\C3;
  7
CONVERTER_11
 11
0.9136191476204668
 21
0.4065710923088995
 31
0.0
 73
     1
 44
0.60024009603842
  0
ENDBLK
  5
140
330
13B
100
AcDbEntity
  8
0
100
AcDbBlockEnd
  0
ENDSEC
  0
SECTION
  2
ENTITIES
  0
INSERT
  5
6D
330
1F
100
AcDbEntity
  8
0
100
AcDbBlockReference
  2
Urheberrecht_DE-EN
 10
58.0454540584371
 20
331.245506680864
 30
0.0
  0
LINE
  5
71
330
1F
100
AcDbEntity
  8
BEZUGSACHSEN
  6
Continuous
 62
     7
100
AcDbLine
 10
64.9871854925
 20
284.1630244435
 30
0.0
 11
64.9871854925
 21
305.7532160064
 31
0.0
  0
LINE
  5
72
330
1F
100
AcDbEntity
  8
BEZUGSACHSEN
  6
Continuous
 62
     7
100
AcDbLine
 10
64.9871854925
 20
329.7732160064
 30
0.0
 11
64.9871854925
 21
351.363407569
 31
0.0
  0
LINE
  5
73
330
1F
100
AcDbEntity
  8
BEZUGSACHSEN
  6
Continuous
 62
     9
100
AcDbLine
 10
66.8871110078
 20
353.3609022747
 30
0.0
 11
66.8871110078
 21
333.4397483927
 31
0.0
  0
LINE
  5
74
330
1F
100
AcDbEntity
  8
BEZUGSACHSEN
  6
Continuous
 62
     9
100
AcDbLine
 10
66.8871110078
 20
302.0866836202
 30
0.0
 11
66.8871110078
 21
282.1655297381
 31
0.0
  0
LINE
  5
75
330
1F
100
AcDbEntity
  8
BEZUGSACHSEN
  6
Continuous
 62
     7
100
AcDbLine
 10
66.9871854925
 20
305.359576058
 30
0.0
 11
66.9871854925
 21
307.7532160064
 31
0.0
  0
LINE
  5
76
330
1F
100
AcDbEntity
  8
BEZUGSACHSEN
  6
Continuous
 62
     7
100
AcDbLine
 10
66.9871854925
 20
327.7732160064
 30
0.0
 11
66.9871854925
 21
330.1668559548
 31
0.0
  0
LINE
  5
77
330
1F
100
AcDbEntity
  8
BEZUGSACHSEN
  6
Continuous
 62
     9
100
AcDbLine
 10
72.9871854925
 20
301.404568419
 30
0.0
 11
72.9871854925
 21
307.7532160064
 31
0.0
  0
LINE
  5
78
330
1F
100
AcDbEntity
  8
BEZUGSACHSEN
  6
Continuous
 62
     9
100
AcDbLine
 10
72.9871854925
 20
327.7732160064
 30
0.0
 11
72.9871854925
 21
334.1218635939
 31
0.0
  0
LINE
  5
79
330
1F
100
AcDbEntity
  8
BEZUGSACHSEN
  6
Continuous
 62
     7
100
AcDbLine
 10
74.9871854925
 20
330.6328715322
 30
0.0
 11
74.9871854925
 21
304.8935604806
 31
0.0
  0
LINE
  5
7A
330
1F
100
AcDbEntity
  8
BEZUGSACHSEN
  6
Continuous
 62
     7
100
AcDbLine
 10
66.2541384195
 20
302.7532160064
 30
0.0
 11
66.1330281681
 21
302.520880011
 31
0.0
  0
LINE
  5
7B
330
1F
100
AcDbEntity
  8
BEZUGSACHSEN
  6
Continuous
 62
     7
100
AcDbLine
 10
131.7395902283
 20
267.7632160064
 30
0.0
 11
114.9871854925
 21
267.7632160064
 31
0.0
  0
LINE
  5
7C
330
1F
100
AcDbEntity
  8
BEZUGSACHSEN
  6
Continuous
 62
     7
100
AcDbLine
 10
138.2347807567
 20
267.7632160064
 30
0.0
 11
143.9871854925
 21
267.7632160064
 31
0.0
  0
LINE
  5
7D
330
1F
100
AcDbEntity
  8
BEZUGSACHSEN
  6
Continuous
 62
     7
100
AcDbLine
 10
66.1330281681
 20
333.0055520019
 30
0.0
 11
66.2541384195
 21
332.7732160064
 31
0.0
  0
LINE
  5
7E
330
1F
100
AcDbEntity
  8
BEZUGSACHSEN
  6
Continuous
 62
     7
100
AcDbLine
 10
134.1121854925
 20
271.7632160064
 30
0.0
 11
135.8621854925
 21
271.7632160064
 31
0.0
  0
LINE
  5
7F
330
1F
100
AcDbEntity
  8
FASEN
  6
Continuous
 62
     7
100
AcDbLine
 10
120.3886714569
 20
278.9334593757
 30
0.0
 11
131.7395902283
 21
278.9334593757
 31
0.0
  0
LINE
  5
80
330
1F
100
AcDbEntity
  8
0
  6
Continuous
 62
     7
100
AcDbLine
 10
138.2347807567
 20
278.9334593757
 30
0.0
 11
143.9871854925
 21
278.9334593757
 31
0.0
  0
LINE
  5
81
330
1F
100
AcDbEntity
  8
BEZUGSACHSEN
  6
Continuous
 62
     7
100
AcDbLine
 10
114.2866142038
 20
280.0809660064
 30
0.0
 11
113.3652481516
 21
280.0809660064
 31
0.0
  0
LINE
  5
82
330
1F
100
AcDbEntity
  8
BEZUGSACHSEN
  6
Continuous
 62
     7
100
AcDbLine
 10
112.4871854925
 20
279.8809660064
 30
0.0
 11
66.8871110078
 21
282.1655297381
 31
0.0
  0
LINE
  5
83
330
1F
100
AcDbEntity
  8
BEZUGSACHSEN
  6
Continuous
 62
     7
100
AcDbLine
 10
64.9871854925
 20
305.7532160064
 30
0.0
 11
66.9871854925
 21
307.7532160064
 31
0.0
  0
LINE
  5
84
330
1F
100
AcDbEntity
  8
0
  6
Continuous
 62
     7
100
AcDbLine
 10
134.1121854925
 20
284.2408354227
 30
0.0
 11
135.8621854925
 21
284.2408354227
 31
0.0
  0
LINE
  5
85
330
1F
100
AcDbEntity
  8
BEZUGSACHSEN
  6
Continuous
 62
     7
100
AcDbLine
 10
66.9871854925
 20
327.7732160064
 30
0.0
 11
64.9871854925
 21
329.7732160064
 31
0.0
  0
LWPOLYLINE
  5
86
330
1F
100
AcDbEntity
  8
BEZUGSACHSEN
  6
DOT_CENTER
 62
     7
100
AcDbPolyline
 90
        2
 70
     0
 43
0.25
 10
99.9871854925
 20
317.7632160064
 10
99.9871854925
 20
308.7632160064
  0
LWPOLYLINE
  5
87
330
1F
100
AcDbEntity
  8
BEZUGSACHSEN
  6
DOT_CENTER
 62
     7
100
AcDbPolyline
 90
        2
 70
     0
 43
0.25
 10
99.9871854925
 20
317.7632160064
 10
99.9871854925
 20
326.7632160064
  0
LINE
  5
88
330
1F
100
AcDbEntity
  8
BEZUGSACHSEN
  6
Continuous
 62
     7
100
AcDbLine
 10
113.1064291065
 20
280.0468918327
 30
0.0
 11
112.4871854925
 21
279.8809660064
 31
0.0
  0
LINE
  5
89
330
1F
100
AcDbEntity
  8
FASEN
  6
Continuous
 62
     7
100
AcDbLine
 10
127.9590594144
 20
285.8632160064
 30
0.0
 11
143.9871854925
 21
285.8632160064
 31
0.0
  0
LINE
  5
8A
330
1F
100
AcDbEntity
  8
0
  6
Continuous
 62
     7
100
AcDbLine
 10
127.9590594144
 20
286.2632160064
 30
0.0
 11
143.9871854925
 21
286.2632160064
 31
0.0
  0
LINE
  5
8B
330
1F
100
AcDbEntity
  8
BEZUGSACHSEN
  6
Continuous
 62
     7
100
AcDbLine
 10
112.4871854925
 20
355.6454660064
 30
0.0
 11
112.4871854925
 21
279.8809660064
 31
0.0
  0
LINE
  5
8C
330
1F
100
AcDbEntity
  8
BEZUGSACHSEN
  6
Continuous
 62
     9
100
AcDbLine
 10
113.1064291065
 20
280.0468918327
 30
0.0
 11
113.1064291065
 21
355.4795401801
 31
0.0
  0
LINE
  5
8D
330
1F
100
AcDbEntity
  8
BEZUGSACHSEN
  6
Continuous
 62
     9
100
AcDbLine
 10
113.3652481516
 20
280.0809660064
 30
0.0
 11
113.3652481516
 21
355.4454660064
 31
0.0
  0
LINE
  5
8E
330
1F
100
AcDbEntity
  8
BEZUGSACHSEN
  6
Continuous
 62
     9
100
AcDbLine
 10
114.2866142038
 20
280.0809660064
 30
0.0
 11
114.2866142038
 21
355.4454660064
 31
0.0
  0
LINE
  5
8F
330
1F
100
AcDbEntity
  8
BEZUGSACHSEN
  6
Continuous
 62
     7
100
AcDbLine
 10
136.8621854925
 20
365.3858112706
 30
0.0
 11
138.2347807567
 21
367.7632160064
 31
0.0
  0
LINE
  5
90
330
1F
100
AcDbEntity
  8
BEZUGSACHSEN
  6
Continuous
 62
     9
100
AcDbLine
 10
64.9871854925
 20
304.3170320374
 30
0.0
 11
66.9871854925
 21
305.359576058
 31
0.0
  0
LINE
  5
91
330
1F
100
AcDbEntity
  8
0
  6
Continuous
 62
     7
100
AcDbLine
 10
153.9871854925
 20
296.7632160064
 30
0.0
 11
167.3871854925
 21
296.7632160064
 31
0.0
  0
LINE
  5
92
330
1F
100
AcDbEntity
  8
0
  6
Continuous
 62
     7
100
AcDbLine
 10
177.5871854925
 20
296.7632160064
 30
0.0
 11
181.8984493068
 21
296.7632160064
 31
0.0
  0
LINE
  5
93
330
1F
100
AcDbEntity
  8
BEZUGSACHSEN
  6
Continuous
 62
     9
100
AcDbLine
 10
66.9871854925
 20
330.1668559548
 30
0.0
 11
64.9871854925
 21
331.2093999755
 31
0.0
  0
LINE
  5
94
330
1F
100
AcDbEntity
  8
BEZUGSACHSEN
  6
Continuous
 62
     7
100
AcDbLine
 10
136.8621854925
 20
270.1406207422
 30
0.0
 11
138.2347807567
 21
267.7632160064
 31
0.0
  0
LINE
  5
95
330
1F
100
AcDbEntity
  8
BEZUGSACHSEN
  6
Continuous
 62
     7
100
AcDbLine
 10
114.9871854925
 20
367.7632160064
 30
0.0
 11
114.9871854925
 21
267.7632160064
 31
0.0
  0
LINE
  5
96
330
1F
100
AcDbEntity
  8
BEZUGSACHSEN
  6
Continuous
 62
     9
100
AcDbLine
 10
74.5410314394
 20
302.7532160064
 30
0.0
 11
66.2541384195
 21
302.7532160064
 31
0.0
  0
LWPOLYLINE
  5
97
330
1F
100
AcDbEntity
  8
BEZUGSACHSEN
  6
DOT_CENTER
 62
     7
100
AcDbPolyline
 90
        2
 70
     0
 43
0.25
 10
121.9871854925
 20
359.9125878618
 10
121.9871854925
 20
370.7632160064
  0
LINE
  5
98
330
1F
100
AcDbEntity
  8
BEZUGSACHSEN
  6
Continuous
 62
     7
100
AcDbLine
 10
72.9871854925
 20
307.7532160064
 30
0.0
 11
66.9871854925
 21
307.7532160064
 31
0.0
  0
LINE
  5
99
330
1F
100
AcDbEntity
  8
0
  6
Continuous
 62
     7
100
AcDbLine
 10
129.9871854925
 20
307.7632160064
 30
0.0
 11
143.9871854925
 21
307.7632160064
 31
0.0
  0
LINE
  5
9A
330
1F
100
AcDbEntity
  8
FASEN
  6
Continuous
 62
     7
100
AcDbLine
 10
143.9871854925
 20
308.1632160064
 30
0.0
 11
129.9871854925
 21
308.1632160064
 31
0.0
  0
LWPOLYLINE
  5
9B
330
1F
100
AcDbEntity
  8
DEFAULT_2
  6
DASHED
 62
     8
100
AcDbPolyline
 90
        2
 70
     0
 43
0.35
 10
144.9871854925
 20
311.7632160064
 10
167.3871854925
 20
311.7632160064
  0
LWPOLYLINE
  5
9C
330
1F
100
AcDbEntity
  8
DEFAULT_2
  6
DASHED
 62
     8
100
AcDbPolyline
 90
        2
 70
     0
 43
0.35
 10
167.3871854925
 20
311.7632160064
 10
194.9871854925
 20
311.7632160064
  0
LINE
  5
9D
330
1F
100
AcDbEntity
  8
FASEN
  6
Continuous
 62
     9
100
AcDbLine
 10
127.9590594144
 20
285.8632160064
 30
0.0
 11
127.9590594144
 21
286.2632160064
 31
0.0
  0
LINE
  5
9E
330
1F
100
AcDbEntity
  8
FASEN
  6
Continuous
 62
     9
100
AcDbLine
 10
129.9871854925
 20
308.1632160064
 30
0.0
 11
129.9871854925
 21
307.7632160064
 31
0.0
  0
LINE
  5
9F
330
1F
100
AcDbEntity
  8
FASEN
  6
Continuous
 62
     9
100
AcDbLine
 10
129.9871854925
 20
327.3632160064
 30
0.0
 11
129.9871854925
 21
327.7632160064
 31
0.0
  0
LINE
  5
A0
330
1F
100
AcDbEntity
  8
0
  6
Continuous
 62
     7
100
AcDbLine
 10
131.7395902283
 20
367.7632160064
 30
0.0
 11
131.7395902283
 21
327.7632160064
 31
0.0
  0
LINE
  5
A1
330
1F
100
AcDbEntity
  8
0
  6
Continuous
 62
     7
100
AcDbLine
 10
131.7395902283
 20
307.7632160064
 30
0.0
 11
131.7395902283
 21
286.2632160064
 31
0.0
  0
LINE
  5
A2
330
1F
100
AcDbEntity
  8
0
  6
Continuous
 62
     7
100
AcDbLine
 10
131.7395902283
 20
278.9334593757
 30
0.0
 11
131.7395902283
 21
267.7632160064
 31
0.0
  0
LINE
  5
A3
330
1F
100
AcDbEntity
  8
0
  6
Continuous
 62
     7
100
AcDbLine
 10
133.1121854925
 20
365.3857778441
 30
0.0
 11
133.1121854925
 21
327.7632160064
 31
0.0
  0
LINE
  5
A4
330
1F
100
AcDbEntity
  8
0
  6
Continuous
 62
     7
100
AcDbLine
 10
133.1121854925
 20
307.7632160064
 30
0.0
 11
133.1121854925
 21
286.2632160064
 31
0.0
  0
LINE
  5
A5
330
1F
100
AcDbEntity
  8
0
  6
Continuous
 62
     7
100
AcDbLine
 10
133.1121854925
 20
270.1406582762
 30
0.0
 11
133.1121854925
 21
282.8812722532
 31
0.0
  0
LINE
  5
A6
330
1F
100
AcDbEntity
  8
0
  6
Continuous
 62
     9
100
AcDbLine
 10
134.1121854925
 20
271.7632160064
 30
0.0
 11
134.1121854925
 21
284.2408354227
 31
0.0
  0
LINE
  5
A7
330
1F
100
AcDbEntity
  8
0
  6
Continuous
 62
     9
100
AcDbLine
 10
134.1121854925
 20
286.2632160064
 30
0.0
 11
134.1121854925
 21
307.7632160064
 31
0.0
  0
LINE
  5
A8
330
1F
100
AcDbEntity
  8
0
  6
Continuous
 62
     9
100
AcDbLine
 10
134.1121854925
 20
327.7632160064
 30
0.0
 11
134.1121854925
 21
363.7632160064
 31
0.0
  0
LINE
  5
A9
330
1F
100
AcDbEntity
  8
0
  6
Continuous
 62
     9
100
AcDbLine
 10
135.8621854925
 20
271.7632160064
 30
0.0
 11
135.8621854925
 21
284.2408354227
 31
0.0
  0
LINE
  5
AA
330
1F
100
AcDbEntity
  8
0
  6
Continuous
 62
     9
100
AcDbLine
 10
135.8621854925
 20
286.2632160064
 30
0.0
 11
135.8621854925
 21
307.7632160064
 31
0.0
  0
LINE
  5
AB
330
1F
100
AcDbEntity
  8
0
  6
Continuous
 62
     9
100
AcDbLine
 10
135.8621854925
 20
327.7632160064
 30
0.0
 11
135.8621854925
 21
363.7632160064
 31
0.0
  0
LWPOLYLINE
  5
AC
330
1F
100
AcDbEntity
  8
DEFAULT_2
  6
DASHED
 62
     8
100
AcDbPolyline
 90
        2
 70
     0
 43
0.35
 10
194.9871854925
 20
323.7632160064
 10
144.9871854925
 20
323.7632160064
  0
LINE
  5
AD
330
1F
100
AcDbEntity
  8
0
  6
Continuous
 62
     7
100
AcDbLine
 10
136.8621854925
 20
270.1406582762
 30
0.0
 11
136.8621854925
 21
282.8812722532
 31
0.0
  0
LINE
  5
AE
330
1F
100
AcDbEntity
  8
0
  6
Continuous
 62
     7
100
AcDbLine
 10
136.8621854925
 20
286.2632160064
 30
0.0
 11
136.8621854925
 21
307.7632160064
 31
0.0
  0
LINE
  5
AF
330
1F
100
AcDbEntity
  8
0
  6
Continuous
 62
     7
100
AcDbLine
 10
136.8621854925
 20
327.7632160064
 30
0.0
 11
136.8621854925
 21
365.3857778441
 31
0.0
  0
LINE
  5
B0
330
1F
100
AcDbEntity
  8
0
  6
Continuous
 62
     7
100
AcDbLine
 10
138.2347807567
 20
367.7632160064
 30
0.0
 11
138.2347807567
 21
327.7632160064
 31
0.0
  0
LINE
  5
B1
330
1F
100
AcDbEntity
  8
0
  6
Continuous
 62
     7
100
AcDbLine
 10
138.2347807567
 20
307.7632160064
 30
0.0
 11
138.2347807567
 21
286.2632160064
 31
0.0
  0
LINE
  5
B2
330
1F
100
AcDbEntity
  8
0
  6
Continuous
 62
     7
100
AcDbLine
 10
138.2347807567
 20
278.9334593757
 30
0.0
 11
138.2347807567
 21
267.7632160064
 31
0.0
  0
LINE
  5
B3
330
1F
100
AcDbEntity
  8
FASEN
  6
Continuous
 62
     7
100
AcDbLine
 10
129.9871854925
 20
327.3632160064
 30
0.0
 11
143.9871854925
 21
327.3632160064
 31
0.0
  0
LINE
  5
B4
330
1F
100
AcDbEntity
  8
0
  6
Continuous
 62
     7
100
AcDbLine
 10
129.9871854925
 20
327.7632160064
 30
0.0
 11
143.9871854925
 21
327.7632160064
 31
0.0
  0
LINE
  5
B5
330
1F
100
AcDbEntity
  8
BEZUGSACHSEN
  6
Continuous
 62
     7
100
AcDbLine
 10
72.9871854925
 20
327.7732160064
 30
0.0
 11
66.9871854925
 21
327.7732160064
 31
0.0
  0
LINE
  5
B6
330
1F
100
AcDbEntity
  8
0
  6
Continuous
 62
     7
100
AcDbLine
 10
143.9871854925
 20
367.7631790853
 30
0.0
 11
143.9871854925
 21
327.7632160064
 31
0.0
  0
LINE
  5
B7
330
1F
100
AcDbEntity
  8
0
  6
Continuous
 62
     7
100
AcDbLine
 10
143.9871854925
 20
307.7632160064
 30
0.0
 11
143.9871854925
 21
286.2632160064
 31
0.0
  0
LINE
  5
B8
330
1F
100
AcDbEntity
  8
0
  6
Continuous
 62
     7
100
AcDbLine
 10
143.9871854925
 20
278.9334593757
 30
0.0
 11
143.9871854925
 21
267.7632178742
 31
0.0
  0
LINE
  5
B9
330
1F
100
AcDbEntity
  8
FASEN
  6
Continuous
 62
     7
100
AcDbLine
 10
143.9871854925
 20
278.9334593757
 30
0.0
 11
143.9871854925
 21
286.2632160064
 31
0.0
  0
LINE
  5
BA
330
1F
100
AcDbEntity
  8
FASEN
  6
Continuous
 62
     7
100
AcDbLine
 10
143.9871854925
 20
307.7632160064
 30
0.0
 11
143.9871854925
 21
327.7632160064
 31
0.0
  0
LWPOLYLINE
  5
BB
330
1F
100
AcDbEntity
  8
DEFAULT_2
  6
DASHED
 62
     8
100
AcDbPolyline
 90
        2
 70
     0
 43
0.35
 10
144.9871854925
 20
323.7632160064
 10
144.9871854925
 20
311.7632160064
  0
LINE
  5
BC
330
1F
100
AcDbEntity
  8
BEZUGSACHSEN
  6
Continuous
 62
     9
100
AcDbLine
 10
66.2541384195
 20
332.7732160064
 30
0.0
 11
74.5410314394
 21
332.7732160064
 31
0.0
  0
LINE
  5
BD
330
1F
100
AcDbEntity
  8
RUNDUNGEN
  6
Continuous
 62
     7
100
AcDbLine
 10
181.8984493068
 20
338.7632160064
 30
0.0
 11
153.9871854925
 21
338.7632160064
 31
0.0
  0
LINE
  5
BE
330
1F
100
AcDbEntity
  8
0
  6
Continuous
 62
     7
100
AcDbLine
 10
153.9871854925
 20
338.7632160064
 30
0.0
 11
181.8984493068
 21
338.7632160064
 31
0.0
  0
LINE
  5
BF
330
1F
100
AcDbEntity
  8
RUNDUNGEN
  6
Continuous
 62
     9
100
AcDbLine
 10
153.9871854925
 20
338.7632160064
 30
0.0
 11
153.9871854925
 21
296.7632160064
 31
0.0
  0
LINE
  5
C0
330
1F
100
AcDbEntity
  8
BEZUGSACHSEN
  6
Continuous
 62
     7
100
AcDbLine
 10
131.7395902283
 20
267.7632160064
 30
0.0
 11
133.1121854925
 21
270.1406207422
 31
0.0
  0
LINE
  5
C1
330
1F
100
AcDbEntity
  8
BEZUGSACHSEN
  6
Continuous
 62
     7
100
AcDbLine
 10
131.7395902283
 20
367.7632160064
 30
0.0
 11
133.1121854925
 21
365.3858112706
 31
0.0
  0
LINE
  5
C2
330
1F
100
AcDbEntity
  8
BEZUGSACHSEN
  6
Continuous
 62
     7
100
AcDbLine
 10
113.1064291065
 20
355.4795401801
 30
0.0
 11
112.4871854925
 21
355.6454660064
 31
0.0
  0
LWPOLYLINE
  5
C3
330
1F
100
AcDbEntity
  8
GEWINDE
  6
DASHED
 62
     8
100
AcDbPolyline
 90
        2
 70
     0
 43
0.35
 10
167.3871854925
 20
311.7632160064
 10
167.3871854925
 20
296.7632160064
  0
LINE
  5
C4
330
1F
100
AcDbEntity
  8
BEZUGSACHSEN
  6
Continuous
 62
     7
100
AcDbLine
 10
112.4871854925
 20
355.6454660064
 30
0.0
 11
66.8871110078
 21
353.3609022747
 31
0.0
  0
LINE
  5
C5
330
1F
100
AcDbEntity
  8
BEZUGSACHSEN
  6
Continuous
 62
     7
100
AcDbLine
 10
114.2866142038
 20
355.4454660064
 30
0.0
 11
113.3652481516
 21
355.4454660064
 31
0.0
  0
LWPOLYLINE
  5
C6
330
1F
100
AcDbEntity
  8
GEWINDE
  6
DOT_CENTER
 62
     7
100
AcDbPolyline
 90
        2
 70
     0
 43
0.25
 10
172.4871854925
 20
293.7632160064
 10
172.4871854925
 20
317.6025225865
  0
LINE
  5
C7
330
1F
100
AcDbEntity
  8
0
  6
Continuous
 62
     7
100
AcDbLine
 10
182.3210675685
 20
296.8569082194
 30
0.0
 11
194.4098037542
 21
302.4939784802
 31
0.0
  0
LINE
  5
C8
330
1F
100
AcDbEntity
  8
RUNDUNGEN
  6
Continuous
 62
     7
100
AcDbLine
 10
194.4098037542
 20
333.0324535327
 30
0.0
 11
182.3210675685
 21
338.6695237935
 31
0.0
  0
LINE
  5
C9
330
1F
100
AcDbEntity
  8
0
  6
Continuous
 62
     7
100
AcDbLine
 10
182.3210675685
 20
338.6695237935
 30
0.0
 11
194.4098037542
 21
333.0324535327
 31
0.0
  0
LWPOLYLINE
  5
CA
330
1F
100
AcDbEntity
  8
GEWINDE
  6
DASHED
 62
     8
100
AcDbPolyline
 90
        2
 70
     0
 43
0.35
 10
177.5871854925
 20
311.7632160064
 10
177.5871854925
 20
296.7632160064
  0
LINE
  5
CB
330
1F
100
AcDbEntity
  8
BEZUGSACHSEN
  6
Continuous
 62
     7
100
AcDbLine
 10
134.1121854925
 20
363.7632160064
 30
0.0
 11
135.8621854925
 21
363.7632160064
 31
0.0
  0
LINE
  5
CC
330
1F
100
AcDbEntity
  8
RUNDUNGEN
  6
Continuous
 62
     9
100
AcDbLine
 10
181.8984493068
 20
296.7632160064
 30
0.0
 11
181.8984493068
 21
338.7632160064
 31
0.0
  0
LINE
  5
CD
330
1F
100
AcDbEntity
  8
RUNDUNGEN
  6
Continuous
 62
     9
100
AcDbLine
 10
182.3210675685
 20
296.8569082194
 30
0.0
 11
182.3210675685
 21
338.6695237935
 31
0.0
  0
LINE
  5
CE
330
1F
100
AcDbEntity
  8
BEZUGSACHSEN
  6
Continuous
 62
     7
100
AcDbLine
 10
131.7395902283
 20
367.7632160064
 30
0.0
 11
126.9871854925
 21
367.7632160064
 31
0.0
  0
LINE
  5
CF
330
1F
100
AcDbEntity
  8
BEZUGSACHSEN
  6
Continuous
 62
     7
100
AcDbLine
 10
116.9871854925
 20
367.7632160064
 30
0.0
 11
114.9871854925
 21
367.7632160064
 31
0.0
  0
LINE
  5
D0
330
1F
100
AcDbEntity
  8
BEZUGSACHSEN
  6
Continuous
 62
     7
100
AcDbLine
 10
138.2347807567
 20
367.7632160064
 30
0.0
 11
143.9871854925
 21
367.7632160064
 31
0.0
  0
LINE
  5
D1
330
1F
100
AcDbEntity
  8
RUNDUNGEN
  6
Continuous
 62
     9
100
AcDbLine
 10
194.4098037542
 20
302.4939784802
 30
0.0
 11
194.4098037542
 21
333.0324535327
 31
0.0
  0
LINE
  5
D2
330
1F
100
AcDbEntity
  8
RUNDUNGEN
  6
Continuous
 62
     7
100
AcDbLine
 10
194.9871854925
 20
332.1261457456
 30
0.0
 11
194.9871854925
 21
303.4002862672
 31
0.0
  0
LWPOLYLINE
  5
D3
330
1F
100
AcDbEntity
  8
BEZUGSACHSEN
  6
DOT_CENTER
 62
     7
100
AcDbPolyline
 90
        2
 70
     0
 43
0.25
 10
197.9871854925
 20
317.7632160064
 10
61.9871854925
 20
317.7632160064
  0
LWPOLYLINE
  5
D4
330
1F
100
AcDbEntity
  8
GEWINDE
  6
DASHED
 62
     8
100
AcDbPolyline
 90
        2
 70
     0
 43
0.35
 10
178.4871854925
 20
311.7632160064
 10
178.4871854925
 20
296.7632160064
  0
LWPOLYLINE
  5
D5
330
1F
100
AcDbEntity
  8
GEWINDE
  6
DASHED
 62
     8
100
AcDbPolyline
 90
        2
 70
     0
 43
0.35
 10
166.4871854925
 20
311.7632160064
 10
166.4871854925
 20
296.7632160064
  0
ARC
  5
D6
330
1F
100
AcDbEntity
  8
FASEN
  6
Continuous
 62
     7
100
AcDbCircle
 10
132.8878395154
 20
293.2944792765
 30
0.0
 40
19.03859487319976
100
AcDbArc
 50
227.4837701982999
 51
228.9651953374995
  0
ARC
  5
D7
330
1F
100
AcDbEntity
  8
FASEN
  6
Continuous
 62
     7
100
AcDbCircle
 10
127.9590594144
 20
278.2632160064
 30
0.0
 40
8.0
100
AcDbArc
 50
90.0
 51
172.8323734889971
  0
ARC
  5
D8
330
1F
100
AcDbEntity
  8
FASEN
  6
Continuous
 62
     7
100
AcDbCircle
 10
127.9590594144
 20
278.2632160064
 30
0.0
 40
7.599982194900008
100
AcDbArc
 50
90.0
 51
174.9405171273014
  0
ARC
  5
D9
330
1F
100
AcDbEntity
  8
BEZUGSACHSEN
  6
Continuous
 62
     7
100
AcDbCircle
 10
72.9871854925
 20
309.7532160064
 30
0.0
 40
2.0
100
AcDbArc
 50
270.0
 51
355.2355361864949
  0
ARC
  5
DA
330
1F
100
AcDbEntity
  8
BEZUGSACHSEN
  6
Continuous
 62
     7
100
AcDbCircle
 10
66.9871854925
 20
284.1630244434
 30
0.0
 40
2.0
100
AcDbArc
 50
179.9999999971356
 51
267.1318795137018
  0
ARC
  5
DB
330
1F
100
AcDbEntity
  8
BEZUGSACHSEN
  6
Continuous
 62
     7
100
AcDbCircle
 10
134.1121854925
 20
270.7632160064
 30
0.0
 40
1.0
100
AcDbArc
 50
90.0
 51
180.0
  0
ARC
  5
DC
330
1F
100
AcDbEntity
  8
BEZUGSACHSEN
  6
Continuous
 62
     7
100
AcDbCircle
 10
113.3652481516
 20
279.0809660064
 30
0.0
 40
1.0
100
AcDbArc
 50
90.0
 51
104.9999999996981
  0
ARC
  5
DD
330
1F
100
AcDbEntity
  8
BEZUGSACHSEN
  6
Continuous
 62
     7
100
AcDbCircle
 10
114.2866142038
 20
279.0809660064
 30
0.0
 40
0.999999999999729
100
AcDbArc
 50
45.52164291272463
 51
90.0
  0
ARC
  5
DE
330
1F
100
AcDbEntity
  8
0
  6
Continuous
 62
     7
100
AcDbCircle
 10
-109.6105943907
 20
387.1976835971
 30
0.0
 40
264.5204223909507
100
AcDbArc
 50
335.8400764706018
 51
336.5770705490999
  0
ARC
  5
DF
330
1F
100
AcDbEntity
  8
BEZUGSACHSEN
  6
Continuous
 62
     7
100
AcDbCircle
 10
122.0023935036
 20
417.8159857732
 30
0.0
 40
50.30340021035248
100
AcDbArc
 50
264.2781515101899
 51
269.9826780126002
  0
ARC
  5
E0
330
1F
100
AcDbEntity
  8
BEZUGSACHSEN
  6
Continuous
 62
     7
100
AcDbCircle
 10
121.9719774914
 20
417.8159855725
 30
0.0
 40
50.30340000969741
100
AcDbArc
 50
270.0173219760583
 51
275.7218485012679
  0
ARC
  5
E1
330
1F
100
AcDbEntity
  8
0
  6
Continuous
 62
     7
100
AcDbCircle
 10
129.9871854925
 20
317.7632160064
 30
0.0
 40
10.0
100
AcDbArc
 50
90.0
 51
270.0
  0
ARC
  5
E2
330
1F
100
AcDbEntity
  8
FASEN
  6
Continuous
 62
     7
100
AcDbCircle
 10
129.9871854925
 20
317.7632160064
 30
0.0
 40
9.599999195900011
100
AcDbArc
 50
90.0
 51
270.0
  0
ARC
  5
E3
330
1F
100
AcDbEntity
  8
BEZUGSACHSEN
  6
Continuous
 62
     7
100
AcDbCircle
 10
72.9871854925
 20
325.7732160064
 30
0.0
 40
1.999999999999977
100
AcDbArc
 50
4.76446378498881
 51
90.0
  0
ARC
  5
E4
330
1F
100
AcDbEntity
  8
BEZUGSACHSEN
  6
Continuous
 62
     7
100
AcDbCircle
 10
66.9871854925
 20
351.3634075695
 30
0.0
 40
1.999999999947485
100
AcDbArc
 50
92.86812048644158
 51
180.0000000143238
  0
ARC
  5
E5
330
1F
100
AcDbEntity
  8
BEZUGSACHSEN
  6
Continuous
 62
     7
100
AcDbCircle
 10
134.1121854925
 20
364.7632160064
 30
0.0
 40
1.0
100
AcDbArc
 50
180.0
 51
270.0
  0
ARC
  5
E6
330
1F
100
AcDbEntity
  8
BEZUGSACHSEN
  6
Continuous
 62
     7
100
AcDbCircle
 10
113.3652481516
 20
356.4454660064
 30
0.0
 40
1.000000000009914
100
AcDbArc
 50
255.0000000003019
 51
270.0
  0
ARC
  5
E7
330
1F
100
AcDbEntity
  8
BEZUGSACHSEN
  6
Continuous
 62
     7
100
AcDbCircle
 10
114.2866142038
 20
356.4454660064
 30
0.0
 40
1.0
100
AcDbArc
 50
270.0
 51
314.4783570872754
  0
ARC
  5
E8
330
1F
100
AcDbEntity
  8
BEZUGSACHSEN
  6
Continuous
 62
     7
100
AcDbCircle
 10
251.3172320949
 20
-1288.2795433213
 30
0.0
 40
1632.1727637359
100
AcDbArc
 50
96.2726189838
 51
96.48809068979999
  0
ARC
  5
E9
330
1F
100
AcDbEntity
  8
RUNDUNGEN
  6
Continuous
 62
     7
100
AcDbCircle
 10
153.9871854925
 20
286.7632160064
 30
0.0
 40
10.0
100
AcDbArc
 50
90.0
 51
180.0
  0
ARC
  5
EA
330
1F
100
AcDbEntity
  8
RUNDUNGEN
  6
Continuous
 62
     7
100
AcDbCircle
 10
193.9871854925
 20
303.4002862672
 30
0.0
 40
0.999999999949584
100
AcDbArc
 50
294.9999999987737
 51
0.0
  0
ARC
  5
EB
330
1F
100
AcDbEntity
  8
BEZUGSACHSEN
  6
Continuous
 62
     7
100
AcDbCircle
 10
135.8621854925
 20
270.7632160064
 30
0.0
 40
1.0
100
AcDbArc
 50
0.0
 51
90.0
  0
ARC
  5
EC
330
1F
100
AcDbEntity
  8
RUNDUNGEN
  6
Continuous
 62
     7
100
AcDbCircle
 10
181.8984493068
 20
297.7632160064
 30
0.0
 40
1.0
100
AcDbArc
 50
270.0
 51
294.9999999987752
  0
ARC
  5
ED
330
1F
100
AcDbEntity
  8
BEZUGSACHSEN
  6
Continuous
 62
     7
100
AcDbCircle
 10
251.3172320949
 20
1923.8059753339
 30
0.0
 40
1632.1727637357
100
AcDbArc
 50
263.5119093102
 51
263.7273810162
  0
ARC
  5
EE
330
1F
100
AcDbEntity
  8
0
  6
Continuous
 62
     7
100
AcDbCircle
 10
379.5849653754
 20
387.1976835969
 30
0.0
 40
264.5204223905999
100
AcDbArc
 50
203.4229294508999
 51
204.1599235293853
  0
ARC
  5
EF
330
1F
100
AcDbEntity
  8
RUNDUNGEN
  6
Continuous
 62
     7
100
AcDbCircle
 10
153.9871854925
 20
348.7632160064
 30
0.0
 40
10.0
100
AcDbArc
 50
180.0
 51
270.0
  0
ARC
  5
F0
330
1F
100
AcDbEntity
  8
BEZUGSACHSEN
  6
Continuous
 62
     7
100
AcDbCircle
 10
135.8621854925
 20
364.7632160064
 30
0.0
 40
1.0
100
AcDbArc
 50
270.0
 51
0.0
  0
ARC
  5
F1
330
1F
100
AcDbEntity
  8
RUNDUNGEN
  6
Continuous
 62
     7
100
AcDbCircle
 10
193.9871854925
 20
332.1261457456
 30
0.0
 40
1.0
100
AcDbArc
 50
0.0
 51
65.00000000364744
  0
ARC
  5
F2
330
1F
100
AcDbEntity
  8
RUNDUNGEN
  6
Continuous
 62
     7
100
AcDbCircle
 10
181.8984493068
 20
337.7632160064
 30
0.0
 40
1.000000000040216
100
AcDbArc
 50
65.00000000364597
 51
90.0
  0
CIRCLE
  5
F3
330
1F
100
AcDbEntity
  8
BEZUGSACHSEN
  6
Continuous
 62
     7
100
AcDbCircle
 10
99.9871854925
 20
317.7632160064
 30
0.0
 40
6.0
  0
SPLINE
  5
F4
330
1F
100
AcDbEntity
  8
0
  6
Continuous
 62
     2
100
AcDbSpline
210
0.0
220
0.0
230
1.0
 70
     8
 71
     3
 72
    57
 73
    53
 74
    51
 42
0.0000000001
 43
0.0000000001
 44
0.00000001
 40
0.0
 40
0.0
 40
0.0
 40
0.0
 40
0.0119460807619449
 40
0.0478395165521194
 40
0.1077072175260308
 40
0.1913524545468441
 40
0.2985453938474459
 40
0.4291456579997465
 40
0.5829271964796788
 40
0.7592254657495737
 40
0.9573207316057575
 40
1.176698835513881
 40
1.416667349877824
 40
1.675593775525318
 40
1.951790757943415
 40
2.244263132517444
 40
2.551898430786441
 40
2.872385372943329
 40
3.203458920635218
 40
3.544200572990095
 40
3.893708067043089
 40
4.249759822371002
 40
4.610244844124118
 40
4.974785509445737
 40
5.343056775133371
 40
5.713188991884968
 40
6.083369775045773
 40
6.453550661838976
 40
6.82368300842796
 40
7.191953519546903
 40
7.556492000843253
 40
7.916975068744163
 40
8.273026484771334
 40
8.62253332492869
 40
8.963272313567746
 40
9.294343746898738
 40
9.61483146048027
 40
9.922467602583815
 40
10.21493816962138
 40
10.49113347681949
 40
10.75006113147678
 40
10.990030998137
 40
11.20940768635373
 40
11.40750098573912
 40
11.58379926964314
 40
11.73758148942457
 40
11.86818138514263
 40
11.97537342543746
 40
12.05901797357439
 40
12.11888458892369
 40
12.15477611280958
 40
12.16672108094761
 40
12.16672108094761
 40
12.16672108094761
 40
12.16672108094761
 10
178.4871854925
 20
296.7632002279
 30
0.0
 10
178.4833574263392
 20
296.7642967910878
 30
0.0
 10
178.4680274751935
 20
296.7686881102007
 30
0.0
 10
178.4334937338244
 20
296.7785067355027
 30
0.0
 10
178.3759459954713
 20
296.7947719584659
 30
0.0
 10
178.2954563365554
 20
296.8172476635177
 30
0.0
 10
178.1921575686166
 20
296.8457033556678
 30
0.0
 10
178.0661508606858
 20
296.8797507093113
 30
0.0
 10
177.9176846261053
 20
296.9189776707907
 30
0.0
 10
177.7471662435859
 20
296.9628018524281
 30
0.0
 10
177.5551017867782
 20
297.0106137319956
 30
0.0
 10
177.3419854163189
 20
297.0616854452309
 30
0.0
 10
177.1086215910265
 20
297.1152326038967
 30
0.0
 10
176.8561979942034
 20
297.1703417540413
 30
0.0
 10
176.5860098936861
 20
297.2260530389566
 30
0.0
 10
176.2991981246342
 20
297.2814353658939
 30
0.0
 10
175.9971320909746
 20
297.3355476702962
 30
0.0
 10
175.6816339956457
 20
297.3874777135156
 30
0.0
 10
175.3544721208295
 20
297.4362720047122
 30
0.0
 10
175.0169903389628
 20
297.4811735339301
 30
0.0
 10
174.6705443539629
 20
297.5214815592195
 30
0.0
 10
174.3169225252518
 20
297.5566402592611
 30
0.0
 10
173.9577458702443
 20
297.586040127761
 30
0.0
 10
173.5940366227076
 20
297.6092965189067
 30
0.0
 10
173.2267531340737
 20
297.6261091548567
 30
0.0
 10
172.8573461387352
 20
297.6363375641612
 30
0.0
 10
172.4871762042299
 20
297.6397618024043
 30
0.0
 10
172.1170062293223
 20
297.6363372282296
 30
0.0
 10
171.747599417898
 20
297.6261084524069
 30
0.0
 10
171.3803168795184
 20
297.6092955441597
 30
0.0
 10
171.0166092756917
 20
297.5860390052111
 30
0.0
 10
170.6574341324254
 20
297.5566389585388
 30
0.0
 10
170.3038133108846
 20
297.5214800622534
 30
0.0
 10
169.9573685565852
 20
297.4811720128235
 30
0.0
 10
169.6198885845207
 20
297.4362706089933
 30
0.0
 10
169.2927280605277
 20
297.3874763122309
 30
0.0
 10
168.9772301614587
 20
297.3355461036885
 30
0.0
 10
168.67516420201
 20
297.281433750881
 30
0.0
 10
168.3883533057953
 20
297.2260515417804
 30
0.0
 10
168.1181659706619
 20
297.1703402637738
 30
0.0
 10
167.8657421066084
 20
297.1152309229681
 30
0.0
 10
167.6323779092103
 20
297.0616836494297
 30
0.0
 10
167.4192622050816
 20
297.0106120583259
 30
0.0
 10
167.2271988597228
 20
296.9628003606275
 30
0.0
 10
167.056680902045
 20
296.9189762278836
 30
0.0
 10
166.9082145650341
 20
296.8797492268006
 30
0.0
 10
166.7822080527665
 20
296.8457018978245
 30
0.0
 10
166.6789099227162
 20
296.8172463456055
 30
0.0
 10
166.5984211207239
 20
296.794770885353
 30
0.0
 10
166.5408745654946
 20
296.7785059942989
 30
0.0
 10
166.5063421580118
 20
296.768687686846
 30
0.0
 10
166.4910131969179
 20
296.764296572541
 30
0.0
 10
166.4871854925
 20
296.7632000933
 30
0.0
 11
178.4871854925
 21
296.7632002279
 31
0.0
 11
178.4757007549625
 21
296.7664880310062
 31
0.0
 11
178.441178605
 21
296.77631452045
 31
0.0
 11
178.3835659487
 21
296.7925909897834
 31
0.0
 11
178.3030049406
 21
296.8150954260167
 31
0.0
 11
178.1996590301521
 21
296.8435550294855
 31
0.0
 11
178.0735815980167
 21
296.8776271603667
 31
0.0
 11
177.924900523475
 21
296.9169043757771
 31
0.0
 11
177.7541517490833
 21
296.96078986075
 31
0.0
 11
177.5619207319812
 21
297.0086330464562
 31
0.0
 11
177.3485829243667
 21
297.0597577207
 31
0.0
 11
177.11469164955
 21
297.1134211109271
 31
0.0
 11
176.8617217202333
 21
297.1686398465167
 31
0.0
 11
176.591212927925
 21
297.2244051258646
 31
0.0
 11
176.3040434899666
 21
297.2798470215
 31
0.0
 11
176.0012286215021
 21
297.3340930552521
 31
0.0
 11
175.68499310305
 21
297.3861216720167
 31
0.0
 11
175.3575395891833
 21
297.4349467704562
 31
0.0
 11
175.0197726653167
 21
297.4798731412333
 31
0.0
 11
174.6726075579437
 21
297.5202696339271
 31
0.0
 11
174.3183001270333
 21
297.5554704417833
 31
0.0
 11
173.9590158067917
 21
297.5848681991271
 31
0.0
 11
173.5952176949
 21
297.6081239609333
 31
0.0
 11
173.2273321891417
 21
297.6249756606729
 31
0.0
 11
172.8573412242334
 21
297.63520032515
 31
0.0
 11
172.4871762392542
 21
297.6386202837604
 31
0.0
 11
172.1170111538
 21
297.6351999829333
 31
0.0
 11
171.7470200689979
 21
297.62497495685
 31
0.0
 11
171.3791353315833
 21
297.6081229736667
 31
0.0
 11
171.0153394166854
 21
297.584867078727
 31
0.0
 11
170.6560570674
 21
297.5554691921499
 31
0.0
 11
170.3017500010958
 21
297.5202681463999
 31
0.0
 11
169.9545855642666
 21
297.47987154855
 31
0.0
 11
169.6168212994271
 21
297.4349453893979
 31
0.0
 11
169.28936990405
 21
297.3861204200334
 31
0.0
 11
168.973133651975
 21
297.3340915104708
 31
0.0
 11
168.67031796755
 21
297.2798452461333
 31
0.0
 11
168.3831503180729
 21
297.2244036220854
 31
0.0
 11
168.1126431921333
 21
297.1686385565499
 31
0.0
 11
167.8596720857708
 21
297.1134194503271
 31
0.0
 11
167.6257795035334
 21
297.0597557113666
 31
0.0
 11
167.4124430840666
 21
297.0086313193207
 31
0.0
 11
167.2202139939
 21
296.9607885335
 31
0.0
 11
167.04946521845
 21
296.9169029938562
 31
0.0
 11
166.9007834908
 21
296.87762558325
 31
0.0
 11
166.7747064216688
 21
296.8435535213688
 31
0.0
 11
166.67136138465
 21
296.8150941323
 31
0.0
 11
166.5908010403791
 21
296.7925898801687
 31
0.0
 11
166.5331894347833
 21
296.77631368485
 31
0.0
 11
166.4986691455979
 21
296.7664876418312
 31
0.0
 11
166.4871854925
 21
296.7632000933
 31
0.0
  0
SPLINE
  5
F5
330
1F
100
AcDbEntity
  8
GEWINDE
  6
Continuous
 62
     7
100
AcDbSpline
210
0.0
220
0.0
230
1.0
 70
     8
 71
     3
 72
    23
 73
    19
 74
    17
 42
0.0000000001
 43
0.0000000001
 44
0.00000001
 40
0.0
 40
0.0
 40
0.0
 40
0.0
 40
0.2003095476851975
 40
0.4006254434944917
 40
0.963455055922353
 40
1.526316649173426
 40
2.358949067267592
 40
3.191631881146537
 40
4.171085939684918
 40
5.150562607536851
 40
6.130040349397753
 40
7.109495481130391
 40
7.942187560718015
 40
8.774829247287672
 40
9.337700853300069
 40
9.900540476758119
 40
10.10086012283572
 40
10.30117342052581
 40
10.30117342052581
 40
10.30117342052581
 40
10.30117342052581
 10
167.3871854925
 20
296.7632160064
 30
0.0
 10
167.4521071475525
 20
296.7788189257866
 30
0.0
 10
167.5819525151265
 20
296.8100252590408
 30
0.0
 10
167.8949865426916
 20
296.8817933834042
 30
0.0
 10
168.3273351851542
 20
296.9738906949672
 30
0.0
 10
168.9690116049502
 20
297.0940776668288
 30
0.0
 10
169.7031470642657
 20
297.2079568071589
 30
0.0
 10
170.5791053424707
 20
297.3093525179145
 30
0.0
 10
171.5076027197916
 20
297.3761202731439
 30
0.0
 10
172.4871617495937
 20
297.3998082573731
 30
0.0
 10
173.4667211997443
 20
297.3761227659699
 30
0.0
 10
174.3952225343562
 20
297.3093569265684
 30
0.0
 10
175.2711875010233
 20
297.2079620758659
 30
0.0
 10
176.0053325174177
 20
297.0940824247804
 30
0.0
 10
176.647018641543
 20
296.9738942109236
 30
0.0
 10
177.0793750812225
 20
296.8817954558964
 30
0.0
 10
177.392414817642
 20
296.8100261108035
 30
0.0
 10
177.5222626200655
 20
296.7788192097007
 30
0.0
 10
177.5871854925
 20
296.7632160064
 30
0.0
 11
167.3871854925
 21
296.7632160064
 31
0.0
 11
167.5820306924444
 21
296.8096838765089
 31
0.0
 11
167.7772632406178
 21
296.8545248203841
 31
0.0
 11
168.3277787069765
 21
296.9716140766186
 31
0.0
 11
168.8810281814637
 21
297.0751910631395
 31
0.0
 11
169.7038489770976
 21
297.2026378439301
 31
0.0
 11
170.5310291554973
 21
297.2982078234842
 31
0.0
 11
171.5079680741001
 21
297.3683548270295
 31
0.0
 11
172.4871614019888
 21
297.3919126173477
 31
0.0
 11
173.4663558631704
 21
297.368357278417
 31
0.0
 11
174.4432960158844
 21
297.298212477522
 31
0.0
 11
175.2704855769837
 21
297.2026429770719
 31
0.0
 11
176.0933156995929
 21
297.0751958604292
 31
0.0
 11
176.6465751066251
 21
296.9716175162384
 31
0.0
 11
177.1971004228023
 21
296.8545264491906
 31
0.0
 11
177.3923366378918
 21
296.8096847172638
 31
0.0
 11
177.5871854925
 21
296.7632160064
 31
0.0
  0
SPLINE
  5
F6
330
1F
100
AcDbEntity
  8
BEZUGSACHSEN
  6
Continuous
 62
     7
100
AcDbSpline
210
0.0
220
0.0
230
1.0
 70
     8
 71
     3
 72
    15
 73
    11
 74
     9
 42
0.0000000001
 43
0.0000000001
 44
0.00000001
 40
0.0
 40
0.0
 40
0.0
 40
0.0
 40
0.1110944831157731
 40
0.2222295181063448
 40
0.3333620401541302
 40
0.4444752609923981
 40
0.5555842177976422
 40
0.6667300353884159
 40
0.7779450181579689
 40
0.8889820871696911
 40
0.8889820871696911
 40
0.8889820871696911
 40
0.8889820871696911
 10
66.1330281681
 20
333.0055520019
 30
0.0
 10
66.15841352766884
 20
333.0325283675738
 30
0.0
 10
66.20919351300857
 20
333.086490945875
 30
0.0
 10
66.29144628222792
 20
333.1613729092936
 30
0.0
 10
66.37844293415948
 20
333.2306596182231
 30
0.0
 10
66.47074777458849
 20
333.2927547813165
 30
0.0
 10
66.56819779659433
 20
333.3465342734193
 30
0.0
 10
66.67061071047416
 20
333.3901245189919
 30
0.0
 10
66.77712720905784
 20
333.4231430748408
 30
0.0
 10
66.85046931177929
 20
333.4342162414533
 30
0.0
 10
66.8871110078
 20
333.4397483927
 30
0.0
 11
66.1330281681
 21
333.0055520019
 31
0.0
 11
66.21019694518627
 21
333.0854704855053
 31
0.0
 11
66.29223684540325
 21
333.1604401512025
 31
0.0
 11
66.37933399399455
 21
333.2294656838985
 31
0.0
 11
66.4716058155786
 21
333.2913693088861
 31
0.0
 11
66.56900872367407
 21
333.3448283939596
 31
0.0
 11
66.67127694707435
 21
333.3883554344112
 31
0.0
 11
66.777768815179
 21
333.4204218408206
 31
0.0
 11
66.8871110078
 21
333.4397483927
 31
0.0
  0
SPLINE
  5
F7
330
1F
100
AcDbEntity
  8
BEZUGSACHSEN
  6
Continuous
 62
     7
100
AcDbSpline
210
0.0
220
0.0
230
1.0
 70
     8
 71
     3
 72
    27
 73
    23
 74
    21
 42
0.0000000001
 43
0.0000000001
 44
0.00000001
 40
0.0
 40
0.0
 40
0.0
 40
0.0
 40
0.1260969825526134
 40
0.2522464959213915
 40
0.3668867952585352
 40
0.481582589407362
 40
0.583959600689831
 40
0.6859489161383117
 40
0.7334568410582462
 40
0.7809568848941186
 40
0.8274002264197574
 40
0.8738421606798477
 40
0.9204907318771058
 40
0.9671431399314673
 40
1.015111401819585
 40
1.063087497119542
 40
1.165500418722377
 40
1.268190478956678
 40
1.380949153899739
 40
1.493646517773711
 40
1.615655563726021
 40
1.737631867574782
 40
1.737631867574782
 40
1.737631867574782
 40
1.737631867574782
 10
64.9871854925
 20
332.3974484926
 30
0.0
 10
64.9879140339763
 20
332.4394914206611
 30
0.0
 10
64.98937142043235
 20
332.5235947914712
 30
0.0
 10
65.00281598239522
 20
332.6453421190358
 30
0.0
 10
65.02577141571994
 20
332.7617598354107
 30
0.0
 10
65.05973731607136
 20
332.8673352931966
 30
0.0
 10
65.10596307488785
 20
332.9634933554709
 30
0.0
 10
65.15450624343761
 20
333.0326627211482
 30
0.0
 10
65.19994556903072
 20
333.0802002027281
 30
0.0
 10
65.23585164713107
 20
333.1108954861799
 30
0.0
 10
65.27449907820454
 20
333.1374305218907
 30
0.0
 10
65.31545356539888
 20
333.1596588677914
 30
0.0
 10
65.35859319158523
 20
333.1774520846616
 30
0.0
 10
65.40377382620892
 20
333.1909854917181
 30
0.0
 10
65.45048104919448
 20
333.2001826170556
 30
0.0
 10
65.5163050403886
 20
333.2071379374385
 30
0.0
 10
65.60103279239053
 20
333.2052726808002
 30
0.0
 10
65.70586439589846
 20
333.188358019864
 30
0.0
 10
65.8114436382618
 20
333.1589433870065
 30
0.0
 10
65.91960157635826
 20
333.1171917495562
 30
0.0
 10
66.02725383762379
 20
333.0663959224373
 30
0.0
 10
66.0977732124376
 20
333.0258314942042
 30
0.0
 10
66.1330281681
 20
333.0055520019
 30
0.0
 11
64.9871854925
 21
332.3974484926
 31
0.0
 11
64.99131685206706
 21
332.5234777783911
 31
0.0
 11
65.00508361120495
 21
332.6488738551479
 31
0.0
 11
65.02793518731823
 21
332.7612135351424
 31
0.0
 11
65.06357337670168
 21
332.8702320870173
 31
0.0
 11
65.1084731414798
 21
332.9622378670639
 31
0.0
 11
65.16764557043417
 21
333.0453067789221
 31
0.0
 11
65.20049807061665
 21
333.0796246483483
 31
0.0
 11
65.23663516555249
 21
333.1104526313185
 31
0.0
 11
65.27492243039303
 21
333.136740828729
 31
0.0
 11
65.31574503831304
 21
333.1588850817178
 31
0.0
 11
65.35885118194814
 21
333.1767162223334
 31
0.0
 11
65.40353075401346
 21
333.1901394491188
 31
0.0
 11
65.45058155975966
 21
333.1994762487418
 31
0.0
 11
65.4982854470128
 21
333.2045796653591
 31
0.0
 11
65.60068508787244
 21
333.202930403995
 31
0.0
 11
65.70214933820758
 21
333.1871109737002
 31
0.0
 11
65.81087305466441
 21
333.1572166221479
 31
0.0
 11
65.91619104696173
 21
333.1171065695102
 31
0.0
 11
66.02648373286712
 21
333.064936360291
 31
0.0
 11
66.1330281681
 21
333.0055520019
 31
0.0
  0
SPLINE
  5
F8
330
1F
100
AcDbEntity
  8
BEZUGSACHSEN
  6
Continuous
 62
     7
100
AcDbSpline
210
0.0
220
0.0
230
1.0
 70
     8
 71
     3
 72
    47
 73
    43
 74
    41
 42
0.0000000001
 43
0.0000000001
 44
0.00000001
 40
0.0
 40
0.0
 40
0.0
 40
0.0
 40
0.6366022431821733
 40
1.273595002171233
 40
1.592921746398829
 40
1.912076344884405
 40
2.231392290413052
 40
2.550826842709705
 40
3.189774321109073
 40
3.829081696925534
 40
4.468337152440583
 40
5.107221744740106
 40
5.42617634124977
 40
5.745033356806059
 40
6.063356731575891
 40
6.381780214873392
 40
7.01705919565152
 40
7.65263934096587
 40
8.287532214203559
 40
8.922347946451422
 40
9.559226748504855
 40
10.19613435928481
 40
10.83451785496386
 40
11.4728768996909
 40
12.11234487359423
 40
12.75189588941321
 40
13.39354300512981
 40
14.03487957349516
 40
14.35615205765171
 40
14.67732107705023
 40
14.99840882465146
 40
15.31959604114202
 40
15.96011121019667
 40
16.60099592081681
 40
17.23809108070023
 40
17.87482555190986
 40
18.19205670323616
 40
18.50917199091451
 40
18.82571084620215
 40
19.14241581819772
 40
19.7733897499052
 40
20.40398930737745
 40
20.40398930737745
 40
20.40398930737745
 40
20.40398930737745
 10
93.4877698982
 20
317.763215987
 30
0.0
 10
93.4937755420867
 20
317.9754957966953
 30
0.0
 10
93.5057905139484
 20
318.4001856365209
 30
0.0
 10
93.58705585915644
 20
318.9263283976364
 30
0.0
 10
93.67977545575756
 20
319.3413027737609
 30
0.0
 10
93.7650684199016
 20
319.6491267494506
 30
0.0
 10
93.86530703334083
 20
319.9524194262237
 30
0.0
 10
94.01879258249366
 20
320.3498567887488
 30
0.0
 10
94.2472645292688
 20
320.8319563656109
 30
0.0
 10
94.57687948982577
 20
321.3807722384341
 30
0.0
 10
94.95910670692193
 20
321.8943077777828
 30
0.0
 10
95.31796140404703
 20
322.288810539886
 30
0.0
 10
95.62691475760502
 20
322.5816838379658
 30
0.0
 10
95.86880986657565
 20
322.7894056590964
 30
0.0
 10
96.12045312006657
 20
322.9849150562147
 30
0.0
 10
96.46774722723224
 20
323.2284102588539
 30
0.0
 10
96.92348756199218
 20
323.5002923288764
 30
0.0
 10
97.49896698667621
 20
323.7716214413891
 30
0.0
 10
98.09807775183312
 20
323.9854050722012
 30
0.0
 10
98.71552815427965
 20
324.1400948035733
 30
0.0
 10
99.34579871595726
 20
324.2339017872274
 30
0.0
 10
99.98339265067676
 20
324.2660285120324
 30
0.0
 10
100.6215712949141
 20
324.2355989390824
 30
0.0
 10
101.2545837161138
 20
324.1429276839224
 30
0.0
 10
101.8758174005423
 20
323.9884357226926
 30
0.0
 10
102.4799531524995
 20
323.7733985901461
 30
0.0
 10
103.060432226063
 20
323.4994752244168
 30
0.0
 10
103.5200612502843
 20
323.2243083463597
 30
0.0
 10
103.8699602389472
 20
322.9776986475025
 30
0.0
 10
104.1230918680965
 20
322.7797944551316
 30
0.0
 10
104.3660905074507
 20
322.5696159257299
 30
0.0
 10
104.6753348509553
 20
322.2740965855747
 30
0.0
 10
105.033655041749
 20
321.8766256028125
 30
0.0
 10
105.4136054600902
 20
321.3609588412771
 30
0.0
 10
105.7400784897087
 20
320.811362684842
 30
0.0
 10
105.9654496297063
 20
320.3302571431573
 30
0.0
 10
106.116540612864
 20
319.9342669555458
 30
0.0
 10
106.2149535304133
 20
319.6328406047518
 30
0.0
 10
106.2986203085834
 20
319.3271452368125
 30
0.0
 10
106.3894396660239
 20
318.9155932190687
 30
0.0
 10
106.468954641699
 20
318.3941680025266
 30
0.0
 10
106.4807269263153
 20
317.9734917133567
 30
0.0
 10
106.4866113219
 20
317.763215987
 30
0.0
 11
93.4877698982
 21
317.763215987
 31
0.0
 11
93.51901856923979
 21
318.3990508213578
 31
0.0
 11
93.61245977161342
 21
319.0291528104862
 31
0.0
 11
93.68240027864785
 21
319.3407260684124
 31
0.0
 11
93.76754161762399
 21
319.6483144461704
 31
0.0
 11
93.86776615576194
 21
319.9514937908229
 31
0.0
 11
93.982846045514
 21
320.2494787773165
 31
0.0
 11
94.2564419397583
 21
320.8268860571508
 31
0.0
 11
94.58566145343644
 21
321.3749083492036
 31
0.0
 11
94.96728570878382
 21
321.887753808515
 31
0.0
 11
95.39722034491264
 21
322.3603315597206
 31
0.0
 11
95.62869260597375
 21
322.579768628134
 31
0.0
 11
95.87059500700101
 21
322.7875016894091
 31
0.0
 11
96.12196881415552
 21
322.9827988476104
 31
0.0
 11
96.38269809244744
 21
323.1655931532019
 31
0.0
 11
96.92823173665727
 21
323.4911272166325
 31
0.0
 11
97.50314155677597
 21
323.7621268842502
 31
0.0
 11
98.10108774452077
 21
323.9755497439665
 31
0.0
 11
98.71688027672974
 21
324.1297916681799
 31
0.0
 11
99.34681255867615
 21
324.2235996031684
 31
0.0
 11
99.982915680395
 21
324.2556015282507
 31
0.0
 11
100.6205766394303
 21
324.2252372584991
 31
0.0
 11
101.2521941723576
 21
324.1327085489887
 31
0.0
 11
101.8727670444638
 21
323.9784081923659
 31
0.0
 11
102.4752678515864
 21
323.7638894769779
 31
0.0
 11
103.0555750479529
 21
323.4901111378919
 31
0.0
 11
103.6058000359988
 21
323.1606190189383
 31
0.0
 11
103.8684073401463
 21
322.9755422432896
 31
0.0
 11
104.1214277975381
 21
322.7777287271624
 31
0.0
 11
104.3642760989024
 21
322.5676762475671
 31
0.0
 11
104.5964785343095
 21
322.3457680299906
 31
0.0
 11
105.0253945920437
 21
321.8700678121992
 31
0.0
 11
105.4055052507168
 21
321.3540744988028
 31
0.0
 11
105.730944396442
 21
320.8063705594555
 31
0.0
 11
106.0010252545717
 21
320.2297536008959
 31
0.0
 11
106.1141156997559
 21
319.9333650812467
 31
0.0
 11
106.212559803095
 21
319.6319171351647
 31
0.0
 11
106.2960426084706
 21
319.3265854006308
 31
0.0
 11
106.3645920319147
 21
319.0173880270453
 31
0.0
 11
106.4560191098392
 21
318.393073048916
 31
0.0
 11
106.4866113219
 21
317.763215987
 31
0.0
  0
SPLINE
  5
F9
330
1F
100
AcDbEntity
  8
BEZUGSACHSEN
  6
Continuous
 62
     7
100
AcDbSpline
210
0.0
220
0.0
230
1.0
 70
     8
 71
     3
 72
    47
 73
    43
 74
    41
 42
0.0000000001
 43
0.0000000001
 44
0.00000001
 40
0.0
 40
0.0
 40
0.0
 40
0.0
 40
0.6302393213906023
 40
1.260854867258998
 40
1.577476088330743
 40
1.893930800152474
 40
2.210999113812967
 40
2.528183472174096
 40
3.164887038224426
 40
3.801951183352476
 40
4.442851001555296
 40
5.083381259711684
 40
5.404527292231389
 40
5.725573838680697
 40
6.046670709967165
 40
6.367871027105688
 40
7.009090242503379
 40
7.650619763911896
 40
8.290330346461852
 40
8.929958764462654
 40
9.5686470113288
 40
10.20735923010116
 40
10.84445705810273
 40
11.48152626488373
 40
12.11643462214646
 40
12.75141965571824
 40
13.38691908729495
 40
14.02211738522604
 40
14.34050449135001
 40
14.65879153785235
 40
14.97761586863354
 40
15.29653774941448
 40
15.93537694098381
 40
16.57458694062886
 40
17.21386274985482
 40
17.85277859068425
 40
18.17219860077918
 40
18.49150024072577
 40
18.81067156631547
 40
19.13001452416822
 40
19.76719627019493
 40
20.40398968278197
 40
20.40398968278197
 40
20.40398968278197
 40
20.40398968278197
 10
106.4865991303
 20
317.7632160251
 30
0.0
 10
106.4807299285545
 20
317.5530600032331
 30
0.0
 10
106.4689880214145
 20
317.1326225058235
 30
0.0
 10
106.3895412788604
 20
316.6114590635926
 30
0.0
 10
106.2988097737954
 20
316.2000675961694
 30
0.0
 10
106.2152043914996
 20
315.8944297558725
 30
0.0
 10
106.1168524501357
 20
315.5930459096674
 30
0.0
 10
105.9658336392877
 20
315.1970727300531
 30
0.0
 10
105.7405510516848
 20
314.7159659213658
 30
0.0
 10
105.414173016929
 20
314.1663316963808
 30
0.0
 10
105.0343059548985
 20
313.6506038337336
 30
0.0
 10
104.6760515156231
 20
313.253078431534
 30
0.0
 10
104.3668707779555
 20
312.9575250765972
 30
0.0
 10
104.1239458219247
 20
312.7473401681536
 30
0.0
 10
103.8708969186013
 20
312.5494307038128
 30
0.0
 10
103.5211144101441
 20
312.3028073523165
 30
0.0
 10
103.0616291723886
 20
312.0276007430193
 30
0.0
 10
102.4812334654112
 20
311.7535606363161
 30
0.0
 10
101.877079157553
 20
311.5383721590006
 30
0.0
 10
101.2556640101358
 20
311.3837103199998
 30
0.0
 10
100.6223947987065
 20
311.2908999469773
 30
0.0
 10
99.98393533428919
 20
311.2603891971567
 30
0.0
 10
99.34610232075008
 20
311.2924909395016
 30
0.0
 10
98.71567233375765
 20
311.3863040018534
 30
0.0
 10
98.0980986642642
 20
311.5410178181673
 30
0.0
 10
97.49895525284009
 20
311.7548143902596
 30
0.0
 10
96.92349803136875
 20
312.0261357586847
 30
0.0
 10
96.46781263840707
 20
312.2979806423047
 30
0.0
 10
96.12055674065667
 20
312.5414411948895
 30
0.0
 10
95.86893715935118
 20
312.7369237212196
 30
0.0
 10
95.62706210908009
 20
312.9446167799339
 30
0.0
 10
95.31812582540483
 20
313.2374543280914
 30
0.0
 10
94.95928306851371
 20
313.6319119770317
 30
0.0
 10
94.57705616326433
 20
314.14539664297
 30
0.0
 10
94.24743171800067
 20
314.6941644216731
 30
0.0
 10
94.01894427208039
 20
315.1762278381632
 30
0.0
 10
93.86544277212033
 20
315.5736373973397
 30
0.0
 10
93.76518596919706
 20
315.8769197606319
 30
0.0
 10
93.6798694762721
 20
316.184743632335
 30
0.0
 10
93.58710702091227
 20
316.5997844994419
 30
0.0
 10
93.50581465402264
 20
317.1260572985367
 30
0.0
 10
93.49377485448258
 20
317.5508729482513
 30
0.0
 10
93.4877567897
 20
317.7632160269
 30
0.0
 11
106.4865991303
 21
317.7632160251
 31
0.0
 11
106.4560595515788
 21
317.1337170685017
 31
0.0
 11
106.3647282760519
 21
316.5097502706658
 31
0.0
 11
106.2962335373654
 21
316.2006265601465
 31
0.0
 11
106.2128147125287
 21
315.8953645672665
 31
0.0
 11
106.1144279686896
 21
315.5939473080323
 31
0.0
 11
106.0013973375871
 21
315.2975860527686
 31
0.0
 11
105.7314172010747
 21
314.7209560527599
 31
0.0
 11
105.4060805792214
 21
314.1732272809314
 31
0.0
 11
105.0260440844294
 21
313.657160580205
 31
0.0
 11
104.5971935867687
 21
313.1813809439551
 31
0.0
 11
104.3650564523987
 21
312.9594640111861
 31
0.0
 11
104.1222739590624
 21
312.7493984359091
 31
0.0
 11
103.869344350764
 21
312.5515858630125
 31
0.0
 11
103.6068299549297
 21
312.3665025420199
 31
0.0
 11
103.0567717733288
 21
312.0369603155161
 31
0.0
 11
102.4766309416632
 21
311.7631049845967
 31
0.0
 11
101.8740256313403
 21
311.5484041010467
 31
0.0
 11
101.2533263610004
 21
311.3939472173748
 31
0.0
 11
100.6213975470968
 21
311.3012722431728
 31
0.0
 11
99.98341141994685
 21
311.2708255689151
 31
0.0
 11
99.34711643183653
 21
311.3027994731184
 31
0.0
 11
98.71699315773093
 21
311.3966175612412
 31
0.0
 11
98.10110924948948
 21
311.5508758955097
 31
0.0
 11
97.50307677967052
 21
311.7643311786544
 31
0.0
 11
96.92824103112379
 21
312.0352986854279
 31
0.0
 11
96.38277434358241
 21
312.3607875031731
 31
0.0
 11
96.12207205080551
 21
312.5435569313794
 31
0.0
 11
95.87072279899718
 21
312.7388264824789
 31
0.0
 11
95.62883950064762
 21
312.9465316193379
 31
0.0
 11
95.39738366934743
 21
313.1659384656257
 31
0.0
 11
94.9674606384672
 21
313.6384653962908
 31
0.0
 11
94.5858394990094
 21
314.1512565131845
 31
0.0
 11
94.25660802483037
 21
314.6992347943886
 31
0.0
 11
93.98299371768633
 21
315.2765983389504
 31
0.0
 11
93.86790146522637
 21
315.5745629614691
 31
0.0
 11
93.76766177679947
 21
315.8777222300668
 31
0.0
 11
93.68249469658224
 21
316.1853208378756
 31
0.0
 11
93.61253166910855
 21
316.496905657013
 31
0.0
 11
93.51904277216832
 21
317.1271916267272
 31
0.0
 11
93.4877567897
 21
317.7632160269
 31
0.0
  0
SPLINE
  5
FA
330
1F
100
AcDbEntity
  8
BEZUGSACHSEN
  6
Continuous
 62
     7
100
AcDbSpline
210
0.0
220
0.0
230
1.0
 70
     8
 71
     3
 72
    27
 73
    23
 74
    21
 42
0.0000000001
 43
0.0000000001
 44
0.00000001
 40
0.0
 40
0.0
 40
0.0
 40
0.0
 40
0.121976513964681
 40
0.2439857715013452
 40
0.3566831398549175
 40
0.4694418149765594
 40
0.5721317673071871
 40
0.6745445881283972
 40
0.7225206521322338
 40
0.7704888797790189
 40
0.8171412936193894
 40
0.8637898734536232
 40
0.9102318001156019
 40
0.9566751324419005
 40
1.004175175761279
 40
1.051683100130938
 40
1.153672388706785
 40
1.256049376640424
 40
1.370745138065592
 40
1.485385401852673
 40
1.611534903902705
 40
1.73763187603503
 40
1.73763187603503
 40
1.73763187603503
 40
1.73763187603503
 10
66.1330281681
 20
302.520880011
 30
0.0
 10
66.09777315049618
 20
302.5006004857274
 30
0.0
 10
66.02725365137478
 20
302.4600359913138
 30
0.0
 10
65.91960124820028
 20
302.4092401303803
 30
0.0
 10
65.81144323232013
 20
302.3674884945294
 30
0.0
 10
65.70586401134726
 20
302.338073909423
 30
0.0
 10
65.60103246620362
 20
302.3211593220466
 30
0.0
 10
65.51630479635836
 20
302.3192940987967
 30
0.0
 10
65.4504808599516
 20
302.3262494067739
 30
0.0
 10
65.40377365673314
 20
302.3354465339144
 30
0.0
 10
65.35859303943086
 20
302.3489799789306
 30
0.0
 10
65.31545342878492
 20
302.3667732377712
 30
0.0
 10
65.27449895220853
 20
302.3890015954859
 30
0.0
 10
65.23585152573762
 20
302.4155366271781
 30
0.0
 10
65.19994544710251
 20
302.4462319046834
 30
0.0
 10
65.15450612556492
 20
302.4937693777664
 30
0.0
 10
65.10596298550465
 20
302.5629387448585
 30
0.0
 10
65.05973727657653
 20
302.6590967995785
 30
0.0
 10
65.0257714027787
 20
302.7646722325671
 30
0.0
 10
65.00281597856055
 20
302.8810899234766
 30
0.0
 10
64.98937142019498
 20
303.0028372321675
 30
0.0
 10
64.98791403389887
 20
303.0869405957187
 30
0.0
 10
64.9871854925
 20
303.1289835203
 30
0.0
 11
66.1330281681
 21
302.520880011
 31
0.0
 11
66.02648354403945
 21
302.461495559813
 31
0.0
 11
65.91619065487077
 21
302.4093252854849
 31
0.0
 11
65.81087264701836
 21
302.3692152611042
 31
0.0
 11
65.7021489184753
 21
302.3393209528352
 31
0.0
 11
65.60068476635416
 21
302.3235015930503
 31
0.0
 11
65.49828522576976
 21
302.3218523639391
 31
0.0
 11
65.4505813695572
 21
302.3269557764985
 31
0.0
 11
65.40353059929576
 21
302.3362925790229
 31
0.0
 11
65.35885103186234
 21
302.3497158413348
 31
0.0
 11
65.31574489526642
 21
302.3675470215629
 31
0.0
 11
65.27492230246955
 21
302.3896912864957
 31
0.0
 11
65.2366350459234
 21
302.4159794797342
 31
0.0
 11
65.20049794891356
 21
302.4468074594773
 31
0.0
 11
65.16764544854668
 21
302.4811253279653
 31
0.0
 11
65.10847305432371
 21
302.5641942315702
 31
0.0
 11
65.06357333074911
 21
302.6562000057439
 31
0.0
 11
65.02793517116902
 21
302.7652185329337
 31
0.0
 11
65.00508360777164
 21
302.8775581792366
 31
0.0
 11
64.99131685143222
 21
303.002954244914
 31
0.0
 11
64.9871854925
 21
303.1289835203
 31
0.0
  0
SPLINE
  5
FB
330
1F
100
AcDbEntity
  8
0
  6
Continuous
 62
     7
100
AcDbSpline
210
0.0
220
0.0
230
1.0
 70
     8
 71
     3
 72
    19
 73
    15
 74
    13
 42
0.0000000001
 43
0.0000000001
 44
0.00000001
 40
0.0
 40
0.0
 40
0.0
 40
0.0
 40
0.1162460235697769
 40
0.232788171786394
 40
0.3491890045827228
 40
0.4655468550543329
 40
0.5819071369584546
 40
0.6982738488606322
 40
0.8146206072145594
 40
0.9309998277728206
 40
1.163276323411778
 40
1.396138921729308
 40
1.629013178025474
 40
1.861351539770341
 40
1.861351539770341
 40
1.861351539770341
 40
1.861351539770341
 10
134.1121854925
 20
284.2408354227
 30
0.0
 10
134.0734014216597
 20
284.2389944758121
 30
0.0
 10
133.9957344815951
 20
284.2353078924159
 30
0.0
 10
133.8821243965282
 20
284.2069024074573
 30
0.0
 10
133.7739367085861
 20
284.1630484932211
 30
0.0
 10
133.672960842634
 20
284.1044518049799
 30
0.0
 10
133.5801923859031
 20
284.0337669436736
 30
0.0
 10
133.4961050069097
 20
283.9530093386048
 30
0.0
 10
133.4208013635408
 20
283.8640416998522
 30
0.0
 10
133.332150119385
 20
283.7366822520843
 30
0.0
 10
133.2421533736452
 20
283.5638968740054
 30
0.0
 10
133.1672598544712
 20
283.3429718838351
 30
0.0
 10
133.1207229291282
 20
283.1139519642296
 30
0.0
 10
133.11502911841
 20
282.9587725713681
 30
0.0
 10
133.1121854925
 20
282.8812722532
 30
0.0
 11
134.1121854925
 21
284.2408354227
 31
0.0
 11
133.9963141409496
 21
284.231509765315
 31
0.0
 11
133.8829896162615
 21
284.2043137285601
 31
0.0
 11
133.7751164836524
 21
284.1605811190248
 31
0.0
 11
133.6743277441422
 21
284.1024366493452
 31
0.0
 11
133.5816404390947
 21
284.0320890929709
 31
0.0
 11
133.4975650734692
 21
283.9516369672447
 31
0.0
 11
133.4222663155375
 21
283.8629427440201
 31
0.0
 11
133.3556395862222
 21
283.7675226103035
 31
0.0
 11
133.2477498001137
 21
283.561823401555
 31
0.0
 11
133.1719916632619
 21
283.3416287276958
 31
0.0
 11
133.1270316494453
 21
283.1131358035097
 31
0.0
 11
133.1121854925
 21
282.8812722532
 31
0.0
  0
SPLINE
  5
FC
330
1F
100
AcDbEntity
  8
0
  6
Continuous
 62
     7
100
AcDbSpline
210
0.0
220
0.0
230
1.0
 70
     8
 71
     3
 72
    19
 73
    15
 74
    13
 42
0.0000000001
 43
0.0000000001
 44
0.00000001
 40
0.0
 40
0.0
 40
0.0
 40
0.0
 40
0.2323383481439976
 40
0.465212595775062
 40
0.6980761133579813
 40
0.9303535187931602
 40
1.046733461852028
 40
1.163080940920661
 40
1.279447997488003
 40
1.395808629590226
 40
1.512165904568445
 40
1.628566140412672
 40
1.745106920605368
 40
1.861351602868374
 40
1.861351602868374
 40
1.861351602868374
 40
1.861351602868374
 10
136.8621854925
 20
282.8812722532
 30
0.0
 10
136.859341866894
 20
282.9587725668682
 30
0.0
 10
136.8536480567239
 20
283.1139519523763
 30
0.0
 10
136.8071110808894
 20
283.3429721664225
 30
0.0
 10
136.7322173351333
 20
283.5638977283326
 30
0.0
 10
136.6422200308813
 20
283.7366837925425
 30
0.0
 10
136.5535680930696
 20
283.8640437182468
 30
0.0
 10
136.478263828712
 20
283.953011617151
 30
0.0
 10
136.3941758548953
 20
284.0337692871101
 30
0.0
 10
136.3014071210666
 20
284.1044538534919
 30
0.0
 10
136.2004313088213
 20
284.1630500776652
 30
0.0
 10
136.0922442593082
 20
284.206903328822
 30
0.0
 10
135.9786351499539
 20
284.2353080882724
 30
0.0
 10
135.9009691151618
 20
284.2389945409194
 30
0.0
 10
135.8621854925
 20
284.2408354227
 30
0.0
 11
136.8621854925
 21
282.8812722532
 31
0.0
 11
136.8473393383822
 21
283.1131357900621
 31
0.0
 11
136.8023793367936
 21
283.341628707823
 31
0.0
 11
136.7266208581112
 21
283.5618242362263
 31
0.0
 11
136.6187304469336
 21
283.7675241444704
 31
0.0
 11
136.5521031230894
 21
283.8629447442576
 31
0.0
 11
136.4768036665226
 21
283.9516393197758
 31
0.0
 11
136.3927278001921
 21
284.0320914207734
 31
0.0
 11
136.3000399742228
 21
284.1024388700542
 31
0.0
 11
136.1992515393182
 21
284.1605827160728
 31
0.0
 11
136.0913788105266
 21
284.2043147328071
 31
0.0
 11
135.9780555219727
 21
284.231510058127
 31
0.0
 11
135.8621854925
 21
284.2408354227
 31
0.0
  0
SPLINE
  5
FD
330
1F
100
AcDbEntity
  8
BEZUGSACHSEN
  6
Continuous
 62
     7
100
AcDbSpline
210
0.0
220
0.0
230
1.0
 70
     8
 71
     3
 72
    11
 73
     7
 74
     5
 42
0.0000000001
 43
0.0000000001
 44
0.00000001
 40
0.0
 40
0.0
 40
0.0
 40
0.0
 40
0.5462907431041973
 40
1.093000863589367
 40
1.646070107119357
 40
2.198197048716619
 40
2.198197048716619
 40
2.198197048716619
 40
2.198197048716619
 10
74.5410314394
 20
332.7732160064
 30
0.0
 10
74.60410224126548
 20
332.6022843771747
 30
0.0
 10
74.73029226329388
 20
332.2602898976482
 30
0.0
 10
74.86992957631982
 20
331.7290157684432
 30
0.0
 10
74.96741794033244
 20
331.1855913634824
 30
0.0
 10
74.98060005484749
 20
330.8170067229092
 30
0.0
 10
74.9871854925
 20
330.6328715322
 30
0.0
 11
74.5410314394
 21
332.7732160064
 31
0.0
 11
74.72188277202919
 21
332.2577294677905
 31
0.0
 11
74.8623742567275
 21
331.7293791119014
 31
0.0
 11
74.95444090995792
 21
331.1840266391814
 31
0.0
 11
74.9871854925
 21
330.6328715322
 31
0.0
  0
SPLINE
  5
FE
330
1F
100
AcDbEntity
  8
BEZUGSACHSEN
  6
Continuous
 62
     7
100
AcDbSpline
210
0.0
220
0.0
230
1.0
 70
     8
 71
     3
 72
    19
 73
    15
 74
    13
 42
0.0000000001
 43
0.0000000001
 44
0.00000001
 40
0.0
 40
0.0
 40
0.0
 40
0.0
 40
0.1462385987747072
 40
0.2927479274788216
 40
0.4364790706194046
 40
0.5801659236534857
 40
0.7203799973126503
 40
0.8606059383103715
 40
0.9980411884175758
 40
1.13548402042679
 40
1.405415631051011
 40
1.675815514063754
 40
1.943997429541187
 40
2.211934834793806
 40
2.211934834793806
 40
2.211934834793806
 40
2.211934834793806
 10
72.9871854925
 20
334.1218635939
 30
0.0
 10
73.03590029783877
 20
334.1251716712109
 30
0.0
 10
73.13342009370626
 20
334.1317939500402
 30
0.0
 10
73.2787563540167
 20
334.1154346372879
 30
0.0
 10
73.41941329114938
 20
334.080262871219
 30
0.0
 10
73.55226542461574
 20
334.0274571845925
 30
0.0
 10
73.67671988769246
 20
333.9597853968473
 30
0.0
 10
73.79152244486022
 20
333.8804851954521
 30
0.0
 10
73.89763238263096
 20
333.7914005558855
 30
0.0
 10
74.02673484778877
 20
333.6634530203382
 30
0.0
 10
74.16977469767136
 20
333.4876507314413
 30
0.0
 10
74.31468229936378
 20
333.2599652655455
 30
0.0
 10
74.43931904779419
 20
333.0213026460381
 30
0.0
 10
74.50713761896637
 20
332.8558864055826
 30
0.0
 10
74.5410314394
 20
332.7732160064
 30
0.0
 11
72.9871854925
 21
334.1218635939
 31
0.0
 11
73.13331935431906
 21
334.1273973269474
 31
0.0
 11
73.2790287151657
 21
334.1121079332709
 31
0.0
 11
73.41845879672495
 21
334.0772095971375
 31
0.0
 11
73.55209113366897
 21
334.0244051441272
 31
0.0
 11
73.67540492450044
 21
333.9576691310393
 31
0.0
 11
73.79093603583013
 21
333.8781966399268
 31
0.0
 11
73.89634858559299
 21
333.7900113672079
 31
0.0
 11
73.9941370892605
 21
333.6934301028696
 31
0.0
 11
74.16538548512176
 21
333.4847747379035
 31
0.0
 11
74.31172790565233
 21
333.2573984139677
 31
0.0
 11
74.43559553145909
 21
333.01953637188
 31
0.0
 11
74.5410314394
 21
332.7732160064
 31
0.0
  0
SPLINE
  5
FF
330
1F
100
AcDbEntity
  8
BEZUGSACHSEN
  6
Continuous
 62
     7
100
AcDbSpline
210
0.0
220
0.0
230
1.0
 70
     8
 71
     3
 72
    11
 73
     7
 74
     5
 42
0.0000000001
 43
0.0000000001
 44
0.00000001
 40
0.0
 40
0.0
 40
0.0
 40
0.0
 40
0.552126940619433
 40
1.105196183264977
 40
1.651906304669094
 40
2.198197048716904
 40
2.198197048716904
 40
2.198197048716904
 40
2.198197048716904
 10
74.9871854925
 20
304.8935604806
 30
0.0
 10
74.98060005487095
 20
304.7094252902173
 30
0.0
 10
74.96741794040175
 20
304.3408406502656
 30
0.0
 10
74.86992957660436
 20
303.7974162455909
 30
0.0
 10
74.73029226358082
 20
303.2661421160435
 30
0.0
 10
74.60410224136209
 20
302.9241476359251
 30
0.0
 10
74.5410314394
 20
302.7532160064
 30
0.0
 11
74.9871854925
 21
304.8935604806
 31
0.0
 11
74.9544409100732
 21
304.3424053745913
 31
0.0
 11
74.86237425712983
 21
303.7970529027198
 31
0.0
 11
74.7218827722964
 21
303.2687025459157
 31
0.0
 11
74.5410314394
 21
302.7532160064
 31
0.0
  0
SPLINE
  5
100
330
1F
100
AcDbEntity
  8
BEZUGSACHSEN
  6
Continuous
 62
     7
100
AcDbSpline
210
0.0
220
0.0
230
1.0
 70
     8
 71
     3
 72
    19
 73
    15
 74
    13
 42
0.0000000001
 43
0.0000000001
 44
0.00000001
 40
0.0
 40
0.0
 40
0.0
 40
0.0
 40
0.2679411643111204
 40
0.5361267936765799
 40
0.8065304773481003
 40
1.076465993197579
 40
1.213913376111618
 40
1.351353104847393
 40
1.491586367042099
 40
1.631807897536924
 40
1.775491562731571
 40
1.919219204701201
 40
2.065713007362089
 40
2.211936409312909
 40
2.211936409312909
 40
2.211936409312909
 40
2.211936409312909
 10
74.5410314394
 20
302.7532160064
 30
0.0
 10
74.50713719562776
 20
302.6705444266933
 30
0.0
 10
74.43931778354
 20
302.5051258391078
 30
0.0
 10
74.31467927721052
 20
302.2664598654679
 30
0.0
 10
74.16976847789776
 20
302.0387718694529
 30
0.0
 10
74.0267248463785
 20
301.8629673781364
 30
0.0
 10
73.89761845944892
 20
301.7350176590361
 30
0.0
 10
73.79150336036274
 20
301.6459306382376
 30
0.0
 10
73.67669393271544
 20
301.566628997899
 30
0.0
 10
73.55223432049863
 20
301.4989585304338
 30
0.0
 10
73.41938076538148
 20
301.4461558437305
 30
0.0
 10
73.27872996650562
 20
301.4109895797413
 30
0.0
 10
73.13340458339668
 20
301.3946373778623
 30
0.0
 10
73.03589516433581
 20
301.4012601112282
 30
0.0
 10
72.9871854925
 20
301.404568419
 30
0.0
 11
74.5410314394
 21
302.7532160064
 31
0.0
 11
74.435594179743
 21
302.5068921305609
 31
0.0
 11
74.31172466414938
 21
302.2690268852963
 31
0.0
 11
74.16537917784908
 21
302.0416480147242
 31
0.0
 11
73.99412698672312
 21
301.8329907125479
 31
0.0
 11
73.89633454802113
 21
301.736406956136
 31
0.0
 11
73.79091755874158
 21
301.6482200103549
 31
0.0
 11
73.67537891501885
 21
301.5687455513603
 31
0.0
 11
73.55205690513797
 21
301.5020090583955
 31
0.0
 11
73.41842621696829
 21
301.4492091074195
 31
0.0
 11
73.27899851577251
 21
301.4143156810269
 31
0.0
 11
73.13330407722225
 21
301.3990328542737
 31
0.0
 11
72.9871854925
 21
301.404568419
 31
0.0
  0
SPLINE
  5
101
330
1F
100
AcDbEntity
  8
BEZUGSACHSEN
  6
Continuous
 62
     7
100
AcDbSpline
210
0.0
220
0.0
230
1.0
 70
     8
 71
     3
 72
    15
 73
    11
 74
     9
 42
0.0000000001
 43
0.0000000001
 44
0.00000001
 40
0.0
 40
0.0
 40
0.0
 40
0.0
 40
0.1110371613647108
 40
0.2222522337209931
 40
0.3333980191658594
 40
0.4445069474680947
 40
0.5556201065158958
 40
0.6667525642229353
 40
0.7778876033677965
 40
0.8889820916149836
 40
0.8889820916149836
 40
0.8889820916149836
 40
0.8889820916149836
 10
66.8871110078
 20
302.0866836202
 30
0.0
 10
66.8504692809193
 20
302.0922157730121
 30
0.0
 10
66.77712711739008
 20
302.1032889426127
 30
0.0
 10
66.67061056738217
 20
302.1363075061377
 30
0.0
 10
66.56819765963662
 20
302.1798977935849
 30
0.0
 10
66.47074769400953
 20
302.233677301398
 30
0.0
 10
66.37844289827733
 20
302.2957724367621
 30
0.0
 10
66.29144627014978
 20
302.3650591104167
 30
0.0
 10
66.20919351468389
 20
302.4399410620429
 30
0.0
 10
66.15841352830176
 20
302.4939036435863
 30
0.0
 10
66.1330281681
 20
302.520880011
 30
0.0
 11
66.8871110078
 21
302.0866836202
 31
0.0
 11
66.77776872268977
 21
302.1060101794076
 31
0.0
 11
66.67127676912148
 21
302.1380766127051
 31
0.0
 11
66.56900858851432
 21
302.1816036716163
 31
0.0
 11
66.47160572205976
 21
302.2350627733194
 31
0.0
 11
66.37933395527314
 21
302.2969663690765
 31
0.0
 11
66.29223685186437
 21
302.3659918551944
 31
0.0
 11
66.21019694737784
 21
302.4409615223777
 31
0.0
 11
66.1330281681
 21
302.520880011
 31
0.0
  0
SPLINE
  5
102
330
1F
100
AcDbEntity
  8
BEZUGSACHSEN
  6
Continuous
 62
     7
100
AcDbSpline
210
0.0
220
0.0
230
1.0
 70
     8
 71
     3
 72
    11
 73
     7
 74
     5
 42
0.0000000001
 43
0.0000000001
 44
0.00000001
 40
0.0
 40
0.0
 40
0.0
 40
0.0
 40
0.914055666000336
 40
1.828030949185934
 40
2.279806974871119
 40
2.730944124762561
 40
2.730944124762561
 40
2.730944124762561
 40
2.730944124762561
 10
66.2541384193854
 20
302.753216006585
 30
0.0
 10
66.38679312634878
 20
303.0279326042515
 30
0.0
 10
66.65209087451038
 20
303.5773416407788
 30
0.0
 10
66.867446087823
 20
304.3100525618837
 30
0.0
 10
66.97114030148538
 20
304.9079977679897
 30
0.0
 10
66.98183961900648
 20
305.2091209834165
 30
0.0
 10
66.9871854925
 20
305.359576058
 30
0.0
 11
66.2541384193854
 21
302.753216006585
 31
0.0
 11
66.62894594916087
 21
303.5868928481555
 31
0.0
 11
66.88823730955873
 21
304.463316723171
 31
0.0
 11
66.96095428305736
 21
304.9092021559327
 31
0.0
 11
66.9871854925
 21
305.359576058
 31
0.0
  0
SPLINE
  5
103
330
1F
100
AcDbEntity
  8
BEZUGSACHSEN
  6
Continuous
 62
     7
100
AcDbSpline
210
0.0
220
0.0
230
1.0
 70
     8
 71
     3
 72
    11
 73
     7
 74
     5
 42
0.0000000001
 43
0.0000000001
 44
0.00000001
 40
0.0
 40
0.0
 40
0.0
 40
0.0
 40
0.8249192366724761
 40
1.650116891930992
 40
2.190492152293428
 40
2.730585915378246
 40
2.730585915378246
 40
2.730585915378246
 40
2.730585915378246
 10
66.9871854925
 20
330.1668559548
 30
0.0
 10
66.96945218816182
 20
330.442046246777
 30
0.0
 10
66.93397959431587
 20
330.9925197102377
 30
0.0
 10
66.7255447776804
 20
331.6972532953903
 30
0.0
 10
66.49531834670078
 20
332.2894670204709
 30
0.0
 10
66.33451776389882
 20
332.611994353916
 30
0.0
 10
66.2541384193854
 20
332.773216006215
 30
0.0
 11
66.9871854925
 21
330.1668559548
 31
0.0
 11
66.90361003838426
 21
330.9875306104959
 31
0.0
 11
66.68564859627247
 21
331.7834225503952
 31
0.0
 11
66.4877135177133
 21
332.286241729313
 31
0.0
 11
66.2541384193854
 21
332.773216006215
 31
0.0
  0
DIMENSION
  5
10E
330
1F
100
AcDbEntity
  8
1
100
AcDbDimension
  2
*D2
 10
205.889408472561
 20
323.7632160064
 30
0.0
 11
202.139408472561
 21
317.409974910877
 31
0.0
 70
    32
  1
<>
 71
     5
 42
-1.0
 53
90.0
  3
ME10_DIM_10
100
AcDbAlignedDimension
 13
194.9871854925
 23
311.7632160064
 33
0.0
 14
194.9871854925
 24
323.7632160064
 34
0.0
 50
90.0
100
AcDbRotatedDimension
  0
DIMENSION
  5
119
330
1F
100
AcDbEntity
  8
1
100
AcDbDimension
  2
*D3
 10
214.866397398415
 20
338.7632160064
 30
0.0
 11
211.116397398415
 21
317.837450574013
 31
0.0
 70
    32
  1
<>
 71
     5
 42
-1.0
 53
90.0
  3
ME10_DIM_11
100
AcDbAlignedDimension
 13
181.8984493068
 23
296.7632160064
 33
0.0
 14
181.8984493068
 24
338.7632160064
 34
0.0
 50
90.0
100
AcDbRotatedDimension
  0
DIMENSION
  5
124
330
1F
100
AcDbEntity
  8
1
100
AcDbDimension
  2
*D4
 10
194.9871854925
 20
375.226058350013
 30
0.0
 11
170.088321684925
 21
378.976058350013
 31
0.0
 70
    32
  1
<>
 71
     5
 42
-1.0
 53
0.00013888888889
  3
ME10_DIM_12
100
AcDbAlignedDimension
 13
143.9871854925
 23
367.7631790853
 33
0.0
 14
194.9871854925
 24
332.1261457456
 34
0.0
100
AcDbRotatedDimension
  0
DIMENSION
  5
12F
330
1F
100
AcDbEntity
  8
1
100
AcDbDimension
  2
*D5
 10
194.9871854925
 20
382.279406791756
 30
0.0
 11
156.195362633007
 21
386.029406791756
 31
0.0
 70
    32
  1
<>
 71
     5
 42
-1.0
 53
0.00013888888889
  3
ME10_DIM_13
100
AcDbAlignedDimension
 13
114.9871854925
 23
367.7632160064
 33
0.0
 14
194.9871854925
 24
332.1261457456
 34
0.0
100
AcDbRotatedDimension
  0
DIMENSION
  5
13A
330
1F
100
AcDbEntity
  8
1
100
AcDbDimension
  2
*D6
 10
194.9871854925
 20
389.807610812632
 30
0.0
 11
133.943241108469
 21
393.557610812632
 31
0.0
 70
    32
  1
<>
 71
     5
 42
-1.0
 53
0.00013888888889
  3
ME10_DIM_14
100
AcDbAlignedDimension
 13
64.9871854925
 23
351.363407569
 33
0.0
 14
194.9871854925
 24
332.1261457456
 34
0.0
100
AcDbRotatedDimension
  0
INSERT
  5
141
330
1F
100
AcDbEntity
  8
1
100
AcDbBlockReference
  2
*D7
 10
0.0
 20
0.0
 30
0.0
  0
ENDSEC
  0
SECTION
  2
OBJECTS
  0
DICTIONARY
  5
C
330
0
100
AcDbDictionary
281
     1
  3
ACAD_GROUP
350
D
  3
ACAD_LAYOUT
350
1A
  3
ACAD_MLEADERSTYLE
350
144
  3
ACAD_MLINESTYLE
350
17
  3
ACAD_PLOTSETTINGS
350
19
  3
ACAD_PLOTSTYLENAME
350
E
  3
ACAD_SCALELIST
350
4B
  3
ACAD_VISUALSTYLE
350
2A
  3
AcDbVariableDictionary
350
142
  0
DICTIONARY
  5
D
102
{ACAD_REACTORS
330
C
102
}
330
C
100
AcDbDictionary
281
     1
  0
DICTIONARY
  5
1A
102
{ACAD_REACTORS
330
C
102
}
330
C
100
AcDbDictionary
281
     1
  3
Layout1
350
1E
  3
Layout2
350
26
  3
Model
350
22
  0
DICTIONARY
  5
144
102
{ACAD_REACTORS
330
C
102
}
330
C
100
AcDbDictionary
281
     1
  0
DICTIONARY
  5
17
102
{ACAD_REACTORS
330
C
102
}
330
C
100
AcDbDictionary
281
     1
  3
Standard
350
18
  0
DICTIONARY
  5
19
102
{ACAD_REACTORS
330
C
102
}
330
C
100
AcDbDictionary
281
     1
  0
ACDBDICTIONARYWDFLT
  5
E
102
{ACAD_REACTORS
330
C
102
}
330
C
100
AcDbDictionary
281
     1
  3
Normal
350
F
100
AcDbDictionaryWithDefault
340
F
  0
DICTIONARY
  5
4B
102
{ACAD_REACTORS
330
C
102
}
330
C
100
AcDbDictionary
281
     1
  3
A0
350
4C
  3
A1
350
4D
  3
A2
350
4E
  3
A3
350
4F
  3
A4
350
50
  3
A5
350
51
  3
A6
350
52
  3
A7
350
53
  3
A8
350
54
  3
A9
350
55
  3
B0
350
56
  3
B1
350
57
  3
B2
350
58
  3
B3
350
59
  3
B4
350
5A
  3
B5
350
5B
  3
B6
350
5C
  3
B7
350
5D
  3
B8
350
5E
  3
B9
350
5F
  3
C0
350
60
  3
C1
350
61
  3
C2
350
62
  3
C3
350
63
  3
C4
350
64
  3
C5
350
65
  3
C6
350
66
  3
C7
350
67
  3
C8
350
68
  3
C9
350
69
  3
D0
350
6A
  3
D1
350
6B
  3
D2
350
6C
  0
DICTIONARY
  5
2A
102
{ACAD_REACTORS
330
C
102
}
330
C
100
AcDbDictionary
281
     1
  3
2dWireframe
350
2F
  3
3D Hidden
350
31
  3
3dWireframe
350
30
  3
Basic
350
32
  3
Brighten
350
36
  3
ColorChange
350
3A
  3
Conceptual
350
34
  3
Dim
350
35
  3
Facepattern
350
39
  3
Flat
350
2B
  3
FlatWithEdges
350
2C
  3
Gouraud
350
2D
  3
GouraudWithEdges
350
2E
  3
Linepattern
350
38
  3
Realistic
350
33
  3
Thicken
350
37
  0
DICTIONARY
  5
142
102
{ACAD_REACTORS
330
C
102
}
330
C
100
AcDbDictionary
281
     1
  3
CANNOSCALE
350
145
  0
LAYOUT
  5
1E
102
{ACAD_REACTORS
330
1A
102
}
330
1A
100
AcDbPlotSettings
  1

  2
none_device
  4

  6

 40
0.0
 41
0.0
 42
0.0
 43
0.0
 44
0.0
 45
0.0
 46
0.0
 47
0.0
 48
0.0
 49
0.0
140
0.0
141
0.0
142
1.0
143
1.0
 70
   688
 72
     0
 73
     0
 74
     5
  7

 75
    16
147
1.0
148
0.0
149
0.0
100
AcDbLayout
  1
Layout1
 70
     1
 71
     1
 10
0.0
 20
0.0
 11
12.0
 21
9.0
 12
0.0
 22
0.0
 32
0.0
 14
1.00000000000000E+20
 24
1.00000000000000E+20
 34
1.00000000000000E+20
 15
-1.00000000000000E+20
 25
-1.00000000000000E+20
 35
-1.00000000000000E+20
146
0.0
 13
0.0
 23
0.0
 33
0.0
 16
1.0
 26
0.0
 36
0.0
 17
0.0
 27
1.0
 37
0.0
 76
     0
330
1B
  0
LAYOUT
  5
26
102
{ACAD_REACTORS
330
1A
102
}
330
1A
100
AcDbPlotSettings
  1

  2
none_device
  4

  6

 40
0.0
 41
0.0
 42
0.0
 43
0.0
 44
0.0
 45
0.0
 46
0.0
 47
0.0
 48
0.0
 49
0.0
140
0.0
141
0.0
142
1.0
143
1.0
 70
   688
 72
     0
 73
     0
 74
     5
  7

 75
    16
147
1.0
148
0.0
149
0.0
100
AcDbLayout
  1
Layout2
 70
     1
 71
     2
 10
0.0
 20
0.0
 11
0.0
 21
0.0
 12
0.0
 22
0.0
 32
0.0
 14
0.0
 24
0.0
 34
0.0
 15
0.0
 25
0.0
 35
0.0
146
0.0
 13
0.0
 23
0.0
 33
0.0
 16
1.0
 26
0.0
 36
0.0
 17
0.0
 27
1.0
 37
0.0
 76
     0
330
23
  0
LAYOUT
  5
22
102
{ACAD_REACTORS
330
1A
102
}
330
1A
100
AcDbPlotSettings
  1

  2
none_device
  4

  6

 40
0.0
 41
0.0
 42
0.0
 43
0.0
 44
0.0
 45
0.0
 46
0.0
 47
0.0
 48
0.0
 49
0.0
140
0.0
141
0.0
142
1.0
143
1.0
 70
  1712
 72
     0
 73
     0
 74
     0
  7

 75
     0
147
1.0
148
0.0
149
0.0
100
AcDbLayout
  1
Model
 70
     1
 71
     0
 10
0.0
 20
0.0
 11
12.0
 21
9.0
 12
0.0
 22
0.0
 32
0.0
 14
44.0454540584371
 24
267.7632160064
 34
0.0
 15
216.866397398415
 25
395.307610812632
 35
0.0
146
0.0
 13
0.0
 23
0.0
 33
0.0
 16
1.0
 26
0.0
 36
0.0
 17
0.0
 27
1.0
 37
0.0
 76
     0
330
1F
331
29
  0
MLINESTYLE
  5
18
102
{ACAD_REACTORS
330
17
102
}
330
17
100
AcDbMlineStyle
  2
Standard
 70
     0
  3

 62
   256
 51
90.0
 52
90.0
 71
     2
 49
0.5
 62
   256
  6
BYLAYER
 49
-0.5
 62
   256
  6
BYLAYER
  0
ACDBPLACEHOLDER
  5
F
102
{ACAD_REACTORS
330
E
102
}
330
E
  0
SCALE
  5
4C
102
{ACAD_REACTORS
330
4B
102
}
330
4B
100
AcDbScale
 70
     0
300
1:1
140
1.0
141
1.0
290
     1
  0
SCALE
  5
4D
102
{ACAD_REACTORS
330
4B
102
}
330
4B
100
AcDbScale
 70
     0
300
1:2
140
1.0
141
2.0
290
     0
  0
SCALE
  5
4E
102
{ACAD_REACTORS
330
4B
102
}
330
4B
100
AcDbScale
 70
     0
300
1:4
140
1.0
141
4.0
290
     0
  0
SCALE
  5
4F
102
{ACAD_REACTORS
330
4B
102
}
330
4B
100
AcDbScale
 70
     0
300
1:5
140
1.0
141
5.0
290
     0
  0
SCALE
  5
50
102
{ACAD_REACTORS
330
4B
102
}
330
4B
100
AcDbScale
 70
     0
300
1:8
140
1.0
141
8.0
290
     0
  0
SCALE
  5
51
102
{ACAD_REACTORS
330
4B
102
}
330
4B
100
AcDbScale
 70
     0
300
1:10
140
1.0
141
10.0
290
     0
  0
SCALE
  5
52
102
{ACAD_REACTORS
330
4B
102
}
330
4B
100
AcDbScale
 70
     0
300
1:16
140
1.0
141
16.0
290
     0
  0
SCALE
  5
53
102
{ACAD_REACTORS
330
4B
102
}
330
4B
100
AcDbScale
 70
     0
300
1:20
140
1.0
141
20.0
290
     0
  0
SCALE
  5
54
102
{ACAD_REACTORS
330
4B
102
}
330
4B
100
AcDbScale
 70
     0
300
1:30
140
1.0
141
30.0
290
     0
  0
SCALE
  5
55
102
{ACAD_REACTORS
330
4B
102
}
330
4B
100
AcDbScale
 70
     0
300
1:40
140
1.0
141
40.0
290
     0
  0
SCALE
  5
56
102
{ACAD_REACTORS
330
4B
102
}
330
4B
100
AcDbScale
 70
     0
300
1:50
140
1.0
141
50.0
290
     0
  0
SCALE
  5
57
102
{ACAD_REACTORS
330
4B
102
}
330
4B
100
AcDbScale
 70
     0
300
1:100
140
1.0
141
100.0
290
     0
  0
SCALE
  5
58
102
{ACAD_REACTORS
330
4B
102
}
330
4B
100
AcDbScale
 70
     0
300
2:1
140
2.0
141
1.0
290
     0
  0
SCALE
  5
59
102
{ACAD_REACTORS
330
4B
102
}
330
4B
100
AcDbScale
 70
     0
300
4:1
140
4.0
141
1.0
290
     0
  0
SCALE
  5
5A
102
{ACAD_REACTORS
330
4B
102
}
330
4B
100
AcDbScale
 70
     0
300
8:1
140
8.0
141
1.0
290
     0
  0
SCALE
  5
5B
102
{ACAD_REACTORS
330
4B
102
}
330
4B
100
AcDbScale
 70
     0
300
10:1
140
10.0
141
1.0
290
     0
  0
SCALE
  5
5C
102
{ACAD_REACTORS
330
4B
102
}
330
4B
100
AcDbScale
 70
     0
300
100:1
140
100.0
141
1.0
290
     0
  0
SCALE
  5
5D
102
{ACAD_REACTORS
330
4B
102
}
330
4B
100
AcDbScale
 70
     0
300
1/128" = 1'-0"
140
0.0078125
141
12.0
290
     0
  0
SCALE
  5
5E
102
{ACAD_REACTORS
330
4B
102
}
330
4B
100
AcDbScale
 70
     0
300
1/64" = 1'-0"
140
0.015625
141
12.0
290
     0
  0
SCALE
  5
5F
102
{ACAD_REACTORS
330
4B
102
}
330
4B
100
AcDbScale
 70
     0
300
1/32" = 1'-0"
140
0.03125
141
12.0
290
     0
  0
SCALE
  5
60
102
{ACAD_REACTORS
330
4B
102
}
330
4B
100
AcDbScale
 70
     0
300
1/16" = 1'-0"
140
0.0625
141
12.0
290
     0
  0
SCALE
  5
61
102
{ACAD_REACTORS
330
4B
102
}
330
4B
100
AcDbScale
 70
     0
300
3/32" = 1'-0"
140
0.09375
141
12.0
290
     0
  0
SCALE
  5
62
102
{ACAD_REACTORS
330
4B
102
}
330
4B
100
AcDbScale
 70
     0
300
1/8" = 1'-0"
140
0.125
141
12.0
290
     0
  0
SCALE
  5
63
102
{ACAD_REACTORS
330
4B
102
}
330
4B
100
AcDbScale
 70
     0
300
3/16" = 1'-0"
140
0.1875
141
12.0
290
     0
  0
SCALE
  5
64
102
{ACAD_REACTORS
330
4B
102
}
330
4B
100
AcDbScale
 70
     0
300
1/4" = 1'-0"
140
0.25
141
12.0
290
     0
  0
SCALE
  5
65
102
{ACAD_REACTORS
330
4B
102
}
330
4B
100
AcDbScale
 70
     0
300
3/8" = 1'-0"
140
0.375
141
12.0
290
     0
  0
SCALE
  5
66
102
{ACAD_REACTORS
330
4B
102
}
330
4B
100
AcDbScale
 70
     0
300
1/2" = 1'-0"
140
0.5
141
12.0
290
     0
  0
SCALE
  5
67
102
{ACAD_REACTORS
330
4B
102
}
330
4B
100
AcDbScale
 70
     0
300
3/4" = 1'-0"
140
0.75
141
12.0
290
     0
  0
SCALE
  5
68
102
{ACAD_REACTORS
330
4B
102
}
330
4B
100
AcDbScale
 70
     0
300
1" = 1'-0"
140
1.0
141
12.0
290
     0
  0
SCALE
  5
69
102
{ACAD_REACTORS
330
4B
102
}
330
4B
100
AcDbScale
 70
     0
300
1-1/2" = 1'-0"
140
1.5
141
12.0
290
     0
  0
SCALE
  5
6A
102
{ACAD_REACTORS
330
4B
102
}
330
4B
100
AcDbScale
 70
     0
300
3" = 1'-0"
140
3.0
141
12.0
290
     0
  0
SCALE
  5
6B
102
{ACAD_REACTORS
330
4B
102
}
330
4B
100
AcDbScale
 70
     0
300
6" = 1'-0"
140
6.0
141
12.0
290
     0
  0
SCALE
  5
6C
102
{ACAD_REACTORS
330
4B
102
}
330
4B
100
AcDbScale
 70
     0
300
1'-0" = 1'-0"
140
12.0
141
12.0
290
     0
  0
VISUALSTYLE
  5
2F
102
{ACAD_REACTORS
330
2A
102
}
330
2A
100
AcDbVisualStyle
  2
2dWireframe
 70
     4
 71
     0
 72
     2
 73
     0
 90
        0
 40
-0.6
 41
-30.0
 62
     5
 63
     7
 74
     1
 91
        4
 64
     7
 65
   257
 75
     1
175
     1
 42
1.0
 92
        0
 66
   257
 43
1.0
 76
     1
 77
     6
 78
     2
 67
     7
 79
     5
170
     0
171
     0
290
     0
174
     0
 93
        1
 44
0.0
173
     0
291
     0
 45
0.0
1001
ACAD
1000
AcDbSavedByObjectVersion
1070
     0
  0
VISUALSTYLE
  5
31
102
{ACAD_REACTORS
330
2A
102
}
330
2A
100
AcDbVisualStyle
  2
3D Hidden
 70
     6
 71
     1
 72
     2
 73
     2
 90
        0
 40
-0.6
 41
-30.0
 62
     5
 63
     7
 74
     2
 91
        2
 64
     7
 65
   257
 75
     2
175
     1
 42
40.0
 92
        0
 66
   257
 43
1.0
 76
     1
 77
     6
 78
     2
 67
     7
 79
     3
170
     0
171
     0
290
     0
174
     0
 93
        1
 44
0.0
173
     0
291
     0
 45
0.0
1001
ACAD
1000
AcDbSavedByObjectVersion
1070
     0
  0
VISUALSTYLE
  5
30
102
{ACAD_REACTORS
330
2A
102
}
330
2A
100
AcDbVisualStyle
  2
3dWireframe
 70
     5
 71
     0
 72
     2
 73
     0
 90
        0
 40
-0.6
 41
-30.0
 62
     5
 63
     7
 74
     1
 91
        4
 64
     7
 65
   257
 75
     1
175
     1
 42
1.0
 92
        0
 66
   257
 43
1.0
 76
     1
 77
     6
 78
     2
 67
     7
 79
     5
170
     0
171
     0
290
     0
174
     0
 93
        1
 44
0.0
173
     0
291
     0
 45
0.0
1001
ACAD
1000
AcDbSavedByObjectVersion
1070
     0
  0
VISUALSTYLE
  5
32
102
{ACAD_REACTORS
330
2A
102
}
330
2A
100
AcDbVisualStyle
  2
Basic
 70
     7
 71
     1
 72
     0
 73
     1
 90
        0
 40
-0.6
 41
-30.0
 62
     5
 63
     7
 74
     0
 91
        4
 64
     7
 65
   257
 75
     1
175
     1
 42
1.0
 92
        8
 66
     7
 43
1.0
 76
     1
 77
     6
 78
     2
 67
     7
 79
     5
170
     0
171
     0
290
     0
174
     0
 93
        1
 44
0.0
173
     0
291
     1
 45
0.0
1001
ACAD
1000
AcDbSavedByObjectVersion
1070
     0
  0
VISUALSTYLE
  5
36
102
{ACAD_REACTORS
330
2A
102
}
330
2A
100
AcDbVisualStyle
  2
Brighten
 70
    12
 71
     2
 72
     2
 73
     0
 90
        0
 40
-0.6
 41
-30.0
 62
     5
 63
     7
 74
     1
 91
        4
 64
     7
 65
   257
 75
     1
175
     1
 42
1.0
 92
        8
 66
     7
 43
1.0
 76
     1
 77
     6
 78
     2
 67
     7
 79
     5
170
     0
171
     0
290
     0
174
     0
 93
        1
 44
50.0
173
     0
291
     1
 45
0.0
1001
ACAD
1000
AcDbSavedByObjectVersion
1070
     0
  0
VISUALSTYLE
  5
3A
102
{ACAD_REACTORS
330
2A
102
}
330
2A
100
AcDbVisualStyle
  2
ColorChange
 70
    16
 71
     2
 72
     2
 73
     3
 90
        0
 40
-0.6
 41
-30.0
 62
     5
 63
     8
 74
     1
 91
        4
 64
     7
 65
   257
 75
     1
175
     1
 42
1.0
 92
        8
 66
     8
 43
1.0
 76
     1
 77
     6
 78
     2
 67
     7
 79
     5
170
     0
171
     0
290
     0
174
     0
 93
        1
 44
0.0
173
     0
291
     1
 45
0.0
1001
ACAD
1000
AcDbSavedByObjectVersion
1070
     0
  0
VISUALSTYLE
  5
34
102
{ACAD_REACTORS
330
2A
102
}
330
2A
100
AcDbVisualStyle
  2
Conceptual
 70
     9
 71
     3
 72
     2
 73
     0
 90
        0
 40
-0.6
 41
-30.0
 62
     5
 63
     7
 74
     2
 91
        2
 64
     7
 65
   257
 75
     1
175
     1
 42
40.0
 92
        8
 66
     7
 43
1.0
 76
     1
 77
     6
 78
     2
 67
     7
 79
     3
170
     0
171
     0
290
     0
174
     0
 93
        1
 44
0.0
173
     0
291
     0
 45
0.0
1001
ACAD
1000
AcDbSavedByObjectVersion
1070
     0
  0
VISUALSTYLE
  5
35
102
{ACAD_REACTORS
330
2A
102
}
330
2A
100
AcDbVisualStyle
  2
Dim
 70
    11
 71
     2
 72
     2
 73
     0
 90
        0
 40
-0.6
 41
-30.0
 62
     5
 63
     7
 74
     1
 91
        4
 64
     7
 65
   257
 75
     1
175
     1
 42
1.0
 92
        8
 66
     7
 43
1.0
 76
     1
 77
     6
 78
     2
 67
     7
 79
     5
170
     0
171
     0
290
     0
174
     0
 93
        1
 44
-50.0
173
     0
291
     1
 45
0.0
1001
ACAD
1000
AcDbSavedByObjectVersion
1070
     0
  0
VISUALSTYLE
  5
39
102
{ACAD_REACTORS
330
2A
102
}
330
2A
100
AcDbVisualStyle
  2
Facepattern
 70
    15
 71
     2
 72
     2
 73
     0
 90
        0
 40
-0.6
 41
-30.0
 62
     5
 63
     7
 74
     1
 91
        4
 64
     7
 65
   257
 75
     1
175
     1
 42
1.0
 92
        8
 66
     7
 43
1.0
 76
     1
 77
     6
 78
     2
 67
     7
 79
     5
170
     0
171
     0
290
     0
174
     0
 93
        1
 44
0.0
173
     0
291
     1
 45
0.0
1001
ACAD
1000
AcDbSavedByObjectVersion
1070
     0
  0
VISUALSTYLE
  5
2B
102
{ACAD_REACTORS
330
2A
102
}
330
2A
100
AcDbVisualStyle
  2
Flat
 70
     0
 71
     2
 72
     1
 73
     1
 90
        2
 40
-0.6
 41
30.0
 62
     5
 63
     7
 74
     0
 91
        4
 64
     7
 65
   257
 75
     1
175
     1
 42
1.0
 92
        8
 66
     7
 43
1.0
 76
     1
 77
     6
 78
     2
 67
     7
 79
     5
170
     0
171
     0
290
     0
174
     0
 93
       13
 44
0.0
173
     0
291
     1
 45
0.0
1001
ACAD
1000
AcDbSavedByObjectVersion
1070
     0
  0
VISUALSTYLE
  5
2C
102
{ACAD_REACTORS
330
2A
102
}
330
2A
100
AcDbVisualStyle
  2
FlatWithEdges
 70
     1
 71
     2
 72
     1
 73
     1
 90
        2
 40
-0.6
 41
30.0
 62
     5
 63
     7
 74
     1
 91
        4
 64
     7
 65
   257
 75
     1
175
     1
 42
1.0
 92
        0
 66
   257
 43
1.0
 76
     1
 77
     6
 78
     2
 67
     7
 79
     5
170
     0
171
     0
290
     0
174
     0
 93
       13
 44
0.0
173
     0
291
     1
 45
0.0
1001
ACAD
1000
AcDbSavedByObjectVersion
1070
     0
  0
VISUALSTYLE
  5
2D
102
{ACAD_REACTORS
330
2A
102
}
330
2A
100
AcDbVisualStyle
  2
Gouraud
 70
     2
 71
     2
 72
     2
 73
     1
 90
        2
 40
-0.6
 41
30.0
 62
     5
 63
     7
 74
     0
 91
        4
 64
     7
 65
   257
 75
     1
175
     1
 42
1.0
 92
        0
 66
     7
 43
1.0
 76
     1
 77
     6
 78
     2
 67
     7
 79
     5
170
     0
171
     0
290
     0
174
     0
 93
       13
 44
0.0
173
     0
291
     1
 45
0.0
1001
ACAD
1000
AcDbSavedByObjectVersion
1070
     0
  0
VISUALSTYLE
  5
2E
102
{ACAD_REACTORS
330
2A
102
}
330
2A
100
AcDbVisualStyle
  2
GouraudWithEdges
 70
     3
 71
     2
 72
     2
 73
     1
 90
        2
 40
-0.6
 41
30.0
 62
     5
 63
     7
 74
     1
 91
        4
 64
     7
 65
   257
 75
     1
175
     1
 42
1.0
 92
        0
 66
   257
 43
1.0
 76
     1
 77
     6
 78
     2
 67
     7
 79
     5
170
     0
171
     0
290
     0
174
     0
 93
       13
 44
0.0
173
     0
291
     1
 45
0.0
1001
ACAD
1000
AcDbSavedByObjectVersion
1070
     0
  0
VISUALSTYLE
  5
38
102
{ACAD_REACTORS
330
2A
102
}
330
2A
100
AcDbVisualStyle
  2
Linepattern
 70
    14
 71
     2
 72
     2
 73
     0
 90
        0
 40
-0.6
 41
-30.0
 62
     5
 63
     7
 74
     1
 91
        4
 64
     7
 65
   257
 75
     7
175
     7
 42
1.0
 92
        8
 66
     7
 43
1.0
 76
     1
 77
     6
 78
     2
 67
     7
 79
     5
170
     0
171
     0
290
     0
174
     0
 93
        1
 44
0.0
173
     0
291
     1
 45
0.0
1001
ACAD
1000
AcDbSavedByObjectVersion
1070
     0
  0
VISUALSTYLE
  5
33
102
{ACAD_REACTORS
330
2A
102
}
330
2A
100
AcDbVisualStyle
  2
Realistic
 70
     8
 71
     2
 72
     2
 73
     0
 90
        0
 40
-0.6
 41
-30.0
 62
     5
 63
     7
 74
     1
 91
        0
 64
     7
 65
   257
 75
     1
175
     1
 42
1.0
 92
        8
 66
     8
 43
1.0
 76
     1
 77
     6
 78
     2
 67
     7
 79
     5
170
     0
171
     0
290
     0
174
     0
 93
       13
 44
0.0
173
     0
291
     0
 45
0.0
1001
ACAD
1000
AcDbSavedByObjectVersion
1070
     0
  0
VISUALSTYLE
  5
37
102
{ACAD_REACTORS
330
2A
102
}
330
2A
100
AcDbVisualStyle
  2
Thicken
 70
    13
 71
     2
 72
     2
 73
     0
 90
        0
 40
-0.6
 41
-30.0
 62
     5
 63
     7
 74
     1
 91
        4
 64
     7
 65
   257
 75
     1
175
     1
 42
1.0
 92
       12
 66
     7
 43
1.0
 76
     1
 77
     6
 78
     2
 67
     7
 79
     5
170
     0
171
     0
290
     0
174
     0
 93
        1
 44
0.0
173
     0
291
     1
 45
0.0
1001
ACAD
1000
AcDbSavedByObjectVersion
1070
     0
  0
DICTIONARYVAR
  5
145
102
{ACAD_REACTORS
330
142
102
}
330
142
100
DictionaryVariables
280
     0
  1
1:1
  0
ENDSEC
  0
EOF
