  0
SECTION
  2
HEADER
  9
$ACADVER
  1
AC1015
  9
$ACADMAINTVER
 70
     6
  9
$DWGCODEPAGE
  3
ANSI_1252
  9
$INSBASE
 10
0.0
 20
0.0
 30
0.0
  9
$EXTMIN
 10
52.2963886838517
 20
242.8111616702
 30
0.0
  9
$EXTMAX
 10
226.465584651944
 20
369.373785303857
 30
0.0
  9
$LIMMIN
 10
0.0
 20
0.0
  9
$LIMMAX
 10
12.0
 20
9.0
  9
$ORTHOMODE
 70
     0
  9
$REGENMODE
 70
     1
  9
$FILLMODE
 70
     1
  9
$QTEXTMODE
 70
     0
  9
$MIRRTEXT
 70
     1
  9
$LTSCALE
 40
1.0
  9
$ATTMODE
 70
     1
  9
$TEXTSIZE
 40
0.2
  9
$TRACEWID
 40
0.05
  9
$TEXTSTYLE
  7
Standard
  9
$CLAYER
  8
0
  9
$CELTYPE
  6
ByLayer
  9
$CECOLOR
 62
   256
  9
$CELTSCALE
 40
1.0
  9
$DISPSILH
 70
     0
  9
$DIMSCALE
 40
1.0
  9
$DIMASZ
 40
0.18
  9
$DIMEXO
 40
0.0625
  9
$DIMDLI
 40
0.38
  9
$DIMRND
 40
0.0
  9
$DIMDLE
 40
0.0
  9
$DIMEXE
 40
0.18
  9
$DIMTP
 40
0.0
  9
$DIMTM
 40
0.0
  9
$DIMTXT
 40
0.18
  9
$DIMCEN
 40
0.09
  9
$DIMTSZ
 40
0.0
  9
$DIMTOL
 70
     0
  9
$DIMLIM
 70
     0
  9
$DIMTIH
 70
     1
  9
$DIMTOH
 70
     1
  9
$DIMSE1
 70
     0
  9
$DIMSE2
 70
     0
  9
$DIMTAD
 70
     0
  9
$DIMZIN
 70
     0
  9
$DIMBLK
  1

  9
$DIMASO
 70
     1
  9
$DIMSHO
 70
     1
  9
$DIMPOST
  1

  9
$DIMAPOST
  1

  9
$DIMALT
 70
     0
  9
$DIMALTD
 70
     2
  9
$DIMALTF
 40
25.4
  9
$DIMLFAC
 40
1.0
  9
$DIMTOFL
 70
     0
  9
$DIMTVP
 40
0.0
  9
$DIMTIX
 70
     0
  9
$DIMSOXD
 70
     0
  9
$DIMSAH
 70
     0
  9
$DIMBLK1
  1

  9
$DIMBLK2
  1

  9
$DIMSTYLE
  2
Standard
  9
$DIMCLRD
 70
     0
  9
$DIMCLRE
 70
     0
  9
$DIMCLRT
 70
     0
  9
$DIMTFAC
 40
1.0
  9
$DIMGAP
 40
0.09
  9
$DIMJUST
 70
     0
  9
$DIMSD1
 70
     0
  9
$DIMSD2
 70
     0
  9
$DIMTOLJ
 70
     1
  9
$DIMTZIN
 70
     0
  9
$DIMALTZ
 70
     0
  9
$DIMALTTZ
 70
     0
  9
$DIMUPT
 70
     0
  9
$DIMDEC
 70
     4
  9
$DIMTDEC
 70
     4
  9
$DIMALTU
 70
     2
  9
$DIMALTTD
 70
     2
  9
$DIMTXSTY
  7
Standard
  9
$DIMAUNIT
 70
     0
  9
$DIMADEC
 70
     0
  9
$DIMALTRND
 40
0.0
  9
$DIMAZIN
 70
     0
  9
$DIMDSEP
 70
    46
  9
$DIMATFIT
 70
     3
  9
$DIMFRAC
 70
     0
  9
$DIMLDRBLK
  1

  9
$DIMLUNIT
 70
     2
  9
$DIMLWD
 70
    -2
  9
$DIMLWE
 70
    -2
  9
$DIMTMOVE
 70
     0
  9
$LUNITS
 70
     2
  9
$LUPREC
 70
     4
  9
$SKETCHINC
 40
0.1
  9
$FILLETRAD
 40
0.5
  9
$AUNITS
 70
     0
  9
$AUPREC
 70
     0
  9
$MENU
  1
.
  9
$ELEVATION
 40
0.0
  9
$PELEVATION
 40
0.0
  9
$THICKNESS
 40
0.0
  9
$LIMCHECK
 70
     0
  9
$CHAMFERA
 40
0.5
  9
$CHAMFERB
 40
0.5
  9
$CHAMFERC
 40
1.0
  9
$CHAMFERD
 40
0.0
  9
$SKPOLY
 70
     0
  9
$TDCREATE
 40
2456748.735409305
  9
$TDUCREATE
 40
2456748.652075972
  9
$TDUPDATE
 40
2456748.735409317
  9
$TDUUPDATE
 40
2456748.652075984
  9
$TDINDWG
 40
0.0000000116
  9
$TDUSRTIMER
 40
0.0000000116
  9
$USRTIMER
 70
     1
  9
$ANGBASE
 50
0.0
  9
$ANGDIR
 70
     0
  9
$PDMODE
 70
     0
  9
$PDSIZE
 40
0.0
  9
$PLINEWID
 40
0.0
  9
$SPLFRAME
 70
     0
  9
$SPLINETYPE
 70
     6
  9
$SPLINESEGS
 70
     8
  9
$HANDSEED
  5
146
  9
$SURFTAB1
 70
     6
  9
$SURFTAB2
 70
     6
  9
$SURFTYPE
 70
     6
  9
$SURFU
 70
     6
  9
$SURFV
 70
     6
  9
$UCSBASE
  2

  9
$UCSNAME
  2

  9
$UCSORG
 10
0.0
 20
0.0
 30
0.0
  9
$UCSXDIR
 10
1.0
 20
0.0
 30
0.0
  9
$UCSYDIR
 10
0.0
 20
1.0
 30
0.0
  9
$UCSORTHOREF
  2

  9
$UCSORTHOVIEW
 70
     0
  9
$UCSORGTOP
 10
0.0
 20
0.0
 30
0.0
  9
$UCSORGBOTTOM
 10
0.0
 20
0.0
 30
0.0
  9
$UCSORGLEFT
 10
0.0
 20
0.0
 30
0.0
  9
$UCSORGRIGHT
 10
0.0
 20
0.0
 30
0.0
  9
$UCSORGFRONT
 10
0.0
 20
0.0
 30
0.0
  9
$UCSORGBACK
 10
0.0
 20
0.0
 30
0.0
  9
$PUCSBASE
  2

  9
$PUCSNAME
  2

  9
$PUCSORG
 10
0.0
 20
0.0
 30
0.0
  9
$PUCSXDIR
 10
1.0
 20
0.0
 30
0.0
  9
$PUCSYDIR
 10
0.0
 20
1.0
 30
0.0
  9
$PUCSORTHOREF
  2

  9
$PUCSORTHOVIEW
 70
     0
  9
$PUCSORGTOP
 10
0.0
 20
0.0
 30
0.0
  9
$PUCSORGBOTTOM
 10
0.0
 20
0.0
 30
0.0
  9
$PUCSORGLEFT
 10
0.0
 20
0.0
 30
0.0
  9
$PUCSORGRIGHT
 10
0.0
 20
0.0
 30
0.0
  9
$PUCSORGFRONT
 10
0.0
 20
0.0
 30
0.0
  9
$PUCSORGBACK
 10
0.0
 20
0.0
 30
0.0
  9
$USERI1
 70
     0
  9
$USERI2
 70
     0
  9
$USERI3
 70
     0
  9
$USERI4
 70
     0
  9
$USERI5
 70
     0
  9
$USERR1
 40
16.5
  9
$USERR2
 40
0.0
  9
$USERR3
 40
0.0
  9
$USERR4
 40
0.0
  9
$USERR5
 40
0.0
  9
$WORLDVIEW
 70
     1
  9
$SHADEDGE
 70
     3
  9
$SHADEDIF
 70
    70
  9
$TILEMODE
 70
     1
  9
$MAXACTVP
 70
    64
  9
$PINSBASE
 10
0.0
 20
0.0
 30
0.0
  9
$PLIMCHECK
 70
     0
  9
$PEXTMIN
 10
1.00000000000000E+20
 20
1.00000000000000E+20
 30
1.00000000000000E+20
  9
$PEXTMAX
 10
-1.00000000000000E+20
 20
-1.00000000000000E+20
 30
-1.00000000000000E+20
  9
$PLIMMIN
 10
0.0
 20
0.0
  9
$PLIMMAX
 10
12.0
 20
9.0
  9
$UNITMODE
 70
     0
  9
$VISRETAIN
 70
     1
  9
$PLINEGEN
 70
     0
  9
$PSLTSCALE
 70
     1
  9
$TREEDEPTH
 70
  3020
  9
$CMLSTYLE
  2
Standard
  9
$CMLJUST
 70
     0
  9
$CMLSCALE
 40
1.0
  9
$PROXYGRAPHICS
 70
     1
  9
$MEASUREMENT
 70
     1
  9
$CELWEIGHT
370
    -1
  9
$ENDCAPS
280
     0
  9
$JOINSTYLE
280
     0
  9
$LWDISPLAY
290
     0
  9
$INSUNITS
 70
     1
  9
$HYPERLINKBASE
  1

  9
$STYLESHEET
  1

  9
$XEDIT
290
     1
  9
$CEPSNTYPE
380
     0
  9
$PSTYLEMODE
290
     1
  9
$FINGERPRINTGUID
  2
{E32860B3-7D2E-4641-9798-2A50E4CE59AB}
  9
$VERSIONGUID
  2
{FAEB1C32-E019-11D5-929B-00C0DF256EC4}
  9
$EXTNAMES
290
     1
  9
$PSVPSCALE
 40
0.0
  9
$OLESTARTUP
290
     0
  0
ENDSEC
  0
SECTION
  2
CLASSES
  0
CLASS
  1
ACDBDICTIONARYWDFLT
  2
AcDbDictionaryWithDefault
  3
ObjectDBX Classes
 90
        0
280
     0
281
     0
  0
CLASS
  1
VISUALSTYLE
  2
AcDbVisualStyle
  3
ObjectDBX Classes
 90
     4095
280
     0
281
     0
  0
CLASS
  1
SCALE
  2
AcDbScale
  3
ObjectDBX Classes
 90
     1153
280
     0
281
     0
  0
CLASS
  1

  2
exOdDbPolyline
  3

 90
        0
280
     0
281
     1
  0
CLASS
  1

  2
exOdDbCircle
  3

 90
        0
280
     0
281
     1
  0
CLASS
  1

  2
exOdDbSpline
  3

 90
        0
280
     0
281
     1
  0
CLASS
  1
DICTIONARYVAR
  2
AcDbDictionaryVar
  3
ObjectDBX Classes
 90
        0
280
     0
281
     0
  0
CLASS
  1
ACDBPLACEHOLDER
  2
AcDbPlaceHolder
  3
ObjectDBX Classes
 90
        0
280
     0
281
     0
  0
CLASS
  1
LAYOUT
  2
AcDbLayout
  3
ObjectDBX Classes
 90
        0
280
     0
281
     0
  0
ENDSEC
  0
SECTION
  2
TABLES
  0
TABLE
  2
VPORT
  5
8
330
0
100
AcDbSymbolTable
 70
     1
  0
VPORT
  5
29
330
8
100
AcDbSymbolTableRecord
100
AcDbViewportTableRecord
  2
*Active
 70
     0
 10
0.0
 20
0.0
 11
1.0
 21
1.0
 12
139.3809866678978
 22
306.0924734870285
 13
0.0
 23
0.0
 14
0.5
 24
0.5
 15
0.5
 25
0.5
 16
0.0
 26
0.0
 36
1.0
 17
0.0
 27
0.0
 37
0.0
 40
139.2188859970227
 41
1.60267857142857
 42
50.0
 43
0.0
 44
0.0
 50
0.0
 51
0.0
 71
     0
 72
   100
 73
     1
 74
     3
 75
     0
 76
     0
 77
     0
 78
     0
281
     0
 65
     1
110
0.0
120
0.0
130
0.0
111
1.0
121
0.0
131
0.0
112
0.0
122
1.0
132
0.0
 79
     0
146
0.0
  0
ENDTAB
  0
TABLE
  2
LTYPE
  5
5
330
0
100
AcDbSymbolTable
 70
     8
  0
LTYPE
  5
14
330
5
100
AcDbSymbolTableRecord
100
AcDbLinetypeTableRecord
  2
ByBlock
 70
     0
  3

 72
    65
 73
     0
 40
0.0
  0
LTYPE
  5
15
330
5
100
AcDbSymbolTableRecord
100
AcDbLinetypeTableRecord
  2
ByLayer
 70
     0
  3

 72
    65
 73
     0
 40
0.0
  0
LTYPE
  5
16
330
5
100
AcDbSymbolTableRecord
100
AcDbLinetypeTableRecord
  2
Continuous
 70
     0
  3
Solid line
 72
    65
 73
     0
 40
0.0
  0
LTYPE
  5
3B
330
5
100
AcDbSymbolTableRecord
100
AcDbLinetypeTableRecord
  2
DASHED
 70
     0
  3
Dashed
 72
    65
 73
     2
 40
15.0
 49
7.0
 74
     0
 49
-8.0
 74
     0
  0
LTYPE
  5
3C
330
5
100
AcDbSymbolTableRecord
100
AcDbLinetypeTableRecord
  2
DOTTED
 70
     0
  3
Dotted
 72
    65
 73
     2
 40
1.0
 49
0.0
 74
     0
 49
-1.0
 74
     0
  0
LTYPE
  5
3D
330
5
100
AcDbSymbolTableRecord
100
AcDbLinetypeTableRecord
  2
DOT_CENTER
 70
     0
  3
Dot_Center
 72
    65
 73
     4
 40
14.0
 49
12.0
 74
     0
 49
-1.0
 74
     0
 49
0.0
 74
     0
 49
-1.0
 74
     0
  0
LTYPE
  5
3E
330
5
100
AcDbSymbolTableRecord
100
AcDbLinetypeTableRecord
  2
LONG_DASHED
 70
     0
  3
Long_Dashed
 72
    65
 73
     2
 40
15.0
 49
10.0
 74
     0
 49
-5.0
 74
     0
  0
LTYPE
  5
3F
330
5
100
AcDbSymbolTableRecord
100
AcDbLinetypeTableRecord
  2
DASH_CENTER
 70
     0
  3
Dash_Center
 72
    65
 73
     4
 40
14.0
 49
11.0
 74
     0
 49
-1.0
 74
     0
 49
1.0
 74
     0
 49
-1.0
 74
     0
  0
LTYPE
  5
40
330
5
100
AcDbSymbolTableRecord
100
AcDbLinetypeTableRecord
  2
PHANTOM
 70
     0
  3
Phantom
 72
    65
 73
     6
 40
13.0
 49
10.0
 74
     0
 49
-1.0
 74
     0
 49
0.0
 74
     0
 49
-1.0
 74
     0
 49
0.0
 74
     0
 49
-1.0
 74
     0
  0
LTYPE
  5
41
330
5
100
AcDbSymbolTableRecord
100
AcDbLinetypeTableRecord
  2
CENTER_DASH_DASH
 70
     0
  3
Center_Dash_Dash
 72
    65
 73
     6
 40
14.0
 49
9.0
 74
     0
 49
-1.0
 74
     0
 49
1.0
 74
     0
 49
-1.0
 74
     0
 49
1.0
 74
     0
 49
-1.0
 74
     0
  0
ENDTAB
  0
TABLE
  2
LAYER
  5
2
330
0
100
AcDbSymbolTable
 70
     7
  0
LAYER
  5
10
330
2
100
AcDbSymbolTableRecord
100
AcDbLayerTableRecord
  2
0
 70
     0
 62
     7
  6
Continuous
370
    -3
390
F
  0
LAYER
  5
42
330
2
100
AcDbSymbolTableRecord
100
AcDbLayerTableRecord
  2
1
 70
     0
 62
     7
  6
Continuous
370
    -3
390
F
  0
LAYER
  5
43
330
2
100
AcDbSymbolTableRecord
100
AcDbLayerTableRecord
  2
BEZUGSACHSEN
 70
     0
 62
     7
  6
Continuous
370
    -3
390
F
  0
LAYER
  5
44
330
2
100
AcDbSymbolTableRecord
100
AcDbLayerTableRecord
  2
DEFAULT_2
 70
     0
 62
     7
  6
Continuous
370
    -3
390
F
  0
LAYER
  5
45
330
2
100
AcDbSymbolTableRecord
100
AcDbLayerTableRecord
  2
FASEN
 70
     0
 62
     7
  6
Continuous
370
    -3
390
F
  0
LAYER
  5
46
330
2
100
AcDbSymbolTableRecord
100
AcDbLayerTableRecord
  2
GEWINDE
 70
     0
 62
     7
  6
Continuous
370
    -3
390
F
  0
LAYER
  5
47
330
2
100
AcDbSymbolTableRecord
100
AcDbLayerTableRecord
  2
RUNDUNGEN
 70
     0
 62
     7
  6
Continuous
370
    -3
390
F
  0
ENDTAB
  0
TABLE
  2
STYLE
  5
3
330
0
100
AcDbSymbolTable
 70
     2
  0
STYLE
  5
11
330
3
100
AcDbSymbolTableRecord
100
AcDbTextStyleTableRecord
  2
Standard
 70
     0
 40
0.0
 41
1.0
 50
0.0
 71
     0
 42
0.2
  3
txt
  4

  0
STYLE
  5
6E
330
3
100
AcDbSymbolTableRecord
100
AcDbTextStyleTableRecord
  2
CONVERTER_11
 70
     0
 40
0.0
 41
0.72
 50
0.0
 71
     0
 42
0.2
  3
txt.shx
  4

  0
ENDTAB
  0
TABLE
  2
VIEW
  5
6
330
0
100
AcDbSymbolTable
 70
     0
  0
ENDTAB
  0
TABLE
  2
UCS
  5
7
330
0
100
AcDbSymbolTable
 70
     0
  0
ENDTAB
  0
TABLE
  2
APPID
  5
9
330
0
100
AcDbSymbolTable
 70
     1
  0
APPID
  5
12
330
9
100
AcDbSymbolTableRecord
100
AcDbRegAppTableRecord
  2
ACAD
 70
     0
  0
ENDTAB
  0
TABLE
  2
DIMSTYLE
  5
A
330
0
100
AcDbSymbolTable
 70
     6
100
AcDbDimStyleTable
  0
DIMSTYLE
105
27
330
A
100
AcDbSymbolTableRecord
100
AcDbDimStyleTableRecord
  2
Standard
 70
     0
340
11
  0
DIMSTYLE
105
10D
102
{ACAD_REACTORS
330
10E
102
}
330
A
100
AcDbSymbolTableRecord
100
AcDbDimStyleTableRecord
  2
ME10_DIM_10
 70
     0
  3
\U+2300<>
 41
3.5
 42
2.0
 44
2.0
 71
     1
 73
     0
 74
     0
 77
     1
 78
     8
140
3.5
146
0.7
147
2.0
172
     1
173
     1
176
     2
177
     2
178
     3
271
     2
272
     0
340
6E
  0
DIMSTYLE
105
118
102
{ACAD_REACTORS
330
119
102
}
330
A
100
AcDbSymbolTableRecord
100
AcDbDimStyleTableRecord
  2
ME10_DIM_11
 70
     0
  3
\U+2300<>
 41
3.5
 42
2.0
 44
2.0
 71
     1
 73
     0
 74
     0
 77
     1
 78
     8
140
3.5
146
0.7
147
2.0
172
     1
173
     1
176
     2
177
     2
178
     3
271
     2
272
     0
340
6E
  0
DIMSTYLE
105
123
102
{ACAD_REACTORS
330
124
102
}
330
A
100
AcDbSymbolTableRecord
100
AcDbDimStyleTableRecord
  2
ME10_DIM_12
 70
     0
  3
<>
 41
3.5
 42
2.0
 44
2.0
 71
     1
 73
     0
 74
     0
 77
     1
 78
     8
140
3.5
146
0.7
147
2.0
172
     1
173
     1
176
     2
177
     2
178
     3
271
     2
272
     0
340
6E
  0
DIMSTYLE
105
12E
102
{ACAD_REACTORS
330
12F
102
}
330
A
100
AcDbSymbolTableRecord
100
AcDbDimStyleTableRecord
  2
ME10_DIM_13
 70
     0
  3
<>
 41
3.5
 42
2.0
 44
2.0
 71
     1
 73
     0
 74
     0
 77
     1
 78
     8
140
3.5
146
0.7
147
2.0
172
     1
173
     1
176
     2
177
     2
178
     3
271
     2
272
     0
340
6E
  0
DIMSTYLE
105
139
102
{ACAD_REACTORS
330
13A
102
}
330
A
100
AcDbSymbolTableRecord
100
AcDbDimStyleTableRecord
  2
ME10_DIM_14
 70
     0
  3
<>
 41
3.5
 42
2.0
 44
2.0
 71
     1
 73
     0
 74
     0
 77
     1
 78
     8
140
3.5
146
0.7
147
2.0
172
     1
173
     1
176
     2
177
     2
178
     3
271
     2
272
     0
340
6E
  0
ENDTAB
  0
TABLE
  2
BLOCK_RECORD
  5
1
330
0
100
AcDbSymbolTable
 70
     8
  0
BLOCK_RECORD
  5
1F
330
1
100
AcDbSymbolTableRecord
100
AcDbBlockTableRecord
  2
*Model_Space
340
22
  0
BLOCK_RECORD
  5
1B
330
1
100
AcDbSymbolTableRecord
100
AcDbBlockTableRecord
  2
*Paper_Space
340
1E
  0
BLOCK_RECORD
  5
23
330
1
100
AcDbSymbolTableRecord
100
AcDbBlockTableRecord
  2
*Paper_Space0
340
26
  0
BLOCK_RECORD
  5
48
330
1
100
AcDbSymbolTableRecord
100
AcDbBlockTableRecord
  2
Urheberrecht_DE-EN
340
0
102
{BLKREFS
331
6D
102
}
  0
BLOCK_RECORD
  5
104
330
1
100
AcDbSymbolTableRecord
100
AcDbBlockTableRecord
  2
*D2
340
0
  0
BLOCK_RECORD
  5
10F
330
1
100
AcDbSymbolTableRecord
100
AcDbBlockTableRecord
  2
*D3
340
0
  0
BLOCK_RECORD
  5
11A
330
1
100
AcDbSymbolTableRecord
100
AcDbBlockTableRecord
  2
*D4
340
0
  0
BLOCK_RECORD
  5
125
330
1
100
AcDbSymbolTableRecord
100
AcDbBlockTableRecord
  2
*D5
340
0
  0
BLOCK_RECORD
  5
130
330
1
100
AcDbSymbolTableRecord
100
AcDbBlockTableRecord
  2
*D6
340
0
  0
BLOCK_RECORD
  5
13B
330
1
100
AcDbSymbolTableRecord
100
AcDbBlockTableRecord
  2
*D7
340
0
102
{BLKREFS
331
141
102
}
  0
ENDTAB
  0
ENDSEC
  0
SECTION
  2
BLOCKS
  0
BLOCK
  5
20
330
1F
100
AcDbEntity
  8
0
100
AcDbBlockBegin
  2
*Model_Space
 70
     0
 10
0.0
 20
0.0
 30
0.0
  3
*Model_Space
  1

  0
ENDBLK
  5
21
330
1F
100
AcDbEntity
  8
0
100
AcDbBlockEnd
  0
BLOCK
  5
1C
330
1B
100
AcDbEntity
 67
     1
  8
0
100
AcDbBlockBegin
  2
*Paper_Space
 70
     0
 10
0.0
 20
0.0
 30
0.0
  3
*Paper_Space
  1

  0
ENDBLK
  5
1D
330
1B
100
AcDbEntity
 67
     1
  8
0
100
AcDbBlockEnd
  0
BLOCK
  5
24
330
23
100
AcDbEntity
  8
0
100
AcDbBlockBegin
  2
*Paper_Space0
 70
     0
 10
0.0
 20
0.0
 30
0.0
  3
*Paper_Space0
  1

  0
ENDBLK
  5
25
330
23
100
AcDbEntity
  8
0
100
AcDbBlockEnd
  0
BLOCK
  5
49
330
48
100
AcDbEntity
  8
0
100
AcDbBlockBegin
  2
Urheberrecht_DE-EN
 70
     0
 10
66.2963886838517
 20
303.934909669168
 30
0.0
  3
Urheberrecht_DE-EN
  1

  0
MTEXT
  5
6F
330
48
100
AcDbEntity
  8
1
 62
     1
100
AcDbMText
 10
66.2963886838517
 20
303.934909669168
 30
0.0
 40
2.0
 41
0.0
 71
     7
 72
     1
  1
We own the copyright of this document. It \Pdetermined and may neither be copied or \Pmade accessible to outsiders without our\Ppermission.
  7
CONVERTER_11
 11
0.0
 21
1.0
 31
0.0
 73
     1
 44
0.90036014405762
  0
MTEXT
  5
70
330
48
100
AcDbEntity
  8
1
 62
     1
100
AcDbMText
 10
66.2963886838517
 20
247.6455227518618
 30
0.0
 40
2.0
 41
0.0
 71
     7
 72
     1
  1
F\U+00fcr diese Unterlage behalten wir das Ur-\Pheberrecht. Sie darf nur f\U+00fcr den von uns \Pbestimmten Zweck benutzt und ohne unsere \PZustimmung weder vervielf\U+00e4ltigt noch\PDritten zug\U+00e4nglich gemacht werden.
  7
CONVERTER_11
 11
0.0
 21
1.0
 31
0.0
 73
     1
 44
0.90036014405762
  0
ENDBLK
  5
4A
330
48
100
AcDbEntity
  8
0
100
AcDbBlockEnd
  0
BLOCK
  5
10B
330
104
100
AcDbEntity
  8
0
100
AcDbBlockBegin
  2
*D2
 70
     1
 10
0.0
 20
0.0
 30
0.0
  3
*D2
  1

  0
LINE
  5
105
330
104
100
AcDbEntity
  8
1
  6
Continuous
 62
     2
100
AcDbLine
 10
215.206714892992
 20
297.8111616702
 30
0.0
 11
215.206714892992
 21
287.8111616702
 31
0.0
  0
LINE
  5
106
330
104
100
AcDbEntity
  8
1
  6
Continuous
 62
     2
100
AcDbLine
 10
206.377743576
 20
297.8111616702
 30
0.0
 11
217.206714892992
 21
297.8111616702
 31
0.0
  0
LINE
  5
107
330
104
100
AcDbEntity
  8
1
  6
Continuous
 62
     2
100
AcDbLine
 10
206.377743576
 20
287.8111616702
 30
0.0
 11
217.206714892992
 21
287.8111616702
 31
0.0
  0
SOLID
  5
108
330
104
100
AcDbEntity
  8
1
 62
     2
100
AcDbTrace
 10
215.6674986345479
 20
294.3111616702
 30
0.0
 11
214.7459311514361
 21
294.3111616702
 31
0.0
 12
215.206714892992
 22
297.8111616702
 32
0.0
 13
215.206714892992
 23
297.8111616702
 33
0.0
  0
SOLID
  5
109
330
104
100
AcDbEntity
  8
1
 62
     2
100
AcDbTrace
 10
214.7459311514361
 20
291.3111616702
 30
0.0
 11
215.6674986345479
 21
291.3111616702
 31
0.0
 12
215.206714892992
 22
287.8111616702
 32
0.0
 13
215.206714892992
 23
287.8111616702
 33
0.0
  0
MTEXT
  5
10A
330
104
100
AcDbEntity
  8
1
 62
     3
100
AcDbMText
 10
213.206714892992
 20
284.649451956928
 30
0.0
 40
3.5
 41
0.0
 71
     7
 72
     1
  1
\C3;%%c\C3;\C3;10\C2;\H2.45;\S^ ;\C3;
  7
CONVERTER_11
 11
0.0
 21
1.0
 31
0.0
 73
     1
 44
0.60024009603842
  0
ENDBLK
  5
10C
330
104
100
AcDbEntity
  8
0
100
AcDbBlockEnd
  0
BLOCK
  5
116
330
10F
100
AcDbEntity
  8
0
100
AcDbBlockBegin
  2
*D3
 70
     1
 10
0.0
 20
0.0
 30
0.0
  3
*D3
  1

  0
LINE
  5
110
330
10F
100
AcDbEntity
  8
1
  6
Continuous
 62
     2
100
AcDbLine
 10
224.465584651944
 20
310.3111616702
 30
0.0
 11
224.465584651944
 21
275.3111616702
 31
0.0
  0
LINE
  5
111
330
10F
100
AcDbEntity
  8
1
  6
Continuous
 62
     2
100
AcDbLine
 10
195.4335143108
 20
310.3111616702
 30
0.0
 11
226.465584651944
 21
310.3111616702
 31
0.0
  0
LINE
  5
112
330
10F
100
AcDbEntity
  8
1
  6
Continuous
 62
     2
100
AcDbLine
 10
195.4335143108
 20
275.3111616702
 30
0.0
 11
226.465584651944
 21
275.3111616702
 31
0.0
  0
SOLID
  5
113
330
10F
100
AcDbEntity
  8
1
 62
     2
100
AcDbTrace
 10
224.9263683934999
 20
306.8111616702
 30
0.0
 11
224.0048009103881
 21
306.8111616702
 31
0.0
 12
224.465584651944
 22
310.3111616702
 32
0.0
 13
224.465584651944
 23
310.3111616702
 33
0.0
  0
SOLID
  5
114
330
10F
100
AcDbEntity
  8
1
 62
     2
100
AcDbTrace
 10
224.0048009103881
 20
278.8111616702
 30
0.0
 11
224.9263683934999
 21
278.8111616702
 31
0.0
 12
224.465584651944
 22
275.3111616702
 32
0.0
 13
224.465584651944
 23
275.3111616702
 33
0.0
  0
MTEXT
  5
115
330
10F
100
AcDbEntity
  8
1
 62
     3
100
AcDbMText
 10
222.465584651944
 20
283.760648424829
 30
0.0
 40
3.5
 41
0.0
 71
     7
 72
     1
  1
\C3;%%c\C3;\C3;35\C2;\H2.45;\S^ ;\C3;
  7
CONVERTER_11
 11
0.0
 21
1.0
 31
0.0
 73
     1
 44
0.60024009603842
  0
ENDBLK
  5
117
330
10F
100
AcDbEntity
  8
0
100
AcDbBlockEnd
  0
BLOCK
  5
121
330
11A
100
AcDbEntity
  8
0
100
AcDbBlockBegin
  2
*D4
 70
     1
 10
0.0
 20
0.0
 30
0.0
  3
*D4
  1

  0
LINE
  5
11B
330
11A
100
AcDbEntity
  8
1
  6
Continuous
 62
     2
100
AcDbLine
 10
204.377743576
 20
350.395683756015
 30
0.0
 11
153.377743576
 21
350.395683756015
 31
0.0
  0
LINE
  5
11C
330
11A
100
AcDbEntity
  8
1
  6
Continuous
 62
     2
100
AcDbLine
 10
204.377743576
 20
306.6740914094
 30
0.0
 11
204.377743576
 21
352.395683756015
 31
0.0
  0
LINE
  5
11D
330
11A
100
AcDbEntity
  8
1
  6
Continuous
 62
     2
100
AcDbLine
 10
153.377743576
 20
344.8111616702
 30
0.0
 11
153.377743576
 21
352.395683756015
 31
0.0
  0
SOLID
  5
11E
330
11A
100
AcDbEntity
  8
1
 62
     2
100
AcDbTrace
 10
200.877743576
 20
349.9349000144591
 30
0.0
 11
200.877743576
 21
350.8564674975709
 31
0.0
 12
204.377743576
 22
350.395683756015
 32
0.0
 13
204.377743576
 23
350.395683756015
 33
0.0
  0
SOLID
  5
11F
330
11A
100
AcDbEntity
  8
1
 62
     2
100
AcDbTrace
 10
156.877743576
 20
350.8564674975709
 30
0.0
 11
156.877743576
 21
349.9349000144591
 31
0.0
 12
153.377743576
 22
350.395683756015
 32
0.0
 13
153.377743576
 23
350.395683756015
 33
0.0
  0
MTEXT
  5
120
330
11A
100
AcDbEntity
  8
1
 62
     3
100
AcDbMText
 10
177.194441155329
 20
352.395683756015
 30
0.0
 40
3.5
 41
0.0
 71
     7
 72
     1
  1
\C3;\C3;\C3;51\C2;\H2.45;\S^ ;\C3;
  7
CONVERTER_11
 11
0.9999999999970619
 21
2.424068405545306E-6
 31
0.0
 73
     1
 44
0.60024009603842
  0
ENDBLK
  5
122
330
11A
100
AcDbEntity
  8
0
100
AcDbBlockEnd
  0
BLOCK
  5
12C
330
125
100
AcDbEntity
  8
0
100
AcDbBlockBegin
  2
*D5
 70
     1
 10
0.0
 20
0.0
 30
0.0
  3
*D5
  1

  0
LINE
  5
126
330
125
100
AcDbEntity
  8
1
  6
Continuous
 62
     2
100
AcDbLine
 10
204.377743576
 20
357.427736737498
 30
0.0
 11
124.377743576
 21
357.427736737498
 31
0.0
  0
LINE
  5
127
330
125
100
AcDbEntity
  8
1
  6
Continuous
 62
     2
100
AcDbLine
 10
204.377743576
 20
306.6740914094
 30
0.0
 11
204.377743576
 21
359.427736737498
 31
0.0
  0
LINE
  5
128
330
125
100
AcDbEntity
  8
1
  6
Continuous
 62
     2
100
AcDbLine
 10
124.377743576
 20
344.8111616702
 30
0.0
 11
124.377743576
 21
359.427736737498
 31
0.0
  0
SOLID
  5
129
330
125
100
AcDbEntity
  8
1
 62
     2
100
AcDbTrace
 10
200.877743576
 20
356.9669529959421
 30
0.0
 11
200.877743576
 21
357.8885204790539
 31
0.0
 12
204.377743576
 22
357.427736737498
 32
0.0
 13
204.377743576
 23
357.427736737498
 33
0.0
  0
SOLID
  5
12A
330
125
100
AcDbEntity
  8
1
 62
     2
100
AcDbTrace
 10
127.877743576
 20
357.8885204790539
 30
0.0
 11
127.877743576
 21
356.9669529959421
 31
0.0
 12
124.377743576
 22
357.427736737498
 32
0.0
 13
124.377743576
 23
357.427736737498
 33
0.0
  0
MTEXT
  5
12B
330
125
100
AcDbEntity
  8
1
 62
     3
100
AcDbMText
 10
163.647942256561
 20
359.427736737498
 30
0.0
 40
3.5
 41
0.0
 71
     7
 72
     1
  1
\C3;\C3;\C3;80\C2;\H2.45;\S^ ;\C3;
  7
CONVERTER_11
 11
0.9999999999970619
 21
2.424068405545306E-6
 31
0.0
 73
     1
 44
0.60024009603842
  0
ENDBLK
  5
12D
330
125
100
AcDbEntity
  8
0
100
AcDbBlockEnd
  0
BLOCK
  5
137
330
130
100
AcDbEntity
  8
0
100
AcDbBlockBegin
  2
*D6
 70
     1
 10
0.0
 20
0.0
 30
0.0
  3
*D6
  1

  0
LINE
  5
131
330
130
100
AcDbEntity
  8
1
  6
Continuous
 62
     2
100
AcDbLine
 10
204.377743576
 20
363.873785303857
 30
0.0
 11
74.377743576
 21
363.873785303857
 31
0.0
  0
LINE
  5
132
330
130
100
AcDbEntity
  8
1
  6
Continuous
 62
     2
100
AcDbLine
 10
204.377743576
 20
306.6740914094
 30
0.0
 11
204.377743576
 21
365.873785303857
 31
0.0
  0
LINE
  5
133
330
130
100
AcDbEntity
  8
1
  6
Continuous
 62
     2
100
AcDbLine
 10
74.377743576
 20
328.4113532328
 30
0.0
 11
74.377743576
 21
365.873785303857
 31
0.0
  0
SOLID
  5
134
330
130
100
AcDbEntity
  8
1
 62
     2
100
AcDbTrace
 10
200.877743576
 20
363.4130015623011
 30
0.0
 11
200.877743576
 21
364.3345690454129
 31
0.0
 12
204.377743576
 22
363.873785303857
 32
0.0
 13
204.377743576
 23
363.873785303857
 33
0.0
  0
SOLID
  5
135
330
130
100
AcDbEntity
  8
1
 62
     2
100
AcDbTrace
 10
77.877743576
 20
364.3345690454129
 30
0.0
 11
77.877743576
 21
363.4130015623011
 31
0.0
 12
74.377743576
 22
363.873785303857
 32
0.0
 13
74.377743576
 23
363.873785303857
 33
0.0
  0
MTEXT
  5
136
330
130
100
AcDbEntity
  8
1
 62
     3
100
AcDbMText
 10
143.000993025384
 20
365.873785303857
 30
0.0
 40
3.5
 41
0.0
 71
     7
 72
     1
  1
\C3;\C3;\C3;130\C2;\H2.45;\S^ ;\C3;
  7
CONVERTER_11
 11
0.9999999999970619
 21
2.424068405545306E-6
 31
0.0
 73
     1
 44
0.60024009603842
  0
ENDBLK
  5
138
330
130
100
AcDbEntity
  8
0
100
AcDbBlockEnd
  0
BLOCK
  5
13F
330
13B
100
AcDbEntity
  8
0
100
AcDbBlockBegin
  2
*D7
 70
     1
 10
0.0
 20
0.0
 30
0.0
  3
*D7
  1

  0
LINE
  5
13C
330
13B
100
AcDbEntity
  8
1
  6
Continuous
 62
     2
100
AcDbLine
 10
170.6915496784621
 20
327.5474961424172
 30
0.0
 11
159.4380516524371
 21
315.9694396998035
 31
0.0
  0
SOLID
  5
13D
330
13B
100
AcDbEntity
  8
1
 62
     2
100
AcDbTrace
 10
161.547076123567
 20
318.8004002146567
 30
0.0
 11
162.2079193545543
 21
318.1580818745891
 31
0.0
 12
159.4380516524371
 22
315.9694396998035
 32
0.0
 13
159.4380516524371
 23
315.9694396998035
 33
0.0
  0
MTEXT
  5
13E
330
13B
100
AcDbEntity
  8
1
 62
     3
100
AcDbMText
 10
162.3293505954117
 20
321.8136295154864
 30
0.0
 40
3.5
 41
0.0
 71
     7
 72
     1
  1
\C3; R\C3;\C3;20\C2;\H2.45;\S^ ;\C3;
  7
CONVERTER_11
 11
0.6969845961781446
 21
0.7170860985198282
 31
0.0
 73
     1
 44
0.60024009603842
  0
ENDBLK
  5
140
330
13B
100
AcDbEntity
  8
0
100
AcDbBlockEnd
  0
ENDSEC
  0
SECTION
  2
ENTITIES
  0
INSERT
  5
6D
330
1F
100
AcDbEntity
  8
0
100
AcDbBlockReference
  2
Urheberrecht_DE-EN
 10
66.2963886838517
 20
303.934909669168
 30
0.0
  0
LINE
  5
71
330
1F
100
AcDbEntity
  8
BEZUGSACHSEN
  6
Continuous
 62
     7
100
AcDbLine
 10
74.377743576
 20
259.2109701073
 30
0.0
 11
74.377743576
 21
280.8011616702
 31
0.0
  0
LINE
  5
72
330
1F
100
AcDbEntity
  8
BEZUGSACHSEN
  6
Continuous
 62
     7
100
AcDbLine
 10
74.377743576
 20
304.8211616702
 30
0.0
 11
74.377743576
 21
326.4113532328
 31
0.0
  0
LINE
  5
73
330
1F
100
AcDbEntity
  8
BEZUGSACHSEN
  6
Continuous
 62
     9
100
AcDbLine
 10
76.2776690913
 20
328.4088479386
 30
0.0
 11
76.2776690913
 21
308.4876940565
 31
0.0
  0
LINE
  5
74
330
1F
100
AcDbEntity
  8
BEZUGSACHSEN
  6
Continuous
 62
     9
100
AcDbLine
 10
76.2776690913
 20
277.134629284
 30
0.0
 11
76.2776690913
 21
257.2134754019
 31
0.0
  0
LINE
  5
75
330
1F
100
AcDbEntity
  8
BEZUGSACHSEN
  6
Continuous
 62
     7
100
AcDbLine
 10
76.377743576
 20
280.4075217219
 30
0.0
 11
76.377743576
 21
282.8011616702
 31
0.0
  0
LINE
  5
76
330
1F
100
AcDbEntity
  8
BEZUGSACHSEN
  6
Continuous
 62
     7
100
AcDbLine
 10
76.377743576
 20
302.8211616702
 30
0.0
 11
76.377743576
 21
305.2148016186
 31
0.0
  0
LINE
  5
77
330
1F
100
AcDbEntity
  8
BEZUGSACHSEN
  6
Continuous
 62
     9
100
AcDbLine
 10
82.377743576
 20
276.4525140828
 30
0.0
 11
82.377743576
 21
282.8011616702
 31
0.0
  0
LINE
  5
78
330
1F
100
AcDbEntity
  8
BEZUGSACHSEN
  6
Continuous
 62
     9
100
AcDbLine
 10
82.377743576
 20
302.8211616702
 30
0.0
 11
82.377743576
 21
309.1698092577
 31
0.0
  0
LINE
  5
79
330
1F
100
AcDbEntity
  8
BEZUGSACHSEN
  6
Continuous
 62
     7
100
AcDbLine
 10
84.377743576
 20
305.680817196
 30
0.0
 11
84.377743576
 21
279.9415061444
 31
0.0
  0
LINE
  5
7A
330
1F
100
AcDbEntity
  8
BEZUGSACHSEN
  6
Continuous
 62
     7
100
AcDbLine
 10
75.644696503
 20
277.8011616702
 30
0.0
 11
75.5235862516
 21
277.5688256748
 31
0.0
  0
LINE
  5
7B
330
1F
100
AcDbEntity
  8
BEZUGSACHSEN
  6
Continuous
 62
     7
100
AcDbLine
 10
141.1301483118
 20
242.8111616702
 30
0.0
 11
124.377743576
 21
242.8111616702
 31
0.0
  0
LINE
  5
7C
330
1F
100
AcDbEntity
  8
BEZUGSACHSEN
  6
Continuous
 62
     7
100
AcDbLine
 10
147.6253388402
 20
242.8111616702
 30
0.0
 11
153.377743576
 21
242.8111616702
 31
0.0
  0
LINE
  5
7D
330
1F
100
AcDbEntity
  8
BEZUGSACHSEN
  6
Continuous
 62
     7
100
AcDbLine
 10
75.5235862516
 20
308.0534976657
 30
0.0
 11
75.644696503
 21
307.8211616702
 31
0.0
  0
LINE
  5
7E
330
1F
100
AcDbEntity
  8
BEZUGSACHSEN
  6
Continuous
 62
     7
100
AcDbLine
 10
143.502743576
 20
246.8111616702
 30
0.0
 11
145.252743576
 21
246.8111616702
 31
0.0
  0
LINE
  5
7F
330
1F
100
AcDbEntity
  8
FASEN
  6
Continuous
 62
     7
100
AcDbLine
 10
129.7792295404
 20
253.9814050395
 30
0.0
 11
141.1301483118
 21
253.9814050395
 31
0.0
  0
LINE
  5
80
330
1F
100
AcDbEntity
  8
0
  6
Continuous
 62
     7
100
AcDbLine
 10
147.6253388402
 20
253.9814050395
 30
0.0
 11
153.377743576
 21
253.9814050395
 31
0.0
  0
LINE
  5
81
330
1F
100
AcDbEntity
  8
BEZUGSACHSEN
  6
Continuous
 62
     7
100
AcDbLine
 10
123.6771722873
 20
255.1289116702
 30
0.0
 11
122.7558062351
 21
255.1289116702
 31
0.0
  0
LINE
  5
82
330
1F
100
AcDbEntity
  8
BEZUGSACHSEN
  6
Continuous
 62
     7
100
AcDbLine
 10
121.877743576
 20
254.9289116702
 30
0.0
 11
76.2776690913
 21
257.2134754019
 31
0.0
  0
LINE
  5
83
330
1F
100
AcDbEntity
  8
BEZUGSACHSEN
  6
Continuous
 62
     7
100
AcDbLine
 10
74.377743576
 20
280.8011616702
 30
0.0
 11
76.377743576
 21
282.8011616702
 31
0.0
  0
LINE
  5
84
330
1F
100
AcDbEntity
  8
0
  6
Continuous
 62
     7
100
AcDbLine
 10
143.502743576
 20
259.2887810865
 30
0.0
 11
145.252743576
 21
259.2887810865
 31
0.0
  0
LINE
  5
85
330
1F
100
AcDbEntity
  8
BEZUGSACHSEN
  6
Continuous
 62
     7
100
AcDbLine
 10
76.377743576
 20
302.8211616702
 30
0.0
 11
74.377743576
 21
304.8211616702
 31
0.0
  0
LWPOLYLINE
  5
86
330
1F
100
AcDbEntity
  8
BEZUGSACHSEN
  6
DOT_CENTER
 62
     7
100
AcDbPolyline
 90
        2
 70
     0
 43
0.25
 10
109.377743576
 20
292.8111616702
 10
109.377743576
 20
283.8111616702
  0
LWPOLYLINE
  5
87
330
1F
100
AcDbEntity
  8
BEZUGSACHSEN
  6
DOT_CENTER
 62
     7
100
AcDbPolyline
 90
        2
 70
     0
 43
0.25
 10
109.377743576
 20
292.8111616702
 10
109.377743576
 20
301.8111616702
  0
LINE
  5
88
330
1F
100
AcDbEntity
  8
BEZUGSACHSEN
  6
Continuous
 62
     7
100
AcDbLine
 10
122.49698719
 20
255.0948374965
 30
0.0
 11
121.877743576
 21
254.9289116702
 31
0.0
  0
LINE
  5
89
330
1F
100
AcDbEntity
  8
FASEN
  6
Continuous
 62
     7
100
AcDbLine
 10
137.3496174979
 20
260.9111616702
 30
0.0
 11
153.377743576
 21
260.9111616702
 31
0.0
  0
LINE
  5
8A
330
1F
100
AcDbEntity
  8
0
  6
Continuous
 62
     7
100
AcDbLine
 10
137.3496174979
 20
261.3111616702
 30
0.0
 11
153.377743576
 21
261.3111616702
 31
0.0
  0
LINE
  5
8B
330
1F
100
AcDbEntity
  8
BEZUGSACHSEN
  6
Continuous
 62
     7
100
AcDbLine
 10
121.877743576
 20
330.6934116702
 30
0.0
 11
121.877743576
 21
254.9289116702
 31
0.0
  0
LINE
  5
8C
330
1F
100
AcDbEntity
  8
BEZUGSACHSEN
  6
Continuous
 62
     9
100
AcDbLine
 10
122.49698719
 20
255.0948374965
 30
0.0
 11
122.49698719
 21
330.5274858439
 31
0.0
  0
LINE
  5
8D
330
1F
100
AcDbEntity
  8
BEZUGSACHSEN
  6
Continuous
 62
     9
100
AcDbLine
 10
122.7558062351
 20
255.1289116702
 30
0.0
 11
122.7558062351
 21
330.4934116702
 31
0.0
  0
LINE
  5
8E
330
1F
100
AcDbEntity
  8
BEZUGSACHSEN
  6
Continuous
 62
     9
100
AcDbLine
 10
123.6771722873
 20
255.1289116702
 30
0.0
 11
123.6771722873
 21
330.4934116702
 31
0.0
  0
LINE
  5
8F
330
1F
100
AcDbEntity
  8
BEZUGSACHSEN
  6
Continuous
 62
     7
100
AcDbLine
 10
146.252743576
 20
340.4337569344
 30
0.0
 11
147.6253388402
 21
342.8111616702
 31
0.0
  0
LINE
  5
90
330
1F
100
AcDbEntity
  8
BEZUGSACHSEN
  6
Continuous
 62
     9
100
AcDbLine
 10
74.377743576
 20
279.3649777012
 30
0.0
 11
76.377743576
 21
280.4075217219
 31
0.0
  0
LINE
  5
91
330
1F
100
AcDbEntity
  8
0
  6
Continuous
 62
     7
100
AcDbLine
 10
173.377743576
 20
275.3111616702
 30
0.0
 11
180.977743576
 21
275.3111616702
 31
0.0
  0
LINE
  5
92
330
1F
100
AcDbEntity
  8
0
  6
Continuous
 62
     7
100
AcDbLine
 10
187.777743576
 20
275.3111616702
 30
0.0
 11
193.4335143108
 21
275.3111616702
 31
0.0
  0
LINE
  5
93
330
1F
100
AcDbEntity
  8
BEZUGSACHSEN
  6
Continuous
 62
     9
100
AcDbLine
 10
76.377743576
 20
305.2148016186
 30
0.0
 11
74.377743576
 21
306.2573456393
 31
0.0
  0
LINE
  5
94
330
1F
100
AcDbEntity
  8
BEZUGSACHSEN
  6
Continuous
 62
     7
100
AcDbLine
 10
146.252743576
 20
245.188566406
 30
0.0
 11
147.6253388402
 21
242.8111616702
 31
0.0
  0
LINE
  5
95
330
1F
100
AcDbEntity
  8
BEZUGSACHSEN
  6
Continuous
 62
     7
100
AcDbLine
 10
124.377743576
 20
342.8111616702
 30
0.0
 11
124.377743576
 21
242.8111616702
 31
0.0
  0
LINE
  5
96
330
1F
100
AcDbEntity
  8
BEZUGSACHSEN
  6
Continuous
 62
     9
100
AcDbLine
 10
83.9315895229
 20
277.8011616702
 30
0.0
 11
75.644696503
 21
277.8011616702
 31
0.0
  0
LWPOLYLINE
  5
97
330
1F
100
AcDbEntity
  8
BEZUGSACHSEN
  6
DOT_CENTER
 62
     7
100
AcDbPolyline
 90
        2
 70
     0
 43
0.25
 10
131.377743576
 20
334.9605335256
 10
131.377743576
 20
345.8111616702
  0
LINE
  5
98
330
1F
100
AcDbEntity
  8
BEZUGSACHSEN
  6
Continuous
 62
     7
100
AcDbLine
 10
82.377743576
 20
282.8011616702
 30
0.0
 11
76.377743576
 21
282.8011616702
 31
0.0
  0
LINE
  5
99
330
1F
100
AcDbEntity
  8
0
  6
Continuous
 62
     7
100
AcDbLine
 10
139.377743576
 20
282.8111616702
 30
0.0
 11
153.377743576
 21
282.8111616702
 31
0.0
  0
LINE
  5
9A
330
1F
100
AcDbEntity
  8
FASEN
  6
Continuous
 62
     7
100
AcDbLine
 10
153.377743576
 20
283.2111616702
 30
0.0
 11
139.377743576
 21
283.2111616702
 31
0.0
  0
LWPOLYLINE
  5
9B
330
1F
100
AcDbEntity
  8
DEFAULT_2
  6
DASHED
 62
     8
100
AcDbPolyline
 90
        2
 70
     0
 43
0.35
 10
169.377743576
 20
287.8111616702
 10
180.977743576
 20
287.8111616702
  0
LWPOLYLINE
  5
9C
330
1F
100
AcDbEntity
  8
DEFAULT_2
  6
DASHED
 62
     8
100
AcDbPolyline
 90
        2
 70
     0
 43
0.35
 10
180.977743576
 20
287.8111616702
 10
204.377743576
 20
287.8111616702
  0
LINE
  5
9D
330
1F
100
AcDbEntity
  8
FASEN
  6
Continuous
 62
     9
100
AcDbLine
 10
137.3496174979
 20
260.9111616702
 30
0.0
 11
137.3496174979
 21
261.3111616702
 31
0.0
  0
LINE
  5
9E
330
1F
100
AcDbEntity
  8
FASEN
  6
Continuous
 62
     9
100
AcDbLine
 10
139.377743576
 20
283.2111616702
 30
0.0
 11
139.377743576
 21
282.8111616702
 31
0.0
  0
LINE
  5
9F
330
1F
100
AcDbEntity
  8
FASEN
  6
Continuous
 62
     9
100
AcDbLine
 10
139.377743576
 20
302.4111616702
 30
0.0
 11
139.377743576
 21
302.8111616702
 31
0.0
  0
LWPOLYLINE
  5
A0
330
1F
100
AcDbEntity
  8
BEZUGSACHSEN
  6
DOT_CENTER
 62
     7
100
AcDbPolyline
 90
        2
 70
     0
 43
0.25
 10
207.377743576
 20
292.8111616702
 10
71.377743576
 20
292.8111616702
  0
LINE
  5
A1
330
1F
100
AcDbEntity
  8
0
  6
Continuous
 62
     7
100
AcDbLine
 10
141.1301483118
 20
342.8111616702
 30
0.0
 11
141.1301483118
 21
302.8111616702
 31
0.0
  0
LINE
  5
A2
330
1F
100
AcDbEntity
  8
0
  6
Continuous
 62
     7
100
AcDbLine
 10
141.1301483118
 20
282.8111616702
 30
0.0
 11
141.1301483118
 21
261.3111616702
 31
0.0
  0
LINE
  5
A3
330
1F
100
AcDbEntity
  8
0
  6
Continuous
 62
     7
100
AcDbLine
 10
141.1301483118
 20
253.9814050395
 30
0.0
 11
141.1301483118
 21
242.8111616702
 31
0.0
  0
LINE
  5
A4
330
1F
100
AcDbEntity
  8
0
  6
Continuous
 62
     7
100
AcDbLine
 10
142.502743576
 20
340.4337235079
 30
0.0
 11
142.502743576
 21
302.8111616702
 31
0.0
  0
LINE
  5
A5
330
1F
100
AcDbEntity
  8
0
  6
Continuous
 62
     7
100
AcDbLine
 10
142.502743576
 20
282.8111616702
 30
0.0
 11
142.502743576
 21
261.3111616702
 31
0.0
  0
LINE
  5
A6
330
1F
100
AcDbEntity
  8
0
  6
Continuous
 62
     7
100
AcDbLine
 10
142.502743576
 20
245.18860394
 30
0.0
 11
142.502743576
 21
257.9292179171
 31
0.0
  0
LINE
  5
A7
330
1F
100
AcDbEntity
  8
0
  6
Continuous
 62
     9
100
AcDbLine
 10
143.502743576
 20
246.8111616702
 30
0.0
 11
143.502743576
 21
259.2887810865
 31
0.0
  0
LINE
  5
A8
330
1F
100
AcDbEntity
  8
0
  6
Continuous
 62
     9
100
AcDbLine
 10
143.502743576
 20
261.3111616702
 30
0.0
 11
143.502743576
 21
282.8111616702
 31
0.0
  0
LINE
  5
A9
330
1F
100
AcDbEntity
  8
0
  6
Continuous
 62
     9
100
AcDbLine
 10
143.502743576
 20
302.8111616702
 30
0.0
 11
143.502743576
 21
338.8111616702
 31
0.0
  0
LINE
  5
AA
330
1F
100
AcDbEntity
  8
0
  6
Continuous
 62
     9
100
AcDbLine
 10
145.252743576
 20
246.8111616702
 30
0.0
 11
145.252743576
 21
259.2887810865
 31
0.0
  0
LINE
  5
AB
330
1F
100
AcDbEntity
  8
0
  6
Continuous
 62
     9
100
AcDbLine
 10
145.252743576
 20
261.3111616702
 30
0.0
 11
145.252743576
 21
282.8111616702
 31
0.0
  0
LINE
  5
AC
330
1F
100
AcDbEntity
  8
0
  6
Continuous
 62
     9
100
AcDbLine
 10
145.252743576
 20
302.8111616702
 30
0.0
 11
145.252743576
 21
338.8111616702
 31
0.0
  0
LWPOLYLINE
  5
AD
330
1F
100
AcDbEntity
  8
DEFAULT_2
  6
DASHED
 62
     8
100
AcDbPolyline
 90
        2
 70
     0
 43
0.35
 10
204.377743576
 20
297.8111616702
 10
169.377743576
 20
297.8111616702
  0
LINE
  5
AE
330
1F
100
AcDbEntity
  8
0
  6
Continuous
 62
     7
100
AcDbLine
 10
146.252743576
 20
245.18860394
 30
0.0
 11
146.252743576
 21
257.9292179171
 31
0.0
  0
LINE
  5
AF
330
1F
100
AcDbEntity
  8
0
  6
Continuous
 62
     7
100
AcDbLine
 10
146.252743576
 20
261.3111616702
 30
0.0
 11
146.252743576
 21
282.8111616702
 31
0.0
  0
LINE
  5
B0
330
1F
100
AcDbEntity
  8
0
  6
Continuous
 62
     7
100
AcDbLine
 10
146.252743576
 20
302.8111616702
 30
0.0
 11
146.252743576
 21
340.4337235079
 31
0.0
  0
LINE
  5
B1
330
1F
100
AcDbEntity
  8
0
  6
Continuous
 62
     7
100
AcDbLine
 10
147.6253388402
 20
342.8111616702
 30
0.0
 11
147.6253388402
 21
302.8111616702
 31
0.0
  0
LINE
  5
B2
330
1F
100
AcDbEntity
  8
0
  6
Continuous
 62
     7
100
AcDbLine
 10
147.6253388402
 20
282.8111616702
 30
0.0
 11
147.6253388402
 21
261.3111616702
 31
0.0
  0
LINE
  5
B3
330
1F
100
AcDbEntity
  8
0
  6
Continuous
 62
     7
100
AcDbLine
 10
147.6253388402
 20
253.9814050395
 30
0.0
 11
147.6253388402
 21
242.8111616702
 31
0.0
  0
LINE
  5
B4
330
1F
100
AcDbEntity
  8
FASEN
  6
Continuous
 62
     7
100
AcDbLine
 10
139.377743576
 20
302.4111616702
 30
0.0
 11
153.377743576
 21
302.4111616702
 31
0.0
  0
LINE
  5
B5
330
1F
100
AcDbEntity
  8
0
  6
Continuous
 62
     7
100
AcDbLine
 10
139.377743576
 20
302.8111616702
 30
0.0
 11
153.377743576
 21
302.8111616702
 31
0.0
  0
LINE
  5
B6
330
1F
100
AcDbEntity
  8
BEZUGSACHSEN
  6
Continuous
 62
     7
100
AcDbLine
 10
82.377743576
 20
302.8211616702
 30
0.0
 11
76.377743576
 21
302.8211616702
 31
0.0
  0
LINE
  5
B7
330
1F
100
AcDbEntity
  8
0
  6
Continuous
 62
     7
100
AcDbLine
 10
153.377743576
 20
342.8111247491
 30
0.0
 11
153.377743576
 21
302.8111616702
 31
0.0
  0
LINE
  5
B8
330
1F
100
AcDbEntity
  8
0
  6
Continuous
 62
     7
100
AcDbLine
 10
153.377743576
 20
282.8111616702
 30
0.0
 11
153.377743576
 21
261.3111616702
 31
0.0
  0
LINE
  5
B9
330
1F
100
AcDbEntity
  8
0
  6
Continuous
 62
     7
100
AcDbLine
 10
153.377743576
 20
253.9814050395
 30
0.0
 11
153.377743576
 21
242.811163538
 31
0.0
  0
LINE
  5
BA
330
1F
100
AcDbEntity
  8
FASEN
  6
Continuous
 62
     7
100
AcDbLine
 10
153.377743576
 20
253.9814050395
 30
0.0
 11
153.377743576
 21
261.3111616702
 31
0.0
  0
LINE
  5
BB
330
1F
100
AcDbEntity
  8
FASEN
  6
Continuous
 62
     7
100
AcDbLine
 10
153.377743576
 20
282.8111616702
 30
0.0
 11
153.377743576
 21
302.8111616702
 31
0.0
  0
LINE
  5
BC
330
1F
100
AcDbEntity
  8
BEZUGSACHSEN
  6
Continuous
 62
     9
100
AcDbLine
 10
75.644696503
 20
307.8211616702
 30
0.0
 11
83.9315895229
 21
307.8211616702
 31
0.0
  0
LINE
  5
BD
330
1F
100
AcDbEntity
  8
RUNDUNGEN
  6
Continuous
 62
     7
100
AcDbLine
 10
193.4335143108
 20
310.3111616702
 30
0.0
 11
173.377743576
 21
310.3111616702
 31
0.0
  0
LINE
  5
BE
330
1F
100
AcDbEntity
  8
0
  6
Continuous
 62
     7
100
AcDbLine
 10
173.377743576
 20
310.3111616702
 30
0.0
 11
193.4335143108
 21
310.3111616702
 31
0.0
  0
LINE
  5
BF
330
1F
100
AcDbEntity
  8
BEZUGSACHSEN
  6
Continuous
 62
     7
100
AcDbLine
 10
141.1301483118
 20
242.8111616702
 30
0.0
 11
142.502743576
 21
245.188566406
 31
0.0
  0
LINE
  5
C0
330
1F
100
AcDbEntity
  8
BEZUGSACHSEN
  6
Continuous
 62
     7
100
AcDbLine
 10
141.1301483118
 20
342.8111616702
 30
0.0
 11
142.502743576
 21
340.4337569344
 31
0.0
  0
LWPOLYLINE
  5
C1
330
1F
100
AcDbEntity
  8
DEFAULT_2
  6
DASHED
 62
     8
100
AcDbPolyline
 90
        2
 70
     0
 43
0.35
 10
169.377743576
 20
297.8111616702
 10
169.377743576
 20
287.8111616702
  0
LINE
  5
C2
330
1F
100
AcDbEntity
  8
BEZUGSACHSEN
  6
Continuous
 62
     7
100
AcDbLine
 10
122.49698719
 20
330.5274858439
 30
0.0
 11
121.877743576
 21
330.6934116702
 31
0.0
  0
LINE
  5
C3
330
1F
100
AcDbEntity
  8
RUNDUNGEN
  6
Continuous
 62
     9
100
AcDbLine
 10
173.377743576
 20
310.3111616702
 30
0.0
 11
173.377743576
 21
275.3111616702
 31
0.0
  0
LINE
  5
C4
330
1F
100
AcDbEntity
  8
0
  6
Continuous
 62
     7
100
AcDbLine
 10
193.8561325726
 20
275.4048538832
 30
0.0
 11
203.8003618378
 21
280.041924144
 31
0.0
  0
LINE
  5
C5
330
1F
100
AcDbEntity
  8
BEZUGSACHSEN
  6
Continuous
 62
     7
100
AcDbLine
 10
121.877743576
 20
330.6934116702
 30
0.0
 11
76.2776690913
 21
328.4088479386
 31
0.0
  0
LINE
  5
C6
330
1F
100
AcDbEntity
  8
BEZUGSACHSEN
  6
Continuous
 62
     7
100
AcDbLine
 10
123.6771722873
 20
330.4934116702
 30
0.0
 11
122.7558062351
 21
330.4934116702
 31
0.0
  0
LINE
  5
C7
330
1F
100
AcDbEntity
  8
RUNDUNGEN
  6
Continuous
 62
     7
100
AcDbLine
 10
203.8003618378
 20
305.5803991965
 30
0.0
 11
193.8561325726
 21
310.2174694573
 31
0.0
  0
LINE
  5
C8
330
1F
100
AcDbEntity
  8
0
  6
Continuous
 62
     7
100
AcDbLine
 10
193.8561325726
 20
310.2174694573
 30
0.0
 11
203.8003618378
 21
305.5803991965
 31
0.0
  0
LWPOLYLINE
  5
C9
330
1F
100
AcDbEntity
  8
GEWINDE
  6
DASHED
 62
     8
100
AcDbPolyline
 90
        2
 70
     0
 43
0.35
 10
180.977743576
 20
287.8111616702
 10
180.977743576
 20
275.3111616702
  0
LWPOLYLINE
  5
CA
330
1F
100
AcDbEntity
  8
GEWINDE
  6
DOT_CENTER
 62
     7
100
AcDbPolyline
 90
        2
 70
     0
 43
0.25
 10
184.377743576
 20
272.3111616702
 10
184.377743576
 20
292.1451011792
  0
LWPOLYLINE
  5
CB
330
1F
100
AcDbEntity
  8
GEWINDE
  6
DASHED
 62
     8
100
AcDbPolyline
 90
        2
 70
     0
 43
0.35
 10
187.777743576
 20
287.8111616702
 10
187.777743576
 20
275.3111616702
  0
LINE
  5
CC
330
1F
100
AcDbEntity
  8
BEZUGSACHSEN
  6
Continuous
 62
     7
100
AcDbLine
 10
143.502743576
 20
338.8111616702
 30
0.0
 11
145.252743576
 21
338.8111616702
 31
0.0
  0
LINE
  5
CD
330
1F
100
AcDbEntity
  8
RUNDUNGEN
  6
Continuous
 62
     9
100
AcDbLine
 10
193.4335143108
 20
275.3111616702
 30
0.0
 11
193.4335143108
 21
310.3111616702
 31
0.0
  0
LINE
  5
CE
330
1F
100
AcDbEntity
  8
RUNDUNGEN
  6
Continuous
 62
     9
100
AcDbLine
 10
193.8561325726
 20
275.4048538832
 30
0.0
 11
193.8561325726
 21
310.2174694573
 31
0.0
  0
LINE
  5
CF
330
1F
100
AcDbEntity
  8
BEZUGSACHSEN
  6
Continuous
 62
     7
100
AcDbLine
 10
141.1301483118
 20
342.8111616702
 30
0.0
 11
136.377743576
 21
342.8111616702
 31
0.0
  0
LINE
  5
D0
330
1F
100
AcDbEntity
  8
BEZUGSACHSEN
  6
Continuous
 62
     7
100
AcDbLine
 10
126.377743576
 20
342.8111616702
 30
0.0
 11
124.377743576
 21
342.8111616702
 31
0.0
  0
LINE
  5
D1
330
1F
100
AcDbEntity
  8
BEZUGSACHSEN
  6
Continuous
 62
     7
100
AcDbLine
 10
147.6253388402
 20
342.8111616702
 30
0.0
 11
153.377743576
 21
342.8111616702
 31
0.0
  0
LINE
  5
D2
330
1F
100
AcDbEntity
  8
RUNDUNGEN
  6
Continuous
 62
     9
100
AcDbLine
 10
203.8003618378
 20
280.041924144
 30
0.0
 11
203.8003618378
 21
305.5803991965
 31
0.0
  0
LINE
  5
D3
330
1F
100
AcDbEntity
  8
RUNDUNGEN
  6
Continuous
 62
     7
100
AcDbLine
 10
204.377743576
 20
280.948231931
 30
0.0
 11
204.377743576
 21
304.6740914094
 31
0.0
  0
LWPOLYLINE
  5
D4
330
1F
100
AcDbEntity
  8
GEWINDE
  6
DASHED
 62
     8
100
AcDbPolyline
 90
        2
 70
     0
 43
0.35
 10
188.3777353465
 20
287.8111616702
 10
188.3777353465
 20
275.3111616702
  0
LWPOLYLINE
  5
D5
330
1F
100
AcDbEntity
  8
GEWINDE
  6
DASHED
 62
     8
100
AcDbPolyline
 90
        2
 70
     0
 43
0.35
 10
180.3777518055
 20
287.8111616702
 10
180.3777518055
 20
275.3111616702
  0
ARC
  5
D6
330
1F
100
AcDbEntity
  8
FASEN
  6
Continuous
 62
     7
100
AcDbCircle
 10
142.2783975989
 20
268.3424249403
 30
0.0
 40
19.03859487319976
100
AcDbArc
 50
227.4837701982999
 51
228.9651953374996
  0
ARC
  5
D7
330
1F
100
AcDbEntity
  8
FASEN
  6
Continuous
 62
     7
100
AcDbCircle
 10
137.3496174979
 20
253.3111616702
 30
0.0
 40
8.000000000000028
100
AcDbArc
 50
90.0
 51
172.8323734889969
  0
ARC
  5
D8
330
1F
100
AcDbEntity
  8
FASEN
  6
Continuous
 62
     7
100
AcDbCircle
 10
137.3496174979
 20
253.3111616702
 30
0.0
 40
7.59998219489998
100
AcDbArc
 50
90.0
 51
174.9405171273012
  0
ARC
  5
D9
330
1F
100
AcDbEntity
  8
BEZUGSACHSEN
  6
Continuous
 62
     7
100
AcDbCircle
 10
82.377743576
 20
284.8011616702
 30
0.0
 40
2.0
100
AcDbArc
 50
270.0
 51
355.2355361864949
  0
ARC
  5
DA
330
1F
100
AcDbEntity
  8
BEZUGSACHSEN
  6
Continuous
 62
     7
100
AcDbCircle
 10
76.377743576
 20
259.2109701072
 30
0.0
 40
2.0
100
AcDbArc
 50
179.9999999971356
 51
267.1318795137018
  0
ARC
  5
DB
330
1F
100
AcDbEntity
  8
BEZUGSACHSEN
  6
Continuous
 62
     7
100
AcDbCircle
 10
143.502743576
 20
245.8111616702
 30
0.0
 40
1.0
100
AcDbArc
 50
90.0
 51
180.0
  0
ARC
  5
DC
330
1F
100
AcDbEntity
  8
BEZUGSACHSEN
  6
Continuous
 62
     7
100
AcDbCircle
 10
122.7558062351
 20
254.1289116702
 30
0.0
 40
1.0
100
AcDbArc
 50
90.0
 51
104.9999999996985
  0
ARC
  5
DD
330
1F
100
AcDbEntity
  8
BEZUGSACHSEN
  6
Continuous
 62
     7
100
AcDbCircle
 10
123.6771722873
 20
254.1289116702
 30
0.0
 40
0.9999999999997087
100
AcDbArc
 50
45.52164291272349
 51
90.0
  0
ARC
  5
DE
330
1F
100
AcDbEntity
  8
0
  6
Continuous
 62
     7
100
AcDbCircle
 10
-100.2200363072
 20
362.2456292609
 30
0.0
 40
264.5204223909507
100
AcDbArc
 50
335.8400764706018
 51
336.5770705490999
  0
ARC
  5
DF
330
1F
100
AcDbEntity
  8
BEZUGSACHSEN
  6
Continuous
 62
     7
100
AcDbCircle
 10
131.3929515871
 20
392.8639314371
 30
0.0
 40
50.30340021045196
100
AcDbArc
 50
264.2781515102013
 51
269.9826780126003
  0
ARC
  5
E0
330
1F
100
AcDbEntity
  8
BEZUGSACHSEN
  6
Continuous
 62
     7
100
AcDbCircle
 10
131.3625355749
 20
392.8639312364
 30
0.0
 40
50.30340000969741
100
AcDbArc
 50
270.0173219760583
 51
275.7218485012565
  0
ARC
  5
E1
330
1F
100
AcDbEntity
  8
0
  6
Continuous
 62
     7
100
AcDbCircle
 10
139.377743576
 20
292.8111616702
 30
0.0
 40
10.0
100
AcDbArc
 50
90.0
 51
270.0
  0
ARC
  5
E2
330
1F
100
AcDbEntity
  8
FASEN
  6
Continuous
 62
     7
100
AcDbCircle
 10
139.377743576
 20
292.8111616702
 30
0.0
 40
9.599999195899954
100
AcDbArc
 50
90.0
 51
270.0
  0
ARC
  5
E3
330
1F
100
AcDbEntity
  8
BEZUGSACHSEN
  6
Continuous
 62
     7
100
AcDbCircle
 10
82.377743576
 20
300.8211616702
 30
0.0
 40
1.999999999999992
100
AcDbArc
 50
4.76446378498877
 51
90.0
  0
ARC
  5
E4
330
1F
100
AcDbEntity
  8
BEZUGSACHSEN
  6
Continuous
 62
     7
100
AcDbCircle
 10
76.377743576
 20
326.4113532333
 30
0.0
 40
2.000000000047347
100
AcDbArc
 50
92.86812048629827
 51
180.0000000143238
  0
ARC
  5
E5
330
1F
100
AcDbEntity
  8
BEZUGSACHSEN
  6
Continuous
 62
     7
100
AcDbCircle
 10
143.502743576
 20
339.8111616702
 30
0.0
 40
1.0
100
AcDbArc
 50
180.0
 51
270.0
  0
ARC
  5
E6
330
1F
100
AcDbEntity
  8
BEZUGSACHSEN
  6
Continuous
 62
     7
100
AcDbCircle
 10
122.7558062351
 20
331.4934116702
 30
0.0
 40
1.000000000009859
100
AcDbArc
 50
255.000000000301
 51
270.0
  0
ARC
  5
E7
330
1F
100
AcDbEntity
  8
BEZUGSACHSEN
  6
Continuous
 62
     7
100
AcDbCircle
 10
123.6771722873
 20
331.4934116702
 30
0.0
 40
1.0
100
AcDbArc
 50
270.0
 51
314.4783570872776
  0
ARC
  5
E8
330
1F
100
AcDbEntity
  8
BEZUGSACHSEN
  6
Continuous
 62
     7
100
AcDbCircle
 10
260.7077901743
 20
-1313.23159762
 30
0.0
 40
1632.1727636983
100
AcDbArc
 50
96.2726189838
 51
96.48809068979999
  0
ARC
  5
E9
330
1F
100
AcDbEntity
  8
RUNDUNGEN
  6
Continuous
 62
     7
100
AcDbCircle
 10
173.377743576
 20
255.3111616702
 30
0.0
 40
20.00000000000003
100
AcDbArc
 50
90.0
 51
180.0
  0
ARC
  5
EA
330
1F
100
AcDbEntity
  8
BEZUGSACHSEN
  6
Continuous
 62
     7
100
AcDbCircle
 10
145.252743576
 20
245.8111616702
 30
0.0
 40
1.0
100
AcDbArc
 50
0.0
 51
90.0
  0
ARC
  5
EB
330
1F
100
AcDbEntity
  8
RUNDUNGEN
  6
Continuous
 62
     7
100
AcDbCircle
 10
203.377743576
 20
280.948231931
 30
0.0
 40
0.9999999999918526
100
AcDbArc
 50
295.0000000039673
 51
0.0
  0
ARC
  5
EC
330
1F
100
AcDbEntity
  8
RUNDUNGEN
  6
Continuous
 62
     7
100
AcDbCircle
 10
193.4335143108
 20
276.3111616702
 30
0.0
 40
1.0
100
AcDbArc
 50
270.0
 51
295.0000000039658
  0
ARC
  5
ED
330
1F
100
AcDbEntity
  8
BEZUGSACHSEN
  6
Continuous
 62
     7
100
AcDbCircle
 10
260.7077901795
 20
1898.8539210077
 30
0.0
 40
1632.1727637458
100
AcDbArc
 50
263.5119093102
 51
263.7273810162
  0
ARC
  5
EE
330
1F
100
AcDbEntity
  8
0
  6
Continuous
 62
     7
100
AcDbCircle
 10
388.9755234589
 20
362.2456292608
 30
0.0
 40
264.5204223905999
100
AcDbArc
 50
203.4229294508999
 51
204.159923529405
  0
ARC
  5
EF
330
1F
100
AcDbEntity
  8
RUNDUNGEN
  6
Continuous
 62
     7
100
AcDbCircle
 10
173.377743576
 20
330.3111616702
 30
0.0
 40
20.0
100
AcDbArc
 50
180.0
 51
270.0
  0
ARC
  5
F0
330
1F
100
AcDbEntity
  8
RUNDUNGEN
  6
Continuous
 62
     7
100
AcDbCircle
 10
203.377743576
 20
304.6740914094
 30
0.0
 40
1.0
100
AcDbArc
 50
0.0
 51
64.99999999845522
  0
ARC
  5
F1
330
1F
100
AcDbEntity
  8
BEZUGSACHSEN
  6
Continuous
 62
     7
100
AcDbCircle
 10
145.252743576
 20
339.8111616702
 30
0.0
 40
1.0
100
AcDbArc
 50
270.0
 51
0.0
  0
ARC
  5
F2
330
1F
100
AcDbEntity
  8
RUNDUNGEN
  6
Continuous
 62
     7
100
AcDbCircle
 10
193.4335143108
 20
309.3111616702
 30
0.0
 40
1.00000000008246
100
AcDbArc
 50
64.99999999845532
 51
90.0
  0
CIRCLE
  5
F3
330
1F
100
AcDbEntity
  8
BEZUGSACHSEN
  6
Continuous
 62
     7
100
AcDbCircle
 10
109.377743576
 20
292.8111616702
 30
0.0
 40
6.0
  0
SPLINE
  5
F4
330
1F
100
AcDbEntity
  8
0
  6
Continuous
 62
     2
100
AcDbSpline
210
0.0
220
0.0
230
1.0
 70
     8
 71
     3
 72
   153
 73
   149
 74
   147
 42
0.0000000001
 43
0.0000000001
 44
0.00000001
 40
0.0
 40
0.0
 40
0.0
 40
0.0
 40
0.0008920219434209
 40
0.0032499163127505
 40
0.0070692648306193
 40
0.0123456507736006
 40
0.019074658982568
 40
0.0272518758724506
 40
0.036872889441524
 40
0.0481135462994566
 40
0.0608318307784969
 40
0.0750215727008176
 40
0.0906766066811828
 40
0.1077907722852803
 40
0.1263579141416129
 40
0.1463718820287021
 40
0.1678251180138988
 40
0.1907044208688217
 40
0.2149951891794911
 40
0.2406828354906925
 40
0.2677527870015587
 40
0.2961904861659526
 40
0.3259813912274812
 40
0.3571121474803975
 40
0.3895741024400737
 40
0.4233597987023449
 40
0.4584618044122062
 40
0.4948727140058113
 40
0.5325851488741636
 40
0.5715917579668732
 40
0.6118855365097071
 40
0.6534607860195278
 40
0.6963121664725879
 40
0.7404343798280127
 40
0.7858221710000882
 40
0.8324703287470687
 40
0.8803736864899224
 40
0.9295241207391407
 40
0.9799015480912279
 40
1.031482939928501
 40
1.084245327256979
 40
1.138165802705703
 40
1.193221522569475
 40
1.249389708899276
 40
1.306645091113349
 40
1.364952221885042
 40
1.424273152576064
 40
1.484569995747065
 40
1.545804928083915
 40
1.607940193484361
 40
1.670938106318464
 40
1.745491050633661
 40
1.821199032883064
 40
1.898094278615382
 40
1.976209168000564
 40
2.055576233957961
 40
2.136228159810927
 40
2.218183877166774
 40
2.301406876998718
 40
2.385846925294049
 40
2.471453972191216
 40
2.558178160958226
 40
2.645969837473364
 40
2.734773266758464
 40
2.824507717082227
 40
2.915086290346863
 40
3.006422223706334
 40
3.098428904784821
 40
3.191019887681493
 40
3.330806147336164
 40
3.47138085554994
 40
3.61241191162857
 40
3.753567358800502
 40
3.894588099142259
 40
4.035505600917825
 40
4.176423971865824
 40
4.31744732064353
 40
4.458606703185899
 40
4.599640948815448
 40
4.740215610620536
 40
4.879996096167661
 40
4.972578984568146
 40
5.064574185787312
 40
5.155895521434148
 40
5.246456646087484
 40
5.336171063261678
 40
5.424952140585174
 40
5.512719478167437
 40
5.599417938558655
 40
5.684998532257121
 40
5.769412067400181
 40
5.852609159141004
 40
5.934540238531711
 40
6.01516936946182
 40
6.094515690361411
 40
6.172611999708305
 40
6.249490946046433
 40
6.325185025619873
 40
6.399726580478539
 40
6.46271673879095
 40
6.524845767699794
 40
6.586075567256881
 40
6.646367967033951
 40
6.705684729411785
 40
6.763987552693306
 40
6.821238074052681
 40
6.877400535735791
 40
6.932449773014723
 40
6.98636321746224
 40
7.039118234888446
 40
7.090692127420842
 40
7.141062135537886
 40
7.190205440061012
 40
7.238102145693382
 40
7.284744230565535
 40
7.330126608492544
 40
7.374244148683393
 40
7.417091676555366
 40
7.458663974618204
 40
7.498955783442181
 40
7.537961451846599
 40
7.575673890130818
 40
7.612085628984062
 40
7.64718917154618
 40
7.680976994013784
 40
7.713441546306228
 40
7.744575252808243
 40
7.774369348660041
 40
7.802810389251637
 40
7.829883748742459
 40
7.855574785489383
 40
7.879868842583877
 40
7.902751248453937
 40
7.924207317561596
 40
7.944223785105266
 40
7.962793112351738
 40
7.979909188830435
 40
7.9955658989297
 40
8.00975712198243
 40
8.022476732377097
 40
8.033718599713177
 40
8.043339039411922
 40
8.051516130555713
 40
8.058245438850921
 40
8.063522528407667
 40
8.067342961749413
 40
8.069702299822874
 40
8.070596102008174
 40
8.070596102008174
 40
8.070596102008174
 40
8.070596102008174
 10
188.3777353465
 20
275.3111321492
 30
0.0
 10
188.3774456376871
 20
275.3111990839963
 30
0.0
 10
188.376390137423
 20
275.3114429484977
 30
0.0
 10
188.3740938165602
 20
275.3119717532173
 30
0.0
 10
188.3703729015185
 20
275.3128267218532
 30
0.0
 10
188.3652312347673
 20
275.3140048504505
 30
0.0
 10
188.3586727683548
 20
275.3155036090907
 30
0.0
 10
188.350701403071
 20
275.3173202461061
 30
0.0
 10
188.3412624710038
 20
275.3194654248274
 30
0.0
 10
188.330345980164
 20
275.3219394136509
 30
0.0
 10
188.3179422155019
 20
275.3247410385603
 30
0.0
 10
188.3041006701069
 20
275.3278558616875
 30
0.0
 10
188.2888266694708
 20
275.331279422005
 30
0.0
 10
188.2721255402068
 20
275.335007263303
 30
0.0
 10
188.254002607076
 20
275.3390349213041
 30
0.0
 10
188.2344636576925
 20
275.3433578429377
 30
0.0
 10
188.2135167653838
 20
275.3479709125439
 30
0.0
 10
188.1911722605973
 20
275.3528661292121
 30
0.0
 10
188.1674427880876
 20
275.3580350419127
 30
0.0
 10
188.1423414475776
 20
275.3634690758598
 30
0.0
 10
188.1158813397225
 20
275.369159660117
 30
0.0
 10
188.0880755640343
 20
275.3750982187037
 30
0.0
 10
188.0589368397047
 20
275.3812762627173
 30
0.0
 10
188.0284759684104
 20
275.3876856737941
 30
0.0
 10
187.9967011478806
 20
275.3943173334525
 30
0.0
 10
187.963618675949
 20
275.4011625589782
 30
0.0
 10
187.9292344664487
 20
275.4082127382055
 30
0.0
 10
187.8935544337045
 20
275.4154592609194
 30
0.0
 10
187.8565844913732
 20
275.422893513982
 30
0.0
 10
187.8183304504457
 20
275.4305069104782
 30
0.0
 10
187.7787975941098
 20
275.4382909415309
 30
0.0
 10
187.7379902302542
 20
275.4462354465926
 30
0.0
 10
187.6959121548863
 20
275.4543303931249
 30
0.0
 10
187.6525670583886
 20
275.4625657614699
 30
0.0
 10
187.6079586315392
 20
275.4709315333921
 30
0.0
 10
187.5620905648472
 20
275.4794176896385
 30
0.0
 10
187.5149675335611
 20
275.4880140311845
 30
0.0
 10
187.4665991378617
 20
275.4967094845728
 30
0.0
 10
187.4170006650716
 20
275.5054906821656
 30
0.0
 10
187.3661923261769
 20
275.5143433466069
 30
0.0
 10
187.3141953169877
 20
275.5232530230947
 30
0.0
 10
187.2610308332004
 20
275.5322052561703
 30
0.0
 10
187.2067200707398
 20
275.5411855917224
 30
0.0
 10
187.1512850666371
 20
275.5501794326194
 30
0.0
 10
187.0947520809011
 20
275.5591715463157
 30
0.0
 10
187.0371526723197
 20
275.5681474073815
 30
0.0
 10
186.9785226015661
 20
275.5770917715034
 30
0.0
 10
186.9188984731883
 20
275.5859892670587
 30
0.0
 10
186.8583168920259
 20
275.5948245220935
 30
0.0
 10
186.7968144600914
 20
275.6035821604845
 30
0.0
 10
186.7308851228622
 20
275.6127388535241
 30
0.0
 10
186.6604377622533
 20
275.6222498088963
 30
0.0
 10
186.5853576825125
 20
275.6320651604266
 30
0.0
 10
186.5090581563892
 20
275.6417066531461
 30
0.0
 10
186.4315063638657
 20
275.6511612556423
 30
0.0
 10
186.3526694837389
 20
275.6604159501744
 30
0.0
 10
186.2725192975569
 20
275.6694571745173
 30
0.0
 10
186.1910506321946
 20
275.6782690617256
 30
0.0
 10
186.1082857569059
 20
275.6868310332667
 30
0.0
 10
186.0242699454576
 20
275.6951197269606
 30
0.0
 10
185.9390530801113
 20
275.7031113066034
 30
0.0
 10
185.8526850433859
 20
275.7107819352148
 30
0.0
 10
185.7652178037636
 20
275.718107580824
 30
0.0
 10
185.6767138223657
 20
275.725063520636
 30
0.0
 10
185.5872487109184
 20
275.731631572747
 30
0.0
 10
185.4969084850018
 20
275.7377925503094
 30
0.0
 10
185.4057812592727
 20
275.7435271229616
 30
0.0
 10
185.3139551274802
 20
275.7488159767395
 30
0.0
 10
185.2059735909699
 20
275.7544509100419
 30
0.0
 10
185.0817821460034
 20
275.7600766235575
 30
0.0
 10
184.9414133349042
 20
275.7652883939526
 30
0.0
 10
184.800550488653
 20
275.7693701780149
 30
0.0
 10
184.6595102770195
 20
275.7723018502412
 30
0.0
 10
184.518488413529
 20
275.7740629191526
 30
0.0
 10
184.3775357949575
 20
275.774648836019
 30
0.0
 10
184.2365823210383
 20
275.7740595095967
 30
0.0
 10
184.0955580297624
 20
275.7722949422135
 30
0.0
 10
183.9545146486513
 20
275.7693596216784
 30
0.0
 10
183.8136495470572
 20
275.7652742160855
 30
0.0
 10
183.6732817407831
 20
275.7600590280604
 30
0.0
 10
183.5490950638502
 20
275.7544305621991
 30
0.0
 10
183.4411220987581
 20
275.7487935144376
 30
0.0
 10
183.349307462503
 20
275.7435031706389
 30
0.0
 10
183.2581948481152
 20
275.7377674264428
 30
0.0
 10
183.1678720782
 20
275.7316056334636
 30
0.0
 10
183.078426996238
 20
275.7250371599453
 30
0.0
 10
182.9899453244741
 20
275.7180812288145
 30
0.0
 10
182.9025022705949
 20
275.7107560478497
 30
0.0
 10
182.8161597650453
 20
275.7030862792387
 30
0.0
 10
182.7309691353834
 20
275.6950958862294
 30
0.0
 10
182.6469796010186
 20
275.6868086350751
 30
0.0
 10
182.5642403810924
 20
275.6782482913296
 30
0.0
 10
182.482796116826
 20
275.6694381494747
 30
0.0
 10
182.4026685964428
 20
275.6603987388995
 30
0.0
 10
182.3238523532876
 20
275.651145851304
 30
0.0
 10
182.2463190276715
 20
275.6416929882297
 30
0.0
 10
182.1700356876445
 20
275.6320531103843
 30
0.0
 10
182.0949694024502
 20
275.6222391921143
 30
0.0
 10
182.0245330001366
 20
275.6127294015437
 30
0.0
 10
181.9586120808623
 20
275.6035735973176
 30
0.0
 10
181.897115992954
 20
275.5948166255363
 30
0.0
 10
181.8365396561748
 20
275.5859819349159
 30
0.0
 10
181.7769200826209
 20
275.5770849583843
 30
0.0
 10
181.7182942872143
 20
275.5681411246969
 30
0.0
 10
181.6606992845933
 20
275.5591658622476
 30
0.0
 10
181.6041712113641
 20
275.5501744668687
 30
0.0
 10
181.5487418313893
 20
275.5411814866805
 30
0.0
 10
181.4944374029293
 20
275.5322021540451
 30
0.0
 10
181.4412797899323
 20
275.5232510397437
 30
0.0
 10
181.3892899811582
 20
275.5143425658473
 30
0.0
 10
181.3384889651319
 20
275.5054911558091
 30
0.0
 10
181.2888977304893
 20
275.4967112324292
 30
0.0
 10
181.2405362880426
 20
275.4880170422524
 30
0.0
 10
181.193419760199
 20
275.4794219288725
 30
0.0
 10
181.1475576271744
 20
275.4709369349258
 30
0.0
 10
181.1029544796979
 20
275.4625722346652
 30
0.0
 10
181.059613930726
 20
275.4543378239075
 30
0.0
 10
181.0175395934872
 20
275.4462436974366
 30
0.0
 10
180.976735080813
 20
275.4382998514681
 30
0.0
 10
180.9372041220606
 20
275.4305162972372
 30
0.0
 10
180.8989510125831
 20
275.4229031848886
 30
0.0
 10
180.8619810870632
 20
275.4154690308581
 30
0.0
 10
180.8263002621585
 20
275.4082224401586
 30
0.0
 10
180.7919145680933
 20
275.4011720462006
 30
0.0
 10
180.7588300357583
 20
275.3943264794757
 30
0.0
 10
180.7270526955555
 20
275.3876943724144
 30
0.0
 10
180.6965889599796
 20
275.3812844276407
 30
0.0
 10
180.6674471322375
 20
275.3751057814276
 30
0.0
 10
180.6396381068737
 20
275.3691665745718
 30
0.0
 10
180.6131746866756
 20
275.3634753166098
 30
0.0
 10
180.5880700528571
 20
275.3580406037176
 30
0.0
 10
180.5643373877735
 20
275.3528710270299
 30
0.0
 10
180.5419898728477
 20
275.3479751815377
 30
0.0
 10
180.5210402278506
 20
275.3433615369603
 30
0.0
 10
180.501498824594
 20
275.339038105553
 30
0.0
 10
180.4833737385624
 20
275.335010000368
 30
0.0
 10
180.4666707259129
 20
275.3312817644003
 30
0.0
 10
180.4513950732575
 20
275.3278578504004
 30
0.0
 10
180.4375520690514
 20
275.3247427030909
 30
0.0
 10
180.4251470006382
 20
275.3219407719698
 30
0.0
 10
180.4142298783456
 20
275.3194666096621
 30
0.0
 10
180.4047907913921
 20
275.3173213440471
 30
0.0
 10
180.3968195699373
 20
275.3155046752552
 30
0.0
 10
180.3902608334662
 20
275.3140057847262
 30
0.0
 10
180.3851185029385
 20
275.312827435984
 30
0.0
 10
180.3813965507716
 20
275.3119721699651
 30
0.0
 10
180.3790988393317
 20
275.3114430036385
 30
0.0
 10
180.3780422969392
 20
275.3111988758519
 30
0.0
 10
180.3777520113
 20
275.3111318016
 30
0.0
 11
188.3777353465
 21
275.3111321492
 31
0.0
 11
188.3768662068496
 21
275.3113328963435
 31
0.0
 11
188.374568510567
 21
275.3118622900061
 31
0.0
 11
188.3708461733123
 21
275.3127176428357
 31
0.0
 11
188.3657031107455
 21
275.3138962674803
 31
0.0
 11
188.3591432385266
 21
275.3153954765879
 31
0.0
 11
188.3511704723157
 21
275.3172125828066
 31
0.0
 11
188.3417887277728
 21
275.3193448987842
 31
0.0
 11
188.3308260610133
 21
275.3218293110122
 31
0.0
 11
188.3184202990676
 21
275.3246314228292
 31
0.0
 11
188.3045767662128
 21
275.3277467677415
 31
0.0
 11
188.2893007867265
 21
275.3311708792554
 31
0.0
 11
188.2725976848857
 21
275.3348992908772
 31
0.0
 11
188.2544727849678
 21
275.3389275361128
 31
0.0
 11
188.23493141125
 21
275.3432511484689
 31
0.0
 11
188.2139801837794
 21
275.3478649756992
 31
0.0
 11
188.1916309053899
 21
275.3527611226127
 31
0.0
 11
188.167896674679
 21
275.3579310082672
 31
0.0
 11
188.1427905902438
 21
275.3633660517208
 31
0.0
 11
188.1163257506818
 21
275.3690576720314
 31
0.0
 11
188.0885152545902
 21
275.3749972882569
 31
0.0
 11
188.0593722005664
 21
275.3811763194552
 31
0.0
 11
188.0289084895743
 21
275.3875861788505
 31
0.0
 11
187.9971312324671
 21
275.3942182562434
 31
0.0
 11
187.9640463424706
 21
275.4010639355995
 31
0.0
 11
187.9296597328108
 21
275.4081146008842
 31
0.0
 11
187.8939773167134
 21
275.4153616360634
 31
0.0
 11
187.8570050074044
 21
275.4227964251027
 31
0.0
 11
187.8187487181096
 21
275.4304103519677
 31
0.0
 11
187.7792139916255
 21
275.4381945661918
 31
0.0
 11
187.7384048884831
 21
275.4461392796867
 31
0.0
 11
187.6963250987781
 21
275.4542344699324
 31
0.0
 11
187.6529783126062
 21
275.4624701144093
 31
0.0
 11
187.6083682200632
 21
275.4708361905974
 31
0.0
 11
187.5624985112447
 21
275.479322675977
 31
0.0
 11
187.5153728762466
 21
275.487919548028
 31
0.0
 11
187.4669979227232
 21
275.4966160449375
 31
0.0
 11
187.4173919292332
 21
275.5053984475978
 31
0.0
 11
187.3665760919001
 21
275.5142522976081
 31
0.0
 11
187.3145716068469
 21
275.5231631365668
 31
0.0
 11
187.261399670197
 21
275.5321165060732
 31
0.0
 11
187.2070814780736
 21
275.5410979477258
 31
0.0
 11
187.1516382265999
 21
275.5500930031235
 31
0.0
 11
187.0950936803415
 21
275.5590870612126
 31
0.0
 11
187.0374818768513
 21
275.5680649004536
 31
0.0
 11
186.9788394221196
 21
275.5770111466542
 31
0.0
 11
186.9192029221365
 21
275.5859104256224
 31
0.0
 11
186.8586089828921
 21
275.5947473631661
 31
0.0
 11
186.7970942103768
 21
275.6035065850932
 31
0.0
 11
186.7346952105806
 21
275.6121727172115
 31
0.0
 11
186.6608124896796
 21
275.6221469368964
 31
0.0
 11
186.5857432379855
 21
275.6319605002842
 31
0.0
 11
186.5094546314672
 21
275.6416003826349
 31
0.0
 11
186.4319138460938
 21
275.6510535592089
 31
0.0
 11
186.3530880578342
 21
275.6603070052664
 31
0.0
 11
186.2729444426573
 21
275.6693476960675
 31
0.0
 11
186.1914639619254
 21
275.6781608037493
 31
0.0
 11
186.1086827174481
 21
275.6867242880762
 31
0.0
 11
186.0246505964222
 21
275.6950143056884
 31
0.0
 11
185.9394174860444
 21
275.7030070132262
 31
0.0
 11
185.8530332735115
 21
275.7106785673297
 31
0.0
 11
185.7655478460203
 21
275.7180051246393
 31
0.0
 11
185.6770174627496
 21
275.7249635936338
 31
0.0
 11
185.5875238720301
 21
275.7315338900522
 31
0.0
 11
185.497155194179
 21
275.7376966814738
 31
0.0
 11
185.4059995495139
 21
275.7434326354779
 31
0.0
 11
185.3141450583523
 21
275.7487224196438
 31
0.0
 11
185.2216798410116
 21
275.7535467015509
 31
0.0
 11
185.0820369185558
 21
275.7598754136035
 31
0.0
 11
184.941559048734
 21
275.7650923743765
 31
0.0
 11
184.800587147363
 21
275.7691767106141
 31
0.0
 11
184.6594621302601
 21
275.7721075490607
 31
0.0
 11
184.5184523723632
 21
275.7738674878142
 31
0.0
 11
184.3775360870375
 21
275.7744530103673
 31
0.0
 11
184.236618946768
 21
275.7738640715711
 31
0.0
 11
184.0956066240399
 21
275.7721006262773
 31
0.0
 11
183.9544777463917
 21
275.7691661461676
 31
0.0
 11
183.8135027596289
 21
275.7650781701999
 31
0.0
 11
183.6730250646095
 21
275.7598577541572
 31
0.0
 11
183.5333880621914
 21
275.7535259538222
 31
0.0
 11
183.4409310426023
 21
275.7486999043748
 31
0.0
 11
183.349088135891
 21
275.7434086347563
 31
0.0
 11
183.2579471911732
 21
275.7376715152462
 31
0.0
 11
183.1675960575647
 21
275.7315079161246
 31
0.0
 11
183.0781225841811
 21
275.7249372076709
 31
0.0
 11
182.9896146201382
 21
275.717978760165
 31
0.0
 11
182.9021535770351
 21
275.7106526776104
 31
0.0
 11
182.8157951164048
 21
275.7029819989065
 31
0.0
 11
182.7305884622639
 21
275.6949904966764
 31
0.0
 11
182.6465828386289
 21
275.686701943543
 31
0.0
 11
182.5638274695162
 21
275.6781401121297
 31
0.0
 11
182.4823715789425
 21
275.6693287750595
 31
0.0
 11
182.4022506979738
 21
275.6602899041482
 31
0.0
 11
182.3234455847752
 21
275.6510382678571
 31
0.0
 11
182.2459233045675
 21
275.6415868338393
 31
0.0
 11
182.1696509225713
 21
275.6319485697477
 31
0.0
 11
182.0945955040076
 21
275.6221364432354
 31
0.0
 11
182.0207241140972
 21
275.6121634219551
 31
0.0
 11
181.9583328308202
 21
275.6034980993839
 31
0.0
 11
181.8968242652618
 21
275.5947395266634
 31
0.0
 11
181.8362354335148
 21
275.5859031347903
 31
0.0
 11
181.7766033516722
 21
275.5770043547616
 31
0.0
 11
181.717965035827
 21
275.5680586175742
 31
0.0
 11
181.6603575020719
 21
275.5590813542245
 31
0.0
 11
181.6038177664999
 21
275.5500879957099
 31
0.0
 11
181.5483801741387
 21
275.5410938056128
 31
0.0
 11
181.4940683849934
 21
275.5321133777372
 31
0.0
 11
181.440903388009
 21
275.5231611384728
 31
0.0
 11
181.3889061721305
 21
275.5142515142091
 31
0.0
 11
181.3380977263028
 21
275.5053989313363
 31
0.0
 11
181.288499039471
 21
275.496617816244
 31
0.0
 11
181.2401311005799
 21
275.4879225953219
 31
0.0
 11
181.1930120024012
 21
275.4793269570524
 31
0.0
 11
181.1471482536591
 21
275.4708416384053
 31
0.0
 11
181.1025434668987
 21
275.462476638443
 31
0.0
 11
181.0592012546651
 21
275.4542419562275
 31
0.0
 11
181.0171252295035
 21
275.4461475908208
 31
0.0
 11
180.9763190039589
 21
275.438203541285
 31
0.0
 11
180.9367861905763
 21
275.4304198066823
 31
0.0
 11
180.8985308048625
 21
275.422806158965
 31
0.0
 11
180.861558473646
 21
275.4153714615428
 31
0.0
 11
180.8258752267228
 21
275.4081243507162
 31
0.0
 11
180.7914870938889
 21
275.4010734627856
 31
0.0
 11
180.7584001049403
 21
275.3942274340521
 31
0.0
 11
180.7266202896731
 21
275.3875949008161
 31
0.0
 11
180.6961536778831
 21
275.3811844993782
 31
0.0
 11
180.6670074910512
 21
275.3750048601669
 31
0.0
 11
180.6391937177952
 21
275.3690645902069
 31
0.0
 11
180.6127255384118
 21
275.3633722906496
 31
0.0
 11
180.5876161331977
 21
275.3579365626464
 31
0.0
 11
180.5638786824495
 21
275.3527660073488
 31
0.0
 11
180.5415263664638
 21
275.3478692259081
 31
0.0
 11
180.5205723655372
 21
275.3432548194759
 31
0.0
 11
180.5010285443165
 21
275.3389306981754
 31
0.0
 11
180.4829015045824
 21
275.3349020079583
 31
0.0
 11
180.4661965324723
 21
275.3311732037498
 31
0.0
 11
180.4509189141236
 21
275.3277487404745
 31
0.0
 11
180.4370739356736
 21
275.3246330730578
 31
0.0
 11
180.4246668832596
 21
275.3218306564244
 31
0.0
 11
180.413703043019
 21
275.3193459454994
 31
0.0
 11
180.4043218693092
 21
275.31721370728
 31
0.0
 11
180.3963492398076
 21
275.3153965671082
 31
0.0
 11
180.3897890903964
 21
275.3138972239736
 31
0.0
 11
180.3846453569579
 21
275.312718376866
 31
0.0
 11
180.3809219753742
 21
275.3118627247749
 31
0.0
 11
180.3786228815275
 21
275.3113329666896
 31
0.0
 11
180.3777520113
 21
275.3111318016
 31
0.0
  0
SPLINE
  5
F5
330
1F
100
AcDbEntity
  8
GEWINDE
  6
Continuous
 62
     7
100
AcDbSpline
210
0.0
220
0.0
230
1.0
 70
     8
 71
     3
 72
    19
 73
    15
 74
    13
 42
0.0000000001
 43
0.0000000001
 44
0.00000001
 40
0.0
 40
0.0
 40
0.0
 40
0.0
 40
0.5048361481385949
 40
1.009698228888378
 40
1.563488900101988
 40
2.117284930497988
 40
2.769355420706962
 40
3.421444344667817
 40
4.073533435567512
 40
4.725604092697133
 40
5.279400196921404
 40
5.833190941907895
 40
6.338053196366104
 40
6.842889518419177
 40
6.842889518419177
 40
6.842889518419177
 40
6.842889518419177
 10
180.977743576
 20
275.3111616702
 30
0.0
 10
181.1431794364966
 20
275.3420187315069
 30
0.0
 10
181.4740596556608
 20
275.4037344391976
 30
0.0
 10
181.9894557157797
 20
275.4816955495305
 30
0.0
 10
182.5229498876233
 20
275.5476355360384
 30
0.0
 10
183.1071565330945
 20
275.6011491479028
 30
0.0
 10
183.7256219156505
 20
275.6363442028824
 30
0.0
 10
184.3777432168813
 20
275.6487646315067
 30
0.0
 10
185.0298645743508
 20
275.6363442283696
 30
0.0
 10
185.6483300938099
 20
275.6011491856922
 30
0.0
 10
186.2325368452205
 20
275.5476355806306
 30
0.0
 10
186.7660311249651
 20
275.4816955937665
 30
0.0
 10
187.2814273253763
 20
275.4037344709462
 30
0.0
 10
187.6123076584933
 20
275.342018742094
 30
0.0
 10
187.777743576
 20
275.3111616702
 30
0.0
 11
180.977743576
 21
275.3111616702
 31
0.0
 11
181.4745415321919
 21
275.4008908582658
 31
0.0
 11
181.9736191288758
 21
275.4770963243905
 31
0.0
 11
182.5232639542557
 21
275.5447326567593
 31
0.0
 11
183.0747516506457
 21
275.5952436853851
 31
0.0
 11
183.7257718906056
 21
275.6322378925507
 31
0.0
 11
184.377743161331
 21
275.6446244538672
 31
0.0
 11
185.0297145994722
 21
275.6322379160763
 31
0.0
 11
185.6807350072913
 21
275.5952437206867
 31
0.0
 11
186.232222778599
 21
275.5447327005824
 31
0.0
 11
186.781867678811
 21
275.4770963722992
 31
0.0
 11
187.2809454483946
 21
275.4008908876926
 31
0.0
 11
187.777743576
 21
275.3111616702
 31
0.0
  0
SPLINE
  5
F6
330
1F
100
AcDbEntity
  8
BEZUGSACHSEN
  6
Continuous
 62
     7
100
AcDbSpline
210
0.0
220
0.0
230
1.0
 70
     8
 71
     3
 72
    47
 73
    43
 74
    41
 42
0.0000000001
 43
0.0000000001
 44
0.00000001
 40
0.0
 40
0.0
 40
0.0
 40
0.0
 40
0.6366022431822301
 40
1.273595002171288
 40
1.592921746398888
 40
1.912076344884354
 40
2.231392290413811
 40
2.550826842715978
 40
3.189774321146219
 40
3.829081696996302
 40
4.46833715252193
 40
5.107221744801766
 40
5.42617634129173
 40
5.745033356831365
 40
6.063356731594478
 40
6.381780214891098
 40
7.017059195669267
 40
7.652639340983642
 40
8.287532214223278
 40
8.922347946485203
 40
9.559226748569568
 40
10.1961343593683
 40
10.83451785502868
 40
11.4728768997248
 40
12.11234487361336
 40
12.7518958894245
 40
13.39354300512615
 40
14.03487957348889
 40
14.35615205765985
 40
14.67732107708221
 40
14.99840882470943
 40
15.31959604121773
 40
15.96011121026657
 40
16.60099592086138
 40
17.23809108074357
 40
17.87482555196735
 40
18.1920567032969
 40
18.50917199097585
 40
18.82571084626349
 40
19.14241581825901
 40
19.77338974995423
 40
20.4039893073391
 40
20.4039893073391
 40
20.4039893073391
 40
20.4039893073391
 10
102.8783279817
 20
292.8111616508
 30
0.0
 10
102.8843336255867
 20
293.0234414604952
 30
0.0
 10
102.8963485974484
 20
293.4481313003209
 30
0.0
 10
102.9776139426564
 20
293.9742740614365
 30
0.0
 10
103.0703335392575
 20
294.3892484375608
 30
0.0
 10
103.1556265034017
 20
294.6970724132508
 30
0.0
 10
103.2558651168416
 20
295.0003650900259
 30
0.0
 10
103.4093506659969
 20
295.3978024525632
 30
0.0
 10
103.6378226127697
 20
295.8799020294518
 30
0.0
 10
103.9674375733191
 20
296.428717902309
 30
0.0
 10
104.3496647904122
 20
296.9422534416709
 30
0.0
 10
104.7085194875409
 20
297.3367562037591
 30
0.0
 10
105.0174728411061
 20
297.6296295018045
 30
0.0
 10
105.2593679500799
 20
297.8373513229091
 30
0.0
 10
105.5110112035689
 20
298.0328607200163
 30
0.0
 10
105.8583053107325
 20
298.276355922654
 30
0.0
 10
106.3140456454922
 20
298.5482379926763
 30
0.0
 10
106.8895250701767
 20
298.8195671051894
 30
0.0
 10
107.4886358353389
 20
299.0333507360031
 30
0.0
 10
108.1060862378018
 20
299.1880404673751
 30
0.0
 10
108.7363567995012
 20
299.2818474510264
 30
0.0
 10
109.3739507342309
 20
299.3139741758323
 30
0.0
 10
110.012129378458
 20
299.2835446028834
 30
0.0
 10
110.6451417996358
 20
299.1908733477206
 30
0.0
 10
111.2663754840457
 20
299.0363813864913
 30
0.0
 10
111.870511235995
 20
298.821344253963
 30
0.0
 10
112.4509903095682
 20
298.5474208882744
 30
0.0
 10
112.910619333795
 20
298.2722540102251
 30
0.0
 10
113.2605183224511
 20
298.0256443113371
 30
0.0
 10
113.5136499516068
 20
297.8277401189403
 30
0.0
 10
113.7566485909851
 20
297.6175615895326
 30
0.0
 10
114.0658929345224
 20
297.3220422493936
 30
0.0
 10
114.4242131253432
 20
296.9245712666608
 30
0.0
 10
114.8041635436831
 20
296.4089045051357
 30
0.0
 10
115.1306365732522
 20
295.8593083486743
 30
0.0
 10
115.3560077132115
 20
295.3782028069671
 30
0.0
 10
115.5070986963636
 20
294.9822126193473
 30
0.0
 10
115.6055116139132
 20
294.6807862685519
 30
0.0
 10
115.6891783920835
 20
294.3750909006127
 30
0.0
 10
115.7799977495228
 20
293.9635388828727
 30
0.0
 10
115.8595127251953
 20
293.442113666364
 30
0.0
 10
115.8712850098143
 20
293.0214373772275
 30
0.0
 10
115.8771694054
 20
292.8111616509
 30
0.0
 11
102.8783279817
 21
292.8111616508
 31
0.0
 11
102.9095766527398
 21
293.4469964851579
 31
0.0
 11
103.0030178551134
 21
294.0770984742862
 31
0.0
 11
103.0729583621478
 21
294.3886717322124
 31
0.0
 11
103.158099701124
 21
294.6962601099704
 31
0.0
 11
103.2583242392619
 21
294.9994394546237
 31
0.0
 11
103.373404129014
 21
295.2974244411232
 31
0.0
 11
103.6470000232583
 21
295.8748317209916
 31
0.0
 11
103.9762195369364
 21
296.4228540130837
 31
0.0
 11
104.3578437922838
 21
296.9356994724083
 31
0.0
 11
104.7877784284126
 21
297.4082772235872
 31
0.0
 11
105.0192506894738
 21
297.627714291972
 31
0.0
 11
105.261153090501
 21
297.8354473532215
 31
0.0
 11
105.5125268976555
 21
298.0307445114119
 31
0.0
 11
105.7732561759474
 21
298.2135388170019
 31
0.0
 11
106.3187898201573
 21
298.5390728804326
 31
0.0
 11
106.893699640276
 21
298.8100725480503
 31
0.0
 11
107.4916458280229
 21
299.0234954077665
 31
0.0
 11
108.1074383602463
 21
299.1777373319799
 31
0.0
 11
108.737370642224
 21
299.2715452669685
 31
0.0
 11
109.3734737639616
 21
299.3035471920507
 31
0.0
 11
110.0111347229783
 21
299.2731829222991
 31
0.0
 11
110.6427522558743
 21
299.1806542127886
 31
0.0
 11
111.2633251279659
 21
299.0263538561684
 31
0.0
 11
111.8658259350864
 21
298.8118351407978
 31
0.0
 11
112.4461331314529
 21
298.5380568017468
 31
0.0
 11
112.9963581194988
 21
298.2085646827984
 31
0.0
 11
113.2589654236478
 21
298.0234879071269
 31
0.0
 11
113.5119858810506
 21
297.8256743909749
 31
0.0
 11
113.7548341824405
 21
297.6156219113695
 31
0.0
 11
113.9870366178762
 21
297.3937136937973
 31
0.0
 11
114.415952675637
 21
296.9180134760377
 31
0.0
 11
114.7960633342966
 21
296.4020201626628
 31
0.0
 11
115.1215024799827
 21
295.8543162232937
 31
0.0
 11
115.3915833380783
 21
295.2776992647025
 31
0.0
 11
115.5046737832567
 21
294.9813107450476
 31
0.0
 11
115.603117886595
 21
294.6798627989647
 31
0.0
 11
115.6866006919706
 21
294.3745310644309
 31
0.0
 11
115.7551501154147
 21
294.0653336908454
 31
0.0
 11
115.8465771933392
 21
293.4410187127285
 31
0.0
 11
115.8771694054
 21
292.8111616509
 31
0.0
  0
SPLINE
  5
F7
330
1F
100
AcDbEntity
  8
BEZUGSACHSEN
  6
Continuous
 62
     7
100
AcDbSpline
210
0.0
220
0.0
230
1.0
 70
     8
 71
     3
 72
    47
 73
    43
 74
    41
 42
0.0000000001
 43
0.0000000001
 44
0.00000001
 40
0.0
 40
0.0
 40
0.0
 40
0.0
 40
0.6302393213890564
 40
1.260854867253959
 40
1.577476088328297
 40
1.893930800145931
 40
2.21099911378633
 40
2.528183472126713
 40
3.164887038181471
 40
3.801951183339487
 40
4.442851001556496
 40
5.083381259714817
 40
5.404527292233422
 40
5.725573838675563
 40
6.046670709946762
 40
6.367871027072206
 40
7.009090242472467
 40
7.650619763895932
 40
8.290330346451732
 40
8.929958764453152
 40
9.568647011318978
 40
10.20735923009064
 40
10.84445705809378
 40
11.48152626487753
 40
12.11643462213568
 40
12.75141965569701
 40
13.38691908726749
 40
14.0221173851975
 40
14.34050449132148
 40
14.65879153782379
 40
14.97761586860505
 40
15.29653774938596
 40
15.93537694095528
 40
16.57458694060033
 40
17.2138627498263
 40
17.85277859065572
 40
18.17219860075059
 40
18.4915002406972
 40
18.81067156628689
 40
19.13001452413975
 40
19.7671962701664
 40
20.40398968275338
 40
20.40398968275338
 40
20.40398968275338
 40
20.40398968275338
 10
115.8771572138
 20
292.8111616889
 30
0.0
 10
115.8712880120642
 20
292.6010056670336
 30
0.0
 10
115.8595461049436
 20
292.1805681696257
 30
0.0
 10
115.7800993624283
 20
291.6594047273881
 30
0.0
 10
115.6893678573335
 20
291.2480132599725
 30
0.0
 10
115.6057624750116
 20
290.9423754196904
 30
0.0
 10
115.5074105336358
 20
290.6409915735051
 30
0.0
 10
115.3563917227802
 20
290.245018393907
 30
0.0
 10
115.1311091351783
 20
289.7639115852151
 30
0.0
 10
114.8047311004344
 20
289.2142773602044
 30
0.0
 10
114.4248640384023
 20
288.698549497538
 30
0.0
 10
114.0666095991239
 20
288.3010240953347
 30
0.0
 10
113.7574288614578
 20
288.0054707403995
 30
0.0
 10
113.5145039054282
 20
287.7952858319657
 30
0.0
 10
113.2614550021004
 20
287.5973763676499
 30
0.0
 10
112.9116724936338
 20
287.3507530161819
 30
0.0
 10
112.4521872558834
 20
287.0755464068773
 30
0.0
 10
111.8717915489163
 20
286.8015063001332
 30
0.0
 10
111.2676372410553
 20
286.5863178228012
 30
0.0
 10
110.6462220936361
 20
286.4316559837998
 30
0.0
 10
110.0129528822069
 20
286.3388456107773
 30
0.0
 10
109.374493417788
 20
286.3083348609693
 30
0.0
 10
108.7366604042491
 20
286.3404366033518
 30
0.0
 10
108.1062304172617
 20
286.4342496657277
 30
0.0
 10
107.4886567477674
 20
286.5889634820162
 30
0.0
 10
106.8895133363376
 20
286.8027600540729
 30
0.0
 10
106.3140561148664
 20
287.0740814224863
 30
0.0
 10
105.8583707219067
 20
287.3459263061048
 30
0.0
 10
105.5111148241567
 20
287.5893868586896
 30
0.0
 10
105.2594952428511
 20
287.7848693850194
 30
0.0
 10
105.0176201925801
 20
287.992562443734
 30
0.0
 10
104.7086839089048
 20
288.2853999918913
 30
0.0
 10
104.3498411520137
 20
288.6798576408318
 30
0.0
 10
103.9676142467643
 20
289.19334230677
 30
0.0
 10
103.6379898015007
 20
289.742110085473
 30
0.0
 10
103.4095023555803
 20
290.2241735019632
 30
0.0
 10
103.2560008556204
 20
290.6215830611397
 30
0.0
 10
103.155744052697
 20
290.9248654244319
 30
0.0
 10
103.0704275597721
 20
291.2326892961349
 30
0.0
 10
102.9776651044123
 20
291.647730163242
 30
0.0
 10
102.8963727375226
 20
292.1740029623367
 30
0.0
 10
102.8843329379826
 20
292.5988186120512
 30
0.0
 10
102.8783148732
 20
292.8111616907
 30
0.0
 11
115.8771572138
 21
292.8111616889
 31
0.0
 11
115.8466176351107
 21
292.1816627323016
 31
0.0
 11
115.7552863596076
 21
291.5576959344658
 31
0.0
 11
115.6867916209022
 21
291.248572223948
 31
0.0
 11
115.6033727960412
 21
290.943310231079
 31
0.0
 11
115.5049860521912
 21
290.6418929718695
 31
0.0
 11
115.3919554210871
 21
290.3455317166285
 31
0.0
 11
115.1219752845747
 21
289.7689017166149
 31
0.0
 11
114.7966386627214
 21
289.2211729447516
 31
0.0
 11
114.4166021679294
 21
288.7051062440075
 31
0.0
 11
113.9877516702687
 21
288.2293266077551
 31
0.0
 11
113.7556145358987
 21
288.0074096749876
 31
0.0
 11
113.5128320425624
 21
287.7973440997217
 31
0.0
 11
113.259902434264
 21
287.5995315268498
 31
0.0
 11
112.9973880384297
 21
287.4144482058799
 31
0.0
 11
112.4473298568288
 21
287.0849059793711
 31
0.0
 11
111.8671890251632
 21
286.8110506484167
 31
0.0
 11
111.2645837148404
 21
286.5963497648492
 31
0.0
 11
110.6438844445004
 21
286.4418928811748
 31
0.0
 11
110.0119556305968
 21
286.3492179069749
 31
0.0
 11
109.3739695034469
 21
286.3187712327319
 31
0.0
 11
108.7376745153365
 21
286.3507451369664
 31
0.0
 11
108.1075512412309
 21
286.4445632251079
 31
0.0
 11
107.4916673329895
 21
286.5988215593575
 31
0.0
 11
106.8936348631705
 21
286.8122768424711
 31
0.0
 11
106.3187991146238
 21
287.08324434923
 31
0.0
 11
105.7733324270824
 21
287.4087331669731
 31
0.0
 11
105.5126301343055
 21
287.5915025951795
 31
0.0
 11
105.2612808824972
 21
287.7867721462788
 31
0.0
 11
105.0193975841476
 21
287.9944772831379
 31
0.0
 11
104.7879417528474
 21
288.2138841294258
 31
0.0
 11
104.3580187219672
 21
288.6864110600908
 31
0.0
 11
103.9763975825094
 21
289.1992021769846
 31
0.0
 11
103.6471661083304
 21
289.7471804581887
 31
0.0
 11
103.3735518011863
 21
290.3245440027504
 31
0.0
 11
103.2584595487264
 21
290.6225086252691
 31
0.0
 11
103.1582198602995
 21
290.9256678938667
 31
0.0
 11
103.0730527800822
 21
291.2332665016756
 31
0.0
 11
103.0030897526086
 21
291.5448513208131
 31
0.0
 11
102.9096008556683
 21
292.1751372905272
 31
0.0
 11
102.8783148732
 21
292.8111616907
 31
0.0
  0
SPLINE
  5
F8
330
1F
100
AcDbEntity
  8
BEZUGSACHSEN
  6
Continuous
 62
     7
100
AcDbSpline
210
0.0
220
0.0
230
1.0
 70
     8
 71
     3
 72
    27
 73
    23
 74
    21
 42
0.0000000001
 43
0.0000000001
 44
0.00000001
 40
0.0
 40
0.0
 40
0.0
 40
0.0
 40
0.1219765139516216
 40
0.2439857714748946
 40
0.3566831398307334
 40
0.4694418149413806
 40
0.5721317672399391
 40
0.6745445880592755
 40
0.7225206520860777
 40
0.7704888797564117
 40
0.8171412936065513
 40
0.8637898734421813
 40
0.9102318001048251
 40
0.956675132436959
 40
1.004175175771869
 40
1.05168310015824
 40
1.153672388732829
 40
1.25604937663567
 40
1.370745138041657
 40
1.485385401826009
 40
1.611534903875984
 40
1.737631876008366
 40
1.737631876008366
 40
1.737631876008366
 40
1.737631876008366
 10
75.5235862516
 20
277.5688256748
 30
0.0
 10
75.4883312339966
 20
277.5485461495351
 30
0.0
 10
75.41781173487624
 20
277.507981655137
 30
0.0
 10
75.31015933169111
 20
277.4571857942457
 30
0.0
 10
75.20200131582669
 20
277.415434158379
 30
0.0
 10
75.09642209487774
 20
277.3860195732369
 30
0.0
 10
74.99159054975081
 20
277.3691049858441
 30
0.0
 10
74.90686287990887
 20
277.367239762598
 30
0.0
 10
74.84103894348723
 20
277.3741950705743
 30
0.0
 10
74.7943317402492
 20
277.3833921977126
 30
0.0
 10
74.74915112293475
 20
277.3969256427289
 30
0.0
 10
74.70601151228516
 20
277.4147189015712
 30
0.0
 10
74.66505703570635
 20
277.4369472592871
 30
0.0
 10
74.62640960923343
 20
277.46348229099
 30
0.0
 10
74.5905035306021
 20
277.4941775685198
 30
0.0
 10
74.54506420907553
 20
277.541715041627
 30
0.0
 10
74.49652106901159
 20
277.6108844087071
 30
0.0
 10
74.45029536007263
 20
277.707042463404
 30
0.0
 10
74.4163294862769
 20
277.8126178963751
 30
0.0
 10
74.39337406206052
 20
277.9290355872776
 30
0.0
 10
74.37992950369494
 20
278.0507828959675
 30
0.0
 10
74.37847211739889
 20
278.1348862595187
 30
0.0
 10
74.377743576
 20
278.1769291841
 30
0.0
 11
75.5235862516
 21
277.5688256748
 31
0.0
 11
75.41704162753948
 21
277.5094412236398
 31
0.0
 11
75.30674873837077
 21
277.4572709493431
 31
0.0
 11
75.20143073052117
 21
277.4171609249486
 31
0.0
 11
75.09270700199775
 21
277.3872666166496
 31
0.0
 11
74.99124284991105
 21
277.371447256852
 31
0.0
 11
74.88884330932855
 21
277.369798027739
 31
0.0
 11
74.84113945309291
 21
277.3749014402986
 31
0.0
 11
74.79408868280744
 21
277.3842382428228
 31
0.0
 11
74.7494091153638
 21
277.3976615051347
 31
0.0
 11
74.70630297876642
 21
277.4154926853629
 31
0.0
 11
74.66548038596956
 21
277.4376369502972
 31
0.0
 11
74.6271931294234
 21
277.4639251435459
 31
0.0
 11
74.59105603241356
 21
277.494753123313
 31
0.0
 11
74.55820353204668
 21
277.5290709918241
 31
0.0
 11
74.49903113782372
 21
277.6121398954275
 31
0.0
 11
74.4541314142491
 21
277.7041456695669
 31
0.0
 11
74.41849325466902
 21
277.8131641967365
 31
0.0
 11
74.39564169127163
 21
277.9255038430367
 31
0.0
 11
74.38187493493221
 21
278.050899908714
 31
0.0
 11
74.377743576
 21
278.1769291841
 31
0.0
  0
SPLINE
  5
F9
330
1F
100
AcDbEntity
  8
BEZUGSACHSEN
  6
Continuous
 62
     7
100
AcDbSpline
210
0.0
220
0.0
230
1.0
 70
     8
 71
     3
 72
    15
 73
    11
 74
     9
 42
0.0000000001
 43
0.0000000001
 44
0.00000001
 40
0.0
 40
0.0
 40
0.0
 40
0.0
 40
0.1110371613650431
 40
0.2222522337255375
 40
0.3333980191826382
 40
0.4445069474939536
 40
0.5556201065312922
 40
0.6667525642188893
 40
0.7778876033538957
 40
0.8889820915996517
 40
0.8889820915996517
 40
0.8889820915996517
 40
0.8889820915996517
 10
76.2776690913
 20
277.134629284
 30
0.0
 10
76.24102736441912
 20
277.140161436812
 30
0.0
 10
76.16768520088831
 20
277.1512346064129
 30
0.0
 10
76.06116865087785
 20
277.1842531699518
 30
0.0
 10
75.95875574313784
 20
277.2278434574345
 30
0.0
 10
75.86130577751885
 20
277.2816229652674
 30
0.0
 10
75.76900098178108
 20
277.3437181006092
 30
0.0
 10
75.68200435364537
 20
277.4130047742327
 30
0.0
 10
75.59975159818089
 20
277.4878867258458
 30
0.0
 10
75.54897161180142
 20
277.5418493073867
 30
0.0
 10
75.5235862516
 20
277.5688256748
 30
0.0
 11
76.2776690913
 21
277.134629284
 31
0.0
 11
76.16832680618978
 21
277.1539558432096
 31
0.0
 11
76.06183485262149
 21
277.1860222765217
 31
0.0
 11
75.95956667201432
 21
277.2295493354641
 31
0.0
 11
75.86216380555976
 21
277.2830084371861
 31
0.0
 11
75.76989203877315
 21
277.3449120329245
 31
0.0
 11
75.68279493536437
 21
277.413937519011
 31
0.0
 11
75.60075503087783
 21
277.4889071861797
 31
0.0
 11
75.5235862516
 21
277.5688256748
 31
0.0
  0
SPLINE
  5
FA
330
1F
100
AcDbEntity
  8
BEZUGSACHSEN
  6
Continuous
 62
     7
100
AcDbSpline
210
0.0
220
0.0
230
1.0
 70
     8
 71
     3
 72
    27
 73
    23
 74
    21
 42
0.0000000001
 43
0.0000000001
 44
0.00000001
 40
0.0
 40
0.0
 40
0.0
 40
0.0
 40
0.1260969825526139
 40
0.2522464959213905
 40
0.3668867952584784
 40
0.4815825894073638
 40
0.5839596006897692
 40
0.6859489161382498
 40
0.7334568410612383
 40
0.780956884918176
 40
0.827400226488317
 40
0.8738421607806057
 40
0.920490731966307
 40
0.9671431399914162
 40
1.015111401864601
 40
1.063087497161852
 40
1.165500418765215
 40
1.268190479005521
 40
1.380949153953752
 40
1.493646517828715
 40
1.615655563781112
 40
1.737631867629832
 40
1.737631867629832
 40
1.737631867629832
 40
1.737631867629832
 10
74.377743576
 20
307.4453941564
 30
0.0
 10
74.37847211747629
 20
307.487437084461
 30
0.0
 10
74.37992950393237
 20
307.5715404552711
 30
0.0
 10
74.39337406589522
 20
307.6932877828359
 30
0.0
 10
74.41632949921996
 20
307.8097054992106
 30
0.0
 10
74.45029539957135
 20
307.9152809569966
 30
0.0
 10
74.49652115838785
 20
308.0114390192708
 30
0.0
 10
74.54506432693813
 20
308.080608384949
 30
0.0
 10
74.59050365253707
 20
308.1281458665343
 30
0.0
 10
74.62640973065497
 20
308.158841150001
 30
0.0
 10
74.66505716174987
 20
308.1853761857371
 30
0.0
 10
74.70601164895213
 20
308.2076045316685
 30
0.0
 10
74.74915127512722
 20
308.225397748559
 30
0.0
 10
74.79433190973049
 20
308.2389311556205
 30
0.0
 10
74.84103913270056
 20
308.2481282809563
 30
0.0
 10
74.90686312388999
 20
308.2550836013324
 30
0.0
 10
74.99159087589379
 20
308.2532183446623
 30
0.0
 10
75.09642247939746
 20
308.2363036836803
 30
0.0
 10
75.20200172175963
 20
308.2068890508074
 30
0.0
 10
75.31015965985797
 20
308.1651374133564
 30
0.0
 10
75.41781192112373
 20
308.1143415862372
 30
0.0
 10
75.48833129593758
 20
308.0737771580041
 30
0.0
 10
75.5235862516
 20
308.0534976657
 30
0.0
 11
74.377743576
 21
307.4453941564
 31
0.0
 11
74.38187493556707
 21
307.5714234421911
 31
0.0
 11
74.39564169470495
 21
307.696819518948
 31
0.0
 11
74.41849327081823
 21
307.8091591989423
 31
0.0
 11
74.4541314602017
 21
307.9181777508173
 31
0.0
 11
74.49903122497979
 21
308.0101835308639
 31
0.0
 11
74.55820365393416
 21
308.093252442722
 31
0.0
 11
74.59105615411879
 21
308.1275703121505
 31
0.0
 11
74.62719324906956
 21
308.1583982951356
 31
0.0
 11
74.66548051394126
 21
308.1846864925794
 31
0.0
 11
74.70630312187998
 21
308.2068307456011
 31
0.0
 11
74.74940926549658
 21
308.2246618862313
 31
0.0
 11
74.79408883753071
 21
308.2380851130188
 31
0.0
 11
74.84113964326183
 21
308.2474219126411
 31
0.0
 11
74.8888435305128
 21
308.2525253292532
 31
0.0
 11
74.99124317137243
 21
308.2508760678563
 31
0.0
 11
75.09270742170759
 21
308.2350566375226
 31
0.0
 11
75.20143113816441
 21
308.2051622859508
 31
0.0
 11
75.30674913046172
 21
308.1650522333102
 31
0.0
 11
75.41704181636713
 21
308.1128820240909
 31
0.0
 11
75.5235862516
 21
308.0534976657
 31
0.0
  0
SPLINE
  5
FB
330
1F
100
AcDbEntity
  8
0
  6
Continuous
 62
     7
100
AcDbSpline
210
0.0
220
0.0
230
1.0
 70
     8
 71
     3
 72
    19
 73
    15
 74
    13
 42
0.0000000001
 43
0.0000000001
 44
0.00000001
 40
0.0
 40
0.0
 40
0.0
 40
0.0
 40
0.1162460235698052
 40
0.2327881717864356
 40
0.3491890045827331
 40
0.4655468550543393
 40
0.5819071369584384
 40
0.6982738488605972
 40
0.8146206072145677
 40
0.9309998277728452
 40
1.163276323411739
 40
1.396138921729269
 40
1.629013178013221
 40
1.861351539670727
 40
1.861351539670727
 40
1.861351539670727
 40
1.861351539670727
 10
143.502743576
 20
259.2887810865
 30
0.0
 10
143.4639595051597
 20
259.2869401396122
 30
0.0
 10
143.3862925650951
 20
259.2832535562158
 30
0.0
 10
143.2726824800282
 20
259.2548480712572
 30
0.0
 10
143.1644947920861
 20
259.210994157021
 30
0.0
 10
143.063518926134
 20
259.1523974687799
 30
0.0
 10
142.9707504694032
 20
259.0817126074735
 30
0.0
 10
142.8866630904096
 20
259.0009550024048
 30
0.0
 10
142.8113594470408
 20
258.9119873636522
 30
0.0
 10
142.722708202885
 20
258.7846279158845
 30
0.0
 10
142.6327114571449
 20
258.6118425378053
 30
0.0
 10
142.5578179379731
 20
258.3909175476389
 30
0.0
 10
142.5112810126331
 20
258.1618976280668
 30
0.0
 10
142.5055872019113
 20
258.0067182352388
 30
0.0
 10
142.502743576
 20
257.9292179171
 30
0.0
 11
143.502743576
 21
259.2887810865
 31
0.0
 11
143.3868722244495
 21
259.279455429115
 31
0.0
 11
143.2735476997615
 21
259.25225939236
 31
0.0
 11
143.1656745671524
 21
259.2085267828247
 31
0.0
 11
143.0648858276422
 21
259.1503823131451
 31
0.0
 11
142.9721985225947
 21
259.0800347567709
 31
0.0
 11
142.8881231569692
 21
258.9995826310447
 31
0.0
 11
142.8128243990375
 21
258.9108884078201
 31
0.0
 11
142.7461976697222
 21
258.8154682741035
 31
0.0
 11
142.6383078836137
 21
258.609769065355
 31
0.0
 11
142.5625497467619
 21
258.3895743914958
 31
0.0
 11
142.5175897329453
 21
258.1610814673222
 31
0.0
 11
142.502743576
 21
257.9292179171
 31
0.0
  0
SPLINE
  5
FC
330
1F
100
AcDbEntity
  8
BEZUGSACHSEN
  6
Continuous
 62
     7
100
AcDbSpline
210
0.0
220
0.0
230
1.0
 70
     8
 71
     3
 72
    15
 73
    11
 74
     9
 42
0.0000000001
 43
0.0000000001
 44
0.00000001
 40
0.0
 40
0.0
 40
0.0
 40
0.0
 40
0.111094483115814
 40
0.2222295181063962
 40
0.3333620401541352
 40
0.4444752609924348
 40
0.555584217797679
 40
0.666730035388475
 40
0.7779450181580115
 40
0.8889820871697337
 40
0.8889820871697337
 40
0.8889820871697337
 40
0.8889820871697337
 10
75.5235862516
 20
308.0534976657
 30
0.0
 10
75.54897161116887
 20
308.0804740313739
 30
0.0
 10
75.59975159650855
 20
308.134436609675
 30
0.0
 10
75.6820043657279
 20
308.2093185730936
 30
0.0
 10
75.76900101765952
 20
308.278605282023
 30
0.0
 10
75.86130585808843
 20
308.3407004451165
 30
0.0
 10
75.95875588009437
 20
308.3944799372191
 30
0.0
 10
76.0611687939741
 20
308.438070182792
 30
0.0
 10
76.16768529255786
 20
308.471088738641
 30
0.0
 10
76.24102739527929
 20
308.4821619052533
 30
0.0
 10
76.2776690913
 20
308.4876940565
 30
0.0
 11
75.5235862516
 21
308.0534976657
 31
0.0
 11
75.60075502868627
 21
308.1334161493053
 31
0.0
 11
75.68279492890326
 21
308.2083858150025
 31
0.0
 11
75.76989207749455
 21
308.2774113476984
 31
0.0
 11
75.8621638990786
 21
308.3393149726862
 31
0.0
 11
75.95956680717407
 21
308.3927740577597
 31
0.0
 11
76.06183503057434
 21
308.4363010982113
 31
0.0
 11
76.168326898679
 21
308.4683675046206
 31
0.0
 11
76.2776690913
 21
308.4876940565
 31
0.0
  0
SPLINE
  5
FD
330
1F
100
AcDbEntity
  8
0
  6
Continuous
 62
     7
100
AcDbSpline
210
0.0
220
0.0
230
1.0
 70
     8
 71
     3
 72
    19
 73
    15
 74
    13
 42
0.0000000001
 43
0.0000000001
 44
0.00000001
 40
0.0
 40
0.0
 40
0.0
 40
0.0
 40
0.2323383480566943
 40
0.4652125956754884
 40
0.698076113258417
 40
0.9303535186936331
 40
1.04673346175247
 40
1.163080940821085
 40
1.279447997388407
 40
1.395808629490652
 40
1.512165904468843
 40
1.62856614031307
 40
1.745106920505779
 40
1.861351602768785
 40
1.861351602768785
 40
1.861351602768785
 40
1.861351602768785
 10
146.252743576
 20
257.9292179171
 30
0.0
 10
146.2498999503927
 20
258.0067182307389
 30
0.0
 10
146.244206140219
 20
258.1618976162136
 30
0.0
 10
146.1976691643875
 20
258.3909178302263
 30
0.0
 10
146.1227754186334
 20
258.6118433921326
 30
0.0
 10
146.0327781143814
 20
258.7846294563425
 30
0.0
 10
145.9441261765695
 20
258.9119893820468
 30
0.0
 10
145.868821912212
 20
259.000957280951
 30
0.0
 10
145.7847339383953
 20
259.0817149509101
 30
0.0
 10
145.6919652045666
 20
259.152399517292
 30
0.0
 10
145.5909893923213
 20
259.2109957414652
 30
0.0
 10
145.4828023428082
 20
259.254848992622
 30
0.0
 10
145.3691932334539
 20
259.2832537520724
 30
0.0
 10
145.2915271986618
 20
259.2869402047194
 30
0.0
 10
145.252743576
 20
259.2887810865
 30
0.0
 11
146.252743576
 21
257.9292179171
 31
0.0
 11
146.2378974218822
 21
258.1610814538746
 31
0.0
 11
146.1929374202936
 21
258.389574371623
 31
0.0
 11
146.1171789416112
 21
258.6097699000263
 31
0.0
 11
146.0092885304336
 21
258.8154698082704
 31
0.0
 11
145.9426612065894
 21
258.9108904080576
 31
0.0
 11
145.8673617500226
 21
258.9995849835759
 31
0.0
 11
145.7832858836921
 21
259.0800370845735
 31
0.0
 11
145.6905980577228
 21
259.1503845338542
 31
0.0
 11
145.5898096228182
 21
259.2085283798728
 31
0.0
 11
145.4819368940266
 21
259.2522603966071
 31
0.0
 11
145.3686136054727
 21
259.279455721927
 31
0.0
 11
145.252743576
 21
259.2887810865
 31
0.0
  0
SPLINE
  5
FE
330
1F
100
AcDbEntity
  8
BEZUGSACHSEN
  6
Continuous
 62
     7
100
AcDbSpline
210
0.0
220
0.0
230
1.0
 70
     8
 71
     3
 72
    11
 73
     7
 74
     5
 42
0.0000000001
 43
0.0000000001
 44
0.00000001
 40
0.0
 40
0.0
 40
0.0
 40
0.0
 40
0.5462907431042021
 40
1.093000863589423
 40
1.646070107119413
 40
2.198197048716618
 40
2.198197048716618
 40
2.198197048716618
 40
2.198197048716618
 10
83.9315895229
 20
307.8211616702
 30
0.0
 10
83.99466032476548
 20
307.6502300409746
 30
0.0
 10
84.1208503467939
 20
307.3082355614482
 30
0.0
 10
84.2604876598198
 20
306.7769614322432
 30
0.0
 10
84.3579760238324
 20
306.2335370272823
 30
0.0
 10
84.37115813834745
 20
305.8649523867091
 30
0.0
 10
84.377743576
 20
305.680817196
 30
0.0
 11
83.9315895229
 21
307.8211616702
 31
0.0
 11
84.1124408555292
 21
307.3056751315905
 31
0.0
 11
84.2529323402275
 21
306.7773247757013
 31
0.0
 11
84.34499899345792
 21
306.2319723029814
 31
0.0
 11
84.377743576
 21
305.680817196
 31
0.0
  0
SPLINE
  5
FF
330
1F
100
AcDbEntity
  8
BEZUGSACHSEN
  6
Continuous
 62
     7
100
AcDbSpline
210
0.0
220
0.0
230
1.0
 70
     8
 71
     3
 72
    19
 73
    15
 74
    13
 42
0.0000000001
 43
0.0000000001
 44
0.00000001
 40
0.0
 40
0.0
 40
0.0
 40
0.0
 40
0.1462385988338104
 40
0.2927479275035244
 40
0.4364790706232774
 40
0.5801659236544905
 40
0.7203799973136967
 40
0.8606059383113973
 40
0.9980411884186126
 40
1.135484020427817
 40
1.40541563104963
 40
1.675815514043867
 40
1.943997429490798
 40
2.211934834798079
 40
2.211934834798079
 40
2.211934834798079
 40
2.211934834798079
 10
82.377743576
 20
309.1698092577
 30
0.0
 10
82.4264583813585
 20
309.173117335012
 30
0.0
 10
82.52397817723428
 20
309.1797396138413
 30
0.0
 10
82.66931443754595
 20
309.1633803010877
 30
0.0
 10
82.80997137465776
 20
309.1282085350155
 30
0.0
 10
82.94282350811656
 20
309.0754028483922
 30
0.0
 10
83.06727797119242
 20
309.0077310606472
 30
0.0
 10
83.18208052836023
 20
308.928430859252
 30
0.0
 10
83.28819046613098
 20
308.8393462196855
 30
0.0
 10
83.41729293128816
 20
308.7113986841387
 30
0.0
 10
83.56033278116672
 20
308.5355963952477
 30
0.0
 10
83.70524038285846
 20
308.3079109293728
 30
0.0
 10
83.82987713131595
 20
308.0692483098763
 30
0.0
 10
83.89769570247003
 20
307.9038320694041
 30
0.0
 10
83.9315895229
 20
307.8211616702
 30
0.0
 11
82.377743576
 21
309.1698092577
 31
0.0
 11
82.5238774378782
 21
309.1753429907474
 31
0.0
 11
82.66958679869025
 21
309.1600535970709
 31
0.0
 11
82.80901688022803
 21
309.1251552609376
 31
0.0
 11
82.94264921716896
 21
309.0723508079273
 31
0.0
 11
83.06596300800042
 21
309.0056147948392
 31
0.0
 11
83.18149411933013
 21
308.9261423037268
 31
0.0
 11
83.286906669093
 21
308.8379570310078
 31
0.0
 11
83.3846951727605
 21
308.7413757666695
 31
0.0
 11
83.55594356862177
 21
308.5327204017066
 31
0.0
 11
83.70228598915233
 21
308.3053440777928
 31
0.0
 11
83.82615361495908
 21
308.0674820357394
 31
0.0
 11
83.9315895229
 21
307.8211616702
 31
0.0
  0
SPLINE
  5
100
330
1F
100
AcDbEntity
  8
BEZUGSACHSEN
  6
Continuous
 62
     7
100
AcDbSpline
210
0.0
220
0.0
230
1.0
 70
     8
 71
     3
 72
    11
 73
     7
 74
     5
 42
0.0000000001
 43
0.0000000001
 44
0.00000001
 40
0.0
 40
0.0
 40
0.0
 40
0.0
 40
0.552126940619433
 40
1.105196183265035
 40
1.651906304669148
 40
2.198197048716958
 40
2.198197048716958
 40
2.198197048716958
 40
2.198197048716958
 10
84.377743576
 20
279.9415061444
 30
0.0
 10
84.37115813837094
 20
279.7573709540173
 30
0.0
 10
84.35797602390178
 20
279.3887863140658
 30
0.0
 10
84.26048766010433
 20
278.8453619093908
 30
0.0
 10
84.12085034708086
 20
278.3140877798435
 30
0.0
 10
83.99466032486208
 20
277.9720932997251
 30
0.0
 10
83.9315895229
 20
277.8011616702
 30
0.0
 11
84.377743576
 21
279.9415061444
 31
0.0
 11
84.3449989935732
 21
279.3903510383913
 31
0.0
 11
84.25293234062981
 21
278.8449985665198
 31
0.0
 11
84.1124408557964
 21
278.3166482097157
 31
0.0
 11
83.9315895229
 21
277.8011616702
 31
0.0
  0
SPLINE
  5
101
330
1F
100
AcDbEntity
  8
BEZUGSACHSEN
  6
Continuous
 62
     7
100
AcDbSpline
210
0.0
220
0.0
230
1.0
 70
     8
 71
     3
 72
    19
 73
    15
 74
    13
 42
0.0000000001
 43
0.0000000001
 44
0.00000001
 40
0.0
 40
0.0
 40
0.0
 40
0.0
 40
0.2679411643009557
 40
0.536126793652846
 40
0.8065304773335957
 40
1.076465993202819
 40
1.213913376121174
 40
1.351353104857578
 40
1.491586367052284
 40
1.631807897547109
 40
1.775491562741743
 40
1.919219204711373
 40
2.065713007372253
 40
2.211936409323104
 40
2.211936409323104
 40
2.211936409323104
 40
2.211936409323104
 10
83.9315895229
 20
277.8011616702
 30
0.0
 10
83.89769527913533
 20
277.7184900904939
 30
0.0
 10
83.82987586706314
 20
277.5530715029109
 30
0.0
 10
83.70523736077128
 20
277.3144055292564
 30
0.0
 10
83.56032656143417
 20
277.0867175332485
 30
0.0
 10
83.41728292988867
 20
276.9109130419401
 30
0.0
 10
83.28817654295037
 20
276.7829633228373
 30
0.0
 10
83.1820614438629
 20
276.6938763020377
 30
0.0
 10
83.06725201621543
 20
276.614574661699
 30
0.0
 10
82.94279240399861
 20
276.5469041942338
 30
0.0
 10
82.80993884888146
 20
276.4941015075304
 30
0.0
 10
82.66928805000565
 20
276.4589352435414
 30
0.0
 10
82.5239626668967
 20
276.4425830416623
 30
0.0
 10
82.42645324783581
 20
276.4492057750281
 30
0.0
 10
82.377743576
 20
276.4525140828
 30
0.0
 11
83.9315895229
 21
277.8011616702
 31
0.0
 11
83.82615226326857
 21
277.5548377943609
 31
0.0
 11
83.70228274770443
 21
277.3169725490964
 31
0.0
 11
83.55593726138707
 21
277.0895936785242
 31
0.0
 11
83.38468507022999
 21
276.880936376348
 31
0.0
 11
83.286892631522
 21
276.784352619936
 31
0.0
 11
83.18147564224158
 21
276.6961656741549
 31
0.0
 11
83.06593699851885
 21
276.6166912151604
 31
0.0
 11
82.94261498863797
 21
276.5499547221955
 31
0.0
 11
82.8089843004683
 21
276.4971547712195
 31
0.0
 11
82.66955659927252
 21
276.462261344827
 31
0.0
 11
82.52386216072227
 21
276.4469785180736
 31
0.0
 11
82.377743576
 21
276.4525140828
 31
0.0
  0
SPLINE
  5
102
330
1F
100
AcDbEntity
  8
BEZUGSACHSEN
  6
Continuous
 62
     7
100
AcDbSpline
210
0.0
220
0.0
230
1.0
 70
     8
 71
     3
 72
    11
 73
     7
 74
     5
 42
0.0000000001
 43
0.0000000001
 44
0.00000001
 40
0.0
 40
0.0
 40
0.0
 40
0.0
 40
0.9140556660002842
 40
1.828030949185937
 40
2.279806974883408
 40
2.730944124862241
 40
2.730944124862241
 40
2.730944124862241
 40
2.730944124862241
 10
75.6446965028854
 20
277.801161670385
 30
0.0
 10
75.77735120984866
 20
278.0758782680516
 30
0.0
 10
76.04264895801003
 20
278.6252873045789
 30
0.0
 10
76.25800417132524
 20
279.3579982256874
 30
0.0
 10
76.36169838498974
 20
279.9559434318271
 30
0.0
 10
76.37239770250766
 20
280.2570666472873
 30
0.0
 10
76.377743576
 20
280.4075217219
 30
0.0
 11
75.6446965028854
 21
277.801161670385
 31
0.0
 11
76.01950403266086
 21
278.6348385119554
 31
0.0
 11
76.27879539305873
 21
279.511262386971
 31
0.0
 11
76.35151236655736
 21
279.9571478197452
 31
0.0
 11
76.377743576
 21
280.4075217219
 31
0.0
  0
SPLINE
  5
103
330
1F
100
AcDbEntity
  8
BEZUGSACHSEN
  6
Continuous
 62
     7
100
AcDbSpline
210
0.0
220
0.0
230
1.0
 70
     8
 71
     3
 72
    11
 73
     7
 74
     5
 42
0.0000000001
 43
0.0000000001
 44
0.00000001
 40
0.0
 40
0.0
 40
0.0
 40
0.0
 40
0.8249192366724196
 40
1.650116891930983
 40
2.190492152293429
 40
2.730585915378196
 40
2.730585915378196
 40
2.730585915378196
 40
2.730585915378196
 10
76.377743576
 20
305.2148016186
 30
0.0
 10
76.3600102716618
 20
305.4899919105769
 30
0.0
 10
76.32453767781584
 20
306.0404653740378
 30
0.0
 10
76.11610286118047
 20
306.7451989591906
 30
0.0
 10
75.88587643020077
 20
307.3374126842708
 30
0.0
 10
75.72507584739881
 20
307.6599400177159
 30
0.0
 10
75.6446965028854
 20
307.821161670015
 30
0.0
 11
76.377743576
 21
305.2148016186
 31
0.0
 11
76.29416812188425
 21
306.0354762742959
 31
0.0
 11
76.0762066797725
 21
306.8313682141953
 31
0.0
 11
75.8782716012133
 21
307.334187393113
 31
0.0
 11
75.6446965028854
 21
307.821161670015
 31
0.0
  0
DIMENSION
  5
10E
330
1F
100
AcDbEntity
  8
1
100
AcDbDimension
  2
*D2
 10
215.206714892992
 20
297.8111616702
 30
0.0
 11
211.456714892992
 21
293.084451956928
 31
0.0
 70
    32
  1
<>
 71
     5
 42
-1.0
 53
90.0
  3
ME10_DIM_10
100
AcDbAlignedDimension
 13
204.377743576
 23
287.8111616702
 33
0.0
 14
204.377743576
 24
297.8111616702
 34
0.0
 50
90.0
100
AcDbRotatedDimension
  0
DIMENSION
  5
119
330
1F
100
AcDbEntity
  8
1
100
AcDbDimension
  2
*D3
 10
224.465584651944
 20
310.3111616702
 30
0.0
 11
220.715584651944
 21
292.615648424829
 31
0.0
 70
    32
  1
<>
 71
     5
 42
-1.0
 53
90.0
  3
ME10_DIM_11
100
AcDbAlignedDimension
 13
193.4335143108
 23
275.3111616702
 33
0.0
 14
193.4335143108
 24
310.3111616702
 34
0.0
 50
90.0
100
AcDbRotatedDimension
  0
DIMENSION
  5
124
330
1F
100
AcDbEntity
  8
1
100
AcDbDimension
  2
*D4
 10
204.377743576
 20
350.395683756015
 30
0.0
 11
178.874441155329
 21
354.145683756015
 31
0.0
 70
    32
  1
<>
 71
     5
 42
-1.0
 53
0.00013888888889
  3
ME10_DIM_12
100
AcDbAlignedDimension
 13
153.377743576
 23
342.8111616702
 33
0.0
 14
204.377743576
 24
304.6740914094
 34
0.0
100
AcDbRotatedDimension
  0
DIMENSION
  5
12F
330
1F
100
AcDbEntity
  8
1
100
AcDbDimension
  2
*D5
 10
204.377743576
 20
357.427736737498
 30
0.0
 11
165.747942256561
 21
361.177736737498
 31
0.0
 70
    32
  1
<>
 71
     5
 42
-1.0
 53
0.00013888888889
  3
ME10_DIM_13
100
AcDbAlignedDimension
 13
124.377743576
 23
342.8111616702
 33
0.0
 14
204.377743576
 24
304.6740914094
 34
0.0
100
AcDbRotatedDimension
  0
DIMENSION
  5
13A
330
1F
100
AcDbEntity
  8
1
100
AcDbDimension
  2
*D6
 10
204.377743576
 20
363.873785303857
 30
0.0
 11
145.940993025384
 21
367.623785303857
 31
0.0
 70
    32
  1
<>
 71
     5
 42
-1.0
 53
0.00013888888889
  3
ME10_DIM_14
100
AcDbAlignedDimension
 13
74.377743576
 23
326.4113532328
 33
0.0
 14
204.377743576
 24
304.6740914094
 34
0.0
100
AcDbRotatedDimension
  0
INSERT
  5
141
330
1F
100
AcDbEntity
  8
1
100
AcDbBlockReference
  2
*D7
 10
0.0
 20
0.0
 30
0.0
  0
ENDSEC
  0
SECTION
  2
OBJECTS
  0
DICTIONARY
  5
C
330
0
100
AcDbDictionary
281
     1
  3
ACAD_GROUP
350
D
  3
ACAD_LAYOUT
350
1A
  3
ACAD_MLEADERSTYLE
350
144
  3
ACAD_MLINESTYLE
350
17
  3
ACAD_PLOTSETTINGS
350
19
  3
ACAD_PLOTSTYLENAME
350
E
  3
ACAD_SCALELIST
350
4B
  3
ACAD_VISUALSTYLE
350
2A
  3
AcDbVariableDictionary
350
142
  0
DICTIONARY
  5
D
102
{ACAD_REACTORS
330
C
102
}
330
C
100
AcDbDictionary
281
     1
  0
DICTIONARY
  5
1A
102
{ACAD_REACTORS
330
C
102
}
330
C
100
AcDbDictionary
281
     1
  3
Layout1
350
1E
  3
Layout2
350
26
  3
Model
350
22
  0
DICTIONARY
  5
144
102
{ACAD_REACTORS
330
C
102
}
330
C
100
AcDbDictionary
281
     1
  0
DICTIONARY
  5
17
102
{ACAD_REACTORS
330
C
102
}
330
C
100
AcDbDictionary
281
     1
  3
Standard
350
18
  0
DICTIONARY
  5
19
102
{ACAD_REACTORS
330
C
102
}
330
C
100
AcDbDictionary
281
     1
  0
ACDBDICTIONARYWDFLT
  5
E
102
{ACAD_REACTORS
330
C
102
}
330
C
100
AcDbDictionary
281
     1
  3
Normal
350
F
100
AcDbDictionaryWithDefault
340
F
  0
DICTIONARY
  5
4B
102
{ACAD_REACTORS
330
C
102
}
330
C
100
AcDbDictionary
281
     1
  3
A0
350
4C
  3
A1
350
4D
  3
A2
350
4E
  3
A3
350
4F
  3
A4
350
50
  3
A5
350
51
  3
A6
350
52
  3
A7
350
53
  3
A8
350
54
  3
A9
350
55
  3
B0
350
56
  3
B1
350
57
  3
B2
350
58
  3
B3
350
59
  3
B4
350
5A
  3
B5
350
5B
  3
B6
350
5C
  3
B7
350
5D
  3
B8
350
5E
  3
B9
350
5F
  3
C0
350
60
  3
C1
350
61
  3
C2
350
62
  3
C3
350
63
  3
C4
350
64
  3
C5
350
65
  3
C6
350
66
  3
C7
350
67
  3
C8
350
68
  3
C9
350
69
  3
D0
350
6A
  3
D1
350
6B
  3
D2
350
6C
  0
DICTIONARY
  5
2A
102
{ACAD_REACTORS
330
C
102
}
330
C
100
AcDbDictionary
281
     1
  3
2dWireframe
350
2F
  3
3D Hidden
350
31
  3
3dWireframe
350
30
  3
Basic
350
32
  3
Brighten
350
36
  3
ColorChange
350
3A
  3
Conceptual
350
34
  3
Dim
350
35
  3
Facepattern
350
39
  3
Flat
350
2B
  3
FlatWithEdges
350
2C
  3
Gouraud
350
2D
  3
GouraudWithEdges
350
2E
  3
Linepattern
350
38
  3
Realistic
350
33
  3
Thicken
350
37
  0
DICTIONARY
  5
142
102
{ACAD_REACTORS
330
C
102
}
330
C
100
AcDbDictionary
281
     1
  3
CANNOSCALE
350
145
  0
LAYOUT
  5
1E
102
{ACAD_REACTORS
330
1A
102
}
330
1A
100
AcDbPlotSettings
  1

  2
none_device
  4

  6

 40
0.0
 41
0.0
 42
0.0
 43
0.0
 44
0.0
 45
0.0
 46
0.0
 47
0.0
 48
0.0
 49
0.0
140
0.0
141
0.0
142
1.0
143
1.0
 70
   688
 72
     0
 73
     0
 74
     5
  7

 75
    16
147
1.0
148
0.0
149
0.0
100
AcDbLayout
  1
Layout1
 70
     1
 71
     1
 10
0.0
 20
0.0
 11
12.0
 21
9.0
 12
0.0
 22
0.0
 32
0.0
 14
1.00000000000000E+20
 24
1.00000000000000E+20
 34
1.00000000000000E+20
 15
-1.00000000000000E+20
 25
-1.00000000000000E+20
 35
-1.00000000000000E+20
146
0.0
 13
0.0
 23
0.0
 33
0.0
 16
1.0
 26
0.0
 36
0.0
 17
0.0
 27
1.0
 37
0.0
 76
     0
330
1B
  0
LAYOUT
  5
26
102
{ACAD_REACTORS
330
1A
102
}
330
1A
100
AcDbPlotSettings
  1

  2
none_device
  4

  6

 40
0.0
 41
0.0
 42
0.0
 43
0.0
 44
0.0
 45
0.0
 46
0.0
 47
0.0
 48
0.0
 49
0.0
140
0.0
141
0.0
142
1.0
143
1.0
 70
   688
 72
     0
 73
     0
 74
     5
  7

 75
    16
147
1.0
148
0.0
149
0.0
100
AcDbLayout
  1
Layout2
 70
     1
 71
     2
 10
0.0
 20
0.0
 11
0.0
 21
0.0
 12
0.0
 22
0.0
 32
0.0
 14
0.0
 24
0.0
 34
0.0
 15
0.0
 25
0.0
 35
0.0
146
0.0
 13
0.0
 23
0.0
 33
0.0
 16
1.0
 26
0.0
 36
0.0
 17
0.0
 27
1.0
 37
0.0
 76
     0
330
23
  0
LAYOUT
  5
22
102
{ACAD_REACTORS
330
1A
102
}
330
1A
100
AcDbPlotSettings
  1

  2
none_device
  4

  6

 40
0.0
 41
0.0
 42
0.0
 43
0.0
 44
0.0
 45
0.0
 46
0.0
 47
0.0
 48
0.0
 49
0.0
140
0.0
141
0.0
142
1.0
143
1.0
 70
  1712
 72
     0
 73
     0
 74
     0
  7

 75
     0
147
1.0
148
0.0
149
0.0
100
AcDbLayout
  1
Model
 70
     1
 71
     0
 10
0.0
 20
0.0
 11
12.0
 21
9.0
 12
0.0
 22
0.0
 32
0.0
 14
52.2963886838517
 24
242.8111616702
 34
0.0
 15
226.465584651944
 25
369.373785303857
 35
0.0
146
0.0
 13
0.0
 23
0.0
 33
0.0
 16
1.0
 26
0.0
 36
0.0
 17
0.0
 27
1.0
 37
0.0
 76
     0
330
1F
331
29
  0
MLINESTYLE
  5
18
102
{ACAD_REACTORS
330
17
102
}
330
17
100
AcDbMlineStyle
  2
Standard
 70
     0
  3

 62
   256
 51
90.0
 52
90.0
 71
     2
 49
0.5
 62
   256
  6
BYLAYER
 49
-0.5
 62
   256
  6
BYLAYER
  0
ACDBPLACEHOLDER
  5
F
102
{ACAD_REACTORS
330
E
102
}
330
E
  0
SCALE
  5
4C
102
{ACAD_REACTORS
330
4B
102
}
330
4B
100
AcDbScale
 70
     0
300
1:1
140
1.0
141
1.0
290
     1
  0
SCALE
  5
4D
102
{ACAD_REACTORS
330
4B
102
}
330
4B
100
AcDbScale
 70
     0
300
1:2
140
1.0
141
2.0
290
     0
  0
SCALE
  5
4E
102
{ACAD_REACTORS
330
4B
102
}
330
4B
100
AcDbScale
 70
     0
300
1:4
140
1.0
141
4.0
290
     0
  0
SCALE
  5
4F
102
{ACAD_REACTORS
330
4B
102
}
330
4B
100
AcDbScale
 70
     0
300
1:5
140
1.0
141
5.0
290
     0
  0
SCALE
  5
50
102
{ACAD_REACTORS
330
4B
102
}
330
4B
100
AcDbScale
 70
     0
300
1:8
140
1.0
141
8.0
290
     0
  0
SCALE
  5
51
102
{ACAD_REACTORS
330
4B
102
}
330
4B
100
AcDbScale
 70
     0
300
1:10
140
1.0
141
10.0
290
     0
  0
SCALE
  5
52
102
{ACAD_REACTORS
330
4B
102
}
330
4B
100
AcDbScale
 70
     0
300
1:16
140
1.0
141
16.0
290
     0
  0
SCALE
  5
53
102
{ACAD_REACTORS
330
4B
102
}
330
4B
100
AcDbScale
 70
     0
300
1:20
140
1.0
141
20.0
290
     0
  0
SCALE
  5
54
102
{ACAD_REACTORS
330
4B
102
}
330
4B
100
AcDbScale
 70
     0
300
1:30
140
1.0
141
30.0
290
     0
  0
SCALE
  5
55
102
{ACAD_REACTORS
330
4B
102
}
330
4B
100
AcDbScale
 70
     0
300
1:40
140
1.0
141
40.0
290
     0
  0
SCALE
  5
56
102
{ACAD_REACTORS
330
4B
102
}
330
4B
100
AcDbScale
 70
     0
300
1:50
140
1.0
141
50.0
290
     0
  0
SCALE
  5
57
102
{ACAD_REACTORS
330
4B
102
}
330
4B
100
AcDbScale
 70
     0
300
1:100
140
1.0
141
100.0
290
     0
  0
SCALE
  5
58
102
{ACAD_REACTORS
330
4B
102
}
330
4B
100
AcDbScale
 70
     0
300
2:1
140
2.0
141
1.0
290
     0
  0
SCALE
  5
59
102
{ACAD_REACTORS
330
4B
102
}
330
4B
100
AcDbScale
 70
     0
300
4:1
140
4.0
141
1.0
290
     0
  0
SCALE
  5
5A
102
{ACAD_REACTORS
330
4B
102
}
330
4B
100
AcDbScale
 70
     0
300
8:1
140
8.0
141
1.0
290
     0
  0
SCALE
  5
5B
102
{ACAD_REACTORS
330
4B
102
}
330
4B
100
AcDbScale
 70
     0
300
10:1
140
10.0
141
1.0
290
     0
  0
SCALE
  5
5C
102
{ACAD_REACTORS
330
4B
102
}
330
4B
100
AcDbScale
 70
     0
300
100:1
140
100.0
141
1.0
290
     0
  0
SCALE
  5
5D
102
{ACAD_REACTORS
330
4B
102
}
330
4B
100
AcDbScale
 70
     0
300
1/128" = 1'-0"
140
0.0078125
141
12.0
290
     0
  0
SCALE
  5
5E
102
{ACAD_REACTORS
330
4B
102
}
330
4B
100
AcDbScale
 70
     0
300
1/64" = 1'-0"
140
0.015625
141
12.0
290
     0
  0
SCALE
  5
5F
102
{ACAD_REACTORS
330
4B
102
}
330
4B
100
AcDbScale
 70
     0
300
1/32" = 1'-0"
140
0.03125
141
12.0
290
     0
  0
SCALE
  5
60
102
{ACAD_REACTORS
330
4B
102
}
330
4B
100
AcDbScale
 70
     0
300
1/16" = 1'-0"
140
0.0625
141
12.0
290
     0
  0
SCALE
  5
61
102
{ACAD_REACTORS
330
4B
102
}
330
4B
100
AcDbScale
 70
     0
300
3/32" = 1'-0"
140
0.09375
141
12.0
290
     0
  0
SCALE
  5
62
102
{ACAD_REACTORS
330
4B
102
}
330
4B
100
AcDbScale
 70
     0
300
1/8" = 1'-0"
140
0.125
141
12.0
290
     0
  0
SCALE
  5
63
102
{ACAD_REACTORS
330
4B
102
}
330
4B
100
AcDbScale
 70
     0
300
3/16" = 1'-0"
140
0.1875
141
12.0
290
     0
  0
SCALE
  5
64
102
{ACAD_REACTORS
330
4B
102
}
330
4B
100
AcDbScale
 70
     0
300
1/4" = 1'-0"
140
0.25
141
12.0
290
     0
  0
SCALE
  5
65
102
{ACAD_REACTORS
330
4B
102
}
330
4B
100
AcDbScale
 70
     0
300
3/8" = 1'-0"
140
0.375
141
12.0
290
     0
  0
SCALE
  5
66
102
{ACAD_REACTORS
330
4B
102
}
330
4B
100
AcDbScale
 70
     0
300
1/2" = 1'-0"
140
0.5
141
12.0
290
     0
  0
SCALE
  5
67
102
{ACAD_REACTORS
330
4B
102
}
330
4B
100
AcDbScale
 70
     0
300
3/4" = 1'-0"
140
0.75
141
12.0
290
     0
  0
SCALE
  5
68
102
{ACAD_REACTORS
330
4B
102
}
330
4B
100
AcDbScale
 70
     0
300
1" = 1'-0"
140
1.0
141
12.0
290
     0
  0
SCALE
  5
69
102
{ACAD_REACTORS
330
4B
102
}
330
4B
100
AcDbScale
 70
     0
300
1-1/2" = 1'-0"
140
1.5
141
12.0
290
     0
  0
SCALE
  5
6A
102
{ACAD_REACTORS
330
4B
102
}
330
4B
100
AcDbScale
 70
     0
300
3" = 1'-0"
140
3.0
141
12.0
290
     0
  0
SCALE
  5
6B
102
{ACAD_REACTORS
330
4B
102
}
330
4B
100
AcDbScale
 70
     0
300
6" = 1'-0"
140
6.0
141
12.0
290
     0
  0
SCALE
  5
6C
102
{ACAD_REACTORS
330
4B
102
}
330
4B
100
AcDbScale
 70
     0
300
1'-0" = 1'-0"
140
12.0
141
12.0
290
     0
  0
VISUALSTYLE
  5
2F
102
{ACAD_REACTORS
330
2A
102
}
330
2A
100
AcDbVisualStyle
  2
2dWireframe
 70
     4
 71
     0
 72
     2
 73
     0
 90
        0
 40
-0.6
 41
-30.0
 62
     5
 63
     7
 74
     1
 91
        4
 64
     7
 65
   257
 75
     1
175
     1
 42
1.0
 92
        0
 66
   257
 43
1.0
 76
     1
 77
     6
 78
     2
 67
     7
 79
     5
170
     0
171
     0
290
     0
174
     0
 93
        1
 44
0.0
173
     0
291
     0
 45
0.0
1001
ACAD
1000
AcDbSavedByObjectVersion
1070
     0
  0
VISUALSTYLE
  5
31
102
{ACAD_REACTORS
330
2A
102
}
330
2A
100
AcDbVisualStyle
  2
3D Hidden
 70
     6
 71
     1
 72
     2
 73
     2
 90
        0
 40
-0.6
 41
-30.0
 62
     5
 63
     7
 74
     2
 91
        2
 64
     7
 65
   257
 75
     2
175
     1
 42
40.0
 92
        0
 66
   257
 43
1.0
 76
     1
 77
     6
 78
     2
 67
     7
 79
     3
170
     0
171
     0
290
     0
174
     0
 93
        1
 44
0.0
173
     0
291
     0
 45
0.0
1001
ACAD
1000
AcDbSavedByObjectVersion
1070
     0
  0
VISUALSTYLE
  5
30
102
{ACAD_REACTORS
330
2A
102
}
330
2A
100
AcDbVisualStyle
  2
3dWireframe
 70
     5
 71
     0
 72
     2
 73
     0
 90
        0
 40
-0.6
 41
-30.0
 62
     5
 63
     7
 74
     1
 91
        4
 64
     7
 65
   257
 75
     1
175
     1
 42
1.0
 92
        0
 66
   257
 43
1.0
 76
     1
 77
     6
 78
     2
 67
     7
 79
     5
170
     0
171
     0
290
     0
174
     0
 93
        1
 44
0.0
173
     0
291
     0
 45
0.0
1001
ACAD
1000
AcDbSavedByObjectVersion
1070
     0
  0
VISUALSTYLE
  5
32
102
{ACAD_REACTORS
330
2A
102
}
330
2A
100
AcDbVisualStyle
  2
Basic
 70
     7
 71
     1
 72
     0
 73
     1
 90
        0
 40
-0.6
 41
-30.0
 62
     5
 63
     7
 74
     0
 91
        4
 64
     7
 65
   257
 75
     1
175
     1
 42
1.0
 92
        8
 66
     7
 43
1.0
 76
     1
 77
     6
 78
     2
 67
     7
 79
     5
170
     0
171
     0
290
     0
174
     0
 93
        1
 44
0.0
173
     0
291
     1
 45
0.0
1001
ACAD
1000
AcDbSavedByObjectVersion
1070
     0
  0
VISUALSTYLE
  5
36
102
{ACAD_REACTORS
330
2A
102
}
330
2A
100
AcDbVisualStyle
  2
Brighten
 70
    12
 71
     2
 72
     2
 73
     0
 90
        0
 40
-0.6
 41
-30.0
 62
     5
 63
     7
 74
     1
 91
        4
 64
     7
 65
   257
 75
     1
175
     1
 42
1.0
 92
        8
 66
     7
 43
1.0
 76
     1
 77
     6
 78
     2
 67
     7
 79
     5
170
     0
171
     0
290
     0
174
     0
 93
        1
 44
50.0
173
     0
291
     1
 45
0.0
1001
ACAD
1000
AcDbSavedByObjectVersion
1070
     0
  0
VISUALSTYLE
  5
3A
102
{ACAD_REACTORS
330
2A
102
}
330
2A
100
AcDbVisualStyle
  2
ColorChange
 70
    16
 71
     2
 72
     2
 73
     3
 90
        0
 40
-0.6
 41
-30.0
 62
     5
 63
     8
 74
     1
 91
        4
 64
     7
 65
   257
 75
     1
175
     1
 42
1.0
 92
        8
 66
     8
 43
1.0
 76
     1
 77
     6
 78
     2
 67
     7
 79
     5
170
     0
171
     0
290
     0
174
     0
 93
        1
 44
0.0
173
     0
291
     1
 45
0.0
1001
ACAD
1000
AcDbSavedByObjectVersion
1070
     0
  0
VISUALSTYLE
  5
34
102
{ACAD_REACTORS
330
2A
102
}
330
2A
100
AcDbVisualStyle
  2
Conceptual
 70
     9
 71
     3
 72
     2
 73
     0
 90
        0
 40
-0.6
 41
-30.0
 62
     5
 63
     7
 74
     2
 91
        2
 64
     7
 65
   257
 75
     1
175
     1
 42
40.0
 92
        8
 66
     7
 43
1.0
 76
     1
 77
     6
 78
     2
 67
     7
 79
     3
170
     0
171
     0
290
     0
174
     0
 93
        1
 44
0.0
173
     0
291
     0
 45
0.0
1001
ACAD
1000
AcDbSavedByObjectVersion
1070
     0
  0
VISUALSTYLE
  5
35
102
{ACAD_REACTORS
330
2A
102
}
330
2A
100
AcDbVisualStyle
  2
Dim
 70
    11
 71
     2
 72
     2
 73
     0
 90
        0
 40
-0.6
 41
-30.0
 62
     5
 63
     7
 74
     1
 91
        4
 64
     7
 65
   257
 75
     1
175
     1
 42
1.0
 92
        8
 66
     7
 43
1.0
 76
     1
 77
     6
 78
     2
 67
     7
 79
     5
170
     0
171
     0
290
     0
174
     0
 93
        1
 44
-50.0
173
     0
291
     1
 45
0.0
1001
ACAD
1000
AcDbSavedByObjectVersion
1070
     0
  0
VISUALSTYLE
  5
39
102
{ACAD_REACTORS
330
2A
102
}
330
2A
100
AcDbVisualStyle
  2
Facepattern
 70
    15
 71
     2
 72
     2
 73
     0
 90
        0
 40
-0.6
 41
-30.0
 62
     5
 63
     7
 74
     1
 91
        4
 64
     7
 65
   257
 75
     1
175
     1
 42
1.0
 92
        8
 66
     7
 43
1.0
 76
     1
 77
     6
 78
     2
 67
     7
 79
     5
170
     0
171
     0
290
     0
174
     0
 93
        1
 44
0.0
173
     0
291
     1
 45
0.0
1001
ACAD
1000
AcDbSavedByObjectVersion
1070
     0
  0
VISUALSTYLE
  5
2B
102
{ACAD_REACTORS
330
2A
102
}
330
2A
100
AcDbVisualStyle
  2
Flat
 70
     0
 71
     2
 72
     1
 73
     1
 90
        2
 40
-0.6
 41
30.0
 62
     5
 63
     7
 74
     0
 91
        4
 64
     7
 65
   257
 75
     1
175
     1
 42
1.0
 92
        8
 66
     7
 43
1.0
 76
     1
 77
     6
 78
     2
 67
     7
 79
     5
170
     0
171
     0
290
     0
174
     0
 93
       13
 44
0.0
173
     0
291
     1
 45
0.0
1001
ACAD
1000
AcDbSavedByObjectVersion
1070
     0
  0
VISUALSTYLE
  5
2C
102
{ACAD_REACTORS
330
2A
102
}
330
2A
100
AcDbVisualStyle
  2
FlatWithEdges
 70
     1
 71
     2
 72
     1
 73
     1
 90
        2
 40
-0.6
 41
30.0
 62
     5
 63
     7
 74
     1
 91
        4
 64
     7
 65
   257
 75
     1
175
     1
 42
1.0
 92
        0
 66
   257
 43
1.0
 76
     1
 77
     6
 78
     2
 67
     7
 79
     5
170
     0
171
     0
290
     0
174
     0
 93
       13
 44
0.0
173
     0
291
     1
 45
0.0
1001
ACAD
1000
AcDbSavedByObjectVersion
1070
     0
  0
VISUALSTYLE
  5
2D
102
{ACAD_REACTORS
330
2A
102
}
330
2A
100
AcDbVisualStyle
  2
Gouraud
 70
     2
 71
     2
 72
     2
 73
     1
 90
        2
 40
-0.6
 41
30.0
 62
     5
 63
     7
 74
     0
 91
        4
 64
     7
 65
   257
 75
     1
175
     1
 42
1.0
 92
        0
 66
     7
 43
1.0
 76
     1
 77
     6
 78
     2
 67
     7
 79
     5
170
     0
171
     0
290
     0
174
     0
 93
       13
 44
0.0
173
     0
291
     1
 45
0.0
1001
ACAD
1000
AcDbSavedByObjectVersion
1070
     0
  0
VISUALSTYLE
  5
2E
102
{ACAD_REACTORS
330
2A
102
}
330
2A
100
AcDbVisualStyle
  2
GouraudWithEdges
 70
     3
 71
     2
 72
     2
 73
     1
 90
        2
 40
-0.6
 41
30.0
 62
     5
 63
     7
 74
     1
 91
        4
 64
     7
 65
   257
 75
     1
175
     1
 42
1.0
 92
        0
 66
   257
 43
1.0
 76
     1
 77
     6
 78
     2
 67
     7
 79
     5
170
     0
171
     0
290
     0
174
     0
 93
       13
 44
0.0
173
     0
291
     1
 45
0.0
1001
ACAD
1000
AcDbSavedByObjectVersion
1070
     0
  0
VISUALSTYLE
  5
38
102
{ACAD_REACTORS
330
2A
102
}
330
2A
100
AcDbVisualStyle
  2
Linepattern
 70
    14
 71
     2
 72
     2
 73
     0
 90
        0
 40
-0.6
 41
-30.0
 62
     5
 63
     7
 74
     1
 91
        4
 64
     7
 65
   257
 75
     7
175
     7
 42
1.0
 92
        8
 66
     7
 43
1.0
 76
     1
 77
     6
 78
     2
 67
     7
 79
     5
170
     0
171
     0
290
     0
174
     0
 93
        1
 44
0.0
173
     0
291
     1
 45
0.0
1001
ACAD
1000
AcDbSavedByObjectVersion
1070
     0
  0
VISUALSTYLE
  5
33
102
{ACAD_REACTORS
330
2A
102
}
330
2A
100
AcDbVisualStyle
  2
Realistic
 70
     8
 71
     2
 72
     2
 73
     0
 90
        0
 40
-0.6
 41
-30.0
 62
     5
 63
     7
 74
     1
 91
        0
 64
     7
 65
   257
 75
     1
175
     1
 42
1.0
 92
        8
 66
     8
 43
1.0
 76
     1
 77
     6
 78
     2
 67
     7
 79
     5
170
     0
171
     0
290
     0
174
     0
 93
       13
 44
0.0
173
     0
291
     0
 45
0.0
1001
ACAD
1000
AcDbSavedByObjectVersion
1070
     0
  0
VISUALSTYLE
  5
37
102
{ACAD_REACTORS
330
2A
102
}
330
2A
100
AcDbVisualStyle
  2
Thicken
 70
    13
 71
     2
 72
     2
 73
     0
 90
        0
 40
-0.6
 41
-30.0
 62
     5
 63
     7
 74
     1
 91
        4
 64
     7
 65
   257
 75
     1
175
     1
 42
1.0
 92
       12
 66
     7
 43
1.0
 76
     1
 77
     6
 78
     2
 67
     7
 79
     5
170
     0
171
     0
290
     0
174
     0
 93
        1
 44
0.0
173
     0
291
     1
 45
0.0
1001
ACAD
1000
AcDbSavedByObjectVersion
1070
     0
  0
DICTIONARYVAR
  5
145
102
{ACAD_REACTORS
330
142
102
}
330
142
100
DictionaryVariables
280
     0
  1
1:1
  0
ENDSEC
  0
EOF
