  0
SECTION
  2
HEADER
  9
$ACADVER
  1
AC1015
  9
$ACADMAINTVER
 70
     6
  9
$DWGCODEPAGE
  3
ANSI_1252
  9
$INSBASE
 10
0.0
 20
0.0
 30
0.0
  9
$EXTMIN
 10
40.1099471728696
 20
277.9586790685
 30
0.0
  9
$EXTMAX
 10
216.332734421872
 20
405.662207162886
 30
0.0
  9
$LIMMIN
 10
0.0
 20
0.0
  9
$LIMMAX
 10
12.0
 20
9.0
  9
$ORTHOMODE
 70
     0
  9
$REGENMODE
 70
     1
  9
$FILLMODE
 70
     1
  9
$QTEXTMODE
 70
     0
  9
$MIRRTEXT
 70
     1
  9
$LTSCALE
 40
1.0
  9
$ATTMODE
 70
     1
  9
$TEXTSIZE
 40
0.2
  9
$TRACEWID
 40
0.05
  9
$TEXTSTYLE
  7
Standard
  9
$CLAYER
  8
0
  9
$CELTYPE
  6
ByLayer
  9
$CECOLOR
 62
   256
  9
$CELTSCALE
 40
1.0
  9
$DISPSILH
 70
     0
  9
$DIMSCALE
 40
1.0
  9
$DIMASZ
 40
0.18
  9
$DIMEXO
 40
0.0625
  9
$DIMDLI
 40
0.38
  9
$DIMRND
 40
0.0
  9
$DIMDLE
 40
0.0
  9
$DIMEXE
 40
0.18
  9
$DIMTP
 40
0.0
  9
$DIMTM
 40
0.0
  9
$DIMTXT
 40
0.18
  9
$DIMCEN
 40
0.09
  9
$DIMTSZ
 40
0.0
  9
$DIMTOL
 70
     0
  9
$DIMLIM
 70
     0
  9
$DIMTIH
 70
     1
  9
$DIMTOH
 70
     1
  9
$DIMSE1
 70
     0
  9
$DIMSE2
 70
     0
  9
$DIMTAD
 70
     0
  9
$DIMZIN
 70
     0
  9
$DIMBLK
  1

  9
$DIMASO
 70
     1
  9
$DIMSHO
 70
     1
  9
$DIMPOST
  1

  9
$DIMAPOST
  1

  9
$DIMALT
 70
     0
  9
$DIMALTD
 70
     2
  9
$DIMALTF
 40
25.4
  9
$DIMLFAC
 40
1.0
  9
$DIMTOFL
 70
     0
  9
$DIMTVP
 40
0.0
  9
$DIMTIX
 70
     0
  9
$DIMSOXD
 70
     0
  9
$DIMSAH
 70
     0
  9
$DIMBLK1
  1

  9
$DIMBLK2
  1

  9
$DIMSTYLE
  2
Standard
  9
$DIMCLRD
 70
     0
  9
$DIMCLRE
 70
     0
  9
$DIMCLRT
 70
     0
  9
$DIMTFAC
 40
1.0
  9
$DIMGAP
 40
0.09
  9
$DIMJUST
 70
     0
  9
$DIMSD1
 70
     0
  9
$DIMSD2
 70
     0
  9
$DIMTOLJ
 70
     1
  9
$DIMTZIN
 70
     0
  9
$DIMALTZ
 70
     0
  9
$DIMALTTZ
 70
     0
  9
$DIMUPT
 70
     0
  9
$DIMDEC
 70
     4
  9
$DIMTDEC
 70
     4
  9
$DIMALTU
 70
     2
  9
$DIMALTTD
 70
     2
  9
$DIMTXSTY
  7
Standard
  9
$DIMAUNIT
 70
     0
  9
$DIMADEC
 70
     0
  9
$DIMALTRND
 40
0.0
  9
$DIMAZIN
 70
     0
  9
$DIMDSEP
 70
    46
  9
$DIMATFIT
 70
     3
  9
$DIMFRAC
 70
     0
  9
$DIMLDRBLK
  1

  9
$DIMLUNIT
 70
     2
  9
$DIMLWD
 70
    -2
  9
$DIMLWE
 70
    -2
  9
$DIMTMOVE
 70
     0
  9
$LUNITS
 70
     2
  9
$LUPREC
 70
     4
  9
$SKETCHINC
 40
0.1
  9
$FILLETRAD
 40
0.5
  9
$AUNITS
 70
     0
  9
$AUPREC
 70
     0
  9
$MENU
  1
.
  9
$ELEVATION
 40
0.0
  9
$PELEVATION
 40
0.0
  9
$THICKNESS
 40
0.0
  9
$LIMCHECK
 70
     0
  9
$CHAMFERA
 40
0.5
  9
$CHAMFERB
 40
0.5
  9
$CHAMFERC
 40
1.0
  9
$CHAMFERD
 40
0.0
  9
$SKPOLY
 70
     0
  9
$TDCREATE
 40
2456748.735483993
  9
$TDUCREATE
 40
2456748.65215066
  9
$TDUPDATE
 40
2456748.735484004
  9
$TDUUPDATE
 40
2456748.652150671
  9
$TDINDWG
 40
0.0000000116
  9
$TDUSRTIMER
 40
0.0000000116
  9
$USRTIMER
 70
     1
  9
$ANGBASE
 50
0.0
  9
$ANGDIR
 70
     0
  9
$PDMODE
 70
     0
  9
$PDSIZE
 40
0.0
  9
$PLINEWID
 40
0.0
  9
$SPLFRAME
 70
     0
  9
$SPLINETYPE
 70
     6
  9
$SPLINESEGS
 70
     8
  9
$HANDSEED
  5
148
  9
$SURFTAB1
 70
     6
  9
$SURFTAB2
 70
     6
  9
$SURFTYPE
 70
     6
  9
$SURFU
 70
     6
  9
$SURFV
 70
     6
  9
$UCSBASE
  2

  9
$UCSNAME
  2

  9
$UCSORG
 10
0.0
 20
0.0
 30
0.0
  9
$UCSXDIR
 10
1.0
 20
0.0
 30
0.0
  9
$UCSYDIR
 10
0.0
 20
1.0
 30
0.0
  9
$UCSORTHOREF
  2

  9
$UCSORTHOVIEW
 70
     0
  9
$UCSORGTOP
 10
0.0
 20
0.0
 30
0.0
  9
$UCSORGBOTTOM
 10
0.0
 20
0.0
 30
0.0
  9
$UCSORGLEFT
 10
0.0
 20
0.0
 30
0.0
  9
$UCSORGRIGHT
 10
0.0
 20
0.0
 30
0.0
  9
$UCSORGFRONT
 10
0.0
 20
0.0
 30
0.0
  9
$UCSORGBACK
 10
0.0
 20
0.0
 30
0.0
  9
$PUCSBASE
  2

  9
$PUCSNAME
  2

  9
$PUCSORG
 10
0.0
 20
0.0
 30
0.0
  9
$PUCSXDIR
 10
1.0
 20
0.0
 30
0.0
  9
$PUCSYDIR
 10
0.0
 20
1.0
 30
0.0
  9
$PUCSORTHOREF
  2

  9
$PUCSORTHOVIEW
 70
     0
  9
$PUCSORGTOP
 10
0.0
 20
0.0
 30
0.0
  9
$PUCSORGBOTTOM
 10
0.0
 20
0.0
 30
0.0
  9
$PUCSORGLEFT
 10
0.0
 20
0.0
 30
0.0
  9
$PUCSORGRIGHT
 10
0.0
 20
0.0
 30
0.0
  9
$PUCSORGFRONT
 10
0.0
 20
0.0
 30
0.0
  9
$PUCSORGBACK
 10
0.0
 20
0.0
 30
0.0
  9
$USERI1
 70
     0
  9
$USERI2
 70
     0
  9
$USERI3
 70
     0
  9
$USERI4
 70
     0
  9
$USERI5
 70
     0
  9
$USERR1
 40
16.5
  9
$USERR2
 40
0.0
  9
$USERR3
 40
0.0
  9
$USERR4
 40
0.0
  9
$USERR5
 40
0.0
  9
$WORLDVIEW
 70
     1
  9
$SHADEDGE
 70
     3
  9
$SHADEDIF
 70
    70
  9
$TILEMODE
 70
     1
  9
$MAXACTVP
 70
    64
  9
$PINSBASE
 10
0.0
 20
0.0
 30
0.0
  9
$PLIMCHECK
 70
     0
  9
$PEXTMIN
 10
1.00000000000000E+20
 20
1.00000000000000E+20
 30
1.00000000000000E+20
  9
$PEXTMAX
 10
-1.00000000000000E+20
 20
-1.00000000000000E+20
 30
-1.00000000000000E+20
  9
$PLIMMIN
 10
0.0
 20
0.0
  9
$PLIMMAX
 10
12.0
 20
9.0
  9
$UNITMODE
 70
     0
  9
$VISRETAIN
 70
     1
  9
$PLINEGEN
 70
     0
  9
$PSLTSCALE
 70
     1
  9
$TREEDEPTH
 70
  3020
  9
$CMLSTYLE
  2
Standard
  9
$CMLJUST
 70
     0
  9
$CMLSCALE
 40
1.0
  9
$PROXYGRAPHICS
 70
     1
  9
$MEASUREMENT
 70
     1
  9
$CELWEIGHT
370
    -1
  9
$ENDCAPS
280
     0
  9
$JOINSTYLE
280
     0
  9
$LWDISPLAY
290
     0
  9
$INSUNITS
 70
     1
  9
$HYPERLINKBASE
  1

  9
$STYLESHEET
  1

  9
$XEDIT
290
     1
  9
$CEPSNTYPE
380
     0
  9
$PSTYLEMODE
290
     1
  9
$FINGERPRINTGUID
  2
{9B985F63-8308-4428-B1AD-E47EEE4E1EE6}
  9
$VERSIONGUID
  2
{FAEB1C32-E019-11D5-929B-00C0DF256EC4}
  9
$EXTNAMES
290
     1
  9
$PSVPSCALE
 40
0.0
  9
$OLESTARTUP
290
     0
  0
ENDSEC
  0
SECTION
  2
CLASSES
  0
CLASS
  1
ACDBDICTIONARYWDFLT
  2
AcDbDictionaryWithDefault
  3
ObjectDBX Classes
 90
        0
280
     0
281
     0
  0
CLASS
  1
VISUALSTYLE
  2
AcDbVisualStyle
  3
ObjectDBX Classes
 90
     4095
280
     0
281
     0
  0
CLASS
  1
SCALE
  2
AcDbScale
  3
ObjectDBX Classes
 90
     1153
280
     0
281
     0
  0
CLASS
  1

  2
exOdDbPolyline
  3

 90
        0
280
     0
281
     1
  0
CLASS
  1

  2
exOdDbCircle
  3

 90
        0
280
     0
281
     1
  0
CLASS
  1

  2
exOdDbSpline
  3

 90
        0
280
     0
281
     1
  0
CLASS
  1
DICTIONARYVAR
  2
AcDbDictionaryVar
  3
ObjectDBX Classes
 90
        0
280
     0
281
     0
  0
CLASS
  1
ACDBPLACEHOLDER
  2
AcDbPlaceHolder
  3
ObjectDBX Classes
 90
        0
280
     0
281
     0
  0
CLASS
  1
LAYOUT
  2
AcDbLayout
  3
ObjectDBX Classes
 90
        0
280
     0
281
     0
  0
ENDSEC
  0
SECTION
  2
TABLES
  0
TABLE
  2
VPORT
  5
8
330
0
100
AcDbSymbolTable
 70
     1
  0
VPORT
  5
29
330
8
100
AcDbSymbolTableRecord
100
AcDbViewportTableRecord
  2
*Active
 70
     0
 10
0.0
 20
0.0
 11
1.0
 21
1.0
 12
128.2213407973708
 22
341.810443115693
 13
0.0
 23
0.0
 14
0.5
 24
0.5
 15
0.5
 25
0.5
 16
0.0
 26
0.0
 36
1.0
 17
0.0
 27
0.0
 37
0.0
 40
140.4738809038246
 41
1.60267857142857
 42
50.0
 43
0.0
 44
0.0
 50
0.0
 51
0.0
 71
     0
 72
   100
 73
     1
 74
     3
 75
     0
 76
     0
 77
     0
 78
     0
281
     0
 65
     1
110
0.0
120
0.0
130
0.0
111
1.0
121
0.0
131
0.0
112
0.0
122
1.0
132
0.0
 79
     0
146
0.0
  0
ENDTAB
  0
TABLE
  2
LTYPE
  5
5
330
0
100
AcDbSymbolTable
 70
     8
  0
LTYPE
  5
14
330
5
100
AcDbSymbolTableRecord
100
AcDbLinetypeTableRecord
  2
ByBlock
 70
     0
  3

 72
    65
 73
     0
 40
0.0
  0
LTYPE
  5
15
330
5
100
AcDbSymbolTableRecord
100
AcDbLinetypeTableRecord
  2
ByLayer
 70
     0
  3

 72
    65
 73
     0
 40
0.0
  0
LTYPE
  5
16
330
5
100
AcDbSymbolTableRecord
100
AcDbLinetypeTableRecord
  2
Continuous
 70
     0
  3
Solid line
 72
    65
 73
     0
 40
0.0
  0
LTYPE
  5
3B
330
5
100
AcDbSymbolTableRecord
100
AcDbLinetypeTableRecord
  2
DASHED
 70
     0
  3
Dashed
 72
    65
 73
     2
 40
15.0
 49
7.0
 74
     0
 49
-8.0
 74
     0
  0
LTYPE
  5
3C
330
5
100
AcDbSymbolTableRecord
100
AcDbLinetypeTableRecord
  2
DOTTED
 70
     0
  3
Dotted
 72
    65
 73
     2
 40
1.0
 49
0.0
 74
     0
 49
-1.0
 74
     0
  0
LTYPE
  5
3D
330
5
100
AcDbSymbolTableRecord
100
AcDbLinetypeTableRecord
  2
DOT_CENTER
 70
     0
  3
Dot_Center
 72
    65
 73
     4
 40
14.0
 49
12.0
 74
     0
 49
-1.0
 74
     0
 49
0.0
 74
     0
 49
-1.0
 74
     0
  0
LTYPE
  5
3E
330
5
100
AcDbSymbolTableRecord
100
AcDbLinetypeTableRecord
  2
LONG_DASHED
 70
     0
  3
Long_Dashed
 72
    65
 73
     2
 40
15.0
 49
10.0
 74
     0
 49
-5.0
 74
     0
  0
LTYPE
  5
3F
330
5
100
AcDbSymbolTableRecord
100
AcDbLinetypeTableRecord
  2
DASH_CENTER
 70
     0
  3
Dash_Center
 72
    65
 73
     4
 40
14.0
 49
11.0
 74
     0
 49
-1.0
 74
     0
 49
1.0
 74
     0
 49
-1.0
 74
     0
  0
LTYPE
  5
40
330
5
100
AcDbSymbolTableRecord
100
AcDbLinetypeTableRecord
  2
PHANTOM
 70
     0
  3
Phantom
 72
    65
 73
     6
 40
13.0
 49
10.0
 74
     0
 49
-1.0
 74
     0
 49
0.0
 74
     0
 49
-1.0
 74
     0
 49
0.0
 74
     0
 49
-1.0
 74
     0
  0
LTYPE
  5
41
330
5
100
AcDbSymbolTableRecord
100
AcDbLinetypeTableRecord
  2
CENTER_DASH_DASH
 70
     0
  3
Center_Dash_Dash
 72
    65
 73
     6
 40
14.0
 49
9.0
 74
     0
 49
-1.0
 74
     0
 49
1.0
 74
     0
 49
-1.0
 74
     0
 49
1.0
 74
     0
 49
-1.0
 74
     0
  0
ENDTAB
  0
TABLE
  2
LAYER
  5
2
330
0
100
AcDbSymbolTable
 70
     7
  0
LAYER
  5
10
330
2
100
AcDbSymbolTableRecord
100
AcDbLayerTableRecord
  2
0
 70
     0
 62
     7
  6
Continuous
370
    -3
390
F
  0
LAYER
  5
42
330
2
100
AcDbSymbolTableRecord
100
AcDbLayerTableRecord
  2
1
 70
     0
 62
     7
  6
Continuous
370
    -3
390
F
  0
LAYER
  5
43
330
2
100
AcDbSymbolTableRecord
100
AcDbLayerTableRecord
  2
BEZUGSACHSEN
 70
     0
 62
     7
  6
Continuous
370
    -3
390
F
  0
LAYER
  5
44
330
2
100
AcDbSymbolTableRecord
100
AcDbLayerTableRecord
  2
DEFAULT_2
 70
     0
 62
     7
  6
Continuous
370
    -3
390
F
  0
LAYER
  5
45
330
2
100
AcDbSymbolTableRecord
100
AcDbLayerTableRecord
  2
FASEN
 70
     0
 62
     7
  6
Continuous
370
    -3
390
F
  0
LAYER
  5
46
330
2
100
AcDbSymbolTableRecord
100
AcDbLayerTableRecord
  2
GEWINDE
 70
     0
 62
     7
  6
Continuous
370
    -3
390
F
  0
LAYER
  5
47
330
2
100
AcDbSymbolTableRecord
100
AcDbLayerTableRecord
  2
RUNDUNGEN
 70
     0
 62
     7
  6
Continuous
370
    -3
390
F
  0
ENDTAB
  0
TABLE
  2
STYLE
  5
3
330
0
100
AcDbSymbolTable
 70
     2
  0
STYLE
  5
11
330
3
100
AcDbSymbolTableRecord
100
AcDbTextStyleTableRecord
  2
Standard
 70
     0
 40
0.0
 41
1.0
 50
0.0
 71
     0
 42
0.2
  3
txt
  4

  0
STYLE
  5
6E
330
3
100
AcDbSymbolTableRecord
100
AcDbTextStyleTableRecord
  2
CONVERTER_11
 70
     0
 40
0.0
 41
0.72
 50
0.0
 71
     0
 42
0.2
  3
txt.shx
  4

  0
ENDTAB
  0
TABLE
  2
VIEW
  5
6
330
0
100
AcDbSymbolTable
 70
     0
  0
ENDTAB
  0
TABLE
  2
UCS
  5
7
330
0
100
AcDbSymbolTable
 70
     0
  0
ENDTAB
  0
TABLE
  2
APPID
  5
9
330
0
100
AcDbSymbolTable
 70
     1
  0
APPID
  5
12
330
9
100
AcDbSymbolTableRecord
100
AcDbRegAppTableRecord
  2
ACAD
 70
     0
  0
ENDTAB
  0
TABLE
  2
DIMSTYLE
  5
A
330
0
100
AcDbSymbolTable
 70
     6
100
AcDbDimStyleTable
  0
DIMSTYLE
105
27
330
A
100
AcDbSymbolTableRecord
100
AcDbDimStyleTableRecord
  2
Standard
 70
     0
340
11
  0
DIMSTYLE
105
10F
102
{ACAD_REACTORS
330
110
102
}
330
A
100
AcDbSymbolTableRecord
100
AcDbDimStyleTableRecord
  2
ME10_DIM_10
 70
     0
  3
\U+2300<>
 41
3.5
 42
2.0
 44
2.0
 71
     1
 73
     0
 74
     0
 77
     1
 78
     8
140
3.5
146
0.7
147
2.0
172
     1
173
     1
176
     2
177
     2
178
     3
271
     2
272
     0
340
6E
  0
DIMSTYLE
105
11A
102
{ACAD_REACTORS
330
11B
102
}
330
A
100
AcDbSymbolTableRecord
100
AcDbDimStyleTableRecord
  2
ME10_DIM_11
 70
     0
  3
\U+2300<>
 41
3.5
 42
2.0
 44
2.0
 71
     1
 73
     0
 74
     0
 77
     1
 78
     8
140
3.5
146
0.7
147
2.0
172
     1
173
     1
176
     2
177
     2
178
     3
271
     2
272
     0
340
6E
  0
DIMSTYLE
105
125
102
{ACAD_REACTORS
330
126
102
}
330
A
100
AcDbSymbolTableRecord
100
AcDbDimStyleTableRecord
  2
ME10_DIM_12
 70
     0
  3
<>
 41
3.5
 42
2.0
 44
2.0
 71
     1
 73
     0
 74
     0
 77
     1
 78
     8
140
3.5
146
0.7
147
2.0
172
     1
173
     1
176
     2
177
     2
178
     3
271
     2
272
     0
340
6E
  0
DIMSTYLE
105
130
102
{ACAD_REACTORS
330
131
102
}
330
A
100
AcDbSymbolTableRecord
100
AcDbDimStyleTableRecord
  2
ME10_DIM_13
 70
     0
  3
<>
 41
3.5
 42
2.0
 44
2.0
 71
     1
 73
     0
 74
     0
 77
     1
 78
     8
140
3.5
146
0.7
147
2.0
172
     1
173
     1
176
     2
177
     2
178
     3
271
     2
272
     0
340
6E
  0
DIMSTYLE
105
13B
102
{ACAD_REACTORS
330
13C
102
}
330
A
100
AcDbSymbolTableRecord
100
AcDbDimStyleTableRecord
  2
ME10_DIM_14
 70
     0
  3
<>
 41
3.5
 42
2.0
 44
2.0
 71
     1
 73
     0
 74
     0
 77
     1
 78
     8
140
3.5
146
0.7
147
2.0
172
     1
173
     1
176
     2
177
     2
178
     3
271
     2
272
     0
340
6E
  0
ENDTAB
  0
TABLE
  2
BLOCK_RECORD
  5
1
330
0
100
AcDbSymbolTable
 70
     8
  0
BLOCK_RECORD
  5
1F
330
1
100
AcDbSymbolTableRecord
100
AcDbBlockTableRecord
  2
*Model_Space
340
22
  0
BLOCK_RECORD
  5
1B
330
1
100
AcDbSymbolTableRecord
100
AcDbBlockTableRecord
  2
*Paper_Space
340
1E
  0
BLOCK_RECORD
  5
23
330
1
100
AcDbSymbolTableRecord
100
AcDbBlockTableRecord
  2
*Paper_Space0
340
26
  0
BLOCK_RECORD
  5
48
330
1
100
AcDbSymbolTableRecord
100
AcDbBlockTableRecord
  2
Urheberrecht_DE-EN
340
0
102
{BLKREFS
331
6D
102
}
  0
BLOCK_RECORD
  5
104
330
1
100
AcDbSymbolTableRecord
100
AcDbBlockTableRecord
  2
*D2
340
0
  0
BLOCK_RECORD
  5
111
330
1
100
AcDbSymbolTableRecord
100
AcDbBlockTableRecord
  2
*D3
340
0
  0
BLOCK_RECORD
  5
11C
330
1
100
AcDbSymbolTableRecord
100
AcDbBlockTableRecord
  2
*D4
340
0
  0
BLOCK_RECORD
  5
127
330
1
100
AcDbSymbolTableRecord
100
AcDbBlockTableRecord
  2
*D5
340
0
  0
BLOCK_RECORD
  5
132
330
1
100
AcDbSymbolTableRecord
100
AcDbBlockTableRecord
  2
*D6
340
0
  0
BLOCK_RECORD
  5
13D
330
1
100
AcDbSymbolTableRecord
100
AcDbBlockTableRecord
  2
*D7
340
0
102
{BLKREFS
331
143
102
}
  0
ENDTAB
  0
ENDSEC
  0
SECTION
  2
BLOCKS
  0
BLOCK
  5
20
330
1F
100
AcDbEntity
  8
0
100
AcDbBlockBegin
  2
*Model_Space
 70
     0
 10
0.0
 20
0.0
 30
0.0
  3
*Model_Space
  1

  0
ENDBLK
  5
21
330
1F
100
AcDbEntity
  8
0
100
AcDbBlockEnd
  0
BLOCK
  5
1C
330
1B
100
AcDbEntity
 67
     1
  8
0
100
AcDbBlockBegin
  2
*Paper_Space
 70
     0
 10
0.0
 20
0.0
 30
0.0
  3
*Paper_Space
  1

  0
ENDBLK
  5
1D
330
1B
100
AcDbEntity
 67
     1
  8
0
100
AcDbBlockEnd
  0
BLOCK
  5
24
330
23
100
AcDbEntity
  8
0
100
AcDbBlockBegin
  2
*Paper_Space0
 70
     0
 10
0.0
 20
0.0
 30
0.0
  3
*Paper_Space0
  1

  0
ENDBLK
  5
25
330
23
100
AcDbEntity
  8
0
100
AcDbBlockEnd
  0
BLOCK
  5
49
330
48
100
AcDbEntity
  8
0
100
AcDbBlockBegin
  2
Urheberrecht_DE-EN
 70
     0
 10
54.1099471728696
 20
340.453796172783
 30
0.0
  3
Urheberrecht_DE-EN
  1

  0
MTEXT
  5
6F
330
48
100
AcDbEntity
  8
1
 62
     1
100
AcDbMText
 10
54.1099471728696
 20
340.453796172783
 30
0.0
 40
2.0
 41
0.0
 71
     7
 72
     1
  1
We own the copyright of this document. It \Pdetermined and may neither be copied or \Pmade accessible to outsiders without our\Ppermission.
  7
CONVERTER_11
 11
0.0
 21
1.0
 31
0.0
 73
     1
 44
0.90036014405762
  0
MTEXT
  5
70
330
48
100
AcDbEntity
  8
1
 62
     1
100
AcDbMText
 10
54.1099471728696
 20
284.1644092554768
 30
0.0
 40
2.0
 41
0.0
 71
     7
 72
     1
  1
F\U+00fcr diese Unterlage behalten wir das Ur-\Pheberrecht. Sie darf nur f\U+00fcr den von uns \Pbestimmten Zweck benutzt und ohne unsere \PZustimmung weder vervielf\U+00e4ltigt noch\PDritten zug\U+00e4nglich gemacht werden.
  7
CONVERTER_11
 11
0.0
 21
1.0
 31
0.0
 73
     1
 44
0.90036014405762
  0
ENDBLK
  5
4A
330
48
100
AcDbEntity
  8
0
100
AcDbBlockEnd
  0
BLOCK
  5
10D
330
104
100
AcDbEntity
  8
0
100
AcDbBlockBegin
  2
*D2
 70
     1
 10
0.0
 20
0.0
 30
0.0
  3
*D2
  1

  0
LINE
  5
105
330
104
100
AcDbEntity
  8
1
  6
Continuous
 62
     2
100
AcDbLine
 10
204.499793428613
 20
338.9586790685
 30
0.0
 11
204.499793428613
 21
331.9586790685
 31
0.0
  0
LINE
  5
106
330
104
100
AcDbEntity
  8
1
  6
Continuous
 62
     2
100
AcDbLine
 10
204.499793428613
 20
331.9586790685
 30
0.0
 11
204.499793428613
 21
323.9586790685
 31
0.0
  0
LINE
  5
107
330
104
100
AcDbEntity
  8
1
  6
Continuous
 62
     2
100
AcDbLine
 10
204.499793428613
 20
323.9586790685
 30
0.0
 11
204.499793428613
 21
316.9586790685
 31
0.0
  0
LINE
  5
108
330
104
100
AcDbEntity
  8
1
  6
Continuous
 62
     2
100
AcDbLine
 10
195.6456771949
 20
331.9586790685
 30
0.0
 11
206.499793428613
 21
331.9586790685
 31
0.0
  0
LINE
  5
109
330
104
100
AcDbEntity
  8
1
  6
Continuous
 62
     2
100
AcDbLine
 10
195.6456771949
 20
323.9586790685
 30
0.0
 11
206.499793428613
 21
323.9586790685
 31
0.0
  0
SOLID
  5
10A
330
104
100
AcDbEntity
  8
1
 62
     2
100
AcDbTrace
 10
204.0390096870571
 20
335.4586790685
 30
0.0
 11
204.9605771701689
 21
335.4586790685
 31
0.0
 12
204.499793428613
 22
331.9586790685
 32
0.0
 13
204.499793428613
 23
331.9586790685
 33
0.0
  0
SOLID
  5
10B
330
104
100
AcDbEntity
  8
1
 62
     2
100
AcDbTrace
 10
204.9605771701689
 20
320.4586790685
 30
0.0
 11
204.0390096870571
 21
320.4586790685
 31
0.0
 12
204.499793428613
 22
323.9586790685
 32
0.0
 13
204.499793428613
 23
323.9586790685
 33
0.0
  0
MTEXT
  5
10C
330
104
100
AcDbEntity
  8
1
 62
     3
100
AcDbMText
 10
202.499793428613
 20
320.341914390972
 30
0.0
 40
3.5
 41
0.0
 71
     7
 72
     1
  1
\C3;%%c\C3;\C3;8\C2;\H2.45;\S^ ;\C3;
  7
CONVERTER_11
 11
0.0
 21
1.0
 31
0.0
 73
     1
 44
0.60024009603842
  0
ENDBLK
  5
10E
330
104
100
AcDbEntity
  8
0
100
AcDbBlockEnd
  0
BLOCK
  5
118
330
111
100
AcDbEntity
  8
0
100
AcDbBlockBegin
  2
*D3
 70
     1
 10
0.0
 20
0.0
 30
0.0
  3
*D3
  1

  0
LINE
  5
112
330
111
100
AcDbEntity
  8
1
  6
Continuous
 62
     2
100
AcDbLine
 10
214.332734421872
 20
341.9586790685
 30
0.0
 11
214.332734421872
 21
313.9586790685
 31
0.0
  0
LINE
  5
113
330
111
100
AcDbEntity
  8
1
  6
Continuous
 62
     2
100
AcDbLine
 10
186.8459548502
 20
341.9586790685
 30
0.0
 11
216.332734421872
 21
341.9586790685
 31
0.0
  0
LINE
  5
114
330
111
100
AcDbEntity
  8
1
  6
Continuous
 62
     2
100
AcDbLine
 10
186.8459548502
 20
313.9586790685
 30
0.0
 11
216.332734421872
 21
313.9586790685
 31
0.0
  0
SOLID
  5
115
330
111
100
AcDbEntity
  8
1
 62
     2
100
AcDbTrace
 10
214.7935181634279
 20
338.4586790685
 30
0.0
 11
213.8719506803161
 21
338.4586790685
 31
0.0
 12
214.332734421872
 22
341.9586790685
 32
0.0
 13
214.332734421872
 23
341.9586790685
 33
0.0
  0
SOLID
  5
116
330
111
100
AcDbEntity
  8
1
 62
     2
100
AcDbTrace
 10
213.8719506803161
 20
317.4586790685
 30
0.0
 11
214.7935181634279
 21
317.4586790685
 31
0.0
 12
214.332734421872
 22
313.9586790685
 32
0.0
 13
214.332734421872
 23
313.9586790685
 33
0.0
  0
MTEXT
  5
117
330
111
100
AcDbEntity
  8
1
 62
     3
100
AcDbMText
 10
212.332734421872
 20
319.316032033668
 30
0.0
 40
3.5
 41
0.0
 71
     7
 72
     1
  1
\C3;%%c\C3;\C3;28\C2;\H2.45;\S^ ;\C3;
  7
CONVERTER_11
 11
0.0
 21
1.0
 31
0.0
 73
     1
 44
0.60024009603842
  0
ENDBLK
  5
119
330
111
100
AcDbEntity
  8
0
100
AcDbBlockEnd
  0
BLOCK
  5
123
330
11C
100
AcDbEntity
  8
0
100
AcDbBlockBegin
  2
*D4
 70
     1
 10
0.0
 20
0.0
 30
0.0
  3
*D4
  1

  0
LINE
  5
11D
330
11C
100
AcDbEntity
  8
1
  6
Continuous
 62
     2
100
AcDbLine
 10
193.6456771949
 20
385.529854494346
 30
0.0
 11
142.6456771949
 21
385.529854494346
 31
0.0
  0
LINE
  5
11E
330
11C
100
AcDbEntity
  8
1
  6
Continuous
 62
     2
100
AcDbLine
 10
193.6456771949
 20
339.3216088077
 30
0.0
 11
193.6456771949
 21
387.529854494346
 31
0.0
  0
LINE
  5
11F
330
11C
100
AcDbEntity
  8
1
  6
Continuous
 62
     2
100
AcDbLine
 10
142.6456771949
 20
379.9586421474
 30
0.0
 11
142.6456771949
 21
387.529854494346
 31
0.0
  0
SOLID
  5
120
330
11C
100
AcDbEntity
  8
1
 62
     2
100
AcDbTrace
 10
190.1456771949
 20
385.0690707527901
 30
0.0
 11
190.1456771949
 21
385.9906382359019
 31
0.0
 12
193.6456771949
 22
385.529854494346
 32
0.0
 13
193.6456771949
 23
385.529854494346
 33
0.0
  0
SOLID
  5
121
330
11C
100
AcDbEntity
  8
1
 62
     2
100
AcDbTrace
 10
146.1456771949
 20
385.9906382359019
 30
0.0
 11
146.1456771949
 21
385.0690707527901
 31
0.0
 12
142.6456771949
 22
385.529854494346
 32
0.0
 13
142.6456771949
 23
385.529854494346
 33
0.0
  0
MTEXT
  5
122
330
11C
100
AcDbEntity
  8
1
 62
     3
100
AcDbMText
 10
165.478029418498
 20
387.529854494346
 30
0.0
 40
3.5
 41
0.0
 71
     7
 72
     1
  1
\C3;\C3;\C3;51\C2;\H2.45;\S^ ;\C3;
  7
CONVERTER_11
 11
0.9999999999970619
 21
2.424068405545306E-6
 31
0.0
 73
     1
 44
0.60024009603842
  0
ENDBLK
  5
124
330
11C
100
AcDbEntity
  8
0
100
AcDbBlockEnd
  0
BLOCK
  5
12E
330
127
100
AcDbEntity
  8
0
100
AcDbBlockBegin
  2
*D5
 70
     1
 10
0.0
 20
0.0
 30
0.0
  3
*D5
  1

  0
LINE
  5
128
330
127
100
AcDbEntity
  8
1
  6
Continuous
 62
     2
100
AcDbLine
 10
193.6456771949
 20
392.670442596594
 30
0.0
 11
113.6456771949
 21
392.670442596594
 31
0.0
  0
LINE
  5
129
330
127
100
AcDbEntity
  8
1
  6
Continuous
 62
     2
100
AcDbLine
 10
193.6456771949
 20
339.3216088077
 30
0.0
 11
193.6456771949
 21
394.670442596594
 31
0.0
  0
LINE
  5
12A
330
127
100
AcDbEntity
  8
1
  6
Continuous
 62
     2
100
AcDbLine
 10
113.6456771949
 20
379.9586790685
 30
0.0
 11
113.6456771949
 21
394.670442596594
 31
0.0
  0
SOLID
  5
12B
330
127
100
AcDbEntity
  8
1
 62
     2
100
AcDbTrace
 10
190.1456771949
 20
392.2096588550381
 30
0.0
 11
190.1456771949
 21
393.1312263381499
 31
0.0
 12
193.6456771949
 22
392.670442596594
 32
0.0
 13
193.6456771949
 23
392.670442596594
 33
0.0
  0
SOLID
  5
12C
330
127
100
AcDbEntity
  8
1
 62
     2
100
AcDbTrace
 10
117.1456771949
 20
393.1312263381499
 30
0.0
 11
117.1456771949
 21
392.2096588550381
 31
0.0
 12
113.6456771949
 22
392.670442596594
 32
0.0
 13
113.6456771949
 23
392.670442596594
 33
0.0
  0
MTEXT
  5
12D
330
127
100
AcDbEntity
  8
1
 62
     3
100
AcDbMText
 10
151.830382606138
 20
394.670442596594
 30
0.0
 40
3.5
 41
0.0
 71
     7
 72
     1
  1
\C3;\C3;\C3;80\C2;\H2.45;\S^ ;\C3;
  7
CONVERTER_11
 11
0.9999999999970619
 21
2.424068405545306E-6
 31
0.0
 73
     1
 44
0.60024009603842
  0
ENDBLK
  5
12F
330
127
100
AcDbEntity
  8
0
100
AcDbBlockEnd
  0
BLOCK
  5
139
330
132
100
AcDbEntity
  8
0
100
AcDbBlockBegin
  2
*D6
 70
     1
 10
0.0
 20
0.0
 30
0.0
  3
*D6
  1

  0
LINE
  5
133
330
132
100
AcDbEntity
  8
1
  6
Continuous
 62
     2
100
AcDbLine
 10
193.6456771949
 20
400.162207162886
 30
0.0
 11
63.6456771949
 21
400.162207162886
 31
0.0
  0
LINE
  5
134
330
132
100
AcDbEntity
  8
1
  6
Continuous
 62
     2
100
AcDbLine
 10
193.6456771949
 20
339.3216088077
 30
0.0
 11
193.6456771949
 21
402.162207162886
 31
0.0
  0
LINE
  5
135
330
132
100
AcDbEntity
  8
1
  6
Continuous
 62
     2
100
AcDbLine
 10
63.6456771949
 20
363.5588706311
 30
0.0
 11
63.6456771949
 21
402.162207162886
 31
0.0
  0
SOLID
  5
136
330
132
100
AcDbEntity
  8
1
 62
     2
100
AcDbTrace
 10
190.1456771949
 20
399.7014234213301
 30
0.0
 11
190.1456771949
 21
400.6229909044418
 31
0.0
 12
193.6456771949
 22
400.162207162886
 32
0.0
 13
193.6456771949
 23
400.162207162886
 33
0.0
  0
SOLID
  5
137
330
132
100
AcDbEntity
  8
1
 62
     2
100
AcDbTrace
 10
67.1456771949
 20
400.6229909044418
 30
0.0
 11
67.1456771949
 21
399.7014234213301
 31
0.0
 12
63.6456771949
 22
400.162207162886
 32
0.0
 13
63.6456771949
 23
400.162207162886
 33
0.0
  0
MTEXT
  5
138
330
132
100
AcDbEntity
  8
1
 62
     3
100
AcDbMText
 10
128.749206549956
 20
402.162207162886
 30
0.0
 40
3.5
 41
0.0
 71
     7
 72
     1
  1
\C3;\C3;\C3;130\C2;\H2.45;\S^ ;\C3;
  7
CONVERTER_11
 11
0.9999999999970619
 21
2.424068405545306E-6
 31
0.0
 73
     1
 44
0.60024009603842
  0
ENDBLK
  5
13A
330
132
100
AcDbEntity
  8
0
100
AcDbBlockEnd
  0
BLOCK
  5
141
330
13D
100
AcDbEntity
  8
0
100
AcDbBlockBegin
  2
*D7
 70
     1
 10
0.0
 20
0.0
 30
0.0
  3
*D7
  1

  0
LINE
  5
13E
330
13D
100
AcDbEntity
  8
1
  6
Continuous
 62
     2
100
AcDbLine
 10
159.0644874625766
 20
358.1887550122463
 30
0.0
 11
148.8711693818453
 21
347.4582330578389
 31
0.0
  0
SOLID
  5
13F
330
13D
100
AcDbEntity
  8
1
 62
     2
100
AcDbTrace
 10
150.9476297607788
 20
350.3131645721141
 30
0.0
 11
151.615786737481
 21
349.6784576472951
 31
0.0
 12
148.8711693818453
 22
347.4582330578389
 32
0.0
 13
148.8711693818453
 23
347.4582330578389
 33
0.0
  0
MTEXT
  5
140
330
13D
100
AcDbEntity
  8
1
 62
     3
100
AcDbMText
 10
150.7685124784223
 20
352.3594841262532
 30
0.0
 40
3.5
 41
0.0
 71
     7
 72
     1
  1
\C3; R\C3;\C3;20\C2;\H2.45;\S^ ;\C3;
  7
CONVERTER_11
 11
0.6887253906527321
 21
0.7250223005330538
 31
0.0
 73
     1
 44
0.60024009603842
  0
ENDBLK
  5
142
330
13D
100
AcDbEntity
  8
0
100
AcDbBlockEnd
  0
ENDSEC
  0
SECTION
  2
ENTITIES
  0
INSERT
  5
6D
330
1F
100
AcDbEntity
  8
0
100
AcDbBlockReference
  2
Urheberrecht_DE-EN
 10
54.1099471728696
 20
340.453796172783
 30
0.0
  0
LINE
  5
71
330
1F
100
AcDbEntity
  8
BEZUGSACHSEN
  6
Continuous
 62
     7
100
AcDbLine
 10
63.6456771949
 20
294.3584875056
 30
0.0
 11
63.6456771949
 21
315.9486790685
 31
0.0
  0
LINE
  5
72
330
1F
100
AcDbEntity
  8
BEZUGSACHSEN
  6
Continuous
 62
     7
100
AcDbLine
 10
63.6456771949
 20
339.9686790685
 30
0.0
 11
63.6456771949
 21
361.5588706311
 31
0.0
  0
LINE
  5
73
330
1F
100
AcDbEntity
  8
BEZUGSACHSEN
  6
Continuous
 62
     9
100
AcDbLine
 10
65.5456027101
 20
363.5563653368
 30
0.0
 11
65.5456027101
 21
343.6352114548
 31
0.0
  0
LINE
  5
74
330
1F
100
AcDbEntity
  8
BEZUGSACHSEN
  6
Continuous
 62
     9
100
AcDbLine
 10
65.5456027101
 20
312.2821466823
 30
0.0
 11
65.5456027101
 21
292.3609928002
 31
0.0
  0
LINE
  5
75
330
1F
100
AcDbEntity
  8
BEZUGSACHSEN
  6
Continuous
 62
     7
100
AcDbLine
 10
65.6456771949
 20
315.5550391201
 30
0.0
 11
65.6456771949
 21
317.9486790685
 31
0.0
  0
LINE
  5
76
330
1F
100
AcDbEntity
  8
BEZUGSACHSEN
  6
Continuous
 62
     7
100
AcDbLine
 10
65.6456771949
 20
337.9686790685
 30
0.0
 11
65.6456771949
 21
340.3623190169
 31
0.0
  0
LINE
  5
77
330
1F
100
AcDbEntity
  8
BEZUGSACHSEN
  6
Continuous
 62
     9
100
AcDbLine
 10
71.6456771949
 20
311.6000314811
 30
0.0
 11
71.6456771949
 21
317.9486790685
 31
0.0
  0
LINE
  5
78
330
1F
100
AcDbEntity
  8
BEZUGSACHSEN
  6
Continuous
 62
     9
100
AcDbLine
 10
71.6456771949
 20
337.9686790685
 30
0.0
 11
71.6456771949
 21
344.317326656
 31
0.0
  0
LINE
  5
79
330
1F
100
AcDbEntity
  8
BEZUGSACHSEN
  6
Continuous
 62
     7
100
AcDbLine
 10
73.6456771949
 20
340.8283345943
 30
0.0
 11
73.6456771949
 21
315.0890235427
 31
0.0
  0
LINE
  5
7A
330
1F
100
AcDbEntity
  8
BEZUGSACHSEN
  6
Continuous
 62
     7
100
AcDbLine
 10
64.9126301219
 20
312.9486790685
 30
0.0
 11
64.7915198705
 21
312.7163430731
 31
0.0
  0
LINE
  5
7B
330
1F
100
AcDbEntity
  8
BEZUGSACHSEN
  6
Continuous
 62
     7
100
AcDbLine
 10
130.3980819307
 20
277.9586790685
 30
0.0
 11
113.6456771949
 21
277.9586790685
 31
0.0
  0
LINE
  5
7C
330
1F
100
AcDbEntity
  8
BEZUGSACHSEN
  6
Continuous
 62
     7
100
AcDbLine
 10
136.8932724591
 20
277.9586790685
 30
0.0
 11
142.6456771949
 21
277.9586790685
 31
0.0
  0
LINE
  5
7D
330
1F
100
AcDbEntity
  8
BEZUGSACHSEN
  6
Continuous
 62
     7
100
AcDbLine
 10
64.7915198705
 20
343.201015064
 30
0.0
 11
64.9126301219
 21
342.9686790685
 31
0.0
  0
LINE
  5
7E
330
1F
100
AcDbEntity
  8
BEZUGSACHSEN
  6
Continuous
 62
     7
100
AcDbLine
 10
132.7706771949
 20
281.9586790685
 30
0.0
 11
134.5206771949
 21
281.9586790685
 31
0.0
  0
LINE
  5
7F
330
1F
100
AcDbEntity
  8
FASEN
  6
Continuous
 62
     7
100
AcDbLine
 10
119.0471631593
 20
289.1289224378
 30
0.0
 11
130.3980819307
 21
289.1289224378
 31
0.0
  0
LINE
  5
80
330
1F
100
AcDbEntity
  8
0
  6
Continuous
 62
     7
100
AcDbLine
 10
136.8932724591
 20
289.1289224378
 30
0.0
 11
142.6456771949
 21
289.1289224378
 31
0.0
  0
LINE
  5
81
330
1F
100
AcDbEntity
  8
BEZUGSACHSEN
  6
Continuous
 62
     7
100
AcDbLine
 10
112.9451059062
 20
290.2764290685
 30
0.0
 11
112.023739854
 21
290.2764290685
 31
0.0
  0
LINE
  5
82
330
1F
100
AcDbEntity
  8
BEZUGSACHSEN
  6
Continuous
 62
     7
100
AcDbLine
 10
111.1456771949
 20
290.0764290685
 30
0.0
 11
65.5456027101
 21
292.3609928002
 31
0.0
  0
LINE
  5
83
330
1F
100
AcDbEntity
  8
BEZUGSACHSEN
  6
Continuous
 62
     7
100
AcDbLine
 10
63.6456771949
 20
315.9486790685
 30
0.0
 11
65.6456771949
 21
317.9486790685
 31
0.0
  0
LINE
  5
84
330
1F
100
AcDbEntity
  8
0
  6
Continuous
 62
     7
100
AcDbLine
 10
132.7706771949
 20
294.4362984848
 30
0.0
 11
134.5206771949
 21
294.4362984848
 31
0.0
  0
LINE
  5
85
330
1F
100
AcDbEntity
  8
BEZUGSACHSEN
  6
Continuous
 62
     7
100
AcDbLine
 10
65.6456771949
 20
337.9686790685
 30
0.0
 11
63.6456771949
 21
339.9686790685
 31
0.0
  0
LWPOLYLINE
  5
86
330
1F
100
AcDbEntity
  8
BEZUGSACHSEN
  6
DOT_CENTER
 62
     7
100
AcDbPolyline
 90
        2
 70
     0
 43
0.25
 10
98.6456771949
 20
327.9586790685
 10
98.6456771949
 20
318.9586790685
  0
LWPOLYLINE
  5
87
330
1F
100
AcDbEntity
  8
BEZUGSACHSEN
  6
DOT_CENTER
 62
     7
100
AcDbPolyline
 90
        2
 70
     0
 43
0.25
 10
98.6456771949
 20
327.9586790685
 10
98.6456771949
 20
336.9586790685
  0
LINE
  5
88
330
1F
100
AcDbEntity
  8
BEZUGSACHSEN
  6
Continuous
 62
     7
100
AcDbLine
 10
111.7649208089
 20
290.2423548948
 30
0.0
 11
111.1456771949
 21
290.0764290685
 31
0.0
  0
LINE
  5
89
330
1F
100
AcDbEntity
  8
FASEN
  6
Continuous
 62
     7
100
AcDbLine
 10
126.6175511167
 20
296.0586790685
 30
0.0
 11
142.6456771949
 21
296.0586790685
 31
0.0
  0
LINE
  5
8A
330
1F
100
AcDbEntity
  8
0
  6
Continuous
 62
     7
100
AcDbLine
 10
126.6175511167
 20
296.4586790685
 30
0.0
 11
142.6456771949
 21
296.4586790685
 31
0.0
  0
LINE
  5
8B
330
1F
100
AcDbEntity
  8
BEZUGSACHSEN
  6
Continuous
 62
     7
100
AcDbLine
 10
111.1456771949
 20
365.8409290685
 30
0.0
 11
111.1456771949
 21
290.0764290685
 31
0.0
  0
LINE
  5
8C
330
1F
100
AcDbEntity
  8
BEZUGSACHSEN
  6
Continuous
 62
     9
100
AcDbLine
 10
111.7649208089
 20
290.2423548948
 30
0.0
 11
111.7649208089
 21
365.6750032422
 31
0.0
  0
LINE
  5
8D
330
1F
100
AcDbEntity
  8
BEZUGSACHSEN
  6
Continuous
 62
     9
100
AcDbLine
 10
112.023739854
 20
290.2764290685
 30
0.0
 11
112.023739854
 21
365.6409290685
 31
0.0
  0
LINE
  5
8E
330
1F
100
AcDbEntity
  8
BEZUGSACHSEN
  6
Continuous
 62
     9
100
AcDbLine
 10
112.9451059062
 20
290.2764290685
 30
0.0
 11
112.9451059062
 21
365.6409290685
 31
0.0
  0
LINE
  5
8F
330
1F
100
AcDbEntity
  8
BEZUGSACHSEN
  6
Continuous
 62
     7
100
AcDbLine
 10
135.5206771949
 20
375.5812743327
 30
0.0
 11
136.8932724591
 21
377.9586790685
 31
0.0
  0
LINE
  5
90
330
1F
100
AcDbEntity
  8
BEZUGSACHSEN
  6
Continuous
 62
     9
100
AcDbLine
 10
63.6456771949
 20
314.5124950995
 30
0.0
 11
65.6456771949
 21
315.5550391201
 31
0.0
  0
LINE
  5
91
330
1F
100
AcDbEntity
  8
BEZUGSACHSEN
  6
Continuous
 62
     9
100
AcDbLine
 10
65.6456771949
 20
340.3623190169
 30
0.0
 11
63.6456771949
 21
341.4048630375
 31
0.0
  0
LINE
  5
92
330
1F
100
AcDbEntity
  8
BEZUGSACHSEN
  6
Continuous
 62
     7
100
AcDbLine
 10
135.5206771949
 20
280.3360838043
 30
0.0
 11
136.8932724591
 21
277.9586790685
 31
0.0
  0
LINE
  5
93
330
1F
100
AcDbEntity
  8
BEZUGSACHSEN
  6
Continuous
 62
     7
100
AcDbLine
 10
113.6456771949
 20
377.9586790685
 30
0.0
 11
113.6456771949
 21
277.9586790685
 31
0.0
  0
LINE
  5
94
330
1F
100
AcDbEntity
  8
BEZUGSACHSEN
  6
Continuous
 62
     9
100
AcDbLine
 10
73.1995231418
 20
312.9486790685
 30
0.0
 11
64.9126301219
 21
312.9486790685
 31
0.0
  0
LINE
  5
95
330
1F
100
AcDbEntity
  8
0
  6
Continuous
 62
     7
100
AcDbLine
 10
162.6456771949
 20
313.9586790685
 30
0.0
 11
172.2456771949
 21
313.9586790685
 31
0.0
  0
LINE
  5
96
330
1F
100
AcDbEntity
  8
0
  6
Continuous
 62
     7
100
AcDbLine
 10
179.0456771949
 20
313.9586790685
 30
0.0
 11
184.8459548502
 21
313.9586790685
 31
0.0
  0
LWPOLYLINE
  5
97
330
1F
100
AcDbEntity
  8
BEZUGSACHSEN
  6
DOT_CENTER
 62
     7
100
AcDbPolyline
 90
        2
 70
     0
 43
0.25
 10
120.6456771949
 20
370.1080509239
 10
120.6456771949
 20
380.9586790685
  0
LINE
  5
98
330
1F
100
AcDbEntity
  8
BEZUGSACHSEN
  6
Continuous
 62
     7
100
AcDbLine
 10
71.6456771949
 20
317.9486790685
 30
0.0
 11
65.6456771949
 21
317.9486790685
 31
0.0
  0
LINE
  5
99
330
1F
100
AcDbEntity
  8
0
  6
Continuous
 62
     7
100
AcDbLine
 10
128.6456771949
 20
317.9586790685
 30
0.0
 11
142.6456771949
 21
317.9586790685
 31
0.0
  0
LINE
  5
9A
330
1F
100
AcDbEntity
  8
FASEN
  6
Continuous
 62
     7
100
AcDbLine
 10
142.6456771949
 20
318.3586790685
 30
0.0
 11
128.6456771949
 21
318.3586790685
 31
0.0
  0
LINE
  5
9B
330
1F
100
AcDbEntity
  8
FASEN
  6
Continuous
 62
     9
100
AcDbLine
 10
126.6175511167
 20
296.0586790685
 30
0.0
 11
126.6175511167
 21
296.4586790685
 31
0.0
  0
LINE
  5
9C
330
1F
100
AcDbEntity
  8
FASEN
  6
Continuous
 62
     9
100
AcDbLine
 10
128.6456771949
 20
318.3586790685
 30
0.0
 11
128.6456771949
 21
317.9586790685
 31
0.0
  0
LINE
  5
9D
330
1F
100
AcDbEntity
  8
FASEN
  6
Continuous
 62
     9
100
AcDbLine
 10
128.6456771949
 20
337.5586790685
 30
0.0
 11
128.6456771949
 21
337.9586790685
 31
0.0
  0
LWPOLYLINE
  5
9E
330
1F
100
AcDbEntity
  8
GEWINDE
  6
DASHED
 62
     8
100
AcDbPolyline
 90
        2
 70
     0
 43
0.35
 10
172.2456771949
 20
323.9586790685
 10
160.6456771949
 20
323.9586790685
  0
LWPOLYLINE
  5
9F
330
1F
100
AcDbEntity
  8
DEFAULT_2
  6
DASHED
 62
     8
100
AcDbPolyline
 90
        2
 70
     0
 43
0.35
 10
172.2456771949
 20
323.9586790685
 10
193.6456771949
 20
323.9586790685
  0
LWPOLYLINE
  5
A0
330
1F
100
AcDbEntity
  8
BEZUGSACHSEN
  6
DOT_CENTER
 62
     7
100
AcDbPolyline
 90
        2
 70
     0
 43
0.25
 10
196.6456771949
 20
327.9586790685
 10
60.6456771949
 20
327.9586790685
  0
LINE
  5
A1
330
1F
100
AcDbEntity
  8
0
  6
Continuous
 62
     7
100
AcDbLine
 10
130.3980819307
 20
377.9586790685
 30
0.0
 11
130.3980819307
 21
337.9586790685
 31
0.0
  0
LINE
  5
A2
330
1F
100
AcDbEntity
  8
0
  6
Continuous
 62
     7
100
AcDbLine
 10
130.3980819307
 20
317.9586790685
 30
0.0
 11
130.3980819307
 21
296.4586790685
 31
0.0
  0
LINE
  5
A3
330
1F
100
AcDbEntity
  8
0
  6
Continuous
 62
     7
100
AcDbLine
 10
130.3980819307
 20
289.1289224378
 30
0.0
 11
130.3980819307
 21
277.9586790685
 31
0.0
  0
LINE
  5
A4
330
1F
100
AcDbEntity
  8
0
  6
Continuous
 62
     7
100
AcDbLine
 10
131.7706771949
 20
375.5812409062
 30
0.0
 11
131.7706771949
 21
337.9586790685
 31
0.0
  0
LINE
  5
A5
330
1F
100
AcDbEntity
  8
0
  6
Continuous
 62
     7
100
AcDbLine
 10
131.7706771949
 20
317.9586790685
 30
0.0
 11
131.7706771949
 21
296.4586790685
 31
0.0
  0
LINE
  5
A6
330
1F
100
AcDbEntity
  8
0
  6
Continuous
 62
     7
100
AcDbLine
 10
131.7706771949
 20
280.3361213383
 30
0.0
 11
131.7706771949
 21
293.0767353153
 31
0.0
  0
LINE
  5
A7
330
1F
100
AcDbEntity
  8
0
  6
Continuous
 62
     9
100
AcDbLine
 10
132.7706771949
 20
281.9586790685
 30
0.0
 11
132.7706771949
 21
294.4362984848
 31
0.0
  0
LINE
  5
A8
330
1F
100
AcDbEntity
  8
0
  6
Continuous
 62
     9
100
AcDbLine
 10
132.7706771949
 20
296.4586790685
 30
0.0
 11
132.7706771949
 21
317.9586790685
 31
0.0
  0
LINE
  5
A9
330
1F
100
AcDbEntity
  8
0
  6
Continuous
 62
     9
100
AcDbLine
 10
132.7706771949
 20
337.9586790685
 30
0.0
 11
132.7706771949
 21
373.9586790685
 31
0.0
  0
LINE
  5
AA
330
1F
100
AcDbEntity
  8
0
  6
Continuous
 62
     9
100
AcDbLine
 10
134.5206771949
 20
281.9586790685
 30
0.0
 11
134.5206771949
 21
294.4362984848
 31
0.0
  0
LINE
  5
AB
330
1F
100
AcDbEntity
  8
0
  6
Continuous
 62
     9
100
AcDbLine
 10
134.5206771949
 20
296.4586790685
 30
0.0
 11
134.5206771949
 21
317.9586790685
 31
0.0
  0
LINE
  5
AC
330
1F
100
AcDbEntity
  8
0
  6
Continuous
 62
     9
100
AcDbLine
 10
134.5206771949
 20
337.9586790685
 30
0.0
 11
134.5206771949
 21
373.9586790685
 31
0.0
  0
LWPOLYLINE
  5
AD
330
1F
100
AcDbEntity
  8
DEFAULT_2
  6
DASHED
 62
     8
100
AcDbPolyline
 90
        2
 70
     0
 43
0.35
 10
193.6456771949
 20
331.9586790685
 10
160.6456771949
 20
331.9586790685
  0
LINE
  5
AE
330
1F
100
AcDbEntity
  8
0
  6
Continuous
 62
     7
100
AcDbLine
 10
135.5206771949
 20
280.3361213383
 30
0.0
 11
135.5206771949
 21
293.0767353153
 31
0.0
  0
LINE
  5
AF
330
1F
100
AcDbEntity
  8
0
  6
Continuous
 62
     7
100
AcDbLine
 10
135.5206771949
 20
296.4586790685
 30
0.0
 11
135.5206771949
 21
317.9586790685
 31
0.0
  0
LINE
  5
B0
330
1F
100
AcDbEntity
  8
0
  6
Continuous
 62
     7
100
AcDbLine
 10
135.5206771949
 20
337.9586790685
 30
0.0
 11
135.5206771949
 21
375.5812409062
 31
0.0
  0
LINE
  5
B1
330
1F
100
AcDbEntity
  8
0
  6
Continuous
 62
     7
100
AcDbLine
 10
136.8932724591
 20
377.9586790685
 30
0.0
 11
136.8932724591
 21
337.9586790685
 31
0.0
  0
LINE
  5
B2
330
1F
100
AcDbEntity
  8
0
  6
Continuous
 62
     7
100
AcDbLine
 10
136.8932724591
 20
317.9586790685
 30
0.0
 11
136.8932724591
 21
296.4586790685
 31
0.0
  0
LINE
  5
B3
330
1F
100
AcDbEntity
  8
0
  6
Continuous
 62
     7
100
AcDbLine
 10
136.8932724591
 20
289.1289224378
 30
0.0
 11
136.8932724591
 21
277.9586790685
 31
0.0
  0
LINE
  5
B4
330
1F
100
AcDbEntity
  8
FASEN
  6
Continuous
 62
     7
100
AcDbLine
 10
128.6456771949
 20
337.5586790685
 30
0.0
 11
142.6456771949
 21
337.5586790685
 31
0.0
  0
LINE
  5
B5
330
1F
100
AcDbEntity
  8
0
  6
Continuous
 62
     7
100
AcDbLine
 10
128.6456771949
 20
337.9586790685
 30
0.0
 11
142.6456771949
 21
337.9586790685
 31
0.0
  0
LINE
  5
B6
330
1F
100
AcDbEntity
  8
BEZUGSACHSEN
  6
Continuous
 62
     7
100
AcDbLine
 10
71.6456771949
 20
337.9686790685
 30
0.0
 11
65.6456771949
 21
337.9686790685
 31
0.0
  0
LINE
  5
B7
330
1F
100
AcDbEntity
  8
0
  6
Continuous
 62
     7
100
AcDbLine
 10
142.6456771949
 20
377.9586421474
 30
0.0
 11
142.6456771949
 21
337.9586790685
 31
0.0
  0
LINE
  5
B8
330
1F
100
AcDbEntity
  8
0
  6
Continuous
 62
     7
100
AcDbLine
 10
142.6456771949
 20
317.9586790685
 30
0.0
 11
142.6456771949
 21
296.4586790685
 31
0.0
  0
LINE
  5
B9
330
1F
100
AcDbEntity
  8
0
  6
Continuous
 62
     7
100
AcDbLine
 10
142.6456771949
 20
289.1289224378
 30
0.0
 11
142.6456771949
 21
277.9586809363
 31
0.0
  0
LINE
  5
BA
330
1F
100
AcDbEntity
  8
FASEN
  6
Continuous
 62
     7
100
AcDbLine
 10
142.6456771949
 20
289.1289224378
 30
0.0
 11
142.6456771949
 21
296.4586790685
 31
0.0
  0
LINE
  5
BB
330
1F
100
AcDbEntity
  8
FASEN
  6
Continuous
 62
     7
100
AcDbLine
 10
142.6456771949
 20
317.9586790685
 30
0.0
 11
142.6456771949
 21
337.9586790685
 31
0.0
  0
LINE
  5
BC
330
1F
100
AcDbEntity
  8
RUNDUNGEN
  6
Continuous
 62
     7
100
AcDbLine
 10
184.8459548502
 20
341.9586790685
 30
0.0
 11
162.6456771949
 21
341.9586790685
 31
0.0
  0
LINE
  5
BD
330
1F
100
AcDbEntity
  8
0
  6
Continuous
 62
     7
100
AcDbLine
 10
162.6456771949
 20
341.9586790685
 30
0.0
 11
184.8459548502
 21
341.9586790685
 31
0.0
  0
LINE
  5
BE
330
1F
100
AcDbEntity
  8
BEZUGSACHSEN
  6
Continuous
 62
     9
100
AcDbLine
 10
64.9126301219
 20
342.9686790685
 30
0.0
 11
73.1995231418
 21
342.9686790685
 31
0.0
  0
LINE
  5
BF
330
1F
100
AcDbEntity
  8
BEZUGSACHSEN
  6
Continuous
 62
     7
100
AcDbLine
 10
130.3980819307
 20
277.9586790685
 30
0.0
 11
131.7706771949
 21
280.3360838043
 31
0.0
  0
LINE
  5
C0
330
1F
100
AcDbEntity
  8
BEZUGSACHSEN
  6
Continuous
 62
     7
100
AcDbLine
 10
130.3980819307
 20
377.9586790685
 30
0.0
 11
131.7706771949
 21
375.5812743327
 31
0.0
  0
LWPOLYLINE
  5
C1
330
1F
100
AcDbEntity
  8
DEFAULT_2
  6
DASHED
 62
     8
100
AcDbPolyline
 90
        2
 70
     0
 43
0.35
 10
160.6456771949
 20
331.9586790685
 10
160.6456771949
 20
323.9586790685
  0
LINE
  5
C2
330
1F
100
AcDbEntity
  8
BEZUGSACHSEN
  6
Continuous
 62
     7
100
AcDbLine
 10
111.7649208089
 20
365.6750032422
 30
0.0
 11
111.1456771949
 21
365.8409290685
 31
0.0
  0
LINE
  5
C3
330
1F
100
AcDbEntity
  8
RUNDUNGEN
  6
Continuous
 62
     9
100
AcDbLine
 10
162.6456771949
 20
341.9586790685
 30
0.0
 11
162.6456771949
 21
313.9586790685
 31
0.0
  0
LINE
  5
C4
330
1F
100
AcDbEntity
  8
0
  6
Continuous
 62
     7
100
AcDbLine
 10
185.2685731119
 20
314.0523712815
 30
0.0
 11
193.0682954566
 21
317.6894415423
 31
0.0
  0
LINE
  5
C5
330
1F
100
AcDbEntity
  8
BEZUGSACHSEN
  6
Continuous
 62
     7
100
AcDbLine
 10
111.1456771949
 20
365.8409290685
 30
0.0
 11
65.5456027101
 21
363.5563653368
 31
0.0
  0
LINE
  5
C6
330
1F
100
AcDbEntity
  8
BEZUGSACHSEN
  6
Continuous
 62
     7
100
AcDbLine
 10
112.9451059062
 20
365.6409290685
 30
0.0
 11
112.023739854
 21
365.6409290685
 31
0.0
  0
LINE
  5
C7
330
1F
100
AcDbEntity
  8
RUNDUNGEN
  6
Continuous
 62
     7
100
AcDbLine
 10
193.0682954566
 20
338.2279165948
 30
0.0
 11
185.2685731119
 21
341.8649868556
 31
0.0
  0
LINE
  5
C8
330
1F
100
AcDbEntity
  8
0
  6
Continuous
 62
     7
100
AcDbLine
 10
185.2685731119
 20
341.8649868556
 30
0.0
 11
193.0682954566
 21
338.2279165948
 31
0.0
  0
LWPOLYLINE
  5
C9
330
1F
100
AcDbEntity
  8
GEWINDE
  6
DASHED
 62
     8
100
AcDbPolyline
 90
        2
 70
     0
 43
0.35
 10
172.2456771949
 20
323.9586790685
 10
172.2456771949
 20
313.9586790685
  0
LWPOLYLINE
  5
CA
330
1F
100
AcDbEntity
  8
GEWINDE
  6
DOT_CENTER
 62
     7
100
AcDbPolyline
 90
        2
 70
     0
 43
0.25
 10
175.6456771949
 20
310.9586790685
 10
175.6456771949
 20
328.8534250009
  0
LINE
  5
CB
330
1F
100
AcDbEntity
  8
BEZUGSACHSEN
  6
Continuous
 62
     7
100
AcDbLine
 10
132.7706771949
 20
373.9586790685
 30
0.0
 11
134.5206771949
 21
373.9586790685
 31
0.0
  0
LWPOLYLINE
  5
CC
330
1F
100
AcDbEntity
  8
GEWINDE
  6
DASHED
 62
     8
100
AcDbPolyline
 90
        2
 70
     0
 43
0.35
 10
179.0456771949
 20
323.9586790685
 10
179.0456771949
 20
313.9586790685
  0
LINE
  5
CD
330
1F
100
AcDbEntity
  8
BEZUGSACHSEN
  6
Continuous
 62
     7
100
AcDbLine
 10
130.3980819307
 20
377.9586790685
 30
0.0
 11
125.6456771949
 21
377.9586790685
 31
0.0
  0
LINE
  5
CE
330
1F
100
AcDbEntity
  8
BEZUGSACHSEN
  6
Continuous
 62
     7
100
AcDbLine
 10
115.6456771949
 20
377.9586790685
 30
0.0
 11
113.6456771949
 21
377.9586790685
 31
0.0
  0
LINE
  5
CF
330
1F
100
AcDbEntity
  8
BEZUGSACHSEN
  6
Continuous
 62
     7
100
AcDbLine
 10
136.8932724591
 20
377.9586790685
 30
0.0
 11
142.6456771949
 21
377.9586790685
 31
0.0
  0
LINE
  5
D0
330
1F
100
AcDbEntity
  8
RUNDUNGEN
  6
Continuous
 62
     9
100
AcDbLine
 10
184.8459548502
 20
313.9586790685
 30
0.0
 11
184.8459548502
 21
341.9586790685
 31
0.0
  0
LINE
  5
D1
330
1F
100
AcDbEntity
  8
RUNDUNGEN
  6
Continuous
 62
     9
100
AcDbLine
 10
185.2685731119
 20
314.0523712815
 30
0.0
 11
185.2685731119
 21
341.8649868556
 31
0.0
  0
LINE
  5
D2
330
1F
100
AcDbEntity
  8
RUNDUNGEN
  6
Continuous
 62
     9
100
AcDbLine
 10
193.0682954566
 20
317.6894415423
 30
0.0
 11
193.0682954566
 21
338.2279165948
 31
0.0
  0
LINE
  5
D3
330
1F
100
AcDbEntity
  8
RUNDUNGEN
  6
Continuous
 62
     7
100
AcDbLine
 10
193.6456771949
 20
318.5957493293
 30
0.0
 11
193.6456771949
 21
337.3216088077
 31
0.0
  0
LWPOLYLINE
  5
D4
330
1F
100
AcDbEntity
  8
GEWINDE
  6
DASHED
 62
     8
100
AcDbPolyline
 90
        2
 70
     0
 43
0.35
 10
179.6456771949
 20
323.9586790685
 10
179.6456771949
 20
313.9586790685
  0
LWPOLYLINE
  5
D5
330
1F
100
AcDbEntity
  8
GEWINDE
  6
DASHED
 62
     8
100
AcDbPolyline
 90
        2
 70
     0
 43
0.35
 10
171.6456771949
 20
323.9586790685
 10
171.6456771949
 20
313.9586790685
  0
ARC
  5
D6
330
1F
100
AcDbEntity
  8
FASEN
  6
Continuous
 62
     7
100
AcDbCircle
 10
131.5463312179
 20
303.4899423387
 30
0.0
 40
19.03859487330026
100
AcDbArc
 50
227.4837701982997
 51
228.9651953374702
  0
ARC
  5
D7
330
1F
100
AcDbEntity
  8
FASEN
  6
Continuous
 62
     7
100
AcDbCircle
 10
126.6175511167
 20
288.4586790685
 30
0.0
 40
8.0
100
AcDbArc
 50
90.0
 51
172.8323734889967
  0
ARC
  5
D8
330
1F
100
AcDbEntity
  8
FASEN
  6
Continuous
 62
     7
100
AcDbCircle
 10
126.6175511167
 20
288.4586790685
 30
0.0
 40
7.599982194900008
100
AcDbArc
 50
90.0
 51
174.9405171273009
  0
ARC
  5
D9
330
1F
100
AcDbEntity
  8
BEZUGSACHSEN
  6
Continuous
 62
     7
100
AcDbCircle
 10
71.6456771949
 20
319.9486790685
 30
0.0
 40
2.0
100
AcDbArc
 50
270.0
 51
355.2355361864949
  0
ARC
  5
DA
330
1F
100
AcDbEntity
  8
BEZUGSACHSEN
  6
Continuous
 62
     7
100
AcDbCircle
 10
65.6456771949
 20
294.3584875055
 30
0.0
 40
2.0
100
AcDbArc
 50
179.9999999971356
 51
267.1318795108406
  0
ARC
  5
DB
330
1F
100
AcDbEntity
  8
BEZUGSACHSEN
  6
Continuous
 62
     7
100
AcDbCircle
 10
132.7706771949
 20
280.9586790685
 30
0.0
 40
1.0
100
AcDbArc
 50
90.0
 51
180.0
  0
ARC
  5
DC
330
1F
100
AcDbEntity
  8
BEZUGSACHSEN
  6
Continuous
 62
     7
100
AcDbCircle
 10
112.023739854
 20
289.2764290685
 30
0.0
 40
1.0
100
AcDbArc
 50
90.0
 51
104.999999999699
  0
ARC
  5
DD
330
1F
100
AcDbEntity
  8
BEZUGSACHSEN
  6
Continuous
 62
     7
100
AcDbCircle
 10
112.9451059062
 20
289.2764290685
 30
0.0
 40
0.9999999999996884
100
AcDbArc
 50
45.52164291272234
 51
90.0
  0
ARC
  5
DE
330
1F
100
AcDbEntity
  8
0
  6
Continuous
 62
     7
100
AcDbCircle
 10
-110.9521026892
 20
397.3931466596
 30
0.0
 40
264.5204223919355
100
AcDbArc
 50
335.8400764706025
 51
336.5770705491001
  0
ARC
  5
DF
330
1F
100
AcDbEntity
  8
BEZUGSACHSEN
  6
Continuous
 62
     7
100
AcDbCircle
 10
120.660885206
 20
428.0114488353
 30
0.0
 40
50.30340021035248
100
AcDbArc
 50
264.2781515101899
 51
269.9826780126002
  0
ARC
  5
E0
330
1F
100
AcDbEntity
  8
BEZUGSACHSEN
  6
Continuous
 62
     7
100
AcDbCircle
 10
120.6304691938
 20
428.0114486346
 30
0.0
 40
50.30340000969741
100
AcDbArc
 50
270.0173219760583
 51
275.7218485012678
  0
ARC
  5
E1
330
1F
100
AcDbEntity
  8
0
  6
Continuous
 62
     7
100
AcDbCircle
 10
128.6456771949
 20
327.9586790685
 30
0.0
 40
10.0
100
AcDbArc
 50
90.0
 51
270.0
  0
ARC
  5
E2
330
1F
100
AcDbEntity
  8
FASEN
  6
Continuous
 62
     7
100
AcDbCircle
 10
128.6456771949
 20
327.9586790685
 30
0.0
 40
9.599999195900011
100
AcDbArc
 50
90.0
 51
270.0
  0
ARC
  5
E3
330
1F
100
AcDbEntity
  8
BEZUGSACHSEN
  6
Continuous
 62
     7
100
AcDbCircle
 10
71.6456771949
 20
335.9686790685
 30
0.0
 40
1.999999999999987
100
AcDbArc
 50
4.76446378498715
 51
90.0
  0
ARC
  5
E4
330
1F
100
AcDbEntity
  8
BEZUGSACHSEN
  6
Continuous
 62
     7
100
AcDbCircle
 10
65.6456771949
 20
361.5588706316
 30
0.0
 40
1.999999999952545
100
AcDbArc
 50
92.86812048930275
 51
180.0000000143238
  0
ARC
  5
E5
330
1F
100
AcDbEntity
  8
BEZUGSACHSEN
  6
Continuous
 62
     7
100
AcDbCircle
 10
132.7706771949
 20
374.9586790685
 30
0.0
 40
1.0
100
AcDbArc
 50
180.0
 51
270.0
  0
ARC
  5
E6
330
1F
100
AcDbEntity
  8
BEZUGSACHSEN
  6
Continuous
 62
     7
100
AcDbCircle
 10
112.023739854
 20
366.6409290685
 30
0.0
 40
1.000000000009914
100
AcDbArc
 50
255.0000000003019
 51
270.0
  0
ARC
  5
E7
330
1F
100
AcDbEntity
  8
BEZUGSACHSEN
  6
Continuous
 62
     7
100
AcDbCircle
 10
112.9451059062
 20
366.6409290685
 30
0.0
 40
1.0
100
AcDbArc
 50
270.0
 51
314.4783570872776
  0
ARC
  5
E8
330
1F
100
AcDbEntity
  8
BEZUGSACHSEN
  6
Continuous
 62
     7
100
AcDbCircle
 10
249.9757237973
 20
-1278.0840802592
 30
0.0
 40
1632.1727637359
100
AcDbArc
 50
96.2726189838
 51
96.48809068979999
  0
ARC
  5
E9
330
1F
100
AcDbEntity
  8
RUNDUNGEN
  6
Continuous
 62
     7
100
AcDbCircle
 10
162.6456771949
 20
293.9586790685
 30
0.0
 40
20.0
100
AcDbArc
 50
90.0
 51
180.0
  0
ARC
  5
EA
330
1F
100
AcDbEntity
  8
RUNDUNGEN
  6
Continuous
 62
     7
100
AcDbCircle
 10
192.6456771949
 20
318.5957493293
 30
0.0
 40
0.999999999949584
100
AcDbArc
 50
294.9999999987737
 51
0.0
  0
ARC
  5
EB
330
1F
100
AcDbEntity
  8
BEZUGSACHSEN
  6
Continuous
 62
     7
100
AcDbCircle
 10
134.5206771949
 20
280.9586790685
 30
0.0
 40
1.0
100
AcDbArc
 50
0.0
 51
90.0
  0
ARC
  5
EC
330
1F
100
AcDbEntity
  8
RUNDUNGEN
  6
Continuous
 62
     7
100
AcDbCircle
 10
184.8459548502
 20
314.9586790685
 30
0.0
 40
1.0
100
AcDbArc
 50
270.0
 51
294.9999999987737
  0
ARC
  5
ED
330
1F
100
AcDbEntity
  8
BEZUGSACHSEN
  6
Continuous
 62
     7
100
AcDbCircle
 10
249.9757237973
 20
1934.001438396
 30
0.0
 40
1632.1727637357
100
AcDbArc
 50
263.5119093102
 51
263.7273810162
  0
ARC
  5
EE
330
1F
100
AcDbEntity
  8
0
  6
Continuous
 62
     7
100
AcDbCircle
 10
378.2434570786
 20
397.3931466594
 30
0.0
 40
264.5204223915997
100
AcDbArc
 50
203.4229294509001
 51
204.1599235293934
  0
ARC
  5
EF
330
1F
100
AcDbEntity
  8
RUNDUNGEN
  6
Continuous
 62
     7
100
AcDbCircle
 10
162.6456771949
 20
361.9586790685
 30
0.0
 40
20.0
100
AcDbArc
 50
180.0
 51
270.0
  0
ARC
  5
F0
330
1F
100
AcDbEntity
  8
RUNDUNGEN
  6
Continuous
 62
     7
100
AcDbCircle
 10
192.6456771949
 20
337.3216088077
 30
0.0
 40
1.0
100
AcDbArc
 50
0.0
 51
65.00000000364744
  0
ARC
  5
F1
330
1F
100
AcDbEntity
  8
BEZUGSACHSEN
  6
Continuous
 62
     7
100
AcDbCircle
 10
134.5206771949
 20
374.9586790685
 30
0.0
 40
1.0
100
AcDbArc
 50
270.0
 51
0.0
  0
ARC
  5
F2
330
1F
100
AcDbEntity
  8
RUNDUNGEN
  6
Continuous
 62
     7
100
AcDbCircle
 10
184.8459548502
 20
340.9586790685
 30
0.0
 40
1.000000000040255
100
AcDbArc
 50
65.00000000364881
 51
90.0
  0
CIRCLE
  5
F3
330
1F
100
AcDbEntity
  8
BEZUGSACHSEN
  6
Continuous
 62
     7
100
AcDbCircle
 10
98.6456771949
 20
327.9586790685
 30
0.0
 40
6.0
  0
SPLINE
  5
F4
330
1F
100
AcDbEntity
  8
0
  6
Continuous
 62
     2
100
AcDbSpline
210
0.0
220
0.0
230
1.0
 70
     8
 71
     3
 72
    55
 73
    51
 74
    49
 42
0.0000000001
 43
0.0000000001
 44
0.00000001
 40
0.0
 40
0.0
 40
0.0
 40
0.0
 40
0.0086183598625427
 40
0.0343683582018007
 40
0.0770624730933951
 40
0.1363934840311916
 40
0.2120165210751114
 40
0.3035543304318385
 40
0.4106005311306676
 40
0.5326597417334702
 40
0.6693139582405911
 40
0.8205350243579054
 40
0.9862142988556806
 40
1.165516140814594
 40
1.357386644546992
 40
1.560602177216132
 40
1.774049165094653
 40
1.997197121864985
 40
2.229782576830067
 40
2.471999485458455
 40
2.723745449520196
 40
2.983233065826485
 40
3.248243341143111
 40
3.516469421166522
 40
3.785900081995107
 40
4.055779434363574
 40
4.325663101682906
 40
4.59509924370932
 40
4.863320703861459
 40
5.128304630479782
 40
5.387736861186829
 40
5.639408916948663
 40
5.881548382219979
 40
6.114068032753359
 40
6.337172703763711
 40
6.550592301687327
 40
6.753786228008268
 40
6.945634259589717
 40
7.124909077320153
 40
7.290561505898047
 40
7.441762347578939
 40
7.578407835424104
 40
7.700472197060034
 40
7.807531394730436
 40
7.899083143811255
 40
7.974719097186639
 40
8.034061209179953
 40
8.076763584019822
 40
8.102518212190155
 40
8.111137962938814
 40
8.111137962938814
 40
8.111137962938814
 40
8.111137962938814
 10
179.6456771949
 20
313.9586677632
 30
0.0
 10
179.6429154815462
 20
313.9594588662497
 30
0.0
 10
179.6319023009285
 20
313.962613632751
 30
0.0
 10
179.6071932959995
 20
313.9696359820105
 30
0.0
 10
179.5662046786896
 20
313.9812113893391
 30
0.0
 10
179.5091636793083
 20
313.9971136268052
 30
0.0
 10
179.4363641027241
 20
314.0171160741887
 30
0.0
 10
179.348104290905
 20
314.0408791022742
 30
0.0
 10
179.2447358916556
 20
314.0680580633085
 30
0.0
 10
179.1266075358926
 20
314.0982312784004
 30
0.0
 10
178.9939494300252
 20
314.131004519968
 30
0.0
 10
178.8468505504828
 20
314.1659255297044
 30
0.0
 10
178.6855464661855
 20
314.2025233262579
 30
0.0
 10
178.5105986094351
 20
314.2401796458562
 30
0.0
 10
178.322941631065
 20
314.2781894140628
 30
0.0
 10
178.1236188541135
 20
314.315856271404
 30
0.0
 10
177.9135127485357
 20
314.3525005252163
 30
0.0
 10
177.6932123487815
 20
314.3875356568468
 30
0.0
 10
177.4628911060669
 20
314.4204446623679
 30
0.0
 10
177.2225871512085
 20
314.4506506327594
 30
0.0
 10
176.9728692001995
 20
314.4775602633104
 30
0.0
 10
176.7151303889144
 20
314.5005653858459
 30
0.0
 10
176.451512387741
 20
314.5189466763684
 30
0.0
 10
176.1842759457228
 20
314.53236425256
 30
0.0
 10
175.9152010180011
 20
314.5404670450446
 30
0.0
 10
175.6454652610917
 20
314.5431761941895
 30
0.0
 10
175.3757277657417
 20
314.5404583945926
 30
0.0
 10
175.1066513641019
 20
314.5323471783425
 30
0.0
 10
174.8394238436304
 20
314.5189213501731
 30
0.0
 10
174.5758351145183
 20
314.500534194112
 30
0.0
 10
174.3181485923842
 20
314.4775268952685
 30
0.0
 10
174.0684997917087
 20
314.4506188777341
 30
0.0
 10
173.8282681419372
 20
314.4204181794949
 30
0.0
 10
173.5980088440141
 20
314.3875152728937
 30
0.0
 10
173.3777536576825
 20
314.3524855401118
 30
0.0
 10
173.1676780035845
 20
314.3158457402235
 30
0.0
 10
172.9683787613396
 20
314.2781826459631
 30
0.0
 10
172.7807450724299
 20
314.24017729755
 30
0.0
 10
172.6058220803125
 20
314.2025264003449
 30
0.0
 10
172.4445420310258
 20
314.1659342997036
 30
0.0
 10
172.2974611300924
 20
314.1310180883528
 30
0.0
 10
172.1648105926262
 20
314.0982472923501
 30
0.0
 10
172.0466790830952
 20
314.0680737373248
 30
0.0
 10
171.9433002299083
 20
314.0408924726676
 30
0.0
 10
171.8550275254744
 20
314.0171262313075
 30
0.0
 10
171.7822157147807
 20
313.9971205547868
 30
0.0
 10
171.7251643267865
 20
313.9812155164434
 30
0.0
 10
171.6841680051144
 20
313.969637965409
 30
0.0
 10
171.6594544361021
 20
313.9626142622957
 30
0.0
 10
171.6484393483867
 20
313.9594588655729
 30
0.0
 10
171.6456771949
 20
313.9586676154
 30
0.0
 11
179.6456771949
 21
313.9586677632
 31
0.0
 11
179.6373916427622
 21
313.9610396300791
 31
0.0
 11
179.6126247261372
 21
313.9680867752714
 31
0.0
 11
179.5715361752057
 21
313.9796849832678
 31
0.0
 11
179.5143862015084
 21
313.9956239093701
 31
0.0
 11
179.4414640598777
 21
314.0156540115103
 31
0.0
 11
179.3530746977252
 21
314.0394550871185
 31
0.0
 11
179.2495463034618
 21
314.0666720058509
 31
0.0
 11
179.131284337703
 21
314.0968805865498
 31
0.0
 11
178.9986169011838
 21
314.1296483477885
 31
0.0
 11
178.8514853809676
 21
314.1645786583588
 31
0.0
 11
178.6899111874736
 21
314.2012311070472
 31
0.0
 11
178.5146225389098
 21
314.2389543123002
 31
0.0
 11
178.3265699991834
 21
314.2770401693202
 31
0.0
 11
178.1268867092913
 21
314.3147646501766
 31
0.0
 11
177.9166127316589
 21
314.3514316784862
 31
0.0
 11
177.6962332342798
 21
314.3864729077127
 31
0.0
 11
177.4659839158045
 21
314.4193552008655
 31
0.0
 11
177.2256574924278
 21
314.4495585293649
 31
0.0
 11
176.9753605507665
 21
314.4765302074069
 31
0.0
 11
176.7168981447327
 21
314.4995738113679
 31
0.0
 11
176.4525306139725
 21
314.5180198055982
 31
0.0
 11
176.1846409699471
 21
314.5314499444175
 31
0.0
 11
175.9153324738575
 21
314.539562584459
 31
0.0
 11
175.6454667142167
 21
314.5422712018805
 31
0.0
 11
175.3755967260946
 21
314.539553961236
 31
0.0
 11
175.1062830073362
 21
314.5314326609342
 31
0.0
 11
174.8383984073359
 21
314.5179941800378
 31
0.0
 11
174.5740577150505
 21
314.4995420861679
 31
0.0
 11
174.3156510906876
 21
314.4764965049216
 31
0.0
 11
174.0654282397222
 21
314.4495271054816
 31
0.0
 11
173.8251791438622
 21
314.4193295463031
 31
0.0
 11
173.5949953483037
 21
314.3864538995961
 31
0.0
 11
173.3746588685411
 21
314.3514177766299
 31
0.0
 11
173.1644120346254
 21
314.3147545306433
 31
0.0
 11
172.9647500924125
 21
314.2770334420389
 31
0.0
 11
172.7767196359402
 21
314.2389517579835
 31
0.0
 11
172.6014573986494
 21
314.2012342759348
 31
0.0
 11
172.4399093264657
 21
314.1645880282755
 31
0.0
 11
172.2927973687391
 21
314.129662873747
 31
0.0
 11
172.160138273947
 21
314.0968977410998
 31
0.0
 11
172.0418711985195
 21
314.0666883509801
 31
0.0
 11
171.9383301308748
 21
314.0394685215018
 31
0.0
 11
171.849927242789
 21
314.0156640652415
 31
0.0
 11
171.776992609425
 21
313.9956306756367
 31
0.0
 11
171.7198319201578
 21
313.9796888483156
 31
0.0
 11
171.6787354170378
 21
313.9680884065881
 31
0.0
 11
171.6539640684785
 21
313.9610399200312
 31
0.0
 11
171.6456771949
 21
313.9586676154
 31
0.0
  0
SPLINE
  5
F5
330
1F
100
AcDbEntity
  8
GEWINDE
  6
Continuous
 62
     7
100
AcDbSpline
210
0.0
220
0.0
230
1.0
 70
     8
 71
     3
 72
    23
 73
    19
 74
    17
 42
0.0000000001
 43
0.0000000001
 44
0.00000001
 40
0.0
 40
0.0
 40
0.0
 40
0.0
 40
0.133544417235533
 40
0.2670930635446854
 40
0.6423257682479231
 40
1.017579809594578
 40
1.572677003306028
 40
2.127807797907904
 40
2.780758368325763
 40
3.433723942753889
 40
4.086689692390284
 40
4.739640438067287
 40
5.294771311326331
 40
5.849868583707126
 40
6.225122730864761
 40
6.600355541272906
 40
6.733904270286023
 40
6.867448770269714
 40
6.867448770269714
 40
6.867448770269714
 40
6.867448770269714
 10
172.2456771949
 20
313.9586790685
 30
0.0
 10
172.2889597747642
 20
313.9690816031098
 30
0.0
 10
172.3755263051616
 20
313.989887001756
 30
0.0
 10
172.5842228411824
 20
314.0377344995943
 30
0.0
 10
172.872465383191
 20
314.0991343400188
 30
0.0
 10
173.3002614734669
 20
314.1792590768398
 30
0.0
 10
173.7896956176413
 20
314.2551777734545
 30
0.0
 10
174.37366774145
 20
314.3227725728878
 30
0.0
 10
174.9926564698664
 20
314.3672827491999
 30
0.0
 10
175.6456768106127
 20
314.3830739341226
 30
0.0
 10
176.2986972108257
 20
314.3672827845107
 30
0.0
 10
176.9176860840472
 20
314.3227726251937
 30
0.0
 10
177.5016583204669
 20
314.255177833958
 30
0.0
 10
177.9910925537566
 20
314.179259139332
 30
0.0
 10
178.4188887412805
 20
314.0991343960999
 30
0.0
 10
178.7071313801812
 20
314.0377345395834
 30
0.0
 10
178.9158280044586
 20
313.9898870221936
 30
0.0
 10
179.0023945883045
 20
313.9690816099235
 30
0.0
 10
179.0456771949
 20
313.9586790685
 30
0.0
 11
172.2456771949
 21
313.9586790685
 31
0.0
 11
172.3755784430343
 21
313.9896593381555
 31
0.0
 11
172.5057380062901
 21
314.0195546391922
 31
0.0
 11
172.8727611005372
 21
314.0976163517546
 31
0.0
 11
173.2416071392915
 21
314.1666684715069
 31
0.0
 11
173.7901635409139
 21
314.2516318089259
 31
0.0
 11
174.341626099406
 21
314.3153440188756
 31
0.0
 11
174.9929000509536
 21
314.3621060488205
 31
0.0
 11
175.6456767523782
 21
314.3778101713829
 31
0.0
 11
176.2984536298457
 21
314.3621060814044
 31
0.0
 11
176.9497277582672
 21
314.3153440676654
 31
0.0
 11
177.5011903971873
 21
314.2516318685149
 31
0.0
 11
178.049746879241
 21
314.1666685364153
 31
0.0
 11
178.4185930237766
 21
314.0976164066852
 31
0.0
 11
178.7856162225408
 21
314.0195546774213
 31
0.0
 11
178.9157758664783
 21
313.9896593582045
 31
0.0
 11
179.0456771949
 21
313.9586790685
 31
0.0
  0
SPLINE
  5
F6
330
1F
100
AcDbEntity
  8
BEZUGSACHSEN
  6
Continuous
 62
     7
100
AcDbSpline
210
0.0
220
0.0
230
1.0
 70
     8
 71
     3
 72
    15
 73
    11
 74
     9
 42
0.0000000001
 43
0.0000000001
 44
0.00000001
 40
0.0
 40
0.0
 40
0.0
 40
0.0
 40
0.1110944830745722
 40
0.2222295180905308
 40
0.3333620401537488
 40
0.444475260982525
 40
0.5555842177612986
 40
0.6667300353415686
 40
0.7779450181300602
 40
0.8889820870812587
 40
0.8889820870812587
 40
0.8889820870812587
 40
0.8889820870812587
 10
64.7915198705
 20
343.201015064
 30
0.0
 10
64.81690523004501
 20
343.2279914296779
 30
0.0
 10
64.86768521535227
 20
343.2819540080033
 30
0.0
 10
64.94993798460521
 20
343.3568359713871
 30
0.0
 10
65.03693463654895
 20
343.4261226803159
 30
0.0
 10
65.12923947696792
 20
343.4882178434115
 30
0.0
 10
65.226689498951
 20
343.5419973355231
 30
0.0
 10
65.3291024128243
 20
343.5855875810984
 30
0.0
 10
65.43561891139467
 20
343.6186061369297
 30
0.0
 10
65.5089610141003
 20
343.6296793035509
 30
0.0
 10
65.5456027101
 20
343.6352114548
 30
0.0
 11
64.7915198705
 21
343.201015064
 31
0.0
 11
64.8686886475269
 21
343.2809335476053
 31
0.0
 11
64.95072854777827
 21
343.3559032133025
 31
0.0
 11
65.03782569638935
 21
343.4249287459984
 31
0.0
 11
65.13009751796193
 21
343.4868323709861
 31
0.0
 11
65.22750042602718
 21
343.5402914560597
 31
0.0
 11
65.32976864941601
 21
343.5838184965113
 31
0.0
 11
65.43626051754046
 21
343.6158849029206
 31
0.0
 11
65.5456027101
 21
343.6352114548
 31
0.0
  0
SPLINE
  5
F7
330
1F
100
AcDbEntity
  8
BEZUGSACHSEN
  6
Continuous
 62
     7
100
AcDbSpline
210
0.0
220
0.0
230
1.0
 70
     8
 71
     3
 72
    47
 73
    43
 74
    41
 42
0.0000000001
 43
0.0000000001
 44
0.00000001
 40
0.0
 40
0.0
 40
0.0
 40
0.0
 40
0.6366022431475952
 40
1.273595002114847
 40
1.592921746356772
 40
1.912076344859128
 40
2.231392290395011
 40
2.550826842694732
 40
3.189774321107664
 40
3.829081696935285
 40
4.46833715243735
 40
5.107221744715557
 40
5.426176341221042
 40
5.745033356776657
 40
6.063356731546478
 40
6.381780214843946
 40
7.017059195622162
 40
7.652639340936501
 40
8.287532214176125
 40
8.922347946438077
 40
9.559226748522413
 40
10.19613435932116
 40
10.83451785498361
 40
11.47287689969412
 40
12.11234487361557
 40
12.75189588946399
 40
13.39354300519385
 40
14.03487957356101
 40
14.35615205771756
 40
14.67732107711608
 40
14.99840882471728
 40
15.31959604120782
 40
15.96011121026079
 40
16.60099592087049
 40
17.23809108073599
 40
17.87482555194368
 40
18.19205670327801
 40
18.50917199096406
 40
18.82571084625426
 40
19.142415818248
 40
19.77338974994971
 40
20.40398930742445
 40
20.40398930742445
 40
20.40398930742445
 40
20.40398930742445
 10
92.1462616006
 20
327.9586790491
 30
0.0
 10
92.15226724446055
 20
328.1709588587854
 30
0.0
 10
92.16428221627002
 20
328.5956486985955
 30
0.0
 10
92.24554756153039
 20
329.12179145969
 30
0.0
 10
92.33826715809522
 20
329.5367658358242
 30
0.0
 10
92.42356012220951
 20
329.8445898115359
 30
0.0
 10
92.52379873564009
 20
330.1478824883218
 30
0.0
 10
92.67728428480166
 20
330.5453198508523
 30
0.0
 10
92.90575623160875
 20
331.02741942771
 30
0.0
 10
93.23537119218827
 20
331.5762353005229
 30
0.0
 10
93.61759840925865
 20
332.0897708398793
 30
0.0
 10
93.97645310635767
 20
332.4842736019899
 30
0.0
 10
94.28540645990633
 20
332.777146900067
 30
0.0
 10
94.52730156887586
 20
332.9848687211964
 30
0.0
 10
94.77894482236651
 20
333.1803781183146
 30
0.0
 10
95.1262389295323
 20
333.4238733209539
 30
0.0
 10
95.5819792642921
 20
333.6957553909764
 30
0.0
 10
96.15745868897676
 20
333.9670845034894
 30
0.0
 10
96.75656945413888
 20
334.1808681343031
 30
0.0
 10
97.37401985660175
 20
334.335557865675
 30
0.0
 10
98.00429041830117
 20
334.4293648493264
 30
0.0
 10
98.64188435303156
 20
334.4614915741323
 30
0.0
 10
99.28006299726425
 20
334.4310620011829
 30
0.0
 10
99.91307541845816
 20
334.3383907460186
 30
0.0
 10
100.5343091028975
 20
334.1838987847906
 30
0.0
 10
101.1384448548781
 20
333.9688616522496
 30
0.0
 10
101.7189239284581
 20
333.6949382865197
 30
0.0
 10
102.1785529526838
 20
333.4197714084601
 30
0.0
 10
102.5284519413473
 20
333.1731617096024
 30
0.0
 10
102.7815835704964
 20
332.9752575172316
 30
0.0
 10
103.0245822098506
 20
332.7650789878298
 30
0.0
 10
103.3338265533549
 20
332.4695596476752
 30
0.0
 10
103.692146744146
 20
332.072088664916
 30
0.0
 10
104.0720971624726
 20
331.5564219033813
 30
0.0
 10
104.3985701920529
 20
331.0068257469346
 30
0.0
 10
104.6239413320367
 20
330.5257202052501
 30
0.0
 10
104.7750323152264
 20
330.1297300176461
 30
0.0
 10
104.8734452328032
 20
329.8283036668544
 30
0.0
 10
104.9571120109827
 20
329.5226082989149
 30
0.0
 10
105.0479313684141
 20
329.1110562811695
 30
0.0
 10
105.1274463440214
 20
328.5896310646216
 30
0.0
 10
105.1392186286894
 20
328.1689547754559
 30
0.0
 10
105.1451030243
 20
327.9586790491
 30
0.0
 11
92.1462616006
 21
327.9586790491
 31
0.0
 11
92.17751027158423
 21
328.5945138834259
 31
0.0
 11
92.27095147396902
 21
329.2246158725305
 31
0.0
 11
92.34089198098455
 21
329.5361891304757
 31
0.0
 11
92.42603331993652
 21
329.8437775082579
 31
0.0
 11
92.52625785806434
 21
330.1469568529213
 31
0.0
 11
92.64133774782064
 21
330.4449418394166
 31
0.0
 11
92.91493364209663
 21
331.0223491192508
 31
0.0
 11
93.24415315579644
 21
331.5703714113037
 31
0.0
 11
93.62577741112214
 21
332.083216870615
 31
0.0
 11
94.05571204721929
 21
332.5557946218206
 31
0.0
 11
94.28718430827459
 21
332.7752316902341
 31
0.0
 11
94.52908670930101
 21
332.9829647515091
 31
0.0
 11
94.7804605164555
 21
333.1782619097104
 31
0.0
 11
95.04118979474742
 21
333.3610562153019
 31
0.0
 11
95.58672343895725
 21
333.6865902787326
 31
0.0
 11
96.16163325907597
 21
333.9575899463503
 31
0.0
 11
96.75957944682284
 21
334.1710128060665
 31
0.0
 11
97.37537197904634
 21
334.3252547302799
 31
0.0
 11
98.00530426102398
 21
334.4190626652684
 31
0.0
 11
98.64140738276164
 21
334.4510645903507
 31
0.0
 11
99.27906834178036
 21
334.4207003205991
 31
0.0
 11
99.91068587469093
 21
334.3281716110886
 31
0.0
 11
100.5312587468158
 21
334.173871254466
 31
0.0
 11
101.1337595539696
 21
333.9593525390779
 31
0.0
 11
101.7140667503508
 21
333.6855741999919
 31
0.0
 11
102.2642917383988
 21
333.3560820810383
 31
0.0
 11
102.5268990425463
 21
333.1710053053896
 31
0.0
 11
102.7799194999381
 21
332.9731917892623
 31
0.0
 11
103.0227678013024
 21
332.7631393096672
 31
0.0
 11
103.2549702367094
 21
332.5412310920906
 31
0.0
 11
103.6838862944412
 21
332.0655308742992
 31
0.0
 11
104.0639969530966
 21
331.5495375609028
 31
0.0
 11
104.3894360987869
 21
331.0018336215556
 31
0.0
 11
104.6595169569117
 21
330.4252166629959
 31
0.0
 11
104.7726074021187
 21
330.1288281433468
 31
0.0
 11
104.8710515054826
 21
329.8273801972647
 31
0.0
 11
104.9545343108677
 21
329.5220484627308
 31
0.0
 11
105.0230837343035
 21
329.2128510891453
 31
0.0
 11
105.1145108121878
 21
328.588536111016
 31
0.0
 11
105.1451030243
 21
327.9586790491
 31
0.0
  0
SPLINE
  5
F8
330
1F
100
AcDbEntity
  8
BEZUGSACHSEN
  6
Continuous
 62
     7
100
AcDbSpline
210
0.0
220
0.0
230
1.0
 70
     8
 71
     3
 72
    47
 73
    43
 74
    41
 42
0.0000000001
 43
0.0000000001
 44
0.00000001
 40
0.0
 40
0.0
 40
0.0
 40
0.0
 40
0.6302393213932969
 40
1.260854867260008
 40
1.577476088335846
 40
1.893930800164007
 40
2.210999113827603
 40
2.528183472187275
 40
3.164887038224198
 40
3.801951183341089
 40
4.442851001556685
 40
5.083381259734393
 40
5.404527292258312
 40
5.725573838708264
 40
6.046670709994721
 40
6.367871027133289
 40
7.009090242529105
 40
7.650619763924398
 40
8.290330346444904
 40
8.9299587644276
 40
9.568647011312319
 40
10.20735923011591
 40
10.84445705813198
 40
11.48152626491503
 40
12.11643462217774
 40
12.75141965574957
 40
13.38691908732248
 40
14.02211738522862
 40
14.34050449133043
 40
14.65879153782121
 40
14.97761586861342
 40
15.29653774941398
 40
15.93537694100301
 40
16.5745869406505
 40
17.21386274987442
 40
17.8527785906913
 40
18.17219860077591
 40
18.49150024071444
 40
18.81067156630165
 40
19.13001452415619
 40
19.76719627019058
 40
20.4039896827794
 40
20.4039896827794
 40
20.4039896827794
 40
20.4039896827794
 10
105.1450908327
 20
327.9586790872
 30
0.0
 10
105.1392216309286
 20
327.7485230653338
 30
0.0
 10
105.1274797237368
 20
327.3280855679269
 30
0.0
 10
105.0480329812292
 20
326.8069221256882
 30
0.0
 10
104.9573014761323
 20
326.3955306582682
 30
0.0
 10
104.8736960938096
 20
326.0898928179741
 30
0.0
 10
104.7753441524364
 20
325.7885089717695
 30
0.0
 10
104.6243253415959
 20
325.392535792157
 30
0.0
 10
104.3990427540246
 20
324.9114289834649
 30
0.0
 10
104.0726647192917
 20
324.3617947584696
 30
0.0
 10
103.6927976572352
 20
323.8460668958301
 30
0.0
 10
103.3345432179338
 20
323.4485414936378
 30
0.0
 10
103.0253624802569
 20
323.1529881386986
 30
0.0
 10
102.7824375242248
 20
322.9428032302536
 30
0.0
 10
102.5293886209013
 20
322.7448937659128
 30
0.0
 10
102.1796061124446
 20
322.4982704144168
 30
0.0
 10
101.7201208746935
 20
322.2230638051222
 30
0.0
 10
101.1397251677326
 20
321.9490236984198
 30
0.0
 10
100.5355708598978
 20
321.7338352210985
 30
0.0
 10
99.91415571249064
 20
321.5791733820957
 30
0.0
 10
99.28088650105005
 20
321.4863630090773
 30
0.0
 10
98.64242703661138
 20
321.4558522592567
 30
0.0
 10
98.00459402305628
 20
321.4879540016009
 30
0.0
 10
97.37416403605832
 20
321.5817670639532
 30
0.0
 10
96.75659036656421
 20
321.7364808802673
 30
0.0
 10
96.15744695514131
 20
321.9502774523592
 30
0.0
 10
95.5819897336784
 20
322.2215988207798
 30
0.0
 10
95.1263043407354
 20
322.4934437043995
 30
0.0
 10
94.77904844301469
 20
322.7369042569927
 30
0.0
 10
94.52742886172285
 20
322.9323867833275
 30
0.0
 10
94.2855538114396
 20
323.1400798420368
 30
0.0
 10
93.97661752773224
 20
323.4329173901849
 30
0.0
 10
93.6177747708189
 20
323.8273750391252
 30
0.0
 10
93.23554786556514
 20
324.3408597050687
 30
0.0
 10
92.90592342030337
 20
324.8896274837684
 30
0.0
 10
92.6774359744025
 20
325.3716909002597
 30
0.0
 10
92.5239344744824
 20
325.7691004594409
 30
0.0
 10
92.42367767158687
 20
326.0723828227348
 30
0.0
 10
92.33836117867143
 20
326.3802066944369
 30
0.0
 10
92.24559872330144
 20
326.7952475615436
 30
0.0
 10
92.1643063563517
 20
327.3215203606327
 30
0.0
 10
92.15226655679226
 20
327.7463360103505
 30
0.0
 10
92.146248492
 20
327.958679089
 30
0.0
 11
105.1450908327
 21
327.9586790872
 31
0.0
 11
105.1145512539232
 21
327.3291801306016
 31
0.0
 11
105.0232199784076
 21
326.7052133327658
 31
0.0
 11
104.9547252397022
 21
326.3960896222465
 31
0.0
 11
104.8713064148412
 21
326.0908276293665
 31
0.0
 11
104.772919670992
 21
325.7894103701324
 31
0.0
 11
104.6598890398937
 21
325.4930491148685
 31
0.0
 11
104.389908903413
 21
324.9164191148599
 31
0.0
 11
104.0645722815814
 21
324.3686903430314
 31
0.0
 11
103.6845357867679
 21
323.852623642305
 31
0.0
 11
103.2556852890754
 21
323.376844006055
 31
0.0
 11
103.0235481546995
 21
323.154927073286
 31
0.0
 11
102.7807656613624
 21
322.9448614980091
 31
0.0
 11
102.527836053064
 21
322.7470489251124
 31
0.0
 11
102.2653216572297
 21
322.5619656041198
 31
0.0
 11
101.7152634756309
 21
322.2324233776161
 31
0.0
 11
101.1351226439799
 21
321.9585680466967
 31
0.0
 11
100.5325173336883
 21
321.7438671631467
 31
0.0
 11
99.91181806336702
 21
321.5894102794748
 31
0.0
 11
99.27988924944465
 21
321.4967353052728
 31
0.0
 11
98.64190312226346
 21
321.4662886310152
 31
0.0
 11
98.00560813413861
 21
321.4982625352184
 31
0.0
 11
97.37548486003094
 21
321.5920806233411
 31
0.0
 11
96.7596009517895
 21
321.7463389576096
 31
0.0
 11
96.1615684819705
 21
321.9597942407544
 31
0.0
 11
95.58673273342795
 21
322.2307617475278
 31
0.0
 11
95.04126604591565
 21
322.5562505652731
 31
0.0
 11
94.78056375316585
 21
322.7390199934795
 31
0.0
 11
94.52921450137217
 21
322.9342895445789
 31
0.0
 11
94.28733120300808
 21
323.1419946814379
 31
0.0
 11
94.05587537168081
 21
323.3614015277257
 31
0.0
 11
93.62595234077136
 21
323.8339284583908
 31
0.0
 11
93.24433120130941
 21
324.3467195752845
 31
0.0
 11
92.91509972713452
 21
324.8946978564887
 31
0.0
 11
92.64148542001965
 21
325.4720614010504
 31
0.0
 11
92.52639316758834
 21
325.7700260235691
 31
0.0
 11
92.42615347918698
 21
326.0731852921667
 31
0.0
 11
92.34098639897927
 21
326.3807838999757
 31
0.0
 11
92.27102337149739
 21
326.692368719113
 31
0.0
 11
92.1775344745044
 21
327.3226546888271
 31
0.0
 11
92.146248492
 21
327.958679089
 31
0.0
  0
SPLINE
  5
F9
330
1F
100
AcDbEntity
  8
BEZUGSACHSEN
  6
Continuous
 62
     7
100
AcDbSpline
210
0.0
220
0.0
230
1.0
 70
     8
 71
     3
 72
    27
 73
    23
 74
    21
 42
0.0000000001
 43
0.0000000001
 44
0.00000001
 40
0.0
 40
0.0
 40
0.0
 40
0.0
 40
0.1260969825525917
 40
0.2522464959194695
 40
0.366886795250461
 40
0.4815825893953778
 40
0.5839596006875009
 40
0.6859489161358074
 40
0.7334568410412569
 40
0.780956884870301
 40
0.8274002264131612
 40
0.8738421606883889
 40
0.9204907318698891
 40
0.9671431399041787
 40
1.015111401801064
 40
1.06308749712182
 40
1.165500418722765
 40
1.268190478923046
 40
1.380949153847155
 40
1.493646517718517
 40
1.615655563682156
 40
1.737631867607343
 40
1.737631867607343
 40
1.737631867607343
 40
1.737631867607343
 10
63.6456771949
 20
342.5929115547
 30
0.0
 10
63.64640573637629
 20
342.634954482761
 30
0.0
 10
63.64786312283238
 20
342.7190578535705
 30
0.0
 10
63.66130768478078
 20
342.8408051811331
 30
0.0
 10
63.68426311806633
 20
342.9572228975114
 30
0.0
 10
63.71822901840196
 20
343.0627983553045
 30
0.0
 10
63.7644547772494
 20
343.1589564175671
 30
0.0
 10
63.81299794580051
 20
343.2281257832377
 30
0.0
 10
63.85843727136886
 20
343.2756632648307
 30
0.0
 10
63.89434334946371
 20
343.3063585482884
 30
0.0
 10
63.93299078055448
 20
343.3328935839899
 30
0.0
 10
63.97394526775803
 20
343.3551219298838
 30
0.0
 10
64.01708489393337
 20
343.3729151467612
 30
0.0
 10
64.06226552854676
 20
343.3864485538223
 30
0.0
 10
64.1089727515364
 20
343.3956456791561
 30
0.0
 10
64.17479674273987
 20
343.4026009995368
 30
0.0
 10
64.25952449473687
 20
343.400735742903
 30
0.0
 10
64.36435609822584
 20
343.3838210819619
 30
0.0
 10
64.46993534056928
 20
343.3544064491036
 30
0.0
 10
64.5780932786632
 20
343.3126548116554
 30
0.0
 10
64.68574553995097
 20
343.2618589845192
 30
0.0
 10
64.75626491480706
 20
343.2212945563018
 30
0.0
 10
64.7915198705
 20
343.201015064
 30
0.0
 11
63.6456771949
 21
342.5929115547
 31
0.0
 11
63.64980855446466
 21
342.7189408404911
 31
0.0
 11
63.66357531358566
 21
342.8443369172479
 31
0.0
 11
63.6864268896678
 21
342.9566765972424
 31
0.0
 11
63.72206507903866
 21
343.0656951491173
 31
0.0
 11
63.7669648438388
 21
343.157700929164
 31
0.0
 11
63.82613727279295
 21
343.240769841022
 31
0.0
 11
63.85898977295447
 21
343.2750877104483
 31
0.0
 11
63.89512686788129
 21
343.3059156934185
 31
0.0
 11
63.93341413274273
 21
343.3322038908291
 31
0.0
 11
63.97423674067998
 21
343.3543481438177
 31
0.0
 11
64.01734288429803
 21
343.3721792844334
 31
0.0
 11
64.06202245634238
 21
343.3856025112188
 31
0.0
 11
64.10907326209751
 21
343.3949393108418
 31
0.0
 11
64.15677714937158
 21
343.4000427274591
 31
0.0
 11
64.25917679022932
 21
343.398393466095
 31
0.0
 11
64.36064104053003
 21
343.3825740358002
 31
0.0
 11
64.46936475696722
 21
343.352679684248
 31
0.0
 11
64.57468274926173
 21
343.3125696316102
 31
0.0
 11
64.68497543517962
 21
343.260399422391
 31
0.0
 11
64.7915198705
 21
343.201015064
 31
0.0
  0
SPLINE
  5
FA
330
1F
100
AcDbEntity
  8
BEZUGSACHSEN
  6
Continuous
 62
     7
100
AcDbSpline
210
0.0
220
0.0
230
1.0
 70
     8
 71
     3
 72
    27
 73
    23
 74
    21
 42
0.0000000001
 43
0.0000000001
 44
0.00000001
 40
0.0
 40
0.0
 40
0.0
 40
0.0
 40
0.1219765139880546
 40
0.2439857715530704
 40
0.3566831398938006
 40
0.4694418149866142
 40
0.5721317673047311
 40
0.6745445881241368
 40
0.7225206521279652
 40
0.7704888797747421
 40
0.8171412936151289
 40
0.8637898734493845
 40
0.9102318001113299
 40
0.9566751324376928
 40
1.004175175757549
 40
1.051683100130667
 40
1.153672388724456
 40
1.256049376669649
 40
1.37074513809085
 40
1.485385401871779
 40
1.611534903919969
 40
1.737631876052273
 40
1.737631876052273
 40
1.737631876052273
 40
1.737631876052273
 10
64.7915198705
 20
312.7163430731
 30
0.0
 10
64.75626485288741
 20
312.696063547827
 30
0.0
 10
64.6857453537471
 20
312.6554990534116
 30
0.0
 10
64.57809295055283
 20
312.6047031924899
 30
0.0
 10
64.46993493468102
 20
312.5629515566315
 30
0.0
 10
64.36435571372773
 20
312.533536971521
 30
0.0
 10
64.25952416859822
 20
312.5166223841463
 30
0.0
 10
64.17479649875776
 20
312.5147571608966
 30
0.0
 10
64.10897256235161
 20
312.5217124688739
 30
0.0
 10
64.06226535913311
 20
312.5309095960141
 30
0.0
 10
64.01708474183086
 20
312.5444430410307
 30
0.0
 10
63.97394513118496
 20
312.5622362998712
 30
0.0
 10
63.93299065460848
 20
312.584464657586
 30
0.0
 10
63.89434322813755
 20
312.6109996892783
 30
0.0
 10
63.85843714950136
 20
312.6416949667844
 30
0.0
 10
63.81299782795614
 20
312.6892324398698
 30
0.0
 10
63.76445468786964
 20
312.7584018069553
 30
0.0
 10
63.71822897890725
 20
312.8545598616703
 30
0.0
 10
63.68426310512507
 20
312.9601352946663
 30
0.0
 10
63.66130768094615
 20
313.0765529855793
 30
0.0
 10
63.64786312259497
 20
313.1983002942683
 30
0.0
 10
63.64640573629889
 20
313.2824036578188
 30
0.0
 10
63.6456771949
 20
313.3244465824
 30
0.0
 11
64.7915198705
 21
312.7163430731
 31
0.0
 11
64.68497524641269
 21
312.6569586219131
 31
0.0
 11
64.57468235721265
 21
312.6047883475849
 31
0.0
 11
64.46936434937398
 21
312.5646783232042
 31
0.0
 11
64.36064062086083
 21
312.5347840149352
 31
0.0
 11
64.25917646875236
 21
312.5189646551502
 31
0.0
 11
64.15677692816976
 21
312.5173154260391
 31
0.0
 11
64.10907307195721
 21
312.5224188385985
 31
0.0
 11
64.06202230169576
 21
312.5317556411228
 31
0.0
 11
64.01734273426234
 21
312.5451789034348
 31
0.0
 11
63.97423659766642
 21
312.5630100836629
 31
0.0
 11
63.93341400486955
 21
312.5851543485957
 31
0.0
 11
63.89512674832341
 21
312.6114425418343
 31
0.0
 11
63.85898965131285
 21
312.6422705215773
 31
0.0
 11
63.82613715094096
 21
312.6765883900653
 31
0.0
 11
63.76696475668714
 21
312.7596572936703
 31
0.0
 11
63.72206503308608
 21
312.8516630678438
 31
0.0
 11
63.68642687351858
 21
312.9606815950336
 31
0.0
 11
63.66357531015235
 21
313.0730212413366
 31
0.0
 11
63.6498085538298
 21
313.198417307014
 31
0.0
 11
63.6456771949
 21
313.3244465824
 31
0.0
  0
SPLINE
  5
FB
330
1F
100
AcDbEntity
  8
0
  6
Continuous
 62
     7
100
AcDbSpline
210
0.0
220
0.0
230
1.0
 70
     8
 71
     3
 72
    19
 73
    15
 74
    13
 42
0.0000000001
 43
0.0000000001
 44
0.00000001
 40
0.0
 40
0.0
 40
0.0
 40
0.0
 40
0.1162460235977954
 40
0.2327881718600136
 40
0.349189004677409
 40
0.4655468551589949
 40
0.58190713708227
 40
0.6982738489999316
 40
0.8146206073455204
 40
0.9309998278820024
 40
1.16327632349367
 40
1.396138921800176
 40
1.629013178087293
 40
1.86135153983036
 40
1.86135153983036
 40
1.86135153983036
 40
1.86135153983036
 10
132.7706771949
 20
294.4362984848
 30
0.0
 10
132.7318931240505
 20
294.4344575379115
 30
0.0
 10
132.6542261839616
 20
294.4307709545137
 30
0.0
 10
132.5406160988609
 20
294.4023654695615
 30
0.0
 10
132.432428410891
 20
294.3585115553241
 30
0.0
 10
132.331452544929
 20
294.2999148670642
 30
0.0
 10
132.2386840882045
 20
294.2292300057243
 30
0.0
 10
132.1545967092187
 20
294.1484724006363
 30
0.0
 10
132.0792930658448
 20
294.0595047618954
 30
0.0
 10
131.9906418216803
 20
293.9321453141568
 30
0.0
 10
131.9006450759427
 20
293.7593599360977
 30
0.0
 10
131.8257515567889
 20
293.5384349459351
 30
0.0
 10
131.7792146315059
 20
293.3094150263253
 30
0.0
 10
131.7735208208027
 20
293.1542356334675
 30
0.0
 10
131.7706771949
 20
293.0767353153
 30
0.0
 11
132.7706771949
 21
294.4362984848
 31
0.0
 11
132.6548058433215
 21
294.4269728274149
 31
0.0
 11
132.5414813185865
 21
294.39977679066
 31
0.0
 11
132.4336081859555
 21
294.3560441811226
 31
0.0
 11
132.3328194464422
 21
294.2978997114285
 31
0.0
 11
132.2401321413947
 21
294.2275521550225
 31
0.0
 11
132.1560567757692
 21
294.1471000292739
 31
0.0
 11
132.0807580178375
 21
294.0584058060603
 31
0.0
 11
132.0141312885222
 21
293.9629856723702
 31
0.0
 11
131.9062415024168
 21
293.7572864636509
 31
0.0
 11
131.8304833655869
 21
293.5370917897959
 31
0.0
 11
131.7855233518171
 21
293.3085988656098
 31
0.0
 11
131.7706771949
 21
293.0767353153
 31
0.0
  0
SPLINE
  5
FC
330
1F
100
AcDbEntity
  8
0
  6
Continuous
 62
     7
100
AcDbSpline
210
0.0
220
0.0
230
1.0
 70
     8
 71
     3
 72
    19
 73
    15
 74
    13
 42
0.0000000001
 43
0.0000000001
 44
0.00000001
 40
0.0
 40
0.0
 40
0.0
 40
0.0
 40
0.2323383481441592
 40
0.4652125957785983
 40
0.6980761133728464
 40
0.9303535188104627
 40
1.046733461857391
 40
1.163080940919501
 40
1.279447997501526
 40
1.395808629617423
 40
1.512165904579365
 40
1.628566140394619
 40
1.745106920573164
 40
1.861351602834075
 40
1.861351602834075
 40
1.861351602834075
 40
1.861351602834075
 10
135.5206771949
 20
293.0767353153
 30
0.0
 10
135.517833569294
 20
293.1542356289683
 30
0.0
 10
135.5121397591238
 20
293.3094150144777
 30
0.0
 10
135.4656027832731
 20
293.5384352285271
 30
0.0
 10
135.3907090374742
 20
293.7593607904291
 30
0.0
 10
135.3007117332153
 20
293.9321468546326
 30
0.0
 10
135.2120597954307
 20
294.0595067803488
 30
0.0
 10
135.1367555310818
 20
294.1484746792599
 30
0.0
 10
135.0526675572449
 20
294.2292323492096
 30
0.0
 10
134.9598988234056
 20
294.2999169155823
 30
0.0
 10
134.8589230111775
 20
294.3585131397627
 30
0.0
 10
134.7507359616874
 20
294.4023663909249
 30
0.0
 10
134.6371268523478
 20
294.430771150373
 30
0.0
 10
134.5594608175611
 20
294.4344576030195
 30
0.0
 10
134.5206771949
 20
294.4362984848
 30
0.0
 11
135.5206771949
 21
293.0767353153
 31
0.0
 11
135.5058310407797
 21
293.3085988521621
 31
0.0
 11
135.4608710391736
 21
293.537091769923
 31
0.0
 11
135.3851125604562
 21
293.7572872983263
 31
0.0
 11
135.2772221492736
 21
293.9629872065705
 31
0.0
 11
135.2105948254501
 21
294.0584078063575
 31
0.0
 11
135.1352953688934
 21
294.1471023818759
 31
0.0
 11
135.0512195025426
 21
294.2275544828735
 31
0.0
 11
134.9585316765561
 21
294.2979019321542
 31
0.0
 11
134.8577432416703
 21
294.3560457781728
 31
0.0
 11
134.74987051291
 21
294.3997777949071
 31
0.0
 11
134.6365472243706
 21
294.426973120227
 31
0.0
 11
134.5206771949
 21
294.4362984848
 31
0.0
  0
SPLINE
  5
FD
330
1F
100
AcDbEntity
  8
BEZUGSACHSEN
  6
Continuous
 62
     7
100
AcDbSpline
210
0.0
220
0.0
230
1.0
 70
     8
 71
     3
 72
    11
 73
     7
 74
     5
 42
0.0000000001
 43
0.0000000001
 44
0.00000001
 40
0.0
 40
0.0
 40
0.0
 40
0.0
 40
0.5462907430761987
 40
1.09300086356383
 40
1.646070107101647
 40
2.198197048700584
 40
2.198197048700584
 40
2.198197048700584
 40
2.198197048700584
 10
73.1995231418
 20
342.9686790685
 30
0.0
 10
73.26259394363063
 20
342.7977474392723
 30
0.0
 10
73.38878396559282
 20
342.4557529597314
 30
0.0
 10
73.52842127863931
 20
341.9244788305415
 30
0.0
 10
73.62590964270994
 20
341.3810544255859
 30
0.0
 10
73.63909175724
 20
341.0124697850096
 30
0.0
 10
73.6456771949
 20
340.8283345943
 30
0.0
 11
73.1995231418
 21
342.9686790685
 31
0.0
 11
73.38037447434478
 21
342.4531925298906
 31
0.0
 11
73.52086595905224
 21
341.9248421740014
 31
0.0
 11
73.61293261232969
 21
341.3794897012814
 31
0.0
 11
73.6456771949
 21
340.8283345943
 31
0.0
  0
SPLINE
  5
FE
330
1F
100
AcDbEntity
  8
BEZUGSACHSEN
  6
Continuous
 62
     7
100
AcDbSpline
210
0.0
220
0.0
230
1.0
 70
     8
 71
     3
 72
    19
 73
    15
 74
    13
 42
0.0000000001
 43
0.0000000001
 44
0.00000001
 40
0.0
 40
0.0
 40
0.0
 40
0.0
 40
0.1462385987725487
 40
0.2927479274617465
 40
0.4364790705698645
 40
0.5801659235729981
 40
0.7203799972211645
 40
0.8606059382265985
 40
0.9980411883535678
 40
1.135484020383156
 40
1.405415631023515
 40
1.675815514026584
 40
1.943997429488135
 40
2.211934834764099
 40
2.211934834764099
 40
2.211934834764099
 40
2.211934834764099
 10
71.6456771949
 20
344.317326656
 30
0.0
 10
71.69439200023803
 20
344.3206347333108
 30
0.0
 10
71.7919117960998
 20
344.3272570121399
 30
0.0
 10
71.93724805639404
 20
344.3108976993901
 30
0.0
 10
72.07790499349963
 20
344.2757259333189
 30
0.0
 10
72.21075712693747
 20
344.2229202466883
 30
0.0
 10
72.33521159000037
 20
344.1552484589423
 30
0.0
 10
72.45001414717495
 20
344.0759482575482
 30
0.0
 10
72.55612408496918
 20
343.9868636179852
 30
0.0
 10
72.6852265501613
 20
343.8589160824457
 30
0.0
 10
72.82826640006333
 20
343.6831137935517
 30
0.0
 10
72.9731740017455
 20
343.4554283276503
 30
0.0
 10
73.097810750119
 20
343.2167657081166
 30
0.0
 10
73.16562932133968
 20
343.0513494676795
 30
0.0
 10
73.1995231418
 20
342.9686790685
 30
0.0
 11
71.6456771949
 21
344.317326656
 31
0.0
 11
71.7918110567169
 21
344.3228603890474
 31
0.0
 11
71.93752041754854
 21
344.307570995371
 31
0.0
 11
72.07695049907431
 21
344.2726726592375
 31
0.0
 11
72.21058283598508
 21
344.2198682062273
 31
0.0
 11
72.33389662680405
 21
344.1531321931394
 31
0.0
 11
72.44942773814306
 21
344.0736597020268
 31
0.0
 11
72.55484028793164
 21
343.9854744293078
 31
0.0
 11
72.65262879162785
 21
343.8888931649695
 31
0.0
 11
72.82387718751454
 21
343.6802378000035
 31
0.0
 11
72.97021960802715
 21
343.4528614760676
 31
0.0
 11
73.09408723379963
 21
343.2149994339799
 31
0.0
 11
73.1995231418
 21
342.9686790685
 31
0.0
  0
SPLINE
  5
FF
330
1F
100
AcDbEntity
  8
BEZUGSACHSEN
  6
Continuous
 62
     7
100
AcDbSpline
210
0.0
220
0.0
230
1.0
 70
     8
 71
     3
 72
    15
 73
    11
 74
     9
 42
0.0000000001
 43
0.0000000001
 44
0.00000001
 40
0.0
 40
0.0
 40
0.0
 40
0.0
 40
0.1110371613041771
 40
0.2222522336794472
 40
0.3333980191156873
 40
0.4445069474042214
 40
0.5556201064649603
 40
0.6667525641793152
 40
0.7778876033003526
 40
0.8889820915295276
 40
0.8889820915295276
 40
0.8889820915295276
 40
0.8889820915295276
 10
65.5456027101
 20
312.2821466823
 30
0.0
 10
65.50896098324031
 20
312.2876788351144
 30
0.0
 10
65.43561881972687
 20
312.2987520047237
 30
0.0
 10
65.32910226973175
 20
312.3317705682317
 30
0.0
 10
65.22668936198829
 20
312.3753608556833
 30
0.0
 10
65.12923939637088
 20
312.4291403635064
 30
0.0
 10
65.03693460063029
 20
312.4912354988608
 30
0.0
 10
64.9499379724943
 20
312.5605221725042
 30
0.0
 10
64.86768521705818
 20
312.6354041241464
 30
0.0
 10
64.81690523069365
 20
312.6893667056871
 30
0.0
 10
64.7915198705
 20
312.7163430731
 30
0.0
 11
65.5456027101
 21
312.2821466823
 31
0.0
 11
65.43626042505123
 21
312.3014732415076
 31
0.0
 11
65.32976847146314
 21
312.3335396748051
 31
0.0
 11
65.22750029086534
 21
312.3770667337163
 31
0.0
 11
65.13009742442644
 21
312.4305258354195
 31
0.0
 11
65.0378256576242
 21
312.4924294311765
 31
0.0
 11
64.95072855420605
 21
312.5614549172943
 31
0.0
 11
64.86868864975179
 21
312.6364245844776
 31
0.0
 11
64.7915198705
 21
312.7163430731
 31
0.0
  0
SPLINE
  5
100
330
1F
100
AcDbEntity
  8
BEZUGSACHSEN
  6
Continuous
 62
     7
100
AcDbSpline
210
0.0
220
0.0
230
1.0
 70
     8
 71
     3
 72
    11
 73
     7
 74
     5
 42
0.0000000001
 43
0.0000000001
 44
0.00000001
 40
0.0
 40
0.0
 40
0.0
 40
0.0
 40
0.5521269406196768
 40
1.105196183268789
 40
1.651906304681759
 40
2.19819704870987
 40
2.19819704870987
 40
2.19819704870987
 40
2.19819704870987
 10
73.6456771949
 20
315.0890235427
 30
0.0
 10
73.63909175727076
 20
314.9048883523172
 30
0.0
 10
73.62590964280119
 20
314.5363037123645
 30
0.0
 10
73.52842127898671
 20
313.9928793076859
 30
0.0
 10
73.38878396590096
 20
313.4616051781601
 30
0.0
 10
73.26259394373437
 20
313.1196106980278
 30
0.0
 10
73.1995231418
 20
312.9486790685
 30
0.0
 11
73.6456771949
 21
315.0890235427
 31
0.0
 11
73.61293261247005
 21
314.5378684366912
 31
0.0
 11
73.52086595950456
 21
313.9925159648199
 31
0.0
 11
73.3803744746369
 21
313.4641656080157
 31
0.0
 11
73.1995231418
 21
312.9486790685
 31
0.0
  0
SPLINE
  5
101
330
1F
100
AcDbEntity
  8
BEZUGSACHSEN
  6
Continuous
 62
     7
100
AcDbSpline
210
0.0
220
0.0
230
1.0
 70
     8
 71
     3
 72
    19
 73
    15
 74
    13
 42
0.0000000001
 43
0.0000000001
 44
0.00000001
 40
0.0
 40
0.0
 40
0.0
 40
0.0
 40
0.2679411643354441
 40
0.5361267936930468
 40
0.8065304773715969
 40
1.07646599322268
 40
1.213913376120592
 40
1.351353104837292
 40
1.491586367024362
 40
1.631807897530173
 40
1.775491562752879
 40
1.919219204734171
 40
2.065713007363147
 40
2.211936409287783
 40
2.211936409287783
 40
2.211936409287783
 40
2.211936409287783
 10
73.1995231418
 20
312.9486790685
 30
0.0
 10
73.1656288980009
 20
312.8660074887961
 30
0.0
 10
73.09780948586345
 20
312.7005889012262
 30
0.0
 10
72.97317097957443
 20
312.4619229275581
 30
0.0
 10
72.82826018023788
 20
312.234234931555
 30
0.0
 10
72.68521654871587
 20
312.0584304402471
 30
0.0
 10
72.55611016181206
 20
311.9304807211371
 30
0.0
 10
72.44999506274824
 20
311.8413937003338
 30
0.0
 10
72.33518563510758
 20
311.762092059994
 30
0.0
 10
72.21072602287772
 20
311.6944215925298
 30
0.0
 10
72.0778724677396
 20
311.6416189058336
 30
0.0
 10
71.93722166886155
 20
311.6064526418454
 30
0.0
 10
71.79189628576867
 20
311.5901004399616
 30
0.0
 10
71.6943868667271
 20
311.5967231733279
 30
0.0
 10
71.6456771949
 20
311.6000314811
 30
0.0
 11
73.1995231418
 21
312.9486790685
 31
0.0
 11
73.09408588208106
 21
312.7023551926609
 31
0.0
 11
72.97021636650445
 21
312.4644899473964
 31
0.0
 11
72.82387088019115
 21
312.2371110768242
 31
0.0
 11
72.65261868906266
 21
312.028453774648
 31
0.0
 11
72.55482625038334
 21
311.9318700182361
 31
0.0
 11
72.44940926112866
 21
311.843683072455
 31
0.0
 11
72.33387061741524
 21
311.7642086134603
 31
0.0
 11
72.21054860752187
 21
311.6974721204954
 31
0.0
 11
72.07691791932201
 21
311.6446721695195
 31
0.0
 11
71.93749021811422
 21
311.6097787431269
 31
0.0
 11
71.79179577959604
 21
311.5944959163737
 31
0.0
 11
71.6456771949
 21
311.6000314811
 31
0.0
  0
SPLINE
  5
102
330
1F
100
AcDbEntity
  8
BEZUGSACHSEN
  6
Continuous
 62
     7
100
AcDbSpline
210
0.0
220
0.0
230
1.0
 70
     8
 71
     3
 72
    11
 73
     7
 74
     5
 42
0.0000000001
 43
0.0000000001
 44
0.00000001
 40
0.0
 40
0.0
 40
0.0
 40
0.0
 40
0.9140556660002959
 40
1.828030949185898
 40
2.27980697487108
 40
2.730944124762521
 40
2.730944124762521
 40
2.730944124762521
 40
2.730944124762521
 10
64.9126301217854
 20
312.948679068685
 30
0.0
 10
65.04528482874878
 20
313.2233956663516
 30
0.0
 10
65.3105825769104
 20
313.7728047028788
 30
0.0
 10
65.52593779022307
 20
314.5055156239837
 30
0.0
 10
65.62963200388539
 20
315.1034608300897
 30
0.0
 10
65.6403313214065
 20
315.4045840455165
 30
0.0
 10
65.6456771949
 20
315.5550391201
 30
0.0
 11
64.9126301217854
 21
312.948679068685
 31
0.0
 11
65.2874376515609
 21
313.7823559102554
 31
0.0
 11
65.54672901195877
 21
314.658779785271
 31
0.0
 11
65.61944598545739
 21
315.1046652180327
 31
0.0
 11
65.6456771949
 21
315.5550391201
 31
0.0
  0
SPLINE
  5
103
330
1F
100
AcDbEntity
  8
BEZUGSACHSEN
  6
Continuous
 62
     7
100
AcDbSpline
210
0.0
220
0.0
230
1.0
 70
     8
 71
     3
 72
    11
 73
     7
 74
     5
 42
0.0000000001
 43
0.0000000001
 44
0.00000001
 40
0.0
 40
0.0
 40
0.0
 40
0.0
 40
0.8249192366724167
 40
1.65011689193098
 40
2.190492152293426
 40
2.730585915378205
 40
2.730585915378205
 40
2.730585915378205
 40
2.730585915378205
 10
65.6456771949
 20
340.3623190169
 30
0.0
 10
65.62794389056182
 20
340.6375093088769
 30
0.0
 10
65.59247129671589
 20
341.1879827723378
 30
0.0
 10
65.38403648008051
 20
341.8927163574905
 30
0.0
 10
65.1538100491008
 20
342.4849300825708
 30
0.0
 10
64.99300946629883
 20
342.807457416016
 30
0.0
 10
64.9126301217854
 20
342.968679068315
 30
0.0
 11
65.6456771949
 21
340.3623190169
 31
0.0
 11
65.56210174078429
 21
341.1829936725959
 31
0.0
 11
65.34414029867253
 21
341.9788856124953
 31
0.0
 11
65.14620522011333
 21
342.4817047914131
 31
0.0
 11
64.9126301217854
 21
342.968679068315
 31
0.0
  0
DIMENSION
  5
110
330
1F
100
AcDbEntity
  8
1
100
AcDbDimension
  2
*D2
 10
204.499793428613
 20
331.9586790685
 30
0.0
 11
200.749793428613
 21
327.936914390972
 31
0.0
 70
    32
  1
<>
 71
     5
 42
-1.0
 53
90.0
  3
ME10_DIM_10
100
AcDbAlignedDimension
 13
193.6456771949
 23
323.9586790685
 33
0.0
 14
193.6456771949
 24
331.9586790685
 34
0.0
 50
90.0
100
AcDbRotatedDimension
  0
DIMENSION
  5
11B
330
1F
100
AcDbEntity
  8
1
100
AcDbDimension
  2
*D3
 10
214.332734421872
 20
341.9586790685
 30
0.0
 11
210.582734421872
 21
328.171032033668
 31
0.0
 70
    32
  1
<>
 71
     5
 42
-1.0
 53
90.0
  3
ME10_DIM_11
100
AcDbAlignedDimension
 13
184.8459548502
 23
313.9586790685
 33
0.0
 14
184.8459548502
 24
341.9586790685
 34
0.0
 50
90.0
100
AcDbRotatedDimension
  0
DIMENSION
  5
126
330
1F
100
AcDbEntity
  8
1
100
AcDbDimension
  2
*D4
 10
193.6456771949
 20
385.529854494346
 30
0.0
 11
167.158029418498
 21
389.279854494346
 31
0.0
 70
    32
  1
<>
 71
     5
 42
-1.0
 53
0.00013888888889
  3
ME10_DIM_12
100
AcDbAlignedDimension
 13
142.6456771949
 23
377.9586421474
 33
0.0
 14
193.6456771949
 24
337.3216088077
 34
0.0
100
AcDbRotatedDimension
  0
DIMENSION
  5
131
330
1F
100
AcDbEntity
  8
1
100
AcDbDimension
  2
*D5
 10
193.6456771949
 20
392.670442596594
 30
0.0
 11
153.930382606138
 21
396.420442596594
 31
0.0
 70
    32
  1
<>
 71
     5
 42
-1.0
 53
0.00013888888889
  3
ME10_DIM_13
100
AcDbAlignedDimension
 13
113.6456771949
 23
377.9586790685
 33
0.0
 14
193.6456771949
 24
337.3216088077
 34
0.0
100
AcDbRotatedDimension
  0
DIMENSION
  5
13C
330
1F
100
AcDbEntity
  8
1
100
AcDbDimension
  2
*D6
 10
193.6456771949
 20
400.162207162886
 30
0.0
 11
131.689206549956
 21
403.912207162886
 31
0.0
 70
    32
  1
<>
 71
     5
 42
-1.0
 53
0.00013888888889
  3
ME10_DIM_14
100
AcDbAlignedDimension
 13
63.6456771949
 23
361.5588706311
 33
0.0
 14
193.6456771949
 24
337.3216088077
 34
0.0
100
AcDbRotatedDimension
  0
INSERT
  5
143
330
1F
100
AcDbEntity
  8
1
100
AcDbBlockReference
  2
*D7
 10
0.0
 20
0.0
 30
0.0
  0
ENDSEC
  0
SECTION
  2
OBJECTS
  0
DICTIONARY
  5
C
330
0
100
AcDbDictionary
281
     1
  3
ACAD_GROUP
350
D
  3
ACAD_LAYOUT
350
1A
  3
ACAD_MLEADERSTYLE
350
146
  3
ACAD_MLINESTYLE
350
17
  3
ACAD_PLOTSETTINGS
350
19
  3
ACAD_PLOTSTYLENAME
350
E
  3
ACAD_SCALELIST
350
4B
  3
ACAD_VISUALSTYLE
350
2A
  3
AcDbVariableDictionary
350
144
  0
DICTIONARY
  5
D
102
{ACAD_REACTORS
330
C
102
}
330
C
100
AcDbDictionary
281
     1
  0
DICTIONARY
  5
1A
102
{ACAD_REACTORS
330
C
102
}
330
C
100
AcDbDictionary
281
     1
  3
Layout1
350
1E
  3
Layout2
350
26
  3
Model
350
22
  0
DICTIONARY
  5
146
102
{ACAD_REACTORS
330
C
102
}
330
C
100
AcDbDictionary
281
     1
  0
DICTIONARY
  5
17
102
{ACAD_REACTORS
330
C
102
}
330
C
100
AcDbDictionary
281
     1
  3
Standard
350
18
  0
DICTIONARY
  5
19
102
{ACAD_REACTORS
330
C
102
}
330
C
100
AcDbDictionary
281
     1
  0
ACDBDICTIONARYWDFLT
  5
E
102
{ACAD_REACTORS
330
C
102
}
330
C
100
AcDbDictionary
281
     1
  3
Normal
350
F
100
AcDbDictionaryWithDefault
340
F
  0
DICTIONARY
  5
4B
102
{ACAD_REACTORS
330
C
102
}
330
C
100
AcDbDictionary
281
     1
  3
A0
350
4C
  3
A1
350
4D
  3
A2
350
4E
  3
A3
350
4F
  3
A4
350
50
  3
A5
350
51
  3
A6
350
52
  3
A7
350
53
  3
A8
350
54
  3
A9
350
55
  3
B0
350
56
  3
B1
350
57
  3
B2
350
58
  3
B3
350
59
  3
B4
350
5A
  3
B5
350
5B
  3
B6
350
5C
  3
B7
350
5D
  3
B8
350
5E
  3
B9
350
5F
  3
C0
350
60
  3
C1
350
61
  3
C2
350
62
  3
C3
350
63
  3
C4
350
64
  3
C5
350
65
  3
C6
350
66
  3
C7
350
67
  3
C8
350
68
  3
C9
350
69
  3
D0
350
6A
  3
D1
350
6B
  3
D2
350
6C
  0
DICTIONARY
  5
2A
102
{ACAD_REACTORS
330
C
102
}
330
C
100
AcDbDictionary
281
     1
  3
2dWireframe
350
2F
  3
3D Hidden
350
31
  3
3dWireframe
350
30
  3
Basic
350
32
  3
Brighten
350
36
  3
ColorChange
350
3A
  3
Conceptual
350
34
  3
Dim
350
35
  3
Facepattern
350
39
  3
Flat
350
2B
  3
FlatWithEdges
350
2C
  3
Gouraud
350
2D
  3
GouraudWithEdges
350
2E
  3
Linepattern
350
38
  3
Realistic
350
33
  3
Thicken
350
37
  0
DICTIONARY
  5
144
102
{ACAD_REACTORS
330
C
102
}
330
C
100
AcDbDictionary
281
     1
  3
CANNOSCALE
350
147
  0
LAYOUT
  5
1E
102
{ACAD_REACTORS
330
1A
102
}
330
1A
100
AcDbPlotSettings
  1

  2
none_device
  4

  6

 40
0.0
 41
0.0
 42
0.0
 43
0.0
 44
0.0
 45
0.0
 46
0.0
 47
0.0
 48
0.0
 49
0.0
140
0.0
141
0.0
142
1.0
143
1.0
 70
   688
 72
     0
 73
     0
 74
     5
  7

 75
    16
147
1.0
148
0.0
149
0.0
100
AcDbLayout
  1
Layout1
 70
     1
 71
     1
 10
0.0
 20
0.0
 11
12.0
 21
9.0
 12
0.0
 22
0.0
 32
0.0
 14
1.00000000000000E+20
 24
1.00000000000000E+20
 34
1.00000000000000E+20
 15
-1.00000000000000E+20
 25
-1.00000000000000E+20
 35
-1.00000000000000E+20
146
0.0
 13
0.0
 23
0.0
 33
0.0
 16
1.0
 26
0.0
 36
0.0
 17
0.0
 27
1.0
 37
0.0
 76
     0
330
1B
  0
LAYOUT
  5
26
102
{ACAD_REACTORS
330
1A
102
}
330
1A
100
AcDbPlotSettings
  1

  2
none_device
  4

  6

 40
0.0
 41
0.0
 42
0.0
 43
0.0
 44
0.0
 45
0.0
 46
0.0
 47
0.0
 48
0.0
 49
0.0
140
0.0
141
0.0
142
1.0
143
1.0
 70
   688
 72
     0
 73
     0
 74
     5
  7

 75
    16
147
1.0
148
0.0
149
0.0
100
AcDbLayout
  1
Layout2
 70
     1
 71
     2
 10
0.0
 20
0.0
 11
0.0
 21
0.0
 12
0.0
 22
0.0
 32
0.0
 14
0.0
 24
0.0
 34
0.0
 15
0.0
 25
0.0
 35
0.0
146
0.0
 13
0.0
 23
0.0
 33
0.0
 16
1.0
 26
0.0
 36
0.0
 17
0.0
 27
1.0
 37
0.0
 76
     0
330
23
  0
LAYOUT
  5
22
102
{ACAD_REACTORS
330
1A
102
}
330
1A
100
AcDbPlotSettings
  1

  2
none_device
  4

  6

 40
0.0
 41
0.0
 42
0.0
 43
0.0
 44
0.0
 45
0.0
 46
0.0
 47
0.0
 48
0.0
 49
0.0
140
0.0
141
0.0
142
1.0
143
1.0
 70
  1712
 72
     0
 73
     0
 74
     0
  7

 75
     0
147
1.0
148
0.0
149
0.0
100
AcDbLayout
  1
Model
 70
     1
 71
     0
 10
0.0
 20
0.0
 11
12.0
 21
9.0
 12
0.0
 22
0.0
 32
0.0
 14
40.1099471728696
 24
277.9586790685
 34
0.0
 15
216.332734421872
 25
405.662207162886
 35
0.0
146
0.0
 13
0.0
 23
0.0
 33
0.0
 16
1.0
 26
0.0
 36
0.0
 17
0.0
 27
1.0
 37
0.0
 76
     0
330
1F
331
29
  0
MLINESTYLE
  5
18
102
{ACAD_REACTORS
330
17
102
}
330
17
100
AcDbMlineStyle
  2
Standard
 70
     0
  3

 62
   256
 51
90.0
 52
90.0
 71
     2
 49
0.5
 62
   256
  6
BYLAYER
 49
-0.5
 62
   256
  6
BYLAYER
  0
ACDBPLACEHOLDER
  5
F
102
{ACAD_REACTORS
330
E
102
}
330
E
  0
SCALE
  5
4C
102
{ACAD_REACTORS
330
4B
102
}
330
4B
100
AcDbScale
 70
     0
300
1:1
140
1.0
141
1.0
290
     1
  0
SCALE
  5
4D
102
{ACAD_REACTORS
330
4B
102
}
330
4B
100
AcDbScale
 70
     0
300
1:2
140
1.0
141
2.0
290
     0
  0
SCALE
  5
4E
102
{ACAD_REACTORS
330
4B
102
}
330
4B
100
AcDbScale
 70
     0
300
1:4
140
1.0
141
4.0
290
     0
  0
SCALE
  5
4F
102
{ACAD_REACTORS
330
4B
102
}
330
4B
100
AcDbScale
 70
     0
300
1:5
140
1.0
141
5.0
290
     0
  0
SCALE
  5
50
102
{ACAD_REACTORS
330
4B
102
}
330
4B
100
AcDbScale
 70
     0
300
1:8
140
1.0
141
8.0
290
     0
  0
SCALE
  5
51
102
{ACAD_REACTORS
330
4B
102
}
330
4B
100
AcDbScale
 70
     0
300
1:10
140
1.0
141
10.0
290
     0
  0
SCALE
  5
52
102
{ACAD_REACTORS
330
4B
102
}
330
4B
100
AcDbScale
 70
     0
300
1:16
140
1.0
141
16.0
290
     0
  0
SCALE
  5
53
102
{ACAD_REACTORS
330
4B
102
}
330
4B
100
AcDbScale
 70
     0
300
1:20
140
1.0
141
20.0
290
     0
  0
SCALE
  5
54
102
{ACAD_REACTORS
330
4B
102
}
330
4B
100
AcDbScale
 70
     0
300
1:30
140
1.0
141
30.0
290
     0
  0
SCALE
  5
55
102
{ACAD_REACTORS
330
4B
102
}
330
4B
100
AcDbScale
 70
     0
300
1:40
140
1.0
141
40.0
290
     0
  0
SCALE
  5
56
102
{ACAD_REACTORS
330
4B
102
}
330
4B
100
AcDbScale
 70
     0
300
1:50
140
1.0
141
50.0
290
     0
  0
SCALE
  5
57
102
{ACAD_REACTORS
330
4B
102
}
330
4B
100
AcDbScale
 70
     0
300
1:100
140
1.0
141
100.0
290
     0
  0
SCALE
  5
58
102
{ACAD_REACTORS
330
4B
102
}
330
4B
100
AcDbScale
 70
     0
300
2:1
140
2.0
141
1.0
290
     0
  0
SCALE
  5
59
102
{ACAD_REACTORS
330
4B
102
}
330
4B
100
AcDbScale
 70
     0
300
4:1
140
4.0
141
1.0
290
     0
  0
SCALE
  5
5A
102
{ACAD_REACTORS
330
4B
102
}
330
4B
100
AcDbScale
 70
     0
300
8:1
140
8.0
141
1.0
290
     0
  0
SCALE
  5
5B
102
{ACAD_REACTORS
330
4B
102
}
330
4B
100
AcDbScale
 70
     0
300
10:1
140
10.0
141
1.0
290
     0
  0
SCALE
  5
5C
102
{ACAD_REACTORS
330
4B
102
}
330
4B
100
AcDbScale
 70
     0
300
100:1
140
100.0
141
1.0
290
     0
  0
SCALE
  5
5D
102
{ACAD_REACTORS
330
4B
102
}
330
4B
100
AcDbScale
 70
     0
300
1/128" = 1'-0"
140
0.0078125
141
12.0
290
     0
  0
SCALE
  5
5E
102
{ACAD_REACTORS
330
4B
102
}
330
4B
100
AcDbScale
 70
     0
300
1/64" = 1'-0"
140
0.015625
141
12.0
290
     0
  0
SCALE
  5
5F
102
{ACAD_REACTORS
330
4B
102
}
330
4B
100
AcDbScale
 70
     0
300
1/32" = 1'-0"
140
0.03125
141
12.0
290
     0
  0
SCALE
  5
60
102
{ACAD_REACTORS
330
4B
102
}
330
4B
100
AcDbScale
 70
     0
300
1/16" = 1'-0"
140
0.0625
141
12.0
290
     0
  0
SCALE
  5
61
102
{ACAD_REACTORS
330
4B
102
}
330
4B
100
AcDbScale
 70
     0
300
3/32" = 1'-0"
140
0.09375
141
12.0
290
     0
  0
SCALE
  5
62
102
{ACAD_REACTORS
330
4B
102
}
330
4B
100
AcDbScale
 70
     0
300
1/8" = 1'-0"
140
0.125
141
12.0
290
     0
  0
SCALE
  5
63
102
{ACAD_REACTORS
330
4B
102
}
330
4B
100
AcDbScale
 70
     0
300
3/16" = 1'-0"
140
0.1875
141
12.0
290
     0
  0
SCALE
  5
64
102
{ACAD_REACTORS
330
4B
102
}
330
4B
100
AcDbScale
 70
     0
300
1/4" = 1'-0"
140
0.25
141
12.0
290
     0
  0
SCALE
  5
65
102
{ACAD_REACTORS
330
4B
102
}
330
4B
100
AcDbScale
 70
     0
300
3/8" = 1'-0"
140
0.375
141
12.0
290
     0
  0
SCALE
  5
66
102
{ACAD_REACTORS
330
4B
102
}
330
4B
100
AcDbScale
 70
     0
300
1/2" = 1'-0"
140
0.5
141
12.0
290
     0
  0
SCALE
  5
67
102
{ACAD_REACTORS
330
4B
102
}
330
4B
100
AcDbScale
 70
     0
300
3/4" = 1'-0"
140
0.75
141
12.0
290
     0
  0
SCALE
  5
68
102
{ACAD_REACTORS
330
4B
102
}
330
4B
100
AcDbScale
 70
     0
300
1" = 1'-0"
140
1.0
141
12.0
290
     0
  0
SCALE
  5
69
102
{ACAD_REACTORS
330
4B
102
}
330
4B
100
AcDbScale
 70
     0
300
1-1/2" = 1'-0"
140
1.5
141
12.0
290
     0
  0
SCALE
  5
6A
102
{ACAD_REACTORS
330
4B
102
}
330
4B
100
AcDbScale
 70
     0
300
3" = 1'-0"
140
3.0
141
12.0
290
     0
  0
SCALE
  5
6B
102
{ACAD_REACTORS
330
4B
102
}
330
4B
100
AcDbScale
 70
     0
300
6" = 1'-0"
140
6.0
141
12.0
290
     0
  0
SCALE
  5
6C
102
{ACAD_REACTORS
330
4B
102
}
330
4B
100
AcDbScale
 70
     0
300
1'-0" = 1'-0"
140
12.0
141
12.0
290
     0
  0
VISUALSTYLE
  5
2F
102
{ACAD_REACTORS
330
2A
102
}
330
2A
100
AcDbVisualStyle
  2
2dWireframe
 70
     4
 71
     0
 72
     2
 73
     0
 90
        0
 40
-0.6
 41
-30.0
 62
     5
 63
     7
 74
     1
 91
        4
 64
     7
 65
   257
 75
     1
175
     1
 42
1.0
 92
        0
 66
   257
 43
1.0
 76
     1
 77
     6
 78
     2
 67
     7
 79
     5
170
     0
171
     0
290
     0
174
     0
 93
        1
 44
0.0
173
     0
291
     0
 45
0.0
1001
ACAD
1000
AcDbSavedByObjectVersion
1070
     0
  0
VISUALSTYLE
  5
31
102
{ACAD_REACTORS
330
2A
102
}
330
2A
100
AcDbVisualStyle
  2
3D Hidden
 70
     6
 71
     1
 72
     2
 73
     2
 90
        0
 40
-0.6
 41
-30.0
 62
     5
 63
     7
 74
     2
 91
        2
 64
     7
 65
   257
 75
     2
175
     1
 42
40.0
 92
        0
 66
   257
 43
1.0
 76
     1
 77
     6
 78
     2
 67
     7
 79
     3
170
     0
171
     0
290
     0
174
     0
 93
        1
 44
0.0
173
     0
291
     0
 45
0.0
1001
ACAD
1000
AcDbSavedByObjectVersion
1070
     0
  0
VISUALSTYLE
  5
30
102
{ACAD_REACTORS
330
2A
102
}
330
2A
100
AcDbVisualStyle
  2
3dWireframe
 70
     5
 71
     0
 72
     2
 73
     0
 90
        0
 40
-0.6
 41
-30.0
 62
     5
 63
     7
 74
     1
 91
        4
 64
     7
 65
   257
 75
     1
175
     1
 42
1.0
 92
        0
 66
   257
 43
1.0
 76
     1
 77
     6
 78
     2
 67
     7
 79
     5
170
     0
171
     0
290
     0
174
     0
 93
        1
 44
0.0
173
     0
291
     0
 45
0.0
1001
ACAD
1000
AcDbSavedByObjectVersion
1070
     0
  0
VISUALSTYLE
  5
32
102
{ACAD_REACTORS
330
2A
102
}
330
2A
100
AcDbVisualStyle
  2
Basic
 70
     7
 71
     1
 72
     0
 73
     1
 90
        0
 40
-0.6
 41
-30.0
 62
     5
 63
     7
 74
     0
 91
        4
 64
     7
 65
   257
 75
     1
175
     1
 42
1.0
 92
        8
 66
     7
 43
1.0
 76
     1
 77
     6
 78
     2
 67
     7
 79
     5
170
     0
171
     0
290
     0
174
     0
 93
        1
 44
0.0
173
     0
291
     1
 45
0.0
1001
ACAD
1000
AcDbSavedByObjectVersion
1070
     0
  0
VISUALSTYLE
  5
36
102
{ACAD_REACTORS
330
2A
102
}
330
2A
100
AcDbVisualStyle
  2
Brighten
 70
    12
 71
     2
 72
     2
 73
     0
 90
        0
 40
-0.6
 41
-30.0
 62
     5
 63
     7
 74
     1
 91
        4
 64
     7
 65
   257
 75
     1
175
     1
 42
1.0
 92
        8
 66
     7
 43
1.0
 76
     1
 77
     6
 78
     2
 67
     7
 79
     5
170
     0
171
     0
290
     0
174
     0
 93
        1
 44
50.0
173
     0
291
     1
 45
0.0
1001
ACAD
1000
AcDbSavedByObjectVersion
1070
     0
  0
VISUALSTYLE
  5
3A
102
{ACAD_REACTORS
330
2A
102
}
330
2A
100
AcDbVisualStyle
  2
ColorChange
 70
    16
 71
     2
 72
     2
 73
     3
 90
        0
 40
-0.6
 41
-30.0
 62
     5
 63
     8
 74
     1
 91
        4
 64
     7
 65
   257
 75
     1
175
     1
 42
1.0
 92
        8
 66
     8
 43
1.0
 76
     1
 77
     6
 78
     2
 67
     7
 79
     5
170
     0
171
     0
290
     0
174
     0
 93
        1
 44
0.0
173
     0
291
     1
 45
0.0
1001
ACAD
1000
AcDbSavedByObjectVersion
1070
     0
  0
VISUALSTYLE
  5
34
102
{ACAD_REACTORS
330
2A
102
}
330
2A
100
AcDbVisualStyle
  2
Conceptual
 70
     9
 71
     3
 72
     2
 73
     0
 90
        0
 40
-0.6
 41
-30.0
 62
     5
 63
     7
 74
     2
 91
        2
 64
     7
 65
   257
 75
     1
175
     1
 42
40.0
 92
        8
 66
     7
 43
1.0
 76
     1
 77
     6
 78
     2
 67
     7
 79
     3
170
     0
171
     0
290
     0
174
     0
 93
        1
 44
0.0
173
     0
291
     0
 45
0.0
1001
ACAD
1000
AcDbSavedByObjectVersion
1070
     0
  0
VISUALSTYLE
  5
35
102
{ACAD_REACTORS
330
2A
102
}
330
2A
100
AcDbVisualStyle
  2
Dim
 70
    11
 71
     2
 72
     2
 73
     0
 90
        0
 40
-0.6
 41
-30.0
 62
     5
 63
     7
 74
     1
 91
        4
 64
     7
 65
   257
 75
     1
175
     1
 42
1.0
 92
        8
 66
     7
 43
1.0
 76
     1
 77
     6
 78
     2
 67
     7
 79
     5
170
     0
171
     0
290
     0
174
     0
 93
        1
 44
-50.0
173
     0
291
     1
 45
0.0
1001
ACAD
1000
AcDbSavedByObjectVersion
1070
     0
  0
VISUALSTYLE
  5
39
102
{ACAD_REACTORS
330
2A
102
}
330
2A
100
AcDbVisualStyle
  2
Facepattern
 70
    15
 71
     2
 72
     2
 73
     0
 90
        0
 40
-0.6
 41
-30.0
 62
     5
 63
     7
 74
     1
 91
        4
 64
     7
 65
   257
 75
     1
175
     1
 42
1.0
 92
        8
 66
     7
 43
1.0
 76
     1
 77
     6
 78
     2
 67
     7
 79
     5
170
     0
171
     0
290
     0
174
     0
 93
        1
 44
0.0
173
     0
291
     1
 45
0.0
1001
ACAD
1000
AcDbSavedByObjectVersion
1070
     0
  0
VISUALSTYLE
  5
2B
102
{ACAD_REACTORS
330
2A
102
}
330
2A
100
AcDbVisualStyle
  2
Flat
 70
     0
 71
     2
 72
     1
 73
     1
 90
        2
 40
-0.6
 41
30.0
 62
     5
 63
     7
 74
     0
 91
        4
 64
     7
 65
   257
 75
     1
175
     1
 42
1.0
 92
        8
 66
     7
 43
1.0
 76
     1
 77
     6
 78
     2
 67
     7
 79
     5
170
     0
171
     0
290
     0
174
     0
 93
       13
 44
0.0
173
     0
291
     1
 45
0.0
1001
ACAD
1000
AcDbSavedByObjectVersion
1070
     0
  0
VISUALSTYLE
  5
2C
102
{ACAD_REACTORS
330
2A
102
}
330
2A
100
AcDbVisualStyle
  2
FlatWithEdges
 70
     1
 71
     2
 72
     1
 73
     1
 90
        2
 40
-0.6
 41
30.0
 62
     5
 63
     7
 74
     1
 91
        4
 64
     7
 65
   257
 75
     1
175
     1
 42
1.0
 92
        0
 66
   257
 43
1.0
 76
     1
 77
     6
 78
     2
 67
     7
 79
     5
170
     0
171
     0
290
     0
174
     0
 93
       13
 44
0.0
173
     0
291
     1
 45
0.0
1001
ACAD
1000
AcDbSavedByObjectVersion
1070
     0
  0
VISUALSTYLE
  5
2D
102
{ACAD_REACTORS
330
2A
102
}
330
2A
100
AcDbVisualStyle
  2
Gouraud
 70
     2
 71
     2
 72
     2
 73
     1
 90
        2
 40
-0.6
 41
30.0
 62
     5
 63
     7
 74
     0
 91
        4
 64
     7
 65
   257
 75
     1
175
     1
 42
1.0
 92
        0
 66
     7
 43
1.0
 76
     1
 77
     6
 78
     2
 67
     7
 79
     5
170
     0
171
     0
290
     0
174
     0
 93
       13
 44
0.0
173
     0
291
     1
 45
0.0
1001
ACAD
1000
AcDbSavedByObjectVersion
1070
     0
  0
VISUALSTYLE
  5
2E
102
{ACAD_REACTORS
330
2A
102
}
330
2A
100
AcDbVisualStyle
  2
GouraudWithEdges
 70
     3
 71
     2
 72
     2
 73
     1
 90
        2
 40
-0.6
 41
30.0
 62
     5
 63
     7
 74
     1
 91
        4
 64
     7
 65
   257
 75
     1
175
     1
 42
1.0
 92
        0
 66
   257
 43
1.0
 76
     1
 77
     6
 78
     2
 67
     7
 79
     5
170
     0
171
     0
290
     0
174
     0
 93
       13
 44
0.0
173
     0
291
     1
 45
0.0
1001
ACAD
1000
AcDbSavedByObjectVersion
1070
     0
  0
VISUALSTYLE
  5
38
102
{ACAD_REACTORS
330
2A
102
}
330
2A
100
AcDbVisualStyle
  2
Linepattern
 70
    14
 71
     2
 72
     2
 73
     0
 90
        0
 40
-0.6
 41
-30.0
 62
     5
 63
     7
 74
     1
 91
        4
 64
     7
 65
   257
 75
     7
175
     7
 42
1.0
 92
        8
 66
     7
 43
1.0
 76
     1
 77
     6
 78
     2
 67
     7
 79
     5
170
     0
171
     0
290
     0
174
     0
 93
        1
 44
0.0
173
     0
291
     1
 45
0.0
1001
ACAD
1000
AcDbSavedByObjectVersion
1070
     0
  0
VISUALSTYLE
  5
33
102
{ACAD_REACTORS
330
2A
102
}
330
2A
100
AcDbVisualStyle
  2
Realistic
 70
     8
 71
     2
 72
     2
 73
     0
 90
        0
 40
-0.6
 41
-30.0
 62
     5
 63
     7
 74
     1
 91
        0
 64
     7
 65
   257
 75
     1
175
     1
 42
1.0
 92
        8
 66
     8
 43
1.0
 76
     1
 77
     6
 78
     2
 67
     7
 79
     5
170
     0
171
     0
290
     0
174
     0
 93
       13
 44
0.0
173
     0
291
     0
 45
0.0
1001
ACAD
1000
AcDbSavedByObjectVersion
1070
     0
  0
VISUALSTYLE
  5
37
102
{ACAD_REACTORS
330
2A
102
}
330
2A
100
AcDbVisualStyle
  2
Thicken
 70
    13
 71
     2
 72
     2
 73
     0
 90
        0
 40
-0.6
 41
-30.0
 62
     5
 63
     7
 74
     1
 91
        4
 64
     7
 65
   257
 75
     1
175
     1
 42
1.0
 92
       12
 66
     7
 43
1.0
 76
     1
 77
     6
 78
     2
 67
     7
 79
     5
170
     0
171
     0
290
     0
174
     0
 93
        1
 44
0.0
173
     0
291
     1
 45
0.0
1001
ACAD
1000
AcDbSavedByObjectVersion
1070
     0
  0
DICTIONARYVAR
  5
147
102
{ACAD_REACTORS
330
144
102
}
330
144
100
DictionaryVariables
280
     0
  1
1:1
  0
ENDSEC
  0
EOF
