  0
SECTION
  2
HEADER
  9
$ACADVER
  1
AC1015
  9
$ACADMAINTVER
 70
     6
  9
$DWGCODEPAGE
  3
ANSI_1252
  9
$INSBASE
 10
0.0
 20
0.0
 30
0.0
  9
$EXTMIN
 10
50.24341246084541
 20
254.1634441919188
 30
0.0
  9
$EXTMAX
 10
239.39344005572
 20
362.932831109225
 30
0.0
  9
$LIMMIN
 10
0.0
 20
0.0
  9
$LIMMAX
 10
12.0
 20
9.0
  9
$ORTHOMODE
 70
     0
  9
$REGENMODE
 70
     1
  9
$FILLMODE
 70
     1
  9
$QTEXTMODE
 70
     0
  9
$MIRRTEXT
 70
     1
  9
$LTSCALE
 40
1.0
  9
$ATTMODE
 70
     1
  9
$TEXTSIZE
 40
0.2
  9
$TRACEWID
 40
0.05
  9
$TEXTSTYLE
  7
Standard
  9
$CLAYER
  8
0
  9
$CELTYPE
  6
ByLayer
  9
$CECOLOR
 62
   256
  9
$CELTSCALE
 40
1.0
  9
$DISPSILH
 70
     0
  9
$DIMSCALE
 40
1.0
  9
$DIMASZ
 40
0.18
  9
$DIMEXO
 40
0.0625
  9
$DIMDLI
 40
0.38
  9
$DIMRND
 40
0.0
  9
$DIMDLE
 40
0.0
  9
$DIMEXE
 40
0.18
  9
$DIMTP
 40
0.0
  9
$DIMTM
 40
0.0
  9
$DIMTXT
 40
0.18
  9
$DIMCEN
 40
0.09
  9
$DIMTSZ
 40
0.0
  9
$DIMTOL
 70
     0
  9
$DIMLIM
 70
     0
  9
$DIMTIH
 70
     1
  9
$DIMTOH
 70
     1
  9
$DIMSE1
 70
     0
  9
$DIMSE2
 70
     0
  9
$DIMTAD
 70
     0
  9
$DIMZIN
 70
     0
  9
$DIMBLK
  1

  9
$DIMASO
 70
     1
  9
$DIMSHO
 70
     1
  9
$DIMPOST
  1

  9
$DIMAPOST
  1

  9
$DIMALT
 70
     0
  9
$DIMALTD
 70
     2
  9
$DIMALTF
 40
25.4
  9
$DIMLFAC
 40
1.0
  9
$DIMTOFL
 70
     0
  9
$DIMTVP
 40
0.0
  9
$DIMTIX
 70
     0
  9
$DIMSOXD
 70
     0
  9
$DIMSAH
 70
     0
  9
$DIMBLK1
  1

  9
$DIMBLK2
  1

  9
$DIMSTYLE
  2
Standard
  9
$DIMCLRD
 70
     0
  9
$DIMCLRE
 70
     0
  9
$DIMCLRT
 70
     0
  9
$DIMTFAC
 40
1.0
  9
$DIMGAP
 40
0.09
  9
$DIMJUST
 70
     0
  9
$DIMSD1
 70
     0
  9
$DIMSD2
 70
     0
  9
$DIMTOLJ
 70
     1
  9
$DIMTZIN
 70
     0
  9
$DIMALTZ
 70
     0
  9
$DIMALTTZ
 70
     0
  9
$DIMUPT
 70
     0
  9
$DIMDEC
 70
     4
  9
$DIMTDEC
 70
     4
  9
$DIMALTU
 70
     2
  9
$DIMALTTD
 70
     2
  9
$DIMTXSTY
  7
Standard
  9
$DIMAUNIT
 70
     0
  9
$DIMADEC
 70
     0
  9
$DIMALTRND
 40
0.0
  9
$DIMAZIN
 70
     0
  9
$DIMDSEP
 70
    46
  9
$DIMATFIT
 70
     3
  9
$DIMFRAC
 70
     0
  9
$DIMLDRBLK
  1

  9
$DIMLUNIT
 70
     2
  9
$DIMLWD
 70
    -2
  9
$DIMLWE
 70
    -2
  9
$DIMTMOVE
 70
     0
  9
$LUNITS
 70
     2
  9
$LUPREC
 70
     4
  9
$SKETCHINC
 40
0.1
  9
$FILLETRAD
 40
0.5
  9
$AUNITS
 70
     0
  9
$AUPREC
 70
     0
  9
$MENU
  1
.
  9
$ELEVATION
 40
0.0
  9
$PELEVATION
 40
0.0
  9
$THICKNESS
 40
0.0
  9
$LIMCHECK
 70
     0
  9
$CHAMFERA
 40
0.5
  9
$CHAMFERB
 40
0.5
  9
$CHAMFERC
 40
1.0
  9
$CHAMFERD
 40
0.0
  9
$SKPOLY
 70
     0
  9
$TDCREATE
 40
2456749.74999603
  9
$TDUCREATE
 40
2456749.666662697
  9
$TDUPDATE
 40
2456749.749996042
  9
$TDUUPDATE
 40
2456749.666662708
  9
$TDINDWG
 40
0.0000000116
  9
$TDUSRTIMER
 40
0.0000000116
  9
$USRTIMER
 70
     1
  9
$ANGBASE
 50
0.0
  9
$ANGDIR
 70
     0
  9
$PDMODE
 70
     0
  9
$PDSIZE
 40
0.0
  9
$PLINEWID
 40
0.0
  9
$SPLFRAME
 70
     0
  9
$SPLINETYPE
 70
     6
  9
$SPLINESEGS
 70
     8
  9
$HANDSEED
  5
130
  9
$SURFTAB1
 70
     6
  9
$SURFTAB2
 70
     6
  9
$SURFTYPE
 70
     6
  9
$SURFU
 70
     6
  9
$SURFV
 70
     6
  9
$UCSBASE
  2

  9
$UCSNAME
  2

  9
$UCSORG
 10
0.0
 20
0.0
 30
0.0
  9
$UCSXDIR
 10
1.0
 20
0.0
 30
0.0
  9
$UCSYDIR
 10
0.0
 20
1.0
 30
0.0
  9
$UCSORTHOREF
  2

  9
$UCSORTHOVIEW
 70
     0
  9
$UCSORGTOP
 10
0.0
 20
0.0
 30
0.0
  9
$UCSORGBOTTOM
 10
0.0
 20
0.0
 30
0.0
  9
$UCSORGLEFT
 10
0.0
 20
0.0
 30
0.0
  9
$UCSORGRIGHT
 10
0.0
 20
0.0
 30
0.0
  9
$UCSORGFRONT
 10
0.0
 20
0.0
 30
0.0
  9
$UCSORGBACK
 10
0.0
 20
0.0
 30
0.0
  9
$PUCSBASE
  2

  9
$PUCSNAME
  2

  9
$PUCSORG
 10
0.0
 20
0.0
 30
0.0
  9
$PUCSXDIR
 10
1.0
 20
0.0
 30
0.0
  9
$PUCSYDIR
 10
0.0
 20
1.0
 30
0.0
  9
$PUCSORTHOREF
  2

  9
$PUCSORTHOVIEW
 70
     0
  9
$PUCSORGTOP
 10
0.0
 20
0.0
 30
0.0
  9
$PUCSORGBOTTOM
 10
0.0
 20
0.0
 30
0.0
  9
$PUCSORGLEFT
 10
0.0
 20
0.0
 30
0.0
  9
$PUCSORGRIGHT
 10
0.0
 20
0.0
 30
0.0
  9
$PUCSORGFRONT
 10
0.0
 20
0.0
 30
0.0
  9
$PUCSORGBACK
 10
0.0
 20
0.0
 30
0.0
  9
$USERI1
 70
     0
  9
$USERI2
 70
     0
  9
$USERI3
 70
     0
  9
$USERI4
 70
     0
  9
$USERI5
 70
     0
  9
$USERR1
 40
16.5
  9
$USERR2
 40
0.0
  9
$USERR3
 40
0.0
  9
$USERR4
 40
0.0
  9
$USERR5
 40
0.0
  9
$WORLDVIEW
 70
     1
  9
$SHADEDGE
 70
     3
  9
$SHADEDIF
 70
    70
  9
$TILEMODE
 70
     1
  9
$MAXACTVP
 70
    64
  9
$PINSBASE
 10
0.0
 20
0.0
 30
0.0
  9
$PLIMCHECK
 70
     0
  9
$PEXTMIN
 10
1.00000000000000E+20
 20
1.00000000000000E+20
 30
1.00000000000000E+20
  9
$PEXTMAX
 10
-1.00000000000000E+20
 20
-1.00000000000000E+20
 30
-1.00000000000000E+20
  9
$PLIMMIN
 10
0.0
 20
0.0
  9
$PLIMMAX
 10
12.0
 20
9.0
  9
$UNITMODE
 70
     0
  9
$VISRETAIN
 70
     1
  9
$PLINEGEN
 70
     0
  9
$PSLTSCALE
 70
     1
  9
$TREEDEPTH
 70
  3020
  9
$CMLSTYLE
  2
Standard
  9
$CMLJUST
 70
     0
  9
$CMLSCALE
 40
1.0
  9
$PROXYGRAPHICS
 70
     1
  9
$MEASUREMENT
 70
     1
  9
$CELWEIGHT
370
    -1
  9
$ENDCAPS
280
     0
  9
$JOINSTYLE
280
     0
  9
$LWDISPLAY
290
     0
  9
$INSUNITS
 70
     1
  9
$HYPERLINKBASE
  1

  9
$STYLESHEET
  1

  9
$XEDIT
290
     1
  9
$CEPSNTYPE
380
     0
  9
$PSTYLEMODE
290
     1
  9
$FINGERPRINTGUID
  2
{3883E435-8B4D-486E-A54D-1850CDE8CDF1}
  9
$VERSIONGUID
  2
{FAEB1C32-E019-11D5-929B-00C0DF256EC4}
  9
$EXTNAMES
290
     1
  9
$PSVPSCALE
 40
0.0
  9
$OLESTARTUP
290
     0
  0
ENDSEC
  0
SECTION
  2
CLASSES
  0
CLASS
  1
ACDBDICTIONARYWDFLT
  2
AcDbDictionaryWithDefault
  3
ObjectDBX Classes
 90
        0
280
     0
281
     0
  0
CLASS
  1
VISUALSTYLE
  2
AcDbVisualStyle
  3
ObjectDBX Classes
 90
     4095
280
     0
281
     0
  0
CLASS
  1
SCALE
  2
AcDbScale
  3
ObjectDBX Classes
 90
     1153
280
     0
281
     0
  0
CLASS
  1

  2
exOdDbPolyline
  3

 90
        0
280
     0
281
     1
  0
CLASS
  1

  2
exOdDbCircle
  3

 90
        0
280
     0
281
     1
  0
CLASS
  1

  2
exOdDbSpline
  3

 90
        0
280
     0
281
     1
  0
CLASS
  1
DICTIONARYVAR
  2
AcDbDictionaryVar
  3
ObjectDBX Classes
 90
        0
280
     0
281
     0
  0
CLASS
  1
ACDBPLACEHOLDER
  2
AcDbPlaceHolder
  3
ObjectDBX Classes
 90
        0
280
     0
281
     0
  0
CLASS
  1
LAYOUT
  2
AcDbLayout
  3
ObjectDBX Classes
 90
        0
280
     0
281
     0
  0
ENDSEC
  0
SECTION
  2
TABLES
  0
TABLE
  2
VPORT
  5
8
330
0
100
AcDbSymbolTable
 70
     1
  0
VPORT
  5
29
330
8
100
AcDbSymbolTableRecord
100
AcDbViewportTableRecord
  2
*Active
 70
     0
 10
0.0
 20
0.0
 11
1.0
 21
1.0
 12
144.8184262582827
 22
308.5481376505719
 13
0.0
 23
0.0
 14
0.5
 24
0.5
 15
0.5
 25
0.5
 16
0.0
 26
0.0
 36
1.0
 17
0.0
 27
0.0
 37
0.0
 40
129.8233058478471
 41
1.60267857142857
 42
50.0
 43
0.0
 44
0.0
 50
0.0
 51
0.0
 71
     0
 72
   100
 73
     1
 74
     3
 75
     0
 76
     0
 77
     0
 78
     0
281
     0
 65
     1
110
0.0
120
0.0
130
0.0
111
1.0
121
0.0
131
0.0
112
0.0
122
1.0
132
0.0
 79
     0
146
0.0
  0
ENDTAB
  0
TABLE
  2
LTYPE
  5
5
330
0
100
AcDbSymbolTable
 70
     8
  0
LTYPE
  5
14
330
5
100
AcDbSymbolTableRecord
100
AcDbLinetypeTableRecord
  2
ByBlock
 70
     0
  3

 72
    65
 73
     0
 40
0.0
  0
LTYPE
  5
15
330
5
100
AcDbSymbolTableRecord
100
AcDbLinetypeTableRecord
  2
ByLayer
 70
     0
  3

 72
    65
 73
     0
 40
0.0
  0
LTYPE
  5
16
330
5
100
AcDbSymbolTableRecord
100
AcDbLinetypeTableRecord
  2
Continuous
 70
     0
  3
Solid line
 72
    65
 73
     0
 40
0.0
  0
LTYPE
  5
3B
330
5
100
AcDbSymbolTableRecord
100
AcDbLinetypeTableRecord
  2
DASHED
 70
     0
  3
Dashed
 72
    65
 73
     2
 40
15.0
 49
7.0
 74
     0
 49
-8.0
 74
     0
  0
LTYPE
  5
3C
330
5
100
AcDbSymbolTableRecord
100
AcDbLinetypeTableRecord
  2
DOTTED
 70
     0
  3
Dotted
 72
    65
 73
     2
 40
1.0
 49
0.0
 74
     0
 49
-1.0
 74
     0
  0
LTYPE
  5
3D
330
5
100
AcDbSymbolTableRecord
100
AcDbLinetypeTableRecord
  2
DOT_CENTER
 70
     0
  3
Dot_Center
 72
    65
 73
     4
 40
14.0
 49
12.0
 74
     0
 49
-1.0
 74
     0
 49
0.0
 74
     0
 49
-1.0
 74
     0
  0
LTYPE
  5
3E
330
5
100
AcDbSymbolTableRecord
100
AcDbLinetypeTableRecord
  2
LONG_DASHED
 70
     0
  3
Long_Dashed
 72
    65
 73
     2
 40
15.0
 49
10.0
 74
     0
 49
-5.0
 74
     0
  0
LTYPE
  5
3F
330
5
100
AcDbSymbolTableRecord
100
AcDbLinetypeTableRecord
  2
DASH_CENTER
 70
     0
  3
Dash_Center
 72
    65
 73
     4
 40
14.0
 49
11.0
 74
     0
 49
-1.0
 74
     0
 49
1.0
 74
     0
 49
-1.0
 74
     0
  0
LTYPE
  5
40
330
5
100
AcDbSymbolTableRecord
100
AcDbLinetypeTableRecord
  2
PHANTOM
 70
     0
  3
Phantom
 72
    65
 73
     6
 40
13.0
 49
10.0
 74
     0
 49
-1.0
 74
     0
 49
0.0
 74
     0
 49
-1.0
 74
     0
 49
0.0
 74
     0
 49
-1.0
 74
     0
  0
LTYPE
  5
41
330
5
100
AcDbSymbolTableRecord
100
AcDbLinetypeTableRecord
  2
CENTER_DASH_DASH
 70
     0
  3
Center_Dash_Dash
 72
    65
 73
     6
 40
14.0
 49
9.0
 74
     0
 49
-1.0
 74
     0
 49
1.0
 74
     0
 49
-1.0
 74
     0
 49
1.0
 74
     0
 49
-1.0
 74
     0
  0
ENDTAB
  0
TABLE
  2
LAYER
  5
2
330
0
100
AcDbSymbolTable
 70
     6
  0
LAYER
  5
10
330
2
100
AcDbSymbolTableRecord
100
AcDbLayerTableRecord
  2
0
 70
     0
 62
     7
  6
Continuous
370
    -3
390
F
  0
LAYER
  5
42
330
2
100
AcDbSymbolTableRecord
100
AcDbLayerTableRecord
  2
1
 70
     0
 62
     7
  6
Continuous
370
    -3
390
F
  0
LAYER
  5
43
330
2
100
AcDbSymbolTableRecord
100
AcDbLayerTableRecord
  2
BEZUGSACHSEN
 70
     0
 62
     7
  6
Continuous
370
    -3
390
F
  0
LAYER
  5
44
330
2
100
AcDbSymbolTableRecord
100
AcDbLayerTableRecord
  2
FASEN
 70
     0
 62
     7
  6
Continuous
370
    -3
390
F
  0
LAYER
  5
45
330
2
100
AcDbSymbolTableRecord
100
AcDbLayerTableRecord
  2
RUNDUNGEN
 70
     0
 62
     7
  6
Continuous
370
    -3
390
F
  0
LAYER
  5
46
330
2
100
AcDbSymbolTableRecord
100
AcDbLayerTableRecord
  2
VERERBUNG
 70
     0
 62
     7
  6
Continuous
370
    -3
390
F
  0
ENDTAB
  0
TABLE
  2
STYLE
  5
3
330
0
100
AcDbSymbolTable
 70
     2
  0
STYLE
  5
11
330
3
100
AcDbSymbolTableRecord
100
AcDbTextStyleTableRecord
  2
Standard
 70
     0
 40
0.0
 41
1.0
 50
0.0
 71
     0
 42
0.2
  3
txt
  4

  0
STYLE
  5
6D
330
3
100
AcDbSymbolTableRecord
100
AcDbTextStyleTableRecord
  2
CONVERTER_11
 70
     0
 40
0.0
 41
0.72
 50
0.0
 71
     0
 42
0.2
  3
txt.shx
  4

  0
ENDTAB
  0
TABLE
  2
VIEW
  5
6
330
0
100
AcDbSymbolTable
 70
     0
  0
ENDTAB
  0
TABLE
  2
UCS
  5
7
330
0
100
AcDbSymbolTable
 70
     0
  0
ENDTAB
  0
TABLE
  2
APPID
  5
9
330
0
100
AcDbSymbolTable
 70
     1
  0
APPID
  5
12
330
9
100
AcDbSymbolTableRecord
100
AcDbRegAppTableRecord
  2
ACAD
 70
     0
  0
ENDTAB
  0
TABLE
  2
DIMSTYLE
  5
A
330
0
100
AcDbSymbolTable
 70
     5
100
AcDbDimStyleTable
  0
DIMSTYLE
105
27
330
A
100
AcDbSymbolTableRecord
100
AcDbDimStyleTableRecord
  2
Standard
 70
     0
340
11
  0
DIMSTYLE
105
102
102
{ACAD_REACTORS
330
103
102
}
330
A
100
AcDbSymbolTableRecord
100
AcDbDimStyleTableRecord
  2
ME10_DIM_10
 70
     0
  3
\U+2300<>
 41
3.5
 42
2.0
 44
2.0
 71
     1
 73
     0
 74
     0
 77
     1
 78
     8
140
3.5
146
0.7
147
2.0
172
     1
173
     1
176
     2
177
     2
178
     3
271
     2
272
     0
340
6D
  0
DIMSTYLE
105
10D
102
{ACAD_REACTORS
330
10E
102
}
330
A
100
AcDbSymbolTableRecord
100
AcDbDimStyleTableRecord
  2
ME10_DIM_11
 70
     0
  3
<>
 41
3.5
 42
2.0
 44
2.0
 71
     1
 73
     0
 74
     0
 77
     1
 78
     8
140
3.5
146
0.7
147
2.0
172
     1
173
     1
176
     2
177
     2
178
     3
271
     2
272
     0
340
6D
  0
DIMSTYLE
105
118
102
{ACAD_REACTORS
330
119
102
}
330
A
100
AcDbSymbolTableRecord
100
AcDbDimStyleTableRecord
  2
ME10_DIM_12
 70
     0
  3
<>
 41
3.5
 42
2.0
 44
2.0
 71
     1
 73
     0
 74
     0
 77
     1
 78
     8
140
3.5
146
0.7
147
2.0
172
     1
173
     1
176
     2
177
     2
178
     3
271
     2
272
     0
340
6D
  0
DIMSTYLE
105
123
102
{ACAD_REACTORS
330
124
102
}
330
A
100
AcDbSymbolTableRecord
100
AcDbDimStyleTableRecord
  2
ME10_DIM_13
 70
     0
  3
<>
 41
3.5
 42
2.0
 44
2.0
 71
     1
 73
     0
 74
     0
 77
     1
 78
     8
140
3.5
146
0.7
147
2.0
172
     1
173
     1
176
     2
177
     2
178
     3
271
     2
272
     0
340
6D
  0
ENDTAB
  0
TABLE
  2
BLOCK_RECORD
  5
1
330
0
100
AcDbSymbolTable
 70
     7
  0
BLOCK_RECORD
  5
1F
330
1
100
AcDbSymbolTableRecord
100
AcDbBlockTableRecord
  2
*Model_Space
340
22
  0
BLOCK_RECORD
  5
1B
330
1
100
AcDbSymbolTableRecord
100
AcDbBlockTableRecord
  2
*Paper_Space
340
1E
  0
BLOCK_RECORD
  5
23
330
1
100
AcDbSymbolTableRecord
100
AcDbBlockTableRecord
  2
*Paper_Space0
340
26
  0
BLOCK_RECORD
  5
47
330
1
100
AcDbSymbolTableRecord
100
AcDbBlockTableRecord
  2
Urheberrecht_DE-EN
340
0
102
{BLKREFS
331
6C
102
}
  0
BLOCK_RECORD
  5
F9
330
1
100
AcDbSymbolTableRecord
100
AcDbBlockTableRecord
  2
*D2
340
0
  0
BLOCK_RECORD
  5
104
330
1
100
AcDbSymbolTableRecord
100
AcDbBlockTableRecord
  2
*D3
340
0
  0
BLOCK_RECORD
  5
10F
330
1
100
AcDbSymbolTableRecord
100
AcDbBlockTableRecord
  2
*D4
340
0
  0
BLOCK_RECORD
  5
11A
330
1
100
AcDbSymbolTableRecord
100
AcDbBlockTableRecord
  2
*D5
340
0
  0
BLOCK_RECORD
  5
125
330
1
100
AcDbSymbolTableRecord
100
AcDbBlockTableRecord
  2
*D6
340
0
102
{BLKREFS
331
12B
102
}
  0
ENDTAB
  0
ENDSEC
  0
SECTION
  2
BLOCKS
  0
BLOCK
  5
20
330
1F
100
AcDbEntity
  8
0
100
AcDbBlockBegin
  2
*Model_Space
 70
     0
 10
0.0
 20
0.0
 30
0.0
  3
*Model_Space
  1

  0
ENDBLK
  5
21
330
1F
100
AcDbEntity
  8
0
100
AcDbBlockEnd
  0
BLOCK
  5
1C
330
1B
100
AcDbEntity
 67
     1
  8
0
100
AcDbBlockBegin
  2
*Paper_Space
 70
     0
 10
0.0
 20
0.0
 30
0.0
  3
*Paper_Space
  1

  0
ENDBLK
  5
1D
330
1B
100
AcDbEntity
 67
     1
  8
0
100
AcDbBlockEnd
  0
BLOCK
  5
24
330
23
100
AcDbEntity
  8
0
100
AcDbBlockBegin
  2
*Paper_Space0
 70
     0
 10
0.0
 20
0.0
 30
0.0
  3
*Paper_Space0
  1

  0
ENDBLK
  5
25
330
23
100
AcDbEntity
  8
0
100
AcDbBlockEnd
  0
BLOCK
  5
48
330
47
100
AcDbEntity
  8
0
100
AcDbBlockBegin
  2
Urheberrecht_DE-EN
 70
     0
 10
64.2434124608454
 20
310.452831109225
 30
0.0
  3
Urheberrecht_DE-EN
  1

  0
MTEXT
  5
6E
330
47
100
AcDbEntity
  8
1
 62
     1
100
AcDbMText
 10
64.2434124608454
 20
310.452831109225
 30
0.0
 40
2.0
 41
0.0
 71
     7
 72
     1
  1
We own the copyright of this document. It \Pdetermined and may neither be copied or \Pmade accessible to outsiders without our\Ppermission.
  7
CONVERTER_11
 11
0.0
 21
1.0
 31
0.0
 73
     1
 44
0.90036014405762
  0
MTEXT
  5
6F
330
47
100
AcDbEntity
  8
1
 62
     1
100
AcDbMText
 10
64.2434124608454
 20
254.1634441919188
 30
0.0
 40
2.0
 41
0.0
 71
     7
 72
     1
  1
F\U+00fcr diese Unterlage behalten wir das Ur-\Pheberrecht. Sie darf nur f\U+00fcr den von uns \Pbestimmten Zweck benutzt und ohne unsere \PZustimmung weder vervielf\U+00e4ltigt noch\PDritten zug\U+00e4nglich gemacht werden.
  7
CONVERTER_11
 11
0.0
 21
1.0
 31
0.0
 73
     1
 44
0.90036014405762
  0
ENDBLK
  5
49
330
47
100
AcDbEntity
  8
0
100
AcDbBlockEnd
  0
BLOCK
  5
100
330
F9
100
AcDbEntity
  8
0
100
AcDbBlockBegin
  2
*D2
 70
     1
 10
0.0
 20
0.0
 30
0.0
  3
*D2
  1

  0
LINE
  5
FA
330
F9
100
AcDbEntity
  8
1
  6
Continuous
 62
     2
100
AcDbLine
 10
237.39344005572
 20
319.3891899142
 30
0.0
 11
237.39344005572
 21
271.3891899142
 31
0.0
  0
LINE
  5
FB
330
F9
100
AcDbEntity
  8
1
  6
Continuous
 62
     2
100
AcDbLine
 10
220.8169090235
 20
319.3891899142
 30
0.0
 11
239.39344005572
 21
319.3891899142
 31
0.0
  0
LINE
  5
FC
330
F9
100
AcDbEntity
  8
1
  6
Continuous
 62
     2
100
AcDbLine
 10
220.8169090235
 20
271.3891899142
 30
0.0
 11
239.39344005572
 21
271.3891899142
 31
0.0
  0
SOLID
  5
FD
330
F9
100
AcDbEntity
  8
1
 62
     2
100
AcDbTrace
 10
237.8542237972759
 20
315.8891899142
 30
0.0
 11
236.9326563141641
 21
315.8891899142
 31
0.0
 12
237.39344005572
 22
319.3891899142
 32
0.0
 13
237.39344005572
 23
319.3891899142
 33
0.0
  0
SOLID
  5
FE
330
F9
100
AcDbEntity
  8
1
 62
     2
100
AcDbTrace
 10
236.9326563141641
 20
274.8891899142
 30
0.0
 11
237.8542237972759
 21
274.8891899142
 31
0.0
 12
237.39344005572
 22
271.3891899142
 32
0.0
 13
237.39344005572
 23
271.3891899142
 33
0.0
  0
MTEXT
  5
FF
330
F9
100
AcDbEntity
  8
1
 62
     3
100
AcDbMText
 10
235.39344005572
 20
286.581048927165
 30
0.0
 40
3.5
 41
0.0
 71
     7
 72
     1
  1
\C3;%%c\C3;\C3;48\C2;\H2.45;\S^ ;\C3;
  7
CONVERTER_11
 11
0.0
 21
1.0
 31
0.0
 73
     1
 44
0.60024009603842
  0
ENDBLK
  5
101
330
F9
100
AcDbEntity
  8
0
100
AcDbBlockEnd
  0
BLOCK
  5
10B
330
104
100
AcDbEntity
  8
0
100
AcDbBlockBegin
  2
*D3
 70
     1
 10
0.0
 20
0.0
 30
0.0
  3
*D3
  1

  0
LINE
  5
105
330
104
100
AcDbEntity
  8
1
  6
Continuous
 62
     2
100
AcDbLine
 10
224.2311225858
 20
334.47968260052
 30
0.0
 11
130.2311225858
 21
334.47968260052
 31
0.0
  0
LINE
  5
106
330
104
100
AcDbEntity
  8
1
  6
Continuous
 62
     2
100
AcDbLine
 10
224.2311225858
 20
315.9749763518
 30
0.0
 11
224.2311225858
 21
336.47968260052
 31
0.0
  0
LINE
  5
107
330
104
100
AcDbEntity
  8
1
  6
Continuous
 62
     2
100
AcDbLine
 10
130.2311225858
 20
328.8891410086
 30
0.0
 11
130.2311225858
 21
336.47968260052
 31
0.0
  0
SOLID
  5
108
330
104
100
AcDbEntity
  8
1
 62
     2
100
AcDbTrace
 10
220.7311225858
 20
334.0188988589641
 30
0.0
 11
220.7311225858
 21
334.9404663420759
 31
0.0
 12
224.2311225858
 22
334.47968260052
 32
0.0
 13
224.2311225858
 23
334.47968260052
 33
0.0
  0
SOLID
  5
109
330
104
100
AcDbEntity
  8
1
 62
     2
100
AcDbTrace
 10
133.7311225858
 20
334.9404663420759
 30
0.0
 11
133.7311225858
 21
334.0188988589641
 31
0.0
 12
130.2311225858
 22
334.47968260052
 32
0.0
 13
130.2311225858
 23
334.47968260052
 33
0.0
  0
MTEXT
  5
10A
330
104
100
AcDbEntity
  8
1
 62
     3
100
AcDbMText
 10
175.226311327483
 20
336.47968260052
 30
0.0
 40
3.5
 41
0.0
 71
     7
 72
     1
  1
\C3;\C3;\C3;94\C2;\H2.45;\S^ ;\C3;
  7
CONVERTER_11
 11
0.9999999999970619
 21
2.424068405545306E-6
 31
0.0
 73
     1
 44
0.60024009603842
  0
ENDBLK
  5
10C
330
104
100
AcDbEntity
  8
0
100
AcDbBlockEnd
  0
BLOCK
  5
116
330
10F
100
AcDbEntity
  8
0
100
AcDbBlockBegin
  2
*D4
 70
     1
 10
0.0
 20
0.0
 30
0.0
  3
*D4
  1

  0
LINE
  5
110
330
10F
100
AcDbEntity
  8
1
  6
Continuous
 62
     2
100
AcDbLine
 10
224.2311225858
 20
341.40046047573
 30
0.0
 11
104.2311225858
 21
341.40046047573
 31
0.0
  0
LINE
  5
111
330
10F
100
AcDbEntity
  8
1
  6
Continuous
 62
     2
100
AcDbLine
 10
224.2311225858
 20
315.9749763518
 30
0.0
 11
224.2311225858
 21
343.40046047573
 31
0.0
  0
LINE
  5
112
330
10F
100
AcDbEntity
  8
1
  6
Continuous
 62
     2
100
AcDbLine
 10
104.2311225858
 20
328.8891899142
 30
0.0
 11
104.2311225858
 21
343.40046047573
 31
0.0
  0
SOLID
  5
113
330
10F
100
AcDbEntity
  8
1
 62
     2
100
AcDbTrace
 10
220.7311225858
 20
340.9396767341741
 30
0.0
 11
220.7311225858
 21
341.8612442172858
 31
0.0
 12
224.2311225858
 22
341.40046047573
 32
0.0
 13
224.2311225858
 23
341.40046047573
 33
0.0
  0
SOLID
  5
114
330
10F
100
AcDbEntity
  8
1
 62
     2
100
AcDbTrace
 10
107.7311225858
 20
341.8612442172858
 30
0.0
 11
107.7311225858
 21
340.9396767341741
 31
0.0
 12
104.2311225858
 22
341.40046047573
 32
0.0
 13
104.2311225858
 23
341.40046047573
 33
0.0
  0
MTEXT
  5
115
330
10F
100
AcDbEntity
  8
1
 62
     3
100
AcDbMText
 10
161.719982008703
 20
343.40046047573
 30
0.0
 40
3.5
 41
0.0
 71
     7
 72
     1
  1
\C3;\C3;\C3;120\C2;\H2.45;\S^ ;\C3;
  7
CONVERTER_11
 11
0.9999999999970619
 21
2.424068405545306E-6
 31
0.0
 73
     1
 44
0.60024009603842
  0
ENDBLK
  5
117
330
10F
100
AcDbEntity
  8
0
100
AcDbBlockEnd
  0
BLOCK
  5
121
330
11A
100
AcDbEntity
  8
0
100
AcDbBlockBegin
  2
*D5
 70
     1
 10
0.0
 20
0.0
 30
0.0
  3
*D5
  1

  0
LINE
  5
11B
330
11A
100
AcDbEntity
  8
1
  6
Continuous
 62
     2
100
AcDbLine
 10
224.2311225858
 20
349.104722638699
 30
0.0
 11
72.2311225858
 21
349.104722638699
 31
0.0
  0
LINE
  5
11C
330
11A
100
AcDbEntity
  8
1
  6
Continuous
 62
     2
100
AcDbLine
 10
224.2311225858
 20
315.9749763518
 30
0.0
 11
224.2311225858
 21
351.104722638699
 31
0.0
  0
LINE
  5
11D
330
11A
100
AcDbEntity
  8
1
  6
Continuous
 62
     2
100
AcDbLine
 10
72.2311225858
 20
318.9652170943
 30
0.0
 11
72.2311225858
 21
351.104722638699
 31
0.0
  0
SOLID
  5
11E
330
11A
100
AcDbEntity
  8
1
 62
     2
100
AcDbTrace
 10
220.7311225858
 20
348.6439388971431
 30
0.0
 11
220.7311225858
 21
349.5655063802549
 31
0.0
 12
224.2311225858
 22
349.104722638699
 32
0.0
 13
224.2311225858
 23
349.104722638699
 33
0.0
  0
SOLID
  5
11F
330
11A
100
AcDbEntity
  8
1
 62
     2
100
AcDbTrace
 10
75.7311225858
 20
349.5655063802549
 30
0.0
 11
75.7311225858
 21
348.6439388971431
 31
0.0
 12
72.2311225858
 22
349.104722638699
 32
0.0
 13
72.2311225858
 23
349.104722638699
 33
0.0
  0
MTEXT
  5
120
330
11A
100
AcDbEntity
  8
1
 62
     3
100
AcDbMText
 10
151.926428411708
 20
351.104722638699
 30
0.0
 40
3.5
 41
0.0
 71
     7
 72
     1
  1
\C3;\C3;\C3;152\C2;\H2.45;\S^ ;\C3;
  7
CONVERTER_11
 11
0.9999999999970619
 21
2.424068405545306E-6
 31
0.0
 73
     1
 44
0.60024009603842
  0
ENDBLK
  5
122
330
11A
100
AcDbEntity
  8
0
100
AcDbBlockEnd
  0
BLOCK
  5
129
330
125
100
AcDbEntity
  8
0
100
AcDbBlockBegin
  2
*D6
 70
     1
 10
0.0
 20
0.0
 30
0.0
  3
*D6
  1

  0
LINE
  5
126
330
125
100
AcDbEntity
  8
1
  6
Continuous
 62
     2
100
AcDbLine
 10
141.1384627060842
 20
328.2184198923102
 30
0.0
 11
130.5478511131207
 21
319.967306720979
 31
0.0
  0
SOLID
  5
127
330
125
100
AcDbEntity
  8
1
 62
     2
100
AcDbTrace
 10
133.0256253580058
 20
322.481855676133
 30
0.0
 11
133.5920104074056
 21
321.7548793341897
 31
0.0
 12
130.5478511131207
 22
319.967306720979
 32
0.0
 13
130.5478511131207
 23
319.967306720979
 33
0.0
  0
MTEXT
  5
128
330
125
100
AcDbEntity
  8
1
 62
     3
100
AcDbMText
 10
132.0129201541097
 20
323.6440813464544
 30
0.0
 40
3.5
 41
0.0
 71
     7
 72
     1
  1
\C3; R\C3;\C3;1.5\C2;\H2.45;\S^ ;\C3;
  7
CONVERTER_11
 11
0.7888476484528631
 21
0.6145887954806758
 31
0.0
 73
     1
 44
0.60024009603842
  0
ENDBLK
  5
12A
330
125
100
AcDbEntity
  8
0
100
AcDbBlockEnd
  0
ENDSEC
  0
SECTION
  2
ENTITIES
  0
INSERT
  5
6C
330
1F
100
AcDbEntity
  8
0
100
AcDbBlockReference
  2
Urheberrecht_DE-EN
 10
64.2434124608454
 20
310.452831109225
 30
0.0
  0
LINE
  5
70
330
1F
100
AcDbEntity
  8
VERERBUNG
  6
Continuous
 62
     7
100
AcDbLine
 10
72.2311225858
 20
273.8131626373
 30
0.0
 11
72.2311225858
 21
288.1191899142
 31
0.0
  0
LINE
  5
71
330
1F
100
AcDbEntity
  8
VERERBUNG
  6
Continuous
 62
     7
100
AcDbLine
 10
72.2311225858
 20
302.6591899142
 30
0.0
 11
72.2311225858
 21
316.9652170943
 31
0.0
  0
LINE
  5
72
330
1F
100
AcDbEntity
  8
VERERBUNG
  6
Continuous
 62
     7
100
AcDbLine
 10
73.2311225858
 20
287.7593082343
 30
0.0
 11
73.2311225858
 21
289.1191899142
 31
0.0
  0
LINE
  5
73
330
1F
100
AcDbEntity
  8
VERERBUNG
  6
Continuous
 62
     7
100
AcDbLine
 10
73.2311225858
 20
301.6591899142
 30
0.0
 11
73.2311225858
 21
303.019071594
 31
0.0
  0
LINE
  5
74
330
1F
100
AcDbEntity
  8
VERERBUNG
  6
Continuous
 62
     9
100
AcDbLine
 10
73.3710795215
 20
318.1637651717
 30
0.0
 11
73.3710795215
 21
304.9512178455
 31
0.0
  0
LINE
  5
75
330
1F
100
AcDbEntity
  8
VERERBUNG
  6
Continuous
 62
     9
100
AcDbLine
 10
73.3710795215
 20
285.8271619828
 30
0.0
 11
73.3710795215
 21
272.6146146567
 31
0.0
  0
LINE
  5
76
330
1F
100
AcDbEntity
  8
VERERBUNG
  6
Continuous
 62
     9
100
AcDbLine
 10
76.7311225858
 20
285.4328770322
 30
0.0
 11
76.7311225858
 21
289.1191899142
 31
0.0
  0
LINE
  5
77
330
1F
100
AcDbEntity
  8
VERERBUNG
  6
Continuous
 62
     9
100
AcDbLine
 10
76.7311225858
 20
301.6591899142
 30
0.0
 11
76.7311225858
 21
305.3455027961
 31
0.0
  0
LINE
  5
78
330
1F
100
AcDbEntity
  8
VERERBUNG
  6
Continuous
 62
     7
100
AcDbLine
 10
78.2311225858
 20
302.8309776327
 30
0.0
 11
78.2311225858
 21
287.9474021956
 31
0.0
  0
LWPOLYLINE
  5
79
330
1F
100
AcDbEntity
  8
BEZUGSACHSEN
  6
DOT_CENTER
 62
     7
100
AcDbPolyline
 90
        2
 70
     0
 43
0.25
 10
95.2311225858
 20
295.3891899142
 10
95.2311225858
 20
288.6391899142
  0
LWPOLYLINE
  5
7A
330
1F
100
AcDbEntity
  8
BEZUGSACHSEN
  6
DOT_CENTER
 62
     7
100
AcDbPolyline
 90
        2
 70
     0
 43
0.25
 10
95.2311225858
 20
295.3891899142
 10
95.2311225858
 20
302.1391899142
  0
LINE
  5
7B
330
1F
100
AcDbEntity
  8
VERERBUNG
  6
Continuous
 62
     7
100
AcDbLine
 10
72.2311225858
 20
288.1191899142
 30
0.0
 11
73.2311225858
 21
289.1191899142
 31
0.0
  0
LINE
  5
7C
330
1F
100
AcDbEntity
  8
VERERBUNG
  6
Continuous
 62
     7
100
AcDbLine
 10
102.2311225858
 20
319.6096140638
 30
0.0
 11
102.2311225858
 21
271.1687657645
 31
0.0
  0
LINE
  5
7D
330
1F
100
AcDbEntity
  8
VERERBUNG
  6
Continuous
 62
     9
100
AcDbLine
 10
102.9012328188
 20
271.3483212603
 30
0.0
 11
102.9012328188
 21
319.430058568
 31
0.0
  0
LINE
  5
7E
330
1F
100
AcDbEntity
  8
VERERBUNG
  6
Continuous
 62
     9
100
AcDbLine
 10
103.0565242459
 20
271.3687657645
 30
0.0
 11
103.0565242459
 21
319.4096140638
 31
0.0
  0
LINE
  5
7F
330
1F
100
AcDbEntity
  8
VERERBUNG
  6
Continuous
 62
     9
100
AcDbLine
 10
103.9289529553
 20
271.3687657645
 30
0.0
 11
103.9289529553
 21
319.4096140638
 31
0.0
  0
LINE
  5
80
330
1F
100
AcDbEntity
  8
VERERBUNG
  6
Continuous
 62
     7
100
AcDbLine
 10
104.2311225858
 20
326.8891899142
 30
0.0
 11
104.2311225858
 21
263.8891899142
 31
0.0
  0
LINE
  5
81
330
1F
100
AcDbEntity
  8
VERERBUNG
  6
Continuous
 62
     7
100
AcDbLine
 10
73.2311225858
 20
301.6591899142
 30
0.0
 11
72.2311225858
 21
302.6591899142
 31
0.0
  0
LWPOLYLINE
  5
82
330
1F
100
AcDbEntity
  8
BEZUGSACHSEN
  6
DOT_CENTER
 62
     7
100
AcDbPolyline
 90
        2
 70
     0
 43
0.25
 10
111.2311225858
 20
318.8898329943
 10
111.2311225858
 20
329.8891899142
  0
LINE
  5
83
330
1F
100
AcDbEntity
  8
VERERBUNG
  6
Continuous
 62
     7
100
AcDbLine
 10
124.1061225858
 20
324.2867851784
 30
0.0
 11
125.6086216606
 21
326.8891899142
 31
0.0
  0
LINE
  5
84
330
1F
100
AcDbEntity
  8
VERERBUNG
  6
Continuous
 62
     7
100
AcDbLine
 10
124.1061225858
 20
266.49159465
 30
0.0
 11
125.6086216606
 21
263.8891899142
 31
0.0
  0
LINE
  5
85
330
1F
100
AcDbEntity
  8
FASEN
  6
Continuous
 62
     9
100
AcDbLine
 10
116.3681329889
 20
275.1391899142
 30
0.0
 11
116.3681329889
 21
275.5391899142
 31
0.0
  0
LINE
  5
86
330
1F
100
AcDbEntity
  8
0
  6
Continuous
 62
     7
100
AcDbLine
 10
118.8536235111
 20
326.8891899142
 30
0.0
 11
118.8536235111
 21
303.4066899142
 31
0.0
  0
LINE
  5
87
330
1F
100
AcDbEntity
  8
0
  6
Continuous
 62
     7
100
AcDbLine
 10
118.8536235111
 20
287.3716899142
 30
0.0
 11
118.8536235111
 21
275.5391899142
 31
0.0
  0
LINE
  5
88
330
1F
100
AcDbEntity
  8
0
  6
Continuous
 62
     7
100
AcDbLine
 10
118.8536235111
 20
270.9305002518
 30
0.0
 11
118.8536235111
 21
263.8891899142
 31
0.0
  0
LINE
  5
89
330
1F
100
AcDbEntity
  8
0
  6
Continuous
 62
     7
100
AcDbLine
 10
120.3561225858
 20
324.2867626419
 30
0.0
 11
120.3561225858
 21
303.4066899142
 31
0.0
  0
LINE
  5
8A
330
1F
100
AcDbEntity
  8
0
  6
Continuous
 62
     7
100
AcDbLine
 10
120.3561225858
 20
287.3716899142
 30
0.0
 11
120.3561225858
 21
275.5391899142
 31
0.0
  0
LINE
  5
8B
330
1F
100
AcDbEntity
  8
0
  6
Continuous
 62
     7
100
AcDbLine
 10
120.3561225858
 20
266.4916009627
 30
0.0
 11
120.3561225858
 21
274.9385786764
 31
0.0
  0
LINE
  5
8C
330
1F
100
AcDbEntity
  8
VERERBUNG
  6
Continuous
 62
     9
100
AcDbLine
 10
72.2311225858
 20
287.2126021276
 30
0.0
 11
73.2311225858
 21
287.7593082343
 31
0.0
  0
LINE
  5
8D
330
1F
100
AcDbEntity
  8
VERERBUNG
  6
Continuous
 62
     7
100
AcDbLine
 10
104.2311225858
 20
263.8891899142
 30
0.0
 11
118.8536235111
 21
263.8891899142
 31
0.0
  0
LINE
  5
8E
330
1F
100
AcDbEntity
  8
VERERBUNG
  6
Continuous
 62
     7
100
AcDbLine
 10
125.6086216606
 20
263.8891899142
 30
0.0
 11
130.2311225858
 21
263.8891899142
 31
0.0
  0
LINE
  5
8F
330
1F
100
AcDbEntity
  8
VERERBUNG
  6
Continuous
 62
     9
100
AcDbLine
 10
73.2311225858
 20
303.019071594
 30
0.0
 11
72.2311225858
 21
303.5657777007
 31
0.0
  0
LINE
  5
90
330
1F
100
AcDbEntity
  8
0
  6
Continuous
 62
     9
100
AcDbLine
 10
121.3561225858
 20
267.8891899142
 30
0.0
 11
121.3561225858
 21
287.6891899142
 31
0.0
  0
LINE
  5
91
330
1F
100
AcDbEntity
  8
0
  6
Continuous
 62
     9
100
AcDbLine
 10
121.3561225858
 20
303.0891899142
 30
0.0
 11
121.3561225858
 21
322.8891899142
 31
0.0
  0
LINE
  5
92
330
1F
100
AcDbEntity
  8
0
  6
Continuous
 62
     9
100
AcDbLine
 10
123.1061225858
 20
267.8891899142
 30
0.0
 11
123.1061225858
 21
287.6891899142
 31
0.0
  0
LINE
  5
93
330
1F
100
AcDbEntity
  8
0
  6
Continuous
 62
     9
100
AcDbLine
 10
123.1061225858
 20
303.0891899142
 30
0.0
 11
123.1061225858
 21
322.8891899142
 31
0.0
  0
LINE
  5
94
330
1F
100
AcDbEntity
  8
0
  6
Continuous
 62
     7
100
AcDbLine
 10
124.1061225858
 20
266.4916009627
 30
0.0
 11
124.1061225858
 21
274.9385786764
 31
0.0
  0
LINE
  5
95
330
1F
100
AcDbEntity
  8
0
  6
Continuous
 62
     7
100
AcDbLine
 10
124.1061225858
 20
275.5391899142
 30
0.0
 11
124.1061225858
 21
287.3716899142
 31
0.0
  0
LINE
  5
96
330
1F
100
AcDbEntity
  8
0
  6
Continuous
 62
     7
100
AcDbLine
 10
124.1061225858
 20
303.4066899142
 30
0.0
 11
124.1061225858
 21
324.2867626419
 31
0.0
  0
LINE
  5
97
330
1F
100
AcDbEntity
  8
0
  6
Continuous
 62
     7
100
AcDbLine
 10
125.6086216606
 20
326.8891899142
 30
0.0
 11
125.6086216606
 21
303.4066899142
 31
0.0
  0
LINE
  5
98
330
1F
100
AcDbEntity
  8
0
  6
Continuous
 62
     7
100
AcDbLine
 10
125.6086216606
 20
287.3716899142
 30
0.0
 11
125.6086216606
 21
275.5391899142
 31
0.0
  0
LINE
  5
99
330
1F
100
AcDbEntity
  8
0
  6
Continuous
 62
     7
100
AcDbLine
 10
125.6086216606
 20
270.9305002518
 30
0.0
 11
125.6086216606
 21
263.8891899142
 31
0.0
  0
LINE
  5
9A
330
1F
100
AcDbEntity
  8
VERERBUNG
  6
Continuous
 62
     7
100
AcDbLine
 10
121.3561225858
 20
267.8891899142
 30
0.0
 11
123.1061225858
 21
267.8891899142
 31
0.0
  0
LINE
  5
9B
330
1F
100
AcDbEntity
  8
FASEN
  6
Continuous
 62
     7
100
AcDbLine
 10
109.5667350301
 20
270.9305002518
 30
0.0
 11
118.8536235111
 21
270.9305002518
 31
0.0
  0
LINE
  5
9C
330
1F
100
AcDbEntity
  8
0
  6
Continuous
 62
     7
100
AcDbLine
 10
125.6086216606
 20
270.9305002518
 30
0.0
 11
130.2311225858
 21
270.9305002518
 31
0.0
  0
LINE
  5
9D
330
1F
100
AcDbEntity
  8
VERERBUNG
  6
Continuous
 62
     7
100
AcDbLine
 10
103.9289529553
 20
271.3687657645
 30
0.0
 11
103.0565242459
 21
271.3687657645
 31
0.0
  0
LINE
  5
9E
330
1F
100
AcDbEntity
  8
0
  6
Continuous
 62
     7
100
AcDbLine
 10
131.7311225858
 20
271.3891899142
 30
0.0
 11
218.8169090235
 21
271.3891899142
 31
0.0
  0
LINE
  5
9F
330
1F
100
AcDbEntity
  8
VERERBUNG
  6
Continuous
 62
     7
100
AcDbLine
 10
73.3710795215
 20
272.6146146567
 30
0.0
 11
102.2311225858
 21
271.1687657645
 31
0.0
  0
LINE
  5
A0
330
1F
100
AcDbEntity
  8
0
  6
Continuous
 62
     7
100
AcDbLine
 10
130.2311225858
 20
270.9305002518
 30
0.0
 11
130.2311225858
 21
263.8892289759
 31
0.0
  0
LINE
  5
A1
330
1F
100
AcDbEntity
  8
FASEN
  6
Continuous
 62
     7
100
AcDbLine
 10
130.2311225858
 20
270.9305002518
 30
0.0
 11
130.2311225858
 21
275.5391899142
 31
0.0
  0
LINE
  5
A2
330
1F
100
AcDbEntity
  8
0
  6
Continuous
 62
     7
100
AcDbLine
 10
130.2311225858
 20
275.5391899142
 30
0.0
 11
130.2311225858
 21
326.8891410086
 31
0.0
  0
LINE
  5
A3
330
1F
100
AcDbEntity
  8
RUNDUNGEN
  6
Continuous
 62
     9
100
AcDbLine
 10
131.7311225858
 20
319.3891899142
 30
0.0
 11
131.7311225858
 21
271.3891899142
 31
0.0
  0
LINE
  5
A4
330
1F
100
AcDbEntity
  8
FASEN
  6
Continuous
 62
     7
100
AcDbLine
 10
116.3681329889
 20
275.1391899142
 30
0.0
 11
120.3664878511
 21
275.1391899142
 31
0.0
  0
LINE
  5
A5
330
1F
100
AcDbEntity
  8
FASEN
  6
Continuous
 62
     7
100
AcDbLine
 10
124.0957573206
 20
275.1391899142
 30
0.0
 11
130.2311225858
 21
275.1391899142
 31
0.0
  0
LINE
  5
A6
330
1F
100
AcDbEntity
  8
0
  6
Continuous
 62
     7
100
AcDbLine
 10
116.3681329889
 20
275.5391899142
 30
0.0
 11
120.3561225858
 21
275.5391899142
 31
0.0
  0
LINE
  5
A7
330
1F
100
AcDbEntity
  8
FASEN
  6
Continuous
 62
     7
100
AcDbLine
 10
120.3561225858
 20
275.5391899142
 30
0.0
 11
120.3664878511
 21
275.5391899142
 31
0.0
  0
LINE
  5
A8
330
1F
100
AcDbEntity
  8
FASEN
  6
Continuous
 62
     7
100
AcDbLine
 10
124.0957573206
 20
275.5391899142
 30
0.0
 11
124.1061225858
 21
275.5391899142
 31
0.0
  0
LINE
  5
A9
330
1F
100
AcDbEntity
  8
0
  6
Continuous
 62
     7
100
AcDbLine
 10
124.1061225858
 20
275.5391899142
 30
0.0
 11
130.2311225858
 21
275.5391899142
 31
0.0
  0
LINE
  5
AA
330
1F
100
AcDbEntity
  8
VERERBUNG
  6
Continuous
 62
     7
100
AcDbLine
 10
118.8536235111
 20
263.8891899142
 30
0.0
 11
120.3561225858
 21
266.49159465
 31
0.0
  0
LINE
  5
AB
330
1F
100
AcDbEntity
  8
VERERBUNG
  6
Continuous
 62
     7
100
AcDbLine
 10
102.9012328188
 20
271.3483212603
 30
0.0
 11
102.2311225858
 21
271.1687657645
 31
0.0
  0
LINE
  5
AC
330
1F
100
AcDbEntity
  8
VERERBUNG
  6
Continuous
 62
     9
100
AcDbLine
 10
77.7185296236
 20
286.1191899142
 30
0.0
 11
72.9027973963
 21
286.1191899142
 31
0.0
  0
LINE
  5
AD
330
1F
100
AcDbEntity
  8
0
  6
Continuous
 62
     7
100
AcDbLine
 10
130.2311225858
 20
287.3716899142
 30
0.0
 11
123.5220094764
 21
287.3716899142
 31
0.0
  0
LINE
  5
AE
330
1F
100
AcDbEntity
  8
0
  6
Continuous
 62
     7
100
AcDbLine
 10
117.1986225858
 20
287.3716899142
 30
0.0
 11
120.9402356953
 21
287.3716899142
 31
0.0
  0
LINE
  5
AF
330
1F
100
AcDbEntity
  8
0
  6
Continuous
 62
     7
100
AcDbLine
 10
121.3561225858
 20
287.6891899142
 30
0.0
 11
123.1061225858
 21
287.6891899142
 31
0.0
  0
LINE
  5
B0
330
1F
100
AcDbEntity
  8
VERERBUNG
  6
Continuous
 62
     7
100
AcDbLine
 10
118.8536235111
 20
326.8891899142
 30
0.0
 11
120.3561225858
 21
324.2867851784
 31
0.0
  0
LINE
  5
B1
330
1F
100
AcDbEntity
  8
VERERBUNG
  6
Continuous
 62
     7
100
AcDbLine
 10
76.7311225858
 20
289.1191899142
 30
0.0
 11
73.2311225858
 21
289.1191899142
 31
0.0
  0
LWPOLYLINE
  5
B2
330
1F
100
AcDbEntity
  8
BEZUGSACHSEN
  6
DOT_CENTER
 62
     7
100
AcDbPolyline
 90
        2
 70
     0
 43
0.25
 10
227.2311225858
 20
295.3891899142
 10
69.2311225858
 20
295.3891899142
  0
LINE
  5
B3
330
1F
100
AcDbEntity
  8
VERERBUNG
  6
Continuous
 62
     7
100
AcDbLine
 10
76.7311225858
 20
301.6591899142
 30
0.0
 11
73.2311225858
 21
301.6591899142
 31
0.0
  0
LINE
  5
B4
330
1F
100
AcDbEntity
  8
0
  6
Continuous
 62
     7
100
AcDbLine
 10
121.3561225858
 20
303.0891899142
 30
0.0
 11
123.1061225858
 21
303.0891899142
 31
0.0
  0
LINE
  5
B5
330
1F
100
AcDbEntity
  8
0
  6
Continuous
 62
     7
100
AcDbLine
 10
117.1986225858
 20
303.4066899142
 30
0.0
 11
120.9402356953
 21
303.4066899142
 31
0.0
  0
LINE
  5
B6
330
1F
100
AcDbEntity
  8
0
  6
Continuous
 62
     7
100
AcDbLine
 10
123.5220094764
 20
303.4066899142
 30
0.0
 11
130.2311225858
 21
303.4066899142
 31
0.0
  0
LINE
  5
B7
330
1F
100
AcDbEntity
  8
VERERBUNG
  6
Continuous
 62
     9
100
AcDbLine
 10
72.9027973963
 20
304.6591899142
 30
0.0
 11
77.7185296236
 21
304.6591899142
 31
0.0
  0
LINE
  5
B8
330
1F
100
AcDbEntity
  8
VERERBUNG
  6
Continuous
 62
     7
100
AcDbLine
 10
102.9012328188
 20
319.430058568
 30
0.0
 11
102.2311225858
 21
319.6096140638
 31
0.0
  0
LINE
  5
B9
330
1F
100
AcDbEntity
  8
0
  6
Continuous
 62
     7
100
AcDbLine
 10
131.7311225858
 20
319.3891899142
 30
0.0
 11
218.8169090235
 21
319.3891899142
 31
0.0
  0
LINE
  5
BA
330
1F
100
AcDbEntity
  8
VERERBUNG
  6
Continuous
 62
     7
100
AcDbLine
 10
103.9289529553
 20
319.4096140638
 30
0.0
 11
103.0565242459
 21
319.4096140638
 31
0.0
  0
LINE
  5
BB
330
1F
100
AcDbEntity
  8
VERERBUNG
  6
Continuous
 62
     7
100
AcDbLine
 10
73.3710795215
 20
318.1637651717
 30
0.0
 11
102.2311225858
 21
319.6096140638
 31
0.0
  0
LINE
  5
BC
330
1F
100
AcDbEntity
  8
VERERBUNG
  6
Continuous
 62
     7
100
AcDbLine
 10
121.3561225858
 20
322.8891899142
 30
0.0
 11
123.1061225858
 21
322.8891899142
 31
0.0
  0
LINE
  5
BD
330
1F
100
AcDbEntity
  8
VERERBUNG
  6
Continuous
 62
     7
100
AcDbLine
 10
104.2311225858
 20
326.8891899142
 30
0.0
 11
106.2311225858
 21
326.8891899142
 31
0.0
  0
LINE
  5
BE
330
1F
100
AcDbEntity
  8
VERERBUNG
  6
Continuous
 62
     7
100
AcDbLine
 10
116.2311225858
 20
326.8891899142
 30
0.0
 11
118.8536235111
 21
326.8891899142
 31
0.0
  0
LINE
  5
BF
330
1F
100
AcDbEntity
  8
VERERBUNG
  6
Continuous
 62
     7
100
AcDbLine
 10
125.6086216606
 20
326.8891899142
 30
0.0
 11
130.2311225858
 21
326.8891899142
 31
0.0
  0
LINE
  5
C0
330
1F
100
AcDbEntity
  8
FASEN
  6
Continuous
 62
     7
100
AcDbLine
 10
223.938229367
 20
276.0962966953
 30
0.0
 11
219.5240158047
 21
271.682083133
 31
0.0
  0
LINE
  5
C1
330
1F
100
AcDbEntity
  8
RUNDUNGEN
  6
Continuous
 62
     9
100
AcDbLine
 10
218.8169090235
 20
271.3891899142
 30
0.0
 11
218.8169090235
 21
319.3891899142
 31
0.0
  0
LINE
  5
C2
330
1F
100
AcDbEntity
  8
RUNDUNGEN
  6
Continuous
 62
     9
100
AcDbLine
 10
219.5240158047
 20
271.682083133
 30
0.0
 11
219.5240158047
 21
319.0962966953
 31
0.0
  0
LINE
  5
C3
330
1F
100
AcDbEntity
  8
FASEN
  6
Continuous
 62
     7
100
AcDbLine
 10
223.938229367
 20
314.682083133
 30
0.0
 11
219.5240158047
 21
319.0962966953
 31
0.0
  0
LINE
  5
C4
330
1F
100
AcDbEntity
  8
RUNDUNGEN
  6
Continuous
 62
     9
100
AcDbLine
 10
223.938229367
 20
314.682083133
 30
0.0
 11
223.938229367
 21
276.0962966953
 31
0.0
  0
LINE
  5
C5
330
1F
100
AcDbEntity
  8
RUNDUNGEN
  6
Continuous
 62
     7
100
AcDbLine
 10
224.2311225858
 20
313.9749763518
 30
0.0
 11
224.2311225858
 21
276.8034034765
 31
0.0
  0
ARC
  5
C6
330
1F
100
AcDbEntity
  8
FASEN
  6
Continuous
 62
     7
100
AcDbCircle
 10
22.6608821053
 20
275.3391899142
 30
0.0
 40
97.70581044213137
100
AcDbArc
 50
359.8827176822629
 51
0.11728231773712
  0
ARC
  5
C7
330
1F
100
AcDbEntity
  8
FASEN
  6
Continuous
 62
     7
100
AcDbCircle
 10
119.2751285017
 20
279.4585870711
 30
0.0
 40
12.92211935389983
100
AcDbArc
 50
219.3764519582026
 51
221.2968513340953
  0
ARC
  5
C8
330
1F
100
AcDbEntity
  8
FASEN
  6
Continuous
 62
     7
100
AcDbCircle
 10
116.3681329889
 20
267.5391899142
 30
0.0
 40
8.0
100
AcDbArc
 50
90.0
 51
152.2781454969004
  0
ARC
  5
C9
330
1F
100
AcDbEntity
  8
FASEN
  6
Continuous
 62
     7
100
AcDbCircle
 10
116.3681329889
 20
267.5391899142
 30
0.0
 40
7.599996372100009
100
AcDbArc
 50
90.0
 51
153.498256574603
  0
ARC
  5
CA
330
1F
100
AcDbEntity
  8
FASEN
  6
Continuous
 62
     7
100
AcDbCircle
 10
122.1585771227
 20
274.9385254807
 30
0.0
 40
1.947545463826499
100
AcDbArc
 50
0.00156498996196
 51
5.91393926102895
  0
ARC
  5
CB
330
1F
100
AcDbEntity
  8
VERERBUNG
  6
Continuous
 62
     7
100
AcDbCircle
 10
76.7311225858
 20
290.6191899142
 30
0.0
 40
1.5
100
AcDbArc
 50
270.0
 51
354.6670371750983
  0
ARC
  5
CC
330
1F
100
AcDbEntity
  8
VERERBUNG
  6
Continuous
 62
     7
100
AcDbCircle
 10
73.4311225858
 20
273.8131115613
 30
0.0
 40
1.200000000000003
100
AcDbArc
 50
180.0
 51
267.1319572715504
  0
ARC
  5
CD
330
1F
100
AcDbEntity
  8
VERERBUNG
  6
Continuous
 62
     7
100
AcDbCircle
 10
121.3561225858
 20
266.8891899142
 30
0.0
 40
1.0
100
AcDbArc
 50
90.0
 51
180.0
  0
ARC
  5
CE
330
1F
100
AcDbEntity
  8
VERERBUNG
  6
Continuous
 62
     7
100
AcDbCircle
 10
103.0565242459
 20
270.7687657645
 30
0.0
 40
0.5999999999999659
100
AcDbArc
 50
90.0
 51
105.0000000028938
  0
ARC
  5
CF
330
1F
100
AcDbEntity
  8
VERERBUNG
  6
Continuous
 62
     7
100
AcDbCircle
 10
103.9289529553
 20
270.7687657645
 30
0.0
 40
0.6000000000004299
100
AcDbArc
 50
59.74152092739901
 51
90.0
  0
ARC
  5
D0
330
1F
100
AcDbEntity
  8
0
  6
Continuous
 62
     7
100
AcDbCircle
 10
-23.5174188867
 20
334.8541935184
 30
0.0
 40
156.0632957305417
100
AcDbArc
 50
335.8202227521907
 51
337.2043014055999
  0
ARC
  5
D1
330
1F
100
AcDbEntity
  8
VERERBUNG
  6
Continuous
 62
     7
100
AcDbCircle
 10
111.2125564077
 20
358.203737774
 30
0.0
 40
31.7138560894998
100
AcDbArc
 50
270.0335424960991
 51
279.1049739606
  0
ARC
  5
D2
330
1F
100
AcDbEntity
  8
0
  6
Continuous
 62
     7
100
AcDbCircle
 10
117.1986225858
 20
295.3891899142
 30
0.0
 40
8.017499999999984
100
AcDbArc
 50
90.0
 51
270.0
  0
ARC
  5
D3
330
1F
100
AcDbEntity
  8
VERERBUNG
  6
Continuous
 62
     7
100
AcDbCircle
 10
76.7311225858
 20
300.1591899142
 30
0.0
 40
1.50000000000004
100
AcDbArc
 50
5.33296276981265
 51
90.0
  0
ARC
  5
D4
330
1F
100
AcDbEntity
  8
VERERBUNG
  6
Continuous
 62
     7
100
AcDbCircle
 10
73.4311225858
 20
316.965268267
 30
0.0
 40
1.200000000060833
100
AcDbArc
 50
92.8680427282107
 51
180.0
  0
ARC
  5
D5
330
1F
100
AcDbEntity
  8
VERERBUNG
  6
Continuous
 62
     7
100
AcDbCircle
 10
121.3561225858
 20
323.8891899142
 30
0.0
 40
1.0
100
AcDbArc
 50
180.0
 51
270.0
  0
ARC
  5
D6
330
1F
100
AcDbEntity
  8
VERERBUNG
  6
Continuous
 62
     7
100
AcDbCircle
 10
103.0565242459
 20
320.0096140638
 30
0.0
 40
0.6000000000355948
100
AcDbArc
 50
254.9999999971062
 51
270.0
  0
ARC
  5
D7
330
1F
100
AcDbEntity
  8
VERERBUNG
  6
Continuous
 62
     7
100
AcDbCircle
 10
103.9289529553
 20
320.0096140638
 30
0.0
 40
0.5999999999999659
100
AcDbArc
 50
270.0
 51
300.2584790726009
  0
ARC
  5
D8
330
1F
100
AcDbEntity
  8
VERERBUNG
  6
Continuous
 62
     7
100
AcDbCircle
 10
178.1147199924
 20
-573.1458720024
 30
0.0
 40
884.3221864334638
100
AcDbArc
 50
96.58318095120576
 51
96.8023740697
  0
ARC
  5
D9
330
1F
100
AcDbEntity
  8
FASEN
  6
Continuous
 62
     7
100
AcDbCircle
 10
221.8013630664
 20
275.3391899142
 30
0.0
 40
97.70581044213137
100
AcDbArc
 50
179.8827176822629
 51
180.1172823177371
  0
ARC
  5
DA
330
1F
100
AcDbEntity
  8
FASEN
  6
Continuous
 62
     7
100
AcDbCircle
 10
122.3036680489
 20
274.9385254807
 30
0.0
 40
1.947545463813437
100
AcDbArc
 50
174.0860607386679
 51
179.9984350100381
  0
ARC
  5
DB
330
1F
100
AcDbEntity
  8
RUNDUNGEN
  6
Continuous
 62
     7
100
AcDbCircle
 10
131.7311225858
 20
269.8891899142
 30
0.0
 40
1.5
100
AcDbArc
 50
90.0
 51
180.0
  0
ARC
  5
DC
330
1F
100
AcDbEntity
  8
RUNDUNGEN
  6
Continuous
 62
     7
100
AcDbCircle
 10
223.2311225858
 20
276.8034034765
 30
0.0
 40
1.00000000001904
100
AcDbArc
 50
314.9999999999989
 51
0.0
  0
ARC
  5
DD
330
1F
100
AcDbEntity
  8
RUNDUNGEN
  6
Continuous
 62
     7
100
AcDbCircle
 10
218.8169090235
 20
272.3891899142
 30
0.0
 40
1.0
100
AcDbArc
 50
270.0
 51
315.0
  0
ARC
  5
DE
330
1F
100
AcDbEntity
  8
VERERBUNG
  6
Continuous
 62
     7
100
AcDbCircle
 10
123.1061225858
 20
266.8891899142
 30
0.0
 40
1.0
100
AcDbArc
 50
0.0
 51
90.0
  0
ARC
  5
DF
330
1F
100
AcDbEntity
  8
VERERBUNG
  6
Continuous
 62
     7
100
AcDbCircle
 10
178.1147199924
 20
1163.9242518307
 30
0.0
 40
884.3221864334004
100
AcDbArc
 50
263.1976259303
 51
263.4168190487943
  0
ARC
  5
E0
330
1F
100
AcDbEntity
  8
0
  6
Continuous
 62
     7
100
AcDbCircle
 10
267.9796640586
 20
334.8541935185
 30
0.0
 40
156.0632957307998
100
AcDbArc
 50
202.7956985943999
 51
204.1797772478128
  0
ARC
  5
E1
330
1F
100
AcDbEntity
  8
RUNDUNGEN
  6
Continuous
 62
     7
100
AcDbCircle
 10
131.7311225858
 20
320.8891899142
 30
0.0
 40
1.5
100
AcDbArc
 50
180.0
 51
270.0
  0
ARC
  5
E2
330
1F
100
AcDbEntity
  8
RUNDUNGEN
  6
Continuous
 62
     7
100
AcDbCircle
 10
223.2311225858
 20
313.9749763518
 30
0.0
 40
1.0
100
AcDbArc
 50
0.0
 51
44.99999999999885
  0
ARC
  5
E3
330
1F
100
AcDbEntity
  8
RUNDUNGEN
  6
Continuous
 62
     7
100
AcDbCircle
 10
218.8169090235
 20
318.3891899142
 30
0.0
 40
0.9999999999483181
100
AcDbArc
 50
44.99999999594678
 51
90.0
  0
ARC
  5
E4
330
1F
100
AcDbEntity
  8
VERERBUNG
  6
Continuous
 62
     7
100
AcDbCircle
 10
123.1061225858
 20
323.8891899142
 30
0.0
 40
1.0
100
AcDbArc
 50
270.0
 51
0.0
  0
CIRCLE
  5
E5
330
1F
100
AcDbEntity
  8
VERERBUNG
  6
Continuous
 62
     7
100
AcDbCircle
 10
95.2311225858
 20
295.3891899142
 30
0.0
 40
3.75
  0
SPLINE
  5
E6
330
1F
100
AcDbEntity
  8
VERERBUNG
  6
Continuous
 62
     7
100
AcDbSpline
210
0.0
220
0.0
230
1.0
 70
     8
 71
     3
 72
    13
 73
     9
 74
     7
 42
0.0000000001
 43
0.0000000001
 44
0.00000001
 40
0.0
 40
0.0
 40
0.0
 40
0.0
 40
0.9581451161110824
 40
1.916374757504065
 40
2.729668920754926
 40
3.542928077666298
 40
4.281951737024865
 40
5.02098028104487
 40
5.02098028104487
 40
5.02098028104487
 40
5.02098028104487
 10
111.2311225858
 20
326.4898329943
 30
0.0
 10
110.9117284194946
 20
326.4926765320103
 30
0.0
 10
110.2729119106904
 20
326.498363858281
 30
0.0
 10
109.3638477894891
 20
326.5419715769663
 30
0.0
 10
108.5045296822593
 20
326.605527963127
 30
0.0
 10
107.7198911393372
 20
326.6845249791011
 30
0.0
 10
106.9617596118271
 20
326.7779360396056
 30
0.0
 10
106.474668797721
 20
326.8521052076306
 30
0.0
 10
106.2311225858
 20
326.8891899142
 30
0.0
 11
111.2311225858
 21
326.4898329943
 31
0.0
 11
110.2730911940161
 21
326.5045949685621
 31
0.0
 11
109.3158794821042
 21
326.5487513296304
 31
0.0
 11
108.504828151784
 21
326.6091097222838
 31
0.0
 11
107.6956164036983
 21
326.6901455357263
 31
0.0
 11
106.9622501652013
 21
326.7814139822158
 31
0.0
 11
106.2311225858
 21
326.8891899142
 31
0.0
  0
SPLINE
  5
E7
330
1F
100
AcDbEntity
  8
VERERBUNG
  6
Continuous
 62
     7
100
AcDbSpline
210
0.0
220
0.0
230
1.0
 70
     8
 71
     3
 72
    13
 73
     9
 74
     7
 42
0.0000000001
 43
0.0000000001
 44
0.00000001
 40
0.0
 40
0.0
 40
0.0
 40
0.0
 40
0.4765182419162358
 40
0.9529821706214282
 40
1.193158829986275
 40
1.433310795915457
 40
1.675484054956561
 40
1.917493731714277
 40
1.917493731714277
 40
1.917493731714277
 40
1.917493731714277
 10
77.7185296236
 20
304.6591899142
 30
0.0
 10
77.79035023625748
 20
304.5173917513573
 30
0.0
 10
77.93398327550997
 20
304.2338115877258
 30
0.0
 10
78.06840736939438
 20
303.8581976310968
 30
0.0
 10
78.15000207068552
 20
303.54972117198
 30
0.0
 10
78.19540741604706
 20
303.3130477293283
 30
0.0
 10
78.22528315387567
 20
303.073101278747
 30
0.0
 10
78.22917654695573
 20
302.9116673344431
 30
0.0
 10
78.2311225858
 20
302.8309776327
 30
0.0
 11
77.7185296236
 21
304.6591899142
 31
0.0
 11
77.92492347416831
 21
304.2296887927503
 31
0.0
 11
78.08635366059363
 21
303.7814052103297
 31
0.0
 11
78.14730988013662
 21
303.5490925610773
 31
0.0
 11
78.19269775388537
 21
303.3132686698868
 31
0.0
 11
78.2212679105788
 21
303.0727865841899
 31
0.0
 11
78.2311225858
 21
302.8309776327
 31
0.0
  0
SPLINE
  5
E8
330
1F
100
AcDbEntity
  8
VERERBUNG
  6
Continuous
 62
     7
100
AcDbSpline
210
0.0
220
0.0
230
1.0
 70
     8
 71
     3
 72
    19
 73
    15
 74
    13
 42
0.0000000001
 43
0.0000000001
 44
0.00000001
 40
0.0
 40
0.0
 40
0.0
 40
0.0
 40
0.0835832283125032
 40
0.1672705448919804
 40
0.2499538624528293
 40
0.3326148850766636
 40
0.413847563932219
 40
0.4950848398161873
 40
0.5749375740594037
 40
0.6547985888497596
 40
0.8114954797359204
 40
0.9684466433847285
 40
1.123543258653487
 40
1.278502018144062
 40
1.278502018144062
 40
1.278502018144062
 40
1.278502018144062
 10
76.7311225858
 20
305.3455027961
 30
0.0
 10
76.7589212263926
 20
305.3477756767882
 30
0.0
 10
76.8145531259143
 20
305.3523242686391
 30
0.0
 10
76.89798452943771
 20
305.3469581406024
 30
0.0
 10
76.97989360284005
 20
305.3326539571813
 30
0.0
 10
77.05893007571649
 20
305.3094641659922
 30
0.0
 10
77.13463108373148
 20
305.27835945901
 30
0.0
 10
77.20616072156619
 20
305.2405888099992
 30
0.0
 10
77.27370256372546
 20
305.1969535256208
 30
0.0
 10
77.35757200754834
 20
305.1328580388353
 30
0.0
 10
77.45315993759412
 20
305.042434840484
 30
0.0
 10
77.55353421650088
 20
304.9223885002902
 30
0.0
 10
77.64257852772977
 20
304.7943897925034
 30
0.0
 10
77.69322009700467
 20
304.7042431800731
 30
0.0
 10
77.7185296236
 20
304.6591899142
 30
0.0
 11
76.7311225858
 21
305.3455027961
 31
0.0
 11
76.8145686625342
 21
305.3502890611166
 31
0.0
 11
76.89811435143731
 21
305.3454223556624
 31
0.0
 11
76.97955462556418
 21
305.3311390523677
 31
0.0
 11
77.05889946034041
 21
305.3079605740839
 31
0.0
 11
77.13407586781969
 21
305.2771830518874
 31
0.0
 11
77.20596023142554
 21
305.2393395152922
 31
0.0
 11
77.27309146137065
 21
305.1960976706025
 31
0.0
 11
77.33660821544893
 21
305.1476889561524
 31
0.0
 11
77.4508453349495
 21
305.0404332050637
 31
0.0
 11
77.55207905565696
 21
304.920494047311
 31
0.0
 11
77.64048372662978
 21
304.7930594593138
 31
0.0
 11
77.7185296236
 21
304.6591899142
 31
0.0
  0
SPLINE
  5
E9
330
1F
100
AcDbEntity
  8
VERERBUNG
  6
Continuous
 62
     7
100
AcDbSpline
210
0.0
220
0.0
230
1.0
 70
     8
 71
     3
 72
    13
 73
     9
 74
     7
 42
0.0000000001
 43
0.0000000001
 44
0.00000001
 40
0.0
 40
0.0
 40
0.0
 40
0.0
 40
0.2420096760820219
 40
0.4841829345388792
 40
0.7243349034435915
 40
0.9645115657846319
 40
1.440975492108937
 40
1.917493731627543
 40
1.917493731627543
 40
1.917493731627543
 40
1.917493731627543
 10
78.2311225858
 20
287.9474021956
 30
0.0
 10
78.22917654696158
 20
287.8667124940823
 30
0.0
 10
78.22528315389256
 20
287.7052785501988
 30
0.0
 10
78.19540741605783
 20
287.4653320990443
 30
0.0
 10
78.15000207037505
 20
287.2286586546268
 30
0.0
 10
78.06840736854858
 20
286.9201821944131
 30
0.0
 10
77.93398327448122
 20
286.5445682385059
 30
0.0
 10
77.7903502359137
 20
286.2609880763183
 30
0.0
 10
77.7185296236
 20
286.1191899142
 30
0.0
 11
78.2311225858
 21
287.9474021956
 31
0.0
 11
78.22126791061898
 21
287.7055932447847
 31
0.0
 11
78.19269775406069
 21
287.4651111596601
 31
0.0
 11
78.14730987976118
 21
287.2292872655455
 31
0.0
 11
78.08635365928858
 21
286.9969746134601
 31
0.0
 11
77.9249234732511
 21
286.5486910334303
 31
0.0
 11
77.7185296236
 21
286.1191899142
 31
0.0
  0
SPLINE
  5
EA
330
1F
100
AcDbEntity
  8
VERERBUNG
  6
Continuous
 62
     7
100
AcDbSpline
210
0.0
220
0.0
230
1.0
 70
     8
 71
     3
 72
    19
 73
    15
 74
    13
 42
0.0000000001
 43
0.0000000001
 44
0.00000001
 40
0.0
 40
0.0
 40
0.0
 40
0.0
 40
0.1549595547764822
 40
0.3100569267307446
 40
0.4670093144200243
 40
0.623707559454104
 40
0.7035716821098209
 40
0.7834274372278419
 40
0.8646682252108401
 40
0.945904518083176
 40
1.028561641718339
 40
1.111240956110243
 40
1.1949234288908
 40
1.278501866486167
 40
1.278501866486167
 40
1.278501866486167
 40
1.278501866486167
 10
77.7185296236
 20
286.1191899142
 30
0.0
 10
77.69321997374539
 20
286.0741364133866
 30
0.0
 10
77.64257816426246
 20
285.9839893422956
 30
0.0
 10
77.55353324422023
 20
285.8559899176628
 30
0.0
 10
77.45315784476318
 20
285.7359430490478
 30
0.0
 10
77.357568397765
 20
285.6455187358493
 30
0.0
 10
77.27369710687542
 20
285.5814215486559
 30
0.0
 10
77.20615224195416
 20
285.5377849453483
 30
0.0
 10
77.13461858228338
 20
285.5000145750312
 30
0.0
 10
77.05891561141551
 20
285.4689118413407
 30
0.0
 10
76.97988017154972
 20
285.4457238115509
 30
0.0
 10
76.89797518453607
 20
285.4314209900389
 30
0.0
 10
76.81454830654943
 20
285.4260557936824
 30
0.0
 10
76.7589196258254
 20
285.4306042290597
 30
0.0
 10
76.7311225858
 20
285.4328770322
 30
0.0
 11
77.7185296236
 21
286.1191899142
 31
0.0
 11
77.64048332921536
 21
285.9853196802069
 31
0.0
 11
77.55207811291848
 21
285.8578845495772
 31
0.0
 11
77.45084329409127
 21
285.7379447169177
 31
0.0
 11
77.33660508933396
 21
285.6306881433635
 31
0.0
 11
77.27308588714288
 21
285.5822775139462
 31
0.0
 11
77.20595175561174
 21
285.5390345953464
 31
0.0
 11
77.13406338480873
 21
285.5011911312425
 31
0.0
 11
77.05888274164252
 21
285.4704144164608
 31
0.0
 11
76.97954121667975
 21
285.4472385129353
 31
0.0
 11
76.89810475232689
 21
285.4329566607438
 31
0.0
 11
76.81456386602584
 21
285.4280908035014
 31
0.0
 11
76.7311225858
 21
285.4328770322
 31
0.0
  0
SPLINE
  5
EB
330
1F
100
AcDbEntity
  8
VERERBUNG
  6
Continuous
 62
     7
100
AcDbSpline
210
0.0
220
0.0
230
1.0
 70
     8
 71
     3
 72
    23
 73
    19
 74
    17
 42
0.0000000001
 43
0.0000000001
 44
0.00000001
 40
0.0
 40
0.0
 40
0.0
 40
0.0
 40
0.0621269684789334
 40
0.124282403103105
 40
0.181313530273915
 40
0.2383411403624824
 40
0.2903938962545027
 40
0.3423956884179404
 40
0.3914747074774919
 40
0.4404962287004677
 40
0.4905855734035935
 40
0.5407628275476081
 40
0.5956736073974688
 40
0.6506193812451545
 40
0.7116314425138908
 40
0.7726461252588994
 40
0.8391602986309298
 40
0.9056490031068657
 40
0.9056490031068657
 40
0.9056490031068657
 40
0.9056490031068657
 10
72.8078242628
 20
286.2414002339
 30
0.0
 10
72.78901736605556
 20
286.2327109807853
 30
0.0
 10
72.75139495537728
 20
286.2153284932007
 30
0.0
 10
72.69434903082177
 20
286.1950871131187
 30
0.0
 10
72.63748267401459
 20
286.1800795467544
 30
0.0
 10
72.58259183643375
 20
286.1718223218961
 30
0.0
 10
72.52875938277668
 20
286.1705436111712
 30
0.0
 10
72.47787754871636
 20
286.1770486370289
 30
0.0
 10
72.42991996403762
 20
286.1922103705792
 30
0.0
 10
72.38603636954701
 20
286.215572282983
 30
0.0
 10
72.34753407562764
 20
286.2476096706547
 30
0.0
 10
72.31414646425742
 20
286.2874309333996
 30
0.0
 10
72.28705535506548
 20
286.3336560028424
 30
0.0
 10
72.26542567794253
 20
286.3864950286755
 30
0.0
 10
72.24945136513935
 20
286.44340985875
 30
0.0
 10
72.23855553769758
 20
286.5053733298832
 30
0.0
 10
72.23216847832629
 20
286.569811243644
 30
0.0
 10
72.23147117213271
 20
286.6141544399269
 30
0.0
 10
72.2311225858
 20
286.6363217924
 30
0.0
 11
72.8078242628
 21
286.2414002339
 31
0.0
 11
72.75103373036835
 21
286.216209052139
 31
0.0
 11
72.69247470100866
 21
286.1953730704302
 31
0.0
 11
72.63726098836625
 21
286.1810903745147
 31
0.0
 11
72.58083620975967
 21
286.172820388323
 31
0.0
 11
72.52879238759077
 21
286.171856038798
 31
0.0
 11
72.47724807316513
 21
286.1787386283252
 31
0.0
 11
72.43047537938409
 21
286.1936068907762
 31
0.0
 11
72.38727941169807
 21
286.2167848526944
 31
0.0
 11
72.34862642459363
 21
286.2486421758823
 31
0.0
 11
72.31626399477747
 21
286.2869883617399
 31
0.0
 11
72.28823317005683
 21
286.3342055896255
 31
0.0
 11
72.26713926167592
 21
286.3849410318029
 31
0.0
 11
72.25044223686598
 21
286.4436239167248
 31
0.0
 11
72.23959936089113
 21
286.5036674305383
 31
0.0
 11
72.23308827973294
 21
286.5698621514873
 31
0.0
 11
72.2311225858
 21
286.6363217924
 31
0.0
  0
SPLINE
  5
EC
330
1F
100
AcDbEntity
  8
VERERBUNG
  6
Continuous
 62
     7
100
AcDbSpline
210
0.0
220
0.0
230
1.0
 70
     8
 71
     3
 72
     9
 73
     5
 74
     3
 42
0.0000000001
 43
0.0000000001
 44
0.00000001
 40
0.0
 40
0.0
 40
0.0
 40
0.0
 40
0.0773963057094154
 40
0.1547963631991666
 40
0.1547963631991666
 40
0.1547963631991666
 40
0.1547963631991666
 10
72.9027973963
 20
286.1191899142
 30
0.0
 10
72.88645966594912
 20
286.1391620475505
 30
0.0
 10
72.85378341327713
 20
286.1791072823993
 30
0.0
 10
72.82314422715844
 20
286.2206355812277
 30
0.0
 10
72.8078242628
 20
286.2414002339
 30
0.0
 11
72.9027973963
 21
286.1191899142
 31
0.0
 11
72.85429344719999
 21
286.1795020610625
 31
0.0
 11
72.8078242628
 21
286.2414002339
 31
0.0
  0
SPLINE
  5
ED
330
1F
100
AcDbEntity
  8
VERERBUNG
  6
Continuous
 62
     7
100
AcDbSpline
210
0.0
220
0.0
230
1.0
 70
     8
 71
     3
 72
    15
 73
    11
 74
     9
 42
0.0000000001
 43
0.0000000001
 44
0.00000001
 40
0.0
 40
0.0
 40
0.0
 40
0.0
 40
0.0705890228665347
 40
0.1413178421971618
 40
0.2119756691020978
 40
0.2826066759641623
 40
0.3532320943186011
 40
0.4238693692910513
 40
0.4944866364805137
 40
0.5650782701284935
 40
0.5650782701284935
 40
0.5650782701284935
 40
0.5650782701284935
 10
73.3710795215
 20
285.8271619828
 30
0.0
 10
73.34781445218181
 20
285.8309040232134
 30
0.0
 10
73.30123823875513
 20
285.838395514881
 30
0.0
 10
73.2340042263206
 20
285.8610593196664
 30
0.0
 10
73.16981859910352
 20
285.8908874075468
 30
0.0
 10
73.10924196872779
 20
285.9274716647556
 30
0.0
 10
73.0522863759873
 20
285.969388172258
 30
0.0
 10
72.99898898686172
 20
286.0158194201887
 30
0.0
 10
72.94888878790539
 20
286.0656842509696
 30
0.0
 10
72.91815933407055
 20
286.101356851663
 30
0.0
 10
72.9027973963
 20
286.1191899142
 30
0.0
 11
73.3710795215
 21
285.8271619828
 31
0.0
 11
73.30172177353381
 21
285.8402887853929
 31
0.0
 11
73.23449265539429
 21
285.8622617587485
 31
0.0
 11
73.17040704181007
 21
285.8920201631826
 31
0.0
 11
73.10984292026221
 21
285.92836196159
 31
0.0
 11
73.05289858627316
 21
285.9701386601704
 31
0.0
 11
72.99951564262153
 21
286.0163975613963
 31
0.0
 11
72.94954934360308
 21
286.0662991384025
 31
0.0
 11
72.9027973963
 21
286.1191899142
 31
0.0
  0
SPLINE
  5
EE
330
1F
100
AcDbEntity
  8
VERERBUNG
  6
Continuous
 62
     7
100
AcDbSpline
210
0.0
220
0.0
230
1.0
 70
     8
 71
     3
 72
    15
 73
    11
 74
     9
 42
0.0000000001
 43
0.0000000001
 44
0.00000001
 40
0.0
 40
0.0
 40
0.0
 40
0.0
 40
0.0705917490694852
 40
0.141209131078934
 40
0.2118461807340623
 40
0.2824713748307232
 40
0.3531025103982597
 40
0.4237604657828734
 40
0.4944892662598953
 40
0.5650782700244554
 40
0.5650782700244554
 40
0.5650782700244554
 40
0.5650782700244554
 10
72.9027973963
 20
304.6591899142
 30
0.0
 10
72.91815935857119
 20
304.6770230064166
 30
0.0
 10
72.94888886127619
 20
304.7126956663172
 30
0.0
 10
72.99898906356532
 20
304.7625604967011
 30
0.0
 10
73.05228637835926
 20
304.8089916598113
 30
0.0
 10
73.10924188465412
 20
304.8509081028141
 30
0.0
 10
73.16981851872319
 20
304.8874923756725
 30
0.0
 10
73.23400421699031
 20
304.917320500263
 30
0.0
 10
73.3012382576987
 20
304.9399843153824
 30
0.0
 10
73.3478144585236
 20
304.9474758057457
 30
0.0
 10
73.3710795215
 20
304.9512178455
 30
0.0
 11
72.9027973963
 21
304.6591899142
 31
0.0
 11
72.94954941886688
 21
304.7120807775187
 31
0.0
 11
72.99951580319278
 21
304.7619824315921
 31
0.0
 11
73.05289858475233
 21
304.8082411758136
 31
0.0
 11
73.10984273697603
 21
304.8500177430339
 31
0.0
 11
73.17040696335182
 21
304.8863596168857
 31
0.0
 11
73.23449269223718
 21
304.9161180780752
 31
0.0
 11
73.30172179248981
 21
304.9380910454702
 31
0.0
 11
73.3710795215
 21
304.9512178455
 31
0.0
  0
SPLINE
  5
EF
330
1F
100
AcDbEntity
  8
VERERBUNG
  6
Continuous
 62
     7
100
AcDbSpline
210
0.0
220
0.0
230
1.0
 70
     8
 71
     3
 72
     9
 73
     5
 74
     3
 42
0.0000000001
 43
0.0000000001
 44
0.00000001
 40
0.0
 40
0.0
 40
0.0
 40
0.0
 40
0.0774000574997606
 40
0.1547963632773387
 40
0.1547963632773387
 40
0.1547963632773387
 40
0.1547963632773387
 10
72.8078242628
 20
304.5369795944
 30
0.0
 10
72.82314422716154
 20
304.5577442470739
 30
0.0
 10
72.85378341329795
 20
304.5992725459211
 30
0.0
 10
72.886459665952
 20
304.6392177808179
 30
0.0
 10
72.9027973963
 20
304.6591899142
 30
0.0
 11
72.8078242628
 21
304.5369795944
 31
0.0
 11
72.8542934472
 21
304.59887776725
 31
0.0
 11
72.9027973963
 21
304.6591899142
 31
0.0
  0
SPLINE
  5
F0
330
1F
100
AcDbEntity
  8
VERERBUNG
  6
Continuous
 62
     7
100
AcDbSpline
210
0.0
220
0.0
230
1.0
 70
     8
 71
     3
 72
    43
 73
    39
 74
    37
 42
0.0000000001
 43
0.0000000001
 44
0.00000001
 40
0.0
 40
0.0
 40
0.0
 40
0.0
 40
0.4175881289697221
 40
0.8356316530980195
 40
1.253282832015751
 40
1.670787328079224
 40
2.088079154548118
 40
2.50545823712899
 40
2.922766757488826
 40
3.339867556052887
 40
3.548612845983506
 40
3.757291312431255
 40
3.966036487533279
 40
4.174848410693874
 40
4.592416990848366
 40
5.010187344139979
 40
5.428059866844626
 40
5.845880990784795
 40
6.263484877131922
 40
6.681103578739003
 40
7.097989619696635
 40
7.514858051210546
 40
7.930683045122446
 40
8.346557961746493
 40
8.761608457051002
 40
9.176458234594602
 40
9.383846863131913
 40
9.591169424610149
 40
9.798492920794875
 40
10.00588294523281
 40
10.42072923637003
 40
10.83577763645842
 40
11.25173036418745
 40
11.66760664530834
 40
12.08452417578214
 40
12.50157511610322
 40
12.91952009630677
 40
13.33702820998355
 40
13.33702820998355
 40
13.33702820998355
 40
13.33702820998355
 10
90.9817488756
 20
295.3891899142
 30
0.0
 10
90.98566975500243
 20
295.5284451927554
 30
0.0
 10
90.99351578966997
 20
295.807107612851
 30
0.0
 10
91.0576673898085
 20
296.2209596716295
 30
0.0
 10
91.1590778464086
 20
296.6267269836752
 30
0.0
 10
91.30052513941546
 20
297.0203002169732
 30
0.0
 10
91.47990517980486
 20
297.3979083596205
 30
0.0
 10
91.6955724746816
 20
297.755993699257
 30
0.0
 10
91.94549258256191
 20
298.0909533847761
 30
0.0
 10
92.18016260754507
 20
298.3483708728416
 30
0.0
 10
92.3823309928574
 20
298.5395804535913
 30
0.0
 10
92.54091454894879
 20
298.6754217885065
 30
0.0
 10
92.70599603447286
 20
298.8033239214394
 30
0.0
 10
92.93424657611678
 20
298.9628432905562
 30
0.0
 10
93.23400570412481
 20
299.1409104141326
 30
0.0
 10
93.61285843737457
 20
299.318452091482
 30
0.0
 10
94.00740095088008
 20
299.458003726131
 30
0.0
 10
94.41361385295686
 20
299.5583828554571
 30
0.0
 10
94.8276099780449
 20
299.6185527884602
 30
0.0
 10
95.24518552219286
 20
299.6381363675059
 30
0.0
 10
95.66242883975993
 20
299.6168278335761
 30
0.0
 10
96.07502971529813
 20
299.5551145802261
 30
0.0
 10
96.47929157856363
 20
299.4534450908169
 30
0.0
 10
96.87115689294592
 20
299.313057726849
 30
0.0
 10
97.24706224062004
 20
299.1350905538878
 30
0.0
 10
97.54417855085705
 20
298.9570687357455
 30
0.0
 10
97.77032146938686
 20
298.7977766069406
 30
0.0
 10
97.93383711138863
 20
298.6701435100356
 30
0.0
 10
98.09090146129961
 20
298.5346497317183
 30
0.0
 10
98.29123142727353
 20
298.3439089121616
 30
0.0
 10
98.52379231837143
 20
298.087228658374
 30
0.0
 10
98.77161166049123
 20
297.7531837502108
 30
0.0
 10
98.98551147557603
 20
297.3960276012435
 30
0.0
 10
99.16361184760133
 20
297.0190885152754
 30
0.0
 10
99.30416625814759
 20
296.6261262391827
 30
0.0
 10
99.40501568865398
 20
296.220661520679
 30
0.0
 10
99.46870037555684
 20
295.8070133933722
 30
0.0
 10
99.47656569353597
 20
295.5284158468043
 30
0.0
 10
99.4804962961
 20
295.3891899142
 30
0.0
 11
90.9817488756
 21
295.3891899142
 31
0.0
 11
91.00223382853193
 21
295.8062752917426
 31
0.0
 11
91.06390552916477
 21
296.2197447457614
 31
0.0
 11
91.1657765346841
 21
296.6247815409861
 31
0.0
 11
91.30687972446854
 21
297.0177190602762
 31
0.0
 11
91.48594409956337
 21
297.3946387042451
 31
0.0
 11
91.70130099206847
 21
297.7521673148857
 31
0.0
 11
91.95081670901271
 21
298.0866644122763
 31
0.0
 11
92.23184201921947
 21
298.3948816265683
 31
0.0
 11
92.38349590818812
 21
298.5383239286584
 31
0.0
 11
92.54197731213597
 21
298.6740823426213
 31
0.0
 11
92.70699106264264
 21
298.8019299482777
 31
0.0
 11
92.87814933135738
 21
298.921542933796
 31
0.0
 11
93.23712499890632
 21
299.1348501986513
 31
0.0
 11
93.61542915451189
 21
299.3121015285221
 31
0.0
 11
94.00937154601954
 21
299.4514817186668
 31
0.0
 11
94.41499595807213
 21
299.5516981242979
 31
0.0
 11
94.82825349612729
 21
299.6117914944215
 31
0.0
 11
95.24541534070802
 21
299.6313203284365
 31
0.0
 11
95.66176005363938
 21
299.6100823633873
 31
0.0
 11
96.07403620737685
 21
299.5483761055822
 31
0.0
 11
96.47730639954467
 21
299.4469681292156
 31
0.0
 11
96.8688006427441
 21
299.3066677235898
 31
0.0
 11
97.24394509995606
 21
299.1290908391829
 31
0.0
 11
97.59977766668382
 21
298.9158221767313
 31
0.0
 11
97.7693300290469
 21
298.7963983949134
 31
0.0
 11
97.93276170983314
 21
298.6688337829974
 31
0.0
 11
98.08974343618544
 21
298.5334093772881
 31
0.0
 11
98.2399379376618
 21
298.3903980701735
 31
0.0
 11
98.51850352360563
 21
298.0829917273663
 31
0.0
 11
98.76575845532855
 21
297.749629802194
 31
0.0
 11
98.97950830474478
 21
297.392799767612
 31
0.0
 11
99.15719855929967
 21
297.0167954396646
 31
0.0
 11
99.29750222104734
 21
296.6241949942795
 31
0.0
 11
99.39875493932338
 21
296.2196219182297
 31
0.0
 11
99.46006002575795
 21
295.8061975686147
 31
0.0
 11
99.4804962961
 21
295.3891899142
 31
0.0
  0
SPLINE
  5
F1
330
1F
100
AcDbEntity
  8
VERERBUNG
  6
Continuous
 62
     7
100
AcDbSpline
210
0.0
220
0.0
230
1.0
 70
     8
 71
     3
 72
    43
 73
    39
 74
    37
 42
0.0000000001
 43
0.0000000001
 44
0.00000001
 40
0.0
 40
0.0
 40
0.0
 40
0.0
 40
0.4175035109906805
 40
0.8354555648623214
 40
1.252511183724474
 40
1.669422664506057
 40
2.085295425827597
 40
2.501251326669527
 40
2.916298094160153
 40
3.331138757784622
 40
3.538526233005149
 40
3.745847790951227
 40
3.953170095096818
 40
4.160558348189627
 40
4.575407544434018
 40
4.990456744693066
 40
5.406332394492023
 40
5.82215881612462
 40
6.239027280561834
 40
6.655913113607663
 40
7.073532178599595
 40
7.491136194414111
 40
7.908956414522843
 40
8.326828662594691
 40
8.744600199995801
 40
9.162169349399049
 40
9.370981458444692
 40
9.579726706226928
 40
9.788406630792972
 40
9.997153926541747
 40
10.41425933416814
 40
10.83156890853212
 40
11.24894510865089
 40
11.66624011610505
 40
12.08375102633782
 40
12.50139861938998
 40
12.91943544786397
 40
13.33702799567253
 40
13.33702799567253
 40
13.33702799567253
 40
13.33702799567253
 10
99.4804962961
 20
295.3891899142
 30
0.0
 10
99.47659171660527
 20
295.2499637072794
 30
0.0
 10
99.46877836274977
 20
294.9713617164352
 30
0.0
 10
99.40498876826832
 20
294.557724433317
 30
0.0
 10
99.30415210345353
 20
294.1522589171788
 30
0.0
 10
99.16362622663236
 20
293.7592866621443
 30
0.0
 10
98.98551417817865
 20
293.3823543439465
 30
0.0
 10
98.77160064749722
 20
293.0252081575107
 30
0.0
 10
98.523798504416
 20
292.691153296212
 30
0.0
 10
98.29125043402078
 20
292.4344647719055
 30
0.0
 10
98.09091792305826
 20
292.2437312685469
 30
0.0
 10
97.93384925629601
 20
292.1082449383724
 30
0.0
 10
97.77033088027275
 20
291.9806168296798
 30
0.0
 10
97.5441866156938
 20
291.821327458164
 30
0.0
 10
97.24707453803074
 20
291.6433007216979
 30
0.0
 10
96.87117401204956
 20
291.4653237879369
 30
0.0
 10
96.47930840370688
 20
291.3249355223271
 30
0.0
 10
96.07504523584572
 20
291.2232683909542
 30
0.0
 10
95.66244413231469
 20
291.1615545157599
 30
0.0
 10
95.24520088589433
 20
291.1402438165686
 30
0.0
 10
94.82762512357671
 20
291.1598249046539
 30
0.0
 10
94.41362886967637
 20
291.2199937003955
 30
0.0
 10
94.00741679217639
 20
291.3203749321358
 30
0.0
 10
93.61287436290439
 20
291.4599260450015
 30
0.0
 10
93.2340173246116
 20
291.6374592656275
 30
0.0
 10
92.93425439351978
 20
291.8155218277188
 30
0.0
 10
92.70600479604508
 20
291.9750431531328
 30
0.0
 10
92.54092563154984
 20
292.1029493032906
 30
0.0
 10
92.38234595885362
 20
292.2387970094297
 30
0.0
 10
92.18018004968283
 20
292.4300129085971
 30
0.0
 10
91.94549914568891
 20
292.6874229947757
 30
0.0
 10
91.69556418394653
 20
293.0223737174633
 30
0.0
 10
91.47990862926466
 20
293.3804674989517
 30
0.0
 10
91.30053816749049
 20
293.758081707665
 30
0.0
 10
91.15906550123613
 20
294.1516466015804
 30
0.0
 10
91.05764518211487
 20
294.5574142299774
 30
0.0
 10
90.99359321232986
 20
294.9712768185298
 30
0.0
 10
90.98569558819497
 20
295.2499349338739
 30
0.0
 10
90.9817488756
 20
295.3891899142
 30
0.0
 11
99.4804962961
 21
295.3891899142
 31
0.0
 11
99.4601079135877
 21
294.9721845238894
 31
0.0
 11
99.39874737082671
 21
294.5587612503215
 31
0.0
 11
99.29748950991
 21
294.1541846385073
 31
0.0
 11
99.15720657926778
 21
293.761583209348
 31
0.0
 11
98.97951181438287
 21
293.3855849059719
 31
0.0
 11
98.7657516166955
 21
293.0287573715385
 31
0.0
 11
98.51850830844931
 21
292.6953888581304
 31
0.0
 11
98.23995533076788
 21
292.3879786845492
 31
0.0
 11
98.08975976487297
 21
292.2449721921657
 31
0.0
 11
97.93277464438944
 21
292.1095546883637
 31
0.0
 11
97.76933976884783
 21
291.9819945878113
 31
0.0
 11
97.59978647558974
 21
291.8625727796428
 31
0.0
 11
97.24395722193223
 21
291.6492997202421
 31
0.0
 11
96.8688176367409
 21
291.4717155704478
 31
0.0
 11
96.47732334582308
 21
291.3314131247298
 31
0.0
 11
96.07405139969265
 21
291.2300062689855
 31
0.0
 11
95.66177525776851
 21
291.1682997098334
 31
0.0
 11
95.24543085205781
 21
291.1470598033432
 31
0.0
 11
94.82826854083521
 21
291.1665864400263
 31
0.0
 11
94.41501076026152
 21
291.2266790420645
 31
0.0
 11
94.0093875190956
 21
291.3268964185905
 31
0.0
 11
93.61544487532478
 21
291.4662750723632
 31
0.0
 11
93.23713643785716
 21
291.6435200542479
 31
0.0
 11
92.87815765108583
 21
291.8568231840457
 31
0.0
 11
92.70700011067872
 21
291.9764375362191
 31
0.0
 11
92.54198909141769
 21
292.1042887857011
 31
0.0
 11
92.38351077670006
 21
292.2400530471293
 31
0.0
 11
92.23185801519047
 21
292.3834994601515
 31
0.0
 11
91.95082200297594
 21
292.6917131537307
 31
0.0
 11
91.70129633604006
 21
293.026204143738
 31
0.0
 11
91.48594826935448
 21
293.3837347055091
 31
0.0
 11
91.30688736895573
 21
293.7606595218778
 31
0.0
 11
91.1657656661354
 21
294.1535972079764
 31
0.0
 11
91.06390128046792
 21
294.5586319705769
 31
0.0
 11
91.00228210782797
 21
294.9721024864831
 31
0.0
 11
90.9817488756
 21
295.3891899142
 31
0.0
  0
SPLINE
  5
F2
330
1F
100
AcDbEntity
  8
0
  6
Continuous
 62
     7
100
AcDbSpline
210
0.0
220
0.0
230
1.0
 70
     8
 71
     3
 72
    17
 73
    13
 74
    11
 42
0.0000000001
 43
0.0000000001
 44
0.00000001
 40
0.0
 40
0.0
 40
0.0
 40
0.0
 40
0.0680277950715851
 40
0.1360632351795497
 40
0.2040812641421788
 40
0.2721696697760416
 40
0.3403702855973905
 40
0.408358548608999
 40
0.4424627524613925
 40
0.4765773021890598
 40
0.5107086427498393
 40
0.5447868109986492
 40
0.5447868109986492
 40
0.5447868109986492
 40
0.5447868109986492
 10
120.9402356953
 20
303.4066899142
 30
0.0
 10
120.9526443178254
 20
303.3877045473367
 30
0.0
 10
120.9774629573704
 20
303.3497316800142
 30
0.0
 10
121.0184045022011
 20
303.295339148779
 30
0.0
 10
121.0626230388609
 20
303.2435442262931
 30
0.0
 10
121.1112031378611
 20
303.1956698228292
 30
0.0
 10
121.164535939038
 20
303.1530893577129
 30
0.0
 10
121.2136910232561
 20
303.1241491254979
 30
0.0
 10
121.2556562610262
 20
303.1066299786276
 30
0.0
 10
121.2883806626852
 20
303.0968120075972
 30
0.0
 10
121.3220081271452
 20
303.0904309793549
 30
0.0
 10
121.3447570108335
 20
303.089603387537
 30
0.0
 10
121.3561225858
 20
303.0891899142
 30
0.0
 11
120.9402356953
 21
303.4066899142
 31
0.0
 11
120.9780808785383
 21
303.3501609569483
 31
0.0
 11
121.0189521087233
 21
303.2957701153125
 31
0.0
 11
121.0633274938206
 21
303.2442213281161
 31
0.0
 11
121.1119690532272
 21
303.1965764996427
 31
0.0
 11
121.1655329741154
 21
303.1543600291898
 31
0.0
 11
121.22435224065
 21
303.120261674513
 31
0.0
 11
121.2558513783819
 21
303.1071887619627
 31
0.0
 11
121.2885271837148
 21
303.0973859945487
 31
0.0
 11
121.3221089112957
 21
303.0912855043096
 31
0.0
 11
121.3561225858
 21
303.0891899142
 31
0.0
  0
SPLINE
  5
F3
330
1F
100
AcDbEntity
  8
0
  6
Continuous
 62
     7
100
AcDbSpline
210
0.0
220
0.0
230
1.0
 70
     8
 71
     3
 72
    17
 73
    13
 74
    11
 42
0.0000000001
 43
0.0000000001
 44
0.00000001
 40
0.0
 40
0.0
 40
0.0
 40
0.0
 40
0.0340790970004155
 40
0.0682097420754955
 40
0.1023154065611425
 40
0.1364128754734852
 40
0.2043992838600353
 40
0.2725935679275313
 40
0.3406803506519773
 40
0.4086986202364756
 40
0.4767464406279197
 40
0.5447862542062347
 40
0.5447862542062347
 40
0.5447862542062347
 40
0.5447862542062347
 10
121.3561225858
 20
287.6891899142
 30
0.0
 10
121.3447566954033
 20
287.6887786465191
 30
0.0
 10
121.3220077225533
 20
287.6879554890734
 30
0.0
 10
121.2883803587853
 20
287.6815876049587
 30
0.0
 10
121.2556638843211
 20
287.6717595755152
 30
0.0
 10
121.2137129181677
 20
287.6542223412931
 30
0.0
 10
121.1645630783463
 20
287.6252864929431
 30
0.0
 10
121.1112218433177
 20
287.5827215940898
 30
0.0
 10
121.0626379119727
 20
287.5348543150481
 30
0.0
 10
121.0184150078425
 20
287.4830582036108
 30
0.0
 10
120.9774690154468
 20
287.4286586855378
 30
0.0
 10
120.9526463151952
 20
287.3906787597872
 30
0.0
 10
120.9402356953
 20
287.3716899142
 30
0.0
 11
121.3561225858
 21
287.6891899142
 31
0.0
 11
121.3221075156677
 21
287.6871018873184
 31
0.0
 11
121.288525112646
 21
287.6810090111069
 31
0.0
 11
121.2558602927299
 21
287.6712005509902
 31
0.0
 11
121.2243726781945
 21
287.6581174505513
 31
0.0
 11
121.1655568113922
 21
287.6240169294762
 31
0.0
 11
121.1119897713103
 21
287.5818146475906
 31
0.0
 11
121.0633433946014
 21
287.5341770572353
 31
0.0
 11
121.0189656107662
 21
287.4826300175614
 31
0.0
 11
120.9780869932757
 21
287.4282292409852
 31
0.0
 11
120.9402356953
 21
287.3716899142
 31
0.0
  0
SPLINE
  5
F4
330
1F
100
AcDbEntity
  8
VERERBUNG
  6
Continuous
 62
     7
100
AcDbSpline
210
0.0
220
0.0
230
1.0
 70
     8
 71
     3
 72
    23
 73
    19
 74
    17
 42
0.0000000001
 43
0.0000000001
 44
0.00000001
 40
0.0
 40
0.0
 40
0.0
 40
0.0
 40
0.0664886891193114
 40
0.1330028506457924
 40
0.1940175413999305
 40
0.2550295991378856
 40
0.3099753629280727
 40
0.3648861555240112
 40
0.4150633580713453
 40
0.4651526181629949
 40
0.5141740379142652
 40
0.5632529905409595
 40
0.6152549116083056
 40
0.6673077698324057
 40
0.7243355356363022
 40
0.7813668340518717
 40
0.8435221576441438
 40
0.9056490098398563
 40
0.9056490098398563
 40
0.9056490098398563
 40
0.9056490098398563
 10
72.2311225858
 20
304.1420580359
 30
0.0
 10
72.23147117316216
 20
304.1642253832543
 30
0.0
 10
72.2321684814334
 20
304.2085685704706
 30
0.0
 10
72.23855554060208
 20
304.2730064773449
 30
0.0
 10
72.24945134389957
 20
304.3349699497988
 30
0.0
 10
72.2654256514798
 20
304.3918847814127
 30
0.0
 10
72.28705537847235
 20
304.4447237881309
 30
0.0
 10
72.31414648760935
 20
304.4909488314384
 30
0.0
 10
72.34753397010554
 20
304.530770140614
 30
0.0
 10
72.3860361437487
 20
304.5628075632465
 30
0.0
 10
72.42991971143417
 20
304.5861693644326
 30
0.0
 10
72.4778773003298
 20
304.6013310125176
 30
0.0
 10
72.52875917001528
 20
304.607836139317
 30
0.0
 10
72.58259175951159
 20
304.6065575479903
 30
0.0
 10
72.63748274381886
 20
304.5983003043972
 30
0.0
 10
72.69434915773428
 20
304.583292672419
 30
0.0
 10
72.75139505857356
 20
304.5630512852761
 30
0.0
 10
72.78901740098425
 20
304.5456688306622
 30
0.0
 10
72.8078242628
 20
304.5369795944
 30
0.0
 11
72.2311225858
 21
304.1420580359
 31
0.0
 11
72.2330882821031
 21
304.2085176613793
 31
0.0
 11
72.23959935843193
 21
304.2747123709006
 31
0.0
 11
72.25044221954084
 21
304.3347558955373
 31
0.0
 11
72.26713924588759
 21
304.393438776351
 31
0.0
 11
72.28823318350342
 21
304.4441741954815
 31
0.0
 11
72.31626400997091
 21
304.491391437153
 31
0.0
 11
72.34862633200318
 21
304.5297376464592
 31
0.0
 11
72.3872792065695
 21
304.5615949731563
 31
0.0
 11
72.43047510978751
 21
304.5847728406081
 31
0.0
 11
72.47724775540658
 21
304.5996410352774
 31
0.0
 11
72.52879218810101
 21
304.6065237130197
 31
0.0
 11
72.58083611437216
 21
304.605559458084
 31
0.0
 11
72.63726104959632
 21
304.5972894666975
 31
0.0
 11
72.69247491920012
 21
304.5830066937755
 31
0.0
 11
72.75103383703909
 21
304.5621707298576
 31
0.0
 11
72.8078242628
 21
304.5369795944
 31
0.0
  0
SPLINE
  5
F5
330
1F
100
AcDbEntity
  8
0
  6
Continuous
 62
     7
100
AcDbSpline
210
0.0
220
0.0
230
1.0
 70
     8
 71
     3
 72
    17
 73
    13
 74
    11
 42
0.0000000001
 43
0.0000000001
 44
0.00000001
 40
0.0
 40
0.0
 40
0.0
 40
0.0
 40
0.0340781916347845
 40
0.0682095735666624
 40
0.1023243844781949
 40
0.1364288245450518
 40
0.2044171801154524
 40
0.2726179463693071
 40
0.3407061060482363
 40
0.4087238602408114
 40
0.4767591626679538
 40
0.544786828147394
 40
0.544786828147394
 40
0.544786828147394
 40
0.544786828147394
 10
123.1061225858
 20
303.0891899142
 30
0.0
 10
123.1174881684985
 20
303.0896034112433
 30
0.0
 10
123.140237073649
 20
303.0904310507289
 30
0.0
 10
123.173864616511
 20
303.0968122290716
 30
0.0
 10
123.2065892205446
 20
303.1066301254091
 30
0.0
 10
123.2485547266786
 20
303.1241491545362
 30
0.0
 10
123.297709911005
 20
303.1530895754327
 30
0.0
 10
123.3510425195769
 20
303.1956702724385
 30
0.0
 10
123.3996224723219
 20
303.2435446384194
 30
0.0
 10
123.4438408803802
 20
303.2953393823169
 30
0.0
 10
123.4847822968889
 20
303.3497317844059
 30
0.0
 10
123.5096008809024
 20
303.3877045813815
 30
0.0
 10
123.5220094764
 20
303.4066899142
 30
0.0
 11
123.1061225858
 21
303.0891899142
 31
0.0
 11
123.1401362787212
 21
303.0912855856816
 31
0.0
 11
123.1737180333561
 21
303.0973861584599
 31
0.0
 11
123.2063941154109
 21
303.1071889124134
 31
0.0
 11
123.2378935198464
 21
303.1202617985709
 31
0.0
 11
123.2967128341351
 21
303.1543602554241
 31
0.0
 11
123.3502767258546
 21
303.1965770059088
 31
0.0
 11
123.3989180386873
 21
303.2442217346242
 31
0.0
 11
123.4432932413106
 21
303.2957703163461
 31
0.0
 11
123.4841643769568
 21
303.3501610568021
 31
0.0
 11
123.5220094764
 21
303.4066899142
 31
0.0
  0
SPLINE
  5
F6
330
1F
100
AcDbEntity
  8
0
  6
Continuous
 62
     7
100
AcDbSpline
210
0.0
220
0.0
230
1.0
 70
     8
 71
     3
 72
    17
 73
    13
 74
    11
 42
0.0000000001
 43
0.0000000001
 44
0.00000001
 40
0.0
 40
0.0
 40
0.0
 40
0.0
 40
0.0680405843662163
 40
0.1360892263780137
 40
0.2041088007136777
 40
0.2721966988815135
 40
0.3403905142722632
 40
0.4083768375996815
 40
0.4424735706780242
 40
0.4765783279024734
 40
0.5107080465674173
 40
0.5447863433775809
 40
0.5447863433775809
 40
0.5447863433775809
 40
0.5447863433775809
 10
123.5220094764
 20
287.3716899142
 30
0.0
 10
123.5095987041906
 20
287.3906789675273
 30
0.0
 10
123.4847756900372
 20
287.4286593229435
 30
0.0
 10
123.443829098678
 20
287.4830595941886
 30
0.0
 10
123.3996056949429
 20
287.5348566981939
 30
0.0
 10
123.3510210332402
 20
287.5827242274673
 30
0.0
 10
123.2976784589612
 20
287.6252878070038
 30
0.0
 10
123.2485287385068
 20
287.654222739696
 30
0.0
 10
123.2065788380326
 20
287.6717609446181
 30
0.0
 10
123.1738633298064
 20
287.6815894012518
 30
0.0
 10
123.1402366066991
 20
287.6879560410846
 30
0.0
 10
123.1174882094462
 20
287.6887788299277
 30
0.0
 10
123.1061225858
 20
287.6891899142
 30
0.0
 11
123.5220094764
 21
287.3716899142
 31
0.0
 11
123.4841577175954
 21
287.4282298600462
 31
0.0
 11
123.4432786247701
 21
287.4826313071724
 31
0.0
 11
123.3989000783711
 21
287.5341794120098
 31
0.0
 11
123.3502525521696
 21
287.5818174227931
 31
0.0
 11
123.2966849826317
 21
287.6240182752886
 31
0.0
 11
123.2378689800089
 21
287.6581183925178
 31
0.0
 11
123.206382337936
 21
287.6712019156517
 31
0.0
 11
123.1737185122108
 21
287.6810105319826
 31
0.0
 11
123.1401368948486
 21
287.6871025490123
 31
0.0
 11
123.1061225858
 21
287.6891899142
 31
0.0
  0
SPLINE
  5
F7
330
1F
100
AcDbEntity
  8
VERERBUNG
  6
Continuous
 62
     7
100
AcDbSpline
210
0.0
220
0.0
230
1.0
 70
     8
 71
     3
 72
    11
 73
     7
 74
     5
 42
0.0000000001
 43
0.0000000001
 44
0.00000001
 40
0.0
 40
0.0
 40
0.0
 40
0.0
 40
0.542779545236072
 40
1.085508812848599
 40
1.337448492135646
 40
1.589025708897509
 40
1.589025708897509
 40
1.589025708897509
 40
1.589025708897509
 10
72.8078242628
 20
286.2414002339
 30
0.0
 10
72.88555460028459
 20
286.4050205909015
 30
0.0
 10
73.04100807509917
 20
286.7322461487647
 30
0.0
 10
73.16492959721315
 20
287.1628590451403
 30
0.0
 10
73.22248396269632
 20
287.5074920711912
 30
0.0
 10
73.2282444270113
 20
287.6754098057786
 30
0.0
 10
73.2311225858
 20
287.7593082343
 30
0.0
 11
72.8078242628
 21
286.2414002339
 31
0.0
 11
73.02729513753758
 21
286.737829654733
 31
0.0
 11
73.17791918067914
 21
287.2592387604752
 31
0.0
 11
73.21701145898653
 21
287.5081270803619
 31
0.0
 11
73.2311225858
 21
287.7593082343
 31
0.0
  0
SPLINE
  5
F8
330
1F
100
AcDbEntity
  8
VERERBUNG
  6
Continuous
 62
     7
100
AcDbSpline
210
0.0
220
0.0
230
1.0
 70
     8
 71
     3
 72
    11
 73
     7
 74
     5
 42
0.0000000001
 43
0.0000000001
 44
0.00000001
 40
0.0
 40
0.0
 40
0.0
 40
0.0
 40
0.4891002097432883
 40
0.9783817007601053
 40
1.283670603128831
 40
1.588797103076622
 40
1.588797103076622
 40
1.588797103076622
 40
1.588797103076622
 10
73.2311225858
 20
303.019071594
 30
0.0
 10
73.22035182817842
 20
303.1822247873317
 30
0.0
 10
73.19880632083584
 20
303.5085916454856
 30
0.0
 10
73.07529279083045
 20
303.9212105480059
 30
0.0
 10
72.94251238741565
 20
304.2629257523631
 30
0.0
 10
72.85271234050225
 20
304.4456445179703
 30
0.0
 10
72.8078242628
 20
304.5369795944
 30
0.0
 11
73.2311225858
 21
303.019071594
 31
0.0
 11
73.18066868185369
 21
303.5055625176024
 31
0.0
 11
73.05020044823016
 21
303.9771284381976
 31
0.0
 11
72.93846643048953
 21
304.2612355010965
 31
0.0
 11
72.8078242628
 21
304.5369795944
 31
0.0
  0
DIMENSION
  5
103
330
1F
100
AcDbEntity
  8
1
100
AcDbDimension
  2
*D2
 10
237.39344005572
 20
319.3891899142
 30
0.0
 11
233.64344005572
 21
295.436048927165
 31
0.0
 70
    32
  1
<>
 71
     5
 42
-1.0
 53
90.0
  3
ME10_DIM_10
100
AcDbAlignedDimension
 13
218.8169090235
 23
271.3891899142
 33
0.0
 14
218.8169090235
 24
319.3891899142
 34
0.0
 50
90.0
100
AcDbRotatedDimension
  0
DIMENSION
  5
10E
330
1F
100
AcDbEntity
  8
1
100
AcDbDimension
  2
*D3
 10
224.2311225858
 20
334.47968260052
 30
0.0
 11
177.326311327483
 21
338.22968260052
 31
0.0
 70
    32
  1
<>
 71
     5
 42
-1.0
 53
0.00013888888889
  3
ME10_DIM_11
100
AcDbAlignedDimension
 13
130.2311225858
 23
326.8891410086
 33
0.0
 14
224.2311225858
 24
313.9749763518
 34
0.0
100
AcDbRotatedDimension
  0
DIMENSION
  5
119
330
1F
100
AcDbEntity
  8
1
100
AcDbDimension
  2
*D4
 10
224.2311225858
 20
341.40046047573
 30
0.0
 11
164.659982008703
 21
345.15046047573
 31
0.0
 70
    32
  1
<>
 71
     5
 42
-1.0
 53
0.00013888888889
  3
ME10_DIM_12
100
AcDbAlignedDimension
 13
104.2311225858
 23
326.8891899142
 33
0.0
 14
224.2311225858
 24
313.9749763518
 34
0.0
100
AcDbRotatedDimension
  0
DIMENSION
  5
124
330
1F
100
AcDbEntity
  8
1
100
AcDbDimension
  2
*D5
 10
224.2311225858
 20
349.104722638699
 30
0.0
 11
154.866428411708
 21
352.854722638699
 31
0.0
 70
    32
  1
<>
 71
     5
 42
-1.0
 53
0.00013888888889
  3
ME10_DIM_13
100
AcDbAlignedDimension
 13
72.2311225858
 23
316.9652170943
 33
0.0
 14
224.2311225858
 24
313.9749763518
 34
0.0
100
AcDbRotatedDimension
  0
INSERT
  5
12B
330
1F
100
AcDbEntity
  8
1
100
AcDbBlockReference
  2
*D6
 10
0.0
 20
0.0
 30
0.0
  0
ENDSEC
  0
SECTION
  2
OBJECTS
  0
DICTIONARY
  5
C
330
0
100
AcDbDictionary
281
     1
  3
ACAD_GROUP
350
D
  3
ACAD_LAYOUT
350
1A
  3
ACAD_MLEADERSTYLE
350
12E
  3
ACAD_MLINESTYLE
350
17
  3
ACAD_PLOTSETTINGS
350
19
  3
ACAD_PLOTSTYLENAME
350
E
  3
ACAD_SCALELIST
350
4A
  3
ACAD_VISUALSTYLE
350
2A
  3
AcDbVariableDictionary
350
12C
  0
DICTIONARY
  5
D
102
{ACAD_REACTORS
330
C
102
}
330
C
100
AcDbDictionary
281
     1
  0
DICTIONARY
  5
1A
102
{ACAD_REACTORS
330
C
102
}
330
C
100
AcDbDictionary
281
     1
  3
Layout1
350
1E
  3
Layout2
350
26
  3
Model
350
22
  0
DICTIONARY
  5
12E
102
{ACAD_REACTORS
330
C
102
}
330
C
100
AcDbDictionary
281
     1
  0
DICTIONARY
  5
17
102
{ACAD_REACTORS
330
C
102
}
330
C
100
AcDbDictionary
281
     1
  3
Standard
350
18
  0
DICTIONARY
  5
19
102
{ACAD_REACTORS
330
C
102
}
330
C
100
AcDbDictionary
281
     1
  0
ACDBDICTIONARYWDFLT
  5
E
102
{ACAD_REACTORS
330
C
102
}
330
C
100
AcDbDictionary
281
     1
  3
Normal
350
F
100
AcDbDictionaryWithDefault
340
F
  0
DICTIONARY
  5
4A
102
{ACAD_REACTORS
330
C
102
}
330
C
100
AcDbDictionary
281
     1
  3
A0
350
4B
  3
A1
350
4C
  3
A2
350
4D
  3
A3
350
4E
  3
A4
350
4F
  3
A5
350
50
  3
A6
350
51
  3
A7
350
52
  3
A8
350
53
  3
A9
350
54
  3
B0
350
55
  3
B1
350
56
  3
B2
350
57
  3
B3
350
58
  3
B4
350
59
  3
B5
350
5A
  3
B6
350
5B
  3
B7
350
5C
  3
B8
350
5D
  3
B9
350
5E
  3
C0
350
5F
  3
C1
350
60
  3
C2
350
61
  3
C3
350
62
  3
C4
350
63
  3
C5
350
64
  3
C6
350
65
  3
C7
350
66
  3
C8
350
67
  3
C9
350
68
  3
D0
350
69
  3
D1
350
6A
  3
D2
350
6B
  0
DICTIONARY
  5
2A
102
{ACAD_REACTORS
330
C
102
}
330
C
100
AcDbDictionary
281
     1
  3
2dWireframe
350
2F
  3
3D Hidden
350
31
  3
3dWireframe
350
30
  3
Basic
350
32
  3
Brighten
350
36
  3
ColorChange
350
3A
  3
Conceptual
350
34
  3
Dim
350
35
  3
Facepattern
350
39
  3
Flat
350
2B
  3
FlatWithEdges
350
2C
  3
Gouraud
350
2D
  3
GouraudWithEdges
350
2E
  3
Linepattern
350
38
  3
Realistic
350
33
  3
Thicken
350
37
  0
DICTIONARY
  5
12C
102
{ACAD_REACTORS
330
C
102
}
330
C
100
AcDbDictionary
281
     1
  3
CANNOSCALE
350
12F
  0
LAYOUT
  5
1E
102
{ACAD_REACTORS
330
1A
102
}
330
1A
100
AcDbPlotSettings
  1

  2
none_device
  4

  6

 40
0.0
 41
0.0
 42
0.0
 43
0.0
 44
0.0
 45
0.0
 46
0.0
 47
0.0
 48
0.0
 49
0.0
140
0.0
141
0.0
142
1.0
143
1.0
 70
   688
 72
     0
 73
     0
 74
     5
  7

 75
    16
147
1.0
148
0.0
149
0.0
100
AcDbLayout
  1
Layout1
 70
     1
 71
     1
 10
0.0
 20
0.0
 11
12.0
 21
9.0
 12
0.0
 22
0.0
 32
0.0
 14
1.00000000000000E+20
 24
1.00000000000000E+20
 34
1.00000000000000E+20
 15
-1.00000000000000E+20
 25
-1.00000000000000E+20
 35
-1.00000000000000E+20
146
0.0
 13
0.0
 23
0.0
 33
0.0
 16
1.0
 26
0.0
 36
0.0
 17
0.0
 27
1.0
 37
0.0
 76
     0
330
1B
  0
LAYOUT
  5
26
102
{ACAD_REACTORS
330
1A
102
}
330
1A
100
AcDbPlotSettings
  1

  2
none_device
  4

  6

 40
0.0
 41
0.0
 42
0.0
 43
0.0
 44
0.0
 45
0.0
 46
0.0
 47
0.0
 48
0.0
 49
0.0
140
0.0
141
0.0
142
1.0
143
1.0
 70
   688
 72
     0
 73
     0
 74
     5
  7

 75
    16
147
1.0
148
0.0
149
0.0
100
AcDbLayout
  1
Layout2
 70
     1
 71
     2
 10
0.0
 20
0.0
 11
0.0
 21
0.0
 12
0.0
 22
0.0
 32
0.0
 14
0.0
 24
0.0
 34
0.0
 15
0.0
 25
0.0
 35
0.0
146
0.0
 13
0.0
 23
0.0
 33
0.0
 16
1.0
 26
0.0
 36
0.0
 17
0.0
 27
1.0
 37
0.0
 76
     0
330
23
  0
LAYOUT
  5
22
102
{ACAD_REACTORS
330
1A
102
}
330
1A
100
AcDbPlotSettings
  1

  2
none_device
  4

  6

 40
0.0
 41
0.0
 42
0.0
 43
0.0
 44
0.0
 45
0.0
 46
0.0
 47
0.0
 48
0.0
 49
0.0
140
0.0
141
0.0
142
1.0
143
1.0
 70
  1712
 72
     0
 73
     0
 74
     0
  7

 75
     0
147
1.0
148
0.0
149
0.0
100
AcDbLayout
  1
Model
 70
     1
 71
     0
 10
0.0
 20
0.0
 11
12.0
 21
9.0
 12
0.0
 22
0.0
 32
0.0
 14
50.24341246084541
 24
254.1634441919188
 34
0.0
 15
239.39344005572
 25
362.932831109225
 35
0.0
146
0.0
 13
0.0
 23
0.0
 33
0.0
 16
1.0
 26
0.0
 36
0.0
 17
0.0
 27
1.0
 37
0.0
 76
     0
330
1F
331
29
  0
MLINESTYLE
  5
18
102
{ACAD_REACTORS
330
17
102
}
330
17
100
AcDbMlineStyle
  2
Standard
 70
     0
  3

 62
   256
 51
90.0
 52
90.0
 71
     2
 49
0.5
 62
   256
  6
BYLAYER
 49
-0.5
 62
   256
  6
BYLAYER
  0
ACDBPLACEHOLDER
  5
F
102
{ACAD_REACTORS
330
E
102
}
330
E
  0
SCALE
  5
4B
102
{ACAD_REACTORS
330
4A
102
}
330
4A
100
AcDbScale
 70
     0
300
1:1
140
1.0
141
1.0
290
     1
  0
SCALE
  5
4C
102
{ACAD_REACTORS
330
4A
102
}
330
4A
100
AcDbScale
 70
     0
300
1:2
140
1.0
141
2.0
290
     0
  0
SCALE
  5
4D
102
{ACAD_REACTORS
330
4A
102
}
330
4A
100
AcDbScale
 70
     0
300
1:4
140
1.0
141
4.0
290
     0
  0
SCALE
  5
4E
102
{ACAD_REACTORS
330
4A
102
}
330
4A
100
AcDbScale
 70
     0
300
1:5
140
1.0
141
5.0
290
     0
  0
SCALE
  5
4F
102
{ACAD_REACTORS
330
4A
102
}
330
4A
100
AcDbScale
 70
     0
300
1:8
140
1.0
141
8.0
290
     0
  0
SCALE
  5
50
102
{ACAD_REACTORS
330
4A
102
}
330
4A
100
AcDbScale
 70
     0
300
1:10
140
1.0
141
10.0
290
     0
  0
SCALE
  5
51
102
{ACAD_REACTORS
330
4A
102
}
330
4A
100
AcDbScale
 70
     0
300
1:16
140
1.0
141
16.0
290
     0
  0
SCALE
  5
52
102
{ACAD_REACTORS
330
4A
102
}
330
4A
100
AcDbScale
 70
     0
300
1:20
140
1.0
141
20.0
290
     0
  0
SCALE
  5
53
102
{ACAD_REACTORS
330
4A
102
}
330
4A
100
AcDbScale
 70
     0
300
1:30
140
1.0
141
30.0
290
     0
  0
SCALE
  5
54
102
{ACAD_REACTORS
330
4A
102
}
330
4A
100
AcDbScale
 70
     0
300
1:40
140
1.0
141
40.0
290
     0
  0
SCALE
  5
55
102
{ACAD_REACTORS
330
4A
102
}
330
4A
100
AcDbScale
 70
     0
300
1:50
140
1.0
141
50.0
290
     0
  0
SCALE
  5
56
102
{ACAD_REACTORS
330
4A
102
}
330
4A
100
AcDbScale
 70
     0
300
1:100
140
1.0
141
100.0
290
     0
  0
SCALE
  5
57
102
{ACAD_REACTORS
330
4A
102
}
330
4A
100
AcDbScale
 70
     0
300
2:1
140
2.0
141
1.0
290
     0
  0
SCALE
  5
58
102
{ACAD_REACTORS
330
4A
102
}
330
4A
100
AcDbScale
 70
     0
300
4:1
140
4.0
141
1.0
290
     0
  0
SCALE
  5
59
102
{ACAD_REACTORS
330
4A
102
}
330
4A
100
AcDbScale
 70
     0
300
8:1
140
8.0
141
1.0
290
     0
  0
SCALE
  5
5A
102
{ACAD_REACTORS
330
4A
102
}
330
4A
100
AcDbScale
 70
     0
300
10:1
140
10.0
141
1.0
290
     0
  0
SCALE
  5
5B
102
{ACAD_REACTORS
330
4A
102
}
330
4A
100
AcDbScale
 70
     0
300
100:1
140
100.0
141
1.0
290
     0
  0
SCALE
  5
5C
102
{ACAD_REACTORS
330
4A
102
}
330
4A
100
AcDbScale
 70
     0
300
1/128" = 1'-0"
140
0.0078125
141
12.0
290
     0
  0
SCALE
  5
5D
102
{ACAD_REACTORS
330
4A
102
}
330
4A
100
AcDbScale
 70
     0
300
1/64" = 1'-0"
140
0.015625
141
12.0
290
     0
  0
SCALE
  5
5E
102
{ACAD_REACTORS
330
4A
102
}
330
4A
100
AcDbScale
 70
     0
300
1/32" = 1'-0"
140
0.03125
141
12.0
290
     0
  0
SCALE
  5
5F
102
{ACAD_REACTORS
330
4A
102
}
330
4A
100
AcDbScale
 70
     0
300
1/16" = 1'-0"
140
0.0625
141
12.0
290
     0
  0
SCALE
  5
60
102
{ACAD_REACTORS
330
4A
102
}
330
4A
100
AcDbScale
 70
     0
300
3/32" = 1'-0"
140
0.09375
141
12.0
290
     0
  0
SCALE
  5
61
102
{ACAD_REACTORS
330
4A
102
}
330
4A
100
AcDbScale
 70
     0
300
1/8" = 1'-0"
140
0.125
141
12.0
290
     0
  0
SCALE
  5
62
102
{ACAD_REACTORS
330
4A
102
}
330
4A
100
AcDbScale
 70
     0
300
3/16" = 1'-0"
140
0.1875
141
12.0
290
     0
  0
SCALE
  5
63
102
{ACAD_REACTORS
330
4A
102
}
330
4A
100
AcDbScale
 70
     0
300
1/4" = 1'-0"
140
0.25
141
12.0
290
     0
  0
SCALE
  5
64
102
{ACAD_REACTORS
330
4A
102
}
330
4A
100
AcDbScale
 70
     0
300
3/8" = 1'-0"
140
0.375
141
12.0
290
     0
  0
SCALE
  5
65
102
{ACAD_REACTORS
330
4A
102
}
330
4A
100
AcDbScale
 70
     0
300
1/2" = 1'-0"
140
0.5
141
12.0
290
     0
  0
SCALE
  5
66
102
{ACAD_REACTORS
330
4A
102
}
330
4A
100
AcDbScale
 70
     0
300
3/4" = 1'-0"
140
0.75
141
12.0
290
     0
  0
SCALE
  5
67
102
{ACAD_REACTORS
330
4A
102
}
330
4A
100
AcDbScale
 70
     0
300
1" = 1'-0"
140
1.0
141
12.0
290
     0
  0
SCALE
  5
68
102
{ACAD_REACTORS
330
4A
102
}
330
4A
100
AcDbScale
 70
     0
300
1-1/2" = 1'-0"
140
1.5
141
12.0
290
     0
  0
SCALE
  5
69
102
{ACAD_REACTORS
330
4A
102
}
330
4A
100
AcDbScale
 70
     0
300
3" = 1'-0"
140
3.0
141
12.0
290
     0
  0
SCALE
  5
6A
102
{ACAD_REACTORS
330
4A
102
}
330
4A
100
AcDbScale
 70
     0
300
6" = 1'-0"
140
6.0
141
12.0
290
     0
  0
SCALE
  5
6B
102
{ACAD_REACTORS
330
4A
102
}
330
4A
100
AcDbScale
 70
     0
300
1'-0" = 1'-0"
140
12.0
141
12.0
290
     0
  0
VISUALSTYLE
  5
2F
102
{ACAD_REACTORS
330
2A
102
}
330
2A
100
AcDbVisualStyle
  2
2dWireframe
 70
     4
 71
     0
 72
     2
 73
     0
 90
        0
 40
-0.6
 41
-30.0
 62
     5
 63
     7
 74
     1
 91
        4
 64
     7
 65
   257
 75
     1
175
     1
 42
1.0
 92
        0
 66
   257
 43
1.0
 76
     1
 77
     6
 78
     2
 67
     7
 79
     5
170
     0
171
     0
290
     0
174
     0
 93
        1
 44
0.0
173
     0
291
     0
 45
0.0
1001
ACAD
1000
AcDbSavedByObjectVersion
1070
     0
  0
VISUALSTYLE
  5
31
102
{ACAD_REACTORS
330
2A
102
}
330
2A
100
AcDbVisualStyle
  2
3D Hidden
 70
     6
 71
     1
 72
     2
 73
     2
 90
        0
 40
-0.6
 41
-30.0
 62
     5
 63
     7
 74
     2
 91
        2
 64
     7
 65
   257
 75
     2
175
     1
 42
40.0
 92
        0
 66
   257
 43
1.0
 76
     1
 77
     6
 78
     2
 67
     7
 79
     3
170
     0
171
     0
290
     0
174
     0
 93
        1
 44
0.0
173
     0
291
     0
 45
0.0
1001
ACAD
1000
AcDbSavedByObjectVersion
1070
     0
  0
VISUALSTYLE
  5
30
102
{ACAD_REACTORS
330
2A
102
}
330
2A
100
AcDbVisualStyle
  2
3dWireframe
 70
     5
 71
     0
 72
     2
 73
     0
 90
        0
 40
-0.6
 41
-30.0
 62
     5
 63
     7
 74
     1
 91
        4
 64
     7
 65
   257
 75
     1
175
     1
 42
1.0
 92
        0
 66
   257
 43
1.0
 76
     1
 77
     6
 78
     2
 67
     7
 79
     5
170
     0
171
     0
290
     0
174
     0
 93
        1
 44
0.0
173
     0
291
     0
 45
0.0
1001
ACAD
1000
AcDbSavedByObjectVersion
1070
     0
  0
VISUALSTYLE
  5
32
102
{ACAD_REACTORS
330
2A
102
}
330
2A
100
AcDbVisualStyle
  2
Basic
 70
     7
 71
     1
 72
     0
 73
     1
 90
        0
 40
-0.6
 41
-30.0
 62
     5
 63
     7
 74
     0
 91
        4
 64
     7
 65
   257
 75
     1
175
     1
 42
1.0
 92
        8
 66
     7
 43
1.0
 76
     1
 77
     6
 78
     2
 67
     7
 79
     5
170
     0
171
     0
290
     0
174
     0
 93
        1
 44
0.0
173
     0
291
     1
 45
0.0
1001
ACAD
1000
AcDbSavedByObjectVersion
1070
     0
  0
VISUALSTYLE
  5
36
102
{ACAD_REACTORS
330
2A
102
}
330
2A
100
AcDbVisualStyle
  2
Brighten
 70
    12
 71
     2
 72
     2
 73
     0
 90
        0
 40
-0.6
 41
-30.0
 62
     5
 63
     7
 74
     1
 91
        4
 64
     7
 65
   257
 75
     1
175
     1
 42
1.0
 92
        8
 66
     7
 43
1.0
 76
     1
 77
     6
 78
     2
 67
     7
 79
     5
170
     0
171
     0
290
     0
174
     0
 93
        1
 44
50.0
173
     0
291
     1
 45
0.0
1001
ACAD
1000
AcDbSavedByObjectVersion
1070
     0
  0
VISUALSTYLE
  5
3A
102
{ACAD_REACTORS
330
2A
102
}
330
2A
100
AcDbVisualStyle
  2
ColorChange
 70
    16
 71
     2
 72
     2
 73
     3
 90
        0
 40
-0.6
 41
-30.0
 62
     5
 63
     8
 74
     1
 91
        4
 64
     7
 65
   257
 75
     1
175
     1
 42
1.0
 92
        8
 66
     8
 43
1.0
 76
     1
 77
     6
 78
     2
 67
     7
 79
     5
170
     0
171
     0
290
     0
174
     0
 93
        1
 44
0.0
173
     0
291
     1
 45
0.0
1001
ACAD
1000
AcDbSavedByObjectVersion
1070
     0
  0
VISUALSTYLE
  5
34
102
{ACAD_REACTORS
330
2A
102
}
330
2A
100
AcDbVisualStyle
  2
Conceptual
 70
     9
 71
     3
 72
     2
 73
     0
 90
        0
 40
-0.6
 41
-30.0
 62
     5
 63
     7
 74
     2
 91
        2
 64
     7
 65
   257
 75
     1
175
     1
 42
40.0
 92
        8
 66
     7
 43
1.0
 76
     1
 77
     6
 78
     2
 67
     7
 79
     3
170
     0
171
     0
290
     0
174
     0
 93
        1
 44
0.0
173
     0
291
     0
 45
0.0
1001
ACAD
1000
AcDbSavedByObjectVersion
1070
     0
  0
VISUALSTYLE
  5
35
102
{ACAD_REACTORS
330
2A
102
}
330
2A
100
AcDbVisualStyle
  2
Dim
 70
    11
 71
     2
 72
     2
 73
     0
 90
        0
 40
-0.6
 41
-30.0
 62
     5
 63
     7
 74
     1
 91
        4
 64
     7
 65
   257
 75
     1
175
     1
 42
1.0
 92
        8
 66
     7
 43
1.0
 76
     1
 77
     6
 78
     2
 67
     7
 79
     5
170
     0
171
     0
290
     0
174
     0
 93
        1
 44
-50.0
173
     0
291
     1
 45
0.0
1001
ACAD
1000
AcDbSavedByObjectVersion
1070
     0
  0
VISUALSTYLE
  5
39
102
{ACAD_REACTORS
330
2A
102
}
330
2A
100
AcDbVisualStyle
  2
Facepattern
 70
    15
 71
     2
 72
     2
 73
     0
 90
        0
 40
-0.6
 41
-30.0
 62
     5
 63
     7
 74
     1
 91
        4
 64
     7
 65
   257
 75
     1
175
     1
 42
1.0
 92
        8
 66
     7
 43
1.0
 76
     1
 77
     6
 78
     2
 67
     7
 79
     5
170
     0
171
     0
290
     0
174
     0
 93
        1
 44
0.0
173
     0
291
     1
 45
0.0
1001
ACAD
1000
AcDbSavedByObjectVersion
1070
     0
  0
VISUALSTYLE
  5
2B
102
{ACAD_REACTORS
330
2A
102
}
330
2A
100
AcDbVisualStyle
  2
Flat
 70
     0
 71
     2
 72
     1
 73
     1
 90
        2
 40
-0.6
 41
30.0
 62
     5
 63
     7
 74
     0
 91
        4
 64
     7
 65
   257
 75
     1
175
     1
 42
1.0
 92
        8
 66
     7
 43
1.0
 76
     1
 77
     6
 78
     2
 67
     7
 79
     5
170
     0
171
     0
290
     0
174
     0
 93
       13
 44
0.0
173
     0
291
     1
 45
0.0
1001
ACAD
1000
AcDbSavedByObjectVersion
1070
     0
  0
VISUALSTYLE
  5
2C
102
{ACAD_REACTORS
330
2A
102
}
330
2A
100
AcDbVisualStyle
  2
FlatWithEdges
 70
     1
 71
     2
 72
     1
 73
     1
 90
        2
 40
-0.6
 41
30.0
 62
     5
 63
     7
 74
     1
 91
        4
 64
     7
 65
   257
 75
     1
175
     1
 42
1.0
 92
        0
 66
   257
 43
1.0
 76
     1
 77
     6
 78
     2
 67
     7
 79
     5
170
     0
171
     0
290
     0
174
     0
 93
       13
 44
0.0
173
     0
291
     1
 45
0.0
1001
ACAD
1000
AcDbSavedByObjectVersion
1070
     0
  0
VISUALSTYLE
  5
2D
102
{ACAD_REACTORS
330
2A
102
}
330
2A
100
AcDbVisualStyle
  2
Gouraud
 70
     2
 71
     2
 72
     2
 73
     1
 90
        2
 40
-0.6
 41
30.0
 62
     5
 63
     7
 74
     0
 91
        4
 64
     7
 65
   257
 75
     1
175
     1
 42
1.0
 92
        0
 66
     7
 43
1.0
 76
     1
 77
     6
 78
     2
 67
     7
 79
     5
170
     0
171
     0
290
     0
174
     0
 93
       13
 44
0.0
173
     0
291
     1
 45
0.0
1001
ACAD
1000
AcDbSavedByObjectVersion
1070
     0
  0
VISUALSTYLE
  5
2E
102
{ACAD_REACTORS
330
2A
102
}
330
2A
100
AcDbVisualStyle
  2
GouraudWithEdges
 70
     3
 71
     2
 72
     2
 73
     1
 90
        2
 40
-0.6
 41
30.0
 62
     5
 63
     7
 74
     1
 91
        4
 64
     7
 65
   257
 75
     1
175
     1
 42
1.0
 92
        0
 66
   257
 43
1.0
 76
     1
 77
     6
 78
     2
 67
     7
 79
     5
170
     0
171
     0
290
     0
174
     0
 93
       13
 44
0.0
173
     0
291
     1
 45
0.0
1001
ACAD
1000
AcDbSavedByObjectVersion
1070
     0
  0
VISUALSTYLE
  5
38
102
{ACAD_REACTORS
330
2A
102
}
330
2A
100
AcDbVisualStyle
  2
Linepattern
 70
    14
 71
     2
 72
     2
 73
     0
 90
        0
 40
-0.6
 41
-30.0
 62
     5
 63
     7
 74
     1
 91
        4
 64
     7
 65
   257
 75
     7
175
     7
 42
1.0
 92
        8
 66
     7
 43
1.0
 76
     1
 77
     6
 78
     2
 67
     7
 79
     5
170
     0
171
     0
290
     0
174
     0
 93
        1
 44
0.0
173
     0
291
     1
 45
0.0
1001
ACAD
1000
AcDbSavedByObjectVersion
1070
     0
  0
VISUALSTYLE
  5
33
102
{ACAD_REACTORS
330
2A
102
}
330
2A
100
AcDbVisualStyle
  2
Realistic
 70
     8
 71
     2
 72
     2
 73
     0
 90
        0
 40
-0.6
 41
-30.0
 62
     5
 63
     7
 74
     1
 91
        0
 64
     7
 65
   257
 75
     1
175
     1
 42
1.0
 92
        8
 66
     8
 43
1.0
 76
     1
 77
     6
 78
     2
 67
     7
 79
     5
170
     0
171
     0
290
     0
174
     0
 93
       13
 44
0.0
173
     0
291
     0
 45
0.0
1001
ACAD
1000
AcDbSavedByObjectVersion
1070
     0
  0
VISUALSTYLE
  5
37
102
{ACAD_REACTORS
330
2A
102
}
330
2A
100
AcDbVisualStyle
  2
Thicken
 70
    13
 71
     2
 72
     2
 73
     0
 90
        0
 40
-0.6
 41
-30.0
 62
     5
 63
     7
 74
     1
 91
        4
 64
     7
 65
   257
 75
     1
175
     1
 42
1.0
 92
       12
 66
     7
 43
1.0
 76
     1
 77
     6
 78
     2
 67
     7
 79
     5
170
     0
171
     0
290
     0
174
     0
 93
        1
 44
0.0
173
     0
291
     1
 45
0.0
1001
ACAD
1000
AcDbSavedByObjectVersion
1070
     0
  0
DICTIONARYVAR
  5
12F
102
{ACAD_REACTORS
330
12C
102
}
330
12C
100
DictionaryVariables
280
     0
  1
1:1
  0
ENDSEC
  0
EOF
