  0
SECTION
  2
HEADER
  9
$ACADVER
  1
AC1015
  9
$ACADMAINTVER
 70
     6
  9
$DWGCODEPAGE
  3
ANSI_1252
  9
$INSBASE
 10
0.0
 20
0.0
 30
0.0
  9
$EXTMIN
 10
24.5198751349547
 20
252.9302735741278
 30
0.0
  9
$EXTMAX
 10
213.023649735437
 20
361.699660491434
 30
0.0
  9
$LIMMIN
 10
0.0
 20
0.0
  9
$LIMMAX
 10
12.0
 20
9.0
  9
$ORTHOMODE
 70
     0
  9
$REGENMODE
 70
     1
  9
$FILLMODE
 70
     1
  9
$QTEXTMODE
 70
     0
  9
$MIRRTEXT
 70
     1
  9
$LTSCALE
 40
1.0
  9
$ATTMODE
 70
     1
  9
$TEXTSIZE
 40
0.2
  9
$TRACEWID
 40
0.05
  9
$TEXTSTYLE
  7
Standard
  9
$CLAYER
  8
0
  9
$CELTYPE
  6
ByLayer
  9
$CECOLOR
 62
   256
  9
$CELTSCALE
 40
1.0
  9
$DISPSILH
 70
     0
  9
$DIMSCALE
 40
1.0
  9
$DIMASZ
 40
0.18
  9
$DIMEXO
 40
0.0625
  9
$DIMDLI
 40
0.38
  9
$DIMRND
 40
0.0
  9
$DIMDLE
 40
0.0
  9
$DIMEXE
 40
0.18
  9
$DIMTP
 40
0.0
  9
$DIMTM
 40
0.0
  9
$DIMTXT
 40
0.18
  9
$DIMCEN
 40
0.09
  9
$DIMTSZ
 40
0.0
  9
$DIMTOL
 70
     0
  9
$DIMLIM
 70
     0
  9
$DIMTIH
 70
     1
  9
$DIMTOH
 70
     1
  9
$DIMSE1
 70
     0
  9
$DIMSE2
 70
     0
  9
$DIMTAD
 70
     0
  9
$DIMZIN
 70
     0
  9
$DIMBLK
  1

  9
$DIMASO
 70
     1
  9
$DIMSHO
 70
     1
  9
$DIMPOST
  1

  9
$DIMAPOST
  1

  9
$DIMALT
 70
     0
  9
$DIMALTD
 70
     2
  9
$DIMALTF
 40
25.4
  9
$DIMLFAC
 40
1.0
  9
$DIMTOFL
 70
     0
  9
$DIMTVP
 40
0.0
  9
$DIMTIX
 70
     0
  9
$DIMSOXD
 70
     0
  9
$DIMSAH
 70
     0
  9
$DIMBLK1
  1

  9
$DIMBLK2
  1

  9
$DIMSTYLE
  2
Standard
  9
$DIMCLRD
 70
     0
  9
$DIMCLRE
 70
     0
  9
$DIMCLRT
 70
     0
  9
$DIMTFAC
 40
1.0
  9
$DIMGAP
 40
0.09
  9
$DIMJUST
 70
     0
  9
$DIMSD1
 70
     0
  9
$DIMSD2
 70
     0
  9
$DIMTOLJ
 70
     1
  9
$DIMTZIN
 70
     0
  9
$DIMALTZ
 70
     0
  9
$DIMALTTZ
 70
     0
  9
$DIMUPT
 70
     0
  9
$DIMDEC
 70
     4
  9
$DIMTDEC
 70
     4
  9
$DIMALTU
 70
     2
  9
$DIMALTTD
 70
     2
  9
$DIMTXSTY
  7
Standard
  9
$DIMAUNIT
 70
     0
  9
$DIMADEC
 70
     0
  9
$DIMALTRND
 40
0.0
  9
$DIMAZIN
 70
     0
  9
$DIMDSEP
 70
    46
  9
$DIMATFIT
 70
     3
  9
$DIMFRAC
 70
     0
  9
$DIMLDRBLK
  1

  9
$DIMLUNIT
 70
     2
  9
$DIMLWD
 70
    -2
  9
$DIMLWE
 70
    -2
  9
$DIMTMOVE
 70
     0
  9
$LUNITS
 70
     2
  9
$LUPREC
 70
     4
  9
$SKETCHINC
 40
0.1
  9
$FILLETRAD
 40
0.5
  9
$AUNITS
 70
     0
  9
$AUPREC
 70
     0
  9
$MENU
  1
.
  9
$ELEVATION
 40
0.0
  9
$PELEVATION
 40
0.0
  9
$THICKNESS
 40
0.0
  9
$LIMCHECK
 70
     0
  9
$CHAMFERA
 40
0.5
  9
$CHAMFERB
 40
0.5
  9
$CHAMFERC
 40
1.0
  9
$CHAMFERD
 40
0.0
  9
$SKPOLY
 70
     0
  9
$TDCREATE
 40
2456749.750065301
  9
$TDUCREATE
 40
2456749.666731968
  9
$TDUPDATE
 40
2456749.750065313
  9
$TDUUPDATE
 40
2456749.666731979
  9
$TDINDWG
 40
0.0000000116
  9
$TDUSRTIMER
 40
0.0000000116
  9
$USRTIMER
 70
     1
  9
$ANGBASE
 50
0.0
  9
$ANGDIR
 70
     0
  9
$PDMODE
 70
     0
  9
$PDSIZE
 40
0.0
  9
$PLINEWID
 40
0.0
  9
$SPLFRAME
 70
     0
  9
$SPLINETYPE
 70
     6
  9
$SPLINESEGS
 70
     8
  9
$HANDSEED
  5
132
  9
$SURFTAB1
 70
     6
  9
$SURFTAB2
 70
     6
  9
$SURFTYPE
 70
     6
  9
$SURFU
 70
     6
  9
$SURFV
 70
     6
  9
$UCSBASE
  2

  9
$UCSNAME
  2

  9
$UCSORG
 10
0.0
 20
0.0
 30
0.0
  9
$UCSXDIR
 10
1.0
 20
0.0
 30
0.0
  9
$UCSYDIR
 10
0.0
 20
1.0
 30
0.0
  9
$UCSORTHOREF
  2

  9
$UCSORTHOVIEW
 70
     0
  9
$UCSORGTOP
 10
0.0
 20
0.0
 30
0.0
  9
$UCSORGBOTTOM
 10
0.0
 20
0.0
 30
0.0
  9
$UCSORGLEFT
 10
0.0
 20
0.0
 30
0.0
  9
$UCSORGRIGHT
 10
0.0
 20
0.0
 30
0.0
  9
$UCSORGFRONT
 10
0.0
 20
0.0
 30
0.0
  9
$UCSORGBACK
 10
0.0
 20
0.0
 30
0.0
  9
$PUCSBASE
  2

  9
$PUCSNAME
  2

  9
$PUCSORG
 10
0.0
 20
0.0
 30
0.0
  9
$PUCSXDIR
 10
1.0
 20
0.0
 30
0.0
  9
$PUCSYDIR
 10
0.0
 20
1.0
 30
0.0
  9
$PUCSORTHOREF
  2

  9
$PUCSORTHOVIEW
 70
     0
  9
$PUCSORGTOP
 10
0.0
 20
0.0
 30
0.0
  9
$PUCSORGBOTTOM
 10
0.0
 20
0.0
 30
0.0
  9
$PUCSORGLEFT
 10
0.0
 20
0.0
 30
0.0
  9
$PUCSORGRIGHT
 10
0.0
 20
0.0
 30
0.0
  9
$PUCSORGFRONT
 10
0.0
 20
0.0
 30
0.0
  9
$PUCSORGBACK
 10
0.0
 20
0.0
 30
0.0
  9
$USERI1
 70
     0
  9
$USERI2
 70
     0
  9
$USERI3
 70
     0
  9
$USERI4
 70
     0
  9
$USERI5
 70
     0
  9
$USERR1
 40
16.5
  9
$USERR2
 40
0.0
  9
$USERR3
 40
0.0
  9
$USERR4
 40
0.0
  9
$USERR5
 40
0.0
  9
$WORLDVIEW
 70
     1
  9
$SHADEDGE
 70
     3
  9
$SHADEDIF
 70
    70
  9
$TILEMODE
 70
     1
  9
$MAXACTVP
 70
    64
  9
$PINSBASE
 10
0.0
 20
0.0
 30
0.0
  9
$PLIMCHECK
 70
     0
  9
$PEXTMIN
 10
1.00000000000000E+20
 20
1.00000000000000E+20
 30
1.00000000000000E+20
  9
$PEXTMAX
 10
-1.00000000000000E+20
 20
-1.00000000000000E+20
 30
-1.00000000000000E+20
  9
$PLIMMIN
 10
0.0
 20
0.0
  9
$PLIMMAX
 10
12.0
 20
9.0
  9
$UNITMODE
 70
     0
  9
$VISRETAIN
 70
     1
  9
$PLINEGEN
 70
     0
  9
$PSLTSCALE
 70
     1
  9
$TREEDEPTH
 70
  3020
  9
$CMLSTYLE
  2
Standard
  9
$CMLJUST
 70
     0
  9
$CMLSCALE
 40
1.0
  9
$PROXYGRAPHICS
 70
     1
  9
$MEASUREMENT
 70
     1
  9
$CELWEIGHT
370
    -1
  9
$ENDCAPS
280
     0
  9
$JOINSTYLE
280
     0
  9
$LWDISPLAY
290
     0
  9
$INSUNITS
 70
     1
  9
$HYPERLINKBASE
  1

  9
$STYLESHEET
  1

  9
$XEDIT
290
     1
  9
$CEPSNTYPE
380
     0
  9
$PSTYLEMODE
290
     1
  9
$FINGERPRINTGUID
  2
{A882EA01-F861-4A2A-9100-E6CFF3DB35BC}
  9
$VERSIONGUID
  2
{FAEB1C32-E019-11D5-929B-00C0DF256EC4}
  9
$EXTNAMES
290
     1
  9
$PSVPSCALE
 40
0.0
  9
$OLESTARTUP
290
     0
  0
ENDSEC
  0
SECTION
  2
CLASSES
  0
CLASS
  1
ACDBDICTIONARYWDFLT
  2
AcDbDictionaryWithDefault
  3
ObjectDBX Classes
 90
        0
280
     0
281
     0
  0
CLASS
  1
VISUALSTYLE
  2
AcDbVisualStyle
  3
ObjectDBX Classes
 90
     4095
280
     0
281
     0
  0
CLASS
  1
SCALE
  2
AcDbScale
  3
ObjectDBX Classes
 90
     1153
280
     0
281
     0
  0
CLASS
  1

  2
exOdDbPolyline
  3

 90
        0
280
     0
281
     1
  0
CLASS
  1

  2
exOdDbCircle
  3

 90
        0
280
     0
281
     1
  0
CLASS
  1

  2
exOdDbSpline
  3

 90
        0
280
     0
281
     1
  0
CLASS
  1
DICTIONARYVAR
  2
AcDbDictionaryVar
  3
ObjectDBX Classes
 90
        0
280
     0
281
     0
  0
CLASS
  1
ACDBPLACEHOLDER
  2
AcDbPlaceHolder
  3
ObjectDBX Classes
 90
        0
280
     0
281
     0
  0
CLASS
  1
LAYOUT
  2
AcDbLayout
  3
ObjectDBX Classes
 90
        0
280
     0
281
     0
  0
ENDSEC
  0
SECTION
  2
TABLES
  0
TABLE
  2
VPORT
  5
8
330
0
100
AcDbSymbolTable
 70
     1
  0
VPORT
  5
29
330
8
100
AcDbSymbolTableRecord
100
AcDbViewportTableRecord
  2
*Active
 70
     0
 10
0.0
 20
0.0
 11
1.0
 21
1.0
 12
118.7717624351959
 22
307.3149670327809
 13
0.0
 23
0.0
 14
0.5
 24
0.5
 15
0.5
 25
0.5
 16
0.0
 26
0.0
 36
1.0
 17
0.0
 27
0.0
 37
0.0
 40
129.3797494750943
 41
1.60267857142857
 42
50.0
 43
0.0
 44
0.0
 50
0.0
 51
0.0
 71
     0
 72
   100
 73
     1
 74
     3
 75
     0
 76
     0
 77
     0
 78
     0
281
     0
 65
     1
110
0.0
120
0.0
130
0.0
111
1.0
121
0.0
131
0.0
112
0.0
122
1.0
132
0.0
 79
     0
146
0.0
  0
ENDTAB
  0
TABLE
  2
LTYPE
  5
5
330
0
100
AcDbSymbolTable
 70
     8
  0
LTYPE
  5
14
330
5
100
AcDbSymbolTableRecord
100
AcDbLinetypeTableRecord
  2
ByBlock
 70
     0
  3

 72
    65
 73
     0
 40
0.0
  0
LTYPE
  5
15
330
5
100
AcDbSymbolTableRecord
100
AcDbLinetypeTableRecord
  2
ByLayer
 70
     0
  3

 72
    65
 73
     0
 40
0.0
  0
LTYPE
  5
16
330
5
100
AcDbSymbolTableRecord
100
AcDbLinetypeTableRecord
  2
Continuous
 70
     0
  3
Solid line
 72
    65
 73
     0
 40
0.0
  0
LTYPE
  5
3B
330
5
100
AcDbSymbolTableRecord
100
AcDbLinetypeTableRecord
  2
DASHED
 70
     0
  3
Dashed
 72
    65
 73
     2
 40
15.0
 49
7.0
 74
     0
 49
-8.0
 74
     0
  0
LTYPE
  5
3C
330
5
100
AcDbSymbolTableRecord
100
AcDbLinetypeTableRecord
  2
DOTTED
 70
     0
  3
Dotted
 72
    65
 73
     2
 40
1.0
 49
0.0
 74
     0
 49
-1.0
 74
     0
  0
LTYPE
  5
3D
330
5
100
AcDbSymbolTableRecord
100
AcDbLinetypeTableRecord
  2
DOT_CENTER
 70
     0
  3
Dot_Center
 72
    65
 73
     4
 40
14.0
 49
12.0
 74
     0
 49
-1.0
 74
     0
 49
0.0
 74
     0
 49
-1.0
 74
     0
  0
LTYPE
  5
3E
330
5
100
AcDbSymbolTableRecord
100
AcDbLinetypeTableRecord
  2
LONG_DASHED
 70
     0
  3
Long_Dashed
 72
    65
 73
     2
 40
15.0
 49
10.0
 74
     0
 49
-5.0
 74
     0
  0
LTYPE
  5
3F
330
5
100
AcDbSymbolTableRecord
100
AcDbLinetypeTableRecord
  2
DASH_CENTER
 70
     0
  3
Dash_Center
 72
    65
 73
     4
 40
14.0
 49
11.0
 74
     0
 49
-1.0
 74
     0
 49
1.0
 74
     0
 49
-1.0
 74
     0
  0
LTYPE
  5
40
330
5
100
AcDbSymbolTableRecord
100
AcDbLinetypeTableRecord
  2
PHANTOM
 70
     0
  3
Phantom
 72
    65
 73
     6
 40
13.0
 49
10.0
 74
     0
 49
-1.0
 74
     0
 49
0.0
 74
     0
 49
-1.0
 74
     0
 49
0.0
 74
     0
 49
-1.0
 74
     0
  0
LTYPE
  5
41
330
5
100
AcDbSymbolTableRecord
100
AcDbLinetypeTableRecord
  2
CENTER_DASH_DASH
 70
     0
  3
Center_Dash_Dash
 72
    65
 73
     6
 40
14.0
 49
9.0
 74
     0
 49
-1.0
 74
     0
 49
1.0
 74
     0
 49
-1.0
 74
     0
 49
1.0
 74
     0
 49
-1.0
 74
     0
  0
ENDTAB
  0
TABLE
  2
LAYER
  5
2
330
0
100
AcDbSymbolTable
 70
     6
  0
LAYER
  5
10
330
2
100
AcDbSymbolTableRecord
100
AcDbLayerTableRecord
  2
0
 70
     0
 62
     7
  6
Continuous
370
    -3
390
F
  0
LAYER
  5
42
330
2
100
AcDbSymbolTableRecord
100
AcDbLayerTableRecord
  2
1
 70
     0
 62
     7
  6
Continuous
370
    -3
390
F
  0
LAYER
  5
43
330
2
100
AcDbSymbolTableRecord
100
AcDbLayerTableRecord
  2
BEZUGSACHSEN
 70
     0
 62
     7
  6
Continuous
370
    -3
390
F
  0
LAYER
  5
44
330
2
100
AcDbSymbolTableRecord
100
AcDbLayerTableRecord
  2
FASEN
 70
     0
 62
     7
  6
Continuous
370
    -3
390
F
  0
LAYER
  5
45
330
2
100
AcDbSymbolTableRecord
100
AcDbLayerTableRecord
  2
RUNDUNGEN
 70
     0
 62
     7
  6
Continuous
370
    -3
390
F
  0
LAYER
  5
46
330
2
100
AcDbSymbolTableRecord
100
AcDbLayerTableRecord
  2
VERERBUNG
 70
     0
 62
     7
  6
Continuous
370
    -3
390
F
  0
ENDTAB
  0
TABLE
  2
STYLE
  5
3
330
0
100
AcDbSymbolTable
 70
     2
  0
STYLE
  5
11
330
3
100
AcDbSymbolTableRecord
100
AcDbTextStyleTableRecord
  2
Standard
 70
     0
 40
0.0
 41
1.0
 50
0.0
 71
     0
 42
0.2
  3
txt
  4

  0
STYLE
  5
6D
330
3
100
AcDbSymbolTableRecord
100
AcDbTextStyleTableRecord
  2
CONVERTER_11
 70
     0
 40
0.0
 41
0.72
 50
0.0
 71
     0
 42
0.2
  3
txt.shx
  4

  0
ENDTAB
  0
TABLE
  2
VIEW
  5
6
330
0
100
AcDbSymbolTable
 70
     0
  0
ENDTAB
  0
TABLE
  2
UCS
  5
7
330
0
100
AcDbSymbolTable
 70
     0
  0
ENDTAB
  0
TABLE
  2
APPID
  5
9
330
0
100
AcDbSymbolTable
 70
     1
  0
APPID
  5
12
330
9
100
AcDbSymbolTableRecord
100
AcDbRegAppTableRecord
  2
ACAD
 70
     0
  0
ENDTAB
  0
TABLE
  2
DIMSTYLE
  5
A
330
0
100
AcDbSymbolTable
 70
     5
100
AcDbDimStyleTable
  0
DIMSTYLE
105
27
330
A
100
AcDbSymbolTableRecord
100
AcDbDimStyleTableRecord
  2
Standard
 70
     0
340
11
  0
DIMSTYLE
105
104
102
{ACAD_REACTORS
330
105
102
}
330
A
100
AcDbSymbolTableRecord
100
AcDbDimStyleTableRecord
  2
ME10_DIM_10
 70
     0
  3
\U+2300<>
 41
3.5
 42
2.0
 44
2.0
 71
     1
 73
     0
 74
     0
 77
     1
 78
     8
140
3.5
146
0.7
147
2.0
172
     1
173
     1
176
     2
177
     2
178
     3
271
     2
272
     0
340
6D
  0
DIMSTYLE
105
10F
102
{ACAD_REACTORS
330
110
102
}
330
A
100
AcDbSymbolTableRecord
100
AcDbDimStyleTableRecord
  2
ME10_DIM_11
 70
     0
  3
<>
 41
3.5
 42
2.0
 44
2.0
 71
     1
 73
     0
 74
     0
 77
     1
 78
     8
140
3.5
146
0.7
147
2.0
172
     1
173
     1
176
     2
177
     2
178
     3
271
     2
272
     0
340
6D
  0
DIMSTYLE
105
11A
102
{ACAD_REACTORS
330
11B
102
}
330
A
100
AcDbSymbolTableRecord
100
AcDbDimStyleTableRecord
  2
ME10_DIM_12
 70
     0
  3
<>
 41
3.5
 42
2.0
 44
2.0
 71
     1
 73
     0
 74
     0
 77
     1
 78
     8
140
3.5
146
0.7
147
2.0
172
     1
173
     1
176
     2
177
     2
178
     3
271
     2
272
     0
340
6D
  0
DIMSTYLE
105
125
102
{ACAD_REACTORS
330
126
102
}
330
A
100
AcDbSymbolTableRecord
100
AcDbDimStyleTableRecord
  2
ME10_DIM_13
 70
     0
  3
<>
 41
3.5
 42
2.0
 44
2.0
 71
     1
 73
     0
 74
     0
 77
     1
 78
     8
140
3.5
146
0.7
147
2.0
172
     1
173
     1
176
     2
177
     2
178
     3
271
     2
272
     0
340
6D
  0
ENDTAB
  0
TABLE
  2
BLOCK_RECORD
  5
1
330
0
100
AcDbSymbolTable
 70
     7
  0
BLOCK_RECORD
  5
1F
330
1
100
AcDbSymbolTableRecord
100
AcDbBlockTableRecord
  2
*Model_Space
340
22
  0
BLOCK_RECORD
  5
1B
330
1
100
AcDbSymbolTableRecord
100
AcDbBlockTableRecord
  2
*Paper_Space
340
1E
  0
BLOCK_RECORD
  5
23
330
1
100
AcDbSymbolTableRecord
100
AcDbBlockTableRecord
  2
*Paper_Space0
340
26
  0
BLOCK_RECORD
  5
47
330
1
100
AcDbSymbolTableRecord
100
AcDbBlockTableRecord
  2
Urheberrecht_DE-EN
340
0
102
{BLKREFS
331
6C
102
}
  0
BLOCK_RECORD
  5
FB
330
1
100
AcDbSymbolTableRecord
100
AcDbBlockTableRecord
  2
*D2
340
0
  0
BLOCK_RECORD
  5
106
330
1
100
AcDbSymbolTableRecord
100
AcDbBlockTableRecord
  2
*D3
340
0
  0
BLOCK_RECORD
  5
111
330
1
100
AcDbSymbolTableRecord
100
AcDbBlockTableRecord
  2
*D4
340
0
  0
BLOCK_RECORD
  5
11C
330
1
100
AcDbSymbolTableRecord
100
AcDbBlockTableRecord
  2
*D5
340
0
  0
BLOCK_RECORD
  5
127
330
1
100
AcDbSymbolTableRecord
100
AcDbBlockTableRecord
  2
*D6
340
0
102
{BLKREFS
331
12D
102
}
  0
ENDTAB
  0
ENDSEC
  0
SECTION
  2
BLOCKS
  0
BLOCK
  5
20
330
1F
100
AcDbEntity
  8
0
100
AcDbBlockBegin
  2
*Model_Space
 70
     0
 10
0.0
 20
0.0
 30
0.0
  3
*Model_Space
  1

  0
ENDBLK
  5
21
330
1F
100
AcDbEntity
  8
0
100
AcDbBlockEnd
  0
BLOCK
  5
1C
330
1B
100
AcDbEntity
 67
     1
  8
0
100
AcDbBlockBegin
  2
*Paper_Space
 70
     0
 10
0.0
 20
0.0
 30
0.0
  3
*Paper_Space
  1

  0
ENDBLK
  5
1D
330
1B
100
AcDbEntity
 67
     1
  8
0
100
AcDbBlockEnd
  0
BLOCK
  5
24
330
23
100
AcDbEntity
  8
0
100
AcDbBlockBegin
  2
*Paper_Space0
 70
     0
 10
0.0
 20
0.0
 30
0.0
  3
*Paper_Space0
  1

  0
ENDBLK
  5
25
330
23
100
AcDbEntity
  8
0
100
AcDbBlockEnd
  0
BLOCK
  5
48
330
47
100
AcDbEntity
  8
0
100
AcDbBlockBegin
  2
Urheberrecht_DE-EN
 70
     0
 10
38.5198751349547
 20
309.219660491434
 30
0.0
  3
Urheberrecht_DE-EN
  1

  0
MTEXT
  5
6E
330
47
100
AcDbEntity
  8
1
 62
     1
100
AcDbMText
 10
38.5198751349547
 20
309.219660491434
 30
0.0
 40
2.0
 41
0.0
 71
     7
 72
     1
  1
We own the copyright of this document. It \Pdetermined and may neither be copied or \Pmade accessible to outsiders without our\Ppermission.
  7
CONVERTER_11
 11
0.0
 21
1.0
 31
0.0
 73
     1
 44
0.90036014405762
  0
MTEXT
  5
6F
330
47
100
AcDbEntity
  8
1
 62
     1
100
AcDbMText
 10
38.5198751349547
 20
252.9302735741278
 30
0.0
 40
2.0
 41
0.0
 71
     7
 72
     1
  1
F\U+00fcr diese Unterlage behalten wir das Ur-\Pheberrecht. Sie darf nur f\U+00fcr den von uns \Pbestimmten Zweck benutzt und ohne unsere \PZustimmung weder vervielf\U+00e4ltigt noch\PDritten zug\U+00e4nglich gemacht werden.
  7
CONVERTER_11
 11
0.0
 21
1.0
 31
0.0
 73
     1
 44
0.90036014405762
  0
ENDBLK
  5
49
330
47
100
AcDbEntity
  8
0
100
AcDbBlockEnd
  0
BLOCK
  5
102
330
FB
100
AcDbEntity
  8
0
100
AcDbBlockBegin
  2
*D2
 70
     1
 10
0.0
 20
0.0
 30
0.0
  3
*D2
  1

  0
LINE
  5
FC
330
FB
100
AcDbEntity
  8
1
  6
Continuous
 62
     2
100
AcDbLine
 10
211.023649735437
 20
312.3514350858
 30
0.0
 11
211.023649735437
 21
277.3514350858
 31
0.0
  0
LINE
  5
FD
330
FB
100
AcDbEntity
  8
1
  6
Continuous
 62
     2
100
AcDbLine
 10
195.5424320921
 20
312.3514350858
 30
0.0
 11
213.023649735437
 21
312.3514350858
 31
0.0
  0
LINE
  5
FE
330
FB
100
AcDbEntity
  8
1
  6
Continuous
 62
     2
100
AcDbLine
 10
195.5424320921
 20
277.3514350858
 30
0.0
 11
213.023649735437
 21
277.3514350858
 31
0.0
  0
SOLID
  5
FF
330
FB
100
AcDbEntity
  8
1
 62
     2
100
AcDbTrace
 10
211.4844334769929
 20
308.8514350858
 30
0.0
 11
210.5628659938811
 21
308.8514350858
 31
0.0
 12
211.023649735437
 22
312.3514350858
 32
0.0
 13
211.023649735437
 23
312.3514350858
 33
0.0
  0
SOLID
  5
100
330
FB
100
AcDbEntity
  8
1
 62
     2
100
AcDbTrace
 10
210.5628659938811
 20
280.8514350858
 30
0.0
 11
211.4844334769929
 21
280.8514350858
 31
0.0
 12
211.023649735437
 22
277.3514350858
 32
0.0
 13
211.023649735437
 23
277.3514350858
 33
0.0
  0
MTEXT
  5
101
330
FB
100
AcDbEntity
  8
1
 62
     3
100
AcDbMText
 10
209.023649735437
 20
286.598072616151
 30
0.0
 40
3.5
 41
0.0
 71
     7
 72
     1
  1
\C3;%%c\C3;\C3;35\C2;\H2.45;\S^ ;\C3;
  7
CONVERTER_11
 11
0.0
 21
1.0
 31
0.0
 73
     1
 44
0.60024009603842
  0
ENDBLK
  5
103
330
FB
100
AcDbEntity
  8
0
100
AcDbBlockEnd
  0
BLOCK
  5
10D
330
106
100
AcDbEntity
  8
0
100
AcDbBlockBegin
  2
*D3
 70
     1
 10
0.0
 20
0.0
 30
0.0
  3
*D3
  1

  0
LINE
  5
107
330
106
100
AcDbEntity
  8
1
  6
Continuous
 62
     2
100
AcDbLine
 10
198.9566456545
 20
333.100476193455
 30
0.0
 11
104.9566456545
 21
333.100476193455
 31
0.0
  0
LINE
  5
108
330
106
100
AcDbEntity
  8
1
  6
Continuous
 62
     2
100
AcDbLine
 10
198.9566456545
 20
308.9372215235
 30
0.0
 11
198.9566456545
 21
335.100476193455
 31
0.0
  0
LINE
  5
109
330
106
100
AcDbEntity
  8
1
  6
Continuous
 62
     2
100
AcDbLine
 10
104.9566456545
 20
328.3513861803
 30
0.0
 11
104.9566456545
 21
335.100476193455
 31
0.0
  0
SOLID
  5
10A
330
106
100
AcDbEntity
  8
1
 62
     2
100
AcDbTrace
 10
195.4566456545
 20
332.6396924518991
 30
0.0
 11
195.4566456545
 21
333.5612599350109
 31
0.0
 12
198.9566456545
 22
333.100476193455
 32
0.0
 13
198.9566456545
 23
333.100476193455
 33
0.0
  0
SOLID
  5
10B
330
106
100
AcDbEntity
  8
1
 62
     2
100
AcDbTrace
 10
108.4566456545
 20
333.5612599350109
 30
0.0
 11
108.4566456545
 21
332.6396924518991
 31
0.0
 12
104.9566456545
 22
333.100476193455
 32
0.0
 13
104.9566456545
 23
333.100476193455
 33
0.0
  0
MTEXT
  5
10C
330
106
100
AcDbEntity
  8
1
 62
     3
100
AcDbMText
 10
151.890642823551
 20
335.100476193455
 30
0.0
 40
3.5
 41
0.0
 71
     7
 72
     1
  1
\C3;\C3;\C3;94\C2;\H2.45;\S^ ;\C3;
  7
CONVERTER_11
 11
0.9999999999970619
 21
2.424068405545306E-6
 31
0.0
 73
     1
 44
0.60024009603842
  0
ENDBLK
  5
10E
330
106
100
AcDbEntity
  8
0
100
AcDbBlockEnd
  0
BLOCK
  5
118
330
111
100
AcDbEntity
  8
0
100
AcDbBlockBegin
  2
*D4
 70
     1
 10
0.0
 20
0.0
 30
0.0
  3
*D4
  1

  0
LINE
  5
112
330
111
100
AcDbEntity
  8
1
  6
Continuous
 62
     2
100
AcDbLine
 10
198.9566456545
 20
340.405196290544
 30
0.0
 11
78.9566456545
 21
340.405196290544
 31
0.0
  0
LINE
  5
113
330
111
100
AcDbEntity
  8
1
  6
Continuous
 62
     2
100
AcDbLine
 10
198.9566456545
 20
308.9372215235
 30
0.0
 11
198.9566456545
 21
342.405196290544
 31
0.0
  0
LINE
  5
114
330
111
100
AcDbEntity
  8
1
  6
Continuous
 62
     2
100
AcDbLine
 10
78.9566456545
 20
328.3514350858
 30
0.0
 11
78.9566456545
 21
342.405196290544
 31
0.0
  0
SOLID
  5
115
330
111
100
AcDbEntity
  8
1
 62
     2
100
AcDbTrace
 10
195.4566456545
 20
339.9444125489881
 30
0.0
 11
195.4566456545
 21
340.8659800320999
 31
0.0
 12
198.9566456545
 22
340.405196290544
 32
0.0
 13
198.9566456545
 23
340.405196290544
 33
0.0
  0
SOLID
  5
116
330
111
100
AcDbEntity
  8
1
 62
     2
100
AcDbTrace
 10
82.4566456545
 20
340.8659800320999
 30
0.0
 11
82.4566456545
 21
339.9444125489881
 31
0.0
 12
78.9566456545
 22
340.405196290544
 32
0.0
 13
78.9566456545
 23
340.405196290544
 33
0.0
  0
MTEXT
  5
117
330
111
100
AcDbEntity
  8
1
 62
     3
100
AcDbMText
 10
137.284054948269
 20
342.405196290544
 30
0.0
 40
3.5
 41
0.0
 71
     7
 72
     1
  1
\C3;\C3;\C3;120\C2;\H2.45;\S^ ;\C3;
  7
CONVERTER_11
 11
0.9999999999970619
 21
2.424068405545306E-6
 31
0.0
 73
     1
 44
0.60024009603842
  0
ENDBLK
  5
119
330
111
100
AcDbEntity
  8
0
100
AcDbBlockEnd
  0
BLOCK
  5
123
330
11C
100
AcDbEntity
  8
0
100
AcDbBlockBegin
  2
*D5
 70
     1
 10
0.0
 20
0.0
 30
0.0
  3
*D5
  1

  0
LINE
  5
11D
330
11C
100
AcDbEntity
  8
1
  6
Continuous
 62
     2
100
AcDbLine
 10
198.9566456545
 20
347.288490228185
 30
0.0
 11
46.95664565449999
 21
347.288490228185
 31
0.0
  0
LINE
  5
11E
330
11C
100
AcDbEntity
  8
1
  6
Continuous
 62
     2
100
AcDbLine
 10
198.9566456545
 20
308.9372215235
 30
0.0
 11
198.9566456545
 21
349.288490228185
 31
0.0
  0
LINE
  5
11F
330
11C
100
AcDbEntity
  8
1
  6
Continuous
 62
     2
100
AcDbLine
 10
46.95664565449999
 20
318.427462266
 30
0.0
 11
46.95664565449999
 21
349.288490228185
 31
0.0
  0
SOLID
  5
120
330
11C
100
AcDbEntity
  8
1
 62
     2
100
AcDbTrace
 10
195.4566456545
 20
346.8277064866292
 30
0.0
 11
195.4566456545
 21
347.7492739697409
 31
0.0
 12
198.9566456545
 22
347.288490228185
 32
0.0
 13
198.9566456545
 23
347.288490228185
 33
0.0
  0
SOLID
  5
121
330
11C
100
AcDbEntity
  8
1
 62
     2
100
AcDbTrace
 10
50.45664565449999
 20
347.7492739697409
 30
0.0
 11
50.45664565449999
 21
346.8277064866292
 31
0.0
 12
46.95664565449999
 22
347.288490228185
 32
0.0
 13
46.95664565449999
 23
347.288490228185
 33
0.0
  0
MTEXT
  5
122
330
11C
100
AcDbEntity
  8
1
 62
     3
100
AcDbMText
 10
126.04602402967
 20
349.288490228185
 30
0.0
 40
3.5
 41
0.0
 71
     7
 72
     1
  1
\C3;\C3;\C3;152\C2;\H2.45;\S^ ;\C3;
  7
CONVERTER_11
 11
0.9999999999970619
 21
2.424068405545306E-6
 31
0.0
 73
     1
 44
0.60024009603842
  0
ENDBLK
  5
124
330
11C
100
AcDbEntity
  8
0
100
AcDbBlockEnd
  0
BLOCK
  5
12B
330
127
100
AcDbEntity
  8
0
100
AcDbBlockBegin
  2
*D6
 70
     1
 10
0.0
 20
0.0
 30
0.0
  3
*D6
  1

  0
LINE
  5
128
330
127
100
AcDbEntity
  8
1
  6
Continuous
 62
     2
100
AcDbLine
 10
115.5646426476671
 20
322.3747667444588
 30
0.0
 11
106.6358302700764
 21
315.4476311667967
 31
0.0
  0
SOLID
  5
129
330
127
100
AcDbEntity
  8
1
 62
     2
100
AcDbTrace
 10
109.1187378610548
 20
317.9571115016756
 30
0.0
 11
109.6836361404686
 21
317.2289792610459
 31
0.0
 12
106.6358302700764
 22
315.4476311667967
 32
0.0
 13
106.6358302700764
 23
315.4476311667967
 33
0.0
  0
MTEXT
  5
12A
330
127
100
AcDbEntity
  8
1
 62
     3
100
AcDbMText
 10
108.4761353988633
 20
319.406692455689
 30
0.0
 40
3.5
 41
0.0
 71
     7
 72
     1
  1
\C3; R\C3;\C3;8\C2;\H2.45;\S^ ;\C3;
  7
CONVERTER_11
 11
0.7901019230529588
 21
0.6129754898754244
 31
0.0
 73
     1
 44
0.60024009603842
  0
ENDBLK
  5
12C
330
127
100
AcDbEntity
  8
0
100
AcDbBlockEnd
  0
ENDSEC
  0
SECTION
  2
ENTITIES
  0
INSERT
  5
6C
330
1F
100
AcDbEntity
  8
0
100
AcDbBlockReference
  2
Urheberrecht_DE-EN
 10
38.5198751349547
 20
309.219660491434
 30
0.0
  0
LINE
  5
70
330
1F
100
AcDbEntity
  8
VERERBUNG
  6
Continuous
 62
     7
100
AcDbLine
 10
46.9566456545
 20
273.2754078089
 30
0.0
 11
46.9566456545
 21
287.5814350858
 31
0.0
  0
LINE
  5
71
330
1F
100
AcDbEntity
  8
VERERBUNG
  6
Continuous
 62
     7
100
AcDbLine
 10
46.9566456545
 20
302.1214350858
 30
0.0
 11
46.9566456545
 21
316.427462266
 31
0.0
  0
LINE
  5
72
330
1F
100
AcDbEntity
  8
VERERBUNG
  6
Continuous
 62
     7
100
AcDbLine
 10
47.9566456545
 20
287.221553406
 30
0.0
 11
47.9566456545
 21
288.5814350858
 31
0.0
  0
LINE
  5
73
330
1F
100
AcDbEntity
  8
VERERBUNG
  6
Continuous
 62
     7
100
AcDbLine
 10
47.9566456545
 20
301.1214350858
 30
0.0
 11
47.9566456545
 21
302.4813167657
 31
0.0
  0
LINE
  5
74
330
1F
100
AcDbEntity
  8
VERERBUNG
  6
Continuous
 62
     9
100
AcDbLine
 10
48.0966025902
 20
317.6260103433
 30
0.0
 11
48.0966025902
 21
304.4134630172
 31
0.0
  0
LINE
  5
75
330
1F
100
AcDbEntity
  8
VERERBUNG
  6
Continuous
 62
     9
100
AcDbLine
 10
48.0966025902
 20
285.2894071545
 30
0.0
 11
48.0966025902
 21
272.0768598283
 31
0.0
  0
LINE
  5
76
330
1F
100
AcDbEntity
  8
VERERBUNG
  6
Continuous
 62
     9
100
AcDbLine
 10
51.4566456545
 20
284.8951222039
 30
0.0
 11
51.4566456545
 21
288.5814350858
 31
0.0
  0
LINE
  5
77
330
1F
100
AcDbEntity
  8
VERERBUNG
  6
Continuous
 62
     9
100
AcDbLine
 10
51.4566456545
 20
301.1214350858
 30
0.0
 11
51.4566456545
 21
304.8077479678
 31
0.0
  0
LINE
  5
78
330
1F
100
AcDbEntity
  8
VERERBUNG
  6
Continuous
 62
     7
100
AcDbLine
 10
52.9566456545
 20
302.2932228044
 30
0.0
 11
52.9566456545
 21
287.4096473673
 31
0.0
  0
LWPOLYLINE
  5
79
330
1F
100
AcDbEntity
  8
BEZUGSACHSEN
  6
DOT_CENTER
 62
     7
100
AcDbPolyline
 90
        2
 70
     0
 43
0.25
 10
69.9566456545
 20
294.8514350858
 10
69.9566456545
 20
288.1014350858
  0
LWPOLYLINE
  5
7A
330
1F
100
AcDbEntity
  8
BEZUGSACHSEN
  6
DOT_CENTER
 62
     7
100
AcDbPolyline
 90
        2
 70
     0
 43
0.25
 10
69.9566456545
 20
294.8514350858
 10
69.9566456545
 20
301.6014350858
  0
LINE
  5
7B
330
1F
100
AcDbEntity
  8
VERERBUNG
  6
Continuous
 62
     7
100
AcDbLine
 10
46.9566456545
 20
287.5814350858
 30
0.0
 11
47.9566456545
 21
288.5814350858
 31
0.0
  0
LINE
  5
7C
330
1F
100
AcDbEntity
  8
VERERBUNG
  6
Continuous
 62
     7
100
AcDbLine
 10
76.9566456545
 20
319.0718592355
 30
0.0
 11
76.9566456545
 21
270.6310109362
 31
0.0
  0
LINE
  5
7D
330
1F
100
AcDbEntity
  8
VERERBUNG
  6
Continuous
 62
     9
100
AcDbLine
 10
77.6267558875
 20
270.810566432
 30
0.0
 11
77.6267558875
 21
318.8923037397
 31
0.0
  0
LINE
  5
7E
330
1F
100
AcDbEntity
  8
VERERBUNG
  6
Continuous
 62
     9
100
AcDbLine
 10
77.7820473146
 20
270.8310109362
 30
0.0
 11
77.7820473146
 21
318.8718592355
 31
0.0
  0
LINE
  5
7F
330
1F
100
AcDbEntity
  8
VERERBUNG
  6
Continuous
 62
     9
100
AcDbLine
 10
78.654476024
 20
270.8310109362
 30
0.0
 11
78.654476024
 21
318.8718592355
 31
0.0
  0
LINE
  5
80
330
1F
100
AcDbEntity
  8
VERERBUNG
  6
Continuous
 62
     7
100
AcDbLine
 10
78.9566456545
 20
326.3514350858
 30
0.0
 11
78.9566456545
 21
263.3514350858
 31
0.0
  0
LINE
  5
81
330
1F
100
AcDbEntity
  8
VERERBUNG
  6
Continuous
 62
     7
100
AcDbLine
 10
47.9566456545
 20
301.1214350858
 30
0.0
 11
46.9566456545
 21
302.1214350858
 31
0.0
  0
LWPOLYLINE
  5
82
330
1F
100
AcDbEntity
  8
BEZUGSACHSEN
  6
DOT_CENTER
 62
     7
100
AcDbPolyline
 90
        2
 70
     0
 43
0.25
 10
85.9566456545
 20
318.352078166
 10
85.9566456545
 20
329.3514350858
  0
LINE
  5
83
330
1F
100
AcDbEntity
  8
VERERBUNG
  6
Continuous
 62
     7
100
AcDbLine
 10
98.8316456545
 20
323.74903035
 30
0.0
 11
100.3341447293
 21
326.3514350858
 31
0.0
  0
LINE
  5
84
330
1F
100
AcDbEntity
  8
VERERBUNG
  6
Continuous
 62
     7
100
AcDbLine
 10
98.8316456545
 20
265.9538398216
 30
0.0
 11
100.3341447293
 21
263.3514350858
 31
0.0
  0
LINE
  5
85
330
1F
100
AcDbEntity
  8
FASEN
  6
Continuous
 62
     9
100
AcDbLine
 10
91.0936560575
 20
274.6014350858
 30
0.0
 11
91.0936560575
 21
275.0014350858
 31
0.0
  0
LINE
  5
86
330
1F
100
AcDbEntity
  8
0
  6
Continuous
 62
     7
100
AcDbLine
 10
93.5791465797
 20
326.3514350858
 30
0.0
 11
93.5791465797
 21
302.8689350858
 31
0.0
  0
LINE
  5
87
330
1F
100
AcDbEntity
  8
0
  6
Continuous
 62
     7
100
AcDbLine
 10
93.5791465797
 20
286.8339350858
 30
0.0
 11
93.5791465797
 21
275.0014350858
 31
0.0
  0
LINE
  5
88
330
1F
100
AcDbEntity
  8
0
  6
Continuous
 62
     7
100
AcDbLine
 10
93.5791465797
 20
270.3927454235
 30
0.0
 11
93.5791465797
 21
263.3514350858
 31
0.0
  0
LINE
  5
89
330
1F
100
AcDbEntity
  8
0
  6
Continuous
 62
     7
100
AcDbLine
 10
95.0816456545
 20
323.7490078135
 30
0.0
 11
95.0816456545
 21
302.8689350858
 31
0.0
  0
LINE
  5
8A
330
1F
100
AcDbEntity
  8
0
  6
Continuous
 62
     7
100
AcDbLine
 10
95.0816456545
 20
286.8339350858
 30
0.0
 11
95.0816456545
 21
275.0014350858
 31
0.0
  0
LINE
  5
8B
330
1F
100
AcDbEntity
  8
0
  6
Continuous
 62
     7
100
AcDbLine
 10
95.0816456545
 20
265.9538461344
 30
0.0
 11
95.0816456545
 21
274.400823848
 31
0.0
  0
LINE
  5
8C
330
1F
100
AcDbEntity
  8
VERERBUNG
  6
Continuous
 62
     9
100
AcDbLine
 10
46.9566456545
 20
286.6748472993
 30
0.0
 11
47.9566456545
 21
287.221553406
 31
0.0
  0
LINE
  5
8D
330
1F
100
AcDbEntity
  8
VERERBUNG
  6
Continuous
 62
     7
100
AcDbLine
 10
78.9566456545
 20
263.3514350858
 30
0.0
 11
93.5791465797
 21
263.3514350858
 31
0.0
  0
LINE
  5
8E
330
1F
100
AcDbEntity
  8
VERERBUNG
  6
Continuous
 62
     7
100
AcDbLine
 10
100.3341447293
 20
263.3514350858
 30
0.0
 11
104.9566456545
 21
263.3514350858
 31
0.0
  0
LINE
  5
8F
330
1F
100
AcDbEntity
  8
VERERBUNG
  6
Continuous
 62
     9
100
AcDbLine
 10
47.9566456545
 20
302.4813167657
 30
0.0
 11
46.9566456545
 21
303.0280228724
 31
0.0
  0
LINE
  5
90
330
1F
100
AcDbEntity
  8
0
  6
Continuous
 62
     9
100
AcDbLine
 10
96.0816456545
 20
267.3514350858
 30
0.0
 11
96.0816456545
 21
287.1514350858
 31
0.0
  0
LINE
  5
91
330
1F
100
AcDbEntity
  8
0
  6
Continuous
 62
     9
100
AcDbLine
 10
96.0816456545
 20
302.5514350858
 30
0.0
 11
96.0816456545
 21
322.3514350858
 31
0.0
  0
LINE
  5
92
330
1F
100
AcDbEntity
  8
0
  6
Continuous
 62
     9
100
AcDbLine
 10
97.8316456545
 20
267.3514350858
 30
0.0
 11
97.8316456545
 21
287.1514350858
 31
0.0
  0
LINE
  5
93
330
1F
100
AcDbEntity
  8
0
  6
Continuous
 62
     9
100
AcDbLine
 10
97.8316456545
 20
302.5514350858
 30
0.0
 11
97.8316456545
 21
322.3514350858
 31
0.0
  0
LINE
  5
94
330
1F
100
AcDbEntity
  8
0
  6
Continuous
 62
     7
100
AcDbLine
 10
98.8316456545
 20
265.9538461344
 30
0.0
 11
98.8316456545
 21
274.400823848
 31
0.0
  0
LINE
  5
95
330
1F
100
AcDbEntity
  8
0
  6
Continuous
 62
     7
100
AcDbLine
 10
98.8316456545
 20
275.0014350858
 30
0.0
 11
98.8316456545
 21
286.8339350858
 31
0.0
  0
LINE
  5
96
330
1F
100
AcDbEntity
  8
0
  6
Continuous
 62
     7
100
AcDbLine
 10
98.8316456545
 20
302.8689350858
 30
0.0
 11
98.8316456545
 21
323.7490078135
 31
0.0
  0
LINE
  5
97
330
1F
100
AcDbEntity
  8
0
  6
Continuous
 62
     7
100
AcDbLine
 10
100.3341447293
 20
326.3514350858
 30
0.0
 11
100.3341447293
 21
302.8689350858
 31
0.0
  0
LINE
  5
98
330
1F
100
AcDbEntity
  8
0
  6
Continuous
 62
     7
100
AcDbLine
 10
100.3341447293
 20
286.8339350858
 30
0.0
 11
100.3341447293
 21
275.0014350858
 31
0.0
  0
LINE
  5
99
330
1F
100
AcDbEntity
  8
0
  6
Continuous
 62
     7
100
AcDbLine
 10
100.3341447293
 20
270.3927454235
 30
0.0
 11
100.3341447293
 21
263.3514350858
 31
0.0
  0
LINE
  5
9A
330
1F
100
AcDbEntity
  8
VERERBUNG
  6
Continuous
 62
     7
100
AcDbLine
 10
96.0816456545
 20
267.3514350858
 30
0.0
 11
97.8316456545
 21
267.3514350858
 31
0.0
  0
LINE
  5
9B
330
1F
100
AcDbEntity
  8
FASEN
  6
Continuous
 62
     7
100
AcDbLine
 10
84.2922580987
 20
270.3927454235
 30
0.0
 11
93.5791465797
 21
270.3927454235
 31
0.0
  0
LINE
  5
9C
330
1F
100
AcDbEntity
  8
0
  6
Continuous
 62
     7
100
AcDbLine
 10
100.3341447293
 20
270.3927454235
 30
0.0
 11
104.9566456545
 21
270.3927454235
 31
0.0
  0
LINE
  5
9D
330
1F
100
AcDbEntity
  8
VERERBUNG
  6
Continuous
 62
     7
100
AcDbLine
 10
78.654476024
 20
270.8310109362
 30
0.0
 11
77.7820473146
 21
270.8310109362
 31
0.0
  0
LINE
  5
9E
330
1F
100
AcDbEntity
  8
VERERBUNG
  6
Continuous
 62
     7
100
AcDbLine
 10
48.0966025902
 20
272.0768598283
 30
0.0
 11
76.9566456545
 21
270.6310109362
 31
0.0
  0
LINE
  5
9F
330
1F
100
AcDbEntity
  8
0
  6
Continuous
 62
     7
100
AcDbLine
 10
104.9566456545
 20
270.3927454235
 30
0.0
 11
104.9566456545
 21
263.3514741476
 31
0.0
  0
LINE
  5
A0
330
1F
100
AcDbEntity
  8
FASEN
  6
Continuous
 62
     7
100
AcDbLine
 10
104.9566456545
 20
270.3927454235
 30
0.0
 11
104.9566456545
 21
275.0014350858
 31
0.0
  0
LINE
  5
A1
330
1F
100
AcDbEntity
  8
0
  6
Continuous
 62
     7
100
AcDbLine
 10
104.9566456545
 20
275.0014350858
 30
0.0
 11
104.9566456545
 21
326.3513861803
 31
0.0
  0
LINE
  5
A2
330
1F
100
AcDbEntity
  8
FASEN
  6
Continuous
 62
     7
100
AcDbLine
 10
91.0936560575
 20
274.6014350858
 30
0.0
 11
95.0920109198
 21
274.6014350858
 31
0.0
  0
LINE
  5
A3
330
1F
100
AcDbEntity
  8
FASEN
  6
Continuous
 62
     7
100
AcDbLine
 10
98.8212803892
 20
274.6014350858
 30
0.0
 11
104.9566456545
 21
274.6014350858
 31
0.0
  0
LINE
  5
A4
330
1F
100
AcDbEntity
  8
0
  6
Continuous
 62
     7
100
AcDbLine
 10
91.0936560575
 20
275.0014350858
 30
0.0
 11
95.0816456545
 21
275.0014350858
 31
0.0
  0
LINE
  5
A5
330
1F
100
AcDbEntity
  8
FASEN
  6
Continuous
 62
     7
100
AcDbLine
 10
95.0816456545
 20
275.0014350858
 30
0.0
 11
95.0920109198
 21
275.0014350858
 31
0.0
  0
LINE
  5
A6
330
1F
100
AcDbEntity
  8
FASEN
  6
Continuous
 62
     7
100
AcDbLine
 10
98.8212803892
 20
275.0014350858
 30
0.0
 11
98.8316456545
 21
275.0014350858
 31
0.0
  0
LINE
  5
A7
330
1F
100
AcDbEntity
  8
0
  6
Continuous
 62
     7
100
AcDbLine
 10
98.8316456545
 20
275.0014350858
 30
0.0
 11
104.9566456545
 21
275.0014350858
 31
0.0
  0
LINE
  5
A8
330
1F
100
AcDbEntity
  8
VERERBUNG
  6
Continuous
 62
     7
100
AcDbLine
 10
93.5791465797
 20
263.3514350858
 30
0.0
 11
95.0816456545
 21
265.9538398216
 31
0.0
  0
LINE
  5
A9
330
1F
100
AcDbEntity
  8
0
  6
Continuous
 62
     7
100
AcDbLine
 10
112.9566456545
 20
277.3514350858
 30
0.0
 11
193.5424320921
 21
277.3514350858
 31
0.0
  0
LINE
  5
AA
330
1F
100
AcDbEntity
  8
RUNDUNGEN
  6
Continuous
 62
     9
100
AcDbLine
 10
112.9566456545
 20
312.3514350858
 30
0.0
 11
112.9566456545
 21
277.3514350858
 31
0.0
  0
LINE
  5
AB
330
1F
100
AcDbEntity
  8
VERERBUNG
  6
Continuous
 62
     7
100
AcDbLine
 10
77.6267558875
 20
270.810566432
 30
0.0
 11
76.9566456545
 21
270.6310109362
 31
0.0
  0
LINE
  5
AC
330
1F
100
AcDbEntity
  8
VERERBUNG
  6
Continuous
 62
     9
100
AcDbLine
 10
52.4440526922
 20
285.5814350858
 30
0.0
 11
47.6283204649
 21
285.5814350858
 31
0.0
  0
LINE
  5
AD
330
1F
100
AcDbEntity
  8
0
  6
Continuous
 62
     7
100
AcDbLine
 10
104.9566456545
 20
286.8339350858
 30
0.0
 11
98.2475325451
 21
286.8339350858
 31
0.0
  0
LINE
  5
AE
330
1F
100
AcDbEntity
  8
0
  6
Continuous
 62
     7
100
AcDbLine
 10
91.9241456545
 20
286.8339350858
 30
0.0
 11
95.665758764
 21
286.8339350858
 31
0.0
  0
LINE
  5
AF
330
1F
100
AcDbEntity
  8
0
  6
Continuous
 62
     7
100
AcDbLine
 10
96.0816456545
 20
287.1514350858
 30
0.0
 11
97.8316456545
 21
287.1514350858
 31
0.0
  0
LINE
  5
B0
330
1F
100
AcDbEntity
  8
VERERBUNG
  6
Continuous
 62
     7
100
AcDbLine
 10
93.5791465797
 20
326.3514350858
 30
0.0
 11
95.0816456545
 21
323.74903035
 31
0.0
  0
LINE
  5
B1
330
1F
100
AcDbEntity
  8
VERERBUNG
  6
Continuous
 62
     7
100
AcDbLine
 10
51.4566456545
 20
288.5814350858
 30
0.0
 11
47.9566456545
 21
288.5814350858
 31
0.0
  0
LWPOLYLINE
  5
B2
330
1F
100
AcDbEntity
  8
BEZUGSACHSEN
  6
DOT_CENTER
 62
     7
100
AcDbPolyline
 90
        2
 70
     0
 43
0.25
 10
201.9566456545
 20
294.8514350858
 10
43.9566456545
 20
294.8514350858
  0
LWPOLYLINE
  5
B3
330
1F
100
AcDbEntity
  8
VERERBUNG
  6
DOT_CENTER
 62
     9
100
AcDbPolyline
 90
        2
 70
     0
 43
0.25
 10
74.2060789497
 20
294.8514351371
 10
73.7066894695
 20
294.8514351181
  0
LWPOLYLINE
  5
B4
330
1F
100
AcDbEntity
  8
VERERBUNG
  6
DOT_CENTER
 62
     9
100
AcDbPolyline
 90
        2
 70
     0
 43
0.25
 10
65.7072089444
 20
294.8514350208
 10
66.206595276
 20
294.8514350381
  0
LINE
  5
B5
330
1F
100
AcDbEntity
  8
VERERBUNG
  6
Continuous
 62
     7
100
AcDbLine
 10
51.4566456545
 20
301.1214350858
 30
0.0
 11
47.9566456545
 21
301.1214350858
 31
0.0
  0
LINE
  5
B6
330
1F
100
AcDbEntity
  8
0
  6
Continuous
 62
     7
100
AcDbLine
 10
96.0816456545
 20
302.5514350858
 30
0.0
 11
97.8316456545
 21
302.5514350858
 31
0.0
  0
LINE
  5
B7
330
1F
100
AcDbEntity
  8
0
  6
Continuous
 62
     7
100
AcDbLine
 10
91.9241456545
 20
302.8689350858
 30
0.0
 11
95.665758764
 21
302.8689350858
 31
0.0
  0
LINE
  5
B8
330
1F
100
AcDbEntity
  8
0
  6
Continuous
 62
     7
100
AcDbLine
 10
98.2475325451
 20
302.8689350858
 30
0.0
 11
104.9566456545
 21
302.8689350858
 31
0.0
  0
LINE
  5
B9
330
1F
100
AcDbEntity
  8
VERERBUNG
  6
Continuous
 62
     9
100
AcDbLine
 10
47.6283204649
 20
304.1214350858
 30
0.0
 11
52.4440526922
 21
304.1214350858
 31
0.0
  0
LINE
  5
BA
330
1F
100
AcDbEntity
  8
VERERBUNG
  6
Continuous
 62
     7
100
AcDbLine
 10
77.6267558875
 20
318.8923037397
 30
0.0
 11
76.9566456545
 21
319.0718592355
 31
0.0
  0
LINE
  5
BB
330
1F
100
AcDbEntity
  8
0
  6
Continuous
 62
     7
100
AcDbLine
 10
112.9566456545
 20
312.3514350858
 30
0.0
 11
193.5424320921
 21
312.3514350858
 31
0.0
  0
LINE
  5
BC
330
1F
100
AcDbEntity
  8
VERERBUNG
  6
Continuous
 62
     7
100
AcDbLine
 10
78.654476024
 20
318.8718592355
 30
0.0
 11
77.7820473146
 21
318.8718592355
 31
0.0
  0
LINE
  5
BD
330
1F
100
AcDbEntity
  8
VERERBUNG
  6
Continuous
 62
     7
100
AcDbLine
 10
48.0966025902
 20
317.6260103433
 30
0.0
 11
76.9566456545
 21
319.0718592355
 31
0.0
  0
LINE
  5
BE
330
1F
100
AcDbEntity
  8
VERERBUNG
  6
Continuous
 62
     7
100
AcDbLine
 10
96.0816456545
 20
322.3514350858
 30
0.0
 11
97.8316456545
 21
322.3514350858
 31
0.0
  0
LINE
  5
BF
330
1F
100
AcDbEntity
  8
VERERBUNG
  6
Continuous
 62
     7
100
AcDbLine
 10
78.9566456545
 20
326.3514350858
 30
0.0
 11
80.9566456545
 21
326.3514350858
 31
0.0
  0
LINE
  5
C0
330
1F
100
AcDbEntity
  8
VERERBUNG
  6
Continuous
 62
     7
100
AcDbLine
 10
90.9566456545
 20
326.3514350858
 30
0.0
 11
93.5791465797
 21
326.3514350858
 31
0.0
  0
LINE
  5
C1
330
1F
100
AcDbEntity
  8
VERERBUNG
  6
Continuous
 62
     7
100
AcDbLine
 10
100.3341447293
 20
326.3514350858
 30
0.0
 11
104.9566456545
 21
326.3514350858
 31
0.0
  0
LINE
  5
C2
330
1F
100
AcDbEntity
  8
FASEN
  6
Continuous
 62
     7
100
AcDbLine
 10
198.6637524357
 20
282.058541867
 30
0.0
 11
194.2495388733
 21
277.6443283047
 31
0.0
  0
LINE
  5
C3
330
1F
100
AcDbEntity
  8
FASEN
  6
Continuous
 62
     7
100
AcDbLine
 10
198.6637524357
 20
307.6443283047
 30
0.0
 11
194.2495388733
 21
312.058541867
 31
0.0
  0
LINE
  5
C4
330
1F
100
AcDbEntity
  8
RUNDUNGEN
  6
Continuous
 62
     9
100
AcDbLine
 10
193.5424320921
 20
277.3514350858
 30
0.0
 11
193.5424320921
 21
312.3514350858
 31
0.0
  0
LINE
  5
C5
330
1F
100
AcDbEntity
  8
RUNDUNGEN
  6
Continuous
 62
     9
100
AcDbLine
 10
194.2495388733
 20
277.6443283047
 30
0.0
 11
194.2495388733
 21
312.058541867
 31
0.0
  0
LINE
  5
C6
330
1F
100
AcDbEntity
  8
RUNDUNGEN
  6
Continuous
 62
     9
100
AcDbLine
 10
198.6637524357
 20
307.6443283047
 30
0.0
 11
198.6637524357
 21
282.058541867
 31
0.0
  0
LINE
  5
C7
330
1F
100
AcDbEntity
  8
RUNDUNGEN
  6
Continuous
 62
     7
100
AcDbLine
 10
198.9566456545
 20
306.9372215235
 30
0.0
 11
198.9566456545
 21
282.7656486482
 31
0.0
  0
ARC
  5
C8
330
1F
100
AcDbEntity
  8
FASEN
  6
Continuous
 62
     7
100
AcDbCircle
 10
-2.613594826
 20
274.8014350858
 30
0.0
 40
97.70581044213137
100
AcDbArc
 50
359.8827176822629
 51
0.11728231773712
  0
ARC
  5
C9
330
1F
100
AcDbEntity
  8
FASEN
  6
Continuous
 62
     7
100
AcDbCircle
 10
94.0006515703
 20
278.9208322427
 30
0.0
 40
12.92211935390021
100
AcDbArc
 50
219.3764519582012
 51
221.2968513337622
  0
ARC
  5
CA
330
1F
100
AcDbEntity
  8
FASEN
  6
Continuous
 62
     7
100
AcDbCircle
 10
91.0936560575
 20
267.0014350858
 30
0.0
 40
8.0
100
AcDbArc
 50
90.0
 51
152.2781454968997
  0
ARC
  5
CB
330
1F
100
AcDbEntity
  8
FASEN
  6
Continuous
 62
     7
100
AcDbCircle
 10
91.0936560575
 20
267.0014350858
 30
0.0
 40
7.599996372100009
100
AcDbArc
 50
90.0
 51
153.4982565746013
  0
ARC
  5
CC
330
1F
100
AcDbEntity
  8
FASEN
  6
Continuous
 62
     7
100
AcDbCircle
 10
96.8841001914
 20
274.4007706524
 30
0.0
 40
1.947545463826496
100
AcDbArc
 50
0.00156498701871
 51
5.91393925840449
  0
ARC
  5
CD
330
1F
100
AcDbEntity
  8
VERERBUNG
  6
Continuous
 62
     7
100
AcDbCircle
 10
51.4566456545
 20
290.0814350858
 30
0.0
 40
1.5
100
AcDbArc
 50
270.0
 51
354.6670371752118
  0
ARC
  5
CE
330
1F
100
AcDbEntity
  8
VERERBUNG
  6
Continuous
 62
     7
100
AcDbCircle
 10
48.1566456545
 20
273.275356733
 30
0.0
 40
1.199999999999996
100
AcDbArc
 50
180.0
 51
267.1319572717898
  0
ARC
  5
CF
330
1F
100
AcDbEntity
  8
VERERBUNG
  6
Continuous
 62
     7
100
AcDbCircle
 10
96.0816456545
 20
266.3514350858
 30
0.0
 40
1.0
100
AcDbArc
 50
90.0
 51
180.0
  0
ARC
  5
D0
330
1F
100
AcDbEntity
  8
VERERBUNG
  6
Continuous
 62
     7
100
AcDbCircle
 10
77.7820473146
 20
270.2310109362
 30
0.0
 40
0.6000000000000227
100
AcDbArc
 50
90.0
 51
105.0000000028951
  0
ARC
  5
D1
330
1F
100
AcDbEntity
  8
VERERBUNG
  6
Continuous
 62
     7
100
AcDbCircle
 10
78.654476024
 20
270.2310109362
 30
0.0
 40
0.6000000000003787
100
AcDbArc
 50
59.74152092741815
 51
90.0
  0
ARC
  5
D2
330
1F
100
AcDbEntity
  8
0
  6
Continuous
 62
     7
100
AcDbCircle
 10
-48.7918958181
 20
334.3164386901
 30
0.0
 40
156.0632957305417
100
AcDbArc
 50
335.8202227521907
 51
337.2043014055999
  0
ARC
  5
D3
330
1F
100
AcDbEntity
  8
VERERBUNG
  6
Continuous
 62
     7
100
AcDbCircle
 10
85.9380794738
 20
357.6659829455
 30
0.0
 40
31.71385608950036
100
AcDbArc
 50
270.0335425008
 51
279.1049739653001
  0
ARC
  5
D4
330
1F
100
AcDbEntity
  8
0
  6
Continuous
 62
     7
100
AcDbCircle
 10
91.9241456545
 20
294.8514350858
 30
0.0
 40
8.017499999999984
100
AcDbArc
 50
90.0
 51
270.0
  0
ARC
  5
D5
330
1F
100
AcDbEntity
  8
VERERBUNG
  6
Continuous
 62
     7
100
AcDbCircle
 10
51.4566456545
 20
299.6214350858
 30
0.0
 40
1.500000000000031
100
AcDbArc
 50
5.33296276981486
 51
90.0
  0
ARC
  5
D6
330
1F
100
AcDbEntity
  8
VERERBUNG
  6
Continuous
 62
     7
100
AcDbCircle
 10
48.1566456545
 20
316.4275134387
 30
0.0
 40
1.199999999960971
100
AcDbArc
 50
92.86804272844923
 51
180.0
  0
ARC
  5
D7
330
1F
100
AcDbEntity
  8
VERERBUNG
  6
Continuous
 62
     7
100
AcDbCircle
 10
96.0816456545
 20
323.3514350858
 30
0.0
 40
1.0
100
AcDbArc
 50
180.0
 51
270.0
  0
ARC
  5
D8
330
1F
100
AcDbEntity
  8
VERERBUNG
  6
Continuous
 62
     7
100
AcDbCircle
 10
77.7820473146
 20
319.4718592355
 30
0.0
 40
0.6000000000355985
100
AcDbArc
 50
254.9999999971049
 51
270.0
  0
ARC
  5
D9
330
1F
100
AcDbEntity
  8
VERERBUNG
  6
Continuous
 62
     7
100
AcDbCircle
 10
78.654476024
 20
319.4718592355
 30
0.0
 40
0.6000000000000227
100
AcDbArc
 50
270.0
 51
300.2584790725818
  0
ARC
  5
DA
330
1F
100
AcDbEntity
  8
VERERBUNG
  6
Continuous
 62
     7
100
AcDbCircle
 10
152.840243061
 20
-573.6836268304
 30
0.0
 40
884.3221864331545
100
AcDbArc
 50
96.58318095120157
 51
96.8023740697
  0
ARC
  5
DB
330
1F
100
AcDbEntity
  8
FASEN
  6
Continuous
 62
     7
100
AcDbCircle
 10
196.526886135
 20
274.8014350858
 30
0.0
 40
97.70581044213138
100
AcDbArc
 50
179.8827176822629
 51
180.1172823177371
  0
ARC
  5
DC
330
1F
100
AcDbEntity
  8
RUNDUNGEN
  6
Continuous
 62
     7
100
AcDbCircle
 10
112.9566456545
 20
269.3514350858
 30
0.0
 40
8.0
100
AcDbArc
 50
90.0
 51
180.0
  0
ARC
  5
DD
330
1F
100
AcDbEntity
  8
FASEN
  6
Continuous
 62
     7
100
AcDbCircle
 10
97.0291911176
 20
274.4007706524
 30
0.0
 40
1.947545463803144
100
AcDbArc
 50
174.0860607415955
 51
179.9984350129813
  0
ARC
  5
DE
330
1F
100
AcDbEntity
  8
RUNDUNGEN
  6
Continuous
 62
     7
100
AcDbCircle
 10
197.9566456545
 20
282.7656486482
 30
0.0
 40
1.00000000001904
100
AcDbArc
 50
314.9999999999989
 51
0.0
  0
ARC
  5
DF
330
1F
100
AcDbEntity
  8
RUNDUNGEN
  6
Continuous
 62
     7
100
AcDbCircle
 10
193.5424320921
 20
278.3514350858
 30
0.0
 40
1.0
100
AcDbArc
 50
270.0
 51
315.0000000040521
  0
ARC
  5
E0
330
1F
100
AcDbEntity
  8
VERERBUNG
  6
Continuous
 62
     7
100
AcDbCircle
 10
97.8316456545
 20
266.3514350858
 30
0.0
 40
1.0
100
AcDbArc
 50
0.0
 51
90.0
  0
ARC
  5
E1
330
1F
100
AcDbEntity
  8
VERERBUNG
  6
Continuous
 62
     7
100
AcDbCircle
 10
152.840243061
 20
1163.3864970021
 30
0.0
 40
884.3221864331001
100
AcDbArc
 50
263.1976259303
 51
263.4168190487984
  0
ARC
  5
E2
330
1F
100
AcDbEntity
  8
0
  6
Continuous
 62
     7
100
AcDbCircle
 10
242.7051871273
 20
334.3164386902
 30
0.0
 40
156.0632957307999
100
AcDbArc
 50
202.7956985943999
 51
204.1797772478128
  0
ARC
  5
E3
330
1F
100
AcDbEntity
  8
RUNDUNGEN
  6
Continuous
 62
     7
100
AcDbCircle
 10
112.9566456545
 20
320.3514350858
 30
0.0
 40
8.0
100
AcDbArc
 50
180.0
 51
270.0
  0
ARC
  5
E4
330
1F
100
AcDbEntity
  8
RUNDUNGEN
  6
Continuous
 62
     7
100
AcDbCircle
 10
197.9566456545
 20
306.9372215235
 30
0.0
 40
1.0
100
AcDbArc
 50
0.0
 51
45.00000000000115
  0
ARC
  5
E5
330
1F
100
AcDbEntity
  8
RUNDUNGEN
  6
Continuous
 62
     7
100
AcDbCircle
 10
193.5424320921
 20
311.3514350858
 30
0.0
 40
1.000000000019
100
AcDbArc
 50
44.99999999999885
 51
90.0
  0
ARC
  5
E6
330
1F
100
AcDbEntity
  8
VERERBUNG
  6
Continuous
 62
     7
100
AcDbCircle
 10
97.8316456545
 20
323.3514350858
 30
0.0
 40
1.0
100
AcDbArc
 50
270.0
 51
0.0
  0
CIRCLE
  5
E7
330
1F
100
AcDbEntity
  8
VERERBUNG
  6
Continuous
 62
     7
100
AcDbCircle
 10
69.9566456545
 20
294.8514350858
 30
0.0
 40
3.75
  0
SPLINE
  5
E8
330
1F
100
AcDbEntity
  8
VERERBUNG
  6
Continuous
 62
     7
100
AcDbSpline
210
0.0
220
0.0
230
1.0
 70
     8
 71
     3
 72
    13
 73
     9
 74
     7
 42
0.0000000001
 43
0.0000000001
 44
0.00000001
 40
0.0
 40
0.0
 40
0.0
 40
0.0
 40
0.9581451161705777
 40
1.916374757543949
 40
2.729668920807227
 40
3.542928077724315
 40
4.281951737045677
 40
5.020980281037097
 40
5.020980281037097
 40
5.020980281037097
 40
5.020980281037097
 10
85.9566456545
 20
325.952078166
 30
0.0
 10
85.63725148817468
 20
325.9549217037019
 30
0.0
 10
84.99843497935721
 20
325.9606090299558
 30
0.0
 10
84.08937085813619
 20
326.0042167485984
 30
0.0
 10
83.23005275090809
 20
326.0677731347811
 30
0.0
 10
82.44541420799413
 20
326.1467701507681
 30
0.0
 10
81.68728268049867
 20
326.2401812112272
 30
0.0
 10
81.20019186641247
 20
326.3143503792376
 30
0.0
 10
80.9566456545
 20
326.3514350858
 30
0.0
 11
85.9566456545
 21
325.952078166
 31
0.0
 11
84.99861426265616
 21
325.9668401402345
 31
0.0
 11
84.04140255076247
 21
326.0109965012721
 31
0.0
 11
83.23035122043065
 21
326.0713548939371
 31
0.0
 11
82.42113947233973
 21
326.1523907073848
 31
0.0
 11
81.68777323387616
 21
326.243659153841
 31
0.0
 11
80.9566456545
 21
326.3514350858
 31
0.0
  0
SPLINE
  5
E9
330
1F
100
AcDbEntity
  8
VERERBUNG
  6
Continuous
 62
     7
100
AcDbSpline
210
0.0
220
0.0
230
1.0
 70
     8
 71
     3
 72
    13
 73
     9
 74
     7
 42
0.0000000001
 43
0.0000000001
 44
0.00000001
 40
0.0
 40
0.0
 40
0.0
 40
0.0
 40
0.476518241899308
 40
0.9529821705727908
 40
1.193158829933648
 40
1.433310795883021
 40
1.675484054958387
 40
1.917493731656865
 40
1.917493731656865
 40
1.917493731656865
 40
1.917493731656865
 10
52.4440526922
 20
304.1214350858
 30
0.0
 10
52.51587330486648
 20
303.9796369229687
 30
0.0
 10
52.65950634413473
 20
303.6960567593642
 30
0.0
 10
52.79393043808648
 20
303.3204428027775
 30
0.0
 10
52.87552513938834
 20
303.0119663436681
 30
0.0
 10
52.92093048474806
 20
302.7752929009987
 30
0.0
 10
52.95080622257153
 20
302.5353464504186
 30
0.0
 10
52.9546996156546
 20
302.3739125061232
 30
0.0
 10
52.9566456545
 20
302.2932228044
 30
0.0
 11
52.4440526922
 21
304.1214350858
 31
0.0
 11
52.65044654280434
 21
303.6919339643864
 31
0.0
 11
52.8118767292824
 21
303.2436503820185
 31
0.0
 11
52.87283294883522
 21
303.0113377327727
 31
0.0
 11
52.91822082258538
 21
302.775513841562
 31
0.0
 11
52.9467909792788
 21
302.5350317558306
 31
0.0
 11
52.9566456545
 21
302.2932228044
 31
0.0
  0
SPLINE
  5
EA
330
1F
100
AcDbEntity
  8
VERERBUNG
  6
Continuous
 62
     7
100
AcDbSpline
210
0.0
220
0.0
230
1.0
 70
     8
 71
     3
 72
    19
 73
    15
 74
    13
 42
0.0000000001
 43
0.0000000001
 44
0.00000001
 40
0.0
 40
0.0
 40
0.0
 40
0.0
 40
0.0835832282533553
 40
0.1672705448672923
 40
0.249953862449835
 40
0.3326148850808053
 40
0.4138475639475814
 40
0.4950848398369893
 40
0.5749375740658164
 40
0.6547985888309349
 40
0.81149547967718
 40
0.9684466433246843
 40
1.123543258637153
 40
1.278502018119855
 40
1.278502018119855
 40
1.278502018119855
 40
1.278502018119855
 10
51.4566456545
 20
304.8077479678
 30
0.0
 10
51.48444429507286
 20
304.8100208484875
 30
0.0
 10
51.54007619458621
 20
304.8145694403397
 30
0.0
 10
51.62350759810865
 20
304.8092033123024
 30
0.0
 10
51.7054166715329
 20
304.7948991288833
 30
0.0
 10
51.78445314441964
 20
304.7717093376785
 30
0.0
 10
51.86015415242888
 20
304.7406046306601
 30
0.0
 10
51.93168379024712
 20
304.7028339816171
 30
0.0
 10
51.99922563238299
 20
304.6591986972239
 30
0.0
 10
52.08309507617247
 20
304.5951032104393
 30
0.0
 10
52.17868300620788
 20
304.5046800121111
 30
0.0
 10
52.27905728513395
 20
304.3846336719336
 30
0.0
 10
52.36810159639691
 20
304.2566349641532
 30
0.0
 10
52.41874316562986
 20
304.1664883516848
 30
0.0
 10
52.4440526922
 20
304.1214350858
 30
0.0
 11
51.4566456545
 21
304.8077479678
 31
0.0
 11
51.54009173117496
 21
304.8125342328166
 31
0.0
 11
51.62363742011259
 21
304.8076675273625
 31
0.0
 11
51.70507769426109
 21
304.7933842240655
 31
0.0
 11
51.78442252904041
 21
304.7702057457669
 31
0.0
 11
51.85959893651808
 21
304.7394282235368
 31
0.0
 11
51.93148330011266
 21
304.7015846869085
 31
0.0
 11
51.99861453003202
 21
304.6583428422053
 31
0.0
 11
52.0621312840816
 21
304.6099341277593
 31
0.0
 11
52.17636840355672
 21
304.5026783767018
 31
0.0
 11
52.27760212428223
 21
304.382739218966
 31
0.0
 11
52.36600679528929
 21
304.2553046309393
 31
0.0
 11
52.4440526922
 21
304.1214350858
 31
0.0
  0
SPLINE
  5
EB
330
1F
100
AcDbEntity
  8
VERERBUNG
  6
Continuous
 62
     7
100
AcDbSpline
210
0.0
220
0.0
230
1.0
 70
     8
 71
     3
 72
    23
 73
    19
 74
    17
 42
0.0000000001
 43
0.0000000001
 44
0.00000001
 40
0.0
 40
0.0
 40
0.0
 40
0.0
 40
0.0621269684898485
 40
0.1242824031245195
 40
0.1813135302924539
 40
0.2383411403790771
 40
0.2903938962736746
 40
0.3423956884504637
 40
0.3914747075467131
 40
0.4404962288064612
 40
0.4905855735082679
 40
0.5407628276217747
 40
0.5956736074425172
 40
0.6506193812865887
 40
0.7116314425822865
 40
0.7726461253602612
 40
0.8391602987488667
 40
0.9056490032271319
 40
0.9056490032271319
 40
0.9056490032271319
 40
0.9056490032271319
 10
47.5333473315
 20
285.7036454056
 30
0.0
 10
47.51454043475527
 20
285.6949561524778
 30
0.0
 10
47.47691802407652
 20
285.6775736648779
 30
0.0
 10
47.4198720995295
 20
285.6573322847517
 30
0.0
 10
47.36300574271343
 20
285.6423247184072
 30
0.0
 10
47.30811490513159
 20
285.634067493571
 30
0.0
 10
47.25428245147202
 20
285.6327887828185
 30
0.0
 10
47.20340061738946
 20
285.6392938086564
 30
0.0
 10
47.15544303268675
 20
285.6544555422312
 30
0.0
 10
47.11155943817752
 20
285.6778174546467
 30
0.0
 10
47.07305714423792
 20
285.7098548422953
 30
0.0
 10
47.03966953286636
 20
285.7496761050153
 30
0.0
 10
47.01257842370622
 20
285.7959011744542
 30
0.0
 10
46.9909487466235
 20
285.8487402003013
 30
0.0
 10
46.97497443383914
 20
285.9056550303998
 30
0.0
 10
46.96407860639909
 20
285.9676185015589
 30
0.0
 10
46.95769154702649
 20
286.0320564153369
 30
0.0
 10
46.95699424083278
 20
286.0763996116262
 30
0.0
 10
46.9566456545
 20
286.0985669641
 30
0.0
 11
47.5333473315
 21
285.7036454056
 31
0.0
 11
47.47655679906834
 21
285.6784542238122
 31
0.0
 11
47.41799776970866
 21
285.657618242072
 31
0.0
 11
47.36278405706624
 21
285.643335546168
 31
0.0
 11
47.30635927845967
 21
285.6350655599896
 31
0.0
 11
47.25431545628854
 21
285.6341012104459
 31
0.0
 11
47.20277114184739
 21
285.6409837999579
 31
0.0
 11
47.15599844803349
 21
285.6558520624267
 31
0.0
 11
47.11280248031483
 21
285.6790300243619
 31
0.0
 11
47.07414949319752
 21
285.710887347532
 31
0.0
 11
47.04178706339182
 21
285.7492335333585
 31
0.0
 11
47.01375623870371
 21
285.7964507612296
 31
0.0
 11
46.99266233035655
 21
285.8471862034171
 31
0.0
 11
46.97596530556356
 21
285.9058690883718
 31
0.0
 11
46.96512242959113
 21
285.9659126022192
 31
0.0
 11
46.95861134843294
 21
286.0321073231849
 31
0.0
 11
46.9566456545
 21
286.0985669641
 31
0.0
  0
SPLINE
  5
EC
330
1F
100
AcDbEntity
  8
VERERBUNG
  6
Continuous
 62
     7
100
AcDbSpline
210
0.0
220
0.0
230
1.0
 70
     8
 71
     3
 72
    13
 73
     9
 74
     7
 42
0.0000000001
 43
0.0000000001
 44
0.00000001
 40
0.0
 40
0.0
 40
0.0
 40
0.0
 40
0.2420096761428504
 40
0.4841829345765646
 40
0.7243349034837343
 40
0.9645115658399517
 40
1.440975492157849
 40
1.917493731764411
 40
1.917493731764411
 40
1.917493731764411
 40
1.917493731764411
 10
52.9566456545
 20
287.4096473673
 30
0.0
 10
52.95469961566269
 20
287.328957665762
 30
0.0
 10
52.95080622259648
 20
287.1675237218657
 30
0.0
 10
52.92093048475568
 20
286.9275772706983
 30
0.0
 10
52.8755251390731
 20
286.6909038262829
 30
0.0
 10
52.79393043725432
 20
286.3824273660634
 30
0.0
 10
52.6595063431643
 20
286.006813410128
 30
0.0
 10
52.51587330454615
 20
285.723233247935
 30
0.0
 10
52.4440526922
 20
285.5814350858
 30
0.0
 11
52.9566456545
 21
287.4096473673
 31
0.0
 11
52.94679097931899
 21
287.1678384164238
 31
0.0
 11
52.9182208227607
 21
286.9273563313226
 31
0.0
 11
52.87283294846119
 21
286.6915324372055
 31
0.0
 11
52.81187672798858
 21
286.4592197851043
 31
0.0
 11
52.6504465419386
 21
286.0109362050859
 31
0.0
 11
52.4440526922
 21
285.5814350858
 31
0.0
  0
SPLINE
  5
ED
330
1F
100
AcDbEntity
  8
VERERBUNG
  6
Continuous
 62
     7
100
AcDbSpline
210
0.0
220
0.0
230
1.0
 70
     8
 71
     3
 72
    19
 73
    15
 74
    13
 42
0.0000000001
 43
0.0000000001
 44
0.00000001
 40
0.0
 40
0.0
 40
0.0
 40
0.0
 40
0.1549595546697383
 40
0.3100569266234254
 40
0.467009314304339
 40
0.6237075593365721
 40
0.7035716820087227
 40
0.783427437135692
 40
0.8646682251002012
 40
0.9459045179485095
 40
1.028561641580739
 40
1.111240955993885
 40
1.194923428807014
 40
1.278501866344742
 40
1.278501866344742
 40
1.278501866344742
 40
1.278501866344742
 10
52.4440526922
 20
285.5814350858
 30
0.0
 10
52.41874304236821
 20
285.5363815850143
 30
0.0
 10
52.36810123291357
 20
285.4462345139477
 30
0.0
 10
52.27905631285743
 20
285.3182350893713
 30
0.0
 10
52.17868091342213
 20
285.1981882207452
 30
0.0
 10
52.08309146642537
 20
285.1077639075392
 30
0.0
 10
51.99922017551626
 20
285.0436667203583
 30
0.0
 10
51.93167531058939
 20
285.0000301170562
 30
0.0
 10
51.8601416509355
 20
284.962259746732
 30
0.0
 10
51.78443868009164
 20
284.9311570130245
 30
0.0
 10
51.70540324023843
 20
284.9079689831986
 30
0.0
 10
51.62349825320832
 20
284.8936661616695
 30
0.0
 10
51.54007137521919
 20
284.8883009653599
 30
0.0
 10
51.48444269450533
 20
284.8928494007531
 30
0.0
 10
51.4566456545
 20
284.8951222039
 30
0.0
 11
52.4440526922
 21
285.5814350858
 31
0.0
 11
52.36600639787734
 21
285.4475648518944
 31
0.0
 11
52.27760118156344
 21
285.3201297212772
 31
0.0
 11
52.17636636274914
 21
285.2001898886177
 31
0.0
 11
52.06212815799441
 21
285.0929333150635
 31
0.0
 11
51.99860895578267
 21
285.0445226856462
 31
0.0
 11
51.93147482424088
 21
285.0012797670464
 31
0.0
 11
51.85958645345981
 21
284.9634363029405
 31
0.0
 11
51.78440581032541
 21
284.9326595881445
 31
0.0
 11
51.70506428537451
 21
284.9094836845888
 31
0.0
 11
51.62362782100217
 21
284.8952018323855
 31
0.0
 11
51.54008693466661
 21
284.8903359751753
 31
0.0
 11
51.4566456545
 21
284.8951222039
 31
0.0
  0
SPLINE
  5
EE
330
1F
100
AcDbEntity
  8
VERERBUNG
  6
Continuous
 62
     7
100
AcDbSpline
210
0.0
220
0.0
230
1.0
 70
     8
 71
     3
 72
     9
 73
     5
 74
     3
 42
0.0000000001
 43
0.0000000001
 44
0.00000001
 40
0.0
 40
0.0
 40
0.0
 40
0.0
 40
0.077396305769701
 40
0.1547963632169679
 40
0.1547963632169679
 40
0.1547963632169679
 40
0.1547963632169679
 10
47.6283204649
 20
285.5814350858
 30
0.0
 10
47.61198273455209
 20
285.601407219179
 30
0.0
 10
47.57930648190767
 20
285.6413524540582
 30
0.0
 10
47.54866729582851
 20
285.6828807529232
 30
0.0
 10
47.5333473315
 20
285.7036454056
 30
0.0
 11
47.6283204649
 21
285.5814350858
 31
0.0
 11
47.5798165158125
 21
285.64174723275
 31
0.0
 11
47.5333473315
 21
285.7036454056
 31
0.0
  0
SPLINE
  5
EF
330
1F
100
AcDbEntity
  8
VERERBUNG
  6
Continuous
 62
     7
100
AcDbSpline
210
0.0
220
0.0
230
1.0
 70
     8
 71
     3
 72
    15
 73
    11
 74
     9
 42
0.0000000001
 43
0.0000000001
 44
0.00000001
 40
0.0
 40
0.0
 40
0.0
 40
0.0
 40
0.0705890228665453
 40
0.1413178421971682
 40
0.2119756691021107
 40
0.2826066759641631
 40
0.3532320943186354
 40
0.4238693692910911
 40
0.4944866364805097
 40
0.5650782701209432
 40
0.5650782701209432
 40
0.5650782701209432
 40
0.5650782701209432
 10
48.0966025902
 20
285.2894071545
 30
0.0
 10
48.07333752088182
 20
285.2931491949134
 30
0.0
 10
48.02676130745516
 20
285.3006406865811
 30
0.0
 10
47.95952729502052
 20
285.3233044913661
 30
0.0
 10
47.89534166780359
 20
285.3531325792469
 30
0.0
 10
47.83476503742759
 20
285.3897168364554
 30
0.0
 10
47.77780944468789
 20
285.4316333439585
 30
0.0
 10
47.7245120555596
 20
285.4780645918873
 30
0.0
 10
47.67441185661514
 20
285.5279294226729
 30
0.0
 10
47.64368240270658
 20
285.563602023298
 30
0.0
 10
47.6283204649
 20
285.5814350858
 30
0.0
 11
48.0966025902
 21
285.2894071545
 31
0.0
 11
48.02724484223382
 21
285.3025339570929
 31
0.0
 11
47.96001572409428
 21
285.3245069304485
 31
0.0
 11
47.89593011051005
 21
285.3542653348825
 31
0.0
 11
47.83536598896221
 21
285.39060713329
 31
0.0
 11
47.77842165497316
 21
285.4323838318705
 31
0.0
 11
47.72503871132152
 21
285.4786427330963
 31
0.0
 11
47.67507241229059
 21
285.52854431009
 31
0.0
 11
47.6283204649
 21
285.5814350858
 31
0.0
  0
SPLINE
  5
F0
330
1F
100
AcDbEntity
  8
VERERBUNG
  6
Continuous
 62
     7
100
AcDbSpline
210
0.0
220
0.0
230
1.0
 70
     8
 71
     3
 72
    15
 73
    11
 74
     9
 42
0.0000000001
 43
0.0000000001
 44
0.00000001
 40
0.0
 40
0.0
 40
0.0
 40
0.0
 40
0.0705917491929362
 40
0.1412091312201508
 40
0.2118461808753002
 40
0.2824713749719389
 40
0.3531025105394522
 40
0.4237604659240659
 40
0.4944892664011014
 40
0.5650782701656545
 40
0.5650782701656545
 40
0.5650782701656545
 40
0.5650782701656545
 10
47.6283204649
 20
304.1214350858
 30
0.0
 10
47.64368242720033
 20
304.1392681780457
 30
0.0
 10
47.67441192994063
 20
304.1749408379781
 30
0.0
 10
47.72451213226039
 20
304.2248056683978
 30
0.0
 10
47.77780944705934
 20
304.2712368315114
 30
0.0
 10
47.83476495335411
 20
304.3131532745141
 30
0.0
 10
47.89534158742321
 20
304.3497375473725
 30
0.0
 10
47.95952728569031
 20
304.379565671963
 30
0.0
 10
48.02676132639873
 20
304.4022294870824
 30
0.0
 10
48.07333752722361
 20
304.4097209774458
 30
0.0
 10
48.0966025902
 20
304.4134630172
 30
0.0
 11
47.6283204649
 21
304.1214350858
 31
0.0
 11
47.67507248755437
 21
304.1743259492061
 31
0.0
 11
47.72503887189278
 21
304.2242276032921
 31
0.0
 11
47.77842165345231
 21
304.2704863475137
 31
0.0
 11
47.83536580567603
 21
304.3122629147339
 31
0.0
 11
47.89593003205182
 21
304.3486047885857
 31
0.0
 11
47.96001576093718
 21
304.3783632497752
 31
0.0
 11
48.02724486118983
 21
304.4003362171701
 31
0.0
 11
48.0966025902
 21
304.4134630172
 31
0.0
  0
SPLINE
  5
F1
330
1F
100
AcDbEntity
  8
VERERBUNG
  6
Continuous
 62
     7
100
AcDbSpline
210
0.0
220
0.0
230
1.0
 70
     8
 71
     3
 72
     9
 73
     5
 74
     3
 42
0.0000000001
 43
0.0000000001
 44
0.00000001
 40
0.0
 40
0.0
 40
0.0
 40
0.0
 40
0.077400057437266
 40
0.1547963631387954
 40
0.1547963631387954
 40
0.1547963631387954
 40
0.1547963631387954
 10
47.5333473315
 20
303.9992247661
 30
0.0
 10
47.54866729582541
 20
304.0199894187751
 30
0.0
 10
47.57930648188687
 20
304.0615177176212
 30
0.0
 10
47.61198273454924
 20
304.1014629524524
 30
0.0
 10
47.6283204649
 20
304.1214350858
 30
0.0
 11
47.5333473315
 21
303.9992247661
 31
0.0
 11
47.5798165158125
 21
304.0611229389375
 31
0.0
 11
47.6283204649
 21
304.1214350858
 31
0.0
  0
SPLINE
  5
F2
330
1F
100
AcDbEntity
  8
VERERBUNG
  6
Continuous
 62
     7
100
AcDbSpline
210
0.0
220
0.0
230
1.0
 70
     8
 71
     3
 72
    43
 73
    39
 74
    37
 42
0.0000000001
 43
0.0000000001
 44
0.00000001
 40
0.0
 40
0.0
 40
0.0
 40
0.0
 40
0.4175881290592446
 40
0.8356316531851556
 40
1.253282832064942
 40
1.670787328104425
 40
2.088079154597296
 40
2.505458237212039
 40
2.922766757568902
 40
3.339867556112856
 40
3.548612846039214
 40
3.757291312487632
 40
3.966036487594141
 40
4.174848410761831
 40
4.592416990927528
 40
5.010187344227337
 40
5.428059866943113
 40
5.845880990891244
 40
6.263484877240495
 40
6.681103578847669
 40
7.097989619803215
 40
7.514858051302649
 40
7.930683045182231
 40
8.346557961774888
 40
8.761608457070057
 40
9.176458234636849
 40
9.383846863197581
 40
9.591169424695938
 40
9.798492920888314
 40
10.00588294532317
 40
10.42072923644038
 40
10.83577763652579
 40
11.25173036429155
 40
11.66760664545573
 40
12.08452417594527
 40
12.50157511624772
 40
12.91952009641725
 40
13.33702821015331
 40
13.33702821015331
 40
13.33702821015331
 40
13.33702821015331
 10
65.7072719442
 20
294.8514350858
 30
0.0
 10
65.71119282363685
 20
294.9906903643837
 30
0.0
 10
65.71903885837243
 20
295.2693527845053
 30
0.0
 10
65.7831904584899
 20
295.6832048432999
 30
0.0
 10
65.88460091506056
 20
296.0889721553319
 30
0.0
 10
66.02604820805064
 20
296.4825453886232
 30
0.0
 10
66.20542824845815
 20
296.8601535312748
 30
0.0
 10
66.42109554334237
 20
297.2182388709269
 30
0.0
 10
66.67101565119589
 20
297.5531985564696
 30
0.0
 10
66.90568567615534
 20
297.8106160445454
 30
0.0
 10
67.10785406145922
 20
298.0018256252928
 30
0.0
 10
67.26643761755963
 20
298.1376669601985
 30
0.0
 10
67.43151910311161
 20
298.2655690931028
 30
0.0
 10
67.65976964479466
 20
298.4250884621762
 30
0.0
 10
67.9595287728232
 20
298.6031555857318
 30
0.0
 10
68.33838150607653
 20
298.7806972630953
 30
0.0
 10
68.73292401957835
 20
298.9202488977803
 30
0.0
 10
69.13913692165372
 20
299.020628027144
 30
0.0
 10
69.55313304674401
 20
299.0807979601603
 30
0.0
 10
69.97070859089217
 20
299.1003815392058
 30
0.0
 10
70.38795190845367
 20
299.0790730052764
 30
0.0
 10
70.8005527839758
 20
299.0173597519282
 30
0.0
 10
71.2048146472141
 20
298.9156902625169
 30
0.0
 10
71.59667996156901
 20
298.7753028985447
 30
0.0
 10
71.97258530923453
 20
298.5973357255799
 30
0.0
 10
72.26970161948637
 20
298.4193139074397
 30
0.0
 10
72.49584453804792
 20
298.2600217786415
 30
0.0
 10
72.65936018007409
 20
298.1323886817399
 30
0.0
 10
72.81642452999563
 20
297.9968949034218
 30
0.0
 10
73.01675449596306
 20
297.8061540838656
 30
0.0
 10
73.2493153870375
 20
297.5494738300675
 30
0.0
 10
73.49713472913098
 20
297.2154289218797
 30
0.0
 10
73.71103454422688
 20
296.8582727728905
 30
0.0
 10
73.88913491628298
 20
296.4813336869017
 30
0.0
 10
74.02968932684243
 20
296.0883714107989
 30
0.0
 10
74.13053875735272
 20
295.6829066923091
 30
0.0
 10
74.1942234442619
 20
295.2692585650009
 30
0.0
 10
74.20208876223735
 20
294.9906610184241
 30
0.0
 10
74.2060193648
 20
294.8514350858
 30
0.0
 11
65.7072719442
 21
294.8514350858
 31
0.0
 11
65.72775689721733
 21
295.268520463428
 31
0.0
 11
65.7894285978481
 21
295.6819899174448
 31
0.0
 11
65.89129960333617
 21
296.0870267126381
 31
0.0
 11
66.03240279310187
 21
296.4799642319095
 31
0.0
 11
66.21146716821296
 21
296.8568838758972
 31
0.0
 11
66.4268240607318
 21
297.2144124865691
 31
0.0
 11
66.67633977765149
 21
297.5489095839743
 31
0.0
 11
66.95736508782616
 21
297.8571267982684
 31
0.0
 11
67.10901897679051
 21
298.0005691003568
 31
0.0
 11
67.26750038074849
 21
298.1363275143088
 31
0.0
 11
67.4325141312807
 21
298.2641751199397
 31
0.0
 11
67.60367240002407
 21
298.3837881054294
 31
0.0
 11
67.96264806760216
 21
298.5970953702575
 31
0.0
 11
68.3409522232119
 21
298.7743467001387
 31
0.0
 11
68.73489461471955
 21
298.9137268903168
 31
0.0
 11
69.14051902677211
 21
299.0139432959812
 31
0.0
 11
69.55377656482729
 21
299.0740366661195
 31
0.0
 11
69.97093840940802
 21
299.0935655001364
 31
0.0
 11
70.3872831223373
 21
299.0723275350873
 31
0.0
 11
70.79955927606012
 21
299.0106212772822
 31
0.0
 11
71.20282946819461
 21
298.9092133009156
 31
0.0
 11
71.59432371136072
 21
298.7689128952898
 31
0.0
 11
71.96946816856232
 21
298.5913360108829
 31
0.0
 11
72.32530073531714
 21
298.3780673484313
 31
0.0
 11
72.49485309770887
 21
298.2586435666134
 31
0.0
 11
72.65828477852064
 21
298.1310789546974
 31
0.0
 11
72.81526650488304
 21
297.9956545489881
 31
0.0
 11
72.96546100635513
 21
297.8526432418735
 31
0.0
 11
73.24402659226692
 21
297.5452368990643
 31
0.0
 11
73.49128152396521
 21
297.2118749738773
 31
0.0
 11
73.70503137339723
 21
296.855044939262
 31
0.0
 11
73.88272162798295
 21
296.4790406112813
 31
0.0
 11
74.02302528974523
 21
296.0864401658848
 31
0.0
 11
74.12427800802338
 21
295.6818670898547
 31
0.0
 11
74.18558309445795
 21
295.2684427402741
 31
0.0
 11
74.2060193648
 21
294.8514350858
 31
0.0
  0
SPLINE
  5
F3
330
1F
100
AcDbEntity
  8
VERERBUNG
  6
Continuous
 62
     7
100
AcDbSpline
210
0.0
220
0.0
230
1.0
 70
     8
 71
     3
 72
    43
 73
    39
 74
    37
 42
0.0000000001
 43
0.0000000001
 44
0.00000001
 40
0.0
 40
0.0
 40
0.0
 40
0.0
 40
0.4175035109322055
 40
0.8354555648183626
 40
1.252511183664014
 40
1.669422664416127
 40
2.08529542572451
 40
2.501251326564629
 40
2.916298094057735
 40
3.331138757701827
 40
3.538526232944211
 40
3.745847790916754
 40
3.953170095085979
 40
4.160558348191832
 40
4.575407544421924
 40
4.990456744647361
 40
5.406332394429815
 40
5.822158816059987
 40
6.239027280497178
 40
6.65591311354302
 40
7.07353217853502
 40
7.491136194351661
 40
7.90895641446841
 40
8.326828662551334
 40
8.744600199958677
 40
9.16216934936297
 40
9.370981458408625
 40
9.579726706190849
 40
9.788406630756892
 40
9.99715392650564
 40
10.41425933413051
 40
10.83156890848278
 40
11.24894510857595
 40
11.66624011601936
 40
12.08375102627994
 40
12.50139861936522
 40
12.91943544783837
 40
13.33702799556462
 40
13.33702799556462
 40
13.33702799556462
 40
13.33702799556462
 10
74.2060193648
 20
294.8514350858
 30
0.0
 10
74.20211478527575
 20
294.7122088789008
 30
0.0
 10
74.19430143136043
 20
294.4336068880748
 30
0.0
 10
74.13051183695563
 20
294.0199696049684
 30
0.0
 10
74.02967517215525
 20
293.6145040888346
 30
0.0
 10
73.88914929532898
 20
293.2215318338231
 30
0.0
 10
73.71103724687578
 20
292.8445995156416
 30
0.0
 10
73.49712371619651
 20
292.4874533292096
 30
0.0
 10
73.24932157311088
 20
292.1533984679054
 30
0.0
 10
73.01677350269296
 20
291.8967099435986
 30
0.0
 10
72.81644099169395
 20
291.7059764402452
 30
0.0
 10
72.6593723249064
 20
291.5704901100639
 30
0.0
 10
72.49585394887704
 20
291.4428620013456
 30
0.0
 10
72.2697096843142
 20
291.283572629794
 30
0.0
 10
71.97259760667951
 20
291.105545893302
 30
0.0
 10
71.59669708072511
 20
290.9275689595328
 30
0.0
 10
71.20483147240006
 20
290.7871806939252
 30
0.0
 10
70.80056830454492
 20
290.685513562554
 30
0.0
 10
70.3879672010147
 20
290.62379968736
 30
0.0
 10
69.97072395459433
 20
290.6024889881686
 30
0.0
 10
69.55314819227584
 20
290.6220700762537
 30
0.0
 10
69.13915193837326
 20
290.6822388720087
 30
0.0
 10
68.7329398608747
 20
290.7826201037865
 30
0.0
 10
68.338397431607
 20
290.922171216688
 30
0.0
 10
67.95954039331397
 20
291.0997044373262
 30
0.0
 10
67.65977746222009
 20
291.2777669994187
 30
0.0
 10
67.43152786474506
 20
291.4372883248329
 30
0.0
 10
67.26644870024985
 20
291.5651944749907
 30
0.0
 10
67.10786902755365
 20
291.7010421811297
 30
0.0
 10
66.90570311838316
 20
291.8922580802968
 30
0.0
 10
66.67102221439225
 20
292.149668166472
 30
0.0
 10
66.42108725265106
 20
292.4846188891437
 30
0.0
 10
66.20543169796076
 20
292.8427126706081
 30
0.0
 10
66.02606123616951
 20
293.2203268793102
 30
0.0
 10
65.88458856988663
 20
293.6138917732328
 30
0.0
 10
65.78316825074737
 20
294.0196594016485
 30
0.0
 10
65.71911628101869
 20
294.43352199019
 30
0.0
 10
65.71121865682433
 20
294.7121801055031
 30
0.0
 10
65.7072719442
 20
294.8514350858
 30
0.0
 11
74.2060193648
 21
294.8514350858
 31
0.0
 11
74.18563098222833
 21
294.4344296955509
 31
0.0
 11
74.12427043950174
 21
294.0210064219632
 31
0.0
 11
74.02301257860688
 21
293.6164298101605
 31
0.0
 11
73.88272964796778
 21
293.2238283810314
 31
0.0
 11
73.70503488308287
 21
292.8478300776699
 31
0.0
 11
73.49127468539551
 21
292.4910025432385
 31
0.0
 11
73.24403137714516
 21
292.1576340298304
 31
0.0
 11
72.96547839943457
 21
291.8502238562492
 31
0.0
 11
72.81528283351099
 21
291.7072173638641
 31
0.0
 11
72.65829771300193
 21
291.5717998600512
 31
0.0
 11
72.49486283745021
 21
291.4442397594733
 31
0.0
 11
72.32530954419639
 21
291.3248179512761
 31
0.0
 11
71.96948029057303
 21
291.1115448918462
 31
0.0
 11
71.59434070542085
 21
290.9339607420478
 31
0.0
 11
71.20284641452058
 21
290.7936582963297
 31
0.0
 11
70.79957446839265
 21
290.6922514405854
 31
0.0
 11
70.38729832646852
 21
290.6305448814334
 31
0.0
 11
69.97095392075781
 21
290.6093049749431
 31
0.0
 11
69.55379160953524
 21
290.6288316116284
 31
0.0
 11
69.14053382896154
 21
290.6889242136812
 31
0.0
 11
68.7349105877956
 21
290.7891415902406
 31
0.0
 11
68.3409679440248
 21
290.9285202440465
 31
0.0
 11
67.96265950655716
 21
291.1057652259458
 31
0.0
 11
67.60368071978583
 21
291.3190683557457
 31
0.0
 11
67.4325231793787
 21
291.4386827079192
 31
0.0
 11
67.26751216011769
 21
291.5665339574011
 31
0.0
 11
67.10903384540006
 21
291.7022982188294
 31
0.0
 11
66.95738108389045
 21
291.8457446318515
 31
0.0
 11
66.67634507167594
 21
292.1539583254287
 31
0.0
 11
66.42681940474006
 21
292.4884493154213
 31
0.0
 11
66.21147133805239
 21
292.8459798771613
 31
0.0
 11
66.03241043763907
 21
293.2229046935112
 31
0.0
 11
65.89128873478853
 21
293.6158423796284
 31
0.0
 11
65.78942434910958
 21
294.0208771422602
 31
0.0
 11
65.72780517648943
 21
294.4343476581685
 31
0.0
 11
65.7072719442
 21
294.8514350858
 31
0.0
  0
SPLINE
  5
F4
330
1F
100
AcDbEntity
  8
0
  6
Continuous
 62
     7
100
AcDbSpline
210
0.0
220
0.0
230
1.0
 70
     8
 71
     3
 72
    17
 73
    13
 74
    11
 42
0.0000000001
 43
0.0000000001
 44
0.00000001
 40
0.0
 40
0.0
 40
0.0
 40
0.0
 40
0.0680277950559475
 40
0.1360632351357402
 40
0.2040812640857325
 40
0.2721696697298692
 40
0.3403702855761039
 40
0.4083585485774681
 40
0.4424627523989902
 40
0.4765773021019281
 40
0.5107086426706526
 40
0.5447868110068831
 40
0.5447868110068831
 40
0.5447868110068831
 40
0.5447868110068831
 10
95.665758764
 20
302.8689350858
 30
0.0
 10
95.67816738651734
 20
302.8499497189379
 30
0.0
 10
95.70298602604396
 20
302.811976851621
 30
0.0
 10
95.74392757082444
 20
302.7575843203716
 30
0.0
 10
95.7881461074688
 20
302.7057893978848
 30
0.0
 10
95.83672620648308
 20
302.6579149944234
 30
0.0
 10
95.89005900768413
 20
302.6153345293238
 30
0.0
 10
95.93921409190767
 20
302.5863942971282
 30
0.0
 10
95.98117932966692
 20
302.5688751502887
 30
0.0
 10
96.0139037313096
 20
302.5590571792653
 30
0.0
 10
96.04753119578392
 20
302.5526761509722
 30
0.0
 10
96.07028007950424
 20
302.551848559143
 30
0.0
 10
96.0816456545
 20
302.5514350858
 30
0.0
 11
95.665758764
 21
302.8689350858
 31
0.0
 11
95.70360394721021
 21
302.8124061285483
 31
0.0
 11
95.74447517734825
 21
302.7580152869125
 31
0.0
 11
95.7888505624262
 21
302.706466499716
 31
0.0
 11
95.83749212184722
 21
302.6588216712427
 31
0.0
 11
95.89105604277036
 21
302.616605200794
 31
0.0
 11
95.94987530931
 21
302.5825068461463
 31
0.0
 11
95.98137444701915
 21
302.5694339336216
 31
0.0
 11
96.01405025232727
 21
302.5596311662113
 31
0.0
 11
96.04763197990971
 21
302.5535306759361
 31
0.0
 11
96.0816456545
 21
302.5514350858
 31
0.0
  0
SPLINE
  5
F5
330
1F
100
AcDbEntity
  8
0
  6
Continuous
 62
     7
100
AcDbSpline
210
0.0
220
0.0
230
1.0
 70
     8
 71
     3
 72
    17
 73
    13
 74
    11
 42
0.0000000001
 43
0.0000000001
 44
0.00000001
 40
0.0
 40
0.0
 40
0.0
 40
0.0
 40
0.0340790970002376
 40
0.0682097420777507
 40
0.1023154065815755
 40
0.136412875519188
 40
0.2043992839290804
 40
0.2725935679884404
 40
0.3406803506913005
 40
0.4086986202682827
 40
0.4767464406816532
 40
0.5447862542984243
 40
0.5447862542984243
 40
0.5447862542984243
 40
0.5447862542984243
 10
96.0816456545
 20
287.1514350858
 30
0.0
 10
96.07027976410339
 20
287.1510238181264
 30
0.0
 10
96.04753079125265
 20
287.1502006606951
 30
0.0
 10
96.0139034274672
 20
287.1438327766388
 30
0.0
 10
95.9811869529801
 20
287.1340047472135
 30
0.0
 10
95.93923598679976
 20
287.1164675129982
 30
0.0
 10
95.89008614695899
 20
287.0875316646525
 30
0.0
 10
95.83674491193561
 20
287.0449667657946
 30
0.0
 10
95.78816098061681
 20
286.9970994867433
 30
0.0
 10
95.74393807650405
 20
286.9453033752968
 30
0.0
 10
95.70299208405723
 20
286.8909038572375
 30
0.0
 10
95.67816938386633
 20
286.8529239314221
 30
0.0
 10
95.665758764
 20
286.8339350858
 30
0.0
 11
96.0816456545
 21
287.1514350858
 31
0.0
 11
96.04763058436615
 21
287.1493470589465
 31
0.0
 11
96.01404818133346
 21
287.1432541827818
 31
0.0
 11
95.98138336139186
 21
287.1334457226871
 31
0.0
 11
95.94989574682776
 21
287.1203626222513
 31
0.0
 11
95.89107987999843
 21
287.0862621011762
 31
0.0
 11
95.837512839927
 21
287.0440598192906
 31
0.0
 11
95.78886646324828
 21
286.9964222289353
 31
0.0
 11
95.74448867942449
 21
286.9448751892614
 31
0.0
 11
95.70361006191422
 21
286.8904744126727
 31
0.0
 11
95.665758764
 21
286.8339350858
 31
0.0
  0
SPLINE
  5
F6
330
1F
100
AcDbEntity
  8
VERERBUNG
  6
Continuous
 62
     7
100
AcDbSpline
210
0.0
220
0.0
230
1.0
 70
     8
 71
     3
 72
    23
 73
    19
 74
    17
 42
0.0000000001
 43
0.0000000001
 44
0.00000001
 40
0.0
 40
0.0
 40
0.0
 40
0.0
 40
0.0664886891160618
 40
0.1330028506212756
 40
0.1940175413411828
 40
0.2550295990678513
 40
0.3099753628884739
 40
0.3648861555134256
 40
0.4150633580547094
 40
0.4651526181375456
 40
0.5141740378977657
 40
0.5632529905338175
 40
0.615254911603218
 40
0.667307769827283
 40
0.7243355356283487
 40
0.7813668340245328
 40
0.8435221575834787
 40
0.9056490098324604
 40
0.9056490098324604
 40
0.9056490098324604
 40
0.9056490098324604
 10
46.9566456545
 20
303.6043032076
 30
0.0
 10
46.95699424185455
 20
303.6264705549532
 30
0.0
 10
46.95769155011046
 20
303.6708137421612
 30
0.0
 10
46.96407860921744
 20
303.735251649022
 30
0.0
 10
46.97497441250172
 20
303.7972151214569
 30
0.0
 10
46.99094872010183
 20
303.8541299530609
 30
0.0
 10
47.0125784471263
 20
303.9069689597831
 30
0.0
 10
47.0396695562867
 20
303.9531940030975
 30
0.0
 10
47.07305703880428
 20
303.9930153122622
 30
0.0
 10
47.11155921245754
 20
304.0250527348765
 30
0.0
 10
47.15544278013392
 20
304.0484145360814
 30
0.0
 10
47.20340036902559
 20
304.0635761842037
 30
0.0
 10
47.2542822387145
 20
304.0700813110171
 30
0.0
 10
47.30811482821072
 20
304.0688027196904
 30
0.0
 10
47.36300581251044
 20
304.0605454760984
 30
0.0
 10
47.4198722264084
 20
304.0455378441235
 30
0.0
 10
47.47691812723819
 20
304.025296456956
 30
0.0
 10
47.51454046966373
 20
304.0079140023595
 30
0.0
 10
47.5333473315
 20
303.9992247661
 30
0.0
 11
46.9566456545
 21
303.6043032076
 31
0.0
 11
46.95861135077391
 21
303.6707628330769
 31
0.0
 11
46.96512242705481
 21
303.7369575425816
 31
0.0
 11
46.97596528814611
 21
303.7970010671867
 31
0.0
 11
46.99266231450696
 21
303.8556839479846
 31
0.0
 11
47.01375625215654
 21
303.906419367134
 31
0.0
 11
47.04178707865654
 21
303.95363660882
 31
0.0
 11
47.07414940070139
 21
303.9919828181077
 31
0.0
 11
47.1128022752695
 21
304.0238401447888
 31
0.0
 11
47.15599817848751
 21
304.0470180122595
 31
0.0
 11
47.20277082410659
 21
304.0618862069597
 31
0.0
 11
47.25431525680101
 21
304.0687688847175
 31
0.0
 11
47.30635918307217
 21
304.0678046297841
 31
0.0
 11
47.36278411829345
 21
304.0595346383975
 31
0.0
 11
47.41799798787724
 21
304.0452518654756
 31
0.0
 11
47.47655690568079
 21
304.0244159015575
 31
0.0
 11
47.5333473315
 21
303.9992247661
 31
0.0
  0
SPLINE
  5
F7
330
1F
100
AcDbEntity
  8
0
  6
Continuous
 62
     7
100
AcDbSpline
210
0.0
220
0.0
230
1.0
 70
     8
 71
     3
 72
    17
 73
    13
 74
    11
 42
0.0000000001
 43
0.0000000001
 44
0.00000001
 40
0.0
 40
0.0
 40
0.0
 40
0.0
 40
0.0340781916100157
 40
0.0682095735149292
 40
0.1023243844360169
 40
0.1364288245254622
 40
0.2044171801021006
 40
0.2726179463235308
 40
0.3407061059708133
 40
0.4087238601706399
 40
0.4767591626446714
 40
0.5447868280891871
 40
0.5447868280891871
 40
0.5447868280891871
 40
0.5447868280891871
 10
97.8316456545
 20
302.5514350858
 30
0.0
 10
97.84301123719035
 20
302.5518485828503
 30
0.0
 10
97.86576014232384
 20
302.5526762223498
 30
0.0
 10
97.89938768515935
 20
302.5590574007585
 30
0.0
 10
97.93211228918784
 20
302.5688752971114
 30
0.0
 10
97.97407779534181
 20
302.5863943262226
 30
0.0
 10
98.02323297968924
 20
302.6153347470809
 30
0.0
 10
98.07656558826504
 20
302.6579154440533
 30
0.0
 10
98.12514554098547
 20
302.7057898100337
 30
0.0
 10
98.16936394902712
 20
302.7575845539552
 30
0.0
 10
98.21030536553766
 20
302.8119769560491
 30
0.0
 10
98.23512394959036
 20
302.8499497530036
 30
0.0
 10
98.2475325451
 20
302.8689350858
 30
0.0
 11
97.8316456545
 21
302.5514350858
 31
0.0
 11
97.86565934739465
 21
302.5535307573097
 31
0.0
 11
97.89924110199361
 21
302.5596313301348
 31
0.0
 11
97.93191718405212
 21
302.5694340841094
 31
0.0
 11
97.96341658851313
 21
302.5825069702643
 31
0.0
 11
98.02223590282888
 21
302.6166054270833
 31
0.0
 11
98.07579979453791
 21
302.6588221775287
 31
0.0
 11
98.12444110734046
 21
302.7064669062298
 31
0.0
 11
98.16881630995229
 21
302.7580154879712
 31
0.0
 11
98.20968744563078
 21
302.8124062284615
 31
0.0
 11
98.2475325451
 21
302.8689350858
 31
0.0
  0
SPLINE
  5
F8
330
1F
100
AcDbEntity
  8
0
  6
Continuous
 62
     7
100
AcDbSpline
210
0.0
220
0.0
230
1.0
 70
     8
 71
     3
 72
    17
 73
    13
 74
    11
 42
0.0000000001
 43
0.0000000001
 44
0.00000001
 40
0.0
 40
0.0
 40
0.0
 40
0.0
 40
0.0680405844388564
 40
0.1360892264607054
 40
0.2041088007980535
 40
0.2721966989783087
 40
0.3403905143998585
 40
0.408376837756807
 40
0.4424735708393568
 40
0.4765783280582849
 40
0.5107080467025915
 40
0.5447863434236855
 40
0.5447863434236855
 40
0.5447863434236855
 40
0.5447863434236855
 10
98.2475325451
 20
286.8339350858
 30
0.0
 10
98.23512177289389
 20
286.8529241391586
 30
0.0
 10
98.21029875875843
 20
286.8909044946201
 30
0.0
 10
98.16935216737915
 20
286.9453047658861
 30
0.0
 10
98.12512876363961
 20
286.9971018698981
 30
0.0
 10
98.0765441019174
 20
287.044969399174
 30
0.0
 10
98.02320152760126
 20
287.0875329787034
 30
0.0
 10
97.97405180712099
 20
287.1164679113922
 30
0.0
 10
97.93210190663751
 20
287.1340061163164
 30
0.0
 10
97.8993863984118
 20
287.143834572932
 30
0.0
 10
97.86575967533234
 20
287.1502012127021
 30
0.0
 10
97.84301127811631
 20
287.1510240015338
 30
0.0
 10
97.8316456545
 20
287.1514350858
 30
0.0
 11
98.2475325451
 21
286.8339350858
 31
0.0
 11
98.20968078629541
 21
286.8904750317337
 31
0.0
 11
98.16880169347006
 21
286.9448764788725
 31
0.0
 11
98.12442314706863
 21
286.9964245837099
 31
0.0
 11
98.07577562084961
 21
287.044062594493
 31
0.0
 11
98.02220805127253
 21
287.0862634469886
 31
0.0
 11
97.96339204861556
 21
287.1203635642179
 31
0.0
 11
97.93190540653688
 21
287.1334470873486
 31
0.0
 11
97.89924158081077
 21
287.1432557036575
 31
0.0
 11
97.8656599634611
 21
287.1493477206404
 31
0.0
 11
97.8316456545
 21
287.1514350858
 31
0.0
  0
SPLINE
  5
F9
330
1F
100
AcDbEntity
  8
VERERBUNG
  6
Continuous
 62
     7
100
AcDbSpline
210
0.0
220
0.0
230
1.0
 70
     8
 71
     3
 72
    11
 73
     7
 74
     5
 42
0.0000000001
 43
0.0000000001
 44
0.00000001
 40
0.0
 40
0.0
 40
0.0
 40
0.0
 40
0.542779545155994
 40
1.085508812756528
 40
1.337448492055943
 40
1.589025708905143
 40
1.589025708905143
 40
1.589025708905143
 40
1.589025708905143
 10
47.5333473315
 20
285.7036454056
 30
0.0
 10
47.61107766898608
 20
285.8672657625715
 30
0.0
 10
47.76653114381338
 20
286.1944913203952
 30
0.0
 10
47.8904526659155
 20
286.6251042167484
 30
0.0
 10
47.94800703140081
 20
286.9697372428284
 30
0.0
 10
47.95376749571253
 20
287.1376549774494
 30
0.0
 10
47.9566456545
 20
287.221553406
 30
0.0
 11
47.5333473315
 21
285.7036454056
 31
0.0
 11
47.75281820623755
 21
286.2000748263455
 31
0.0
 11
47.90344224937919
 21
286.7214839320752
 31
0.0
 11
47.94253452768667
 21
286.9703722519744
 31
0.0
 11
47.9566456545
 21
287.221553406
 31
0.0
  0
SPLINE
  5
FA
330
1F
100
AcDbEntity
  8
VERERBUNG
  6
Continuous
 62
     7
100
AcDbSpline
210
0.0
220
0.0
230
1.0
 70
     8
 71
     3
 72
    11
 73
     7
 74
     5
 42
0.0000000001
 43
0.0000000001
 44
0.00000001
 40
0.0
 40
0.0
 40
0.0
 40
0.0
 40
0.4891002096562157
 40
0.9783817006610858
 40
1.283670603041434
 40
1.588797103068259
 40
1.588797103068259
 40
1.588797103068259
 40
1.588797103068259
 10
47.9566456545
 20
302.4813167657
 30
0.0
 10
47.94587489687633
 20
302.6444699590022
 30
0.0
 10
47.92432938952796
 20
302.9708368171222
 30
0.0
 10
47.80081585952901
 20
303.3834557196141
 30
0.0
 10
47.66803545609979
 20
303.7251709239928
 30
0.0
 10
47.57823540920028
 20
303.9078896896401
 30
0.0
 10
47.5333473315
 20
303.9992247661
 30
0.0
 11
47.9566456545
 21
302.4813167657
 31
0.0
 11
47.9061917505537
 21
302.9678076892149
 31
0.0
 11
47.77572351693019
 21
303.4393736097977
 31
0.0
 11
47.6639894991896
 21
303.7234806727091
 31
0.0
 11
47.5333473315
 21
303.9992247661
 31
0.0
  0
DIMENSION
  5
105
330
1F
100
AcDbEntity
  8
1
100
AcDbDimension
  2
*D2
 10
211.023649735437
 20
312.3514350858
 30
0.0
 11
207.273649735437
 21
295.453072616151
 31
0.0
 70
    32
  1
<>
 71
     5
 42
-1.0
 53
90.0
  3
ME10_DIM_10
100
AcDbAlignedDimension
 13
193.5424320921
 23
277.3514350858
 33
0.0
 14
193.5424320921
 24
312.3514350858
 34
0.0
 50
90.0
100
AcDbRotatedDimension
  0
DIMENSION
  5
110
330
1F
100
AcDbEntity
  8
1
100
AcDbDimension
  2
*D3
 10
198.9566456545
 20
333.100476193455
 30
0.0
 11
153.990642823551
 21
336.850476193455
 31
0.0
 70
    32
  1
<>
 71
     5
 42
-1.0
 53
0.00013888888889
  3
ME10_DIM_11
100
AcDbAlignedDimension
 13
104.9566456545
 23
326.3513861803
 33
0.0
 14
198.9566456545
 24
306.9372215235
 34
0.0
100
AcDbRotatedDimension
  0
DIMENSION
  5
11B
330
1F
100
AcDbEntity
  8
1
100
AcDbDimension
  2
*D4
 10
198.9566456545
 20
340.405196290544
 30
0.0
 11
140.224054948269
 21
344.155196290544
 31
0.0
 70
    32
  1
<>
 71
     5
 42
-1.0
 53
0.00013888888889
  3
ME10_DIM_12
100
AcDbAlignedDimension
 13
78.9566456545
 23
326.3514350858
 33
0.0
 14
198.9566456545
 24
306.9372215235
 34
0.0
100
AcDbRotatedDimension
  0
DIMENSION
  5
126
330
1F
100
AcDbEntity
  8
1
100
AcDbDimension
  2
*D5
 10
198.9566456545
 20
347.288490228185
 30
0.0
 11
128.98602402967
 21
351.038490228185
 31
0.0
 70
    32
  1
<>
 71
     5
 42
-1.0
 53
0.00013888888889
  3
ME10_DIM_13
100
AcDbAlignedDimension
 13
46.9566456545
 23
316.427462266
 33
0.0
 14
198.9566456545
 24
306.9372215235
 34
0.0
100
AcDbRotatedDimension
  0
INSERT
  5
12D
330
1F
100
AcDbEntity
  8
1
100
AcDbBlockReference
  2
*D6
 10
0.0
 20
0.0
 30
0.0
  0
ENDSEC
  0
SECTION
  2
OBJECTS
  0
DICTIONARY
  5
C
330
0
100
AcDbDictionary
281
     1
  3
ACAD_GROUP
350
D
  3
ACAD_LAYOUT
350
1A
  3
ACAD_MLEADERSTYLE
350
130
  3
ACAD_MLINESTYLE
350
17
  3
ACAD_PLOTSETTINGS
350
19
  3
ACAD_PLOTSTYLENAME
350
E
  3
ACAD_SCALELIST
350
4A
  3
ACAD_VISUALSTYLE
350
2A
  3
AcDbVariableDictionary
350
12E
  0
DICTIONARY
  5
D
102
{ACAD_REACTORS
330
C
102
}
330
C
100
AcDbDictionary
281
     1
  0
DICTIONARY
  5
1A
102
{ACAD_REACTORS
330
C
102
}
330
C
100
AcDbDictionary
281
     1
  3
Layout1
350
1E
  3
Layout2
350
26
  3
Model
350
22
  0
DICTIONARY
  5
130
102
{ACAD_REACTORS
330
C
102
}
330
C
100
AcDbDictionary
281
     1
  0
DICTIONARY
  5
17
102
{ACAD_REACTORS
330
C
102
}
330
C
100
AcDbDictionary
281
     1
  3
Standard
350
18
  0
DICTIONARY
  5
19
102
{ACAD_REACTORS
330
C
102
}
330
C
100
AcDbDictionary
281
     1
  0
ACDBDICTIONARYWDFLT
  5
E
102
{ACAD_REACTORS
330
C
102
}
330
C
100
AcDbDictionary
281
     1
  3
Normal
350
F
100
AcDbDictionaryWithDefault
340
F
  0
DICTIONARY
  5
4A
102
{ACAD_REACTORS
330
C
102
}
330
C
100
AcDbDictionary
281
     1
  3
A0
350
4B
  3
A1
350
4C
  3
A2
350
4D
  3
A3
350
4E
  3
A4
350
4F
  3
A5
350
50
  3
A6
350
51
  3
A7
350
52
  3
A8
350
53
  3
A9
350
54
  3
B0
350
55
  3
B1
350
56
  3
B2
350
57
  3
B3
350
58
  3
B4
350
59
  3
B5
350
5A
  3
B6
350
5B
  3
B7
350
5C
  3
B8
350
5D
  3
B9
350
5E
  3
C0
350
5F
  3
C1
350
60
  3
C2
350
61
  3
C3
350
62
  3
C4
350
63
  3
C5
350
64
  3
C6
350
65
  3
C7
350
66
  3
C8
350
67
  3
C9
350
68
  3
D0
350
69
  3
D1
350
6A
  3
D2
350
6B
  0
DICTIONARY
  5
2A
102
{ACAD_REACTORS
330
C
102
}
330
C
100
AcDbDictionary
281
     1
  3
2dWireframe
350
2F
  3
3D Hidden
350
31
  3
3dWireframe
350
30
  3
Basic
350
32
  3
Brighten
350
36
  3
ColorChange
350
3A
  3
Conceptual
350
34
  3
Dim
350
35
  3
Facepattern
350
39
  3
Flat
350
2B
  3
FlatWithEdges
350
2C
  3
Gouraud
350
2D
  3
GouraudWithEdges
350
2E
  3
Linepattern
350
38
  3
Realistic
350
33
  3
Thicken
350
37
  0
DICTIONARY
  5
12E
102
{ACAD_REACTORS
330
C
102
}
330
C
100
AcDbDictionary
281
     1
  3
CANNOSCALE
350
131
  0
LAYOUT
  5
1E
102
{ACAD_REACTORS
330
1A
102
}
330
1A
100
AcDbPlotSettings
  1

  2
none_device
  4

  6

 40
0.0
 41
0.0
 42
0.0
 43
0.0
 44
0.0
 45
0.0
 46
0.0
 47
0.0
 48
0.0
 49
0.0
140
0.0
141
0.0
142
1.0
143
1.0
 70
   688
 72
     0
 73
     0
 74
     5
  7

 75
    16
147
1.0
148
0.0
149
0.0
100
AcDbLayout
  1
Layout1
 70
     1
 71
     1
 10
0.0
 20
0.0
 11
12.0
 21
9.0
 12
0.0
 22
0.0
 32
0.0
 14
1.00000000000000E+20
 24
1.00000000000000E+20
 34
1.00000000000000E+20
 15
-1.00000000000000E+20
 25
-1.00000000000000E+20
 35
-1.00000000000000E+20
146
0.0
 13
0.0
 23
0.0
 33
0.0
 16
1.0
 26
0.0
 36
0.0
 17
0.0
 27
1.0
 37
0.0
 76
     0
330
1B
  0
LAYOUT
  5
26
102
{ACAD_REACTORS
330
1A
102
}
330
1A
100
AcDbPlotSettings
  1

  2
none_device
  4

  6

 40
0.0
 41
0.0
 42
0.0
 43
0.0
 44
0.0
 45
0.0
 46
0.0
 47
0.0
 48
0.0
 49
0.0
140
0.0
141
0.0
142
1.0
143
1.0
 70
   688
 72
     0
 73
     0
 74
     5
  7

 75
    16
147
1.0
148
0.0
149
0.0
100
AcDbLayout
  1
Layout2
 70
     1
 71
     2
 10
0.0
 20
0.0
 11
0.0
 21
0.0
 12
0.0
 22
0.0
 32
0.0
 14
0.0
 24
0.0
 34
0.0
 15
0.0
 25
0.0
 35
0.0
146
0.0
 13
0.0
 23
0.0
 33
0.0
 16
1.0
 26
0.0
 36
0.0
 17
0.0
 27
1.0
 37
0.0
 76
     0
330
23
  0
LAYOUT
  5
22
102
{ACAD_REACTORS
330
1A
102
}
330
1A
100
AcDbPlotSettings
  1

  2
none_device
  4

  6

 40
0.0
 41
0.0
 42
0.0
 43
0.0
 44
0.0
 45
0.0
 46
0.0
 47
0.0
 48
0.0
 49
0.0
140
0.0
141
0.0
142
1.0
143
1.0
 70
  1712
 72
     0
 73
     0
 74
     0
  7

 75
     0
147
1.0
148
0.0
149
0.0
100
AcDbLayout
  1
Model
 70
     1
 71
     0
 10
0.0
 20
0.0
 11
12.0
 21
9.0
 12
0.0
 22
0.0
 32
0.0
 14
24.5198751349547
 24
252.9302735741278
 34
0.0
 15
213.023649735437
 25
361.699660491434
 35
0.0
146
0.0
 13
0.0
 23
0.0
 33
0.0
 16
1.0
 26
0.0
 36
0.0
 17
0.0
 27
1.0
 37
0.0
 76
     0
330
1F
331
29
  0
MLINESTYLE
  5
18
102
{ACAD_REACTORS
330
17
102
}
330
17
100
AcDbMlineStyle
  2
Standard
 70
     0
  3

 62
   256
 51
90.0
 52
90.0
 71
     2
 49
0.5
 62
   256
  6
BYLAYER
 49
-0.5
 62
   256
  6
BYLAYER
  0
ACDBPLACEHOLDER
  5
F
102
{ACAD_REACTORS
330
E
102
}
330
E
  0
SCALE
  5
4B
102
{ACAD_REACTORS
330
4A
102
}
330
4A
100
AcDbScale
 70
     0
300
1:1
140
1.0
141
1.0
290
     1
  0
SCALE
  5
4C
102
{ACAD_REACTORS
330
4A
102
}
330
4A
100
AcDbScale
 70
     0
300
1:2
140
1.0
141
2.0
290
     0
  0
SCALE
  5
4D
102
{ACAD_REACTORS
330
4A
102
}
330
4A
100
AcDbScale
 70
     0
300
1:4
140
1.0
141
4.0
290
     0
  0
SCALE
  5
4E
102
{ACAD_REACTORS
330
4A
102
}
330
4A
100
AcDbScale
 70
     0
300
1:5
140
1.0
141
5.0
290
     0
  0
SCALE
  5
4F
102
{ACAD_REACTORS
330
4A
102
}
330
4A
100
AcDbScale
 70
     0
300
1:8
140
1.0
141
8.0
290
     0
  0
SCALE
  5
50
102
{ACAD_REACTORS
330
4A
102
}
330
4A
100
AcDbScale
 70
     0
300
1:10
140
1.0
141
10.0
290
     0
  0
SCALE
  5
51
102
{ACAD_REACTORS
330
4A
102
}
330
4A
100
AcDbScale
 70
     0
300
1:16
140
1.0
141
16.0
290
     0
  0
SCALE
  5
52
102
{ACAD_REACTORS
330
4A
102
}
330
4A
100
AcDbScale
 70
     0
300
1:20
140
1.0
141
20.0
290
     0
  0
SCALE
  5
53
102
{ACAD_REACTORS
330
4A
102
}
330
4A
100
AcDbScale
 70
     0
300
1:30
140
1.0
141
30.0
290
     0
  0
SCALE
  5
54
102
{ACAD_REACTORS
330
4A
102
}
330
4A
100
AcDbScale
 70
     0
300
1:40
140
1.0
141
40.0
290
     0
  0
SCALE
  5
55
102
{ACAD_REACTORS
330
4A
102
}
330
4A
100
AcDbScale
 70
     0
300
1:50
140
1.0
141
50.0
290
     0
  0
SCALE
  5
56
102
{ACAD_REACTORS
330
4A
102
}
330
4A
100
AcDbScale
 70
     0
300
1:100
140
1.0
141
100.0
290
     0
  0
SCALE
  5
57
102
{ACAD_REACTORS
330
4A
102
}
330
4A
100
AcDbScale
 70
     0
300
2:1
140
2.0
141
1.0
290
     0
  0
SCALE
  5
58
102
{ACAD_REACTORS
330
4A
102
}
330
4A
100
AcDbScale
 70
     0
300
4:1
140
4.0
141
1.0
290
     0
  0
SCALE
  5
59
102
{ACAD_REACTORS
330
4A
102
}
330
4A
100
AcDbScale
 70
     0
300
8:1
140
8.0
141
1.0
290
     0
  0
SCALE
  5
5A
102
{ACAD_REACTORS
330
4A
102
}
330
4A
100
AcDbScale
 70
     0
300
10:1
140
10.0
141
1.0
290
     0
  0
SCALE
  5
5B
102
{ACAD_REACTORS
330
4A
102
}
330
4A
100
AcDbScale
 70
     0
300
100:1
140
100.0
141
1.0
290
     0
  0
SCALE
  5
5C
102
{ACAD_REACTORS
330
4A
102
}
330
4A
100
AcDbScale
 70
     0
300
1/128" = 1'-0"
140
0.0078125
141
12.0
290
     0
  0
SCALE
  5
5D
102
{ACAD_REACTORS
330
4A
102
}
330
4A
100
AcDbScale
 70
     0
300
1/64" = 1'-0"
140
0.015625
141
12.0
290
     0
  0
SCALE
  5
5E
102
{ACAD_REACTORS
330
4A
102
}
330
4A
100
AcDbScale
 70
     0
300
1/32" = 1'-0"
140
0.03125
141
12.0
290
     0
  0
SCALE
  5
5F
102
{ACAD_REACTORS
330
4A
102
}
330
4A
100
AcDbScale
 70
     0
300
1/16" = 1'-0"
140
0.0625
141
12.0
290
     0
  0
SCALE
  5
60
102
{ACAD_REACTORS
330
4A
102
}
330
4A
100
AcDbScale
 70
     0
300
3/32" = 1'-0"
140
0.09375
141
12.0
290
     0
  0
SCALE
  5
61
102
{ACAD_REACTORS
330
4A
102
}
330
4A
100
AcDbScale
 70
     0
300
1/8" = 1'-0"
140
0.125
141
12.0
290
     0
  0
SCALE
  5
62
102
{ACAD_REACTORS
330
4A
102
}
330
4A
100
AcDbScale
 70
     0
300
3/16" = 1'-0"
140
0.1875
141
12.0
290
     0
  0
SCALE
  5
63
102
{ACAD_REACTORS
330
4A
102
}
330
4A
100
AcDbScale
 70
     0
300
1/4" = 1'-0"
140
0.25
141
12.0
290
     0
  0
SCALE
  5
64
102
{ACAD_REACTORS
330
4A
102
}
330
4A
100
AcDbScale
 70
     0
300
3/8" = 1'-0"
140
0.375
141
12.0
290
     0
  0
SCALE
  5
65
102
{ACAD_REACTORS
330
4A
102
}
330
4A
100
AcDbScale
 70
     0
300
1/2" = 1'-0"
140
0.5
141
12.0
290
     0
  0
SCALE
  5
66
102
{ACAD_REACTORS
330
4A
102
}
330
4A
100
AcDbScale
 70
     0
300
3/4" = 1'-0"
140
0.75
141
12.0
290
     0
  0
SCALE
  5
67
102
{ACAD_REACTORS
330
4A
102
}
330
4A
100
AcDbScale
 70
     0
300
1" = 1'-0"
140
1.0
141
12.0
290
     0
  0
SCALE
  5
68
102
{ACAD_REACTORS
330
4A
102
}
330
4A
100
AcDbScale
 70
     0
300
1-1/2" = 1'-0"
140
1.5
141
12.0
290
     0
  0
SCALE
  5
69
102
{ACAD_REACTORS
330
4A
102
}
330
4A
100
AcDbScale
 70
     0
300
3" = 1'-0"
140
3.0
141
12.0
290
     0
  0
SCALE
  5
6A
102
{ACAD_REACTORS
330
4A
102
}
330
4A
100
AcDbScale
 70
     0
300
6" = 1'-0"
140
6.0
141
12.0
290
     0
  0
SCALE
  5
6B
102
{ACAD_REACTORS
330
4A
102
}
330
4A
100
AcDbScale
 70
     0
300
1'-0" = 1'-0"
140
12.0
141
12.0
290
     0
  0
VISUALSTYLE
  5
2F
102
{ACAD_REACTORS
330
2A
102
}
330
2A
100
AcDbVisualStyle
  2
2dWireframe
 70
     4
 71
     0
 72
     2
 73
     0
 90
        0
 40
-0.6
 41
-30.0
 62
     5
 63
     7
 74
     1
 91
        4
 64
     7
 65
   257
 75
     1
175
     1
 42
1.0
 92
        0
 66
   257
 43
1.0
 76
     1
 77
     6
 78
     2
 67
     7
 79
     5
170
     0
171
     0
290
     0
174
     0
 93
        1
 44
0.0
173
     0
291
     0
 45
0.0
1001
ACAD
1000
AcDbSavedByObjectVersion
1070
     0
  0
VISUALSTYLE
  5
31
102
{ACAD_REACTORS
330
2A
102
}
330
2A
100
AcDbVisualStyle
  2
3D Hidden
 70
     6
 71
     1
 72
     2
 73
     2
 90
        0
 40
-0.6
 41
-30.0
 62
     5
 63
     7
 74
     2
 91
        2
 64
     7
 65
   257
 75
     2
175
     1
 42
40.0
 92
        0
 66
   257
 43
1.0
 76
     1
 77
     6
 78
     2
 67
     7
 79
     3
170
     0
171
     0
290
     0
174
     0
 93
        1
 44
0.0
173
     0
291
     0
 45
0.0
1001
ACAD
1000
AcDbSavedByObjectVersion
1070
     0
  0
VISUALSTYLE
  5
30
102
{ACAD_REACTORS
330
2A
102
}
330
2A
100
AcDbVisualStyle
  2
3dWireframe
 70
     5
 71
     0
 72
     2
 73
     0
 90
        0
 40
-0.6
 41
-30.0
 62
     5
 63
     7
 74
     1
 91
        4
 64
     7
 65
   257
 75
     1
175
     1
 42
1.0
 92
        0
 66
   257
 43
1.0
 76
     1
 77
     6
 78
     2
 67
     7
 79
     5
170
     0
171
     0
290
     0
174
     0
 93
        1
 44
0.0
173
     0
291
     0
 45
0.0
1001
ACAD
1000
AcDbSavedByObjectVersion
1070
     0
  0
VISUALSTYLE
  5
32
102
{ACAD_REACTORS
330
2A
102
}
330
2A
100
AcDbVisualStyle
  2
Basic
 70
     7
 71
     1
 72
     0
 73
     1
 90
        0
 40
-0.6
 41
-30.0
 62
     5
 63
     7
 74
     0
 91
        4
 64
     7
 65
   257
 75
     1
175
     1
 42
1.0
 92
        8
 66
     7
 43
1.0
 76
     1
 77
     6
 78
     2
 67
     7
 79
     5
170
     0
171
     0
290
     0
174
     0
 93
        1
 44
0.0
173
     0
291
     1
 45
0.0
1001
ACAD
1000
AcDbSavedByObjectVersion
1070
     0
  0
VISUALSTYLE
  5
36
102
{ACAD_REACTORS
330
2A
102
}
330
2A
100
AcDbVisualStyle
  2
Brighten
 70
    12
 71
     2
 72
     2
 73
     0
 90
        0
 40
-0.6
 41
-30.0
 62
     5
 63
     7
 74
     1
 91
        4
 64
     7
 65
   257
 75
     1
175
     1
 42
1.0
 92
        8
 66
     7
 43
1.0
 76
     1
 77
     6
 78
     2
 67
     7
 79
     5
170
     0
171
     0
290
     0
174
     0
 93
        1
 44
50.0
173
     0
291
     1
 45
0.0
1001
ACAD
1000
AcDbSavedByObjectVersion
1070
     0
  0
VISUALSTYLE
  5
3A
102
{ACAD_REACTORS
330
2A
102
}
330
2A
100
AcDbVisualStyle
  2
ColorChange
 70
    16
 71
     2
 72
     2
 73
     3
 90
        0
 40
-0.6
 41
-30.0
 62
     5
 63
     8
 74
     1
 91
        4
 64
     7
 65
   257
 75
     1
175
     1
 42
1.0
 92
        8
 66
     8
 43
1.0
 76
     1
 77
     6
 78
     2
 67
     7
 79
     5
170
     0
171
     0
290
     0
174
     0
 93
        1
 44
0.0
173
     0
291
     1
 45
0.0
1001
ACAD
1000
AcDbSavedByObjectVersion
1070
     0
  0
VISUALSTYLE
  5
34
102
{ACAD_REACTORS
330
2A
102
}
330
2A
100
AcDbVisualStyle
  2
Conceptual
 70
     9
 71
     3
 72
     2
 73
     0
 90
        0
 40
-0.6
 41
-30.0
 62
     5
 63
     7
 74
     2
 91
        2
 64
     7
 65
   257
 75
     1
175
     1
 42
40.0
 92
        8
 66
     7
 43
1.0
 76
     1
 77
     6
 78
     2
 67
     7
 79
     3
170
     0
171
     0
290
     0
174
     0
 93
        1
 44
0.0
173
     0
291
     0
 45
0.0
1001
ACAD
1000
AcDbSavedByObjectVersion
1070
     0
  0
VISUALSTYLE
  5
35
102
{ACAD_REACTORS
330
2A
102
}
330
2A
100
AcDbVisualStyle
  2
Dim
 70
    11
 71
     2
 72
     2
 73
     0
 90
        0
 40
-0.6
 41
-30.0
 62
     5
 63
     7
 74
     1
 91
        4
 64
     7
 65
   257
 75
     1
175
     1
 42
1.0
 92
        8
 66
     7
 43
1.0
 76
     1
 77
     6
 78
     2
 67
     7
 79
     5
170
     0
171
     0
290
     0
174
     0
 93
        1
 44
-50.0
173
     0
291
     1
 45
0.0
1001
ACAD
1000
AcDbSavedByObjectVersion
1070
     0
  0
VISUALSTYLE
  5
39
102
{ACAD_REACTORS
330
2A
102
}
330
2A
100
AcDbVisualStyle
  2
Facepattern
 70
    15
 71
     2
 72
     2
 73
     0
 90
        0
 40
-0.6
 41
-30.0
 62
     5
 63
     7
 74
     1
 91
        4
 64
     7
 65
   257
 75
     1
175
     1
 42
1.0
 92
        8
 66
     7
 43
1.0
 76
     1
 77
     6
 78
     2
 67
     7
 79
     5
170
     0
171
     0
290
     0
174
     0
 93
        1
 44
0.0
173
     0
291
     1
 45
0.0
1001
ACAD
1000
AcDbSavedByObjectVersion
1070
     0
  0
VISUALSTYLE
  5
2B
102
{ACAD_REACTORS
330
2A
102
}
330
2A
100
AcDbVisualStyle
  2
Flat
 70
     0
 71
     2
 72
     1
 73
     1
 90
        2
 40
-0.6
 41
30.0
 62
     5
 63
     7
 74
     0
 91
        4
 64
     7
 65
   257
 75
     1
175
     1
 42
1.0
 92
        8
 66
     7
 43
1.0
 76
     1
 77
     6
 78
     2
 67
     7
 79
     5
170
     0
171
     0
290
     0
174
     0
 93
       13
 44
0.0
173
     0
291
     1
 45
0.0
1001
ACAD
1000
AcDbSavedByObjectVersion
1070
     0
  0
VISUALSTYLE
  5
2C
102
{ACAD_REACTORS
330
2A
102
}
330
2A
100
AcDbVisualStyle
  2
FlatWithEdges
 70
     1
 71
     2
 72
     1
 73
     1
 90
        2
 40
-0.6
 41
30.0
 62
     5
 63
     7
 74
     1
 91
        4
 64
     7
 65
   257
 75
     1
175
     1
 42
1.0
 92
        0
 66
   257
 43
1.0
 76
     1
 77
     6
 78
     2
 67
     7
 79
     5
170
     0
171
     0
290
     0
174
     0
 93
       13
 44
0.0
173
     0
291
     1
 45
0.0
1001
ACAD
1000
AcDbSavedByObjectVersion
1070
     0
  0
VISUALSTYLE
  5
2D
102
{ACAD_REACTORS
330
2A
102
}
330
2A
100
AcDbVisualStyle
  2
Gouraud
 70
     2
 71
     2
 72
     2
 73
     1
 90
        2
 40
-0.6
 41
30.0
 62
     5
 63
     7
 74
     0
 91
        4
 64
     7
 65
   257
 75
     1
175
     1
 42
1.0
 92
        0
 66
     7
 43
1.0
 76
     1
 77
     6
 78
     2
 67
     7
 79
     5
170
     0
171
     0
290
     0
174
     0
 93
       13
 44
0.0
173
     0
291
     1
 45
0.0
1001
ACAD
1000
AcDbSavedByObjectVersion
1070
     0
  0
VISUALSTYLE
  5
2E
102
{ACAD_REACTORS
330
2A
102
}
330
2A
100
AcDbVisualStyle
  2
GouraudWithEdges
 70
     3
 71
     2
 72
     2
 73
     1
 90
        2
 40
-0.6
 41
30.0
 62
     5
 63
     7
 74
     1
 91
        4
 64
     7
 65
   257
 75
     1
175
     1
 42
1.0
 92
        0
 66
   257
 43
1.0
 76
     1
 77
     6
 78
     2
 67
     7
 79
     5
170
     0
171
     0
290
     0
174
     0
 93
       13
 44
0.0
173
     0
291
     1
 45
0.0
1001
ACAD
1000
AcDbSavedByObjectVersion
1070
     0
  0
VISUALSTYLE
  5
38
102
{ACAD_REACTORS
330
2A
102
}
330
2A
100
AcDbVisualStyle
  2
Linepattern
 70
    14
 71
     2
 72
     2
 73
     0
 90
        0
 40
-0.6
 41
-30.0
 62
     5
 63
     7
 74
     1
 91
        4
 64
     7
 65
   257
 75
     7
175
     7
 42
1.0
 92
        8
 66
     7
 43
1.0
 76
     1
 77
     6
 78
     2
 67
     7
 79
     5
170
     0
171
     0
290
     0
174
     0
 93
        1
 44
0.0
173
     0
291
     1
 45
0.0
1001
ACAD
1000
AcDbSavedByObjectVersion
1070
     0
  0
VISUALSTYLE
  5
33
102
{ACAD_REACTORS
330
2A
102
}
330
2A
100
AcDbVisualStyle
  2
Realistic
 70
     8
 71
     2
 72
     2
 73
     0
 90
        0
 40
-0.6
 41
-30.0
 62
     5
 63
     7
 74
     1
 91
        0
 64
     7
 65
   257
 75
     1
175
     1
 42
1.0
 92
        8
 66
     8
 43
1.0
 76
     1
 77
     6
 78
     2
 67
     7
 79
     5
170
     0
171
     0
290
     0
174
     0
 93
       13
 44
0.0
173
     0
291
     0
 45
0.0
1001
ACAD
1000
AcDbSavedByObjectVersion
1070
     0
  0
VISUALSTYLE
  5
37
102
{ACAD_REACTORS
330
2A
102
}
330
2A
100
AcDbVisualStyle
  2
Thicken
 70
    13
 71
     2
 72
     2
 73
     0
 90
        0
 40
-0.6
 41
-30.0
 62
     5
 63
     7
 74
     1
 91
        4
 64
     7
 65
   257
 75
     1
175
     1
 42
1.0
 92
       12
 66
     7
 43
1.0
 76
     1
 77
     6
 78
     2
 67
     7
 79
     5
170
     0
171
     0
290
     0
174
     0
 93
        1
 44
0.0
173
     0
291
     1
 45
0.0
1001
ACAD
1000
AcDbSavedByObjectVersion
1070
     0
  0
DICTIONARYVAR
  5
131
102
{ACAD_REACTORS
330
12E
102
}
330
12E
100
DictionaryVariables
280
     0
  1
1:1
  0
ENDSEC
  0
EOF
