  0
SECTION
  2
HEADER
  9
$ACADVER
  1
AC1015
  9
$ACADMAINTVER
 70
     6
  9
$DWGCODEPAGE
  3
ANSI_1252
  9
$INSBASE
 10
0.0
 20
0.0
 30
0.0
  9
$EXTMIN
 10
15.6654246133253
 20
250.8585550004768
 30
0.0
  9
$EXTMAX
 10
204.531931003607
 20
359.627941917783
 30
0.0
  9
$LIMMIN
 10
0.0
 20
0.0
  9
$LIMMAX
 10
12.0
 20
9.0
  9
$ORTHOMODE
 70
     0
  9
$REGENMODE
 70
     1
  9
$FILLMODE
 70
     1
  9
$QTEXTMODE
 70
     0
  9
$MIRRTEXT
 70
     1
  9
$LTSCALE
 40
1.0
  9
$ATTMODE
 70
     1
  9
$TEXTSIZE
 40
0.2
  9
$TRACEWID
 40
0.05
  9
$TEXTSTYLE
  7
Standard
  9
$CLAYER
  8
0
  9
$CELTYPE
  6
ByLayer
  9
$CECOLOR
 62
   256
  9
$CELTSCALE
 40
1.0
  9
$DISPSILH
 70
     0
  9
$DIMSCALE
 40
1.0
  9
$DIMASZ
 40
0.18
  9
$DIMEXO
 40
0.0625
  9
$DIMDLI
 40
0.38
  9
$DIMRND
 40
0.0
  9
$DIMDLE
 40
0.0
  9
$DIMEXE
 40
0.18
  9
$DIMTP
 40
0.0
  9
$DIMTM
 40
0.0
  9
$DIMTXT
 40
0.18
  9
$DIMCEN
 40
0.09
  9
$DIMTSZ
 40
0.0
  9
$DIMTOL
 70
     0
  9
$DIMLIM
 70
     0
  9
$DIMTIH
 70
     1
  9
$DIMTOH
 70
     1
  9
$DIMSE1
 70
     0
  9
$DIMSE2
 70
     0
  9
$DIMTAD
 70
     0
  9
$DIMZIN
 70
     0
  9
$DIMBLK
  1

  9
$DIMASO
 70
     1
  9
$DIMSHO
 70
     1
  9
$DIMPOST
  1

  9
$DIMAPOST
  1

  9
$DIMALT
 70
     0
  9
$DIMALTD
 70
     2
  9
$DIMALTF
 40
25.4
  9
$DIMLFAC
 40
1.0
  9
$DIMTOFL
 70
     0
  9
$DIMTVP
 40
0.0
  9
$DIMTIX
 70
     0
  9
$DIMSOXD
 70
     0
  9
$DIMSAH
 70
     0
  9
$DIMBLK1
  1

  9
$DIMBLK2
  1

  9
$DIMSTYLE
  2
Standard
  9
$DIMCLRD
 70
     0
  9
$DIMCLRE
 70
     0
  9
$DIMCLRT
 70
     0
  9
$DIMTFAC
 40
1.0
  9
$DIMGAP
 40
0.09
  9
$DIMJUST
 70
     0
  9
$DIMSD1
 70
     0
  9
$DIMSD2
 70
     0
  9
$DIMTOLJ
 70
     1
  9
$DIMTZIN
 70
     0
  9
$DIMALTZ
 70
     0
  9
$DIMALTTZ
 70
     0
  9
$DIMUPT
 70
     0
  9
$DIMDEC
 70
     4
  9
$DIMTDEC
 70
     4
  9
$DIMALTU
 70
     2
  9
$DIMALTTD
 70
     2
  9
$DIMTXSTY
  7
Standard
  9
$DIMAUNIT
 70
     0
  9
$DIMADEC
 70
     0
  9
$DIMALTRND
 40
0.0
  9
$DIMAZIN
 70
     0
  9
$DIMDSEP
 70
    46
  9
$DIMATFIT
 70
     3
  9
$DIMFRAC
 70
     0
  9
$DIMLDRBLK
  1

  9
$DIMLUNIT
 70
     2
  9
$DIMLWD
 70
    -2
  9
$DIMLWE
 70
    -2
  9
$DIMTMOVE
 70
     0
  9
$LUNITS
 70
     2
  9
$LUPREC
 70
     4
  9
$SKETCHINC
 40
0.1
  9
$FILLETRAD
 40
0.5
  9
$AUNITS
 70
     0
  9
$AUPREC
 70
     0
  9
$MENU
  1
.
  9
$ELEVATION
 40
0.0
  9
$PELEVATION
 40
0.0
  9
$THICKNESS
 40
0.0
  9
$LIMCHECK
 70
     0
  9
$CHAMFERA
 40
0.5
  9
$CHAMFERB
 40
0.5
  9
$CHAMFERC
 40
1.0
  9
$CHAMFERD
 40
0.0
  9
$SKPOLY
 70
     0
  9
$TDCREATE
 40
2456749.75013728
  9
$TDUCREATE
 40
2456749.666803947
  9
$TDUPDATE
 40
2456749.750137292
  9
$TDUUPDATE
 40
2456749.666803958
  9
$TDINDWG
 40
0.0000000116
  9
$TDUSRTIMER
 40
0.0000000116
  9
$USRTIMER
 70
     1
  9
$ANGBASE
 50
0.0
  9
$ANGDIR
 70
     0
  9
$PDMODE
 70
     0
  9
$PDSIZE
 40
0.0
  9
$PLINEWID
 40
0.0
  9
$SPLFRAME
 70
     0
  9
$SPLINETYPE
 70
     6
  9
$SPLINESEGS
 70
     8
  9
$HANDSEED
  5
132
  9
$SURFTAB1
 70
     6
  9
$SURFTAB2
 70
     6
  9
$SURFTYPE
 70
     6
  9
$SURFU
 70
     6
  9
$SURFV
 70
     6
  9
$UCSBASE
  2

  9
$UCSNAME
  2

  9
$UCSORG
 10
0.0
 20
0.0
 30
0.0
  9
$UCSXDIR
 10
1.0
 20
0.0
 30
0.0
  9
$UCSYDIR
 10
0.0
 20
1.0
 30
0.0
  9
$UCSORTHOREF
  2

  9
$UCSORTHOVIEW
 70
     0
  9
$UCSORGTOP
 10
0.0
 20
0.0
 30
0.0
  9
$UCSORGBOTTOM
 10
0.0
 20
0.0
 30
0.0
  9
$UCSORGLEFT
 10
0.0
 20
0.0
 30
0.0
  9
$UCSORGRIGHT
 10
0.0
 20
0.0
 30
0.0
  9
$UCSORGFRONT
 10
0.0
 20
0.0
 30
0.0
  9
$UCSORGBACK
 10
0.0
 20
0.0
 30
0.0
  9
$PUCSBASE
  2

  9
$PUCSNAME
  2

  9
$PUCSORG
 10
0.0
 20
0.0
 30
0.0
  9
$PUCSXDIR
 10
1.0
 20
0.0
 30
0.0
  9
$PUCSYDIR
 10
0.0
 20
1.0
 30
0.0
  9
$PUCSORTHOREF
  2

  9
$PUCSORTHOVIEW
 70
     0
  9
$PUCSORGTOP
 10
0.0
 20
0.0
 30
0.0
  9
$PUCSORGBOTTOM
 10
0.0
 20
0.0
 30
0.0
  9
$PUCSORGLEFT
 10
0.0
 20
0.0
 30
0.0
  9
$PUCSORGRIGHT
 10
0.0
 20
0.0
 30
0.0
  9
$PUCSORGFRONT
 10
0.0
 20
0.0
 30
0.0
  9
$PUCSORGBACK
 10
0.0
 20
0.0
 30
0.0
  9
$USERI1
 70
     0
  9
$USERI2
 70
     0
  9
$USERI3
 70
     0
  9
$USERI4
 70
     0
  9
$USERI5
 70
     0
  9
$USERR1
 40
16.5
  9
$USERR2
 40
0.0
  9
$USERR3
 40
0.0
  9
$USERR4
 40
0.0
  9
$USERR5
 40
0.0
  9
$WORLDVIEW
 70
     1
  9
$SHADEDGE
 70
     3
  9
$SHADEDIF
 70
    70
  9
$TILEMODE
 70
     1
  9
$MAXACTVP
 70
    64
  9
$PINSBASE
 10
0.0
 20
0.0
 30
0.0
  9
$PLIMCHECK
 70
     0
  9
$PEXTMIN
 10
1.00000000000000E+20
 20
1.00000000000000E+20
 30
1.00000000000000E+20
  9
$PEXTMAX
 10
-1.00000000000000E+20
 20
-1.00000000000000E+20
 30
-1.00000000000000E+20
  9
$PLIMMIN
 10
0.0
 20
0.0
  9
$PLIMMAX
 10
12.0
 20
9.0
  9
$UNITMODE
 70
     0
  9
$VISRETAIN
 70
     1
  9
$PLINEGEN
 70
     0
  9
$PSLTSCALE
 70
     1
  9
$TREEDEPTH
 70
  3020
  9
$CMLSTYLE
  2
Standard
  9
$CMLJUST
 70
     0
  9
$CMLSCALE
 40
1.0
  9
$PROXYGRAPHICS
 70
     1
  9
$MEASUREMENT
 70
     1
  9
$CELWEIGHT
370
    -1
  9
$ENDCAPS
280
     0
  9
$JOINSTYLE
280
     0
  9
$LWDISPLAY
290
     0
  9
$INSUNITS
 70
     1
  9
$HYPERLINKBASE
  1

  9
$STYLESHEET
  1

  9
$XEDIT
290
     1
  9
$CEPSNTYPE
380
     0
  9
$PSTYLEMODE
290
     1
  9
$FINGERPRINTGUID
  2
{FA94E6EE-36AC-4A1B-83C2-77999122E0AD}
  9
$VERSIONGUID
  2
{FAEB1C32-E019-11D5-929B-00C0DF256EC4}
  9
$EXTNAMES
290
     1
  9
$PSVPSCALE
 40
0.0
  9
$OLESTARTUP
290
     0
  0
ENDSEC
  0
SECTION
  2
CLASSES
  0
CLASS
  1
ACDBDICTIONARYWDFLT
  2
AcDbDictionaryWithDefault
  3
ObjectDBX Classes
 90
        0
280
     0
281
     0
  0
CLASS
  1
VISUALSTYLE
  2
AcDbVisualStyle
  3
ObjectDBX Classes
 90
     4095
280
     0
281
     0
  0
CLASS
  1
SCALE
  2
AcDbScale
  3
ObjectDBX Classes
 90
     1153
280
     0
281
     0
  0
CLASS
  1

  2
exOdDbPolyline
  3

 90
        0
280
     0
281
     1
  0
CLASS
  1

  2
exOdDbCircle
  3

 90
        0
280
     0
281
     1
  0
CLASS
  1

  2
exOdDbSpline
  3

 90
        0
280
     0
281
     1
  0
CLASS
  1
DICTIONARYVAR
  2
AcDbDictionaryVar
  3
ObjectDBX Classes
 90
        0
280
     0
281
     0
  0
CLASS
  1
ACDBPLACEHOLDER
  2
AcDbPlaceHolder
  3
ObjectDBX Classes
 90
        0
280
     0
281
     0
  0
CLASS
  1
LAYOUT
  2
AcDbLayout
  3
ObjectDBX Classes
 90
        0
280
     0
281
     0
  0
ENDSEC
  0
SECTION
  2
TABLES
  0
TABLE
  2
VPORT
  5
8
330
0
100
AcDbSymbolTable
 70
     1
  0
VPORT
  5
29
330
8
100
AcDbSymbolTableRecord
100
AcDbViewportTableRecord
  2
*Active
 70
     0
 10
0.0
 20
0.0
 11
1.0
 21
1.0
 12
110.0986778084662
 22
305.2432484591299
 13
0.0
 23
0.0
 14
0.5
 24
0.5
 15
0.5
 25
0.5
 16
0.0
 26
0.0
 36
1.0
 17
0.0
 27
0.0
 37
0.0
 40
129.6287107926614
 41
1.60267857142857
 42
50.0
 43
0.0
 44
0.0
 50
0.0
 51
0.0
 71
     0
 72
   100
 73
     1
 74
     3
 75
     0
 76
     0
 77
     0
 78
     0
281
     0
 65
     1
110
0.0
120
0.0
130
0.0
111
1.0
121
0.0
131
0.0
112
0.0
122
1.0
132
0.0
 79
     0
146
0.0
  0
ENDTAB
  0
TABLE
  2
LTYPE
  5
5
330
0
100
AcDbSymbolTable
 70
     8
  0
LTYPE
  5
14
330
5
100
AcDbSymbolTableRecord
100
AcDbLinetypeTableRecord
  2
ByBlock
 70
     0
  3

 72
    65
 73
     0
 40
0.0
  0
LTYPE
  5
15
330
5
100
AcDbSymbolTableRecord
100
AcDbLinetypeTableRecord
  2
ByLayer
 70
     0
  3

 72
    65
 73
     0
 40
0.0
  0
LTYPE
  5
16
330
5
100
AcDbSymbolTableRecord
100
AcDbLinetypeTableRecord
  2
Continuous
 70
     0
  3
Solid line
 72
    65
 73
     0
 40
0.0
  0
LTYPE
  5
3B
330
5
100
AcDbSymbolTableRecord
100
AcDbLinetypeTableRecord
  2
DASHED
 70
     0
  3
Dashed
 72
    65
 73
     2
 40
15.0
 49
7.0
 74
     0
 49
-8.0
 74
     0
  0
LTYPE
  5
3C
330
5
100
AcDbSymbolTableRecord
100
AcDbLinetypeTableRecord
  2
DOTTED
 70
     0
  3
Dotted
 72
    65
 73
     2
 40
1.0
 49
0.0
 74
     0
 49
-1.0
 74
     0
  0
LTYPE
  5
3D
330
5
100
AcDbSymbolTableRecord
100
AcDbLinetypeTableRecord
  2
DOT_CENTER
 70
     0
  3
Dot_Center
 72
    65
 73
     4
 40
14.0
 49
12.0
 74
     0
 49
-1.0
 74
     0
 49
0.0
 74
     0
 49
-1.0
 74
     0
  0
LTYPE
  5
3E
330
5
100
AcDbSymbolTableRecord
100
AcDbLinetypeTableRecord
  2
LONG_DASHED
 70
     0
  3
Long_Dashed
 72
    65
 73
     2
 40
15.0
 49
10.0
 74
     0
 49
-5.0
 74
     0
  0
LTYPE
  5
3F
330
5
100
AcDbSymbolTableRecord
100
AcDbLinetypeTableRecord
  2
DASH_CENTER
 70
     0
  3
Dash_Center
 72
    65
 73
     4
 40
14.0
 49
11.0
 74
     0
 49
-1.0
 74
     0
 49
1.0
 74
     0
 49
-1.0
 74
     0
  0
LTYPE
  5
40
330
5
100
AcDbSymbolTableRecord
100
AcDbLinetypeTableRecord
  2
PHANTOM
 70
     0
  3
Phantom
 72
    65
 73
     6
 40
13.0
 49
10.0
 74
     0
 49
-1.0
 74
     0
 49
0.0
 74
     0
 49
-1.0
 74
     0
 49
0.0
 74
     0
 49
-1.0
 74
     0
  0
LTYPE
  5
41
330
5
100
AcDbSymbolTableRecord
100
AcDbLinetypeTableRecord
  2
CENTER_DASH_DASH
 70
     0
  3
Center_Dash_Dash
 72
    65
 73
     6
 40
14.0
 49
9.0
 74
     0
 49
-1.0
 74
     0
 49
1.0
 74
     0
 49
-1.0
 74
     0
 49
1.0
 74
     0
 49
-1.0
 74
     0
  0
ENDTAB
  0
TABLE
  2
LAYER
  5
2
330
0
100
AcDbSymbolTable
 70
     6
  0
LAYER
  5
10
330
2
100
AcDbSymbolTableRecord
100
AcDbLayerTableRecord
  2
0
 70
     0
 62
     7
  6
Continuous
370
    -3
390
F
  0
LAYER
  5
42
330
2
100
AcDbSymbolTableRecord
100
AcDbLayerTableRecord
  2
1
 70
     0
 62
     7
  6
Continuous
370
    -3
390
F
  0
LAYER
  5
43
330
2
100
AcDbSymbolTableRecord
100
AcDbLayerTableRecord
  2
BEZUGSACHSEN
 70
     0
 62
     7
  6
Continuous
370
    -3
390
F
  0
LAYER
  5
44
330
2
100
AcDbSymbolTableRecord
100
AcDbLayerTableRecord
  2
FASEN
 70
     0
 62
     7
  6
Continuous
370
    -3
390
F
  0
LAYER
  5
45
330
2
100
AcDbSymbolTableRecord
100
AcDbLayerTableRecord
  2
RUNDUNGEN
 70
     0
 62
     7
  6
Continuous
370
    -3
390
F
  0
LAYER
  5
46
330
2
100
AcDbSymbolTableRecord
100
AcDbLayerTableRecord
  2
VERERBUNG
 70
     0
 62
     7
  6
Continuous
370
    -3
390
F
  0
ENDTAB
  0
TABLE
  2
STYLE
  5
3
330
0
100
AcDbSymbolTable
 70
     2
  0
STYLE
  5
11
330
3
100
AcDbSymbolTableRecord
100
AcDbTextStyleTableRecord
  2
Standard
 70
     0
 40
0.0
 41
1.0
 50
0.0
 71
     0
 42
0.2
  3
txt
  4

  0
STYLE
  5
6D
330
3
100
AcDbSymbolTableRecord
100
AcDbTextStyleTableRecord
  2
CONVERTER_11
 70
     0
 40
0.0
 41
0.72
 50
0.0
 71
     0
 42
0.2
  3
txt.shx
  4

  0
ENDTAB
  0
TABLE
  2
VIEW
  5
6
330
0
100
AcDbSymbolTable
 70
     0
  0
ENDTAB
  0
TABLE
  2
UCS
  5
7
330
0
100
AcDbSymbolTable
 70
     0
  0
ENDTAB
  0
TABLE
  2
APPID
  5
9
330
0
100
AcDbSymbolTable
 70
     1
  0
APPID
  5
12
330
9
100
AcDbSymbolTableRecord
100
AcDbRegAppTableRecord
  2
ACAD
 70
     0
  0
ENDTAB
  0
TABLE
  2
DIMSTYLE
  5
A
330
0
100
AcDbSymbolTable
 70
     5
100
AcDbDimStyleTable
  0
DIMSTYLE
105
27
330
A
100
AcDbSymbolTableRecord
100
AcDbDimStyleTableRecord
  2
Standard
 70
     0
340
11
  0
DIMSTYLE
105
104
102
{ACAD_REACTORS
330
105
102
}
330
A
100
AcDbSymbolTableRecord
100
AcDbDimStyleTableRecord
  2
ME10_DIM_10
 70
     0
  3
\U+2300<>
 41
3.5
 42
2.0
 44
2.0
 71
     1
 73
     0
 74
     0
 77
     1
 78
     8
140
3.5
146
0.7
147
2.0
172
     1
173
     1
176
     2
177
     2
178
     3
271
     2
272
     0
340
6D
  0
DIMSTYLE
105
10F
102
{ACAD_REACTORS
330
110
102
}
330
A
100
AcDbSymbolTableRecord
100
AcDbDimStyleTableRecord
  2
ME10_DIM_11
 70
     0
  3
<>
 41
3.5
 42
2.0
 44
2.0
 71
     1
 73
     0
 74
     0
 77
     1
 78
     8
140
3.5
146
0.7
147
2.0
172
     1
173
     1
176
     2
177
     2
178
     3
271
     2
272
     0
340
6D
  0
DIMSTYLE
105
11A
102
{ACAD_REACTORS
330
11B
102
}
330
A
100
AcDbSymbolTableRecord
100
AcDbDimStyleTableRecord
  2
ME10_DIM_12
 70
     0
  3
<>
 41
3.5
 42
2.0
 44
2.0
 71
     1
 73
     0
 74
     0
 77
     1
 78
     8
140
3.5
146
0.7
147
2.0
172
     1
173
     1
176
     2
177
     2
178
     3
271
     2
272
     0
340
6D
  0
DIMSTYLE
105
125
102
{ACAD_REACTORS
330
126
102
}
330
A
100
AcDbSymbolTableRecord
100
AcDbDimStyleTableRecord
  2
ME10_DIM_13
 70
     0
  3
<>
 41
3.5
 42
2.0
 44
2.0
 71
     1
 73
     0
 74
     0
 77
     1
 78
     8
140
3.5
146
0.7
147
2.0
172
     1
173
     1
176
     2
177
     2
178
     3
271
     2
272
     0
340
6D
  0
ENDTAB
  0
TABLE
  2
BLOCK_RECORD
  5
1
330
0
100
AcDbSymbolTable
 70
     7
  0
BLOCK_RECORD
  5
1F
330
1
100
AcDbSymbolTableRecord
100
AcDbBlockTableRecord
  2
*Model_Space
340
22
  0
BLOCK_RECORD
  5
1B
330
1
100
AcDbSymbolTableRecord
100
AcDbBlockTableRecord
  2
*Paper_Space
340
1E
  0
BLOCK_RECORD
  5
23
330
1
100
AcDbSymbolTableRecord
100
AcDbBlockTableRecord
  2
*Paper_Space0
340
26
  0
BLOCK_RECORD
  5
47
330
1
100
AcDbSymbolTableRecord
100
AcDbBlockTableRecord
  2
Urheberrecht_DE-EN
340
0
102
{BLKREFS
331
6C
102
}
  0
BLOCK_RECORD
  5
FB
330
1
100
AcDbSymbolTableRecord
100
AcDbBlockTableRecord
  2
*D2
340
0
  0
BLOCK_RECORD
  5
106
330
1
100
AcDbSymbolTableRecord
100
AcDbBlockTableRecord
  2
*D3
340
0
  0
BLOCK_RECORD
  5
111
330
1
100
AcDbSymbolTableRecord
100
AcDbBlockTableRecord
  2
*D4
340
0
  0
BLOCK_RECORD
  5
11C
330
1
100
AcDbSymbolTableRecord
100
AcDbBlockTableRecord
  2
*D5
340
0
  0
BLOCK_RECORD
  5
127
330
1
100
AcDbSymbolTableRecord
100
AcDbBlockTableRecord
  2
*D6
340
0
102
{BLKREFS
331
12D
102
}
  0
ENDTAB
  0
ENDSEC
  0
SECTION
  2
BLOCKS
  0
BLOCK
  5
20
330
1F
100
AcDbEntity
  8
0
100
AcDbBlockBegin
  2
*Model_Space
 70
     0
 10
0.0
 20
0.0
 30
0.0
  3
*Model_Space
  1

  0
ENDBLK
  5
21
330
1F
100
AcDbEntity
  8
0
100
AcDbBlockEnd
  0
BLOCK
  5
1C
330
1B
100
AcDbEntity
 67
     1
  8
0
100
AcDbBlockBegin
  2
*Paper_Space
 70
     0
 10
0.0
 20
0.0
 30
0.0
  3
*Paper_Space
  1

  0
ENDBLK
  5
1D
330
1B
100
AcDbEntity
 67
     1
  8
0
100
AcDbBlockEnd
  0
BLOCK
  5
24
330
23
100
AcDbEntity
  8
0
100
AcDbBlockBegin
  2
*Paper_Space0
 70
     0
 10
0.0
 20
0.0
 30
0.0
  3
*Paper_Space0
  1

  0
ENDBLK
  5
25
330
23
100
AcDbEntity
  8
0
100
AcDbBlockEnd
  0
BLOCK
  5
48
330
47
100
AcDbEntity
  8
0
100
AcDbBlockBegin
  2
Urheberrecht_DE-EN
 70
     0
 10
29.6654246133253
 20
307.147941917783
 30
0.0
  3
Urheberrecht_DE-EN
  1

  0
MTEXT
  5
6E
330
47
100
AcDbEntity
  8
1
 62
     1
100
AcDbMText
 10
29.6654246133253
 20
307.147941917783
 30
0.0
 40
2.0
 41
0.0
 71
     7
 72
     1
  1
We own the copyright of this document. It \Pdetermined and may neither be copied or \Pmade accessible to outsiders without our\Ppermission.
  7
CONVERTER_11
 11
0.0
 21
1.0
 31
0.0
 73
     1
 44
0.90036014405762
  0
MTEXT
  5
6F
330
47
100
AcDbEntity
  8
1
 62
     1
100
AcDbMText
 10
29.6654246133253
 20
250.8585550004768
 30
0.0
 40
2.0
 41
0.0
 71
     7
 72
     1
  1
F\U+00fcr diese Unterlage behalten wir das Ur-\Pheberrecht. Sie darf nur f\U+00fcr den von uns \Pbestimmten Zweck benutzt und ohne unsere \PZustimmung weder vervielf\U+00e4ltigt noch\PDritten zug\U+00e4nglich gemacht werden.
  7
CONVERTER_11
 11
0.0
 21
1.0
 31
0.0
 73
     1
 44
0.90036014405762
  0
ENDBLK
  5
49
330
47
100
AcDbEntity
  8
0
100
AcDbBlockEnd
  0
BLOCK
  5
102
330
FB
100
AcDbEntity
  8
0
100
AcDbBlockBegin
  2
*D2
 70
     1
 10
0.0
 20
0.0
 30
0.0
  3
*D2
  1

  0
LINE
  5
FC
330
FB
100
AcDbEntity
  8
1
  6
Continuous
 62
     2
100
AcDbLine
 10
202.531931003607
 20
304.4738868026
 30
0.0
 11
202.531931003607
 21
274.4738868026
 31
0.0
  0
LINE
  5
FD
330
FB
100
AcDbEntity
  8
1
  6
Continuous
 62
     2
100
AcDbLine
 10
186.1317225964
 20
304.4738868026
 30
0.0
 11
204.531931003607
 21
304.4738868026
 31
0.0
  0
LINE
  5
FE
330
FB
100
AcDbEntity
  8
1
  6
Continuous
 62
     2
100
AcDbLine
 10
186.1317225964
 20
274.4738868026
 30
0.0
 11
204.531931003607
 21
274.4738868026
 31
0.0
  0
SOLID
  5
FF
330
FB
100
AcDbEntity
  8
1
 62
     2
100
AcDbTrace
 10
202.9927147451629
 20
300.9738868026
 30
0.0
 11
202.0711472620511
 21
300.9738868026
 31
0.0
 12
202.531931003607
 22
304.4738868026
 32
0.0
 13
202.531931003607
 23
304.4738868026
 33
0.0
  0
SOLID
  5
100
330
FB
100
AcDbEntity
  8
1
 62
     2
100
AcDbTrace
 10
202.0711472620511
 20
277.9738868026
 30
0.0
 11
202.9927147451629
 21
277.9738868026
 31
0.0
 12
202.531931003607
 22
274.4738868026
 32
0.0
 13
202.531931003607
 23
274.4738868026
 33
0.0
  0
MTEXT
  5
101
330
FB
100
AcDbEntity
  8
1
 62
     3
100
AcDbMText
 10
200.531931003607
 20
280.467686436886
 30
0.0
 40
3.5
 41
0.0
 71
     7
 72
     1
  1
\C3;%%c\C3;\C3;30\C2;\H2.45;\S^ ;\C3;
  7
CONVERTER_11
 11
0.0
 21
1.0
 31
0.0
 73
     1
 44
0.60024009603842
  0
ENDBLK
  5
103
330
FB
100
AcDbEntity
  8
0
100
AcDbBlockEnd
  0
BLOCK
  5
10D
330
106
100
AcDbEntity
  8
0
100
AcDbBlockBegin
  2
*D3
 70
     1
 10
0.0
 20
0.0
 30
0.0
  3
*D3
  1

  0
LINE
  5
107
330
106
100
AcDbEntity
  8
1
  6
Continuous
 62
     2
100
AcDbLine
 10
189.5459361588
 20
329.205092584793
 30
0.0
 11
95.5459361588
 21
329.205092584793
 31
0.0
  0
LINE
  5
108
330
106
100
AcDbEntity
  8
1
  6
Continuous
 62
     2
100
AcDbLine
 10
189.5459361588
 20
301.0596732402
 30
0.0
 11
189.5459361588
 21
331.205092584793
 31
0.0
  0
LINE
  5
109
330
106
100
AcDbEntity
  8
1
  6
Continuous
 62
     2
100
AcDbLine
 10
95.5459361588
 20
322.973837897
 30
0.0
 11
95.5459361588
 21
331.205092584793
 31
0.0
  0
SOLID
  5
10A
330
106
100
AcDbEntity
  8
1
 62
     2
100
AcDbTrace
 10
186.0459361588
 20
328.7443088432371
 30
0.0
 11
186.0459361588
 21
329.6658763263489
 31
0.0
 12
189.5459361588
 22
329.205092584793
 32
0.0
 13
189.5459361588
 23
329.205092584793
 33
0.0
  0
SOLID
  5
10B
330
106
100
AcDbEntity
  8
1
 62
     2
100
AcDbTrace
 10
99.0459361588
 20
329.6658763263489
 30
0.0
 11
99.0459361588
 21
328.7443088432371
 31
0.0
 12
95.5459361588
 22
329.205092584793
 32
0.0
 13
95.5459361588
 23
329.205092584793
 33
0.0
  0
MTEXT
  5
10C
330
106
100
AcDbEntity
  8
1
 62
     3
100
AcDbMText
 10
141.185398398036
 20
331.205092584793
 30
0.0
 40
3.5
 41
0.0
 71
     7
 72
     1
  1
\C3;\C3;\C3;94\C2;\H2.45;\S^ ;\C3;
  7
CONVERTER_11
 11
0.9999999999970619
 21
2.424068405545306E-6
 31
0.0
 73
     1
 44
0.60024009603842
  0
ENDBLK
  5
10E
330
106
100
AcDbEntity
  8
0
100
AcDbBlockEnd
  0
BLOCK
  5
118
330
111
100
AcDbEntity
  8
0
100
AcDbBlockBegin
  2
*D4
 70
     1
 10
0.0
 20
0.0
 30
0.0
  3
*D4
  1

  0
LINE
  5
112
330
111
100
AcDbEntity
  8
1
  6
Continuous
 62
     2
100
AcDbLine
 10
189.5459361588
 20
336.642968972505
 30
0.0
 11
69.5459361588
 21
336.642968972505
 31
0.0
  0
LINE
  5
113
330
111
100
AcDbEntity
  8
1
  6
Continuous
 62
     2
100
AcDbLine
 10
189.5459361588
 20
301.0596732402
 30
0.0
 11
189.5459361588
 21
338.642968972505
 31
0.0
  0
LINE
  5
114
330
111
100
AcDbEntity
  8
1
  6
Continuous
 62
     2
100
AcDbLine
 10
69.5459361588
 20
322.9738868026
 30
0.0
 11
69.5459361588
 21
338.642968972505
 31
0.0
  0
SOLID
  5
115
330
111
100
AcDbEntity
  8
1
 62
     2
100
AcDbTrace
 10
186.0459361588
 20
336.1821852309491
 30
0.0
 11
186.0459361588
 21
337.1037527140609
 31
0.0
 12
189.5459361588
 22
336.642968972505
 32
0.0
 13
189.5459361588
 23
336.642968972505
 33
0.0
  0
SOLID
  5
116
330
111
100
AcDbEntity
  8
1
 62
     2
100
AcDbTrace
 10
73.0459361588
 20
337.1037527140609
 30
0.0
 11
73.0459361588
 21
336.1821852309491
 31
0.0
 12
69.5459361588
 22
336.642968972505
 32
0.0
 13
69.5459361588
 23
336.642968972505
 33
0.0
  0
MTEXT
  5
117
330
111
100
AcDbEntity
  8
1
 62
     3
100
AcDbMText
 10
126.367320359059
 20
338.642968972505
 30
0.0
 40
3.5
 41
0.0
 71
     7
 72
     1
  1
\C3;\C3;\C3;120\C2;\H2.45;\S^ ;\C3;
  7
CONVERTER_11
 11
0.9999999999970619
 21
2.424068405545306E-6
 31
0.0
 73
     1
 44
0.60024009603842
  0
ENDBLK
  5
119
330
111
100
AcDbEntity
  8
0
100
AcDbBlockEnd
  0
BLOCK
  5
123
330
11C
100
AcDbEntity
  8
0
100
AcDbBlockBegin
  2
*D5
 70
     1
 10
0.0
 20
0.0
 30
0.0
  3
*D5
  1

  0
LINE
  5
11D
330
11C
100
AcDbEntity
  8
1
  6
Continuous
 62
     2
100
AcDbLine
 10
189.5459361588
 20
343.82436686409
 30
0.0
 11
37.5459361588
 21
343.82436686409
 31
0.0
  0
LINE
  5
11E
330
11C
100
AcDbEntity
  8
1
  6
Continuous
 62
     2
100
AcDbLine
 10
189.5459361588
 20
301.0596732402
 30
0.0
 11
189.5459361588
 21
345.82436686409
 31
0.0
  0
LINE
  5
11F
330
11C
100
AcDbEntity
  8
1
  6
Continuous
 62
     2
100
AcDbLine
 10
37.5459361588
 20
313.0499139827
 30
0.0
 11
37.5459361588
 21
345.82436686409
 31
0.0
  0
SOLID
  5
120
330
11C
100
AcDbEntity
  8
1
 62
     2
100
AcDbTrace
 10
186.0459361588
 20
343.3635831225341
 30
0.0
 11
186.0459361588
 21
344.2851506056459
 31
0.0
 12
189.5459361588
 22
343.82436686409
 32
0.0
 13
189.5459361588
 23
343.82436686409
 33
0.0
  0
SOLID
  5
121
330
11C
100
AcDbEntity
  8
1
 62
     2
100
AcDbTrace
 10
41.0459361588
 20
344.2851506056459
 30
0.0
 11
41.0459361588
 21
343.3635831225341
 31
0.0
 12
37.5459361588
 22
343.82436686409
 32
0.0
 13
37.5459361588
 23
343.82436686409
 33
0.0
  0
MTEXT
  5
122
330
11C
100
AcDbEntity
  8
1
 62
     3
100
AcDbMText
 10
113.92811329685
 20
345.82436686409
 30
0.0
 40
3.5
 41
0.0
 71
     7
 72
     1
  1
\C3;\C3;\C3;152\C2;\H2.45;\S^ ;\C3;
  7
CONVERTER_11
 11
0.9999999999970619
 21
2.424068405545306E-6
 31
0.0
 73
     1
 44
0.60024009603842
  0
ENDBLK
  5
124
330
11C
100
AcDbEntity
  8
0
100
AcDbBlockEnd
  0
BLOCK
  5
12B
330
127
100
AcDbEntity
  8
0
100
AcDbBlockBegin
  2
*D6
 70
     1
 10
0.0
 20
0.0
 30
0.0
  3
*D6
  1

  0
LINE
  5
128
330
127
100
AcDbEntity
  8
1
  6
Continuous
 62
     2
100
AcDbLine
 10
108.1832221600253
 20
317.6110100513151
 30
0.0
 11
99.43473656290223
 21
306.8165563628543
 31
0.0
  0
SOLID
  5
129
330
127
100
AcDbEntity
  8
1
 62
     2
100
AcDbTrace
 10
101.2804921195221
 20
309.8257934890524
 30
0.0
 11
101.9964474035476
 21
309.24553952982
 31
0.0
 12
99.43473656290223
 22
306.8165563628543
 32
0.0
 13
99.43473656290223
 23
306.8165563628543
 33
0.0
  0
MTEXT
  5
12A
330
127
100
AcDbEntity
  8
1
 62
     3
100
AcDbMText
 10
98.74008008230241
 20
309.1358718400562
 30
0.0
 40
3.5
 41
0.0
 71
     7
 72
     1
  1
\C3; R\C3;\C3;10.5\C2;\H2.45;\S^ ;\C3;
  7
CONVERTER_11
 11
0.6296380567521664
 21
0.7768886133091126
 31
0.0
 73
     1
 44
0.60024009603842
  0
ENDBLK
  5
12C
330
127
100
AcDbEntity
  8
0
100
AcDbBlockEnd
  0
ENDSEC
  0
SECTION
  2
ENTITIES
  0
INSERT
  5
6C
330
1F
100
AcDbEntity
  8
0
100
AcDbBlockReference
  2
Urheberrecht_DE-EN
 10
29.6654246133253
 20
307.147941917783
 30
0.0
  0
LINE
  5
70
330
1F
100
AcDbEntity
  8
VERERBUNG
  6
Continuous
 62
     7
100
AcDbLine
 10
37.5459361588
 20
267.8978595257
 30
0.0
 11
37.5459361588
 21
282.2038868026
 31
0.0
  0
LINE
  5
71
330
1F
100
AcDbEntity
  8
VERERBUNG
  6
Continuous
 62
     7
100
AcDbLine
 10
37.5459361588
 20
296.7438868026
 30
0.0
 11
37.5459361588
 21
311.0499139827
 31
0.0
  0
LINE
  5
72
330
1F
100
AcDbEntity
  8
VERERBUNG
  6
Continuous
 62
     7
100
AcDbLine
 10
38.5459361588
 20
281.8440051227
 30
0.0
 11
38.5459361588
 21
283.2038868026
 31
0.0
  0
LINE
  5
73
330
1F
100
AcDbEntity
  8
VERERBUNG
  6
Continuous
 62
     7
100
AcDbLine
 10
38.5459361588
 20
295.7438868026
 30
0.0
 11
38.5459361588
 21
297.1037684824
 31
0.0
  0
LINE
  5
74
330
1F
100
AcDbEntity
  8
VERERBUNG
  6
Continuous
 62
     9
100
AcDbLine
 10
38.6858930945
 20
312.2484620601
 30
0.0
 11
38.6858930945
 21
299.0359147339
 31
0.0
  0
LINE
  5
75
330
1F
100
AcDbEntity
  8
VERERBUNG
  6
Continuous
 62
     9
100
AcDbLine
 10
38.6858930945
 20
279.9118588712
 30
0.0
 11
38.6858930945
 21
266.6993115451
 31
0.0
  0
LINE
  5
76
330
1F
100
AcDbEntity
  8
VERERBUNG
  6
Continuous
 62
     9
100
AcDbLine
 10
42.0459361588
 20
279.5175739206
 30
0.0
 11
42.0459361588
 21
283.2038868026
 31
0.0
  0
LINE
  5
77
330
1F
100
AcDbEntity
  8
VERERBUNG
  6
Continuous
 62
     9
100
AcDbLine
 10
42.0459361588
 20
295.7438868026
 30
0.0
 11
42.0459361588
 21
299.4301996845
 31
0.0
  0
LINE
  5
78
330
1F
100
AcDbEntity
  8
VERERBUNG
  6
Continuous
 62
     7
100
AcDbLine
 10
43.5459361588
 20
296.9156745211
 30
0.0
 11
43.5459361588
 21
282.032099084
 31
0.0
  0
LWPOLYLINE
  5
79
330
1F
100
AcDbEntity
  8
BEZUGSACHSEN
  6
DOT_CENTER
 62
     7
100
AcDbPolyline
 90
        2
 70
     0
 43
0.25
 10
60.5459361588
 20
289.4738868026
 10
60.5459361588
 20
282.7238868026
  0
LWPOLYLINE
  5
7A
330
1F
100
AcDbEntity
  8
BEZUGSACHSEN
  6
DOT_CENTER
 62
     7
100
AcDbPolyline
 90
        2
 70
     0
 43
0.25
 10
60.5459361588
 20
289.4738868026
 10
60.5459361588
 20
296.2238868026
  0
LINE
  5
7B
330
1F
100
AcDbEntity
  8
VERERBUNG
  6
Continuous
 62
     7
100
AcDbLine
 10
37.5459361588
 20
282.2038868026
 30
0.0
 11
38.5459361588
 21
283.2038868026
 31
0.0
  0
LINE
  5
7C
330
1F
100
AcDbEntity
  8
VERERBUNG
  6
Continuous
 62
     7
100
AcDbLine
 10
67.5459361588
 20
313.6943109522
 30
0.0
 11
67.5459361588
 21
265.2534626529
 31
0.0
  0
LINE
  5
7D
330
1F
100
AcDbEntity
  8
VERERBUNG
  6
Continuous
 62
     9
100
AcDbLine
 10
68.2160463918
 20
265.4330181487
 30
0.0
 11
68.2160463918
 21
313.5147554565
 31
0.0
  0
LINE
  5
7E
330
1F
100
AcDbEntity
  8
VERERBUNG
  6
Continuous
 62
     9
100
AcDbLine
 10
68.3713378189
 20
265.4534626529
 30
0.0
 11
68.3713378189
 21
313.4943109522
 31
0.0
  0
LINE
  5
7F
330
1F
100
AcDbEntity
  8
VERERBUNG
  6
Continuous
 62
     9
100
AcDbLine
 10
69.2437665283
 20
265.4534626529
 30
0.0
 11
69.2437665283
 21
313.4943109522
 31
0.0
  0
LINE
  5
80
330
1F
100
AcDbEntity
  8
VERERBUNG
  6
Continuous
 62
     7
100
AcDbLine
 10
69.5459361588
 20
320.9738868026
 30
0.0
 11
69.5459361588
 21
257.9738868026
 31
0.0
  0
LINE
  5
81
330
1F
100
AcDbEntity
  8
VERERBUNG
  6
Continuous
 62
     7
100
AcDbLine
 10
38.5459361588
 20
295.7438868026
 30
0.0
 11
37.5459361588
 21
296.7438868026
 31
0.0
  0
LWPOLYLINE
  5
82
330
1F
100
AcDbEntity
  8
BEZUGSACHSEN
  6
DOT_CENTER
 62
     7
100
AcDbPolyline
 90
        2
 70
     0
 43
0.25
 10
76.5459361588
 20
312.9745298827
 10
76.5459361588
 20
323.9738868026
  0
LINE
  5
83
330
1F
100
AcDbEntity
  8
VERERBUNG
  6
Continuous
 62
     7
100
AcDbLine
 10
89.4209361588
 20
318.3714820668
 30
0.0
 11
90.9234352336
 21
320.9738868026
 31
0.0
  0
LINE
  5
84
330
1F
100
AcDbEntity
  8
VERERBUNG
  6
Continuous
 62
     7
100
AcDbLine
 10
89.4209361588
 20
260.5762915384
 30
0.0
 11
90.9234352336
 21
257.9738868026
 31
0.0
  0
LINE
  5
85
330
1F
100
AcDbEntity
  8
FASEN
  6
Continuous
 62
     9
100
AcDbLine
 10
81.6829465618
 20
269.2238868026
 30
0.0
 11
81.6829465618
 21
269.6238868026
 31
0.0
  0
LINE
  5
86
330
1F
100
AcDbEntity
  8
0
  6
Continuous
 62
     7
100
AcDbLine
 10
84.168437084
 20
320.9738868026
 30
0.0
 11
84.168437084
 21
297.4913868026
 31
0.0
  0
LINE
  5
87
330
1F
100
AcDbEntity
  8
0
  6
Continuous
 62
     7
100
AcDbLine
 10
84.168437084
 20
281.4563868026
 30
0.0
 11
84.168437084
 21
269.6238868026
 31
0.0
  0
LINE
  5
88
330
1F
100
AcDbEntity
  8
0
  6
Continuous
 62
     7
100
AcDbLine
 10
84.168437084
 20
265.0151971402
 30
0.0
 11
84.168437084
 21
257.9738868026
 31
0.0
  0
LINE
  5
89
330
1F
100
AcDbEntity
  8
0
  6
Continuous
 62
     7
100
AcDbLine
 10
85.6709361588
 20
318.3714595303
 30
0.0
 11
85.6709361588
 21
297.4913868026
 31
0.0
  0
LINE
  5
8A
330
1F
100
AcDbEntity
  8
0
  6
Continuous
 62
     7
100
AcDbLine
 10
85.6709361588
 20
281.4563868026
 30
0.0
 11
85.6709361588
 21
269.6238868026
 31
0.0
  0
LINE
  5
8B
330
1F
100
AcDbEntity
  8
0
  6
Continuous
 62
     7
100
AcDbLine
 10
85.6709361588
 20
260.5762978511
 30
0.0
 11
85.6709361588
 21
269.0232755648
 31
0.0
  0
LINE
  5
8C
330
1F
100
AcDbEntity
  8
VERERBUNG
  6
Continuous
 62
     9
100
AcDbLine
 10
37.5459361588
 20
281.297299016
 30
0.0
 11
38.5459361588
 21
281.8440051227
 31
0.0
  0
LINE
  5
8D
330
1F
100
AcDbEntity
  8
VERERBUNG
  6
Continuous
 62
     7
100
AcDbLine
 10
69.5459361588
 20
257.9738868026
 30
0.0
 11
84.168437084
 21
257.9738868026
 31
0.0
  0
LINE
  5
8E
330
1F
100
AcDbEntity
  8
VERERBUNG
  6
Continuous
 62
     7
100
AcDbLine
 10
90.9234352336
 20
257.9738868026
 30
0.0
 11
95.5459361588
 21
257.9738868026
 31
0.0
  0
LINE
  5
8F
330
1F
100
AcDbEntity
  8
VERERBUNG
  6
Continuous
 62
     9
100
AcDbLine
 10
38.5459361588
 20
297.1037684824
 30
0.0
 11
37.5459361588
 21
297.6504745892
 31
0.0
  0
LINE
  5
90
330
1F
100
AcDbEntity
  8
0
  6
Continuous
 62
     9
100
AcDbLine
 10
86.6709361588
 20
261.9738868026
 30
0.0
 11
86.6709361588
 21
281.7738868026
 31
0.0
  0
LINE
  5
91
330
1F
100
AcDbEntity
  8
0
  6
Continuous
 62
     9
100
AcDbLine
 10
86.6709361588
 20
297.1738868026
 30
0.0
 11
86.6709361588
 21
316.9738868026
 31
0.0
  0
LINE
  5
92
330
1F
100
AcDbEntity
  8
0
  6
Continuous
 62
     9
100
AcDbLine
 10
88.4209361588
 20
261.9738868026
 30
0.0
 11
88.4209361588
 21
281.7738868026
 31
0.0
  0
LINE
  5
93
330
1F
100
AcDbEntity
  8
0
  6
Continuous
 62
     9
100
AcDbLine
 10
88.4209361588
 20
297.1738868026
 30
0.0
 11
88.4209361588
 21
316.9738868026
 31
0.0
  0
LINE
  5
94
330
1F
100
AcDbEntity
  8
0
  6
Continuous
 62
     7
100
AcDbLine
 10
89.4209361588
 20
260.5762978511
 30
0.0
 11
89.4209361588
 21
269.0232755648
 31
0.0
  0
LINE
  5
95
330
1F
100
AcDbEntity
  8
0
  6
Continuous
 62
     7
100
AcDbLine
 10
89.4209361588
 20
269.6238868026
 30
0.0
 11
89.4209361588
 21
281.4563868026
 31
0.0
  0
LINE
  5
96
330
1F
100
AcDbEntity
  8
0
  6
Continuous
 62
     7
100
AcDbLine
 10
89.4209361588
 20
297.4913868026
 30
0.0
 11
89.4209361588
 21
318.3714595303
 31
0.0
  0
LINE
  5
97
330
1F
100
AcDbEntity
  8
0
  6
Continuous
 62
     7
100
AcDbLine
 10
90.9234352336
 20
320.9738868026
 30
0.0
 11
90.9234352336
 21
297.4913868026
 31
0.0
  0
LINE
  5
98
330
1F
100
AcDbEntity
  8
0
  6
Continuous
 62
     7
100
AcDbLine
 10
90.9234352336
 20
281.4563868026
 30
0.0
 11
90.9234352336
 21
269.6238868026
 31
0.0
  0
LINE
  5
99
330
1F
100
AcDbEntity
  8
0
  6
Continuous
 62
     7
100
AcDbLine
 10
90.9234352336
 20
265.0151971402
 30
0.0
 11
90.9234352336
 21
257.9738868026
 31
0.0
  0
LINE
  5
9A
330
1F
100
AcDbEntity
  8
VERERBUNG
  6
Continuous
 62
     7
100
AcDbLine
 10
86.6709361588
 20
261.9738868026
 30
0.0
 11
88.4209361588
 21
261.9738868026
 31
0.0
  0
LINE
  5
9B
330
1F
100
AcDbEntity
  8
FASEN
  6
Continuous
 62
     7
100
AcDbLine
 10
74.881548603
 20
265.0151971402
 30
0.0
 11
84.168437084
 21
265.0151971402
 31
0.0
  0
LINE
  5
9C
330
1F
100
AcDbEntity
  8
0
  6
Continuous
 62
     7
100
AcDbLine
 10
90.9234352336
 20
265.0151971402
 30
0.0
 11
95.5459361588
 21
265.0151971402
 31
0.0
  0
LINE
  5
9D
330
1F
100
AcDbEntity
  8
VERERBUNG
  6
Continuous
 62
     7
100
AcDbLine
 10
69.2437665283
 20
265.4534626529
 30
0.0
 11
68.3713378189
 21
265.4534626529
 31
0.0
  0
LINE
  5
9E
330
1F
100
AcDbEntity
  8
VERERBUNG
  6
Continuous
 62
     7
100
AcDbLine
 10
38.6858930945
 20
266.6993115451
 30
0.0
 11
67.5459361588
 21
265.2534626529
 31
0.0
  0
LINE
  5
9F
330
1F
100
AcDbEntity
  8
0
  6
Continuous
 62
     7
100
AcDbLine
 10
95.5459361588
 20
265.0151971402
 30
0.0
 11
95.5459361588
 21
257.9739258643
 31
0.0
  0
LINE
  5
A0
330
1F
100
AcDbEntity
  8
FASEN
  6
Continuous
 62
     7
100
AcDbLine
 10
95.5459361588
 20
265.0151971402
 30
0.0
 11
95.5459361588
 21
269.6238868026
 31
0.0
  0
LINE
  5
A1
330
1F
100
AcDbEntity
  8
0
  6
Continuous
 62
     7
100
AcDbLine
 10
95.5459361588
 20
269.6238868026
 30
0.0
 11
95.5459361588
 21
320.973837897
 31
0.0
  0
LINE
  5
A2
330
1F
100
AcDbEntity
  8
FASEN
  6
Continuous
 62
     7
100
AcDbLine
 10
81.6829465618
 20
269.2238868026
 30
0.0
 11
85.6813014241
 21
269.2238868026
 31
0.0
  0
LINE
  5
A3
330
1F
100
AcDbEntity
  8
FASEN
  6
Continuous
 62
     7
100
AcDbLine
 10
89.4105708935
 20
269.2238868026
 30
0.0
 11
95.5459361588
 21
269.2238868026
 31
0.0
  0
LINE
  5
A4
330
1F
100
AcDbEntity
  8
0
  6
Continuous
 62
     7
100
AcDbLine
 10
81.6829465618
 20
269.6238868026
 30
0.0
 11
85.6709361588
 21
269.6238868026
 31
0.0
  0
LINE
  5
A5
330
1F
100
AcDbEntity
  8
FASEN
  6
Continuous
 62
     7
100
AcDbLine
 10
85.6709361588
 20
269.6238868026
 30
0.0
 11
85.6813014241
 21
269.6238868026
 31
0.0
  0
LINE
  5
A6
330
1F
100
AcDbEntity
  8
FASEN
  6
Continuous
 62
     7
100
AcDbLine
 10
89.4105708935
 20
269.6238868026
 30
0.0
 11
89.4209361588
 21
269.6238868026
 31
0.0
  0
LINE
  5
A7
330
1F
100
AcDbEntity
  8
0
  6
Continuous
 62
     7
100
AcDbLine
 10
89.4209361588
 20
269.6238868026
 30
0.0
 11
95.5459361588
 21
269.6238868026
 31
0.0
  0
LINE
  5
A8
330
1F
100
AcDbEntity
  8
VERERBUNG
  6
Continuous
 62
     7
100
AcDbLine
 10
84.168437084
 20
257.9738868026
 30
0.0
 11
85.6709361588
 21
260.5762915384
 31
0.0
  0
LINE
  5
A9
330
1F
100
AcDbEntity
  8
0
  6
Continuous
 62
     7
100
AcDbLine
 10
106.0459361588
 20
274.4738868026
 30
0.0
 11
184.1317225964
 21
274.4738868026
 31
0.0
  0
LINE
  5
AA
330
1F
100
AcDbEntity
  8
RUNDUNGEN
  6
Continuous
 62
     9
100
AcDbLine
 10
106.0459361588
 20
304.4738868026
 30
0.0
 11
106.0459361588
 21
274.4738868026
 31
0.0
  0
LINE
  5
AB
330
1F
100
AcDbEntity
  8
VERERBUNG
  6
Continuous
 62
     7
100
AcDbLine
 10
68.2160463918
 20
265.4330181487
 30
0.0
 11
67.5459361588
 21
265.2534626529
 31
0.0
  0
LINE
  5
AC
330
1F
100
AcDbEntity
  8
VERERBUNG
  6
Continuous
 62
     9
100
AcDbLine
 10
43.0333431965
 20
280.2038868026
 30
0.0
 11
38.2176109692
 21
280.2038868026
 31
0.0
  0
LINE
  5
AD
330
1F
100
AcDbEntity
  8
0
  6
Continuous
 62
     7
100
AcDbLine
 10
95.5459361588
 20
281.4563868026
 30
0.0
 11
88.8368230493
 21
281.4563868026
 31
0.0
  0
LINE
  5
AE
330
1F
100
AcDbEntity
  8
0
  6
Continuous
 62
     7
100
AcDbLine
 10
82.5134361588
 20
281.4563868026
 30
0.0
 11
86.2550492683
 21
281.4563868026
 31
0.0
  0
LINE
  5
AF
330
1F
100
AcDbEntity
  8
0
  6
Continuous
 62
     7
100
AcDbLine
 10
86.6709361588
 20
281.7738868026
 30
0.0
 11
88.4209361588
 21
281.7738868026
 31
0.0
  0
LINE
  5
B0
330
1F
100
AcDbEntity
  8
VERERBUNG
  6
Continuous
 62
     7
100
AcDbLine
 10
84.168437084
 20
320.9738868026
 30
0.0
 11
85.6709361588
 21
318.3714820668
 31
0.0
  0
LINE
  5
B1
330
1F
100
AcDbEntity
  8
VERERBUNG
  6
Continuous
 62
     7
100
AcDbLine
 10
42.0459361588
 20
283.2038868026
 30
0.0
 11
38.5459361588
 21
283.2038868026
 31
0.0
  0
LWPOLYLINE
  5
B2
330
1F
100
AcDbEntity
  8
BEZUGSACHSEN
  6
DOT_CENTER
 62
     7
100
AcDbPolyline
 90
        2
 70
     0
 43
0.25
 10
192.5459361588
 20
289.4738868026
 10
34.5459361588
 20
289.4738868026
  0
LWPOLYLINE
  5
B3
330
1F
100
AcDbEntity
  8
VERERBUNG
  6
DOT_CENTER
 62
     9
100
AcDbPolyline
 90
        2
 70
     0
 43
0.25
 10
64.795369454
 20
289.4738868539
 10
64.2959799738
 20
289.4738868348
  0
LWPOLYLINE
  5
B4
330
1F
100
AcDbEntity
  8
VERERBUNG
  6
DOT_CENTER
 62
     9
100
AcDbPolyline
 90
        2
 70
     0
 43
0.25
 10
56.2964994487
 20
289.4738867376
 10
56.7958857803
 20
289.4738867549
  0
LINE
  5
B5
330
1F
100
AcDbEntity
  8
VERERBUNG
  6
Continuous
 62
     7
100
AcDbLine
 10
42.0459361588
 20
295.7438868026
 30
0.0
 11
38.5459361588
 21
295.7438868026
 31
0.0
  0
LINE
  5
B6
330
1F
100
AcDbEntity
  8
0
  6
Continuous
 62
     7
100
AcDbLine
 10
86.6709361588
 20
297.1738868026
 30
0.0
 11
88.4209361588
 21
297.1738868026
 31
0.0
  0
LINE
  5
B7
330
1F
100
AcDbEntity
  8
0
  6
Continuous
 62
     7
100
AcDbLine
 10
82.5134361588
 20
297.4913868026
 30
0.0
 11
86.2550492683
 21
297.4913868026
 31
0.0
  0
LINE
  5
B8
330
1F
100
AcDbEntity
  8
0
  6
Continuous
 62
     7
100
AcDbLine
 10
88.8368230493
 20
297.4913868026
 30
0.0
 11
95.5459361588
 21
297.4913868026
 31
0.0
  0
LINE
  5
B9
330
1F
100
AcDbEntity
  8
VERERBUNG
  6
Continuous
 62
     9
100
AcDbLine
 10
38.2176109692
 20
298.7438868026
 30
0.0
 11
43.0333431965
 21
298.7438868026
 31
0.0
  0
LINE
  5
BA
330
1F
100
AcDbEntity
  8
0
  6
Continuous
 62
     7
100
AcDbLine
 10
106.0459361588
 20
304.4738868026
 30
0.0
 11
184.1317225964
 21
304.4738868026
 31
0.0
  0
LINE
  5
BB
330
1F
100
AcDbEntity
  8
VERERBUNG
  6
Continuous
 62
     7
100
AcDbLine
 10
68.2160463918
 20
313.5147554565
 30
0.0
 11
67.5459361588
 21
313.6943109522
 31
0.0
  0
LINE
  5
BC
330
1F
100
AcDbEntity
  8
VERERBUNG
  6
Continuous
 62
     7
100
AcDbLine
 10
69.2437665283
 20
313.4943109522
 30
0.0
 11
68.3713378189
 21
313.4943109522
 31
0.0
  0
LINE
  5
BD
330
1F
100
AcDbEntity
  8
VERERBUNG
  6
Continuous
 62
     7
100
AcDbLine
 10
38.6858930945
 20
312.2484620601
 30
0.0
 11
67.5459361588
 21
313.6943109522
 31
0.0
  0
LINE
  5
BE
330
1F
100
AcDbEntity
  8
VERERBUNG
  6
Continuous
 62
     7
100
AcDbLine
 10
86.6709361588
 20
316.9738868026
 30
0.0
 11
88.4209361588
 21
316.9738868026
 31
0.0
  0
LINE
  5
BF
330
1F
100
AcDbEntity
  8
VERERBUNG
  6
Continuous
 62
     7
100
AcDbLine
 10
69.5459361588
 20
320.9738868026
 30
0.0
 11
71.5459361588
 21
320.9738868026
 31
0.0
  0
LINE
  5
C0
330
1F
100
AcDbEntity
  8
VERERBUNG
  6
Continuous
 62
     7
100
AcDbLine
 10
81.5459361588
 20
320.9738868026
 30
0.0
 11
84.168437084
 21
320.9738868026
 31
0.0
  0
LINE
  5
C1
330
1F
100
AcDbEntity
  8
VERERBUNG
  6
Continuous
 62
     7
100
AcDbLine
 10
90.9234352336
 20
320.9738868026
 30
0.0
 11
95.5459361588
 21
320.9738868026
 31
0.0
  0
LINE
  5
C2
330
1F
100
AcDbEntity
  8
FASEN
  6
Continuous
 62
     7
100
AcDbLine
 10
189.25304294
 20
279.1809935838
 30
0.0
 11
184.8388293776
 21
274.7667800214
 31
0.0
  0
LINE
  5
C3
330
1F
100
AcDbEntity
  8
FASEN
  6
Continuous
 62
     7
100
AcDbLine
 10
189.25304294
 20
299.7667800214
 30
0.0
 11
184.8388293776
 21
304.1809935838
 31
0.0
  0
LINE
  5
C4
330
1F
100
AcDbEntity
  8
RUNDUNGEN
  6
Continuous
 62
     9
100
AcDbLine
 10
184.1317225964
 20
274.4738868026
 30
0.0
 11
184.1317225964
 21
304.4738868026
 31
0.0
  0
LINE
  5
C5
330
1F
100
AcDbEntity
  8
RUNDUNGEN
  6
Continuous
 62
     9
100
AcDbLine
 10
184.8388293776
 20
274.7667800214
 30
0.0
 11
184.8388293776
 21
304.1809935838
 31
0.0
  0
LINE
  5
C6
330
1F
100
AcDbEntity
  8
RUNDUNGEN
  6
Continuous
 62
     9
100
AcDbLine
 10
189.25304294
 20
299.7667800214
 30
0.0
 11
189.25304294
 21
279.1809935838
 31
0.0
  0
LINE
  5
C7
330
1F
100
AcDbEntity
  8
RUNDUNGEN
  6
Continuous
 62
     7
100
AcDbLine
 10
189.5459361588
 20
299.0596732402
 30
0.0
 11
189.5459361588
 21
279.8881003649
 31
0.0
  0
ARC
  5
C8
330
1F
100
AcDbEntity
  8
FASEN
  6
Continuous
 62
     7
100
AcDbCircle
 10
-12.0243043217
 20
269.4238868026
 30
0.0
 40
97.70581044213137
100
AcDbArc
 50
359.8827176822629
 51
0.11728231773712
  0
ARC
  5
C9
330
1F
100
AcDbEntity
  8
FASEN
  6
Continuous
 62
     7
100
AcDbCircle
 10
84.5899420745
 20
273.5432839594
 30
0.0
 40
12.92211935370016
100
AcDbArc
 50
219.3764519582008
 51
221.296851334055
  0
ARC
  5
CA
330
1F
100
AcDbEntity
  8
FASEN
  6
Continuous
 62
     7
100
AcDbCircle
 10
81.6829465618
 20
261.6238868026
 30
0.0
 40
8.0
100
AcDbArc
 50
90.0
 51
152.2781454968997
  0
ARC
  5
CB
330
1F
100
AcDbEntity
  8
FASEN
  6
Continuous
 62
     7
100
AcDbCircle
 10
81.6829465618
 20
261.6238868026
 30
0.0
 40
7.599996372100009
100
AcDbArc
 50
90.0
 51
153.4982565746016
  0
ARC
  5
CC
330
1F
100
AcDbEntity
  8
FASEN
  6
Continuous
 62
     7
100
AcDbCircle
 10
87.4733906957
 20
269.0232223691
 30
0.0
 40
1.947545463826499
100
AcDbArc
 50
0.00156498996029
 51
5.91393926133212
  0
ARC
  5
CD
330
1F
100
AcDbEntity
  8
VERERBUNG
  6
Continuous
 62
     7
100
AcDbCircle
 10
42.0459361588
 20
284.7038868026
 30
0.0
 40
1.5
100
AcDbArc
 50
270.0
 51
354.6670371752118
  0
ARC
  5
CE
330
1F
100
AcDbEntity
  8
VERERBUNG
  6
Continuous
 62
     7
100
AcDbCircle
 10
38.7459361588
 20
267.8978084497
 30
0.0
 40
1.200000000000003
100
AcDbArc
 50
180.0
 51
267.1319572715508
  0
ARC
  5
CF
330
1F
100
AcDbEntity
  8
VERERBUNG
  6
Continuous
 62
     7
100
AcDbCircle
 10
86.6709361588
 20
260.9738868026
 30
0.0
 40
1.0
100
AcDbArc
 50
90.0
 51
180.0
  0
ARC
  5
D0
330
1F
100
AcDbEntity
  8
VERERBUNG
  6
Continuous
 62
     7
100
AcDbCircle
 10
68.3713378189
 20
264.8534626529
 30
0.0
 40
0.5999999999999659
100
AcDbArc
 50
90.0
 51
105.0000000028938
  0
ARC
  5
D1
330
1F
100
AcDbEntity
  8
VERERBUNG
  6
Continuous
 62
     7
100
AcDbCircle
 10
69.2437665283
 20
264.8534626529
 30
0.0
 40
0.6000000000003367
100
AcDbArc
 50
59.74152092741424
 51
90.0
  0
ARC
  5
D2
330
1F
100
AcDbEntity
  8
0
  6
Continuous
 62
     7
100
AcDbCircle
 10
-58.2026053138
 20
328.9388904068
 30
0.0
 40
156.0632957305418
100
AcDbArc
 50
335.8202227521907
 51
337.2043014055999
  0
ARC
  5
D3
330
1F
100
AcDbEntity
  8
VERERBUNG
  6
Continuous
 62
     7
100
AcDbCircle
 10
76.5273699781
 20
352.2884346622
 30
0.0
 40
31.71385608950036
100
AcDbArc
 50
270.0335425008
 51
279.1049739653001
  0
ARC
  5
D4
330
1F
100
AcDbEntity
  8
0
  6
Continuous
 62
     7
100
AcDbCircle
 10
82.5134361588
 20
289.4738868026
 30
0.0
 40
8.017499999999984
100
AcDbArc
 50
90.0
 51
270.0
  0
ARC
  5
D5
330
1F
100
AcDbEntity
  8
VERERBUNG
  6
Continuous
 62
     7
100
AcDbCircle
 10
42.0459361588
 20
294.2438868026
 30
0.0
 40
1.500000000000033
100
AcDbArc
 50
5.33296276981268
 51
90.0
  0
ARC
  5
D6
330
1F
100
AcDbEntity
  8
VERERBUNG
  6
Continuous
 62
     7
100
AcDbCircle
 10
38.7459361588
 20
311.0499651554
 30
0.0
 40
1.200000000060833
100
AcDbArc
 50
92.86804272821033
 51
180.0
  0
ARC
  5
D7
330
1F
100
AcDbEntity
  8
VERERBUNG
  6
Continuous
 62
     7
100
AcDbCircle
 10
86.6709361588
 20
317.9738868026
 30
0.0
 40
1.0
100
AcDbArc
 50
180.0
 51
270.0
  0
ARC
  5
D8
330
1F
100
AcDbEntity
  8
VERERBUNG
  6
Continuous
 62
     7
100
AcDbCircle
 10
68.3713378189
 20
314.0943109522
 30
0.0
 40
0.5999999999390143
100
AcDbArc
 50
254.9999999946349
 51
270.0
  0
ARC
  5
D9
330
1F
100
AcDbEntity
  8
VERERBUNG
  6
Continuous
 62
     7
100
AcDbCircle
 10
69.2437665283
 20
314.0943109522
 30
0.0
 40
0.5999999999999659
100
AcDbArc
 50
270.0
 51
300.2584790725858
  0
ARC
  5
DA
330
1F
100
AcDbEntity
  8
VERERBUNG
  6
Continuous
 62
     7
100
AcDbCircle
 10
143.4295335653
 20
-579.0611751137
 30
0.0
 40
884.3221864331545
100
AcDbArc
 50
96.58318095120157
 51
96.8023740697
  0
ARC
  5
DB
330
1F
100
AcDbEntity
  8
FASEN
  6
Continuous
 62
     7
100
AcDbCircle
 10
187.1161766393
 20
269.4238868026
 30
0.0
 40
97.70581044213137
100
AcDbArc
 50
179.8827176822629
 51
180.1172823177371
  0
ARC
  5
DC
330
1F
100
AcDbEntity
  8
RUNDUNGEN
  6
Continuous
 62
     7
100
AcDbCircle
 10
106.0459361588
 20
263.9738868026
 30
0.0
 40
10.5
100
AcDbArc
 50
90.0
 51
180.0
  0
ARC
  5
DD
330
1F
100
AcDbEntity
  8
FASEN
  6
Continuous
 62
     7
100
AcDbCircle
 10
87.6184816219
 20
269.0232223691
 30
0.0
 40
1.947545463813452
100
AcDbArc
 50
174.0860607386679
 51
179.9984350100397
  0
ARC
  5
DE
330
1F
100
AcDbEntity
  8
RUNDUNGEN
  6
Continuous
 62
     7
100
AcDbCircle
 10
188.5459361588
 20
279.8881003649
 30
0.0
 40
0.9999999999483382
100
AcDbArc
 50
315.0000000040498
 51
0.0
  0
ARC
  5
DF
330
1F
100
AcDbEntity
  8
RUNDUNGEN
  6
Continuous
 62
     7
100
AcDbCircle
 10
184.1317225964
 20
275.4738868026
 30
0.0
 40
1.0
100
AcDbArc
 50
270.0
 51
314.9999999999989
  0
ARC
  5
E0
330
1F
100
AcDbEntity
  8
VERERBUNG
  6
Continuous
 62
     7
100
AcDbCircle
 10
88.4209361588
 20
260.9738868026
 30
0.0
 40
1.0
100
AcDbArc
 50
0.0
 51
90.0
  0
ARC
  5
E1
330
1F
100
AcDbEntity
  8
VERERBUNG
  6
Continuous
 62
     7
100
AcDbCircle
 10
143.4295335685
 20
1158.0089487461
 30
0.0
 40
884.3221864605998
100
AcDbArc
 50
263.1976259303
 51
263.4168190487953
  0
ARC
  5
E2
330
1F
100
AcDbEntity
  8
0
  6
Continuous
 62
     7
100
AcDbCircle
 10
233.2944776316
 20
328.9388904069
 30
0.0
 40
156.0632957307999
100
AcDbArc
 50
202.7956985943999
 51
204.1797772478128
  0
ARC
  5
E3
330
1F
100
AcDbEntity
  8
RUNDUNGEN
  6
Continuous
 62
     7
100
AcDbCircle
 10
106.0459361588
 20
314.9738868026
 30
0.0
 40
10.5
100
AcDbArc
 50
180.0
 51
270.0
  0
ARC
  5
E4
330
1F
100
AcDbEntity
  8
RUNDUNGEN
  6
Continuous
 62
     7
100
AcDbCircle
 10
188.5459361588
 20
299.0596732402
 30
0.0
 40
1.0
100
AcDbArc
 50
0.0
 51
44.99999999999885
  0
ARC
  5
E5
330
1F
100
AcDbEntity
  8
RUNDUNGEN
  6
Continuous
 62
     7
100
AcDbCircle
 10
184.1317225964
 20
303.4738868026
 30
0.0
 40
1.000000000019
100
AcDbArc
 50
44.99999999999885
 51
90.0
  0
ARC
  5
E6
330
1F
100
AcDbEntity
  8
VERERBUNG
  6
Continuous
 62
     7
100
AcDbCircle
 10
88.4209361588
 20
317.9738868026
 30
0.0
 40
1.0
100
AcDbArc
 50
270.0
 51
0.0
  0
CIRCLE
  5
E7
330
1F
100
AcDbEntity
  8
VERERBUNG
  6
Continuous
 62
     7
100
AcDbCircle
 10
60.5459361588
 20
289.4738868026
 30
0.0
 40
3.750000000000007
  0
SPLINE
  5
E8
330
1F
100
AcDbEntity
  8
VERERBUNG
  6
Continuous
 62
     7
100
AcDbSpline
210
0.0
220
0.0
230
1.0
 70
     8
 71
     3
 72
    13
 73
     9
 74
     7
 42
0.0000000001
 43
0.0000000001
 44
0.00000001
 40
0.0
 40
0.0
 40
0.0
 40
0.0
 40
0.9581451161710703
 40
1.916374757546675
 40
2.729668920811328
 40
3.542928077728665
 40
4.28195173705002
 40
5.020980281041441
 40
5.020980281041441
 40
5.020980281041441
 40
5.020980281041441
 10
76.5459361588
 20
320.5745298827
 30
0.0
 10
76.22654199247455
 20
320.5773734204099
 30
0.0
 10
75.58772548365616
 20
320.5830607466793
 30
0.0
 10
74.67866136243651
 20
320.6266684653823
 30
0.0
 10
73.81934325520868
 20
320.690224851581
 30
0.0
 10
73.03470471229423
 20
320.769221867568
 30
0.0
 10
72.2765731847987
 20
320.8626329280273
 30
0.0
 10
71.78948237071248
 20
320.9368020960376
 30
0.0
 10
71.5459361588
 20
320.9738868026
 30
0.0
 11
76.5459361588
 21
320.5745298827
 31
0.0
 11
75.58790476695614
 21
320.5892918569646
 31
0.0
 11
74.63069305506247
 21
320.6334482180511
 31
0.0
 11
73.81964172473064
 21
320.6938066107346
 31
0.0
 11
73.01042997663973
 21
320.7748424241848
 31
0.0
 11
72.27706373817617
 21
320.866110870641
 31
0.0
 11
71.5459361588
 21
320.9738868026
 31
0.0
  0
SPLINE
  5
E9
330
1F
100
AcDbEntity
  8
VERERBUNG
  6
Continuous
 62
     7
100
AcDbSpline
210
0.0
220
0.0
230
1.0
 70
     8
 71
     3
 72
    13
 73
     9
 74
     7
 42
0.0000000001
 43
0.0000000001
 44
0.00000001
 40
0.0
 40
0.0
 40
0.0
 40
0.0
 40
0.4765182419301083
 40
0.9529821706433241
 40
1.193158830004175
 40
1.433310795932939
 40
1.675484054978273
 40
1.917493731737018
 40
1.917493731737018
 40
1.917493731737018
 40
1.917493731737018
 10
43.0333431965
 20
298.7438868026
 30
0.0
 10
43.10516380916702
 20
298.6020886397573
 30
0.0
 10
43.2487968484377
 20
298.3185084761275
 30
0.0
 10
43.38322094236082
 20
297.9428945195041
 30
0.0
 10
43.46481564362401
 20
297.6344180603779
 30
0.0
 10
43.51022098897468
 20
297.3977446177254
 30
0.0
 10
43.54009672685373
 20
297.1577981671492
 30
0.0
 10
43.54399011994843
 20
296.9963642228435
 30
0.0
 10
43.5459361588
 20
296.9156745211
 30
0.0
 11
43.0333431965
 21
298.7438868026
 31
0.0
 11
43.23973704710021
 21
298.3143856811503
 31
0.0
 11
43.40116723354937
 21
297.8661020987297
 31
0.0
 11
43.46212345307661
 21
297.6337894494773
 31
0.0
 11
43.50751132682286
 21
297.3979655582867
 31
0.0
 11
43.53608148355215
 21
297.1574834725899
 31
0.0
 11
43.5459361588
 21
296.9156745211
 31
0.0
  0
SPLINE
  5
EA
330
1F
100
AcDbEntity
  8
VERERBUNG
  6
Continuous
 62
     7
100
AcDbSpline
210
0.0
220
0.0
230
1.0
 70
     8
 71
     3
 72
    19
 73
    15
 74
    13
 42
0.0000000001
 43
0.0000000001
 44
0.00000001
 40
0.0
 40
0.0
 40
0.0
 40
0.0
 40
0.0835832282567542
 40
0.1672705448726977
 40
0.2499538624585846
 40
0.3326148850862305
 40
0.413847563940371
 40
0.4950848398143083
 40
0.5749375740358829
 40
0.6547985888034366
 40
0.81149547967098
 40
0.9684466433315502
 40
1.123543258619686
 40
1.278502018080335
 40
1.278502018080335
 40
1.278502018080335
 40
1.278502018080335
 10
42.0459361588
 20
299.4301996845
 30
0.0
 10
42.07373479937267
 20
299.4324725652158
 30
0.0
 10
42.12936669888519
 20
299.4370211571246
 30
0.0
 10
42.21279810240992
 20
299.4316550290181
 30
0.0
 10
42.29470717582934
 20
299.417350845585
 30
0.0
 10
42.37374364871491
 20
299.3941610543927
 30
0.0
 10
42.44944465672747
 20
299.3630563474116
 30
0.0
 10
42.52097429455094
 20
299.3252856984025
 30
0.0
 10
42.58851613668703
 20
299.2816504140211
 30
0.0
 10
42.67238558047748
 20
299.2175549272283
 30
0.0
 10
42.76797351050506
 20
299.1271317288732
 30
0.0
 10
42.86834778942048
 20
299.0070853886841
 30
0.0
 10
42.95739210069919
 20
298.8790866809288
 30
0.0
 10
43.00803366993048
 20
298.7889400684769
 30
0.0
 10
43.0333431965
 20
298.7438868026
 30
0.0
 11
42.0459361588
 21
299.4301996845
 31
0.0
 11
42.12938223547496
 21
299.4349859495758
 31
0.0
 11
42.2129279244126
 21
299.4301192440872
 31
0.0
 11
42.29436819856108
 21
299.4158359407708
 31
0.0
 11
42.37371303334041
 21
299.392657462484
 31
0.0
 11
42.44888944081809
 21
299.3618799402873
 31
0.0
 11
42.52077380441266
 21
299.3240364036922
 31
0.0
 11
42.58790503433203
 21
299.2807945590025
 31
0.0
 11
42.6514217883816
 21
299.2323858445524
 31
0.0
 11
42.76565890785674
 21
299.1251300934638
 31
0.0
 11
42.86689262858223
 21
299.0051909357109
 31
0.0
 11
42.95529729958929
 21
298.8777563477138
 31
0.0
 11
43.0333431965
 21
298.7438868026
 31
0.0
  0
SPLINE
  5
EB
330
1F
100
AcDbEntity
  8
VERERBUNG
  6
Continuous
 62
     7
100
AcDbSpline
210
0.0
220
0.0
230
1.0
 70
     8
 71
     3
 72
    13
 73
     9
 74
     7
 42
0.0000000001
 43
0.0000000001
 44
0.00000001
 40
0.0
 40
0.0
 40
0.0
 40
0.0
 40
0.2420096760820213
 40
0.4841829345388786
 40
0.7243349034436481
 40
0.9645115657846336
 40
1.440975492113232
 40
1.917493731669686
 40
1.917493731669686
 40
1.917493731669686
 40
1.917493731669686
 10
43.5459361588
 20
282.032099084
 30
0.0
 10
43.54399011996161
 20
281.9514093824823
 30
0.0
 10
43.54009672689259
 20
281.7899754385988
 30
0.0
 10
43.51022098905781
 20
281.5500289874443
 30
0.0
 10
43.46481564337518
 20
281.3133555430267
 30
0.0
 10
43.38322094154768
 20
281.0048790828121
 30
0.0
 10
43.24879684748005
 20
280.6292651268876
 30
0.0
 10
43.10516380884835
 20
280.3456849647155
 30
0.0
 10
43.0333431965
 20
280.2038868026
 30
0.0
 11
43.5459361588
 21
282.032099084
 31
0.0
 11
43.53608148361899
 21
281.7902901331847
 31
0.0
 11
43.5075113270607
 21
281.5498080480601
 31
0.0
 11
43.46212345276119
 21
281.3139841539455
 31
0.0
 11
43.40116723228859
 21
281.0816715018601
 31
0.0
 11
43.2397370462386
 21
280.6333879218303
 31
0.0
 11
43.0333431965
 21
280.2038868026
 31
0.0
  0
SPLINE
  5
EC
330
1F
100
AcDbEntity
  8
VERERBUNG
  6
Continuous
 62
     7
100
AcDbSpline
210
0.0
220
0.0
230
1.0
 70
     8
 71
     3
 72
    19
 73
    15
 74
    13
 42
0.0000000001
 43
0.0000000001
 44
0.00000001
 40
0.0
 40
0.0
 40
0.0
 40
0.0
 40
0.1549595547232616
 40
0.310056926662988
 40
0.4670093143569285
 40
0.6237075594104107
 40
0.703571682086208
 40
0.7834274372136449
 40
0.8646682251772275
 40
0.9459045180201238
 40
1.02856164164302
 40
1.111240956050376
 40
1.194923428863383
 40
1.278501866396215
 40
1.278501866396215
 40
1.278501866396215
 40
1.278501866396215
 10
43.0333431965
 20
280.2038868026
 30
0.0
 10
43.00803354667205
 20
280.1588333017912
 30
0.0
 10
42.95739173723612
 20
280.0686862306982
 30
0.0
 10
42.86834681714565
 20
279.9406868061233
 30
0.0
 10
42.76797141771945
 20
279.8206399374831
 30
0.0
 10
42.67238197073007
 20
279.7302156242501
 30
0.0
 10
42.58851067981759
 20
279.6661184370591
 30
0.0
 10
42.52096581488976
 20
279.6224818337564
 30
0.0
 10
42.44943215523765
 20
279.584711463433
 30
0.0
 10
42.37372918439369
 20
279.5536087297373
 30
0.0
 10
42.29469374453662
 20
279.5304206999482
 30
0.0
 10
42.21278875750478
 20
279.5161178784547
 30
0.0
 10
42.12936187952238
 20
279.5107526821669
 30
0.0
 10
42.07373319880585
 20
279.5153011174887
 30
0.0
 10
42.0459361588
 20
279.5175739206
 30
0.0
 11
43.0333431965
 21
280.2038868026
 31
0.0
 11
42.95529690217734
 21
280.0700165686324
 31
0.0
 11
42.86689168586344
 21
279.9425814380322
 31
0.0
 11
42.76565686704914
 21
279.8226416053557
 31
0.0
 11
42.6514186622944
 21
279.7153850317704
 31
0.0
 11
42.58789946008267
 21
279.6669744023471
 31
0.0
 11
42.52076532854088
 21
279.6237314837464
 31
0.0
 11
42.44887695775981
 21
279.5858880196425
 31
0.0
 11
42.37369631462541
 21
279.5551113048608
 31
0.0
 11
42.29435478967451
 21
279.5319354013384
 31
0.0
 11
42.21291832530217
 21
279.5176535491685
 31
0.0
 11
42.1293774389666
 21
279.5127876919607
 31
0.0
 11
42.0459361588
 21
279.5175739206
 31
0.0
  0
SPLINE
  5
ED
330
1F
100
AcDbEntity
  8
VERERBUNG
  6
Continuous
 62
     7
100
AcDbSpline
210
0.0
220
0.0
230
1.0
 70
     8
 71
     3
 72
    15
 73
    11
 74
     9
 42
0.0000000001
 43
0.0000000001
 44
0.00000001
 40
0.0
 40
0.0
 40
0.0
 40
0.0
 40
0.0705890229248965
 40
0.1413178422228443
 40
0.2119756691079681
 40
0.2826066759672983
 40
0.3532320943235921
 40
0.4238693693103796
 40
0.4944866365329421
 40
0.5650782701944104
 40
0.5650782701944104
 40
0.5650782701944104
 40
0.5650782701944104
 10
38.6858930945
 20
279.9118588712
 30
0.0
 10
38.66262802516138
 20
279.9156009116107
 30
0.0
 10
38.61605181172382
 20
279.923092403268
 30
0.0
 10
38.54881779929161
 20
279.9457562080693
 30
0.0
 10
38.4846321720963
 20
279.9755842959513
 30
0.0
 10
38.42405554172637
 20
280.0121685531562
 30
0.0
 10
38.3670999489831
 20
280.0540850606622
 30
0.0
 10
38.31380255985124
 20
280.1005163086132
 30
0.0
 10
38.26370236092093
 20
280.1503811394452
 30
0.0
 10
38.23297290700764
 20
280.1860537400898
 30
0.0
 10
38.2176109692
 20
280.2038868026
 30
0.0
 11
38.6858930945
 21
279.9118588712
 31
0.0
 11
38.61653534647444
 21
279.9249856737929
 31
0.0
 11
38.54930622836928
 21
279.9469586471485
 31
0.0
 11
38.48522061480692
 21
279.9767170515826
 31
0.0
 11
38.42465649326222
 21
280.01305884999
 31
0.0
 11
38.36771215927316
 21
280.0548355485736
 31
0.0
 11
38.31432921562153
 21
280.1010944498213
 31
0.0
 11
38.26436291659058
 21
280.1509960268618
 31
0.0
 11
38.2176109692
 21
280.2038868026
 31
0.0
  0
SPLINE
  5
EE
330
1F
100
AcDbEntity
  8
VERERBUNG
  6
Continuous
 62
     7
100
AcDbSpline
210
0.0
220
0.0
230
1.0
 70
     8
 71
     3
 72
    15
 73
    11
 74
     9
 42
0.0000000001
 43
0.0000000001
 44
0.00000001
 40
0.0
 40
0.0
 40
0.0
 40
0.0
 40
0.0705917491718967
 40
0.1412091311659323
 40
0.2118461808067499
 40
0.2824713749015335
 40
0.3531025104690822
 40
0.4237604658536959
 40
0.4944892663307246
 40
0.5650782700952741
 40
0.5650782700952741
 40
0.5650782700952741
 40
0.5650782700952741
 10
38.2176109692
 20
298.7438868026
 30
0.0
 10
38.23297293149929
 20
298.7617198948376
 30
0.0
 10
38.26370243423483
 20
298.7973925547504
 30
0.0
 10
38.31380263656875
 20
298.8472573851236
 30
0.0
 10
38.36709995136411
 20
298.8936885482152
 30
0.0
 10
38.42405545765467
 20
298.9356049912144
 30
0.0
 10
38.48463209172317
 20
298.9721892640724
 30
0.0
 10
38.54881778999034
 20
299.0020173886631
 30
0.0
 10
38.61605183069872
 20
299.0246812037824
 30
0.0
 10
38.6626280315236
 20
299.0321726941457
 30
0.0
 10
38.6858930945
 20
299.0359147339
 30
0.0
 11
38.2176109692
 21
298.7438868026
 31
0.0
 11
38.26436299185438
 21
298.796777665978
 31
0.0
 11
38.31432937619278
 21
298.8466793200171
 31
0.0
 11
38.36771215775231
 21
298.8929380642168
 31
0.0
 11
38.42465630997602
 21
298.9347146314339
 31
0.0
 11
38.48522053635183
 21
298.9710565052857
 31
0.0
 11
38.54930626523718
 21
299.0008149664752
 31
0.0
 11
38.61653536548982
 21
299.0227879338702
 31
0.0
 11
38.6858930945
 21
299.0359147339
 31
0.0
  0
SPLINE
  5
EF
330
1F
100
AcDbEntity
  8
VERERBUNG
  6
Continuous
 62
     7
100
AcDbSpline
210
0.0
220
0.0
230
1.0
 70
     8
 71
     3
 72
     9
 73
     5
 74
     3
 42
0.0000000001
 43
0.0000000001
 44
0.00000001
 40
0.0
 40
0.0
 40
0.0
 40
0.0
 40
0.0774000574772241
 40
0.1547963632177385
 40
0.1547963632177385
 40
0.1547963632177385
 40
0.1547963632177385
 10
38.1226378358
 20
298.6216764828
 30
0.0
 10
38.13795780012534
 20
298.6424411354918
 30
0.0
 10
38.1685969861865
 20
298.6839694343707
 30
0.0
 10
38.20127323884919
 20
298.7239146692357
 30
0.0
 10
38.2176109692
 20
298.7438868026
 30
0.0
 11
38.1226378358
 21
298.6216764828
 31
0.0
 11
38.1691070201125
 21
298.6835746556875
 31
0.0
 11
38.2176109692
 21
298.7438868026
 31
0.0
  0
SPLINE
  5
F0
330
1F
100
AcDbEntity
  8
VERERBUNG
  6
Continuous
 62
     7
100
AcDbSpline
210
0.0
220
0.0
230
1.0
 70
     8
 71
     3
 72
    43
 73
    39
 74
    37
 42
0.0000000001
 43
0.0000000001
 44
0.00000001
 40
0.0
 40
0.0
 40
0.0
 40
0.0
 40
0.4175881290332424
 40
0.8356316531271613
 40
1.253282832016102
 40
1.670787328070297
 40
2.088079154548375
 40
2.505458237151387
 40
2.922766757524603
 40
3.339867556070741
 40
3.548612845982535
 40
3.757291312421955
 40
3.966036487537413
 40
4.174848410720633
 40
4.592416990900165
 40
5.010187344195548
 40
5.428059866898244
 40
5.845880990824231
 40
6.263484877140722
 40
6.681103578729802
 40
7.097989619702535
 40
7.514858051230107
 40
7.930683045128347
 40
8.346557961733518
 40
8.761608457033114
 40
9.176458234586018
 40
9.383846863131104
 40
9.591169424620507
 40
9.798492920822394
 40
10.00588294527594
 40
10.4207292364132
 40
10.8357776364903
 40
11.25173036422641
 40
11.66760664535423
 40
12.08452417581984
 40
12.50157511611746
 40
12.91952009629173
 40
13.33702821002906
 40
13.33702821002906
 40
13.33702821002906
 40
13.33702821002906
 10
56.2965624485
 20
289.4738868026
 30
0.0
 10
56.30048332793656
 20
289.6131420811752
 30
0.0
 10
56.30832936267149
 20
289.8918045012774
 30
0.0
 10
56.37248096279455
 20
290.3056565600548
 30
0.0
 10
56.47389141936205
 20
290.7114238720842
 30
0.0
 10
56.61533871234384
 20
291.1049971053819
 30
0.0
 10
56.79471875275844
 20
291.4826052480266
 30
0.0
 10
57.01038604765193
 20
291.8406905876682
 30
0.0
 10
57.26030615549158
 20
292.1756502732234
 30
0.0
 10
57.49497618044516
 20
292.4330677613078
 30
0.0
 10
57.69714456576128
 20
292.6242773420324
 30
0.0
 10
57.85572812186735
 20
292.7601186769235
 30
0.0
 10
58.02080960741421
 20
292.888020809842
 30
0.0
 10
58.24906014908814
 20
293.0475401789511
 30
0.0
 10
58.54881927711514
 20
293.2256073025276
 30
0.0
 10
58.9276720103728
 20
293.4031489798814
 30
0.0
 10
59.32221452387424
 20
293.5427006145289
 30
0.0
 10
59.72842742593483
 20
293.6430797438555
 30
0.0
 10
60.14242355100121
 20
293.7032496768613
 30
0.0
 10
60.55999909513683
 20
293.7228332559184
 30
0.0
 10
60.97724241270875
 20
293.7015247220256
 30
0.0
 10
61.38984328825775
 20
293.6398114687042
 30
0.0
 10
61.79410515151157
 20
293.5381419792677
 30
0.0
 10
62.18597046586544
 20
293.3977546152586
 30
0.0
 10
62.56187581352651
 20
293.2197874422842
 30
0.0
 10
62.85899212377973
 20
293.0417656241649
 30
0.0
 10
63.0851350423506
 20
292.8824734954022
 30
0.0
 10
63.24865068438189
 20
292.7548403985147
 30
0.0
 10
63.40571503429905
 20
292.6193466201811
 30
0.0
 10
63.60604500025723
 20
292.4286058005919
 30
0.0
 10
63.83860589132843
 20
292.1719255467787
 30
0.0
 10
64.086425233425
 20
291.8378806386013
 30
0.0
 10
64.30032504852537
 20
291.4807244896438
 30
0.0
 10
64.47842542057322
 20
291.103785403683
 30
0.0
 10
64.61897983109566
 20
290.7108231275894
 30
0.0
 10
64.71982926158388
 20
290.3053584091041
 30
0.0
 10
64.78351394853996
 20
289.8917102818034
 30
0.0
 10
64.79137926653004
 20
289.6131127352245
 30
0.0
 10
64.7953098691
 20
289.4738868026
 30
0.0
 11
56.2965624485
 21
289.4738868026
 31
0.0
 11
56.31704740151734
 21
289.890972180202
 31
0.0
 11
56.3787191021481
 21
290.3044416341864
 31
0.0
 11
56.48059010763617
 21
290.7094784293892
 31
0.0
 11
56.62169329740188
 21
291.1024159486762
 31
0.0
 11
56.80075767251296
 21
291.4793355926475
 31
0.0
 11
57.01611456503181
 21
291.8368642033057
 31
0.0
 11
57.26563028195149
 21
292.1713613007313
 31
0.0
 11
57.54665559212616
 21
292.4795785150284
 31
0.0
 11
57.69830948109051
 21
292.6230208170956
 31
0.0
 11
57.85679088504848
 21
292.7587792310338
 31
0.0
 11
58.02180463558069
 21
292.8866268366793
 31
0.0
 11
58.19296290432406
 21
293.0062398221961
 31
0.0
 11
58.55193857190216
 21
293.2195470870513
 31
0.0
 11
58.93024272751189
 21
293.3967984169221
 31
0.0
 11
59.32418511901745
 21
293.5361786070669
 31
0.0
 11
59.72980953105543
 21
293.636395012698
 31
0.0
 11
60.14306706907933
 21
293.6964883828236
 31
0.0
 11
60.56022891364136
 21
293.7160172168532
 31
0.0
 11
60.97657362658943
 21
293.6947792518352
 31
0.0
 11
61.38884978034351
 21
293.6330729940488
 31
0.0
 11
61.79211997249252
 21
293.5316650176634
 31
0.0
 11
62.18361421566072
 21
293.3913646120064
 31
0.0
 11
62.55875867286232
 21
293.2137877275891
 31
0.0
 11
62.91459123961714
 21
293.0005190651646
 31
0.0
 11
63.08414360200887
 21
292.8810952833738
 31
0.0
 11
63.24757528282063
 21
292.7535306714724
 31
0.0
 11
63.40455700918304
 21
292.6181062657486
 31
0.0
 11
63.55475151065512
 21
292.4750949586068
 31
0.0
 11
63.83331709656691
 21
292.1676886157705
 31
0.0
 11
64.08057202826521
 21
291.834326690594
 31
0.0
 11
64.29432187769514
 21
291.477496656012
 31
0.0
 11
64.47201213226634
 21
291.1014923280646
 31
0.0
 11
64.61231579399843
 21
290.7088918826827
 31
0.0
 11
64.71356851226506
 21
290.3043188066547
 31
0.0
 11
64.7748735987319
 21
289.8908944570741
 31
0.0
 11
64.7953098691
 21
289.4738868026
 31
0.0
  0
SPLINE
  5
F1
330
1F
100
AcDbEntity
  8
VERERBUNG
  6
Continuous
 62
     7
100
AcDbSpline
210
0.0
220
0.0
230
1.0
 70
     8
 71
     3
 72
    43
 73
    39
 74
    37
 42
0.0000000001
 43
0.0000000001
 44
0.00000001
 40
0.0
 40
0.0
 40
0.0
 40
0.0
 40
0.4175035109935785
 40
0.8354555648601684
 40
1.252511183714977
 40
1.669422664481761
 40
2.085295425774253
 40
2.501251326596571
 40
2.91629809410221
 40
3.33113875776965
 40
3.538526233014208
 40
3.745847790977591
 40
3.953170095129196
 40
4.160558348218164
 40
4.575407544433293
 40
4.990456744656931
 40
5.406332394439392
 40
5.822158816069551
 40
6.239027280506743
 40
6.655913113552593
 40
7.073532178544497
 40
7.491136194359028
 40
7.908956414467787
 40
8.326828662539608
 40
8.744600199940754
 40
9.162169349343971
 40
9.370981458390903
 40
9.579726706181741
 40
9.788406630766584
 40
9.997153926531896
 40
10.41425933415498
 40
10.83156890849799
 40
11.24894510861067
 40
11.66624011608309
 40
12.08375102635448
 40
12.50139861942057
 40
12.91943544785971
 40
13.33702799564529
 40
13.33702799564529
 40
13.33702799564529
 40
13.33702799564529
 10
64.7953098691
 20
289.4738868026
 30
0.0
 10
64.79140528957707
 20
289.3346605956802
 30
0.0
 10
64.78359193566513
 20
289.05605860484
 30
0.0
 10
64.7198023412525
 20
288.6424213217175
 30
0.0
 10
64.61896567645368
 20
288.2369558055822
 30
0.0
 10
64.47843979963585
 20
287.8439835505647
 30
0.0
 10
64.30032775117674
 20
287.4670512323921
 30
0.0
 10
64.08641422047201
 20
287.1099050459829
 30
0.0
 10
63.83861207734665
 20
286.7758501847009
 30
0.0
 10
63.60606400692572
 20
286.5191616603831
 30
0.0
 10
63.40573149596078
 20
286.3284281569868
 30
0.0
 10
63.24866282920051
 20
286.1929418267854
 30
0.0
 10
63.08514445317669
 20
286.0653137180827
 30
0.0
 10
62.85900018860756
 20
285.9060243465687
 30
0.0
 10
62.56188811097384
 20
285.7279976100992
 30
0.0
 10
62.18598758502461
 20
285.5500206763327
 30
0.0
 10
61.79412197670005
 20
285.4096324107251
 30
0.0
 10
61.38985880884491
 20
285.3079652793541
 30
0.0
 10
60.97725770531473
 20
285.24625140416
 30
0.0
 10
60.56001445889434
 20
285.2249407049686
 30
0.0
 10
60.14243869657672
 20
285.2445217930539
 30
0.0
 10
59.72844244267638
 20
285.3046905887955
 30
0.0
 10
59.32223036517637
 20
285.4050718205359
 30
0.0
 10
58.92768793590439
 20
285.5446229334016
 30
0.0
 10
58.54883089761158
 20
285.7221561540275
 30
0.0
 10
58.24906796651939
 20
285.9002187161191
 30
0.0
 10
58.02081836904205
 20
286.0597400415351
 30
0.0
 10
57.85573920453601
 20
286.1876461916942
 30
0.0
 10
57.69715953181709
 20
286.3234938978291
 30
0.0
 10
57.49499362262146
 20
286.514709796986
 30
0.0
 10
57.26031271863386
 20
286.772119883169
 30
0.0
 10
57.01037775692673
 20
287.10707060587
 30
0.0
 10
56.7947222022589
 20
287.4651643873625
 30
0.0
 10
56.61535174047343
 20
287.8427785960887
 30
0.0
 10
56.47387907419125
 20
288.2363434900184
 30
0.0
 10
56.37245875504859
 20
288.6421111184185
 30
0.0
 10
56.30840678531362
 20
289.0559737069614
 30
0.0
 10
56.30050916112293
 20
289.3346318222831
 30
0.0
 10
56.2965624485
 20
289.4738868026
 30
0.0
 11
64.7953098691
 21
289.4738868026
 31
0.0
 11
64.77492148652836
 21
289.0568814122894
 31
0.0
 11
64.71356094380177
 21
288.6434581387215
 31
0.0
 11
64.61230308290689
 21
288.2388815269094
 31
0.0
 11
64.47202015226777
 21
287.8462800977647
 31
0.0
 11
64.29432538738037
 21
287.470281794422
 31
0.0
 11
64.08056518967545
 21
287.1134542600219
 31
0.0
 11
63.83332188139012
 21
286.7800857466241
 31
0.0
 11
63.55476890367456
 21
286.4726755730159
 31
0.0
 11
63.40457333777379
 21
286.3296690806037
 31
0.0
 11
63.24758821728943
 21
286.1942515767761
 31
0.0
 11
63.08415334174866
 21
286.0666914762129
 31
0.0
 11
62.91460004849639
 21
285.9472696680428
 31
0.0
 11
62.55877079487303
 21
285.733996608642
 31
0.0
 11
62.18363120972085
 21
285.5564124588478
 31
0.0
 11
61.79213691882057
 21
285.4161100131298
 31
0.0
 11
61.38886497269264
 21
285.3147031573855
 31
0.0
 11
60.97658883076853
 21
285.2529965982334
 31
0.0
 11
60.5602444250578
 21
285.2317566917432
 31
0.0
 11
60.14308211383523
 21
285.2512833284263
 31
0.0
 11
59.72982433326153
 21
285.3113759304645
 31
0.0
 11
59.32420109209559
 21
285.4115933069906
 31
0.0
 11
58.93025844832479
 21
285.5509719607632
 31
0.0
 11
58.55195001085715
 21
285.7282169426479
 31
0.0
 11
58.19297122408582
 21
285.9415200724457
 31
0.0
 11
58.02181368367714
 21
286.0611344246191
 31
0.0
 11
57.85680266440518
 21
286.188985674101
 31
0.0
 11
57.69832434966285
 21
286.3247499355293
 31
0.0
 11
57.54667158813044
 21
286.4681963485515
 31
0.0
 11
57.26563557592095
 21
286.7764100421308
 31
0.0
 11
57.01610990902006
 21
287.110901032138
 31
0.0
 11
56.80076184234989
 21
287.4684315939113
 31
0.0
 11
56.62170094193908
 21
287.8453564102945
 31
0.0
 11
56.48057923908853
 21
288.2382940964232
 31
0.0
 11
56.37871485340957
 21
288.6433288590352
 31
0.0
 11
56.31709568078942
 21
289.0567993749091
 31
0.0
 11
56.2965624485
 21
289.4738868026
 31
0.0
  0
SPLINE
  5
F2
330
1F
100
AcDbEntity
  8
VERERBUNG
  6
Continuous
 62
     7
100
AcDbSpline
210
0.0
220
0.0
230
1.0
 70
     8
 71
     3
 72
    23
 73
    19
 74
    17
 42
0.0000000001
 43
0.0000000001
 44
0.00000001
 40
0.0
 40
0.0
 40
0.0
 40
0.0
 40
0.0621269684810862
 40
0.1242824031208947
 40
0.1813135303221781
 40
0.2383411404267618
 40
0.290393896300168
 40
0.3423956884484841
 40
0.3914747075268266
 40
0.4404962287768859
 40
0.4905855734899778
 40
0.5407628276272419
 40
0.5956736074604901
 40
0.650619381295227
 40
0.7116314425592669
 40
0.7726461253039034
 40
0.8391602986759338
 40
0.9056490031518695
 40
0.9056490031518695
 40
0.9056490031518695
 40
0.9056490031518695
 10
38.1226378358
 20
280.3260971223
 30
0.0
 10
38.10383093905487
 20
280.3174078691851
 30
0.0
 10
38.06620852837114
 20
280.3000253815982
 30
0.0
 10
38.00916260379833
 20
280.2797840015157
 30
0.0
 10
37.9522962469685
 20
280.2647764351568
 30
0.0
 10
37.89740540937871
 20
280.2565192102976
 30
0.0
 10
37.84357295572739
 20
280.2552404995706
 30
0.0
 10
37.79269112167275
 20
280.261745525433
 30
0.0
 10
37.7447335369837
 20
280.2769072589816
 30
0.0
 10
37.70084994246781
 20
280.3002691713775
 30
0.0
 10
37.66234764853347
 20
280.3323065590487
 30
0.0
 10
37.62896003717098
 20
280.3721278217957
 30
0.0
 10
37.60186892801107
 20
280.4183528912442
 30
0.0
 10
37.58023925092685
 20
280.4711919170803
 30
0.0
 10
37.56426493813903
 20
280.528106747152
 30
0.0
 10
37.55336911069756
 20
280.5900702182833
 30
0.0
 10
37.54698205132625
 20
280.654508132044
 30
0.0
 10
37.54628474513272
 20
280.698851328327
 30
0.0
 10
37.5459361588
 20
280.7210186808
 30
0.0
 11
38.1226378358
 21
280.3260971223
 31
0.0
 11
38.06584730336597
 21
280.3009059405391
 31
0.0
 11
38.00728827398971
 21
280.2800699588302
 31
0.0
 11
37.9520745613158
 21
280.2657872629148
 31
0.0
 11
37.89564978269304
 21
280.257517276723
 31
0.0
 11
37.84360596054276
 21
280.256552927198
 31
0.0
 11
37.79206164613237
 21
280.2634355167252
 31
0.0
 11
37.74528895233161
 21
280.2783037791762
 31
0.0
 11
37.70209298461483
 21
280.3014817410944
 31
0.0
 11
37.66343999749752
 21
280.3333390642823
 31
0.0
 11
37.63107756769183
 21
280.3716852501399
 31
0.0
 11
37.60304674300372
 21
280.4189024780255
 31
0.0
 11
37.58195283465655
 21
280.4696379202029
 31
0.0
 11
37.56525580986357
 21
280.5283208051247
 31
0.0
 11
37.55441293389113
 21
280.5883643189383
 31
0.0
 11
37.54790185273293
 21
280.6545590398873
 31
0.0
 11
37.5459361588
 21
280.7210186808
 31
0.0
  0
SPLINE
  5
F3
330
1F
100
AcDbEntity
  8
0
  6
Continuous
 62
     7
100
AcDbSpline
210
0.0
220
0.0
230
1.0
 70
     8
 71
     3
 72
    17
 73
    13
 74
    11
 42
0.0000000001
 43
0.0000000001
 44
0.00000001
 40
0.0
 40
0.0
 40
0.0
 40
0.0
 40
0.0680277950559475
 40
0.1360632351357487
 40
0.2040812640856887
 40
0.2721696697298652
 40
0.3403702855787037
 40
0.4083585485946644
 40
0.4424627524260049
 40
0.4765773021299745
 40
0.5107086426922958
 40
0.5447868110268796
 40
0.5447868110268796
 40
0.5447868110268796
 40
0.5447868110268796
 10
86.2550492683
 20
297.4913868026
 30
0.0
 10
86.26745789081733
 20
297.4724014357378
 30
0.0
 10
86.29227653034394
 20
297.434428568421
 30
0.0
 10
86.33321807512445
 20
297.3800360371716
 30
0.0
 10
86.37743661176881
 20
297.3282411146849
 30
0.0
 10
86.42601671078363
 20
297.2803667112226
 30
0.0
 10
86.47934951198944
 20
297.2377862461201
 30
0.0
 10
86.52850459621042
 20
297.2088460139062
 30
0.0
 10
86.57046983396242
 20
297.1913268670281
 30
0.0
 10
86.60319423560537
 20
297.1815088959934
 30
0.0
 10
86.63682170008717
 20
297.1751278677501
 30
0.0
 10
86.65957058380481
 20
297.1743002759357
 30
0.0
 10
86.6709361588
 20
297.1738868026
 30
0.0
 11
86.2550492683
 21
297.4913868026
 31
0.0
 11
86.29289445151021
 21
297.4348578453483
 31
0.0
 11
86.33376568164826
 21
297.3804670037125
 31
0.0
 11
86.3781410667262
 21
297.3289182165161
 31
0.0
 11
86.42678262614722
 21
297.2812733880427
 31
0.0
 11
86.48034654707035
 21
297.2390569175898
 31
0.0
 11
86.53916581361
 21
297.204958562913
 31
0.0
 11
86.57066495131916
 21
297.1918856503627
 31
0.0
 11
86.60334075662726
 21
297.1820828829487
 31
0.0
 11
86.63692248420973
 21
297.1759823927096
 31
0.0
 11
86.6709361588
 21
297.1738868026
 31
0.0
  0
SPLINE
  5
F4
330
1F
100
AcDbEntity
  8
VERERBUNG
  6
Continuous
 62
     7
100
AcDbSpline
210
0.0
220
0.0
230
1.0
 70
     8
 71
     3
 72
     9
 73
     5
 74
     3
 42
0.0000000001
 43
0.0000000001
 44
0.00000001
 40
0.0
 40
0.0
 40
0.0
 40
0.0
 40
0.0773963057015782
 40
0.1547963631387987
 40
0.1547963631387987
 40
0.1547963631387987
 40
0.1547963631387987
 10
38.2176109692
 20
280.2038868026
 30
0.0
 10
38.20127323884925
 20
280.2238589359475
 30
0.0
 10
38.16859698618688
 20
280.2638041707788
 30
0.0
 10
38.1379578001254
 20
280.3053324696248
 30
0.0
 10
38.1226378358
 20
280.3260971223
 30
0.0
 11
38.2176109692
 21
280.2038868026
 31
0.0
 11
38.1691070201125
 21
280.2641989494625
 31
0.0
 11
38.1226378358
 21
280.3260971223
 31
0.0
  0
SPLINE
  5
F5
330
1F
100
AcDbEntity
  8
0
  6
Continuous
 62
     7
100
AcDbSpline
210
0.0
220
0.0
230
1.0
 70
     8
 71
     3
 72
    17
 73
    13
 74
    11
 42
0.0000000001
 43
0.0000000001
 44
0.00000001
 40
0.0
 40
0.0
 40
0.0
 40
0.0
 40
0.0340790970019758
 40
0.0682097420878504
 40
0.1023154065976939
 40
0.1364128755343075
 40
0.2043992839281195
 40
0.2725935679722475
 40
0.3406803506862037
 40
0.4086986202865158
 40
0.4767464407015307
 40
0.5447862542474016
 40
0.5447862542474016
 40
0.5447862542474016
 40
0.5447862542474016
 10
86.6709361588
 20
281.7738868026
 30
0.0
 10
86.6595702684028
 20
281.7734755349189
 30
0.0
 10
86.63682129554866
 20
281.7726523774729
 30
0.0
 10
86.60319393176863
 20
281.7662844933567
 30
0.0
 10
86.57047745728363
 20
281.7564564639151
 30
0.0
 10
86.52852649110464
 20
281.7389192297069
 30
0.0
 10
86.47937665125875
 20
281.7099833813931
 30
0.0
 10
86.42603541622434
 20
281.6674184825573
 30
0.0
 10
86.37745148491284
 20
281.6195512034883
 30
0.0
 10
86.33322858080996
 20
281.5677550920175
 30
0.0
 10
86.29228258838114
 20
281.5133555739654
 30
0.0
 10
86.26745988816988
 20
281.4753756481913
 30
0.0
 10
86.2550492683
 20
281.4563868026
 30
0.0
 11
86.6709361588
 21
281.7738868026
 31
0.0
 11
86.63692108866614
 21
281.7717987757183
 31
0.0
 11
86.60333868563346
 21
281.7657058995068
 31
0.0
 11
86.57067386569187
 21
281.7558974393911
 31
0.0
 11
86.53918625112775
 21
281.7428143389579
 31
0.0
 11
86.48037038429841
 21
281.7087138179149
 31
0.0
 11
86.42680334422698
 21
281.6665115360539
 31
0.0
 11
86.37815696754826
 21
281.6188739456828
 31
0.0
 11
86.3337791837245
 21
281.5673269059781
 31
0.0
 11
86.29290056621421
 21
281.5129261293873
 31
0.0
 11
86.2550492683
 21
281.4563868026
 31
0.0
  0
SPLINE
  5
F6
330
1F
100
AcDbEntity
  8
VERERBUNG
  6
Continuous
 62
     7
100
AcDbSpline
210
0.0
220
0.0
230
1.0
 70
     8
 71
     3
 72
    23
 73
    19
 74
    17
 42
0.0000000001
 43
0.0000000001
 44
0.00000001
 40
0.0
 40
0.0
 40
0.0
 40
0.0
 40
0.0664886891184482
 40
0.133002850640295
 40
0.1940175413935964
 40
0.2550295991517568
 40
0.3099753629838217
 40
0.3648861556103339
 40
0.4150633581500927
 40
0.4651526182236124
 40
0.5141740379683518
 40
0.5632529905944779
 40
0.6152549116618165
 40
0.6673077698859226
 40
0.7243355356869801
 40
0.7813668340831641
 40
0.8435221576420843
 40
0.905649009891089
 40
0.905649009891089
 40
0.905649009891089
 40
0.905649009891089
 10
37.5459361588
 20
298.2267549243
 30
0.0
 10
37.5462847461546
 20
298.248922271654
 30
0.0
 10
37.54698205441068
 20
298.2932654588682
 30
0.0
 10
37.553369113519
 20
298.3577033657466
 30
0.0
 10
37.56426491680182
 20
298.419666838209
 30
0.0
 10
37.58023922439867
 20
298.4765816698404
 30
0.0
 10
37.60186895142395
 20
298.5294206765786
 30
0.0
 10
37.62896006058613
 20
298.5756457198966
 30
0.0
 10
37.6623475431014
 20
298.6154670290593
 30
0.0
 10
37.70084971675432
 20
298.6475044516622
 30
0.0
 10
37.74473328443683
 20
298.6708662528334
 30
0.0
 10
37.79269087332993
 20
298.6860279009177
 30
0.0
 10
37.8435727430153
 20
298.6925330277169
 30
0.0
 10
37.89740533251067
 20
298.6912544363905
 30
0.0
 10
37.95229631681045
 20
298.6829971927983
 30
0.0
 10
38.00916273070838
 20
298.6679895608235
 30
0.0
 10
38.06620863153823
 20
298.6477481736562
 30
0.0
 10
38.10383097396374
 20
298.6303657190597
 30
0.0
 10
38.1226378358
 20
298.6216764828
 30
0.0
 11
37.5459361588
 21
298.2267549243
 31
0.0
 11
37.5479018550739
 21
298.2932145497793
 31
0.0
 11
37.55441293135482
 21
298.3594092593007
 31
0.0
 11
37.56525579244612
 21
298.4194527839397
 31
0.0
 11
37.58195281880696
 21
298.4781356647704
 31
0.0
 11
37.60304675645654
 21
298.5288710839322
 31
0.0
 11
37.63107758295654
 21
298.5760883256199
 31
0.0
 11
37.66343990500138
 21
298.6144345349056
 31
0.0
 11
37.7020927795695
 21
298.6462918615721
 31
0.0
 11
37.74528868278751
 21
298.66946972901
 31
0.0
 11
37.79206132840658
 21
298.6843379236775
 31
0.0
 11
37.84360576110101
 21
298.6912206014197
 31
0.0
 11
37.89564968737217
 21
298.6902563464841
 31
0.0
 11
37.95207462259345
 21
298.6819863550975
 31
0.0
 11
38.00728849217725
 21
298.6677035821756
 31
0.0
 11
38.06584740998079
 21
298.6468676182576
 31
0.0
 11
38.1226378358
 21
298.6216764828
 31
0.0
  0
SPLINE
  5
F7
330
1F
100
AcDbEntity
  8
0
  6
Continuous
 62
     7
100
AcDbSpline
210
0.0
220
0.0
230
1.0
 70
     8
 71
     3
 72
    17
 73
    13
 74
    11
 42
0.0000000001
 43
0.0000000001
 44
0.00000001
 40
0.0
 40
0.0
 40
0.0
 40
0.0
 40
0.0340781916099071
 40
0.0682095735128699
 40
0.102324384426866
 40
0.136428824507539
 40
0.2044171800866862
 40
0.27261794632978
 40
0.3407061059871065
 40
0.4087238601722336
 40
0.4767591626112962
 40
0.5447868280565047
 40
0.5447868280565047
 40
0.5447868280565047
 40
0.5447868280565047
 10
88.4209361588
 20
297.1738868026
 30
0.0
 10
88.43230174149028
 20
297.1743002996502
 30
0.0
 10
88.45505064662302
 20
297.1751279391498
 30
0.0
 10
88.48867818945659
 20
297.1815091175487
 30
0.0
 10
88.5214027934869
 20
297.1913270138735
 30
0.0
 10
88.56336829964978
 20
297.2088460429536
 30
0.0
 10
88.61252348399763
 20
297.2377864638271
 30
0.0
 10
88.66585609255958
 20
297.2803671608342
 30
0.0
 10
88.71443604527771
 20
297.3282415268242
 30
0.0
 10
88.7586544533172
 20
297.3800362707283
 30
0.0
 10
88.79959586985731
 20
297.4344286727824
 30
0.0
 10
88.82441445382804
 20
297.4724014697779
 30
0.0
 10
88.8368230493
 20
297.4913868026
 30
0.0
 11
88.4209361588
 21
297.1738868026
 31
0.0
 11
88.45494985169465
 21
297.1759824741082
 31
0.0
 11
88.4885316062936
 21
297.1820830469224
 31
0.0
 11
88.52120768835213
 21
297.1918858008723
 31
0.0
 11
88.55270709281312
 21
297.2049586870043
 31
0.0
 11
88.61152640712888
 21
297.2390571438283
 31
0.0
 11
88.6650902988379
 21
297.2812738943088
 31
0.0
 11
88.71373161164047
 21
297.3289186230242
 31
0.0
 11
88.75810681425229
 21
297.3804672047461
 31
0.0
 11
88.79897794991825
 21
297.4348579452021
 31
0.0
 11
88.8368230493
 21
297.4913868026
 31
0.0
  0
SPLINE
  5
F8
330
1F
100
AcDbEntity
  8
0
  6
Continuous
 62
     7
100
AcDbSpline
210
0.0
220
0.0
230
1.0
 70
     8
 71
     3
 72
    17
 73
    13
 74
    11
 42
0.0000000001
 43
0.0000000001
 44
0.00000001
 40
0.0
 40
0.0
 40
0.0
 40
0.0
 40
0.0680405843175174
 40
0.1360892263218109
 40
0.2041088006590728
 40
0.2721966988394575
 40
0.3403905142609833
 40
0.4083768376179195
 40
0.4424735707016689
 40
0.4765783279269211
 40
0.5107080465795744
 40
0.5447863433023883
 40
0.5447863433023883
 40
0.5447863433023883
 40
0.5447863433023883
 10
88.8368230493
 20
281.4563868026
 30
0.0
 10
88.82441227712408
 20
281.4753758559301
 30
0.0
 10
88.79958926303016
 20
281.5133562113635
 30
0.0
 10
88.75864267167462
 20
281.5677564825901
 30
0.0
 10
88.71441926793975
 20
281.6195535865981
 30
0.0
 10
88.66583460621744
 20
281.6674211158739
 30
0.0
 10
88.61249203190124
 20
281.7099846954033
 30
0.0
 10
88.56334231142063
 20
281.7389196280925
 30
0.0
 10
88.5213924109349
 20
281.7564578330175
 30
0.0
 10
88.48867690271041
 20
281.76628628965
 30
0.0
 10
88.45505017963634
 20
281.7726529294799
 30
0.0
 10
88.43230178241691
 20
281.7734757183264
 30
0.0
 10
88.4209361588
 20
281.7738868026
 30
0.0
 11
88.8368230493
 21
281.4563868026
 31
0.0
 11
88.79897129058293
 21
281.5129267484462
 31
0.0
 11
88.75809219777008
 21
281.5673281955724
 31
0.0
 11
88.71371365136865
 21
281.6188763004097
 31
0.0
 11
88.66506612514962
 21
281.6665143111931
 31
0.0
 11
88.61149855557252
 21
281.7087151636886
 31
0.0
 11
88.55268255291557
 21
281.7428152809179
 31
0.0
 11
88.5211959108369
 21
281.7558988040517
 31
0.0
 11
88.48853208511076
 21
281.7657074203826
 31
0.0
 11
88.45495046776111
 21
281.7717994374123
 31
0.0
 11
88.4209361588
 21
281.7738868026
 31
0.0
  0
SPLINE
  5
F9
330
1F
100
AcDbEntity
  8
VERERBUNG
  6
Continuous
 62
     7
100
AcDbSpline
210
0.0
220
0.0
230
1.0
 70
     8
 71
     3
 72
    11
 73
     7
 74
     5
 42
0.0000000001
 43
0.0000000001
 44
0.00000001
 40
0.0
 40
0.0
 40
0.0
 40
0.0
 40
0.5427795452360575
 40
1.085508812848608
 40
1.337448492135668
 40
1.589025708897524
 40
1.589025708897524
 40
1.589025708897524
 40
1.589025708897524
 10
38.1226378358
 20
280.3260971223
 30
0.0
 10
38.20036817328457
 20
280.4897174793015
 30
0.0
 10
38.35582164809913
 20
280.8169430371648
 30
0.0
 10
38.47974317021311
 20
281.2475559335403
 30
0.0
 10
38.53729753569651
 20
281.5921889595912
 30
0.0
 10
38.54305800001137
 20
281.7601066941787
 30
0.0
 10
38.5459361588
 20
281.8440051227
 30
0.0
 11
38.1226378358
 21
280.3260971223
 31
0.0
 11
38.34210871053754
 21
280.822526543133
 31
0.0
 11
38.49273275367919
 21
281.3439356488752
 31
0.0
 11
38.53182503198667
 21
281.5928239687619
 31
0.0
 11
38.5459361588
 21
281.8440051227
 31
0.0
  0
SPLINE
  5
FA
330
1F
100
AcDbEntity
  8
VERERBUNG
  6
Continuous
 62
     7
100
AcDbSpline
210
0.0
220
0.0
230
1.0
 70
     8
 71
     3
 72
    11
 73
     7
 74
     5
 42
0.0000000001
 43
0.0000000001
 44
0.00000001
 40
0.0
 40
0.0
 40
0.0
 40
0.0
 40
0.489100209743231
 40
0.9783817007601067
 40
1.283670603128883
 40
1.588797103076623
 40
1.588797103076623
 40
1.588797103076623
 40
1.588797103076623
 10
38.5459361588
 20
297.1037684824
 30
0.0
 10
38.53516540117842
 20
297.2669216757317
 30
0.0
 10
38.51361989383587
 20
297.5932885338856
 30
0.0
 10
38.3901063638304
 20
298.0059074364058
 30
0.0
 10
38.25732596041566
 20
298.3476226407631
 30
0.0
 10
38.16752591350226
 20
298.5303414063703
 30
0.0
 10
38.1226378358
 20
298.6216764828
 30
0.0
 11
38.5459361588
 21
297.1037684824
 31
0.0
 11
38.4954822548537
 21
297.5902594060024
 31
0.0
 11
38.36501402123015
 21
298.0618253265976
 31
0.0
 11
38.25328000348953
 21
298.3459323894966
 31
0.0
 11
38.1226378358
 21
298.6216764828
 31
0.0
  0
DIMENSION
  5
105
330
1F
100
AcDbEntity
  8
1
100
AcDbDimension
  2
*D2
 10
202.531931003607
 20
304.4738868026
 30
0.0
 11
198.781931003607
 21
289.322686436886
 31
0.0
 70
    32
  1
<>
 71
     5
 42
-1.0
 53
90.0
  3
ME10_DIM_10
100
AcDbAlignedDimension
 13
184.1317225964
 23
274.4738868026
 33
0.0
 14
184.1317225964
 24
304.4738868026
 34
0.0
 50
90.0
100
AcDbRotatedDimension
  0
DIMENSION
  5
110
330
1F
100
AcDbEntity
  8
1
100
AcDbDimension
  2
*D3
 10
189.5459361588
 20
329.205092584793
 30
0.0
 11
143.285398398036
 21
332.955092584793
 31
0.0
 70
    32
  1
<>
 71
     5
 42
-1.0
 53
0.00013888888889
  3
ME10_DIM_11
100
AcDbAlignedDimension
 13
95.5459361588
 23
320.973837897
 33
0.0
 14
189.5459361588
 24
299.0596732402
 34
0.0
100
AcDbRotatedDimension
  0
DIMENSION
  5
11B
330
1F
100
AcDbEntity
  8
1
100
AcDbDimension
  2
*D4
 10
189.5459361588
 20
336.642968972505
 30
0.0
 11
129.307320359059
 21
340.392968972505
 31
0.0
 70
    32
  1
<>
 71
     5
 42
-1.0
 53
0.00013888888889
  3
ME10_DIM_12
100
AcDbAlignedDimension
 13
69.5459361588
 23
320.9738868026
 33
0.0
 14
189.5459361588
 24
299.0596732402
 34
0.0
100
AcDbRotatedDimension
  0
DIMENSION
  5
126
330
1F
100
AcDbEntity
  8
1
100
AcDbDimension
  2
*D5
 10
189.5459361588
 20
343.82436686409
 30
0.0
 11
116.86811329685
 21
347.57436686409
 31
0.0
 70
    32
  1
<>
 71
     5
 42
-1.0
 53
0.00013888888889
  3
ME10_DIM_13
100
AcDbAlignedDimension
 13
37.5459361588
 23
311.0499139827
 33
0.0
 14
189.5459361588
 24
299.0596732402
 34
0.0
100
AcDbRotatedDimension
  0
INSERT
  5
12D
330
1F
100
AcDbEntity
  8
1
100
AcDbBlockReference
  2
*D6
 10
0.0
 20
0.0
 30
0.0
  0
ENDSEC
  0
SECTION
  2
OBJECTS
  0
DICTIONARY
  5
C
330
0
100
AcDbDictionary
281
     1
  3
ACAD_GROUP
350
D
  3
ACAD_LAYOUT
350
1A
  3
ACAD_MLEADERSTYLE
350
130
  3
ACAD_MLINESTYLE
350
17
  3
ACAD_PLOTSETTINGS
350
19
  3
ACAD_PLOTSTYLENAME
350
E
  3
ACAD_SCALELIST
350
4A
  3
ACAD_VISUALSTYLE
350
2A
  3
AcDbVariableDictionary
350
12E
  0
DICTIONARY
  5
D
102
{ACAD_REACTORS
330
C
102
}
330
C
100
AcDbDictionary
281
     1
  0
DICTIONARY
  5
1A
102
{ACAD_REACTORS
330
C
102
}
330
C
100
AcDbDictionary
281
     1
  3
Layout1
350
1E
  3
Layout2
350
26
  3
Model
350
22
  0
DICTIONARY
  5
130
102
{ACAD_REACTORS
330
C
102
}
330
C
100
AcDbDictionary
281
     1
  0
DICTIONARY
  5
17
102
{ACAD_REACTORS
330
C
102
}
330
C
100
AcDbDictionary
281
     1
  3
Standard
350
18
  0
DICTIONARY
  5
19
102
{ACAD_REACTORS
330
C
102
}
330
C
100
AcDbDictionary
281
     1
  0
ACDBDICTIONARYWDFLT
  5
E
102
{ACAD_REACTORS
330
C
102
}
330
C
100
AcDbDictionary
281
     1
  3
Normal
350
F
100
AcDbDictionaryWithDefault
340
F
  0
DICTIONARY
  5
4A
102
{ACAD_REACTORS
330
C
102
}
330
C
100
AcDbDictionary
281
     1
  3
A0
350
4B
  3
A1
350
4C
  3
A2
350
4D
  3
A3
350
4E
  3
A4
350
4F
  3
A5
350
50
  3
A6
350
51
  3
A7
350
52
  3
A8
350
53
  3
A9
350
54
  3
B0
350
55
  3
B1
350
56
  3
B2
350
57
  3
B3
350
58
  3
B4
350
59
  3
B5
350
5A
  3
B6
350
5B
  3
B7
350
5C
  3
B8
350
5D
  3
B9
350
5E
  3
C0
350
5F
  3
C1
350
60
  3
C2
350
61
  3
C3
350
62
  3
C4
350
63
  3
C5
350
64
  3
C6
350
65
  3
C7
350
66
  3
C8
350
67
  3
C9
350
68
  3
D0
350
69
  3
D1
350
6A
  3
D2
350
6B
  0
DICTIONARY
  5
2A
102
{ACAD_REACTORS
330
C
102
}
330
C
100
AcDbDictionary
281
     1
  3
2dWireframe
350
2F
  3
3D Hidden
350
31
  3
3dWireframe
350
30
  3
Basic
350
32
  3
Brighten
350
36
  3
ColorChange
350
3A
  3
Conceptual
350
34
  3
Dim
350
35
  3
Facepattern
350
39
  3
Flat
350
2B
  3
FlatWithEdges
350
2C
  3
Gouraud
350
2D
  3
GouraudWithEdges
350
2E
  3
Linepattern
350
38
  3
Realistic
350
33
  3
Thicken
350
37
  0
DICTIONARY
  5
12E
102
{ACAD_REACTORS
330
C
102
}
330
C
100
AcDbDictionary
281
     1
  3
CANNOSCALE
350
131
  0
LAYOUT
  5
1E
102
{ACAD_REACTORS
330
1A
102
}
330
1A
100
AcDbPlotSettings
  1

  2
none_device
  4

  6

 40
0.0
 41
0.0
 42
0.0
 43
0.0
 44
0.0
 45
0.0
 46
0.0
 47
0.0
 48
0.0
 49
0.0
140
0.0
141
0.0
142
1.0
143
1.0
 70
   688
 72
     0
 73
     0
 74
     5
  7

 75
    16
147
1.0
148
0.0
149
0.0
100
AcDbLayout
  1
Layout1
 70
     1
 71
     1
 10
0.0
 20
0.0
 11
12.0
 21
9.0
 12
0.0
 22
0.0
 32
0.0
 14
1.00000000000000E+20
 24
1.00000000000000E+20
 34
1.00000000000000E+20
 15
-1.00000000000000E+20
 25
-1.00000000000000E+20
 35
-1.00000000000000E+20
146
0.0
 13
0.0
 23
0.0
 33
0.0
 16
1.0
 26
0.0
 36
0.0
 17
0.0
 27
1.0
 37
0.0
 76
     0
330
1B
  0
LAYOUT
  5
26
102
{ACAD_REACTORS
330
1A
102
}
330
1A
100
AcDbPlotSettings
  1

  2
none_device
  4

  6

 40
0.0
 41
0.0
 42
0.0
 43
0.0
 44
0.0
 45
0.0
 46
0.0
 47
0.0
 48
0.0
 49
0.0
140
0.0
141
0.0
142
1.0
143
1.0
 70
   688
 72
     0
 73
     0
 74
     5
  7

 75
    16
147
1.0
148
0.0
149
0.0
100
AcDbLayout
  1
Layout2
 70
     1
 71
     2
 10
0.0
 20
0.0
 11
0.0
 21
0.0
 12
0.0
 22
0.0
 32
0.0
 14
0.0
 24
0.0
 34
0.0
 15
0.0
 25
0.0
 35
0.0
146
0.0
 13
0.0
 23
0.0
 33
0.0
 16
1.0
 26
0.0
 36
0.0
 17
0.0
 27
1.0
 37
0.0
 76
     0
330
23
  0
LAYOUT
  5
22
102
{ACAD_REACTORS
330
1A
102
}
330
1A
100
AcDbPlotSettings
  1

  2
none_device
  4

  6

 40
0.0
 41
0.0
 42
0.0
 43
0.0
 44
0.0
 45
0.0
 46
0.0
 47
0.0
 48
0.0
 49
0.0
140
0.0
141
0.0
142
1.0
143
1.0
 70
  1712
 72
     0
 73
     0
 74
     0
  7

 75
     0
147
1.0
148
0.0
149
0.0
100
AcDbLayout
  1
Model
 70
     1
 71
     0
 10
0.0
 20
0.0
 11
12.0
 21
9.0
 12
0.0
 22
0.0
 32
0.0
 14
15.6654246133253
 24
250.8585550004768
 34
0.0
 15
204.531931003607
 25
359.627941917783
 35
0.0
146
0.0
 13
0.0
 23
0.0
 33
0.0
 16
1.0
 26
0.0
 36
0.0
 17
0.0
 27
1.0
 37
0.0
 76
     0
330
1F
331
29
  0
MLINESTYLE
  5
18
102
{ACAD_REACTORS
330
17
102
}
330
17
100
AcDbMlineStyle
  2
Standard
 70
     0
  3

 62
   256
 51
90.0
 52
90.0
 71
     2
 49
0.5
 62
   256
  6
BYLAYER
 49
-0.5
 62
   256
  6
BYLAYER
  0
ACDBPLACEHOLDER
  5
F
102
{ACAD_REACTORS
330
E
102
}
330
E
  0
SCALE
  5
4B
102
{ACAD_REACTORS
330
4A
102
}
330
4A
100
AcDbScale
 70
     0
300
1:1
140
1.0
141
1.0
290
     1
  0
SCALE
  5
4C
102
{ACAD_REACTORS
330
4A
102
}
330
4A
100
AcDbScale
 70
     0
300
1:2
140
1.0
141
2.0
290
     0
  0
SCALE
  5
4D
102
{ACAD_REACTORS
330
4A
102
}
330
4A
100
AcDbScale
 70
     0
300
1:4
140
1.0
141
4.0
290
     0
  0
SCALE
  5
4E
102
{ACAD_REACTORS
330
4A
102
}
330
4A
100
AcDbScale
 70
     0
300
1:5
140
1.0
141
5.0
290
     0
  0
SCALE
  5
4F
102
{ACAD_REACTORS
330
4A
102
}
330
4A
100
AcDbScale
 70
     0
300
1:8
140
1.0
141
8.0
290
     0
  0
SCALE
  5
50
102
{ACAD_REACTORS
330
4A
102
}
330
4A
100
AcDbScale
 70
     0
300
1:10
140
1.0
141
10.0
290
     0
  0
SCALE
  5
51
102
{ACAD_REACTORS
330
4A
102
}
330
4A
100
AcDbScale
 70
     0
300
1:16
140
1.0
141
16.0
290
     0
  0
SCALE
  5
52
102
{ACAD_REACTORS
330
4A
102
}
330
4A
100
AcDbScale
 70
     0
300
1:20
140
1.0
141
20.0
290
     0
  0
SCALE
  5
53
102
{ACAD_REACTORS
330
4A
102
}
330
4A
100
AcDbScale
 70
     0
300
1:30
140
1.0
141
30.0
290
     0
  0
SCALE
  5
54
102
{ACAD_REACTORS
330
4A
102
}
330
4A
100
AcDbScale
 70
     0
300
1:40
140
1.0
141
40.0
290
     0
  0
SCALE
  5
55
102
{ACAD_REACTORS
330
4A
102
}
330
4A
100
AcDbScale
 70
     0
300
1:50
140
1.0
141
50.0
290
     0
  0
SCALE
  5
56
102
{ACAD_REACTORS
330
4A
102
}
330
4A
100
AcDbScale
 70
     0
300
1:100
140
1.0
141
100.0
290
     0
  0
SCALE
  5
57
102
{ACAD_REACTORS
330
4A
102
}
330
4A
100
AcDbScale
 70
     0
300
2:1
140
2.0
141
1.0
290
     0
  0
SCALE
  5
58
102
{ACAD_REACTORS
330
4A
102
}
330
4A
100
AcDbScale
 70
     0
300
4:1
140
4.0
141
1.0
290
     0
  0
SCALE
  5
59
102
{ACAD_REACTORS
330
4A
102
}
330
4A
100
AcDbScale
 70
     0
300
8:1
140
8.0
141
1.0
290
     0
  0
SCALE
  5
5A
102
{ACAD_REACTORS
330
4A
102
}
330
4A
100
AcDbScale
 70
     0
300
10:1
140
10.0
141
1.0
290
     0
  0
SCALE
  5
5B
102
{ACAD_REACTORS
330
4A
102
}
330
4A
100
AcDbScale
 70
     0
300
100:1
140
100.0
141
1.0
290
     0
  0
SCALE
  5
5C
102
{ACAD_REACTORS
330
4A
102
}
330
4A
100
AcDbScale
 70
     0
300
1/128" = 1'-0"
140
0.0078125
141
12.0
290
     0
  0
SCALE
  5
5D
102
{ACAD_REACTORS
330
4A
102
}
330
4A
100
AcDbScale
 70
     0
300
1/64" = 1'-0"
140
0.015625
141
12.0
290
     0
  0
SCALE
  5
5E
102
{ACAD_REACTORS
330
4A
102
}
330
4A
100
AcDbScale
 70
     0
300
1/32" = 1'-0"
140
0.03125
141
12.0
290
     0
  0
SCALE
  5
5F
102
{ACAD_REACTORS
330
4A
102
}
330
4A
100
AcDbScale
 70
     0
300
1/16" = 1'-0"
140
0.0625
141
12.0
290
     0
  0
SCALE
  5
60
102
{ACAD_REACTORS
330
4A
102
}
330
4A
100
AcDbScale
 70
     0
300
3/32" = 1'-0"
140
0.09375
141
12.0
290
     0
  0
SCALE
  5
61
102
{ACAD_REACTORS
330
4A
102
}
330
4A
100
AcDbScale
 70
     0
300
1/8" = 1'-0"
140
0.125
141
12.0
290
     0
  0
SCALE
  5
62
102
{ACAD_REACTORS
330
4A
102
}
330
4A
100
AcDbScale
 70
     0
300
3/16" = 1'-0"
140
0.1875
141
12.0
290
     0
  0
SCALE
  5
63
102
{ACAD_REACTORS
330
4A
102
}
330
4A
100
AcDbScale
 70
     0
300
1/4" = 1'-0"
140
0.25
141
12.0
290
     0
  0
SCALE
  5
64
102
{ACAD_REACTORS
330
4A
102
}
330
4A
100
AcDbScale
 70
     0
300
3/8" = 1'-0"
140
0.375
141
12.0
290
     0
  0
SCALE
  5
65
102
{ACAD_REACTORS
330
4A
102
}
330
4A
100
AcDbScale
 70
     0
300
1/2" = 1'-0"
140
0.5
141
12.0
290
     0
  0
SCALE
  5
66
102
{ACAD_REACTORS
330
4A
102
}
330
4A
100
AcDbScale
 70
     0
300
3/4" = 1'-0"
140
0.75
141
12.0
290
     0
  0
SCALE
  5
67
102
{ACAD_REACTORS
330
4A
102
}
330
4A
100
AcDbScale
 70
     0
300
1" = 1'-0"
140
1.0
141
12.0
290
     0
  0
SCALE
  5
68
102
{ACAD_REACTORS
330
4A
102
}
330
4A
100
AcDbScale
 70
     0
300
1-1/2" = 1'-0"
140
1.5
141
12.0
290
     0
  0
SCALE
  5
69
102
{ACAD_REACTORS
330
4A
102
}
330
4A
100
AcDbScale
 70
     0
300
3" = 1'-0"
140
3.0
141
12.0
290
     0
  0
SCALE
  5
6A
102
{ACAD_REACTORS
330
4A
102
}
330
4A
100
AcDbScale
 70
     0
300
6" = 1'-0"
140
6.0
141
12.0
290
     0
  0
SCALE
  5
6B
102
{ACAD_REACTORS
330
4A
102
}
330
4A
100
AcDbScale
 70
     0
300
1'-0" = 1'-0"
140
12.0
141
12.0
290
     0
  0
VISUALSTYLE
  5
2F
102
{ACAD_REACTORS
330
2A
102
}
330
2A
100
AcDbVisualStyle
  2
2dWireframe
 70
     4
 71
     0
 72
     2
 73
     0
 90
        0
 40
-0.6
 41
-30.0
 62
     5
 63
     7
 74
     1
 91
        4
 64
     7
 65
   257
 75
     1
175
     1
 42
1.0
 92
        0
 66
   257
 43
1.0
 76
     1
 77
     6
 78
     2
 67
     7
 79
     5
170
     0
171
     0
290
     0
174
     0
 93
        1
 44
0.0
173
     0
291
     0
 45
0.0
1001
ACAD
1000
AcDbSavedByObjectVersion
1070
     0
  0
VISUALSTYLE
  5
31
102
{ACAD_REACTORS
330
2A
102
}
330
2A
100
AcDbVisualStyle
  2
3D Hidden
 70
     6
 71
     1
 72
     2
 73
     2
 90
        0
 40
-0.6
 41
-30.0
 62
     5
 63
     7
 74
     2
 91
        2
 64
     7
 65
   257
 75
     2
175
     1
 42
40.0
 92
        0
 66
   257
 43
1.0
 76
     1
 77
     6
 78
     2
 67
     7
 79
     3
170
     0
171
     0
290
     0
174
     0
 93
        1
 44
0.0
173
     0
291
     0
 45
0.0
1001
ACAD
1000
AcDbSavedByObjectVersion
1070
     0
  0
VISUALSTYLE
  5
30
102
{ACAD_REACTORS
330
2A
102
}
330
2A
100
AcDbVisualStyle
  2
3dWireframe
 70
     5
 71
     0
 72
     2
 73
     0
 90
        0
 40
-0.6
 41
-30.0
 62
     5
 63
     7
 74
     1
 91
        4
 64
     7
 65
   257
 75
     1
175
     1
 42
1.0
 92
        0
 66
   257
 43
1.0
 76
     1
 77
     6
 78
     2
 67
     7
 79
     5
170
     0
171
     0
290
     0
174
     0
 93
        1
 44
0.0
173
     0
291
     0
 45
0.0
1001
ACAD
1000
AcDbSavedByObjectVersion
1070
     0
  0
VISUALSTYLE
  5
32
102
{ACAD_REACTORS
330
2A
102
}
330
2A
100
AcDbVisualStyle
  2
Basic
 70
     7
 71
     1
 72
     0
 73
     1
 90
        0
 40
-0.6
 41
-30.0
 62
     5
 63
     7
 74
     0
 91
        4
 64
     7
 65
   257
 75
     1
175
     1
 42
1.0
 92
        8
 66
     7
 43
1.0
 76
     1
 77
     6
 78
     2
 67
     7
 79
     5
170
     0
171
     0
290
     0
174
     0
 93
        1
 44
0.0
173
     0
291
     1
 45
0.0
1001
ACAD
1000
AcDbSavedByObjectVersion
1070
     0
  0
VISUALSTYLE
  5
36
102
{ACAD_REACTORS
330
2A
102
}
330
2A
100
AcDbVisualStyle
  2
Brighten
 70
    12
 71
     2
 72
     2
 73
     0
 90
        0
 40
-0.6
 41
-30.0
 62
     5
 63
     7
 74
     1
 91
        4
 64
     7
 65
   257
 75
     1
175
     1
 42
1.0
 92
        8
 66
     7
 43
1.0
 76
     1
 77
     6
 78
     2
 67
     7
 79
     5
170
     0
171
     0
290
     0
174
     0
 93
        1
 44
50.0
173
     0
291
     1
 45
0.0
1001
ACAD
1000
AcDbSavedByObjectVersion
1070
     0
  0
VISUALSTYLE
  5
3A
102
{ACAD_REACTORS
330
2A
102
}
330
2A
100
AcDbVisualStyle
  2
ColorChange
 70
    16
 71
     2
 72
     2
 73
     3
 90
        0
 40
-0.6
 41
-30.0
 62
     5
 63
     8
 74
     1
 91
        4
 64
     7
 65
   257
 75
     1
175
     1
 42
1.0
 92
        8
 66
     8
 43
1.0
 76
     1
 77
     6
 78
     2
 67
     7
 79
     5
170
     0
171
     0
290
     0
174
     0
 93
        1
 44
0.0
173
     0
291
     1
 45
0.0
1001
ACAD
1000
AcDbSavedByObjectVersion
1070
     0
  0
VISUALSTYLE
  5
34
102
{ACAD_REACTORS
330
2A
102
}
330
2A
100
AcDbVisualStyle
  2
Conceptual
 70
     9
 71
     3
 72
     2
 73
     0
 90
        0
 40
-0.6
 41
-30.0
 62
     5
 63
     7
 74
     2
 91
        2
 64
     7
 65
   257
 75
     1
175
     1
 42
40.0
 92
        8
 66
     7
 43
1.0
 76
     1
 77
     6
 78
     2
 67
     7
 79
     3
170
     0
171
     0
290
     0
174
     0
 93
        1
 44
0.0
173
     0
291
     0
 45
0.0
1001
ACAD
1000
AcDbSavedByObjectVersion
1070
     0
  0
VISUALSTYLE
  5
35
102
{ACAD_REACTORS
330
2A
102
}
330
2A
100
AcDbVisualStyle
  2
Dim
 70
    11
 71
     2
 72
     2
 73
     0
 90
        0
 40
-0.6
 41
-30.0
 62
     5
 63
     7
 74
     1
 91
        4
 64
     7
 65
   257
 75
     1
175
     1
 42
1.0
 92
        8
 66
     7
 43
1.0
 76
     1
 77
     6
 78
     2
 67
     7
 79
     5
170
     0
171
     0
290
     0
174
     0
 93
        1
 44
-50.0
173
     0
291
     1
 45
0.0
1001
ACAD
1000
AcDbSavedByObjectVersion
1070
     0
  0
VISUALSTYLE
  5
39
102
{ACAD_REACTORS
330
2A
102
}
330
2A
100
AcDbVisualStyle
  2
Facepattern
 70
    15
 71
     2
 72
     2
 73
     0
 90
        0
 40
-0.6
 41
-30.0
 62
     5
 63
     7
 74
     1
 91
        4
 64
     7
 65
   257
 75
     1
175
     1
 42
1.0
 92
        8
 66
     7
 43
1.0
 76
     1
 77
     6
 78
     2
 67
     7
 79
     5
170
     0
171
     0
290
     0
174
     0
 93
        1
 44
0.0
173
     0
291
     1
 45
0.0
1001
ACAD
1000
AcDbSavedByObjectVersion
1070
     0
  0
VISUALSTYLE
  5
2B
102
{ACAD_REACTORS
330
2A
102
}
330
2A
100
AcDbVisualStyle
  2
Flat
 70
     0
 71
     2
 72
     1
 73
     1
 90
        2
 40
-0.6
 41
30.0
 62
     5
 63
     7
 74
     0
 91
        4
 64
     7
 65
   257
 75
     1
175
     1
 42
1.0
 92
        8
 66
     7
 43
1.0
 76
     1
 77
     6
 78
     2
 67
     7
 79
     5
170
     0
171
     0
290
     0
174
     0
 93
       13
 44
0.0
173
     0
291
     1
 45
0.0
1001
ACAD
1000
AcDbSavedByObjectVersion
1070
     0
  0
VISUALSTYLE
  5
2C
102
{ACAD_REACTORS
330
2A
102
}
330
2A
100
AcDbVisualStyle
  2
FlatWithEdges
 70
     1
 71
     2
 72
     1
 73
     1
 90
        2
 40
-0.6
 41
30.0
 62
     5
 63
     7
 74
     1
 91
        4
 64
     7
 65
   257
 75
     1
175
     1
 42
1.0
 92
        0
 66
   257
 43
1.0
 76
     1
 77
     6
 78
     2
 67
     7
 79
     5
170
     0
171
     0
290
     0
174
     0
 93
       13
 44
0.0
173
     0
291
     1
 45
0.0
1001
ACAD
1000
AcDbSavedByObjectVersion
1070
     0
  0
VISUALSTYLE
  5
2D
102
{ACAD_REACTORS
330
2A
102
}
330
2A
100
AcDbVisualStyle
  2
Gouraud
 70
     2
 71
     2
 72
     2
 73
     1
 90
        2
 40
-0.6
 41
30.0
 62
     5
 63
     7
 74
     0
 91
        4
 64
     7
 65
   257
 75
     1
175
     1
 42
1.0
 92
        0
 66
     7
 43
1.0
 76
     1
 77
     6
 78
     2
 67
     7
 79
     5
170
     0
171
     0
290
     0
174
     0
 93
       13
 44
0.0
173
     0
291
     1
 45
0.0
1001
ACAD
1000
AcDbSavedByObjectVersion
1070
     0
  0
VISUALSTYLE
  5
2E
102
{ACAD_REACTORS
330
2A
102
}
330
2A
100
AcDbVisualStyle
  2
GouraudWithEdges
 70
     3
 71
     2
 72
     2
 73
     1
 90
        2
 40
-0.6
 41
30.0
 62
     5
 63
     7
 74
     1
 91
        4
 64
     7
 65
   257
 75
     1
175
     1
 42
1.0
 92
        0
 66
   257
 43
1.0
 76
     1
 77
     6
 78
     2
 67
     7
 79
     5
170
     0
171
     0
290
     0
174
     0
 93
       13
 44
0.0
173
     0
291
     1
 45
0.0
1001
ACAD
1000
AcDbSavedByObjectVersion
1070
     0
  0
VISUALSTYLE
  5
38
102
{ACAD_REACTORS
330
2A
102
}
330
2A
100
AcDbVisualStyle
  2
Linepattern
 70
    14
 71
     2
 72
     2
 73
     0
 90
        0
 40
-0.6
 41
-30.0
 62
     5
 63
     7
 74
     1
 91
        4
 64
     7
 65
   257
 75
     7
175
     7
 42
1.0
 92
        8
 66
     7
 43
1.0
 76
     1
 77
     6
 78
     2
 67
     7
 79
     5
170
     0
171
     0
290
     0
174
     0
 93
        1
 44
0.0
173
     0
291
     1
 45
0.0
1001
ACAD
1000
AcDbSavedByObjectVersion
1070
     0
  0
VISUALSTYLE
  5
33
102
{ACAD_REACTORS
330
2A
102
}
330
2A
100
AcDbVisualStyle
  2
Realistic
 70
     8
 71
     2
 72
     2
 73
     0
 90
        0
 40
-0.6
 41
-30.0
 62
     5
 63
     7
 74
     1
 91
        0
 64
     7
 65
   257
 75
     1
175
     1
 42
1.0
 92
        8
 66
     8
 43
1.0
 76
     1
 77
     6
 78
     2
 67
     7
 79
     5
170
     0
171
     0
290
     0
174
     0
 93
       13
 44
0.0
173
     0
291
     0
 45
0.0
1001
ACAD
1000
AcDbSavedByObjectVersion
1070
     0
  0
VISUALSTYLE
  5
37
102
{ACAD_REACTORS
330
2A
102
}
330
2A
100
AcDbVisualStyle
  2
Thicken
 70
    13
 71
     2
 72
     2
 73
     0
 90
        0
 40
-0.6
 41
-30.0
 62
     5
 63
     7
 74
     1
 91
        4
 64
     7
 65
   257
 75
     1
175
     1
 42
1.0
 92
       12
 66
     7
 43
1.0
 76
     1
 77
     6
 78
     2
 67
     7
 79
     5
170
     0
171
     0
290
     0
174
     0
 93
        1
 44
0.0
173
     0
291
     1
 45
0.0
1001
ACAD
1000
AcDbSavedByObjectVersion
1070
     0
  0
DICTIONARYVAR
  5
131
102
{ACAD_REACTORS
330
12E
102
}
330
12E
100
DictionaryVariables
280
     0
  1
1:1
  0
ENDSEC
  0
EOF
