  0
SECTION
  2
HEADER
  9
$ACADVER
  1
AC1015
  9
$ACADMAINTVER
 70
     6
  9
$DWGCODEPAGE
  3
ANSI_1252
  9
$INSBASE
 10
0.0
 20
0.0
 30
0.0
  9
$EXTMIN
 10
16.2457950676543
 20
258.8684570313
 30
0.0
  9
$EXTMAX
 10
228.689114499489
 20
385.9988980454
 30
0.0
  9
$LIMMIN
 10
0.0
 20
0.0
  9
$LIMMAX
 10
12.0
 20
9.0
  9
$ORTHOMODE
 70
     0
  9
$REGENMODE
 70
     1
  9
$FILLMODE
 70
     1
  9
$QTEXTMODE
 70
     0
  9
$MIRRTEXT
 70
     1
  9
$LTSCALE
 40
1.0
  9
$ATTMODE
 70
     1
  9
$TEXTSIZE
 40
0.2
  9
$TRACEWID
 40
0.05
  9
$TEXTSTYLE
  7
Standard
  9
$CLAYER
  8
0
  9
$CELTYPE
  6
ByLayer
  9
$CECOLOR
 62
   256
  9
$CELTSCALE
 40
1.0
  9
$DISPSILH
 70
     0
  9
$DIMSCALE
 40
1.0
  9
$DIMASZ
 40
0.18
  9
$DIMEXO
 40
0.0625
  9
$DIMDLI
 40
0.38
  9
$DIMRND
 40
0.0
  9
$DIMDLE
 40
0.0
  9
$DIMEXE
 40
0.18
  9
$DIMTP
 40
0.0
  9
$DIMTM
 40
0.0
  9
$DIMTXT
 40
0.18
  9
$DIMCEN
 40
0.09
  9
$DIMTSZ
 40
0.0
  9
$DIMTOL
 70
     0
  9
$DIMLIM
 70
     0
  9
$DIMTIH
 70
     1
  9
$DIMTOH
 70
     1
  9
$DIMSE1
 70
     0
  9
$DIMSE2
 70
     0
  9
$DIMTAD
 70
     0
  9
$DIMZIN
 70
     0
  9
$DIMBLK
  1

  9
$DIMASO
 70
     1
  9
$DIMSHO
 70
     1
  9
$DIMPOST
  1

  9
$DIMAPOST
  1

  9
$DIMALT
 70
     0
  9
$DIMALTD
 70
     2
  9
$DIMALTF
 40
25.4
  9
$DIMLFAC
 40
1.0
  9
$DIMTOFL
 70
     0
  9
$DIMTVP
 40
0.0
  9
$DIMTIX
 70
     0
  9
$DIMSOXD
 70
     0
  9
$DIMSAH
 70
     0
  9
$DIMBLK1
  1

  9
$DIMBLK2
  1

  9
$DIMSTYLE
  2
Standard
  9
$DIMCLRD
 70
     0
  9
$DIMCLRE
 70
     0
  9
$DIMCLRT
 70
     0
  9
$DIMTFAC
 40
1.0
  9
$DIMGAP
 40
0.09
  9
$DIMJUST
 70
     0
  9
$DIMSD1
 70
     0
  9
$DIMSD2
 70
     0
  9
$DIMTOLJ
 70
     1
  9
$DIMTZIN
 70
     0
  9
$DIMALTZ
 70
     0
  9
$DIMALTTZ
 70
     0
  9
$DIMUPT
 70
     0
  9
$DIMDEC
 70
     4
  9
$DIMTDEC
 70
     4
  9
$DIMALTU
 70
     2
  9
$DIMALTTD
 70
     2
  9
$DIMTXSTY
  7
Standard
  9
$DIMAUNIT
 70
     0
  9
$DIMADEC
 70
     0
  9
$DIMALTRND
 40
0.0
  9
$DIMAZIN
 70
     0
  9
$DIMDSEP
 70
    46
  9
$DIMATFIT
 70
     3
  9
$DIMFRAC
 70
     0
  9
$DIMLDRBLK
  1

  9
$DIMLUNIT
 70
     2
  9
$DIMLWD
 70
    -2
  9
$DIMLWE
 70
    -2
  9
$DIMTMOVE
 70
     0
  9
$LUNITS
 70
     2
  9
$LUPREC
 70
     4
  9
$SKETCHINC
 40
0.1
  9
$FILLETRAD
 40
0.5
  9
$AUNITS
 70
     0
  9
$AUPREC
 70
     0
  9
$MENU
  1
.
  9
$ELEVATION
 40
0.0
  9
$PELEVATION
 40
0.0
  9
$THICKNESS
 40
0.0
  9
$LIMCHECK
 70
     0
  9
$CHAMFERA
 40
0.5
  9
$CHAMFERB
 40
0.5
  9
$CHAMFERC
 40
1.0
  9
$CHAMFERD
 40
0.0
  9
$SKPOLY
 70
     0
  9
$TDCREATE
 40
2456748.728489352
  9
$TDUCREATE
 40
2456748.645156018
  9
$TDUPDATE
 40
2456748.728489364
  9
$TDUUPDATE
 40
2456748.64515603
  9
$TDINDWG
 40
0.0000000116
  9
$TDUSRTIMER
 40
0.0000000116
  9
$USRTIMER
 70
     1
  9
$ANGBASE
 50
0.0
  9
$ANGDIR
 70
     0
  9
$PDMODE
 70
     0
  9
$PDSIZE
 40
0.0
  9
$PLINEWID
 40
0.0
  9
$SPLFRAME
 70
     0
  9
$SPLINETYPE
 70
     6
  9
$SPLINESEGS
 70
     8
  9
$HANDSEED
  5
135
  9
$SURFTAB1
 70
     6
  9
$SURFTAB2
 70
     6
  9
$SURFTYPE
 70
     6
  9
$SURFU
 70
     6
  9
$SURFV
 70
     6
  9
$UCSBASE
  2

  9
$UCSNAME
  2

  9
$UCSORG
 10
0.0
 20
0.0
 30
0.0
  9
$UCSXDIR
 10
1.0
 20
0.0
 30
0.0
  9
$UCSYDIR
 10
0.0
 20
1.0
 30
0.0
  9
$UCSORTHOREF
  2

  9
$UCSORTHOVIEW
 70
     0
  9
$UCSORGTOP
 10
0.0
 20
0.0
 30
0.0
  9
$UCSORGBOTTOM
 10
0.0
 20
0.0
 30
0.0
  9
$UCSORGLEFT
 10
0.0
 20
0.0
 30
0.0
  9
$UCSORGRIGHT
 10
0.0
 20
0.0
 30
0.0
  9
$UCSORGFRONT
 10
0.0
 20
0.0
 30
0.0
  9
$UCSORGBACK
 10
0.0
 20
0.0
 30
0.0
  9
$PUCSBASE
  2

  9
$PUCSNAME
  2

  9
$PUCSORG
 10
0.0
 20
0.0
 30
0.0
  9
$PUCSXDIR
 10
1.0
 20
0.0
 30
0.0
  9
$PUCSYDIR
 10
0.0
 20
1.0
 30
0.0
  9
$PUCSORTHOREF
  2

  9
$PUCSORTHOVIEW
 70
     0
  9
$PUCSORGTOP
 10
0.0
 20
0.0
 30
0.0
  9
$PUCSORGBOTTOM
 10
0.0
 20
0.0
 30
0.0
  9
$PUCSORGLEFT
 10
0.0
 20
0.0
 30
0.0
  9
$PUCSORGRIGHT
 10
0.0
 20
0.0
 30
0.0
  9
$PUCSORGFRONT
 10
0.0
 20
0.0
 30
0.0
  9
$PUCSORGBACK
 10
0.0
 20
0.0
 30
0.0
  9
$USERI1
 70
     0
  9
$USERI2
 70
     0
  9
$USERI3
 70
     0
  9
$USERI4
 70
     0
  9
$USERI5
 70
     0
  9
$USERR1
 40
16.5
  9
$USERR2
 40
0.0
  9
$USERR3
 40
0.0
  9
$USERR4
 40
0.0
  9
$USERR5
 40
0.0
  9
$WORLDVIEW
 70
     1
  9
$SHADEDGE
 70
     3
  9
$SHADEDIF
 70
    70
  9
$TILEMODE
 70
     1
  9
$MAXACTVP
 70
    64
  9
$PINSBASE
 10
0.0
 20
0.0
 30
0.0
  9
$PLIMCHECK
 70
     0
  9
$PEXTMIN
 10
1.00000000000000E+20
 20
1.00000000000000E+20
 30
1.00000000000000E+20
  9
$PEXTMAX
 10
-1.00000000000000E+20
 20
-1.00000000000000E+20
 30
-1.00000000000000E+20
  9
$PLIMMIN
 10
0.0
 20
0.0
  9
$PLIMMAX
 10
12.0
 20
9.0
  9
$UNITMODE
 70
     0
  9
$VISRETAIN
 70
     1
  9
$PLINEGEN
 70
     0
  9
$PSLTSCALE
 70
     1
  9
$TREEDEPTH
 70
  3020
  9
$CMLSTYLE
  2
Standard
  9
$CMLJUST
 70
     0
  9
$CMLSCALE
 40
1.0
  9
$PROXYGRAPHICS
 70
     1
  9
$MEASUREMENT
 70
     1
  9
$CELWEIGHT
370
    -1
  9
$ENDCAPS
280
     0
  9
$JOINSTYLE
280
     0
  9
$LWDISPLAY
290
     0
  9
$INSUNITS
 70
     1
  9
$HYPERLINKBASE
  1

  9
$STYLESHEET
  1

  9
$XEDIT
290
     1
  9
$CEPSNTYPE
380
     0
  9
$PSTYLEMODE
290
     1
  9
$FINGERPRINTGUID
  2
{E3FD5FB5-5E27-40B0-B10A-466BC4BC3A95}
  9
$VERSIONGUID
  2
{FAEB1C32-E019-11D5-929B-00C0DF256EC4}
  9
$EXTNAMES
290
     1
  9
$PSVPSCALE
 40
0.0
  9
$OLESTARTUP
290
     0
  0
ENDSEC
  0
SECTION
  2
CLASSES
  0
CLASS
  1
ACDBDICTIONARYWDFLT
  2
AcDbDictionaryWithDefault
  3
ObjectDBX Classes
 90
        0
280
     0
281
     0
  0
CLASS
  1
VISUALSTYLE
  2
AcDbVisualStyle
  3
ObjectDBX Classes
 90
     4095
280
     0
281
     0
  0
CLASS
  1
SCALE
  2
AcDbScale
  3
ObjectDBX Classes
 90
     1153
280
     0
281
     0
  0
CLASS
  1

  2
exOdDbPolyline
  3

 90
        0
280
     0
281
     1
  0
CLASS
  1

  2
exOdDbCircle
  3

 90
        0
280
     0
281
     1
  0
CLASS
  1

  2
exOdDbSpline
  3

 90
        0
280
     0
281
     1
  0
CLASS
  1
DICTIONARYVAR
  2
AcDbDictionaryVar
  3
ObjectDBX Classes
 90
        0
280
     0
281
     0
  0
CLASS
  1
ACDBPLACEHOLDER
  2
AcDbPlaceHolder
  3
ObjectDBX Classes
 90
        0
280
     0
281
     0
  0
CLASS
  1
LAYOUT
  2
AcDbLayout
  3
ObjectDBX Classes
 90
        0
280
     0
281
     0
  0
ENDSEC
  0
SECTION
  2
TABLES
  0
TABLE
  2
VPORT
  5
8
330
0
100
AcDbSymbolTable
 70
     1
  0
VPORT
  5
29
330
8
100
AcDbSymbolTableRecord
100
AcDbViewportTableRecord
  2
*Active
 70
     0
 10
0.0
 20
0.0
 11
1.0
 21
1.0
 12
122.4674547835716
 22
322.43367753835
 13
0.0
 23
0.0
 14
0.5
 24
0.5
 15
0.5
 25
0.5
 16
0.0
 26
0.0
 36
1.0
 17
0.0
 27
0.0
 37
0.0
 40
145.8106794094821
 41
1.60267857142857
 42
50.0
 43
0.0
 44
0.0
 50
0.0
 51
0.0
 71
     0
 72
   100
 73
     1
 74
     3
 75
     0
 76
     0
 77
     0
 78
     0
281
     0
 65
     1
110
0.0
120
0.0
130
0.0
111
1.0
121
0.0
131
0.0
112
0.0
122
1.0
132
0.0
 79
     0
146
0.0
  0
ENDTAB
  0
TABLE
  2
LTYPE
  5
5
330
0
100
AcDbSymbolTable
 70
     8
  0
LTYPE
  5
14
330
5
100
AcDbSymbolTableRecord
100
AcDbLinetypeTableRecord
  2
ByBlock
 70
     0
  3

 72
    65
 73
     0
 40
0.0
  0
LTYPE
  5
15
330
5
100
AcDbSymbolTableRecord
100
AcDbLinetypeTableRecord
  2
ByLayer
 70
     0
  3

 72
    65
 73
     0
 40
0.0
  0
LTYPE
  5
16
330
5
100
AcDbSymbolTableRecord
100
AcDbLinetypeTableRecord
  2
Continuous
 70
     0
  3
Solid line
 72
    65
 73
     0
 40
0.0
  0
LTYPE
  5
3B
330
5
100
AcDbSymbolTableRecord
100
AcDbLinetypeTableRecord
  2
DASHED
 70
     0
  3
Dashed
 72
    65
 73
     2
 40
15.0
 49
7.0
 74
     0
 49
-8.0
 74
     0
  0
LTYPE
  5
3C
330
5
100
AcDbSymbolTableRecord
100
AcDbLinetypeTableRecord
  2
DOTTED
 70
     0
  3
Dotted
 72
    65
 73
     2
 40
1.0
 49
0.0
 74
     0
 49
-1.0
 74
     0
  0
LTYPE
  5
3D
330
5
100
AcDbSymbolTableRecord
100
AcDbLinetypeTableRecord
  2
DOT_CENTER
 70
     0
  3
Dot_Center
 72
    65
 73
     4
 40
14.0
 49
12.0
 74
     0
 49
-1.0
 74
     0
 49
0.0
 74
     0
 49
-1.0
 74
     0
  0
LTYPE
  5
3E
330
5
100
AcDbSymbolTableRecord
100
AcDbLinetypeTableRecord
  2
LONG_DASHED
 70
     0
  3
Long_Dashed
 72
    65
 73
     2
 40
15.0
 49
10.0
 74
     0
 49
-5.0
 74
     0
  0
LTYPE
  5
3F
330
5
100
AcDbSymbolTableRecord
100
AcDbLinetypeTableRecord
  2
DASH_CENTER
 70
     0
  3
Dash_Center
 72
    65
 73
     4
 40
14.0
 49
11.0
 74
     0
 49
-1.0
 74
     0
 49
1.0
 74
     0
 49
-1.0
 74
     0
  0
LTYPE
  5
40
330
5
100
AcDbSymbolTableRecord
100
AcDbLinetypeTableRecord
  2
PHANTOM
 70
     0
  3
Phantom
 72
    65
 73
     6
 40
13.0
 49
10.0
 74
     0
 49
-1.0
 74
     0
 49
0.0
 74
     0
 49
-1.0
 74
     0
 49
0.0
 74
     0
 49
-1.0
 74
     0
  0
LTYPE
  5
41
330
5
100
AcDbSymbolTableRecord
100
AcDbLinetypeTableRecord
  2
CENTER_DASH_DASH
 70
     0
  3
Center_Dash_Dash
 72
    65
 73
     6
 40
14.0
 49
9.0
 74
     0
 49
-1.0
 74
     0
 49
1.0
 74
     0
 49
-1.0
 74
     0
 49
1.0
 74
     0
 49
-1.0
 74
     0
  0
ENDTAB
  0
TABLE
  2
LAYER
  5
2
330
0
100
AcDbSymbolTable
 70
     6
  0
LAYER
  5
10
330
2
100
AcDbSymbolTableRecord
100
AcDbLayerTableRecord
  2
0
 70
     0
 62
     7
  6
Continuous
370
    -3
390
F
  0
LAYER
  5
42
330
2
100
AcDbSymbolTableRecord
100
AcDbLayerTableRecord
  2
1
 70
     0
 62
     7
  6
Continuous
370
    -3
390
F
  0
LAYER
  5
43
330
2
100
AcDbSymbolTableRecord
100
AcDbLayerTableRecord
  2
BEZUGSACHSEN
 70
     0
 62
     7
  6
Continuous
370
    -3
390
F
  0
LAYER
  5
44
330
2
100
AcDbSymbolTableRecord
100
AcDbLayerTableRecord
  2
DEFAULT_2
 70
     0
 62
     7
  6
Continuous
370
    -3
390
F
  0
LAYER
  5
45
330
2
100
AcDbSymbolTableRecord
100
AcDbLayerTableRecord
  2
FASEN
 70
     0
 62
     7
  6
Continuous
370
    -3
390
F
  0
LAYER
  5
46
330
2
100
AcDbSymbolTableRecord
100
AcDbLayerTableRecord
  2
RUNDUNGEN
 70
     0
 62
     7
  6
Continuous
370
    -3
390
F
  0
ENDTAB
  0
TABLE
  2
STYLE
  5
3
330
0
100
AcDbSymbolTable
 70
     2
  0
STYLE
  5
11
330
3
100
AcDbSymbolTableRecord
100
AcDbTextStyleTableRecord
  2
Standard
 70
     0
 40
0.0
 41
1.0
 50
0.0
 71
     0
 42
0.2
  3
txt
  4

  0
STYLE
  5
6D
330
3
100
AcDbSymbolTableRecord
100
AcDbTextStyleTableRecord
  2
CONVERTER_11
 70
     0
 40
0.0
 41
0.72
 50
0.0
 71
     0
 42
0.2
  3
txt.shx
  4

  0
ENDTAB
  0
TABLE
  2
VIEW
  5
6
330
0
100
AcDbSymbolTable
 70
     0
  0
ENDTAB
  0
TABLE
  2
UCS
  5
7
330
0
100
AcDbSymbolTable
 70
     0
  0
ENDTAB
  0
TABLE
  2
APPID
  5
9
330
0
100
AcDbSymbolTable
 70
     1
  0
APPID
  5
12
330
9
100
AcDbSymbolTableRecord
100
AcDbRegAppTableRecord
  2
ACAD
 70
     0
  0
ENDTAB
  0
TABLE
  2
DIMSTYLE
  5
A
330
0
100
AcDbSymbolTable
 70
     5
100
AcDbDimStyleTable
  0
DIMSTYLE
105
27
330
A
100
AcDbSymbolTableRecord
100
AcDbDimStyleTableRecord
  2
Standard
 70
     0
340
11
  0
DIMSTYLE
105
107
102
{ACAD_REACTORS
330
108
102
}
330
A
100
AcDbSymbolTableRecord
100
AcDbDimStyleTableRecord
  2
ME10_DIM_10
 70
     0
  3
\U+2300<>
 41
3.5
 42
2.0
 44
2.0
 71
     1
 73
     0
 74
     0
 77
     1
 78
     8
140
3.5
146
0.7
147
2.0
172
     1
173
     1
176
     2
177
     2
178
     3
271
     2
272
     0
340
6D
  0
DIMSTYLE
105
112
102
{ACAD_REACTORS
330
113
102
}
330
A
100
AcDbSymbolTableRecord
100
AcDbDimStyleTableRecord
  2
ME10_DIM_11
 70
     0
  3
<>
 41
3.5
 42
2.0
 44
2.0
 71
     1
 73
     0
 74
     0
 77
     1
 78
     8
140
3.5
146
0.7
147
2.0
172
     1
173
     1
176
     2
177
     2
178
     3
271
     2
272
     0
340
6D
  0
DIMSTYLE
105
11D
102
{ACAD_REACTORS
330
11E
102
}
330
A
100
AcDbSymbolTableRecord
100
AcDbDimStyleTableRecord
  2
ME10_DIM_12
 70
     0
  3
<>
 41
3.5
 42
2.0
 44
2.0
 71
     1
 73
     0
 74
     0
 77
     1
 78
     8
140
3.5
146
0.7
147
2.0
172
     1
173
     1
176
     2
177
     2
178
     3
271
     2
272
     0
340
6D
  0
DIMSTYLE
105
128
102
{ACAD_REACTORS
330
129
102
}
330
A
100
AcDbSymbolTableRecord
100
AcDbDimStyleTableRecord
  2
ME10_DIM_13
 70
     0
  3
<>
 41
3.5
 42
2.0
 44
2.0
 71
     1
 73
     0
 74
     0
 77
     1
 78
     8
140
3.5
146
0.7
147
2.0
172
     1
173
     1
176
     2
177
     2
178
     3
271
     2
272
     0
340
6D
  0
ENDTAB
  0
TABLE
  2
BLOCK_RECORD
  5
1
330
0
100
AcDbSymbolTable
 70
     7
  0
BLOCK_RECORD
  5
1F
330
1
100
AcDbSymbolTableRecord
100
AcDbBlockTableRecord
  2
*Model_Space
340
22
  0
BLOCK_RECORD
  5
1B
330
1
100
AcDbSymbolTableRecord
100
AcDbBlockTableRecord
  2
*Paper_Space
340
1E
  0
BLOCK_RECORD
  5
23
330
1
100
AcDbSymbolTableRecord
100
AcDbBlockTableRecord
  2
*Paper_Space0
340
26
  0
BLOCK_RECORD
  5
47
330
1
100
AcDbSymbolTableRecord
100
AcDbBlockTableRecord
  2
Urheberrecht_DE-EN
340
0
102
{BLKREFS
331
6C
102
}
  0
BLOCK_RECORD
  5
FE
330
1
100
AcDbSymbolTableRecord
100
AcDbBlockTableRecord
  2
*D2
340
0
  0
BLOCK_RECORD
  5
109
330
1
100
AcDbSymbolTableRecord
100
AcDbBlockTableRecord
  2
*D3
340
0
  0
BLOCK_RECORD
  5
114
330
1
100
AcDbSymbolTableRecord
100
AcDbBlockTableRecord
  2
*D4
340
0
  0
BLOCK_RECORD
  5
11F
330
1
100
AcDbSymbolTableRecord
100
AcDbBlockTableRecord
  2
*D5
340
0
  0
BLOCK_RECORD
  5
12A
330
1
100
AcDbSymbolTableRecord
100
AcDbBlockTableRecord
  2
*D6
340
0
102
{BLKREFS
331
130
102
}
  0
ENDTAB
  0
ENDSEC
  0
SECTION
  2
BLOCKS
  0
BLOCK
  5
20
330
1F
100
AcDbEntity
  8
0
100
AcDbBlockBegin
  2
*Model_Space
 70
     0
 10
0.0
 20
0.0
 30
0.0
  3
*Model_Space
  1

  0
ENDBLK
  5
21
330
1F
100
AcDbEntity
  8
0
100
AcDbBlockEnd
  0
BLOCK
  5
1C
330
1B
100
AcDbEntity
 67
     1
  8
0
100
AcDbBlockBegin
  2
*Paper_Space
 70
     0
 10
0.0
 20
0.0
 30
0.0
  3
*Paper_Space
  1

  0
ENDBLK
  5
1D
330
1B
100
AcDbEntity
 67
     1
  8
0
100
AcDbBlockEnd
  0
BLOCK
  5
24
330
23
100
AcDbEntity
  8
0
100
AcDbBlockBegin
  2
*Paper_Space0
 70
     0
 10
0.0
 20
0.0
 30
0.0
  3
*Paper_Space0
  1

  0
ENDBLK
  5
25
330
23
100
AcDbEntity
  8
0
100
AcDbBlockEnd
  0
BLOCK
  5
48
330
47
100
AcDbEntity
  8
0
100
AcDbBlockBegin
  2
Urheberrecht_DE-EN
 70
     0
 10
30.2457950676543
 20
318.296464741526
 30
0.0
  3
Urheberrecht_DE-EN
  1

  0
MTEXT
  5
6E
330
47
100
AcDbEntity
  8
1
 62
     1
100
AcDbMText
 10
30.2457950676543
 20
318.296464741526
 30
0.0
 40
2.0
 41
0.0
 71
     7
 72
     1
  1
We own the copyright of this document. It \Pdetermined and may neither be copied or \Pmade accessible to outsiders without our\Ppermission.
  7
CONVERTER_11
 11
0.0
 21
1.0
 31
0.0
 73
     1
 44
0.90036014405762
  0
MTEXT
  5
6F
330
47
100
AcDbEntity
  8
1
 62
     1
100
AcDbMText
 10
30.2457950676543
 20
262.0070778242198
 30
0.0
 40
2.0
 41
0.0
 71
     7
 72
     1
  1
F\U+00fcr diese Unterlage behalten wir das Ur-\Pheberrecht. Sie darf nur f\U+00fcr den von uns \Pbestimmten Zweck benutzt und ohne unsere \PZustimmung weder vervielf\U+00e4ltigt noch\PDritten zug\U+00e4nglich gemacht werden.
  7
CONVERTER_11
 11
0.0
 21
1.0
 31
0.0
 73
     1
 44
0.90036014405762
  0
ENDBLK
  5
49
330
47
100
AcDbEntity
  8
0
100
AcDbBlockEnd
  0
BLOCK
  5
105
330
FE
100
AcDbEntity
  8
0
100
AcDbBlockBegin
  2
*D2
 70
     1
 10
0.0
 20
0.0
 30
0.0
  3
*D2
  1

  0
LINE
  5
FF
330
FE
100
AcDbEntity
  8
1
  6
Continuous
 62
     2
100
AcDbLine
 10
226.689114499489
 20
326.3684570313
 30
0.0
 11
226.689114499489
 21
291.3684570313
 31
0.0
  0
LINE
  5
100
330
FE
100
AcDbEntity
  8
1
  6
Continuous
 62
     2
100
AcDbLine
 10
209.9860794064
 20
326.3684570313
 30
0.0
 11
228.689114499489
 21
326.3684570313
 31
0.0
  0
LINE
  5
101
330
FE
100
AcDbEntity
  8
1
  6
Continuous
 62
     2
100
AcDbLine
 10
209.9860794064
 20
291.3684570313
 30
0.0
 11
228.689114499489
 21
291.3684570313
 31
0.0
  0
SOLID
  5
102
330
FE
100
AcDbEntity
  8
1
 62
     2
100
AcDbTrace
 10
227.1498982410449
 20
322.8684570313
 30
0.0
 11
226.2283307579331
 21
322.8684570313
 31
0.0
 12
226.689114499489
 22
326.3684570313
 32
0.0
 13
226.689114499489
 23
326.3684570313
 33
0.0
  0
SOLID
  5
103
330
FE
100
AcDbEntity
  8
1
 62
     2
100
AcDbTrace
 10
226.2283307579331
 20
294.8684570313
 30
0.0
 11
227.1498982410449
 21
294.8684570313
 31
0.0
 12
226.689114499489
 22
291.3684570313
 32
0.0
 13
226.689114499489
 23
291.3684570313
 33
0.0
  0
MTEXT
  5
104
330
FE
100
AcDbEntity
  8
1
 62
     3
100
AcDbMText
 10
224.689114499489
 20
299.328374248913
 30
0.0
 40
3.5
 41
0.0
 71
     7
 72
     1
  1
\C3;%%c\C3;\C3;35\C2;\H2.45;\S^ ;\C3;
  7
CONVERTER_11
 11
0.0
 21
1.0
 31
0.0
 73
     1
 44
0.60024009603842
  0
ENDBLK
  5
106
330
FE
100
AcDbEntity
  8
0
100
AcDbBlockEnd
  0
BLOCK
  5
110
330
109
100
AcDbEntity
  8
0
100
AcDbBlockBegin
  2
*D3
 70
     1
 10
0.0
 20
0.0
 30
0.0
  3
*D3
  1

  0
LINE
  5
10A
330
109
100
AcDbEntity
  8
1
  6
Continuous
 62
     2
100
AcDbLine
 10
213.4002929688
 20
365.952671994382
 30
0.0
 11
122.4002929688
 21
365.952671994382
 31
0.0
  0
LINE
  5
10B
330
109
100
AcDbEntity
  8
1
  6
Continuous
 62
     2
100
AcDbLine
 10
213.4002929688
 20
322.9542434689
 30
0.0
 11
213.4002929688
 21
367.952671994382
 31
0.0
  0
LINE
  5
10C
330
109
100
AcDbEntity
  8
1
  6
Continuous
 62
     2
100
AcDbLine
 10
122.4002929688
 20
360.8684201101
 30
0.0
 11
122.4002929688
 21
367.952671994382
 31
0.0
  0
SOLID
  5
10D
330
109
100
AcDbEntity
  8
1
 62
     2
100
AcDbTrace
 10
209.9002929688
 20
365.4918882528261
 30
0.0
 11
209.9002929688
 21
366.4134557359379
 31
0.0
 12
213.4002929688
 22
365.952671994382
 32
0.0
 13
213.4002929688
 23
365.952671994382
 33
0.0
  0
SOLID
  5
10E
330
109
100
AcDbEntity
  8
1
 62
     2
100
AcDbTrace
 10
125.9002929688
 20
366.4134557359379
 30
0.0
 11
125.9002929688
 21
365.4918882528261
 31
0.0
 12
122.4002929688
 22
365.952671994382
 32
0.0
 13
122.4002929688
 23
365.952671994382
 33
0.0
  0
MTEXT
  5
10F
330
109
100
AcDbEntity
  8
1
 62
     3
100
AcDbMText
 10
167.79395869882
 20
367.952671994382
 30
0.0
 40
3.5
 41
0.0
 71
     7
 72
     1
  1
\C3;\C3;\C3;91\C2;\H2.45;\S^ ;\C3;
  7
CONVERTER_11
 11
0.9999999999970619
 21
2.424068405545306E-6
 31
0.0
 73
     1
 44
0.60024009603842
  0
ENDBLK
  5
111
330
109
100
AcDbEntity
  8
0
100
AcDbBlockEnd
  0
BLOCK
  5
11B
330
114
100
AcDbEntity
  8
0
100
AcDbBlockBegin
  2
*D4
 70
     1
 10
0.0
 20
0.0
 30
0.0
  3
*D4
  1

  0
LINE
  5
115
330
114
100
AcDbEntity
  8
1
  6
Continuous
 62
     2
100
AcDbLine
 10
213.4002929688
 20
373.156517276791
 30
0.0
 11
93.4002929688
 21
373.156517276791
 31
0.0
  0
LINE
  5
116
330
114
100
AcDbEntity
  8
1
  6
Continuous
 62
     2
100
AcDbLine
 10
213.4002929688
 20
322.9542434689
 30
0.0
 11
213.4002929688
 21
375.156517276791
 31
0.0
  0
LINE
  5
117
330
114
100
AcDbEntity
  8
1
  6
Continuous
 62
     2
100
AcDbLine
 10
93.4002929688
 20
360.8684570313
 30
0.0
 11
93.4002929688
 21
375.156517276791
 31
0.0
  0
SOLID
  5
118
330
114
100
AcDbEntity
  8
1
 62
     2
100
AcDbTrace
 10
209.9002929688
 20
372.6957335352351
 30
0.0
 11
209.9002929688
 21
373.6173010183469
 31
0.0
 12
213.4002929688
 22
373.156517276791
 32
0.0
 13
213.4002929688
 23
373.156517276791
 33
0.0
  0
SOLID
  5
119
330
114
100
AcDbEntity
  8
1
 62
     2
100
AcDbTrace
 10
96.9002929688
 20
373.6173010183469
 30
0.0
 11
96.9002929688
 21
372.6957335352351
 31
0.0
 12
93.4002929688
 22
373.156517276791
 32
0.0
 13
93.4002929688
 23
373.156517276791
 33
0.0
  0
MTEXT
  5
11A
330
114
100
AcDbEntity
  8
1
 62
     3
100
AcDbMText
 10
151.849197161603
 20
375.156517276791
 30
0.0
 40
3.5
 41
0.0
 71
     7
 72
     1
  1
\C3;\C3;\C3;120\C2;\H2.45;\S^ ;\C3;
  7
CONVERTER_11
 11
0.9999999999970619
 21
2.424068405545306E-6
 31
0.0
 73
     1
 44
0.60024009603842
  0
ENDBLK
  5
11C
330
114
100
AcDbEntity
  8
0
100
AcDbBlockEnd
  0
BLOCK
  5
126
330
11F
100
AcDbEntity
  8
0
100
AcDbBlockBegin
  2
*D5
 70
     1
 10
0.0
 20
0.0
 30
0.0
  3
*D5
  1

  0
LINE
  5
120
330
11F
100
AcDbEntity
  8
1
  6
Continuous
 62
     2
100
AcDbLine
 10
213.4002929688
 20
380.4988980454
 30
0.0
 11
43.4002929688
 21
380.4988980454
 31
0.0
  0
LINE
  5
121
330
11F
100
AcDbEntity
  8
1
  6
Continuous
 62
     2
100
AcDbLine
 10
213.4002929688
 20
322.9542434689
 30
0.0
 11
213.4002929688
 21
382.4988980454
 31
0.0
  0
LINE
  5
122
330
11F
100
AcDbEntity
  8
1
  6
Continuous
 62
     2
100
AcDbLine
 10
43.4002929688
 20
344.4686485938
 30
0.0
 11
43.4002929688
 21
382.4988980454
 31
0.0
  0
SOLID
  5
123
330
11F
100
AcDbEntity
  8
1
 62
     2
100
AcDbTrace
 10
209.9002929688
 20
380.0381143038441
 30
0.0
 11
209.9002929688
 21
380.9596817869559
 31
0.0
 12
213.4002929688
 22
380.4988980454
 32
0.0
 13
213.4002929688
 23
380.4988980454
 33
0.0
  0
SOLID
  5
124
330
11F
100
AcDbEntity
  8
1
 62
     2
100
AcDbTrace
 10
46.9002929688
 20
380.9596817869559
 30
0.0
 11
46.9002929688
 21
380.0381143038441
 31
0.0
 12
43.4002929688
 22
380.4988980454
 32
0.0
 13
43.4002929688
 23
380.4988980454
 33
0.0
  0
MTEXT
  5
125
330
11F
100
AcDbEntity
  8
1
 62
     3
100
AcDbMText
 10
131.761551662579
 20
382.4988980454
 30
0.0
 40
3.5
 41
0.0
 71
     7
 72
     1
  1
\C3;\C3;\C3;170\C2;\H2.45;\S^ ;\C3;
  7
CONVERTER_11
 11
0.9999999999970619
 21
2.424068405545306E-6
 31
0.0
 73
     1
 44
0.60024009603842
  0
ENDBLK
  5
127
330
11F
100
AcDbEntity
  8
0
100
AcDbBlockEnd
  0
BLOCK
  5
12E
330
12A
100
AcDbEntity
  8
0
100
AcDbBlockBegin
  2
*D6
 70
     1
 10
0.0
 20
0.0
 30
0.0
  3
*D6
  1

  0
LINE
  5
12B
330
12A
100
AcDbEntity
  8
1
  6
Continuous
 62
     2
100
AcDbLine
 10
138.3294395345279
 20
342.0692214909831
 30
0.0
 11
128.6491505618393
 21
331.8458511181903
 31
0.0
  0
SOLID
  5
12C
330
12A
100
AcDbEntity
  8
1
 62
     2
100
AcDbTrace
 10
130.7210114485579
 20
334.7041222954176
 30
0.0
 11
131.390189517533
 21
334.070492010526
 31
0.0
 12
128.6491505618393
 22
331.8458511181903
 32
0.0
 13
128.6491505618393
 23
331.8458511181903
 33
0.0
  0
MTEXT
  5
12D
330
12A
100
AcDbEntity
  8
1
 62
     3
100
AcDbMText
 10
130.0428611669989
 20
336.2266005928929
 30
0.0
 40
3.5
 41
0.0
 71
     7
 72
     1
  1
\C3; R\C3;\C3;20\C2;\H2.45;\S^ ;\C3;
  7
CONVERTER_11
 11
0.6875571203445962
 21
0.7261302956518523
 31
0.0
 73
     1
 44
0.60024009603842
  0
ENDBLK
  5
12F
330
12A
100
AcDbEntity
  8
0
100
AcDbBlockEnd
  0
ENDSEC
  0
SECTION
  2
ENTITIES
  0
INSERT
  5
6C
330
1F
100
AcDbEntity
  8
0
100
AcDbBlockReference
  2
Urheberrecht_DE-EN
 10
30.2457950676543
 20
318.296464741526
 30
0.0
  0
LINE
  5
70
330
1F
100
AcDbEntity
  8
BEZUGSACHSEN
  6
Continuous
 62
     7
100
AcDbLine
 10
43.4002929688
 20
275.2682654683
 30
0.0
 11
43.4002929688
 21
296.8584570312
 31
0.0
  0
LINE
  5
71
330
1F
100
AcDbEntity
  8
BEZUGSACHSEN
  6
Continuous
 62
     7
100
AcDbLine
 10
43.4002929688
 20
320.8784570312
 30
0.0
 11
43.4002929688
 21
342.4686485938
 31
0.0
  0
LINE
  5
72
330
1F
100
AcDbEntity
  8
BEZUGSACHSEN
  6
Continuous
 62
     9
100
AcDbLine
 10
45.300218484
 20
344.4661432996
 30
0.0
 11
45.300218484
 21
324.5449894175
 31
0.0
  0
LINE
  5
73
330
1F
100
AcDbEntity
  8
BEZUGSACHSEN
  6
Continuous
 62
     9
100
AcDbLine
 10
45.300218484
 20
293.191924645
 30
0.0
 11
45.300218484
 21
273.2707707629
 31
0.0
  0
LINE
  5
74
330
1F
100
AcDbEntity
  8
BEZUGSACHSEN
  6
Continuous
 62
     7
100
AcDbLine
 10
45.4002929688
 20
296.4648170829
 30
0.0
 11
45.4002929688
 21
298.8584570312
 31
0.0
  0
LINE
  5
75
330
1F
100
AcDbEntity
  8
BEZUGSACHSEN
  6
Continuous
 62
     7
100
AcDbLine
 10
45.4002929688
 20
318.8784570312
 30
0.0
 11
45.4002929688
 21
321.2720969796
 31
0.0
  0
LINE
  5
76
330
1F
100
AcDbEntity
  8
BEZUGSACHSEN
  6
Continuous
 62
     9
100
AcDbLine
 10
51.4002929688
 20
292.5098094438
 30
0.0
 11
51.4002929688
 21
298.8584570312
 31
0.0
  0
LINE
  5
77
330
1F
100
AcDbEntity
  8
BEZUGSACHSEN
  6
Continuous
 62
     9
100
AcDbLine
 10
51.4002929688
 20
318.8784570312
 30
0.0
 11
51.4002929688
 21
325.2271046187
 31
0.0
  0
LINE
  5
78
330
1F
100
AcDbEntity
  8
BEZUGSACHSEN
  6
Continuous
 62
     7
100
AcDbLine
 10
53.4002929688
 20
321.738112557
 30
0.0
 11
53.4002929688
 21
295.9988015055
 31
0.0
  0
LINE
  5
79
330
1F
100
AcDbEntity
  8
BEZUGSACHSEN
  6
Continuous
 62
     7
100
AcDbLine
 10
44.6672458958
 20
293.8584570313
 30
0.0
 11
44.5461356443
 21
293.6261210358
 31
0.0
  0
LINE
  5
7A
330
1F
100
AcDbEntity
  8
BEZUGSACHSEN
  6
Continuous
 62
     7
100
AcDbLine
 10
44.5461356443
 20
324.1107930267
 30
0.0
 11
44.6672458958
 21
323.8784570313
 31
0.0
  0
LWPOLYLINE
  5
7B
330
1F
100
AcDbEntity
  8
BEZUGSACHSEN
  6
DOT_CENTER
 62
     7
100
AcDbPolyline
 90
        2
 70
     0
 43
0.25
 10
78.4002929688
 20
308.8684570313
 10
78.4002929688
 20
299.8684570313
  0
LWPOLYLINE
  5
7C
330
1F
100
AcDbEntity
  8
BEZUGSACHSEN
  6
DOT_CENTER
 62
     7
100
AcDbPolyline
 90
        2
 70
     0
 43
0.25
 10
78.4002929688
 20
308.8684570313
 10
78.4002929688
 20
317.8684570313
  0
LINE
  5
7D
330
1F
100
AcDbEntity
  8
BEZUGSACHSEN
  6
Continuous
 62
     7
100
AcDbLine
 10
43.4002929688
 20
296.8584570312
 30
0.0
 11
45.4002929688
 21
298.8584570312
 31
0.0
  0
LINE
  5
7E
330
1F
100
AcDbEntity
  8
BEZUGSACHSEN
  6
Continuous
 62
     7
100
AcDbLine
 10
110.1526977046
 20
258.8684570313
 30
0.0
 11
93.4002929688
 21
258.8684570313
 31
0.0
  0
LINE
  5
7F
330
1F
100
AcDbEntity
  8
BEZUGSACHSEN
  6
Continuous
 62
     7
100
AcDbLine
 10
116.6478882329
 20
258.8684570313
 30
0.0
 11
122.4002929688
 21
258.8684570313
 31
0.0
  0
LINE
  5
80
330
1F
100
AcDbEntity
  8
BEZUGSACHSEN
  6
Continuous
 62
     7
100
AcDbLine
 10
112.5252929688
 20
262.8684570313
 30
0.0
 11
114.2752929688
 21
262.8684570313
 31
0.0
  0
LINE
  5
81
330
1F
100
AcDbEntity
  8
BEZUGSACHSEN
  6
Continuous
 62
     7
100
AcDbLine
 10
45.4002929688
 20
318.8784570312
 30
0.0
 11
43.4002929688
 21
320.8784570312
 31
0.0
  0
LINE
  5
82
330
1F
100
AcDbEntity
  8
FASEN
  6
Continuous
 62
     7
100
AcDbLine
 10
98.8017789332
 20
270.0387004005
 30
0.0
 11
110.1526977046
 21
270.0387004005
 31
0.0
  0
LINE
  5
83
330
1F
100
AcDbEntity
  8
0
  6
Continuous
 62
     7
100
AcDbLine
 10
116.6478882329
 20
270.0387004005
 30
0.0
 11
122.4002929688
 21
270.0387004005
 31
0.0
  0
LINE
  5
84
330
1F
100
AcDbEntity
  8
BEZUGSACHSEN
  6
Continuous
 62
     7
100
AcDbLine
 10
90.9002929687
 20
270.9862070313
 30
0.0
 11
45.300218484
 21
273.2707707629
 31
0.0
  0
LINE
  5
85
330
1F
100
AcDbEntity
  8
BEZUGSACHSEN
  6
Continuous
 62
     7
100
AcDbLine
 10
90.9002929687
 20
346.7507070312
 30
0.0
 11
90.9002929687
 21
270.9862070313
 31
0.0
  0
LINE
  5
86
330
1F
100
AcDbEntity
  8
BEZUGSACHSEN
  6
Continuous
 62
     9
100
AcDbLine
 10
91.5195365827
 20
271.1521328575
 30
0.0
 11
91.5195365827
 21
346.584781205
 31
0.0
  0
LINE
  5
87
330
1F
100
AcDbEntity
  8
BEZUGSACHSEN
  6
Continuous
 62
     9
100
AcDbLine
 10
91.7783556279
 20
271.1862070312
 30
0.0
 11
91.7783556279
 21
346.5507070312
 31
0.0
  0
LINE
  5
88
330
1F
100
AcDbEntity
  8
BEZUGSACHSEN
  6
Continuous
 62
     9
100
AcDbLine
 10
92.6997216801
 20
271.1862070312
 30
0.0
 11
92.6997216801
 21
346.5507070312
 31
0.0
  0
LINE
  5
89
330
1F
100
AcDbEntity
  8
BEZUGSACHSEN
  6
Continuous
 62
     7
100
AcDbLine
 10
93.4002929688
 20
358.8684570313
 30
0.0
 11
93.4002929688
 21
258.8684570313
 31
0.0
  0
LINE
  5
8A
330
1F
100
AcDbEntity
  8
BEZUGSACHSEN
  6
Continuous
 62
     7
100
AcDbLine
 10
115.2752929688
 20
356.4910522954
 30
0.0
 11
116.6478882329
 21
358.8684570313
 31
0.0
  0
LINE
  5
8B
330
1F
100
AcDbEntity
  8
BEZUGSACHSEN
  6
Continuous
 62
     7
100
AcDbLine
 10
92.6997216801
 20
271.1862070312
 30
0.0
 11
91.7783556279
 21
271.1862070312
 31
0.0
  0
LINE
  5
8C
330
1F
100
AcDbEntity
  8
0
  6
Continuous
 62
     7
100
AcDbLine
 10
112.5252929687
 20
275.3460764475
 30
0.0
 11
114.2752929688
 21
275.3460764475
 31
0.0
  0
LINE
  5
8D
330
1F
100
AcDbEntity
  8
BEZUGSACHSEN
  6
Continuous
 62
     7
100
AcDbLine
 10
115.2752929688
 20
261.2458617671
 30
0.0
 11
116.6478882329
 21
258.8684570313
 31
0.0
  0
LWPOLYLINE
  5
8E
330
1F
100
AcDbEntity
  8
BEZUGSACHSEN
  6
DOT_CENTER
 62
     7
100
AcDbPolyline
 90
        2
 70
     0
 43
0.25
 10
100.4002929688
 20
351.0178288866
 10
100.4002929688
 20
361.8684570313
  0
LINE
  5
8F
330
1F
100
AcDbEntity
  8
BEZUGSACHSEN
  6
Continuous
 62
     9
100
AcDbLine
 10
43.4002929688
 20
295.4222730622
 30
0.0
 11
45.4002929688
 21
296.4648170829
 31
0.0
  0
LINE
  5
90
330
1F
100
AcDbEntity
  8
BEZUGSACHSEN
  6
Continuous
 62
     7
100
AcDbLine
 10
91.5195365827
 20
271.1521328575
 30
0.0
 11
90.9002929687
 21
270.9862070313
 31
0.0
  0
LINE
  5
91
330
1F
100
AcDbEntity
  8
FASEN
  6
Continuous
 62
     7
100
AcDbLine
 10
106.3721668906
 20
276.9684570313
 30
0.0
 11
122.4002929688
 21
276.9684570313
 31
0.0
  0
LINE
  5
92
330
1F
100
AcDbEntity
  8
0
  6
Continuous
 62
     7
100
AcDbLine
 10
106.3721668906
 20
277.3684570313
 30
0.0
 11
122.4002929688
 21
277.3684570313
 31
0.0
  0
LINE
  5
93
330
1F
100
AcDbEntity
  8
BEZUGSACHSEN
  6
Continuous
 62
     9
100
AcDbLine
 10
45.4002929688
 20
321.2720969796
 30
0.0
 11
43.4002929688
 21
322.3146410003
 31
0.0
  0
LINE
  5
94
330
1F
100
AcDbEntity
  8
FASEN
  6
Continuous
 62
     9
100
AcDbLine
 10
106.3721668906
 20
276.9684570313
 30
0.0
 11
106.3721668906
 21
277.3684570313
 31
0.0
  0
LINE
  5
95
330
1F
100
AcDbEntity
  8
FASEN
  6
Continuous
 62
     9
100
AcDbLine
 10
108.4002929688
 20
299.2684570313
 30
0.0
 11
108.4002929688
 21
298.8684570313
 31
0.0
  0
LINE
  5
96
330
1F
100
AcDbEntity
  8
FASEN
  6
Continuous
 62
     9
100
AcDbLine
 10
108.4002929688
 20
318.4684570313
 30
0.0
 11
108.4002929688
 21
318.8684570313
 31
0.0
  0
LINE
  5
97
330
1F
100
AcDbEntity
  8
0
  6
Continuous
 62
     7
100
AcDbLine
 10
110.1526977046
 20
358.8684570312
 30
0.0
 11
110.1526977046
 21
318.8684570312
 31
0.0
  0
LINE
  5
98
330
1F
100
AcDbEntity
  8
0
  6
Continuous
 62
     7
100
AcDbLine
 10
110.1526977046
 20
298.8684570312
 30
0.0
 11
110.1526977046
 21
277.3684570312
 31
0.0
  0
LINE
  5
99
330
1F
100
AcDbEntity
  8
0
  6
Continuous
 62
     7
100
AcDbLine
 10
110.1526977046
 20
270.0387004005
 30
0.0
 11
110.1526977046
 21
258.8684570313
 31
0.0
  0
LINE
  5
9A
330
1F
100
AcDbEntity
  8
0
  6
Continuous
 62
     7
100
AcDbLine
 10
111.5252929688
 20
356.4910188689
 30
0.0
 11
111.5252929688
 21
318.8684570312
 31
0.0
  0
LINE
  5
9B
330
1F
100
AcDbEntity
  8
0
  6
Continuous
 62
     7
100
AcDbLine
 10
111.5252929688
 20
298.8684570312
 30
0.0
 11
111.5252929688
 21
277.3684570312
 31
0.0
  0
LINE
  5
9C
330
1F
100
AcDbEntity
  8
0
  6
Continuous
 62
     7
100
AcDbLine
 10
111.5252929688
 20
261.245899301
 30
0.0
 11
111.5252929688
 21
273.9865132781
 31
0.0
  0
LINE
  5
9D
330
1F
100
AcDbEntity
  8
0
  6
Continuous
 62
     9
100
AcDbLine
 10
112.5252929688
 20
262.8684570313
 30
0.0
 11
112.5252929687
 21
275.3460764475
 31
0.0
  0
LINE
  5
9E
330
1F
100
AcDbEntity
  8
0
  6
Continuous
 62
     9
100
AcDbLine
 10
112.5252929688
 20
277.3684570312
 30
0.0
 11
112.5252929688
 21
298.8684570312
 31
0.0
  0
LINE
  5
9F
330
1F
100
AcDbEntity
  8
0
  6
Continuous
 62
     9
100
AcDbLine
 10
112.5252929688
 20
318.8684570312
 30
0.0
 11
112.5252929688
 21
354.8684570312
 31
0.0
  0
LINE
  5
A0
330
1F
100
AcDbEntity
  8
0
  6
Continuous
 62
     9
100
AcDbLine
 10
114.2752929688
 20
262.8684570313
 30
0.0
 11
114.2752929688
 21
275.3460764475
 31
0.0
  0
LINE
  5
A1
330
1F
100
AcDbEntity
  8
0
  6
Continuous
 62
     9
100
AcDbLine
 10
114.2752929688
 20
277.3684570312
 30
0.0
 11
114.2752929688
 21
298.8684570312
 31
0.0
  0
LINE
  5
A2
330
1F
100
AcDbEntity
  8
0
  6
Continuous
 62
     9
100
AcDbLine
 10
114.2752929688
 20
318.8684570312
 30
0.0
 11
114.2752929688
 21
354.8684570312
 31
0.0
  0
LINE
  5
A3
330
1F
100
AcDbEntity
  8
0
  6
Continuous
 62
     7
100
AcDbLine
 10
115.2752929688
 20
261.245899301
 30
0.0
 11
115.2752929688
 21
273.9865132781
 31
0.0
  0
LINE
  5
A4
330
1F
100
AcDbEntity
  8
0
  6
Continuous
 62
     7
100
AcDbLine
 10
115.2752929688
 20
277.3684570312
 30
0.0
 11
115.2752929688
 21
298.8684570312
 31
0.0
  0
LINE
  5
A5
330
1F
100
AcDbEntity
  8
0
  6
Continuous
 62
     7
100
AcDbLine
 10
115.2752929688
 20
318.8684570312
 30
0.0
 11
115.2752929688
 21
356.4910188689
 31
0.0
  0
LINE
  5
A6
330
1F
100
AcDbEntity
  8
0
  6
Continuous
 62
     7
100
AcDbLine
 10
142.4002929688
 20
291.3684570313
 30
0.0
 11
207.9860794064
 21
291.3684570313
 31
0.0
  0
LINE
  5
A7
330
1F
100
AcDbEntity
  8
BEZUGSACHSEN
  6
Continuous
 62
     9
100
AcDbLine
 10
52.9541389157
 20
293.8584570312
 30
0.0
 11
44.6672458958
 21
293.8584570313
 31
0.0
  0
LINE
  5
A8
330
1F
100
AcDbEntity
  8
0
  6
Continuous
 62
     7
100
AcDbLine
 10
116.6478882329
 20
358.8684570313
 30
0.0
 11
116.6478882329
 21
318.8684570312
 31
0.0
  0
LINE
  5
A9
330
1F
100
AcDbEntity
  8
0
  6
Continuous
 62
     7
100
AcDbLine
 10
116.6478882329
 20
298.8684570312
 30
0.0
 11
116.6478882329
 21
277.3684570312
 31
0.0
  0
LINE
  5
AA
330
1F
100
AcDbEntity
  8
0
  6
Continuous
 62
     7
100
AcDbLine
 10
116.6478882329
 20
270.0387004005
 30
0.0
 11
116.6478882329
 21
258.8684570313
 31
0.0
  0
LINE
  5
AB
330
1F
100
AcDbEntity
  8
0
  6
Continuous
 62
     7
100
AcDbLine
 10
122.4002929688
 20
358.8684201101
 30
0.0
 11
122.4002929688
 21
318.8684570313
 31
0.0
  0
LINE
  5
AC
330
1F
100
AcDbEntity
  8
0
  6
Continuous
 62
     7
100
AcDbLine
 10
122.4002929688
 20
298.8684570312
 30
0.0
 11
122.4002929688
 21
277.3684570313
 31
0.0
  0
LINE
  5
AD
330
1F
100
AcDbEntity
  8
0
  6
Continuous
 62
     7
100
AcDbLine
 10
122.4002929688
 20
270.0387004005
 30
0.0
 11
122.4002929688
 21
258.868458899
 31
0.0
  0
LINE
  5
AE
330
1F
100
AcDbEntity
  8
FASEN
  6
Continuous
 62
     7
100
AcDbLine
 10
122.4002929688
 20
270.0387004005
 30
0.0
 11
122.4002929688
 21
277.3684570313
 31
0.0
  0
LINE
  5
AF
330
1F
100
AcDbEntity
  8
FASEN
  6
Continuous
 62
     7
100
AcDbLine
 10
122.4002929688
 20
298.8684570312
 30
0.0
 11
122.4002929688
 21
318.8684570313
 31
0.0
  0
LINE
  5
B0
330
1F
100
AcDbEntity
  8
BEZUGSACHSEN
  6
Continuous
 62
     7
100
AcDbLine
 10
51.4002929688
 20
298.8584570312
 30
0.0
 11
45.4002929688
 21
298.8584570312
 31
0.0
  0
LINE
  5
B1
330
1F
100
AcDbEntity
  8
0
  6
Continuous
 62
     7
100
AcDbLine
 10
108.4002929688
 20
298.8684570313
 30
0.0
 11
122.4002929688
 21
298.8684570312
 31
0.0
  0
LINE
  5
B2
330
1F
100
AcDbEntity
  8
FASEN
  6
Continuous
 62
     7
100
AcDbLine
 10
122.4002929688
 20
299.2684570313
 30
0.0
 11
108.4002929688
 21
299.2684570313
 31
0.0
  0
LWPOLYLINE
  5
B3
330
1F
100
AcDbEntity
  8
DEFAULT_2
  6
DASHED
 62
     8
100
AcDbPolyline
 90
        2
 70
     0
 43
0.35
 10
179.9662437255
 20
300.5084570313
 10
146.2002929688
 20
300.5084570313
  0
LWPOLYLINE
  5
B4
330
1F
100
AcDbEntity
  8
DEFAULT_2
  6
DASHED
 62
     8
100
AcDbPolyline
 90
        2
 70
     0
 43
0.35
 10
213.4002929688
 20
299.9334570313
 10
179.9662437255
 20
300.5084570313
  0
LWPOLYLINE
  5
B5
330
1F
100
AcDbEntity
  8
BEZUGSACHSEN
  6
DOT_CENTER
 62
     7
100
AcDbPolyline
 90
        2
 70
     0
 43
0.25
 10
216.4002929688
 20
308.8684570313
 10
40.4002929688
 20
308.8684570313
  0
LINE
  5
B6
330
1F
100
AcDbEntity
  8
RUNDUNGEN
  6
Continuous
 62
     9
100
AcDbLine
 10
142.4002929688
 20
326.3684570312
 30
0.0
 11
142.4002929688
 21
291.3684570313
 31
0.0
  0
LINE
  5
B7
330
1F
100
AcDbEntity
  8
BEZUGSACHSEN
  6
Continuous
 62
     7
100
AcDbLine
 10
110.1526977046
 20
258.8684570313
 30
0.0
 11
111.5252929688
 21
261.2458617671
 31
0.0
  0
LWPOLYLINE
  5
B8
330
1F
100
AcDbEntity
  8
DEFAULT_2
  6
DASHED
 62
     8
100
AcDbPolyline
 90
        2
 70
     0
 43
0.35
 10
213.4002929688
 20
317.8034570313
 10
179.9662437255
 20
317.2284570313
  0
LWPOLYLINE
  5
B9
330
1F
100
AcDbEntity
  8
DEFAULT_2
  6
DASHED
 62
     8
100
AcDbPolyline
 90
        2
 70
     0
 43
0.35
 10
179.9662437255
 20
317.2284570313
 10
146.2002929688
 20
317.2284570313
  0
LINE
  5
BA
330
1F
100
AcDbEntity
  8
FASEN
  6
Continuous
 62
     7
100
AcDbLine
 10
108.4002929688
 20
318.4684570313
 30
0.0
 11
122.4002929688
 21
318.4684570313
 31
0.0
  0
LINE
  5
BB
330
1F
100
AcDbEntity
  8
0
  6
Continuous
 62
     7
100
AcDbLine
 10
108.4002929688
 20
318.8684570313
 30
0.0
 11
122.4002929688
 21
318.8684570313
 31
0.0
  0
LINE
  5
BC
330
1F
100
AcDbEntity
  8
BEZUGSACHSEN
  6
Continuous
 62
     7
100
AcDbLine
 10
51.4002929688
 20
318.8784570312
 30
0.0
 11
45.4002929688
 21
318.8784570312
 31
0.0
  0
LINE
  5
BD
330
1F
100
AcDbEntity
  8
BEZUGSACHSEN
  6
Continuous
 62
     7
100
AcDbLine
 10
110.1526977046
 20
358.8684570312
 30
0.0
 11
111.5252929688
 21
356.4910522954
 31
0.0
  0
LWPOLYLINE
  5
BE
330
1F
100
AcDbEntity
  8
DEFAULT_2
  6
DASHED
 62
     8
100
AcDbPolyline
 90
        2
 70
     0
 43
0.35
 10
146.2002929688
 20
317.2284570313
 10
146.2002929688
 20
300.5084570313
  0
LINE
  5
BF
330
1F
100
AcDbEntity
  8
BEZUGSACHSEN
  6
Continuous
 62
     9
100
AcDbLine
 10
44.6672458958
 20
323.8784570313
 30
0.0
 11
52.9541389157
 21
323.8784570312
 31
0.0
  0
LINE
  5
C0
330
1F
100
AcDbEntity
  8
RUNDUNGEN
  6
Continuous
 62
     7
100
AcDbLine
 10
207.9860794064
 20
326.3684570313
 30
0.0
 11
142.4002929688
 21
326.3684570312
 31
0.0
  0
LINE
  5
C1
330
1F
100
AcDbEntity
  8
0
  6
Continuous
 62
     7
100
AcDbLine
 10
142.4002929688
 20
326.3684570312
 30
0.0
 11
207.9860794064
 21
326.3684570313
 31
0.0
  0
LINE
  5
C2
330
1F
100
AcDbEntity
  8
BEZUGSACHSEN
  6
Continuous
 62
     7
100
AcDbLine
 10
91.5195365827
 20
346.584781205
 30
0.0
 11
90.9002929687
 21
346.7507070312
 31
0.0
  0
LINE
  5
C3
330
1F
100
AcDbEntity
  8
BEZUGSACHSEN
  6
Continuous
 62
     7
100
AcDbLine
 10
90.9002929687
 20
346.7507070312
 30
0.0
 11
45.300218484
 21
344.4661432996
 31
0.0
  0
LINE
  5
C4
330
1F
100
AcDbEntity
  8
BEZUGSACHSEN
  6
Continuous
 62
     7
100
AcDbLine
 10
92.6997216801
 20
346.5507070312
 30
0.0
 11
91.7783556279
 21
346.5507070312
 31
0.0
  0
LINE
  5
C5
330
1F
100
AcDbEntity
  8
BEZUGSACHSEN
  6
Continuous
 62
     7
100
AcDbLine
 10
112.5252929688
 20
354.8684570312
 30
0.0
 11
114.2752929688
 21
354.8684570312
 31
0.0
  0
LWPOLYLINE
  5
C6
330
1F
100
AcDbEntity
  8
DEFAULT_2
  6
DASHED
 62
     8
100
AcDbPolyline
 90
        2
 70
     0
 43
0.35
 10
179.9662437255
 20
317.2284570313
 10
179.9662437255
 20
300.5084570313
  0
LINE
  5
C7
330
1F
100
AcDbEntity
  8
BEZUGSACHSEN
  6
Continuous
 62
     7
100
AcDbLine
 10
110.1526977046
 20
358.8684570312
 30
0.0
 11
105.4002929688
 21
358.8684570313
 31
0.0
  0
LINE
  5
C8
330
1F
100
AcDbEntity
  8
BEZUGSACHSEN
  6
Continuous
 62
     7
100
AcDbLine
 10
95.4002929688
 20
358.8684570313
 30
0.0
 11
93.4002929688
 21
358.8684570313
 31
0.0
  0
LINE
  5
C9
330
1F
100
AcDbEntity
  8
BEZUGSACHSEN
  6
Continuous
 62
     7
100
AcDbLine
 10
116.6478882329
 20
358.8684570313
 30
0.0
 11
122.4002929688
 21
358.8684570313
 31
0.0
  0
LINE
  5
CA
330
1F
100
AcDbEntity
  8
FASEN
  6
Continuous
 62
     7
100
AcDbLine
 10
213.1073997499
 20
296.0755638124
 30
0.0
 11
208.6931861876
 21
291.6613502501
 31
0.0
  0
LINE
  5
CB
330
1F
100
AcDbEntity
  8
RUNDUNGEN
  6
Continuous
 62
     7
100
AcDbLine
 10
208.6931861876
 20
291.6613502501
 30
0.0
 11
213.1073997499
 21
296.0755638124
 31
0.0
  0
LINE
  5
CC
330
1F
100
AcDbEntity
  8
RUNDUNGEN
  6
Continuous
 62
     7
100
AcDbLine
 10
208.6931861876
 20
326.0755638124
 30
0.0
 11
213.1073997499
 21
321.6613502501
 31
0.0
  0
LINE
  5
CD
330
1F
100
AcDbEntity
  8
FASEN
  6
Continuous
 62
     7
100
AcDbLine
 10
213.1073997499
 20
321.6613502501
 30
0.0
 11
208.6931861876
 21
326.0755638124
 31
0.0
  0
LINE
  5
CE
330
1F
100
AcDbEntity
  8
RUNDUNGEN
  6
Continuous
 62
     9
100
AcDbLine
 10
207.9860794064
 20
291.3684570313
 30
0.0
 11
207.9860794064
 21
326.3684570313
 31
0.0
  0
LINE
  5
CF
330
1F
100
AcDbEntity
  8
RUNDUNGEN
  6
Continuous
 62
     9
100
AcDbLine
 10
208.6931861876
 20
291.6613502501
 30
0.0
 11
208.6931861876
 21
326.0755638124
 31
0.0
  0
LINE
  5
D0
330
1F
100
AcDbEntity
  8
RUNDUNGEN
  6
Continuous
 62
     9
100
AcDbLine
 10
213.1073997499
 20
321.6613502501
 30
0.0
 11
213.1073997499
 21
296.0755638124
 31
0.0
  0
LINE
  5
D1
330
1F
100
AcDbEntity
  8
RUNDUNGEN
  6
Continuous
 62
     7
100
AcDbLine
 10
213.4002929688
 20
320.9542434689
 30
0.0
 11
213.4002929688
 21
296.7826705936
 31
0.0
  0
ARC
  5
D2
330
1F
100
AcDbEntity
  8
FASEN
  6
Continuous
 62
     7
100
AcDbCircle
 10
111.3009469917
 20
284.3997203013
 30
0.0
 40
19.0385948731999
100
AcDbArc
 50
227.4837701982995
 51
228.9651953374996
  0
ARC
  5
D3
330
1F
100
AcDbEntity
  8
FASEN
  6
Continuous
 62
     7
100
AcDbCircle
 10
106.3721668906
 20
269.3684570312
 30
0.0
 40
8.000000000099988
100
AcDbArc
 50
90.0
 51
172.8323734889971
  0
ARC
  5
D4
330
1F
100
AcDbEntity
  8
FASEN
  6
Continuous
 62
     7
100
AcDbCircle
 10
106.3721668906
 20
269.3684570312
 30
0.0
 40
7.599982194999995
100
AcDbArc
 50
90.0
 51
174.9405171265508
  0
ARC
  5
D5
330
1F
100
AcDbEntity
  8
BEZUGSACHSEN
  6
Continuous
 62
     7
100
AcDbCircle
 10
51.4002929688
 20
300.8584570313
 30
0.0
 40
2.000000000100044
100
AcDbArc
 50
270.0
 51
355.235536186493
  0
ARC
  5
D6
330
1F
100
AcDbEntity
  8
BEZUGSACHSEN
  6
Continuous
 62
     7
100
AcDbCircle
 10
45.4002929688
 20
275.2682654682
 30
0.0
 40
2.0
100
AcDbArc
 50
179.9999999971356
 51
267.1318795108406
  0
ARC
  5
D7
330
1F
100
AcDbEntity
  8
BEZUGSACHSEN
  6
Continuous
 62
     7
100
AcDbCircle
 10
112.5252929688
 20
261.8684570313
 30
0.0
 40
1.0
100
AcDbArc
 50
90.0
 51
180.0
  0
ARC
  5
D8
330
1F
100
AcDbEntity
  8
BEZUGSACHSEN
  6
Continuous
 62
     7
100
AcDbCircle
 10
91.7783556279
 20
270.1862070313
 30
0.0
 40
0.9999999999000124
100
AcDbArc
 50
90.0
 51
105.0000000067153
  0
ARC
  5
D9
330
1F
100
AcDbEntity
  8
BEZUGSACHSEN
  6
Continuous
 62
     7
100
AcDbCircle
 10
92.6997216801
 20
270.1862070313
 30
0.0
 40
1.000000000000077
100
AcDbArc
 50
45.5216429127043
 51
90.0
  0
ARC
  5
DA
330
1F
100
AcDbEntity
  8
0
  6
Continuous
 62
     7
100
AcDbCircle
 10
-131.1974869144
 20
378.3029246219
 30
0.0
 40
264.5204223909507
100
AcDbArc
 50
335.8400764706018
 51
336.5770705490999
  0
ARC
  5
DB
330
1F
100
AcDbEntity
  8
BEZUGSACHSEN
  6
Continuous
 62
     7
100
AcDbCircle
 10
100.4155009799
 20
408.9212267981
 30
0.0
 40
50.30340021035248
100
AcDbArc
 50
264.2781515101899
 51
269.9826780126003
  0
ARC
  5
DC
330
1F
100
AcDbEntity
  8
BEZUGSACHSEN
  6
Continuous
 62
     7
100
AcDbCircle
 10
100.3850849677
 20
408.9212265974
 30
0.0
 40
50.30340000969741
100
AcDbArc
 50
270.0173219760583
 51
275.7218485012679
  0
ARC
  5
DD
330
1F
100
AcDbEntity
  8
0
  6
Continuous
 62
     7
100
AcDbCircle
 10
108.4002929688
 20
308.8684570312
 30
0.0
 40
10.00000000009999
100
AcDbArc
 50
90.0
 51
270.0
  0
ARC
  5
DE
330
1F
100
AcDbEntity
  8
FASEN
  6
Continuous
 62
     7
100
AcDbCircle
 10
108.4002929688
 20
308.8684570312
 30
0.0
 40
9.599999195899954
100
AcDbArc
 50
90.0
 51
270.0
  0
ARC
  5
DF
330
1F
100
AcDbEntity
  8
BEZUGSACHSEN
  6
Continuous
 62
     7
100
AcDbCircle
 10
51.4002929688
 20
316.8784570313
 30
0.0
 40
1.999999999999984
100
AcDbArc
 50
4.76446378498879
 51
90.0
  0
ARC
  5
E0
330
1F
100
AcDbEntity
  8
BEZUGSACHSEN
  6
Continuous
 62
     7
100
AcDbCircle
 10
45.4002929688
 20
342.4686485943
 30
0.0
 40
2.000000000052351
100
AcDbArc
 50
92.86812048915951
 51
180.0000000143238
  0
ARC
  5
E1
330
1F
100
AcDbEntity
  8
BEZUGSACHSEN
  6
Continuous
 62
     7
100
AcDbCircle
 10
112.5252929688
 20
355.8684570313
 30
0.0
 40
1.0
100
AcDbArc
 50
180.0
 51
270.0
  0
ARC
  5
E2
330
1F
100
AcDbEntity
  8
BEZUGSACHSEN
  6
Continuous
 62
     7
100
AcDbCircle
 10
91.7783556279
 20
347.5507070313
 30
0.0
 40
1.000000000035796
100
AcDbArc
 50
254.9999999947674
 51
270.0
  0
ARC
  5
E3
330
1F
100
AcDbEntity
  8
BEZUGSACHSEN
  6
Continuous
 62
     7
100
AcDbCircle
 10
92.6997216801
 20
347.5507070313
 30
0.0
 40
1.000000000100044
100
AcDbArc
 50
270.0
 51
314.4783570872957
  0
ARC
  5
E4
330
1F
100
AcDbEntity
  8
BEZUGSACHSEN
  6
Continuous
 62
     7
100
AcDbCircle
 10
229.730339567
 20
-1297.1743022587
 30
0.0
 40
1632.172763698
100
AcDbArc
 50
96.2726189838
 51
96.48809068979999
  0
ARC
  5
E5
330
1F
100
AcDbEntity
  8
RUNDUNGEN
  6
Continuous
 62
     7
100
AcDbCircle
 10
142.4002929688
 20
271.3684570313
 30
0.0
 40
20.0
100
AcDbArc
 50
90.0
 51
180.0
  0
ARC
  5
E6
330
1F
100
AcDbEntity
  8
BEZUGSACHSEN
  6
Continuous
 62
     7
100
AcDbCircle
 10
114.2752929688
 20
261.8684570313
 30
0.0
 40
1.0
100
AcDbArc
 50
0.0
 51
90.0
  0
ARC
  5
E7
330
1F
100
AcDbEntity
  8
RUNDUNGEN
  6
Continuous
 62
     7
100
AcDbCircle
 10
207.9860794064
 20
292.3684570312
 30
0.0
 40
0.9999999999000124
100
AcDbArc
 50
270.0
 51
315.0000000040498
  0
ARC
  5
E8
330
1F
100
AcDbEntity
  8
RUNDUNGEN
  6
Continuous
 62
     7
100
AcDbCircle
 10
212.4002929688
 20
296.7826705936
 30
0.0
 40
0.9999999999483382
100
AcDbArc
 50
314.9999999959479
 51
0.0
  0
ARC
  5
E9
330
1F
100
AcDbEntity
  8
BEZUGSACHSEN
  6
Continuous
 62
     7
100
AcDbCircle
 10
229.7303395669
 20
1914.911216321
 30
0.0
 40
1632.1727636978
100
AcDbArc
 50
263.5119093102
 51
263.7273810162
  0
ARC
  5
EA
330
1F
100
AcDbEntity
  8
0
  6
Continuous
 62
     7
100
AcDbCircle
 10
357.9980728516
 20
378.3029246218
 30
0.0
 40
264.5204223905999
100
AcDbArc
 50
203.4229294508999
 51
204.159923529405
  0
ARC
  5
EB
330
1F
100
AcDbEntity
  8
RUNDUNGEN
  6
Continuous
 62
     7
100
AcDbCircle
 10
142.4002929688
 20
346.3684570313
 30
0.0
 40
19.99999999999999
100
AcDbArc
 50
180.0
 51
270.0
  0
ARC
  5
EC
330
1F
100
AcDbEntity
  8
BEZUGSACHSEN
  6
Continuous
 62
     7
100
AcDbCircle
 10
114.2752929688
 20
355.8684570313
 30
0.0
 40
1.000000000099988
100
AcDbArc
 50
270.0
 51
0.0
  0
ARC
  5
ED
330
1F
100
AcDbEntity
  8
RUNDUNGEN
  6
Continuous
 62
     7
100
AcDbCircle
 10
207.9860794064
 20
325.3684570313
 30
0.0
 40
0.999999999948298
100
AcDbArc
 50
44.99999999594792
 51
90.0
  0
ARC
  5
EE
330
1F
100
AcDbEntity
  8
RUNDUNGEN
  6
Continuous
 62
     7
100
AcDbCircle
 10
212.4002929688
 20
320.9542434689
 30
0.0
 40
1.0
100
AcDbArc
 50
0.0
 51
45.00000000404977
  0
CIRCLE
  5
EF
330
1F
100
AcDbEntity
  8
BEZUGSACHSEN
  6
Continuous
 62
     7
100
AcDbCircle
 10
78.4002929688
 20
308.8684570313
 30
0.0
 40
6.0
  0
SPLINE
  5
F0
330
1F
100
AcDbEntity
  8
BEZUGSACHSEN
  6
Continuous
 62
     7
100
AcDbSpline
210
0.0
220
0.0
230
1.0
 70
     8
 71
     3
 72
    19
 73
    15
 74
    13
 42
0.0000000001
 43
0.0000000001
 44
0.00000001
 40
0.0
 40
0.0
 40
0.0
 40
0.0
 40
0.2679411643354413
 40
0.5361267936930506
 40
0.8065304773715931
 40
1.076465993222681
 40
1.213913376119185
 40
1.351353104826825
 40
1.491586366995088
 40
1.631807897484951
 40
1.775491562703257
 40
1.919219204689234
 40
2.065713007323112
 40
2.211936409246689
 40
2.211936409246689
 40
2.211936409246689
 40
2.211936409246689
 10
52.9541389157
 20
293.8584570312
 30
0.0
 10
52.9202446719009
 20
293.7757854514961
 30
0.0
 10
52.85242525976349
 20
293.6103668639263
 30
0.0
 10
52.72778675347441
 20
293.3717008902581
 30
0.0
 10
52.5828759541379
 20
293.144012894255
 30
0.0
 10
52.43983232261615
 20
292.9682084029475
 30
0.0
 10
52.31072593571493
 20
292.8402586838398
 30
0.0
 10
52.20461083665249
 20
292.7511716630491
 30
0.0
 10
52.08980140900624
 20
292.6718700227422
 30
0.0
 10
51.96534179677202
 20
292.6041995553145
 30
0.0
 10
51.83248824163505
 20
292.5513968686321
 30
0.0
 10
51.69183744276153
 20
292.5162306046279
 30
0.0
 10
51.54651205967217
 20
292.4998784026835
 30
0.0
 10
51.44900264062761
 20
292.5065011360352
 30
0.0
 10
51.4002929688
 20
292.5098094438
 30
0.0
 11
52.9541389157
 21
293.8584570312
 31
0.0
 11
52.84870165598107
 21
293.6121331553609
 31
0.0
 11
52.72483214040444
 21
293.3742679100964
 31
0.0
 11
52.57848665409116
 21
293.1468890395242
 31
0.0
 11
52.40723446296266
 21
292.938231737348
 31
0.0
 11
52.30944202428336
 21
292.841647980938
 31
0.0
 11
52.20402503502865
 21
292.7534610351711
 31
0.0
 11
52.08848639131522
 21
292.6739865762096
 31
0.0
 11
51.96516438142186
 21
292.6072500832782
 31
0.0
 11
51.831533693222
 21
292.5544501323143
 31
0.0
 11
51.69210599201423
 21
292.5195567059023
 31
0.0
 11
51.54641155349606
 21
292.504273879102
 31
0.0
 11
51.4002929688
 21
292.5098094438
 31
0.0
  0
SPLINE
  5
F1
330
1F
100
AcDbEntity
  8
BEZUGSACHSEN
  6
Continuous
 62
     7
100
AcDbSpline
210
0.0
220
0.0
230
1.0
 70
     8
 71
     3
 72
    47
 73
    43
 74
    41
 42
0.0000000001
 43
0.0000000001
 44
0.00000001
 40
0.0
 40
0.0
 40
0.0
 40
0.0
 40
0.6366022431795026
 40
1.273595002170145
 40
1.592921746393654
 40
1.91207634487273
 40
2.231392290399007
 40
2.550826842702651
 40
3.189774321146468
 40
3.829081697007696
 40
4.468337152520387
 40
5.107221744778917
 40
5.426176341264613
 40
5.745033356803675
 40
6.063356731566787
 40
6.381780214863384
 40
7.017059195641583
 40
7.652639340955909
 40
8.287532214196252
 40
8.922347946461699
 40
9.559226748550962
 40
10.1961343593514
 40
10.83451785501325
 40
11.47287689972557
 40
12.11234487365448
 40
12.75189588950819
 40
13.39354300522761
 40
14.03487957357823
 40
14.35615205773233
 40
14.67732107713706
 40
14.99840882475447
 40
15.31959604126074
 40
15.96011121031178
 40
16.60099592090744
 40
17.23809108078962
 40
17.8748255520134
 40
18.19205670334356
 40
18.50917199102588
 40
18.82571084631995
 40
19.1424158183195
 40
19.77338975001134
 40
20.4039893073946
 40
20.4039893073946
 40
20.4039893073946
 40
20.4039893073946
 10
71.9008773745
 20
308.8684570118
 30
0.0
 10
71.90688301836077
 20
309.0807368214958
 30
0.0
 10
71.91889799017068
 20
309.5054266613242
 30
0.0
 10
72.00016333542519
 20
310.0315694224323
 30
0.0
 10
72.09288293199448
 20
310.4465437985596
 30
0.0
 10
72.17817589611165
 20
310.7543677742525
 30
0.0
 10
72.27841450954237
 20
311.0576604510282
 30
0.0
 10
72.43190005870511
 20
311.455097813567
 30
0.0
 10
72.66037200550974
 20
311.9371973904511
 30
0.0
 10
72.98998696608152
 20
312.4860132632975
 30
0.0
 10
73.37221418314903
 20
312.9995488026676
 30
0.0
 10
73.73106888025146
 20
313.3940515647632
 30
0.0
 10
74.04002223380755
 20
313.6869248628055
 30
0.0
 10
74.28191734277996
 20
313.8946466839093
 30
0.0
 10
74.53356059626893
 20
314.0901560810163
 30
0.0
 10
74.88085470343248
 20
314.3336512836541
 30
0.0
 10
75.33659503819213
 20
314.6055333536764
 30
0.0
 10
75.91207446287697
 20
314.8768624661895
 30
0.0
 10
76.51118522804036
 20
315.0906460970036
 30
0.0
 10
77.12863563050257
 20
315.2453358283876
 30
0.0
 10
77.75890619219933
 20
315.3391428120761
 30
0.0
 10
78.39650012693035
 20
315.3712695369198
 30
0.0
 10
79.03467877116546
 20
315.340839963983
 30
0.0
 10
79.66769119236135
 20
315.2481687088056
 30
0.0
 10
80.28892487679674
 20
315.0936767475407
 30
0.0
 10
80.89306062876993
 20
314.8786396149806
 30
0.0
 10
81.47353970235513
 20
314.6047162492813
 30
0.0
 10
81.93316872658767
 20
314.329549371251
 30
0.0
 10
82.28306771525071
 20
314.0829396723999
 30
0.0
 10
82.5361993444007
 20
313.8850354800188
 30
0.0
 10
82.77919798375042
 20
313.6748569505922
 30
0.0
 10
83.08844232724464
 20
313.3793376104131
 30
0.0
 10
83.44676251804239
 20
312.9818666276615
 30
0.0
 10
83.82671293638295
 20
312.466199866136
 30
0.0
 10
84.15318596595216
 20
311.9166037096743
 30
0.0
 10
84.37855710591165
 20
311.4354981679669
 30
0.0
 10
84.52964808906405
 20
311.0395079803458
 30
0.0
 10
84.6280610066232
 20
310.7380816295504
 30
0.0
 10
84.71172778482057
 20
310.4323862616138
 30
0.0
 10
84.8025471422906
 20
310.0208342438777
 30
0.0
 10
84.88206211792436
 20
309.4994090273619
 30
0.0
 10
84.89383440252399
 20
309.0787327382269
 30
0.0
 10
84.8997187981
 20
308.8684570119
 30
0.0
 11
71.9008773745
 21
308.8684570118
 31
0.0
 11
71.93212604548422
 21
309.5042918461579
 31
0.0
 11
72.02556724786902
 21
310.1343938352861
 31
0.0
 11
72.09550775488454
 21
310.4459670932124
 31
0.0
 11
72.18064909383652
 21
310.7535554709704
 31
0.0
 11
72.28087363196434
 21
311.0567348156237
 31
0.0
 11
72.39595352172064
 21
311.3547198021232
 31
0.0
 11
72.66954941599666
 21
311.9321270819916
 31
0.0
 11
72.99876892969644
 21
312.4801493740837
 31
0.0
 11
73.38039318502214
 21
312.9929948334083
 31
0.0
 11
73.81032782111929
 21
313.4655725845872
 31
0.0
 11
74.04180008217459
 21
313.685009652972
 31
0.0
 11
74.28370248320101
 21
313.8927427142216
 31
0.0
 11
74.53507629035553
 21
314.0880398724119
 31
0.0
 11
74.79580556864742
 21
314.2708341780019
 31
0.0
 11
75.34133921285726
 21
314.5963682414326
 31
0.0
 11
75.91624903297597
 21
314.8673679090502
 31
0.0
 11
76.51419522072285
 21
315.0807907687686
 31
0.0
 11
77.12998775294632
 21
315.2350326929965
 31
0.0
 11
77.75992003492398
 21
315.3288406280184
 31
0.0
 11
78.39602315666166
 21
315.3608425531339
 31
0.0
 11
79.03368411568037
 21
315.330478283395
 31
0.0
 11
79.66530164859094
 21
315.237949573872
 31
0.0
 11
80.28587452071584
 21
315.0836492172185
 31
0.0
 11
80.88837532786964
 21
314.8691305018146
 31
0.0
 11
81.46868252425078
 21
314.595352162753
 31
0.0
 11
82.0189075122988
 21
314.2658600438317
 31
0.0
 11
82.28151481644626
 21
314.0807832681872
 31
0.0
 11
82.53453527383812
 21
313.8829697520499
 31
0.0
 11
82.77738357520242
 21
313.6729172724299
 31
0.0
 11
83.00958601060947
 21
313.4510090548306
 31
0.0
 11
83.43850206834118
 21
312.9753088370418
 31
0.0
 11
83.81861272699665
 21
312.4593155236628
 31
0.0
 11
84.14405187268268
 21
311.9116115842937
 31
0.0
 11
84.41413273077826
 21
311.3349946257025
 31
0.0
 11
84.52722317595824
 21
311.0386061060476
 31
0.0
 11
84.62566727930756
 21
310.7371581599647
 31
0.0
 11
84.70915008470736
 21
310.4318264254308
 31
0.0
 11
84.7776995081703
 21
310.1226290518454
 31
0.0
 11
84.86912658607112
 21
309.4983140737284
 31
0.0
 11
84.8997187981
 21
308.8684570119
 31
0.0
  0
SPLINE
  5
F2
330
1F
100
AcDbEntity
  8
BEZUGSACHSEN
  6
Continuous
 62
     7
100
AcDbSpline
210
0.0
220
0.0
230
1.0
 70
     8
 71
     3
 72
    27
 73
    23
 74
    21
 42
0.0000000001
 43
0.0000000001
 44
0.00000001
 40
0.0
 40
0.0
 40
0.0
 40
0.0
 40
0.1260969825525345
 40
0.2522464959194695
 40
0.366886795250461
 40
0.48158258939538
 40
0.5839596006914335
 40
0.6859489161650693
 40
0.7334568410908392
 40
0.7809568849358999
 40
0.8274002264845779
 40
0.8738421607604895
 40
0.9204907319419896
 40
0.9671431399762792
 40
1.015111401873028
 40
1.06308749719324
 40
1.165500418794713
 40
1.268190479000976
 40
1.380949153930293
 40
1.493646517802632
 40
1.615655563755023
 40
1.737631867603755
 40
1.737631867603755
 40
1.737631867603755
 40
1.737631867603755
 10
43.4002929688
 20
323.5026895174
 30
0.0
 10
43.40102151027629
 20
323.544732445461
 30
0.0
 10
43.40247889673235
 20
323.6288358162705
 30
0.0
 10
43.41592345868078
 20
323.750583143833
 30
0.0
 10
43.43887889196634
 20
323.8670008602113
 30
0.0
 10
43.47284479230223
 20
323.9725763180058
 30
0.0
 10
43.51907055115471
 20
324.068734380277
 30
0.0
 10
43.56761371970596
 20
324.1379037459653
 30
0.0
 10
43.61305304526731
 20
324.1854412275933
 30
0.0
 10
43.6489591233594
 20
324.2161365110762
 30
0.0
 10
43.68760655445229
 20
324.2426715467886
 30
0.0
 10
43.72856104165781
 20
324.2648998926836
 30
0.0
 10
43.77170066783336
 20
324.2826931095613
 30
0.0
 10
43.81688130244673
 20
324.2962265166224
 30
0.0
 10
43.86358852543617
 20
324.3054236419561
 30
0.0
 10
43.92941251664052
 20
324.3123789623309
 30
0.0
 10
44.01414026864013
 20
324.310513705665
 30
0.0
 10
44.11897187212485
 20
324.2935990446783
 30
0.0
 10
44.22455111446723
 20
324.2641844118045
 30
0.0
 10
44.33270905255876
 20
324.2224327743561
 30
0.0
 10
44.44036131382374
 20
324.1716369472372
 30
0.0
 10
44.51088068863759
 20
324.1310725190041
 30
0.0
 10
44.5461356443
 20
324.1107930267
 30
0.0
 11
43.4002929688
 21
323.5026895174
 31
0.0
 11
43.40442432836465
 21
323.628718803191
 31
0.0
 11
43.41819108748565
 21
323.7541148799479
 31
0.0
 11
43.44104266356779
 21
323.8664545599424
 31
0.0
 11
43.47668085293866
 21
323.9754731118173
 31
0.0
 11
43.52158061773879
 21
324.0674788918683
 31
0.0
 11
43.58075304669295
 21
324.1505478037575
 31
0.0
 11
43.61360554685447
 21
324.1848656732119
 31
0.0
 11
43.64974264178129
 21
324.2156936562068
 31
0.0
 11
43.68802990664272
 21
324.2419818536276
 31
0.0
 11
43.72885251457998
 21
324.2641261066177
 31
0.0
 11
43.77195865819803
 21
324.2819572472334
 31
0.0
 11
43.81663823024238
 21
324.2953804740188
 31
0.0
 11
43.86368903599752
 21
324.3047172736411
 31
0.0
 11
43.91139292327158
 21
324.3098206902532
 31
0.0
 11
44.01379256412933
 21
324.3081714288563
 31
0.0
 11
44.11525681443003
 21
324.2923519985226
 31
0.0
 11
44.22398053086722
 21
324.2624576469508
 31
0.0
 11
44.32929852316173
 21
324.2223475943102
 31
0.0
 11
44.43959120906712
 21
324.1701773850909
 31
0.0
 11
44.5461356443
 21
324.1107930267
 31
0.0
  0
SPLINE
  5
F3
330
1F
100
AcDbEntity
  8
BEZUGSACHSEN
  6
Continuous
 62
     7
100
AcDbSpline
210
0.0
220
0.0
230
1.0
 70
     8
 71
     3
 72
    47
 73
    43
 74
    41
 42
0.0000000001
 43
0.0000000001
 44
0.00000001
 40
0.0
 40
0.0
 40
0.0
 40
0.0
 40
0.6302393214806762
 40
1.260854867359817
 40
1.577476088434212
 40
1.89393080025179
 40
2.210999113892186
 40
2.52818347223252
 40
3.164887038287278
 40
3.801951183445391
 40
4.442851001662355
 40
5.083381259820685
 40
5.40452729233928
 40
5.72557383878142
 40
6.046670710052119
 40
6.367871027174167
 40
7.009090242556148
 40
7.650619763955906
 40
8.290330346487591
 40
8.92995876447833
 40
9.568647011364856
 40
10.20735923016783
 40
10.8444570581855
 40
11.48152626497129
 40
12.11643462223007
 40
12.75141965579726
 40
13.38691908738441
 40
14.02211738533197
 40
14.34050449145841
 40
14.65879153795455
 40
14.97761586871914
 40
15.29653774948038
 40
15.93537694102994
 40
16.57458694068566
 40
17.21386274994169
 40
17.85277859077564
 40
18.17219860085023
 40
18.49150024078021
 40
18.81067156637628
 40
19.1300145242418
 40
19.76719627024859
 40
20.40398968280524
 40
20.40398968280524
 40
20.40398968280524
 40
20.40398968280524
 10
84.8997066066
 20
308.86845705
 30
0.0
 10
84.89383740482958
 20
308.6583010281046
 30
0.0
 10
84.88209549764048
 20
308.2378635306643
 30
0.0
 10
84.80264875513035
 20
307.7167000883928
 30
0.0
 10
84.71191725003338
 20
307.3053086209726
 30
0.0
 10
84.62831186771163
 20
306.9996707806903
 30
0.0
 10
84.52995992633589
 20
306.6982869345052
 30
0.0
 10
84.37894111548015
 20
306.3023137549069
 30
0.0
 10
84.15365852787826
 20
305.8212069462151
 30
0.0
 10
83.82728049313438
 20
305.2715727212043
 30
0.0
 10
83.44741343110236
 20
304.7558448585381
 30
0.0
 10
83.08915899182381
 20
304.3583194563347
 30
0.0
 10
82.77997825415778
 20
304.0627661013995
 30
0.0
 10
82.53705329812828
 20
303.8525811929658
 30
0.0
 10
82.28400439480163
 20
303.6546717286507
 30
0.0
 10
81.93422188633781
 20
303.4080483771913
 30
0.0
 10
81.4747366485854
 20
303.1328417679181
 30
0.0
 10
80.8943409416294
 20
302.8588016612059
 30
0.0
 10
80.29018663379956
 20
302.6436131838492
 30
0.0
 10
79.66877148639392
 20
302.4889513448088
 30
0.0
 10
79.03550227495127
 20
302.3961409717772
 30
0.0
 10
78.39704281051019
 20
302.3656302219694
 30
0.0
 10
77.75920979695532
 20
302.3977319643511
 30
0.0
 10
77.12877980996215
 20
302.4915450267275
 30
0.0
 10
76.51120614046498
 20
302.6462588430168
 30
0.0
 10
75.91206272903212
 20
302.8600554150904
 30
0.0
 10
75.33660550756586
 20
303.1313767835466
 30
0.0
 10
74.8809201146108
 20
303.4032216671955
 30
0.0
 10
74.53366421686019
 20
303.6466822197871
 30
0.0
 10
74.28204463555545
 20
303.8421647461066
 30
0.0
 10
74.04016958528125
 20
304.0498578047954
 30
0.0
 10
73.7312333015987
 20
304.3426953529182
 30
0.0
 10
73.37239054470399
 20
304.7371530018436
 30
0.0
 10
72.99016363945843
 20
305.2506376677942
 30
0.0
 10
72.66053919420719
 20
305.7994054465224
 30
0.0
 10
72.43205174828788
 20
306.2814688630172
 30
0.0
 10
72.27855024831959
 20
306.678878422179
 30
0.0
 10
72.1782934454027
 20
306.982160785463
 30
0.0
 10
72.09297695250892
 20
307.2899846571759
 30
0.0
 10
72.00021449718508
 20
307.7050255242897
 30
0.0
 10
71.91892213025096
 20
308.2312983233634
 30
0.0
 10
71.906882330692
 20
308.6561139730613
 30
0.0
 10
71.9008642659
 20
308.8684570517
 30
0.0
 11
84.8997066066
 21
308.86845705
 31
0.0
 11
84.86916702782317
 21
308.2389580933142
 31
0.0
 11
84.7778357523076
 21
307.6149912954658
 31
0.0
 11
84.70934101360217
 21
307.305867584948
 31
0.0
 11
84.62592218874123
 21
307.000605592079
 31
0.0
 11
84.52753544489119
 21
306.6991883328695
 31
0.0
 11
84.41450481378708
 21
306.4028270776286
 31
0.0
 11
84.14452467727475
 21
305.826197077615
 31
0.0
 11
83.81918805542139
 21
305.2784683057515
 31
0.0
 11
83.43915156062943
 21
304.7624016050075
 31
0.0
 11
83.01030106296871
 21
304.2866219687551
 31
0.0
 11
82.77816392859869
 21
304.0647050359876
 31
0.0
 11
82.53538143526235
 21
303.8546394607217
 31
0.0
 11
82.28245182696402
 21
303.6568268878506
 31
0.0
 11
82.01993743112969
 21
303.4717435668866
 31
0.0
 11
81.46987924953088
 21
303.1422013404098
 31
0.0
 11
80.88973841787988
 21
302.86834600948
 31
0.0
 11
80.28713310758833
 21
302.6536451258967
 31
0.0
 11
79.66643383726704
 21
302.4991882421914
 31
0.0
 11
79.03450502334466
 21
302.4065132679769
 31
0.0
 11
78.39651889616349
 21
302.3760665937319
 31
0.0
 11
77.76022390803861
 21
302.4080404979665
 31
0.0
 11
77.13010063393094
 21
302.5018585861078
 31
0.0
 11
76.51421672568948
 21
302.65611692036
 31
0.0
 11
75.91618425587052
 21
302.8695722034911
 31
0.0
 11
75.3413485073238
 21
303.1405397102891
 31
0.0
 11
74.79588181978241
 21
303.4660285280664
 31
0.0
 11
74.53517952700551
 21
303.6487979562771
 31
0.0
 11
74.28383027519718
 21
303.8440675073664
 31
0.0
 11
74.04194697684763
 21
304.0517726441999
 31
0.0
 11
73.81049114554743
 21
304.2711794904591
 31
0.0
 11
73.38056811466721
 21
304.7437064210974
 31
0.0
 11
72.9989469752094
 21
305.2564975380045
 31
0.0
 11
72.66971550103037
 21
305.8044758192437
 31
0.0
 11
72.39610119388632
 21
306.3818393638104
 31
0.0
 11
72.28100894142793
 21
306.6798039863079
 31
0.0
 11
72.180769253012
 21
306.9829632548917
 31
0.0
 11
72.09560217281893
 21
307.2905618627139
 31
0.0
 11
72.02563914536415
 21
307.6021466818686
 31
0.0
 11
71.93215024840025
 21
308.2324326515591
 31
0.0
 11
71.9008642659
 21
308.8684570517
 31
0.0
  0
SPLINE
  5
F4
330
1F
100
AcDbEntity
  8
BEZUGSACHSEN
  6
Continuous
 62
     7
100
AcDbSpline
210
0.0
220
0.0
230
1.0
 70
     8
 71
     3
 72
    27
 73
    23
 74
    21
 42
0.0000000001
 43
0.0000000001
 44
0.00000001
 40
0.0
 40
0.0
 40
0.0
 40
0.0
 40
0.1219765139516402
 40
0.243985771474894
 40
0.3566831398307393
 40
0.4694418149413866
 40
0.5721317672348882
 40
0.6745445880227563
 40
0.7225206520242885
 40
0.7704888796722466
 40
0.8171412935079637
 40
0.8637898733435768
 40
0.9102318000271566
 40
0.9566751323770787
 40
1.004175175705609
 40
1.051683100081103
 40
1.153672388681726
 40
1.256049376623399
 40
1.370745138022755
 40
1.485385401773149
 40
1.611534903801102
 40
1.737631875930137
 40
1.737631875930137
 40
1.737631875930137
 40
1.737631875930137
 10
44.5461356443
 20
293.6261210358
 30
0.0
 10
44.51088062669662
 20
293.6058415105351
 30
0.0
 10
44.44036112757621
 20
293.5652770161369
 30
0.0
 10
44.33270872439113
 20
293.5144811552458
 30
0.0
 10
44.22455070852669
 20
293.4727295193789
 30
0.0
 10
44.11897148757939
 20
293.4433149342376
 30
0.0
 10
44.01413994246455
 20
293.4264003468458
 30
0.0
 10
43.92941227264045
 20
293.4245351236191
 30
0.0
 10
43.86358833624966
 20
293.4314904316386
 30
0.0
 10
43.81688113303685
 20
293.4406875587918
 30
0.0
 10
43.77170051572817
 20
293.4542210037807
 30
0.0
 10
43.72856090506198
 20
293.4720142625886
 30
0.0
 10
43.6876064284583
 20
293.4942426202866
 30
0.0
 10
43.64895900196608
 20
293.5207776519816
 30
0.0
 10
43.61305292333913
 20
293.5514729295182
 30
0.0
 10
43.56761360183334
 20
293.5990104026491
 30
0.0
 10
43.51907046177284
 20
293.6681797697504
 30
0.0
 10
43.47284475279952
 20
293.7643378244513
 30
0.0
 10
43.4388788789798
 20
293.8699132574151
 30
0.0
 10
43.41592345477557
 20
293.9863309483005
 30
0.0
 10
43.40247889647186
 20
294.1080782569773
 30
0.0
 10
43.40102151019123
 20
294.1921816205199
 30
0.0
 10
43.4002929688
 20
294.2342245451
 30
0.0
 11
44.5461356443
 21
293.6261210358
 31
0.0
 11
44.43959102023946
 21
293.5667365846398
 31
0.0
 11
44.32929813107078
 21
293.5145663103431
 31
0.0
 11
44.22398012322117
 21
293.4744562859486
 31
0.0
 11
44.11525639469775
 21
293.4445619776496
 31
0.0
 11
44.01379224261547
 21
293.4287426178565
 31
0.0
 11
43.91139270206395
 21
293.4270933887745
 31
0.0
 11
43.86368884585649
 21
293.43219680136
 31
0.0
 11
43.81663807559577
 21
293.441533603894
 31
0.0
 11
43.77195850816027
 21
293.4549568661828
 31
0.0
 11
43.72885237154978
 21
293.4727880463793
 31
0.0
 11
43.68802977872131
 21
293.4949323112992
 31
0.0
 11
43.64974252215221
 21
293.5212205045459
 31
0.0
 11
43.61360542515138
 21
293.5520484843137
 31
0.0
 11
43.58075292480545
 21
293.5863663528298
 31
0.0
 11
43.52158053058096
 21
293.6694352564641
 31
0.0
 11
43.47668080697208
 21
293.76144103063
 31
0.0
 11
43.44104264737473
 21
293.870459557787
 31
0.0
 11
43.41819108399429
 21
293.9827992040559
 31
0.0
 11
43.40442432770289
 21
294.1081952697164
 31
0.0
 11
43.4002929688
 21
294.2342245451
 31
0.0
  0
SPLINE
  5
F5
330
1F
100
AcDbEntity
  8
BEZUGSACHSEN
  6
Continuous
 62
     7
100
AcDbSpline
210
0.0
220
0.0
230
1.0
 70
     8
 71
     3
 72
    15
 73
    11
 74
     9
 42
0.0000000001
 43
0.0000000001
 44
0.00000001
 40
0.0
 40
0.0
 40
0.0
 40
0.0
 40
0.1110371613045362
 40
0.2222522336839856
 40
0.3333980191333153
 40
0.4445069474378825
 40
0.5556201065049868
 40
0.666752564207096
 40
0.7778876033057578
 40
0.8889820915754274
 40
0.8889820915754274
 40
0.8889820915754274
 40
0.8889820915754274
 10
45.300218484
 20
293.191924645
 30
0.0
 10
45.26357675714016
 20
293.1974567978144
 30
0.0
 10
45.19023459362515
 20
293.208529967424
 30
0.0
 10
45.08371804362709
 20
293.2415485309457
 30
0.0
 10
44.98130513588686
 20
293.2851388184342
 30
0.0
 10
44.88385517027518
 20
293.3389183262913
 30
0.0
 10
44.79155037453805
 20
293.4010134616555
 30
0.0
 10
44.70455374639932
 20
293.4703001352797
 30
0.0
 10
44.62230099093767
 20
293.545182086895
 30
0.0
 10
44.57152100452494
 20
293.5991446683982
 30
0.0
 10
44.5461356443
 20
293.6261210358
 30
0.0
 11
45.300218484
 21
293.191924645
 31
0.0
 11
45.19087619895124
 21
293.2112512042096
 31
0.0
 11
45.08438424536315
 21
293.2433176375217
 31
0.0
 11
44.98211606476534
 21
293.2868446964663
 31
0.0
 11
44.88471319832644
 21
293.3403037982028
 31
0.0
 11
44.7924414315242
 21
293.4022073939713
 31
0.0
 11
44.70534432810604
 21
293.4712328800694
 31
0.0
 11
44.62330442363929
 21
293.5462025472058
 31
0.0
 11
44.5461356443
 21
293.6261210358
 31
0.0
  0
SPLINE
  5
F6
330
1F
100
AcDbEntity
  8
0
  6
Continuous
 62
     7
100
AcDbSpline
210
0.0
220
0.0
230
1.0
 70
     8
 71
     3
 72
    19
 73
    15
 74
    13
 42
0.0000000001
 43
0.0000000001
 44
0.00000001
 40
0.0
 40
0.0
 40
0.0
 40
0.0
 40
0.1162460235104266
 40
0.2327881717570887
 40
0.3491890045619429
 40
0.4655468550268996
 40
0.5819071369413311
 40
0.6982738488575779
 40
0.8146206072038352
 40
0.9309998277451014
 40
1.163276323386973
 40
1.396138921730459
 40
1.629013178022593
 40
1.861351539680797
 40
1.861351539680797
 40
1.861351539680797
 40
1.861351539680797
 10
112.5252929687
 20
275.3460764475
 30
0.0
 10
112.4865088978799
 20
275.34423550061
 30
0.0
 10
112.4088419578259
 20
275.3405489172079
 30
0.0
 10
112.2952318727621
 20
275.3121434322732
 30
0.0
 10
112.187044184793
 20
275.2682895180756
 30
0.0
 10
112.0860683188253
 20
275.209692829849
 30
0.0
 10
111.9932998621016
 20
275.1390079685218
 30
0.0
 10
111.9092124831183
 20
275.0582503634358
 30
0.0
 10
111.8339088397435
 20
274.9692827246938
 30
0.0
 10
111.7452575955756
 20
274.8419232769427
 30
0.0
 10
111.6552608498417
 20
274.6691378988542
 30
0.0
 10
111.580367330694
 20
274.4482129086648
 30
0.0
 10
111.5338304054114
 20
274.2191929890699
 30
0.0
 10
111.5281365947041
 20
274.064013596239
 30
0.0
 10
111.5252929688
 20
273.9865132781
 30
0.0
 11
112.5252929687
 21
275.3460764475
 31
0.0
 11
112.4094216172089
 21
275.3367507901171
 31
0.0
 11
112.2960970924865
 21
275.3095547533767
 31
0.0
 11
112.1882239598555
 21
275.2658221438726
 31
0.0
 11
112.0874352203422
 21
275.2076776742118
 31
0.0
 11
111.9947479152947
 21
275.1373301178205
 31
0.0
 11
111.9106725496692
 21
275.0568779920739
 31
0.0
 11
111.8353737917375
 21
274.9681837688594
 31
0.0
 11
111.7687470624222
 21
274.8727636351635
 31
0.0
 11
111.6608572763168
 21
274.66706442641
 31
0.0
 11
111.5850991394869
 21
274.4468697525159
 31
0.0
 11
111.5401391257172
 21
274.2183768283247
 31
0.0
 11
111.5252929688
 21
273.9865132781
 31
0.0
  0
SPLINE
  5
F7
330
1F
100
AcDbEntity
  8
0
  6
Continuous
 62
     7
100
AcDbSpline
210
0.0
220
0.0
230
1.0
 70
     8
 71
     3
 72
    19
 73
    15
 74
    13
 42
0.0000000001
 43
0.0000000001
 44
0.00000001
 40
0.0
 40
0.0
 40
0.0
 40
0.0
 40
0.2323383481160783
 40
0.4652125957045596
 40
0.6980761132820912
 40
0.9303535187426755
 40
1.046733461811391
 40
1.16308094088184
 40
1.279447997449859
 40
1.395808629558251
 40
1.512165904539079
 40
1.628566140364152
 40
1.745106920511274
 40
1.861351602746262
 40
1.861351602746262
 40
1.861351602746262
 40
1.861351602746262
 10
115.2752929688
 20
273.9865132781
 30
0.0
 10
115.2724493431945
 20
274.064013591759
 30
0.0
 10
115.2667555330255
 20
274.2191929772438
 30
0.0
 10
115.2202185571695
 20
274.4482131912615
 30
0.0
 10
115.1453248113663
 20
274.6691387531476
 30
0.0
 10
115.0553275071097
 20
274.8419248173612
 30
0.0
 10
114.9666755693348
 20
274.9692847431057
 30
0.0
 10
114.8913713049906
 20
275.0582526420288
 30
0.0
 10
114.8072833311427
 20
275.1390103119621
 30
0.0
 10
114.7145145972802
 20
275.2096948783035
 30
0.0
 10
114.613538785031
 20
275.26829110246
 30
0.0
 10
114.5053517355416
 20
275.3121443536177
 30
0.0
 10
114.3917426262204
 20
275.3405491130744
 30
0.0
 10
114.3140765914526
 20
275.34423556572
 30
0.0
 10
114.2752929688
 20
275.3460764475
 30
0.0
 11
115.2752929688
 21
273.9865132781
 31
0.0
 11
115.2604468146797
 21
274.2183768149339
 31
0.0
 11
115.2154868130736
 21
274.446869732648
 31
0.0
 11
115.1397283343562
 21
274.6670652610336
 31
0.0
 11
115.0318379231736
 21
274.8727651693037
 31
0.0
 11
114.9652105993501
 21
274.9681857691174
 31
0.0
 11
114.8899111427934
 21
275.0568803446466
 31
0.0
 11
114.8058352764406
 21
275.1373324456218
 31
0.0
 11
114.7131474504394
 21
275.2076798948709
 31
0.0
 11
114.6123590155234
 21
275.2658237408749
 31
0.0
 11
114.5044862867516
 21
275.3095557576071
 31
0.0
 11
114.3911629982446
 21
275.336751082927
 31
0.0
 11
114.2752929688
 21
275.3460764475
 31
0.0
  0
SPLINE
  5
F8
330
1F
100
AcDbEntity
  8
BEZUGSACHSEN
  6
Continuous
 62
     7
100
AcDbSpline
210
0.0
220
0.0
230
1.0
 70
     8
 71
     3
 72
    15
 73
    11
 74
     9
 42
0.0000000001
 43
0.0000000001
 44
0.00000001
 40
0.0
 40
0.0
 40
0.0
 40
0.0
 40
0.1110944831353131
 40
0.2222295181604981
 40
0.3333620402238164
 40
0.4444752610525292
 40
0.5555842178313302
 40
0.6667300354115556
 40
0.7779450182000637
 40
0.8889820871512621
 40
0.8889820871512621
 40
0.8889820871512621
 40
0.8889820871512621
 10
44.5461356443
 20
324.1107930267
 30
0.0
 10
44.57152100387732
 20
324.1377693923749
 30
0.0
 10
44.62230098923744
 20
324.191731970682
 30
0.0
 10
44.70455375850162
 20
324.2666139340859
 30
0.0
 10
44.79155041044918
 20
324.3359006430159
 30
0.0
 10
44.88385525086791
 20
324.3979958061115
 30
0.0
 10
44.98130527285095
 20
324.4517752982232
 30
0.0
 10
45.08371818672432
 20
324.4953655437982
 30
0.0
 10
45.19023468529467
 20
324.5283840996298
 30
0.0
 10
45.26357678800031
 20
324.539457266251
 30
0.0
 10
45.300218484
 20
324.5449894175
 30
0.0
 11
44.5461356443
 21
324.1107930267
 31
0.0
 11
44.6233044214144
 21
324.1907115103053
 31
0.0
 11
44.70534432167828
 21
324.2656811760024
 31
0.0
 11
44.79244147028935
 21
324.3347067086985
 31
0.0
 11
44.88471329186193
 21
324.3966103336861
 31
0.0
 11
44.98211619992718
 21
324.4500694187597
 31
0.0
 11
45.08438442331601
 21
324.4935964592112
 31
0.0
 11
45.19087629144046
 21
324.5256628656206
 31
0.0
 11
45.300218484
 21
324.5449894175
 31
0.0
  0
SPLINE
  5
F9
330
1F
100
AcDbEntity
  8
BEZUGSACHSEN
  6
Continuous
 62
     7
100
AcDbSpline
210
0.0
220
0.0
230
1.0
 70
     8
 71
     3
 72
    11
 73
     7
 74
     5
 42
0.0000000001
 43
0.0000000001
 44
0.00000001
 40
0.0
 40
0.0
 40
0.0
 40
0.0
 40
0.5462907430762547
 40
1.093000863563831
 40
1.646070107101645
 40
2.198197048700526
 40
2.198197048700526
 40
2.198197048700526
 40
2.198197048700526
 10
52.9541389157
 20
323.8784570312
 30
0.0
 10
53.01720971753062
 20
323.7075254019721
 30
0.0
 10
53.14339973949281
 20
323.3655309224313
 30
0.0
 10
53.28303705253935
 20
322.8342567932416
 30
0.0
 10
53.3805254166099
 20
322.2908323882858
 30
0.0
 10
53.39370753113997
 20
321.9222477477095
 30
0.0
 10
53.4002929688
 20
321.738112557
 30
0.0
 11
52.9541389157
 21
323.8784570312
 31
0.0
 11
53.13499024824478
 21
323.3629704925905
 31
0.0
 11
53.27548173295225
 21
322.8346201367013
 31
0.0
 11
53.36754838622967
 21
322.2892676639814
 31
0.0
 11
53.4002929688
 21
321.738112557
 31
0.0
  0
SPLINE
  5
FA
330
1F
100
AcDbEntity
  8
BEZUGSACHSEN
  6
Continuous
 62
     7
100
AcDbSpline
210
0.0
220
0.0
230
1.0
 70
     8
 71
     3
 72
    19
 73
    15
 74
    13
 42
0.0000000001
 43
0.0000000001
 44
0.00000001
 40
0.0
 40
0.0
 40
0.0
 40
0.0
 40
0.1462385987725537
 40
0.2927479274617515
 40
0.4364790705693173
 40
0.5801659235669152
 40
0.7203799971999911
 40
0.8606059381929575
 40
0.9980411883273564
 40
1.135484020375748
 40
1.405415631035761
 40
1.675815514023682
 40
1.943997429454886
 40
2.211934834785509
 40
2.211934834785509
 40
2.211934834785509
 40
2.211934834785509
 10
51.4002929688
 20
325.2271046187
 30
0.0
 10
51.44900777413802
 20
325.2304126960109
 30
0.0
 10
51.54652756999978
 20
325.23703497484
 30
0.0
 10
51.69186383029392
 20
325.2206756620901
 30
0.0
 10
51.83252076739734
 20
325.1855038960196
 30
0.0
 10
51.96537290083238
 20
325.1326982094035
 30
0.0
 10
52.08982736390136
 20
325.0650264216927
 30
0.0
 10
52.20462992108374
 20
324.9857262203197
 30
0.0
 10
52.31073985887339
 20
324.896641580743
 30
0.0
 10
52.43984232405544
 20
324.7686940451717
 30
0.0
 10
52.58288217395322
 20
324.5928917562661
 30
0.0
 10
52.72778977563978
 20
324.3652062903788
 30
0.0
 10
52.85242652404074
 20
324.1265436708547
 30
0.0
 10
52.92024509524333
 20
323.961127430401
 30
0.0
 10
52.9541389157
 20
323.8784570312
 30
0.0
 11
51.4002929688
 21
325.2271046187
 31
0.0
 11
51.5464268306169
 21
325.2326383517474
 31
0.0
 11
51.69213619144855
 21
325.2173489580709
 31
0.0
 11
51.83156627297431
 21
325.1824506219397
 31
0.0
 11
51.96519860988507
 21
325.1296461689445
 31
0.0
 11
52.08851240070405
 21
325.0629101558883
 31
0.0
 11
52.20404351204306
 21
324.9834376647978
 31
0.0
 11
52.30945606183163
 21
324.8952523920672
 31
0.0
 11
52.40724456552782
 21
324.7986711277022
 31
0.0
 11
52.57849296141453
 21
324.5900157627107
 31
0.0
 11
52.72483538192715
 21
324.3626394387928
 31
0.0
 11
52.84870300769963
 21
324.1247773967394
 31
0.0
 11
52.9541389157
 21
323.8784570312
 31
0.0
  0
SPLINE
  5
FB
330
1F
100
AcDbEntity
  8
BEZUGSACHSEN
  6
Continuous
 62
     7
100
AcDbSpline
210
0.0
220
0.0
230
1.0
 70
     8
 71
     3
 72
    11
 73
     7
 74
     5
 42
0.0000000001
 43
0.0000000001
 44
0.00000001
 40
0.0
 40
0.0
 40
0.0
 40
0.0
 40
0.552126940707062
 40
1.105196183368559
 40
1.651906304781475
 40
2.198197048809587
 40
2.198197048809587
 40
2.198197048809587
 40
2.198197048809587
 10
53.4002929688
 20
295.9988015055
 30
0.0
 10
53.39370753117193
 20
295.8146663150879
 30
0.0
 10
53.38052541670558
 20
295.4460816751017
 30
0.0
 10
53.28303705288835
 20
294.9026572703899
 30
0.0
 10
53.1433997398008
 20
294.3713831408601
 30
0.0
 10
53.01720971763432
 20
294.0293886607277
 30
0.0
 10
52.9541389157
 20
293.8584570312
 30
0.0
 11
53.4002929688
 21
295.9988015055
 31
0.0
 11
53.36754838637004
 21
295.4476463994037
 31
0.0
 11
53.27548173340457
 21
294.9022939275198
 31
0.0
 11
53.13499024853689
 21
294.3739435707157
 31
0.0
 11
52.9541389157
 21
293.8584570312
 31
0.0
  0
SPLINE
  5
FC
330
1F
100
AcDbEntity
  8
BEZUGSACHSEN
  6
Continuous
 62
     7
100
AcDbSpline
210
0.0
220
0.0
230
1.0
 70
     8
 71
     3
 72
    11
 73
     7
 74
     5
 42
0.0000000001
 43
0.0000000001
 44
0.00000001
 40
0.0
 40
0.0
 40
0.0
 40
0.0
 40
0.9140556660004083
 40
1.828030949185885
 40
2.279806974871125
 40
2.730944124762567
 40
2.730944124762567
 40
2.730944124762567
 40
2.730944124762567
 10
44.6672458956854
 20
293.858457031485
 30
0.0
 10
44.7999006026488
 20
294.1331736291516
 30
0.0
 10
45.06519835081041
 20
294.6825826656789
 30
0.0
 10
45.280553564123
 20
295.4152935867835
 30
0.0
 10
45.38424777778539
 20
296.0132387928899
 30
0.0
 10
45.39494709530649
 20
296.3143620083166
 30
0.0
 10
45.4002929688
 20
296.4648170829
 30
0.0
 11
44.6672458956854
 21
293.858457031485
 31
0.0
 11
45.04205342546091
 21
294.6921338730555
 31
0.0
 11
45.30134478585874
 21
295.5685577480709
 31
0.0
 11
45.37406175935736
 21
296.0144431808327
 31
0.0
 11
45.4002929688
 21
296.4648170829
 31
0.0
  0
SPLINE
  5
FD
330
1F
100
AcDbEntity
  8
BEZUGSACHSEN
  6
Continuous
 62
     7
100
AcDbSpline
210
0.0
220
0.0
230
1.0
 70
     8
 71
     3
 72
    11
 73
     7
 74
     5
 42
0.0000000001
 43
0.0000000001
 44
0.00000001
 40
0.0
 40
0.0
 40
0.0
 40
0.0
 40
0.8249192367595044
 40
1.650116892030076
 40
2.190492152392522
 40
2.730585915477302
 40
2.730585915477302
 40
2.730585915477302
 40
2.730585915477302
 10
45.4002929688
 20
321.2720969796
 30
0.0
 10
45.38255966446372
 20
321.5472872716063
 30
0.0
 10
45.3470870706232
 20
322.0977607351008
 30
0.0
 10
45.13865225398245
 20
322.802494320287
 30
0.0
 10
44.90842582300071
 20
323.3947080453706
 30
0.0
 10
44.74762524019879
 20
323.717235378816
 30
0.0
 10
44.6672458956854
 20
323.878457031115
 30
0.0
 11
45.4002929688
 21
321.2720969796
 31
0.0
 11
45.31671751468429
 21
322.0927716353834
 31
0.0
 11
45.09875607257253
 21
322.8886635752953
 31
0.0
 11
44.90082099401333
 21
323.391482754213
 31
0.0
 11
44.6672458956854
 21
323.878457031115
 31
0.0
  0
DIMENSION
  5
108
330
1F
100
AcDbEntity
  8
1
100
AcDbDimension
  2
*D2
 10
226.689114499489
 20
326.3684570313
 30
0.0
 11
222.939114499489
 21
308.183374248913
 31
0.0
 70
    32
  1
<>
 71
     5
 42
-1.0
 53
90.0
  3
ME10_DIM_10
100
AcDbAlignedDimension
 13
207.9860794064
 23
291.3684570313
 33
0.0
 14
207.9860794064
 24
326.3684570313
 34
0.0
 50
90.0
100
AcDbRotatedDimension
  0
DIMENSION
  5
113
330
1F
100
AcDbEntity
  8
1
100
AcDbDimension
  2
*D3
 10
213.4002929688
 20
365.952671994382
 30
0.0
 11
169.47395869882
 21
369.702671994382
 31
0.0
 70
    32
  1
<>
 71
     5
 42
-1.0
 53
0.00013888888889
  3
ME10_DIM_11
100
AcDbAlignedDimension
 13
122.4002929688
 23
358.8684201101
 33
0.0
 14
213.4002929688
 24
320.9542434689
 34
0.0
100
AcDbRotatedDimension
  0
DIMENSION
  5
11E
330
1F
100
AcDbEntity
  8
1
100
AcDbDimension
  2
*D4
 10
213.4002929688
 20
373.156517276791
 30
0.0
 11
154.789197161603
 21
376.906517276791
 31
0.0
 70
    32
  1
<>
 71
     5
 42
-1.0
 53
0.00013888888889
  3
ME10_DIM_12
100
AcDbAlignedDimension
 13
93.4002929688
 23
358.8684570313
 33
0.0
 14
213.4002929688
 24
320.9542434689
 34
0.0
100
AcDbRotatedDimension
  0
DIMENSION
  5
129
330
1F
100
AcDbEntity
  8
1
100
AcDbDimension
  2
*D5
 10
213.4002929688
 20
380.4988980454
 30
0.0
 11
134.701551662579
 21
384.2488980454
 31
0.0
 70
    32
  1
<>
 71
     5
 42
-1.0
 53
0.00013888888889
  3
ME10_DIM_13
100
AcDbAlignedDimension
 13
43.4002929688
 23
342.4686485938
 33
0.0
 14
213.4002929688
 24
320.9542434689
 34
0.0
100
AcDbRotatedDimension
  0
INSERT
  5
130
330
1F
100
AcDbEntity
  8
1
100
AcDbBlockReference
  2
*D6
 10
0.0
 20
0.0
 30
0.0
  0
ENDSEC
  0
SECTION
  2
OBJECTS
  0
DICTIONARY
  5
C
330
0
100
AcDbDictionary
281
     1
  3
ACAD_GROUP
350
D
  3
ACAD_LAYOUT
350
1A
  3
ACAD_MLEADERSTYLE
350
133
  3
ACAD_MLINESTYLE
350
17
  3
ACAD_PLOTSETTINGS
350
19
  3
ACAD_PLOTSTYLENAME
350
E
  3
ACAD_SCALELIST
350
4A
  3
ACAD_VISUALSTYLE
350
2A
  3
AcDbVariableDictionary
350
131
  0
DICTIONARY
  5
D
102
{ACAD_REACTORS
330
C
102
}
330
C
100
AcDbDictionary
281
     1
  0
DICTIONARY
  5
1A
102
{ACAD_REACTORS
330
C
102
}
330
C
100
AcDbDictionary
281
     1
  3
Layout1
350
1E
  3
Layout2
350
26
  3
Model
350
22
  0
DICTIONARY
  5
133
102
{ACAD_REACTORS
330
C
102
}
330
C
100
AcDbDictionary
281
     1
  0
DICTIONARY
  5
17
102
{ACAD_REACTORS
330
C
102
}
330
C
100
AcDbDictionary
281
     1
  3
Standard
350
18
  0
DICTIONARY
  5
19
102
{ACAD_REACTORS
330
C
102
}
330
C
100
AcDbDictionary
281
     1
  0
ACDBDICTIONARYWDFLT
  5
E
102
{ACAD_REACTORS
330
C
102
}
330
C
100
AcDbDictionary
281
     1
  3
Normal
350
F
100
AcDbDictionaryWithDefault
340
F
  0
DICTIONARY
  5
4A
102
{ACAD_REACTORS
330
C
102
}
330
C
100
AcDbDictionary
281
     1
  3
A0
350
4B
  3
A1
350
4C
  3
A2
350
4D
  3
A3
350
4E
  3
A4
350
4F
  3
A5
350
50
  3
A6
350
51
  3
A7
350
52
  3
A8
350
53
  3
A9
350
54
  3
B0
350
55
  3
B1
350
56
  3
B2
350
57
  3
B3
350
58
  3
B4
350
59
  3
B5
350
5A
  3
B6
350
5B
  3
B7
350
5C
  3
B8
350
5D
  3
B9
350
5E
  3
C0
350
5F
  3
C1
350
60
  3
C2
350
61
  3
C3
350
62
  3
C4
350
63
  3
C5
350
64
  3
C6
350
65
  3
C7
350
66
  3
C8
350
67
  3
C9
350
68
  3
D0
350
69
  3
D1
350
6A
  3
D2
350
6B
  0
DICTIONARY
  5
2A
102
{ACAD_REACTORS
330
C
102
}
330
C
100
AcDbDictionary
281
     1
  3
2dWireframe
350
2F
  3
3D Hidden
350
31
  3
3dWireframe
350
30
  3
Basic
350
32
  3
Brighten
350
36
  3
ColorChange
350
3A
  3
Conceptual
350
34
  3
Dim
350
35
  3
Facepattern
350
39
  3
Flat
350
2B
  3
FlatWithEdges
350
2C
  3
Gouraud
350
2D
  3
GouraudWithEdges
350
2E
  3
Linepattern
350
38
  3
Realistic
350
33
  3
Thicken
350
37
  0
DICTIONARY
  5
131
102
{ACAD_REACTORS
330
C
102
}
330
C
100
AcDbDictionary
281
     1
  3
CANNOSCALE
350
134
  0
LAYOUT
  5
1E
102
{ACAD_REACTORS
330
1A
102
}
330
1A
100
AcDbPlotSettings
  1

  2
none_device
  4

  6

 40
0.0
 41
0.0
 42
0.0
 43
0.0
 44
0.0
 45
0.0
 46
0.0
 47
0.0
 48
0.0
 49
0.0
140
0.0
141
0.0
142
1.0
143
1.0
 70
   688
 72
     0
 73
     0
 74
     5
  7

 75
    16
147
1.0
148
0.0
149
0.0
100
AcDbLayout
  1
Layout1
 70
     1
 71
     1
 10
0.0
 20
0.0
 11
12.0
 21
9.0
 12
0.0
 22
0.0
 32
0.0
 14
1.00000000000000E+20
 24
1.00000000000000E+20
 34
1.00000000000000E+20
 15
-1.00000000000000E+20
 25
-1.00000000000000E+20
 35
-1.00000000000000E+20
146
0.0
 13
0.0
 23
0.0
 33
0.0
 16
1.0
 26
0.0
 36
0.0
 17
0.0
 27
1.0
 37
0.0
 76
     0
330
1B
  0
LAYOUT
  5
26
102
{ACAD_REACTORS
330
1A
102
}
330
1A
100
AcDbPlotSettings
  1

  2
none_device
  4

  6

 40
0.0
 41
0.0
 42
0.0
 43
0.0
 44
0.0
 45
0.0
 46
0.0
 47
0.0
 48
0.0
 49
0.0
140
0.0
141
0.0
142
1.0
143
1.0
 70
   688
 72
     0
 73
     0
 74
     5
  7

 75
    16
147
1.0
148
0.0
149
0.0
100
AcDbLayout
  1
Layout2
 70
     1
 71
     2
 10
0.0
 20
0.0
 11
0.0
 21
0.0
 12
0.0
 22
0.0
 32
0.0
 14
0.0
 24
0.0
 34
0.0
 15
0.0
 25
0.0
 35
0.0
146
0.0
 13
0.0
 23
0.0
 33
0.0
 16
1.0
 26
0.0
 36
0.0
 17
0.0
 27
1.0
 37
0.0
 76
     0
330
23
  0
LAYOUT
  5
22
102
{ACAD_REACTORS
330
1A
102
}
330
1A
100
AcDbPlotSettings
  1

  2
none_device
  4

  6

 40
0.0
 41
0.0
 42
0.0
 43
0.0
 44
0.0
 45
0.0
 46
0.0
 47
0.0
 48
0.0
 49
0.0
140
0.0
141
0.0
142
1.0
143
1.0
 70
  1712
 72
     0
 73
     0
 74
     0
  7

 75
     0
147
1.0
148
0.0
149
0.0
100
AcDbLayout
  1
Model
 70
     1
 71
     0
 10
0.0
 20
0.0
 11
12.0
 21
9.0
 12
0.0
 22
0.0
 32
0.0
 14
16.2457950676543
 24
258.8684570313
 34
0.0
 15
228.689114499489
 25
385.9988980454
 35
0.0
146
0.0
 13
0.0
 23
0.0
 33
0.0
 16
1.0
 26
0.0
 36
0.0
 17
0.0
 27
1.0
 37
0.0
 76
     0
330
1F
331
29
  0
MLINESTYLE
  5
18
102
{ACAD_REACTORS
330
17
102
}
330
17
100
AcDbMlineStyle
  2
Standard
 70
     0
  3

 62
   256
 51
90.0
 52
90.0
 71
     2
 49
0.5
 62
   256
  6
BYLAYER
 49
-0.5
 62
   256
  6
BYLAYER
  0
ACDBPLACEHOLDER
  5
F
102
{ACAD_REACTORS
330
E
102
}
330
E
  0
SCALE
  5
4B
102
{ACAD_REACTORS
330
4A
102
}
330
4A
100
AcDbScale
 70
     0
300
1:1
140
1.0
141
1.0
290
     1
  0
SCALE
  5
4C
102
{ACAD_REACTORS
330
4A
102
}
330
4A
100
AcDbScale
 70
     0
300
1:2
140
1.0
141
2.0
290
     0
  0
SCALE
  5
4D
102
{ACAD_REACTORS
330
4A
102
}
330
4A
100
AcDbScale
 70
     0
300
1:4
140
1.0
141
4.0
290
     0
  0
SCALE
  5
4E
102
{ACAD_REACTORS
330
4A
102
}
330
4A
100
AcDbScale
 70
     0
300
1:5
140
1.0
141
5.0
290
     0
  0
SCALE
  5
4F
102
{ACAD_REACTORS
330
4A
102
}
330
4A
100
AcDbScale
 70
     0
300
1:8
140
1.0
141
8.0
290
     0
  0
SCALE
  5
50
102
{ACAD_REACTORS
330
4A
102
}
330
4A
100
AcDbScale
 70
     0
300
1:10
140
1.0
141
10.0
290
     0
  0
SCALE
  5
51
102
{ACAD_REACTORS
330
4A
102
}
330
4A
100
AcDbScale
 70
     0
300
1:16
140
1.0
141
16.0
290
     0
  0
SCALE
  5
52
102
{ACAD_REACTORS
330
4A
102
}
330
4A
100
AcDbScale
 70
     0
300
1:20
140
1.0
141
20.0
290
     0
  0
SCALE
  5
53
102
{ACAD_REACTORS
330
4A
102
}
330
4A
100
AcDbScale
 70
     0
300
1:30
140
1.0
141
30.0
290
     0
  0
SCALE
  5
54
102
{ACAD_REACTORS
330
4A
102
}
330
4A
100
AcDbScale
 70
     0
300
1:40
140
1.0
141
40.0
290
     0
  0
SCALE
  5
55
102
{ACAD_REACTORS
330
4A
102
}
330
4A
100
AcDbScale
 70
     0
300
1:50
140
1.0
141
50.0
290
     0
  0
SCALE
  5
56
102
{ACAD_REACTORS
330
4A
102
}
330
4A
100
AcDbScale
 70
     0
300
1:100
140
1.0
141
100.0
290
     0
  0
SCALE
  5
57
102
{ACAD_REACTORS
330
4A
102
}
330
4A
100
AcDbScale
 70
     0
300
2:1
140
2.0
141
1.0
290
     0
  0
SCALE
  5
58
102
{ACAD_REACTORS
330
4A
102
}
330
4A
100
AcDbScale
 70
     0
300
4:1
140
4.0
141
1.0
290
     0
  0
SCALE
  5
59
102
{ACAD_REACTORS
330
4A
102
}
330
4A
100
AcDbScale
 70
     0
300
8:1
140
8.0
141
1.0
290
     0
  0
SCALE
  5
5A
102
{ACAD_REACTORS
330
4A
102
}
330
4A
100
AcDbScale
 70
     0
300
10:1
140
10.0
141
1.0
290
     0
  0
SCALE
  5
5B
102
{ACAD_REACTORS
330
4A
102
}
330
4A
100
AcDbScale
 70
     0
300
100:1
140
100.0
141
1.0
290
     0
  0
SCALE
  5
5C
102
{ACAD_REACTORS
330
4A
102
}
330
4A
100
AcDbScale
 70
     0
300
1/128" = 1'-0"
140
0.0078125
141
12.0
290
     0
  0
SCALE
  5
5D
102
{ACAD_REACTORS
330
4A
102
}
330
4A
100
AcDbScale
 70
     0
300
1/64" = 1'-0"
140
0.015625
141
12.0
290
     0
  0
SCALE
  5
5E
102
{ACAD_REACTORS
330
4A
102
}
330
4A
100
AcDbScale
 70
     0
300
1/32" = 1'-0"
140
0.03125
141
12.0
290
     0
  0
SCALE
  5
5F
102
{ACAD_REACTORS
330
4A
102
}
330
4A
100
AcDbScale
 70
     0
300
1/16" = 1'-0"
140
0.0625
141
12.0
290
     0
  0
SCALE
  5
60
102
{ACAD_REACTORS
330
4A
102
}
330
4A
100
AcDbScale
 70
     0
300
3/32" = 1'-0"
140
0.09375
141
12.0
290
     0
  0
SCALE
  5
61
102
{ACAD_REACTORS
330
4A
102
}
330
4A
100
AcDbScale
 70
     0
300
1/8" = 1'-0"
140
0.125
141
12.0
290
     0
  0
SCALE
  5
62
102
{ACAD_REACTORS
330
4A
102
}
330
4A
100
AcDbScale
 70
     0
300
3/16" = 1'-0"
140
0.1875
141
12.0
290
     0
  0
SCALE
  5
63
102
{ACAD_REACTORS
330
4A
102
}
330
4A
100
AcDbScale
 70
     0
300
1/4" = 1'-0"
140
0.25
141
12.0
290
     0
  0
SCALE
  5
64
102
{ACAD_REACTORS
330
4A
102
}
330
4A
100
AcDbScale
 70
     0
300
3/8" = 1'-0"
140
0.375
141
12.0
290
     0
  0
SCALE
  5
65
102
{ACAD_REACTORS
330
4A
102
}
330
4A
100
AcDbScale
 70
     0
300
1/2" = 1'-0"
140
0.5
141
12.0
290
     0
  0
SCALE
  5
66
102
{ACAD_REACTORS
330
4A
102
}
330
4A
100
AcDbScale
 70
     0
300
3/4" = 1'-0"
140
0.75
141
12.0
290
     0
  0
SCALE
  5
67
102
{ACAD_REACTORS
330
4A
102
}
330
4A
100
AcDbScale
 70
     0
300
1" = 1'-0"
140
1.0
141
12.0
290
     0
  0
SCALE
  5
68
102
{ACAD_REACTORS
330
4A
102
}
330
4A
100
AcDbScale
 70
     0
300
1-1/2" = 1'-0"
140
1.5
141
12.0
290
     0
  0
SCALE
  5
69
102
{ACAD_REACTORS
330
4A
102
}
330
4A
100
AcDbScale
 70
     0
300
3" = 1'-0"
140
3.0
141
12.0
290
     0
  0
SCALE
  5
6A
102
{ACAD_REACTORS
330
4A
102
}
330
4A
100
AcDbScale
 70
     0
300
6" = 1'-0"
140
6.0
141
12.0
290
     0
  0
SCALE
  5
6B
102
{ACAD_REACTORS
330
4A
102
}
330
4A
100
AcDbScale
 70
     0
300
1'-0" = 1'-0"
140
12.0
141
12.0
290
     0
  0
VISUALSTYLE
  5
2F
102
{ACAD_REACTORS
330
2A
102
}
330
2A
100
AcDbVisualStyle
  2
2dWireframe
 70
     4
 71
     0
 72
     2
 73
     0
 90
        0
 40
-0.6
 41
-30.0
 62
     5
 63
     7
 74
     1
 91
        4
 64
     7
 65
   257
 75
     1
175
     1
 42
1.0
 92
        0
 66
   257
 43
1.0
 76
     1
 77
     6
 78
     2
 67
     7
 79
     5
170
     0
171
     0
290
     0
174
     0
 93
        1
 44
0.0
173
     0
291
     0
 45
0.0
1001
ACAD
1000
AcDbSavedByObjectVersion
1070
     0
  0
VISUALSTYLE
  5
31
102
{ACAD_REACTORS
330
2A
102
}
330
2A
100
AcDbVisualStyle
  2
3D Hidden
 70
     6
 71
     1
 72
     2
 73
     2
 90
        0
 40
-0.6
 41
-30.0
 62
     5
 63
     7
 74
     2
 91
        2
 64
     7
 65
   257
 75
     2
175
     1
 42
40.0
 92
        0
 66
   257
 43
1.0
 76
     1
 77
     6
 78
     2
 67
     7
 79
     3
170
     0
171
     0
290
     0
174
     0
 93
        1
 44
0.0
173
     0
291
     0
 45
0.0
1001
ACAD
1000
AcDbSavedByObjectVersion
1070
     0
  0
VISUALSTYLE
  5
30
102
{ACAD_REACTORS
330
2A
102
}
330
2A
100
AcDbVisualStyle
  2
3dWireframe
 70
     5
 71
     0
 72
     2
 73
     0
 90
        0
 40
-0.6
 41
-30.0
 62
     5
 63
     7
 74
     1
 91
        4
 64
     7
 65
   257
 75
     1
175
     1
 42
1.0
 92
        0
 66
   257
 43
1.0
 76
     1
 77
     6
 78
     2
 67
     7
 79
     5
170
     0
171
     0
290
     0
174
     0
 93
        1
 44
0.0
173
     0
291
     0
 45
0.0
1001
ACAD
1000
AcDbSavedByObjectVersion
1070
     0
  0
VISUALSTYLE
  5
32
102
{ACAD_REACTORS
330
2A
102
}
330
2A
100
AcDbVisualStyle
  2
Basic
 70
     7
 71
     1
 72
     0
 73
     1
 90
        0
 40
-0.6
 41
-30.0
 62
     5
 63
     7
 74
     0
 91
        4
 64
     7
 65
   257
 75
     1
175
     1
 42
1.0
 92
        8
 66
     7
 43
1.0
 76
     1
 77
     6
 78
     2
 67
     7
 79
     5
170
     0
171
     0
290
     0
174
     0
 93
        1
 44
0.0
173
     0
291
     1
 45
0.0
1001
ACAD
1000
AcDbSavedByObjectVersion
1070
     0
  0
VISUALSTYLE
  5
36
102
{ACAD_REACTORS
330
2A
102
}
330
2A
100
AcDbVisualStyle
  2
Brighten
 70
    12
 71
     2
 72
     2
 73
     0
 90
        0
 40
-0.6
 41
-30.0
 62
     5
 63
     7
 74
     1
 91
        4
 64
     7
 65
   257
 75
     1
175
     1
 42
1.0
 92
        8
 66
     7
 43
1.0
 76
     1
 77
     6
 78
     2
 67
     7
 79
     5
170
     0
171
     0
290
     0
174
     0
 93
        1
 44
50.0
173
     0
291
     1
 45
0.0
1001
ACAD
1000
AcDbSavedByObjectVersion
1070
     0
  0
VISUALSTYLE
  5
3A
102
{ACAD_REACTORS
330
2A
102
}
330
2A
100
AcDbVisualStyle
  2
ColorChange
 70
    16
 71
     2
 72
     2
 73
     3
 90
        0
 40
-0.6
 41
-30.0
 62
     5
 63
     8
 74
     1
 91
        4
 64
     7
 65
   257
 75
     1
175
     1
 42
1.0
 92
        8
 66
     8
 43
1.0
 76
     1
 77
     6
 78
     2
 67
     7
 79
     5
170
     0
171
     0
290
     0
174
     0
 93
        1
 44
0.0
173
     0
291
     1
 45
0.0
1001
ACAD
1000
AcDbSavedByObjectVersion
1070
     0
  0
VISUALSTYLE
  5
34
102
{ACAD_REACTORS
330
2A
102
}
330
2A
100
AcDbVisualStyle
  2
Conceptual
 70
     9
 71
     3
 72
     2
 73
     0
 90
        0
 40
-0.6
 41
-30.0
 62
     5
 63
     7
 74
     2
 91
        2
 64
     7
 65
   257
 75
     1
175
     1
 42
40.0
 92
        8
 66
     7
 43
1.0
 76
     1
 77
     6
 78
     2
 67
     7
 79
     3
170
     0
171
     0
290
     0
174
     0
 93
        1
 44
0.0
173
     0
291
     0
 45
0.0
1001
ACAD
1000
AcDbSavedByObjectVersion
1070
     0
  0
VISUALSTYLE
  5
35
102
{ACAD_REACTORS
330
2A
102
}
330
2A
100
AcDbVisualStyle
  2
Dim
 70
    11
 71
     2
 72
     2
 73
     0
 90
        0
 40
-0.6
 41
-30.0
 62
     5
 63
     7
 74
     1
 91
        4
 64
     7
 65
   257
 75
     1
175
     1
 42
1.0
 92
        8
 66
     7
 43
1.0
 76
     1
 77
     6
 78
     2
 67
     7
 79
     5
170
     0
171
     0
290
     0
174
     0
 93
        1
 44
-50.0
173
     0
291
     1
 45
0.0
1001
ACAD
1000
AcDbSavedByObjectVersion
1070
     0
  0
VISUALSTYLE
  5
39
102
{ACAD_REACTORS
330
2A
102
}
330
2A
100
AcDbVisualStyle
  2
Facepattern
 70
    15
 71
     2
 72
     2
 73
     0
 90
        0
 40
-0.6
 41
-30.0
 62
     5
 63
     7
 74
     1
 91
        4
 64
     7
 65
   257
 75
     1
175
     1
 42
1.0
 92
        8
 66
     7
 43
1.0
 76
     1
 77
     6
 78
     2
 67
     7
 79
     5
170
     0
171
     0
290
     0
174
     0
 93
        1
 44
0.0
173
     0
291
     1
 45
0.0
1001
ACAD
1000
AcDbSavedByObjectVersion
1070
     0
  0
VISUALSTYLE
  5
2B
102
{ACAD_REACTORS
330
2A
102
}
330
2A
100
AcDbVisualStyle
  2
Flat
 70
     0
 71
     2
 72
     1
 73
     1
 90
        2
 40
-0.6
 41
30.0
 62
     5
 63
     7
 74
     0
 91
        4
 64
     7
 65
   257
 75
     1
175
     1
 42
1.0
 92
        8
 66
     7
 43
1.0
 76
     1
 77
     6
 78
     2
 67
     7
 79
     5
170
     0
171
     0
290
     0
174
     0
 93
       13
 44
0.0
173
     0
291
     1
 45
0.0
1001
ACAD
1000
AcDbSavedByObjectVersion
1070
     0
  0
VISUALSTYLE
  5
2C
102
{ACAD_REACTORS
330
2A
102
}
330
2A
100
AcDbVisualStyle
  2
FlatWithEdges
 70
     1
 71
     2
 72
     1
 73
     1
 90
        2
 40
-0.6
 41
30.0
 62
     5
 63
     7
 74
     1
 91
        4
 64
     7
 65
   257
 75
     1
175
     1
 42
1.0
 92
        0
 66
   257
 43
1.0
 76
     1
 77
     6
 78
     2
 67
     7
 79
     5
170
     0
171
     0
290
     0
174
     0
 93
       13
 44
0.0
173
     0
291
     1
 45
0.0
1001
ACAD
1000
AcDbSavedByObjectVersion
1070
     0
  0
VISUALSTYLE
  5
2D
102
{ACAD_REACTORS
330
2A
102
}
330
2A
100
AcDbVisualStyle
  2
Gouraud
 70
     2
 71
     2
 72
     2
 73
     1
 90
        2
 40
-0.6
 41
30.0
 62
     5
 63
     7
 74
     0
 91
        4
 64
     7
 65
   257
 75
     1
175
     1
 42
1.0
 92
        0
 66
     7
 43
1.0
 76
     1
 77
     6
 78
     2
 67
     7
 79
     5
170
     0
171
     0
290
     0
174
     0
 93
       13
 44
0.0
173
     0
291
     1
 45
0.0
1001
ACAD
1000
AcDbSavedByObjectVersion
1070
     0
  0
VISUALSTYLE
  5
2E
102
{ACAD_REACTORS
330
2A
102
}
330
2A
100
AcDbVisualStyle
  2
GouraudWithEdges
 70
     3
 71
     2
 72
     2
 73
     1
 90
        2
 40
-0.6
 41
30.0
 62
     5
 63
     7
 74
     1
 91
        4
 64
     7
 65
   257
 75
     1
175
     1
 42
1.0
 92
        0
 66
   257
 43
1.0
 76
     1
 77
     6
 78
     2
 67
     7
 79
     5
170
     0
171
     0
290
     0
174
     0
 93
       13
 44
0.0
173
     0
291
     1
 45
0.0
1001
ACAD
1000
AcDbSavedByObjectVersion
1070
     0
  0
VISUALSTYLE
  5
38
102
{ACAD_REACTORS
330
2A
102
}
330
2A
100
AcDbVisualStyle
  2
Linepattern
 70
    14
 71
     2
 72
     2
 73
     0
 90
        0
 40
-0.6
 41
-30.0
 62
     5
 63
     7
 74
     1
 91
        4
 64
     7
 65
   257
 75
     7
175
     7
 42
1.0
 92
        8
 66
     7
 43
1.0
 76
     1
 77
     6
 78
     2
 67
     7
 79
     5
170
     0
171
     0
290
     0
174
     0
 93
        1
 44
0.0
173
     0
291
     1
 45
0.0
1001
ACAD
1000
AcDbSavedByObjectVersion
1070
     0
  0
VISUALSTYLE
  5
33
102
{ACAD_REACTORS
330
2A
102
}
330
2A
100
AcDbVisualStyle
  2
Realistic
 70
     8
 71
     2
 72
     2
 73
     0
 90
        0
 40
-0.6
 41
-30.0
 62
     5
 63
     7
 74
     1
 91
        0
 64
     7
 65
   257
 75
     1
175
     1
 42
1.0
 92
        8
 66
     8
 43
1.0
 76
     1
 77
     6
 78
     2
 67
     7
 79
     5
170
     0
171
     0
290
     0
174
     0
 93
       13
 44
0.0
173
     0
291
     0
 45
0.0
1001
ACAD
1000
AcDbSavedByObjectVersion
1070
     0
  0
VISUALSTYLE
  5
37
102
{ACAD_REACTORS
330
2A
102
}
330
2A
100
AcDbVisualStyle
  2
Thicken
 70
    13
 71
     2
 72
     2
 73
     0
 90
        0
 40
-0.6
 41
-30.0
 62
     5
 63
     7
 74
     1
 91
        4
 64
     7
 65
   257
 75
     1
175
     1
 42
1.0
 92
       12
 66
     7
 43
1.0
 76
     1
 77
     6
 78
     2
 67
     7
 79
     5
170
     0
171
     0
290
     0
174
     0
 93
        1
 44
0.0
173
     0
291
     1
 45
0.0
1001
ACAD
1000
AcDbSavedByObjectVersion
1070
     0
  0
DICTIONARYVAR
  5
134
102
{ACAD_REACTORS
330
131
102
}
330
131
100
DictionaryVariables
280
     0
  1
1:1
  0
ENDSEC
  0
EOF
