  0
SECTION
  2
HEADER
  9
$ACADVER
  1
AC1012
  9
$DWGCODEPAGE
  3
ANSI_1252
  9
$INSBASE
 10
0.0
 20
0.0
 30
0.0
  9
$EXTMIN
 10
-101.8948042247152
 20
-50.00732307788837
 30
-0.0015258207003583
  9
$EXTMAX
 10
105.0070506827987
 20
81.8743904422438
 30
0.0000000349246037
  9
$LIMMIN
 10
-170.0
 20
-170.0
  9
$LIMMAX
 10
519.0
 20
260.0
  9
$ORTHOMODE
 70
     1
  9
$REGENMODE
 70
     1
  9
$FILLMODE
 70
     1
  9
$QTEXTMODE
 70
     0
  9
$MIRRTEXT
 70
     0
  9
$DRAGMODE
 70
     2
  9
$LTSCALE
 40
15.0
  9
$OSMODE
 70
     0
  9
$ATTMODE
 70
     1
  9
$TEXTSIZE
 40
4.57
  9
$TRACEWID
 40
0.05
  9
$TEXTSTYLE
  7
SIMPLEX
  9
$CLAYER
  8
SK2
  9
$CELTYPE
  6
BYLAYER
  9
$CECOLOR
 62
   256
  9
$CELTSCALE
 40
1.0
  9
$DELOBJ
 70
     1
  9
$DISPSILH
 70
     0
  9
$DIMSCALE
 40
0.0
  9
$DIMASZ
 40
4.57
  9
$DIMEXO
 40
0.0
  9
$DIMDLI
 40
0.38
  9
$DIMRND
 40
0.0
  9
$DIMDLE
 40
0.0
  9
$DIMEXE
 40
5.0
  9
$DIMTP
 40
0.0
  9
$DIMTM
 40
0.0
  9
$DIMTXT
 40
4.57
  9
$DIMCEN
 40
0.09
  9
$DIMTSZ
 40
0.0
  9
$DIMTOL
 70
     0
  9
$DIMLIM
 70
     0
  9
$DIMTIH
 70
     0
  9
$DIMTOH
 70
     0
  9
$DIMSE1
 70
     0
  9
$DIMSE2
 70
     0
  9
$DIMTAD
 70
     1
  9
$DIMZIN
 70
     8
  9
$DIMBLK
  1

  9
$DIMASO
 70
     1
  9
$DIMSHO
 70
     1
  9
$DIMPOST
  1

  9
$DIMAPOST
  1

  9
$DIMALT
 70
     0
  9
$DIMALTD
 70
     2
  9
$DIMALTF
 40
25.4
  9
$DIMLFAC
 40
1.0
  9
$DIMTOFL
 70
     0
  9
$DIMTVP
 40
0.0
  9
$DIMTIX
 70
     0
  9
$DIMSOXD
 70
     0
  9
$DIMSAH
 70
     0
  9
$DIMBLK1
  1

  9
$DIMBLK2
  1

  9
$DIMSTYLE
  2
STANDARD
  9
$DIMCLRD
 70
     0
  9
$DIMCLRE
 70
     0
  9
$DIMCLRT
 70
     0
  9
$DIMTFAC
 40
1.0
  9
$DIMGAP
 40
2.299999999999999
  9
$DIMJUST
 70
     0
  9
$DIMSD1
 70
     0
  9
$DIMSD2
 70
     0
  9
$DIMTOLJ
 70
     1
  9
$DIMTZIN
 70
     0
  9
$DIMALTZ
 70
     0
  9
$DIMALTTZ
 70
     0
  9
$DIMFIT
 70
     3
  9
$DIMUPT
 70
     0
  9
$DIMUNIT
 70
     2
  9
$DIMDEC
 70
     2
  9
$DIMTDEC
 70
     4
  9
$DIMALTU
 70
     2
  9
$DIMALTTD
 70
     2
  9
$DIMTXSTY
  7
SIMPLEX
  9
$DIMAUNIT
 70
     0
  9
$LUNITS
 70
     2
  9
$LUPREC
 70
     2
  9
$SKETCHINC
 40
0.1
  9
$FILLETRAD
 40
0.0
  9
$AUNITS
 70
     0
  9
$AUPREC
 70
     0
  9
$MENU
  1
c:\tdm21\cad\caduti13\tdm13
  9
$ELEVATION
 40
0.0
  9
$PELEVATION
 40
0.0
  9
$THICKNESS
 40
0.0
  9
$LIMCHECK
 70
     0
  9
$BLIPMODE
 70
     0
  9
$CHAMFERA
 40
0.0
  9
$CHAMFERB
 40
0.0
  9
$CHAMFERC
 40
0.0
  9
$CHAMFERD
 40
0.0
  9
$SKPOLY
 70
     0
  9
$TDCREATE
 40
2452451.937719212
  9
$TDUPDATE
 40
2452451.937719212
  9
$TDINDWG
 40
0.0019306713
  9
$TDUSRTIMER
 40
0.0019306713
  9
$USRTIMER
 70
     1
  9
$ANGBASE
 50
0.0
  9
$ANGDIR
 70
     0
  9
$PDMODE
 70
     1
  9
$PDSIZE
 40
0.0
  9
$PLINEWID
 40
0.0
  9
$COORDS
 70
     1
  9
$SPLFRAME
 70
     0
  9
$SPLINETYPE
 70
     6
  9
$SPLINESEGS
 70
     8
  9
$ATTDIA
 70
     0
  9
$ATTREQ
 70
     1
  9
$HANDLING
 70
  4097
  9
$HANDSEED
  5
5E4
  9
$SURFTAB1
 70
     6
  9
$SURFTAB2
 70
     6
  9
$SURFTYPE
 70
     6
  9
$SURFU
 70
     6
  9
$SURFV
 70
     6
  9
$UCSNAME
  2

  9
$UCSORG
 10
0.0
 20
0.0
 30
0.0
  9
$UCSXDIR
 10
1.0
 20
0.0
 30
0.0
  9
$UCSYDIR
 10
0.0
 20
1.0
 30
0.0
  9
$PUCSNAME
  2

  9
$PUCSORG
 10
0.0
 20
0.0
 30
0.0
  9
$PUCSXDIR
 10
1.0
 20
0.0
 30
0.0
  9
$PUCSYDIR
 10
0.0
 20
1.0
 30
0.0
  9
$USERI1
 70
     0
  9
$USERI2
 70
     0
  9
$USERI3
 70
     0
  9
$USERI4
 70
     0
  9
$USERI5
 70
     0
  9
$USERR1
 40
0.0
  9
$USERR2
 40
0.0
  9
$USERR3
 40
0.0
  9
$USERR4
 40
0.0
  9
$USERR5
 40
0.0
  9
$WORLDVIEW
 70
     1
  9
$SHADEDGE
 70
     3
  9
$SHADEDIF
 70
    70
  9
$TILEMODE
 70
     1
  9
$MAXACTVP
 70
    16
  9
$PINSBASE
 10
0.0
 20
0.0
 30
0.0
  9
$PLIMCHECK
 70
     0
  9
$PEXTMIN
 10
0.0
 20
0.0
 30
0.0
  9
$PEXTMAX
 10
0.0
 20
0.0
 30
0.0
  9
$PLIMMIN
 10
0.0
 20
0.0
  9
$PLIMMAX
 10
12.0
 20
9.0
  9
$UNITMODE
 70
     0
  9
$VISRETAIN
 70
     0
  9
$PLINEGEN
 70
     0
  9
$PSLTSCALE
 70
     1
  9
$TREEDEPTH
 70
  3020
  9
$PICKSTYLE
 70
     1
  9
$CMLSTYLE
  2
STANDARD
  9
$CMLJUST
 70
     0
  9
$CMLSCALE
 40
1.0
  9
$SAVEIMAGES
 70
     1
  0
ENDSEC
  0
SECTION
  2
CLASSES
  0
CLASS
  1
ACDBDICTIONARYWDFLT
  2
AcDbDictionaryWithDefault
  3
AutoCAD 2000
 90
    32768
280
     0
281
     0
  0
CLASS
  1
ACDBPLACEHOLDER
  2
AcDbPlaceHolder
  3
AutoCAD 2000
 90
    32768
280
     0
281
     0
  0
CLASS
  1
LAYOUT
  2
AcDbLayout
  3
AutoCAD 2000
 90
    32768
280
     0
281
     0
  0
CLASS
  1
LONG_TRANSACTION
  2
AcDbLongTransaction
  3
AutoCAD 2000
 90
    32768
280
     0
281
     0
  0
CLASS
  1
LWPOLYLINE
  2
AcDbPolyline
  3
AutoCAD 2000
 90
    32768
280
     0
281
     1
  0
CLASS
  1
HATCH
  2
AcDbHatch
  3
AutoCAD 2000
 90
    32768
280
     0
281
     1
  0
CLASS
  1
XRECORD
  2
AcDbXrecord
  3
AutoCAD 2000
 90
    32768
280
     0
281
     0
  0
ENDSEC
  0
SECTION
  2
TABLES
  0
TABLE
  2
VPORT
  5
8
330
0
100
AcDbSymbolTable
 70
     3
  0
VPORT
  5
5DF
330
8
100
AcDbSymbolTableRecord
100
AcDbViewportTableRecord
  2
*ACTIVE
 70
     0
 10
0.0
 20
0.0
 11
1.0
 21
1.0
 12
1.556123229041748
 22
15.93353368217771
 13
0.0
 23
0.0
 14
5.0
 24
5.0
 15
5.0
 25
5.0
 16
0.0
 26
0.0
 36
1.0
 17
0.0
 27
0.0
 37
0.0
 40
141.8817135201321
 41
2.130434782608695
 42
50.0
 43
0.0
 44
0.0
 50
0.0
 51
0.0
 71
     0
 72
   100
 73
     1
 74
     1
 75
     0
 76
     0
 77
     0
 78
     0
  0
ENDTAB
  0
TABLE
  2
LTYPE
  5
5
330
0
100
AcDbSymbolTable
 70
     3
  0
LTYPE
  5
12
330
5
100
AcDbSymbolTableRecord
100
AcDbLinetypeTableRecord
  2
BYBLOCK
 70
     0
  3

 72
    65
 73
     0
 40
0.0
  0
LTYPE
  5
13
330
5
100
AcDbSymbolTableRecord
100
AcDbLinetypeTableRecord
  2
BYLAYER
 70
     0
  3

 72
    65
 73
     0
 40
0.0
  0
LTYPE
  5
14
330
5
100
AcDbSymbolTableRecord
100
AcDbLinetypeTableRecord
  2
CONTINUOUS
 70
     0
  3
Solid line
 72
    65
 73
     0
 40
0.0
  0
LTYPE
  5
1F
330
5
100
AcDbSymbolTableRecord
100
AcDbLinetypeTableRecord
  2
CENTER
 70
     0
  3
____ . ____ . ____
 72
    65
 73
     4
 40
1.5
 49
1.0
 74
     0
 49
-0.25
 74
     0
 49
0.0
 74
     0
 49
-0.25
 74
     0
  0
LTYPE
  5
20
330
5
100
AcDbSymbolTableRecord
100
AcDbLinetypeTableRecord
  2
HIDDEN
 70
     0
  3
_ _ _ _ _ _ _ _ _ _ _ _ _ _ _ _ _ _ _ _ _ _ _
 72
    65
 73
     2
 40
0.375
 49
0.25
 74
     0
 49
-0.125
 74
     0
  0
ENDTAB
  0
TABLE
  2
LAYER
  5
2
330
0
100
AcDbSymbolTable
 70
    15
  0
LAYER
  5
F
330
2
100
AcDbSymbolTableRecord
100
AcDbLayerTableRecord
  2
0
 70
     0
 62
    -7
  6
CONTINUOUS
  0
LAYER
  5
23
330
2
100
AcDbSymbolTableRecord
100
AcDbLayerTableRecord
  2
1
 70
     0
 62
     4
  6
CONTINUOUS
  0
LAYER
  5
24
330
2
100
AcDbSymbolTableRecord
100
AcDbLayerTableRecord
  2
SK1
 70
     0
 62
     4
  6
CONTINUOUS
  0
LAYER
  5
25
330
2
100
AcDbSymbolTableRecord
100
AcDbLayerTableRecord
  2
2
 70
     0
 62
     7
  6
CONTINUOUS
  0
LAYER
  5
26
330
2
100
AcDbSymbolTableRecord
100
AcDbLayerTableRecord
  2
2L
 70
     0
 62
     7
  6
CONTINUOUS
  0
LAYER
  5
27
330
2
100
AcDbSymbolTableRecord
100
AcDbLayerTableRecord
  2
SK2
 70
     0
 62
     7
  6
CONTINUOUS
  0
LAYER
  5
28
330
2
100
AcDbSymbolTableRecord
100
AcDbLayerTableRecord
  2
3
 70
     0
 62
     1
  6
HIDDEN
  0
LAYER
  5
29
330
2
100
AcDbSymbolTableRecord
100
AcDbLayerTableRecord
  2
SK3
 70
     0
 62
     1
  6
HIDDEN
  0
LAYER
  5
2A
330
2
100
AcDbSymbolTableRecord
100
AcDbLayerTableRecord
  2
4
 70
     0
 62
    -2
  6
CENTER
  0
LAYER
  5
2B
330
2
100
AcDbSymbolTableRecord
100
AcDbLayerTableRecord
  2
SK4
 70
     0
 62
     2
  6
CENTER
  0
LAYER
  5
2C
330
2
100
AcDbSymbolTableRecord
100
AcDbLayerTableRecord
  2
5
 70
     0
 62
    -7
  6
CONTINUOUS
  0
LAYER
  5
2D
330
2
100
AcDbSymbolTableRecord
100
AcDbLayerTableRecord
  2
6
 70
     0
 62
     5
  6
CONTINUOUS
  0
LAYER
  5
2E
330
2
100
AcDbSymbolTableRecord
100
AcDbLayerTableRecord
  2
SK6
 70
     0
 62
     5
  6
CONTINUOUS
  0
LAYER
  5
2F
330
2
100
AcDbSymbolTableRecord
100
AcDbLayerTableRecord
  2
DEFPOINTS
 70
     0
 62
    -7
  6
CONTINUOUS
  0
LAYER
  5
38E
330
2
100
AcDbSymbolTableRecord
100
AcDbLayerTableRecord
  2
1__1
 70
     0
 62
    -1
  6
CONTINUOUS
  0
ENDTAB
  0
TABLE
  2
STYLE
  5
3
330
0
100
AcDbSymbolTable
 70
     3
  0
STYLE
  5
10
330
3
100
AcDbSymbolTableRecord
100
AcDbTextStyleTableRecord
  2
STANDARD
 70
     0
 40
0.0
 41
1.0
 50
0.0
 71
     0
 42
5.0
  3
txt
  4

  0
STYLE
  5
1D
330
3
100
AcDbSymbolTableRecord
100
AcDbTextStyleTableRecord
  2
TXT
 70
     0
 40
8.0
 41
1.0
 50
0.0
 71
     0
 42
8.0
  3
txt
  4

  0
STYLE
  5
1E
330
3
100
AcDbSymbolTableRecord
100
AcDbTextStyleTableRecord
  2
SIMPLEX
 70
     0
 40
0.0
 41
1.0
 50
0.0
 71
     0
 42
4.57
  3
simplex
  4

  0
ENDTAB
  0
TABLE
  2
VIEW
  5
6
330
0
100
AcDbSymbolTable
 70
     0
  0
ENDTAB
  0
TABLE
  2
UCS
  5
7
330
0
100
AcDbSymbolTable
 70
     0
  0
ENDTAB
  0
TABLE
  2
APPID
  5
9
330
0
100
AcDbSymbolTable
 70
     1
  0
APPID
  5
11
330
9
100
AcDbSymbolTableRecord
100
AcDbRegAppTableRecord
  2
ACAD
 70
     0
  0
ENDTAB
  0
TABLE
  2
DIMSTYLE
  5
A
330
0
100
AcDbSymbolTable
 70
     1
  0
DIMSTYLE
105
3F
102
{ACAD_REACTORS
330
40A
330
413
330
3FE
330
493
330
494
330
496
330
497
330
498
330
4E5
330
4E6
330
4E4
330
4E2
330
4E1
330
3FB
330
3FA
330
3ED
102
}
330
A
100
AcDbSymbolTableRecord
100
AcDbDimStyleTableRecord
  2
STANDARD
 70
     0
  3

  4

  5

  6

  7

 40
0.0
 41
4.57
 42
0.0
 43
0.38
 44
5.0
 45
0.0
 46
0.0
 47
0.0
 48
0.0
140
4.57
141
0.09
142
0.0
143
25.4
144
1.0
145
0.0
146
1.0
147
2.299999999999999
 71
     0
 72
     0
 73
     0
 74
     0
 75
     0
 76
     0
 77
     1
 78
     8
170
     0
171
     2
172
     0
173
     0
174
     0
175
     0
176
     0
177
     0
178
     0
270
     2
271
     2
272
     4
273
     2
274
     2
340
1E
275
     0
280
     0
281
     0
282
     0
283
     1
284
     0
285
     0
286
     0
287
     3
288
     0
  0
ENDTAB
  0
TABLE
  2
BLOCK_RECORD
  5
1
330
0
100
AcDbSymbolTable
 70
    17
  0
BLOCK_RECORD
  5
18
102
{ACAD_XDICTIONARY
360
5E0
102
}
330
1
100
AcDbSymbolTableRecord
100
AcDbBlockTableRecord
  2
*MODEL_SPACE
  0
BLOCK_RECORD
  5
338
102
{ACAD_XDICTIONARY
360
5E2
102
}
330
1
100
AcDbSymbolTableRecord
100
AcDbBlockTableRecord
  2
*PAPER_SPACE
  0
BLOCK_RECORD
  5
345
330
1
100
AcDbSymbolTableRecord
100
AcDbBlockTableRecord
  2
*D0
  0
BLOCK_RECORD
  5
351
330
1
100
AcDbSymbolTableRecord
100
AcDbBlockTableRecord
  2
*D1
  0
BLOCK_RECORD
  5
35D
330
1
100
AcDbSymbolTableRecord
100
AcDbBlockTableRecord
  2
*D2
  0
BLOCK_RECORD
  5
369
330
1
100
AcDbSymbolTableRecord
100
AcDbBlockTableRecord
  2
*D3
  0
BLOCK_RECORD
  5
375
330
1
100
AcDbSymbolTableRecord
100
AcDbBlockTableRecord
  2
*D4
  0
BLOCK_RECORD
  5
382
330
1
100
AcDbSymbolTableRecord
100
AcDbBlockTableRecord
  2
*D5
  0
BLOCK_RECORD
  5
454
330
1
100
AcDbSymbolTableRecord
100
AcDbBlockTableRecord
  2
*D6
  0
BLOCK_RECORD
  5
460
330
1
100
AcDbSymbolTableRecord
100
AcDbBlockTableRecord
  2
*D7
  0
BLOCK_RECORD
  5
46C
330
1
100
AcDbSymbolTableRecord
100
AcDbBlockTableRecord
  2
*D8
  0
BLOCK_RECORD
  5
478
330
1
100
AcDbSymbolTableRecord
100
AcDbBlockTableRecord
  2
*D9
  0
BLOCK_RECORD
  5
484
330
1
100
AcDbSymbolTableRecord
100
AcDbBlockTableRecord
  2
*D10
  0
BLOCK_RECORD
  5
492
330
1
100
AcDbSymbolTableRecord
100
AcDbBlockTableRecord
  2
MASBT40
  0
BLOCK_RECORD
  5
52B
330
1
100
AcDbSymbolTableRecord
100
AcDbBlockTableRecord
  2
*D12
  0
BLOCK_RECORD
  5
537
330
1
100
AcDbSymbolTableRecord
100
AcDbBlockTableRecord
  2
*D13
  0
BLOCK_RECORD
  5
543
330
1
100
AcDbSymbolTableRecord
100
AcDbBlockTableRecord
  2
*D14
  0
BLOCK_RECORD
  5
54F
330
1
100
AcDbSymbolTableRecord
100
AcDbBlockTableRecord
  2
*D15
  0
BLOCK_RECORD
  5
55B
330
1
100
AcDbSymbolTableRecord
100
AcDbBlockTableRecord
  2
*D16
  0
ENDTAB
  0
ENDSEC
  0
SECTION
  2
BLOCKS
  0
BLOCK
  5
32
330
18
100
AcDbEntity
  8
0
100
AcDbBlockBegin
  2
*MODEL_SPACE
 70
     0
 10
0.0
 20
0.0
 30
0.0
  3
*MODEL_SPACE
  1

  0
ENDBLK
  5
33
330
18
100
AcDbEntity
  8
0
100
AcDbBlockEnd
  0
BLOCK
  5
339
330
338
100
AcDbEntity
 67
     1
  8
0
100
AcDbBlockBegin
  2
*PAPER_SPACE
 70
     0
 10
0.0
 20
0.0
 30
0.0
  3
*PAPER_SPACE
  1

  0
ENDBLK
  5
33A
330
338
100
AcDbEntity
 67
     1
  8
0
100
AcDbBlockEnd
  0
BLOCK
  5
34F
330
345
100
AcDbEntity
  8
0
100
AcDbBlockBegin
  2
*D0
 70
     1
 10
0.0
 20
0.0
 30
0.0
  3
*D0
  1

  0
LINE
  5
41D
330
345
100
AcDbEntity
  8
2
 62
     0
100
AcDbLine
 10
0.0
 20
27.81399999999999
 30
0.0
 11
0.0000000000000032
 21
80.0
 31
0.0
  0
LINE
  5
41E
330
345
100
AcDbEntity
  8
2
 62
     0
100
AcDbLine
 10
55.0
 20
20.0
 30
0.0
 11
55.0
 21
80.0
 31
0.0
  0
LINE
  5
41F
330
345
100
AcDbEntity
  8
2
 62
     0
100
AcDbLine
 10
4.570000000000002
 20
75.0
 30
0.0
 11
50.43
 21
75.0
 31
0.0
  0
SOLID
  5
420
330
345
100
AcDbEntity
  8
2
 62
     0
100
AcDbTrace
 10
4.570000000000002
 20
75.76166666666667
 30
0.0
 11
4.570000000000002
 21
74.23833333333333
 31
0.0
 12
0.0000000000000029
 22
75.0
 32
0.0
 13
0.0000000000000029
 23
75.0
 33
0.0
  0
SOLID
  5
421
330
345
100
AcDbEntity
  8
2
 62
     0
100
AcDbTrace
 10
50.43
 20
75.76166666666667
 30
0.0
 11
50.43
 21
74.23833333333333
 31
0.0
 12
55.0
 22
75.0
 32
0.0
 13
55.0
 23
75.0
 33
0.0
  0
MTEXT
  5
422
330
345
100
AcDbEntity
  8
2
 62
     0
100
AcDbMText
 10
27.5
 20
79.58499999999999
 30
0.0
 40
4.57
 41
0.0
 71
     5
 72
     1
  1
\A1;55
  7
SIMPLEX
1001
ACAD
1000
MTEXTBEGIN
1070
    73
1070
     1
1070
    44
1040
1.0
1070
    74
1070
     0
1000
MTEXTEND
  0
POINT
  5
423
330
345
100
AcDbEntity
  8
DEFPOINTS
 62
     0
100
AcDbPoint
 10
0.0
 20
27.81399999999999
 30
0.0
  0
POINT
  5
424
330
345
100
AcDbEntity
  8
DEFPOINTS
 62
     0
100
AcDbPoint
 10
55.0
 20
20.0
 30
0.0
  0
POINT
  5
425
330
345
100
AcDbEntity
  8
DEFPOINTS
 62
     0
100
AcDbPoint
 10
55.0
 20
75.0
 30
0.0
  0
ENDBLK
  5
350
330
345
100
AcDbEntity
  8
0
100
AcDbBlockEnd
  0
BLOCK
  5
35B
330
351
100
AcDbEntity
  8
0
100
AcDbBlockBegin
  2
*D1
 70
     1
 10
0.0
 20
0.0
 30
0.0
  3
*D1
  1

  0
LINE
  5
426
330
351
100
AcDbEntity
  8
SK2
 62
     0
100
AcDbLine
 10
55.0
 20
-19.99999999999999
 30
0.0
 11
55.0
 21
-35.0
 31
0.0
  0
LINE
  5
427
330
351
100
AcDbEntity
  8
SK2
 62
     0
100
AcDbLine
 10
74.0
 20
-10.0
 30
0.0
 11
74.0
 21
-35.0
 31
0.0
  0
LINE
  5
428
330
351
100
AcDbEntity
  8
SK2
 62
     0
100
AcDbLine
 10
59.57
 20
-30.0
 30
0.0
 11
69.43000000000001
 21
-30.0
 31
0.0
  0
SOLID
  5
429
330
351
100
AcDbEntity
  8
SK2
 62
     0
100
AcDbTrace
 10
59.57
 20
-29.23833333333333
 30
0.0
 11
59.57
 21
-30.76166666666666
 31
0.0
 12
55.0
 22
-30.0
 32
0.0
 13
55.0
 23
-30.0
 33
0.0
  0
SOLID
  5
42A
330
351
100
AcDbEntity
  8
SK2
 62
     0
100
AcDbTrace
 10
69.43000000000001
 20
-29.23833333333333
 30
0.0
 11
69.43000000000001
 21
-30.76166666666666
 31
0.0
 12
74.0
 22
-30.0
 32
0.0
 13
74.0
 23
-30.0
 33
0.0
  0
MTEXT
  5
42B
330
351
100
AcDbEntity
  8
SK2
 62
     0
100
AcDbMText
 10
64.5
 20
-25.415
 30
0.0
 40
4.57
 41
0.0
 71
     5
 72
     1
  1
\A1;19
  7
SIMPLEX
1001
ACAD
1000
MTEXTBEGIN
1070
    73
1070
     1
1070
    44
1040
1.0
1070
    74
1070
     0
1000
MTEXTEND
  0
POINT
  5
42C
330
351
100
AcDbEntity
  8
DEFPOINTS
 62
     0
100
AcDbPoint
 10
55.0
 20
-19.99999999999999
 30
0.0
  0
POINT
  5
42D
330
351
100
AcDbEntity
  8
DEFPOINTS
 62
     0
100
AcDbPoint
 10
74.0
 20
-10.0
 30
0.0
  0
POINT
  5
42E
330
351
100
AcDbEntity
  8
DEFPOINTS
 62
     0
100
AcDbPoint
 10
74.0
 20
-30.0
 30
0.0
  0
ENDBLK
  5
35C
330
351
100
AcDbEntity
  8
0
100
AcDbBlockEnd
  0
BLOCK
  5
367
330
35D
100
AcDbEntity
  8
0
100
AcDbBlockBegin
  2
*D2
 70
     1
 10
0.0
 20
0.0
 30
0.0
  3
*D2
  1

  0
LINE
  5
42F
330
35D
100
AcDbEntity
  8
SK2
 62
     0
100
AcDbLine
 10
43.0
 20
-19.99999999999999
 30
0.0
 11
43.0
 21
-50.0
 31
0.0
  0
LINE
  5
430
330
35D
100
AcDbEntity
  8
SK2
 62
     0
100
AcDbLine
 10
74.0
 20
-10.0
 30
0.0
 11
74.0
 21
-50.0
 31
0.0
  0
LINE
  5
431
330
35D
100
AcDbEntity
  8
SK2
 62
     0
100
AcDbLine
 10
47.57
 20
-45.0
 30
0.0
 11
69.43000000000001
 21
-45.0
 31
0.0
  0
SOLID
  5
432
330
35D
100
AcDbEntity
  8
SK2
 62
     0
100
AcDbTrace
 10
47.57
 20
-44.23833333333333
 30
0.0
 11
47.57
 21
-45.76166666666667
 31
0.0
 12
43.0
 22
-45.0
 32
0.0
 13
43.0
 23
-45.0
 33
0.0
  0
SOLID
  5
433
330
35D
100
AcDbEntity
  8
SK2
 62
     0
100
AcDbTrace
 10
69.43000000000001
 20
-44.23833333333333
 30
0.0
 11
69.43000000000001
 21
-45.76166666666667
 31
0.0
 12
74.0
 22
-45.0
 32
0.0
 13
74.0
 23
-45.0
 33
0.0
  0
MTEXT
  5
434
330
35D
100
AcDbEntity
  8
SK2
 62
     0
100
AcDbMText
 10
58.5
 20
-40.415
 30
0.0
 40
4.57
 41
0.0
 71
     5
 72
     1
  1
\A1;31
  7
SIMPLEX
1001
ACAD
1000
MTEXTBEGIN
1070
    73
1070
     1
1070
    44
1040
1.0
1070
    74
1070
     0
1000
MTEXTEND
  0
POINT
  5
435
330
35D
100
AcDbEntity
  8
DEFPOINTS
 62
     0
100
AcDbPoint
 10
43.0
 20
-19.99999999999999
 30
0.0
  0
POINT
  5
436
330
35D
100
AcDbEntity
  8
DEFPOINTS
 62
     0
100
AcDbPoint
 10
74.0
 20
-10.0
 30
0.0
  0
POINT
  5
437
330
35D
100
AcDbEntity
  8
DEFPOINTS
 62
     0
100
AcDbPoint
 10
74.0
 20
-45.0
 30
0.0
  0
ENDBLK
  5
368
330
35D
100
AcDbEntity
  8
0
100
AcDbBlockEnd
  0
BLOCK
  5
373
330
369
100
AcDbEntity
  8
0
100
AcDbBlockBegin
  2
*D3
 70
     1
 10
0.0
 20
0.0
 30
0.0
  3
*D3
  1

  0
LINE
  5
438
330
369
100
AcDbEntity
  8
SK2
 62
     0
100
AcDbLine
 10
-68.4
 20
11.45313
 30
0.0
 11
-68.4
 21
80.0
 31
0.0
  0
LINE
  5
439
330
369
100
AcDbEntity
  8
SK2
 62
     0
100
AcDbLine
 10
0.0
 20
22.225
 30
0.0
 11
0.0000000000000035
 21
80.0
 31
0.0
  0
LINE
  5
43A
330
369
100
AcDbEntity
  8
SK2
 62
     0
100
AcDbLine
 10
-63.83
 20
75.0
 30
0.0
 11
-4.569999999999996
 21
75.0
 31
0.0
  0
SOLID
  5
43B
330
369
100
AcDbEntity
  8
SK2
 62
     0
100
AcDbTrace
 10
-63.83
 20
75.76166666666667
 30
0.0
 11
-63.83
 21
74.23833333333333
 31
0.0
 12
-68.4
 22
75.0
 32
0.0
 13
-68.4
 23
75.0
 33
0.0
  0
SOLID
  5
43C
330
369
100
AcDbEntity
  8
SK2
 62
     0
100
AcDbTrace
 10
-4.569999999999996
 20
75.76166666666667
 30
0.0
 11
-4.569999999999996
 21
74.23833333333333
 31
0.0
 12
0.0000000000000032
 22
75.0
 32
0.0
 13
0.0000000000000032
 23
75.0
 33
0.0
  0
MTEXT
  5
43D
330
369
100
AcDbEntity
  8
SK2
 62
     0
100
AcDbMText
 10
-34.2
 20
79.58499999999999
 30
0.0
 40
4.57
 41
0.0
 71
     5
 72
     1
  1
\A1;68.4
  7
SIMPLEX
1001
ACAD
1000
MTEXTBEGIN
1070
    73
1070
     1
1070
    44
1040
1.0
1070
    74
1070
     0
1000
MTEXTEND
  0
POINT
  5
43E
330
369
100
AcDbEntity
  8
DEFPOINTS
 62
     0
100
AcDbPoint
 10
-68.4
 20
11.45313
 30
0.0
  0
POINT
  5
43F
330
369
100
AcDbEntity
  8
DEFPOINTS
 62
     0
100
AcDbPoint
 10
0.0
 20
22.225
 30
0.0
  0
POINT
  5
440
330
369
100
AcDbEntity
  8
DEFPOINTS
 62
     0
100
AcDbPoint
 10
0.0000000000000032
 20
75.0
 30
0.0
  0
ENDBLK
  5
374
330
369
100
AcDbEntity
  8
0
100
AcDbBlockEnd
  0
BLOCK
  5
380
330
375
100
AcDbEntity
  8
0
100
AcDbBlockBegin
  2
*D4
 70
     1
 10
0.0
 20
0.0
 30
0.0
  3
*D4
  1

  0
LINE
  5
441
330
375
100
AcDbEntity
  8
SK2
 62
     0
100
AcDbLine
 10
-59.51133
 20
-7.999999999999999
 30
0.0
 11
-88.95000000000001
 21
-7.999999999999991
 31
0.0
  0
LINE
  5
442
330
375
100
AcDbEntity
  8
SK2
 62
     0
100
AcDbLine
 10
-59.51133
 20
8.0
 30
0.0
 11
-88.95000000000001
 21
8.000000000000008
 31
0.0
  0
LINE
  5
443
330
375
100
AcDbEntity
  8
SK2
 62
     0
100
AcDbLine
 10
-83.95000000000001
 20
-3.429999999999991
 30
0.0
 11
-83.95000000000001
 21
3.430000000000006
 31
0.0
  0
LINE
  5
444
330
375
100
AcDbEntity
  8
SK2
 62
     0
100
AcDbLine
 10
-83.95000000000001
 20
8.000000000000007
 30
0.0
 11
-83.95000000000001
 21
28.70380952380953
 31
0.0
  0
SOLID
  5
445
330
375
100
AcDbEntity
  8
SK2
 62
     0
100
AcDbTrace
 10
-84.71166666666666
 20
-3.429999999999991
 30
0.0
 11
-83.18833333333333
 21
-3.429999999999991
 31
0.0
 12
-83.95000000000001
 22
-7.999999999999992
 32
0.0
 13
-83.95000000000001
 23
-7.999999999999992
 33
0.0
  0
SOLID
  5
446
330
375
100
AcDbEntity
  8
SK2
 62
     0
100
AcDbTrace
 10
-84.71166666666666
 20
3.430000000000006
 30
0.0
 11
-83.18833333333333
 21
3.430000000000006
 31
0.0
 12
-83.95000000000001
 22
8.000000000000007
 32
0.0
 13
-83.95000000000001
 23
8.000000000000007
 33
0.0
  0
MTEXT
  5
447
330
375
100
AcDbEntity
  8
SK2
 62
     0
100
AcDbMText
 10
-88.535
 20
20.63690476190476
 30
0.0
 40
4.57
 41
0.0
 71
     5
 72
     1
  1
\A1;M16
  7
SIMPLEX
 11
0.0000000000000001
 21
1.0
 31
0.0
1001
ACAD
1000
MTEXTBEGIN
1070
    73
1070
     1
1070
    44
1040
1.0
1070
    74
1070
     0
1000
MTEXTEND
  0
POINT
  5
448
330
375
100
AcDbEntity
  8
DEFPOINTS
 62
     0
100
AcDbPoint
 10
-59.51133
 20
-7.999999999999999
 30
0.0
  0
POINT
  5
449
330
375
100
AcDbEntity
  8
DEFPOINTS
 62
     0
100
AcDbPoint
 10
-59.51133
 20
8.0
 30
0.0
  0
POINT
  5
44A
330
375
100
AcDbEntity
  8
DEFPOINTS
 62
     0
100
AcDbPoint
 10
-83.95000000000001
 20
8.000000000000007
 30
0.0
  0
ENDBLK
  5
381
330
375
100
AcDbEntity
  8
0
100
AcDbBlockEnd
  0
BLOCK
  5
38C
330
382
100
AcDbEntity
  8
0
100
AcDbBlockBegin
  2
*D5
 70
     1
 10
0.0
 20
0.0
 30
0.0
  3
*D5
  1

  0
LINE
  5
44B
330
382
100
AcDbEntity
  8
SK2
 62
     0
100
AcDbLine
 10
0.0
 20
22.225
 30
0.0
 11
-10.94999999999999
 21
22.225
 31
0.0
  0
LINE
  5
44C
330
382
100
AcDbEntity
  8
SK2
 62
     0
100
AcDbLine
 10
0.0
 20
-22.225
 30
0.0
 11
-10.95
 21
-22.22499999999999
 31
0.0
  0
LINE
  5
44D
330
382
100
AcDbEntity
  8
SK2
 62
     0
100
AcDbLine
 10
-5.949999999999993
 20
17.655
 30
0.0
 11
-5.950000000000001
 21
-17.655
 31
0.0
  0
SOLID
  5
44E
330
382
100
AcDbEntity
  8
SK2
 62
     0
100
AcDbTrace
 10
-6.71166666666666
 20
17.655
 30
0.0
 11
-5.188333333333327
 21
17.655
 31
0.0
 12
-5.949999999999992
 22
22.225
 32
0.0
 13
-5.949999999999992
 23
22.225
 33
0.0
  0
SOLID
  5
44F
330
382
100
AcDbEntity
  8
SK2
 62
     0
100
AcDbTrace
 10
-6.711666666666667
 20
-17.655
 30
0.0
 11
-5.188333333333334
 21
-17.655
 31
0.0
 12
-5.950000000000002
 22
-22.225
 32
0.0
 13
-5.950000000000002
 23
-22.225
 33
0.0
  0
MTEXT
  5
450
330
382
100
AcDbEntity
  8
SK2
 62
     0
100
AcDbMText
 10
-10.53499999999999
 20
0.0000000000000009
 30
0.0
 40
4.57
 41
0.0
 71
     5
 72
     1
  1
\A1;%%C44.45
  7
SIMPLEX
 11
0.0000000000000001
 21
1.0
 31
0.0
1001
ACAD
1000
MTEXTBEGIN
1070
    73
1070
     1
1070
    44
1040
1.0
1070
    74
1070
     0
1000
MTEXTEND
  0
POINT
  5
451
330
382
100
AcDbEntity
  8
DEFPOINTS
 62
     0
100
AcDbPoint
 10
0.0
 20
22.225
 30
0.0
  0
POINT
  5
452
330
382
100
AcDbEntity
  8
DEFPOINTS
 62
     0
100
AcDbPoint
 10
0.0
 20
-22.225
 30
0.0
  0
POINT
  5
453
330
382
100
AcDbEntity
  8
DEFPOINTS
 62
     0
100
AcDbPoint
 10
-5.950000000000002
 20
-22.225
 30
0.0
  0
ENDBLK
  5
38D
330
382
100
AcDbEntity
  8
0
100
AcDbBlockEnd
  0
BLOCK
  5
45E
330
454
100
AcDbEntity
  8
0
100
AcDbBlockBegin
  2
*D6
 70
     1
 10
0.0
 20
0.0
 30
0.0
  3
*D6
  1

  0
LINE
  5
455
330
454
100
AcDbEntity
  8
0
  6
BYBLOCK
 62
     0
100
AcDbLine
 10
0.0
 20
22.225
 30
0.0
 11
0.0
 21
80.0
 31
0.0
  0
LINE
  5
456
330
454
100
AcDbEntity
  8
0
  6
BYBLOCK
 62
     0
100
AcDbLine
 10
27.0
 20
30.88853
 30
0.0
 11
27.0
 21
80.0
 31
0.0
  0
LINE
  5
457
330
454
100
AcDbEntity
  8
0
  6
BYBLOCK
 62
     0
100
AcDbLine
 10
4.57
 20
75.0
 30
0.0
 11
22.42999999999999
 21
75.0
 31
0.0
  0
SOLID
  5
458
330
454
100
AcDbEntity
  8
0
  6
BYBLOCK
 62
     0
100
AcDbTrace
 10
4.57
 20
75.76166666666667
 30
0.0
 11
4.57
 21
74.23833333333333
 31
0.0
 12
0.0
 22
75.0
 32
0.0
 13
0.0
 23
75.0
 33
0.0
  0
SOLID
  5
459
330
454
100
AcDbEntity
  8
0
  6
BYBLOCK
 62
     0
100
AcDbTrace
 10
22.42999999999999
 20
75.76166666666667
 30
0.0
 11
22.42999999999999
 21
74.23833333333333
 31
0.0
 12
27.0
 22
75.0
 32
0.0
 13
27.0
 23
75.0
 33
0.0
  0
TEXT
  5
45A
330
454
100
AcDbEntity
  8
0
  6
BYBLOCK
 62
     0
100
AcDbText
 10
9.800476190476189
 20
77.285
 30
0.0
 40
4.57
  1
27
  7
SIMPLEX
 72
     1
 11
13.5
 21
79.56999999999999
 31
0.0
100
AcDbText
 73
     2
  0
POINT
  5
45B
330
454
100
AcDbEntity
  8
DEFPOINTS
  6
BYBLOCK
 62
     0
100
AcDbPoint
 10
0.0
 20
22.225
 30
0.0
  0
POINT
  5
45C
330
454
100
AcDbEntity
  8
DEFPOINTS
  6
BYBLOCK
 62
     0
100
AcDbPoint
 10
27.0
 20
30.88853
 30
0.0
  0
POINT
  5
45D
330
454
100
AcDbEntity
  8
DEFPOINTS
  6
BYBLOCK
 62
     0
100
AcDbPoint
 10
27.0
 20
75.0
 30
0.0
  0
ENDBLK
  5
45F
330
454
100
AcDbEntity
  8
0
100
AcDbBlockEnd
  0
BLOCK
  5
46A
330
460
100
AcDbEntity
  8
0
100
AcDbBlockBegin
  2
*D7
 70
     1
 10
0.0
 20
0.0
 30
0.0
  3
*D7
  1

  0
LINE
  5
461
330
460
100
AcDbEntity
  8
0
  6
BYBLOCK
 62
     0
100
AcDbLine
 10
-65.4
 20
11.82259999958979
 30
0.0
 11
-65.4
 21
80.00000000000001
 31
0.0
  0
LINE
  5
462
330
460
100
AcDbEntity
  8
0
  6
BYBLOCK
 62
     0
100
AcDbLine
 10
0.0
 20
22.225
 30
0.0
 11
0.0
 21
80.0
 31
0.0
  0
LINE
  5
463
330
460
100
AcDbEntity
  8
0
  6
BYBLOCK
 62
     0
100
AcDbLine
 10
-60.83000000000001
 20
75.0
 30
0.0
 11
-4.57
 21
75.0
 31
0.0
  0
SOLID
  5
464
330
460
100
AcDbEntity
  8
0
  6
BYBLOCK
 62
     0
100
AcDbTrace
 10
-60.83000000000001
 20
75.76166666666667
 30
0.0
 11
-60.83000000000001
 21
74.23833333333333
 31
0.0
 12
-65.4
 22
75.0
 32
0.0
 13
-65.4
 23
75.0
 33
0.0
  0
SOLID
  5
465
330
460
100
AcDbEntity
  8
0
  6
BYBLOCK
 62
     0
100
AcDbTrace
 10
-4.57
 20
75.76166666666667
 30
0.0
 11
-4.57
 21
74.23833333333333
 31
0.0
 12
0.0
 22
75.0
 32
0.0
 13
0.0
 23
75.0
 33
0.0
  0
TEXT
  5
466
330
460
100
AcDbEntity
  8
0
  6
BYBLOCK
 62
     0
100
AcDbText
 10
-39.77261904761905
 20
77.285
 30
0.0
 40
4.57
  1
65.4
  7
SIMPLEX
 72
     1
 11
-32.7
 21
79.56999999999999
 31
0.0
100
AcDbText
 73
     2
  0
POINT
  5
467
330
460
100
AcDbEntity
  8
DEFPOINTS
  6
BYBLOCK
 62
     0
100
AcDbPoint
 10
-65.4
 20
11.82259999958979
 30
0.0
  0
POINT
  5
468
330
460
100
AcDbEntity
  8
DEFPOINTS
  6
BYBLOCK
 62
     0
100
AcDbPoint
 10
0.0
 20
22.225
 30
0.0
  0
POINT
  5
469
330
460
100
AcDbEntity
  8
DEFPOINTS
  6
BYBLOCK
 62
     0
100
AcDbPoint
 10
0.0
 20
75.0
 30
0.0
  0
ENDBLK
  5
46B
330
460
100
AcDbEntity
  8
0
100
AcDbBlockEnd
  0
BLOCK
  5
476
330
46C
100
AcDbEntity
  8
0
100
AcDbBlockBegin
  2
*D8
 70
     1
 10
0.0
 20
0.0
 30
0.0
  3
*D8
  1

  0
LINE
  5
46D
330
46C
100
AcDbEntity
  8
0
  6
BYBLOCK
 62
     0
100
AcDbLine
 10
0.0
 20
22.225
 30
0.0
 11
-10.0
 21
22.225
 31
0.0
  0
LINE
  5
46E
330
46C
100
AcDbEntity
  8
0
  6
BYBLOCK
 62
     0
100
AcDbLine
 10
0.0
 20
-22.225
 30
0.0
 11
-10.0
 21
-22.225
 31
0.0
  0
LINE
  5
46F
330
46C
100
AcDbEntity
  8
0
  6
BYBLOCK
 62
     0
100
AcDbLine
 10
-5.0
 20
17.655
 30
0.0
 11
-5.0
 21
-17.655
 31
0.0
  0
SOLID
  5
470
330
46C
100
AcDbEntity
  8
0
  6
BYBLOCK
 62
     0
100
AcDbTrace
 10
-5.761666666666666
 20
17.655
 30
0.0
 11
-4.238333333333333
 21
17.655
 31
0.0
 12
-5.0
 22
22.225
 32
0.0
 13
-5.0
 23
22.225
 33
0.0
  0
SOLID
  5
471
330
46C
100
AcDbEntity
  8
0
  6
BYBLOCK
 62
     0
100
AcDbTrace
 10
-5.761666666666666
 20
-17.655
 30
0.0
 11
-4.238333333333333
 21
-17.655
 31
0.0
 12
-5.0
 22
-22.225
 32
0.0
 13
-5.0
 23
-22.225
 33
0.0
  0
TEXT
  5
472
330
46C
100
AcDbEntity
  8
0
  6
BYBLOCK
 62
     0
100
AcDbText
 10
-7.285
 20
-11.20738095238095
 30
0.0
 40
4.57
  1
%%C44.45
 50
90.0
  7
SIMPLEX
 72
     1
 11
-9.57
 21
0.0
 31
0.0
100
AcDbText
 73
     2
  0
POINT
  5
473
330
46C
100
AcDbEntity
  8
DEFPOINTS
  6
BYBLOCK
 62
     0
100
AcDbPoint
 10
0.0
 20
22.225
 30
0.0
  0
POINT
  5
474
330
46C
100
AcDbEntity
  8
DEFPOINTS
  6
BYBLOCK
 62
     0
100
AcDbPoint
 10
0.0
 20
-22.225
 30
0.0
  0
POINT
  5
475
330
46C
100
AcDbEntity
  8
DEFPOINTS
  6
BYBLOCK
 62
     0
100
AcDbPoint
 10
-5.0
 20
-22.225
 30
0.0
  0
ENDBLK
  5
477
330
46C
100
AcDbEntity
  8
0
100
AcDbBlockEnd
  0
BLOCK
  5
482
330
478
100
AcDbEntity
  8
0
100
AcDbBlockBegin
  2
*D9
 70
     1
 10
0.0
 20
0.0
 30
0.0
  3
*D9
  1

  0
LINE
  5
479
330
478
100
AcDbEntity
  8
0
  6
BYBLOCK
 62
     0
100
AcDbLine
 10
2.599999999999994
 20
-31.48846999999999
 30
0.0
 11
-100.0
 21
-31.48846999999999
 31
0.0
  0
LINE
  5
47A
330
478
100
AcDbEntity
  8
0
  6
BYBLOCK
 62
     0
100
AcDbLine
 10
2.599999999999994
 20
31.48852999999999
 30
0.0
 11
-100.0
 21
31.48852999999999
 31
0.0
  0
LINE
  5
47B
330
478
100
AcDbEntity
  8
0
  6
BYBLOCK
 62
     0
100
AcDbLine
 10
-95.0
 20
-26.91847
 30
0.0
 11
-95.0
 21
26.91853
 31
0.0
  0
SOLID
  5
47C
330
478
100
AcDbEntity
  8
0
  6
BYBLOCK
 62
     0
100
AcDbTrace
 10
-95.76166666666667
 20
-26.91847
 30
0.0
 11
-94.23833333333332
 21
-26.91847
 31
0.0
 12
-95.0
 22
-31.48846999999999
 32
0.0
 13
-95.0
 23
-31.48846999999999
 33
0.0
  0
SOLID
  5
47D
330
478
100
AcDbEntity
  8
0
  6
BYBLOCK
 62
     0
100
AcDbTrace
 10
-95.76166666666667
 20
26.91853
 30
0.0
 11
-94.23833333333332
 21
26.91853
 31
0.0
 12
-95.0
 22
31.48852999999999
 32
0.0
 13
-95.0
 23
31.48852999999999
 33
0.0
  0
TEXT
  5
47E
330
478
100
AcDbEntity
  8
0
  6
BYBLOCK
 62
     0
100
AcDbText
 10
-97.285
 20
-11.20735095238095
 30
0.0
 40
4.57
  1
%%C62.98
 50
90.0
  7
SIMPLEX
 72
     1
 11
-99.57
 21
0.0000299999999989
 31
0.0
100
AcDbText
 73
     2
  0
POINT
  5
47F
330
478
100
AcDbEntity
  8
DEFPOINTS
  6
BYBLOCK
 62
     0
100
AcDbPoint
 10
2.599999999999994
 20
-31.48846999999999
 30
0.0
  0
POINT
  5
480
330
478
100
AcDbEntity
  8
DEFPOINTS
  6
BYBLOCK
 62
     0
100
AcDbPoint
 10
2.599999999999994
 20
31.48852999999999
 30
0.0
  0
POINT
  5
481
330
478
100
AcDbEntity
  8
DEFPOINTS
  6
BYBLOCK
 62
     0
100
AcDbPoint
 10
-95.0
 20
31.48852999999999
 30
0.0
  0
ENDBLK
  5
483
330
478
100
AcDbEntity
  8
0
100
AcDbBlockEnd
  0
BLOCK
  5
490
330
484
100
AcDbEntity
  8
0
100
AcDbBlockBegin
  2
*D10
 70
     1
 10
0.0
 20
0.0
 30
0.0
  3
*D10
  1

  0
LINE
  5
485
330
484
100
AcDbEntity
  8
0
  6
BYBLOCK
 62
     0
100
AcDbLine
 10
-55.85746999999999
 20
8.0
 30
0.0
 11
-85.0
 21
8.0
 31
0.0
  0
LINE
  5
486
330
484
100
AcDbEntity
  8
0
  6
BYBLOCK
 62
     0
100
AcDbLine
 10
-55.85746999999999
 20
-8.0
 30
0.0
 11
-85.0
 21
-8.0
 31
0.0
  0
LINE
  5
487
330
484
100
AcDbEntity
  8
0
  6
BYBLOCK
 62
     0
100
AcDbLine
 10
-80.0
 20
12.57
 30
0.0
 11
-80.0
 21
17.14
 31
0.0
  0
LINE
  5
488
330
484
100
AcDbEntity
  8
0
  6
BYBLOCK
 62
     0
100
AcDbLine
 10
-80.0
 20
-12.57
 30
0.0
 11
-80.0
 21
-17.14
 31
0.0
  0
LINE
  5
489
330
484
100
AcDbEntity
  8
0
  6
BYBLOCK
 62
     0
100
AcDbLine
 10
-80.0
 20
-17.14
 30
0.0
 11
-80.0
 21
-28.76380952380952
 31
0.0
  0
SOLID
  5
48A
330
484
100
AcDbEntity
  8
0
  6
BYBLOCK
 62
     0
100
AcDbTrace
 10
-80.76166666666667
 20
12.57
 30
0.0
 11
-79.23833333333333
 21
12.57
 31
0.0
 12
-80.0
 22
8.0
 32
0.0
 13
-80.0
 23
8.0
 33
0.0
  0
SOLID
  5
48B
330
484
100
AcDbEntity
  8
0
  6
BYBLOCK
 62
     0
100
AcDbTrace
 10
-80.76166666666667
 20
-12.57
 30
0.0
 11
-79.23833333333333
 21
-12.57
 31
0.0
 12
-80.0
 22
-8.0
 32
0.0
 13
-80.0
 23
-8.0
 33
0.0
  0
TEXT
  5
48C
330
484
100
AcDbEntity
  8
0
  6
BYBLOCK
 62
     0
100
AcDbText
 10
-82.285
 20
-28.76380952380952
 30
0.0
 40
4.57
  1
M16
 50
90.0
  7
SIMPLEX
 72
     1
 11
-84.56999999999998
 21
-22.99690476190476
 31
0.0
100
AcDbText
 73
     2
  0
POINT
  5
48D
330
484
100
AcDbEntity
  8
DEFPOINTS
  6
BYBLOCK
 62
     0
100
AcDbPoint
 10
-55.85746999999999
 20
8.0
 30
0.0
  0
POINT
  5
48E
330
484
100
AcDbEntity
  8
DEFPOINTS
  6
BYBLOCK
 62
     0
100
AcDbPoint
 10
-55.85746999999999
 20
-8.0
 30
0.0
  0
POINT
  5
48F
330
484
100
AcDbEntity
  8
DEFPOINTS
  6
BYBLOCK
 62
     0
100
AcDbPoint
 10
-80.0
 20
-8.0
 30
0.0
  0
ENDBLK
  5
491
330
484
100
AcDbEntity
  8
0
100
AcDbBlockEnd
  0
BLOCK
  5
4DD
330
492
100
AcDbEntity
  8
0
100
AcDbBlockBegin
  2
MASBT40
 70
     0
 10
0.0
 20
0.0
 30
0.0
  3
MASBT40
  1

  0
DIMENSION
  5
493
330
492
100
AcDbEntity
  8
SK2
100
AcDbDimension
  2
*D6
 10
27.0
 20
75.0
 30
0.0
 11
13.5
 21
79.56999999999999
 31
0.0
  3
STANDARD
100
AcDbAlignedDimension
 13
0.0
 23
22.225
 33
0.0
 14
27.0
 24
30.88853
 34
0.0
100
AcDbRotatedDimension
  0
DIMENSION
  5
494
330
492
100
AcDbEntity
  8
SK2
100
AcDbDimension
  2
*D7
 10
0.0
 20
75.0
 30
0.0
 11
-32.7
 21
79.56999999999999
 31
0.0
  3
STANDARD
100
AcDbAlignedDimension
 13
-65.4
 23
11.82259999958979
 33
0.0
 14
0.0
 24
22.225
 34
0.0
100
AcDbRotatedDimension
  0
LINE
  5
495
330
492
100
AcDbEntity
  8
SK4
100
AcDbLine
 10
-2.0
 20
0.0
 30
0.0
 11
27.0
 21
0.0
 31
0.0
  0
DIMENSION
  5
496
330
492
100
AcDbEntity
  8
SK2
100
AcDbDimension
  2
*D8
 10
-5.0
 20
-22.225
 30
0.0
 11
-9.57
 21
0.0
 31
0.0
  1
%%C44.45
  3
STANDARD
100
AcDbAlignedDimension
 13
0.0
 23
22.225
 33
0.0
 14
0.0
 24
-22.225
 34
0.0
 50
90.0
100
AcDbRotatedDimension
  0
DIMENSION
  5
497
330
492
100
AcDbEntity
  8
SK2
100
AcDbDimension
  2
*D9
 10
-95.0
 20
31.48852999999999
 30
0.0
 11
-99.57
 21
0.0000299999999989
 31
0.0
  1
%%C62.98
  3
STANDARD
100
AcDbAlignedDimension
 13
2.599999999999994
 23
-31.48846999999999
 33
0.0
 14
2.599999999999994
 24
31.48852999999999
 34
0.0
 50
90.0
100
AcDbRotatedDimension
  0
DIMENSION
  5
498
330
492
100
AcDbEntity
  8
SK2
100
AcDbDimension
  2
*D10
 10
-80.0
 20
-8.0
 30
0.0
 11
-84.56999999999998
 21
-22.99690476190476
 31
0.0
  1
M16
  3
STANDARD
100
AcDbAlignedDimension
 13
-55.85746999999999
 23
8.0
 33
0.0
 14
-55.85746999999999
 24
-8.0
 34
0.0
 50
90.0
100
AcDbRotatedDimension
  0
TEXT
  5
499
330
492
100
AcDbEntity
  8
6
100
AcDbText
 10
-46.0
 20
10.0
 30
0.0
 40
3.0
  1
SK40 MAS-BT
  7
SIMPLEX
100
AcDbText
  0
ARC
  5
49A
330
492
100
AcDbEntity
  8
1
  6
CONTINUOUS
 62
     4
100
AcDbCircle
 10
15.0
 20
-0.0500000000000008
 30
0.0
 40
8.0
100
AcDbArc
 50
270.0
 51
0.0000000000000057
  0
LINE
  5
49B
330
492
100
AcDbEntity
  8
1
  6
CONTINUOUS
 62
     4
100
AcDbLine
 10
14.09999999999999
 20
-27.1582
 30
0.0
 11
11.59993
 21
-31.48846999999999
 31
0.0
  0
LINE
  5
49C
330
492
100
AcDbEntity
  8
1
  6
CONTINUOUS
 62
     4
100
AcDbLine
 10
19.09999999999999
 20
-27.1582
 30
0.0
 11
21.60007
 21
-31.48846999999999
 31
0.0
  0
LINE
  5
49D
330
492
100
AcDbEntity
  8
1
  6
CONTINUOUS
 62
     4
100
AcDbLine
 10
23.0
 20
0.0
 30
0.0
 11
23.0
 21
-0.0499999999999972
 31
0.0
  0
LINE
  5
49E
330
492
100
AcDbEntity
  8
1
  6
CONTINUOUS
 62
     4
100
AcDbLine
 10
21.60007
 20
-31.48846999999999
 30
0.0
 11
26.4
 21
-31.48846999999999
 31
0.0
  0
LINE
  5
49F
330
492
100
AcDbEntity
  8
1
  6
CONTINUOUS
 62
     4
100
AcDbLine
 10
14.09999999999999
 20
-26.5
 30
0.0
 11
19.09999999999999
 21
-26.5
 31
0.0
  0
LINE
  5
4A0
330
492
100
AcDbEntity
  8
1
  6
CONTINUOUS
 62
     4
100
AcDbLine
 10
2.0
 20
-8.05
 30
0.0
 11
15.0
 21
-8.05
 31
0.0
  0
LINE
  5
4A1
330
492
100
AcDbEntity
  8
1
  6
CONTINUOUS
 62
     4
100
AcDbLine
 10
27.0
 20
0.0
 30
0.0
 11
27.0
 21
-30.88853
 31
0.0
  0
LINE
  5
4A2
330
492
100
AcDbEntity
  8
1
  6
CONTINUOUS
 62
     4
100
AcDbLine
 10
-64.54433
 20
-12.81213
 30
0.0
 11
0.0
 21
-22.225
 31
0.0
  0
LINE
  5
4A3
330
492
100
AcDbEntity
  8
1
  6
CONTINUOUS
 62
     4
100
AcDbLine
 10
0.3799999999999954
 20
-21.94999999999999
 30
0.0
 11
1.599999999999994
 21
-21.94999999999999
 31
0.0
  0
ARC
  5
4A4
330
492
100
AcDbEntity
  8
1
  6
CONTINUOUS
 62
     4
100
AcDbCircle
 10
-64.39999980755004
 20
-11.8226002225565
 30
0.0
 40
1.000000192449984
100
AcDbArc
 50
179.9999872484539
 51
261.7015075593027
  0
LINE
  5
4A5
330
492
100
AcDbEntity
  8
1
  6
CONTINUOUS
 62
     4
100
AcDbLine
 10
0.0
 20
0.0
 30
0.0
 11
0.0
 21
-22.225
 31
0.0
  0
LINE
  5
4A6
330
492
100
AcDbEntity
  8
1
  6
CONTINUOUS
 62
     4
100
AcDbLine
 10
-65.4
 20
0.0
 30
0.0
 11
-65.4
 21
-11.8226
 31
0.0
  0
LINE
  5
4A7
330
492
100
AcDbEntity
  8
SK3
100
AcDbLine
 10
-18.3586
 20
0.0
 30
0.0
 11
-22.39999999999999
 21
7.0
 31
0.0
  0
ARC
  5
4A8
330
492
100
AcDbEntity
  8
1
  6
CONTINUOUS
 62
     4
100
AcDbCircle
 10
15.0
 20
0.0500000000000004
 30
0.0
 40
8.0
100
AcDbArc
 50
0.0000000235031032
 51
90.00000002350311
  0
LINE
  5
4A9
330
492
100
AcDbEntity
  8
1
  6
CONTINUOUS
 62
     4
100
AcDbLine
 10
-64.54433
 20
12.81212999999999
 30
0.0
 11
0.0
 21
22.225
 31
0.0
  0
LINE
  5
4AA
330
492
100
AcDbEntity
  8
SK3
100
AcDbLine
 10
-55.28006999999999
 20
7.0
 30
0.0
 11
-22.39999999999999
 21
7.0
 31
0.0
  0
LINE
  5
4AB
330
492
100
AcDbEntity
  8
SK3
100
AcDbLine
 10
-63.67952999999999
 20
8.506799999999998
 30
0.0
 11
-65.4
 21
9.5
 31
0.0
  0
LINE
  5
4AC
330
492
100
AcDbEntity
  8
SK3
100
AcDbLine
 10
-22.39999999999999
 20
0.0
 30
0.0
 11
-22.39999999999999
 21
7.0
 31
0.0
  0
LINE
  5
4AD
330
492
100
AcDbEntity
  8
SK3
100
AcDbLine
 10
-35.4
 20
0.0
 30
0.0
 11
-35.4
 21
8.0
 31
0.0
  0
LINE
  5
4AE
330
492
100
AcDbEntity
  8
SK3
100
AcDbLine
 10
-56.15000000000001
 20
0.0
 30
0.0
 11
-56.15000000000001
 21
8.506799999999998
 31
0.0
  0
LINE
  5
4AF
330
492
100
AcDbEntity
  8
SK3
100
AcDbLine
 10
-55.28006999999999
 20
7.0
 30
0.0
 11
-56.15000000000001
 21
8.506730000000004
 31
0.0
  0
LINE
  5
4B0
330
492
100
AcDbEntity
  8
1
  6
CONTINUOUS
 62
     4
100
AcDbLine
 10
11.59993
 20
31.48852999999999
 30
0.0
 11
11.59993
 21
8.049999999999997
 31
0.0
  0
LINE
  5
4B1
330
492
100
AcDbEntity
  8
1
  6
CONTINUOUS
 62
     4
100
AcDbLine
 10
14.09999999999999
 20
27.15827
 30
0.0
 11
11.59993
 21
31.48852999999999
 31
0.0
  0
LINE
  5
4B2
330
492
100
AcDbEntity
  8
1
  6
CONTINUOUS
 62
     4
100
AcDbLine
 10
19.09999999999999
 20
27.15827
 30
0.0
 11
21.60007
 21
31.48852999999999
 31
0.0
  0
LINE
  5
4B3
330
492
100
AcDbEntity
  8
1
  6
CONTINUOUS
 62
     4
100
AcDbLine
 10
23.0
 20
0.0
 30
0.0
 11
23.0
 21
0.0499999999999972
 31
0.0
  0
LINE
  5
4B4
330
492
100
AcDbEntity
  8
1
  6
CONTINUOUS
 62
     4
100
AcDbLine
 10
21.60007
 20
31.48852999999999
 30
0.0
 11
26.4
 21
31.48852999999999
 31
0.0
  0
LINE
  5
4B5
330
492
100
AcDbEntity
  8
1
  6
CONTINUOUS
 62
     4
100
AcDbLine
 10
2.599999999999994
 20
31.48852999999999
 30
0.0
 11
11.59993
 21
31.48852999999999
 31
0.0
  0
LINE
  5
4B6
330
492
100
AcDbEntity
  8
1
  6
CONTINUOUS
 62
     4
100
AcDbLine
 10
2.0
 20
8.049999999999997
 30
0.0
 11
15.0
 21
8.049999999999997
 31
0.0
  0
LINE
  5
4B7
330
492
100
AcDbEntity
  8
1
  6
CONTINUOUS
 62
     4
100
AcDbLine
 10
27.0
 20
0.0
 30
0.0
 11
27.0
 21
30.88853
 31
0.0
  0
ARC
  5
4B8
330
492
100
AcDbEntity
  8
1
  6
CONTINUOUS
 62
     4
100
AcDbCircle
 10
-64.39999980755004
 20
11.8226002225565
 30
0.0
 40
1.000000192449984
100
AcDbArc
 50
98.29849246420042
 51
180.0000127750492
  0
LINE
  5
4B9
330
492
100
AcDbEntity
  8
1
  6
CONTINUOUS
 62
     4
100
AcDbLine
 10
2.0
 20
0.0
 30
0.0
 11
2.0
 21
30.88853
 31
0.0
  0
LINE
  5
4BA
330
492
100
AcDbEntity
  8
1
  6
CONTINUOUS
 62
     4
100
AcDbLine
 10
0.0
 20
0.0
 30
0.0
 11
0.0
 21
22.225
 31
0.0
  0
LINE
  5
4BB
330
492
100
AcDbEntity
  8
1
  6
CONTINUOUS
 62
     4
100
AcDbLine
 10
14.09999999999999
 20
-8.05
 30
0.0
 11
14.09999999999999
 21
-27.1582
 31
0.0
  0
LINE
  5
4BC
330
492
100
AcDbEntity
  8
1
  6
CONTINUOUS
 62
     4
100
AcDbLine
 10
19.09999999999999
 20
-6.919469999999996
 30
0.0
 11
19.09999999999999
 21
-27.1582
 31
0.0
  0
LINE
  5
4BD
330
492
100
AcDbEntity
  8
1
  6
CONTINUOUS
 62
     4
100
AcDbLine
 10
14.09999999999999
 20
8.049999999999997
 30
0.0
 11
14.09999999999999
 21
27.15827
 31
0.0
  0
LINE
  5
4BE
330
492
100
AcDbEntity
  8
1
  6
CONTINUOUS
 62
     4
100
AcDbLine
 10
19.09999999999999
 20
6.919469999999996
 30
0.0
 11
19.09999999999999
 21
27.15827
 31
0.0
  0
LINE
  5
4BF
330
492
100
AcDbEntity
  8
1
  6
CONTINUOUS
 62
     4
100
AcDbLine
 10
-65.4
 20
0.0
 30
0.0
 11
-65.4
 21
11.8226
 31
0.0
  0
LINE
  5
4C0
330
492
100
AcDbEntity
  8
1
  6
CONTINUOUS
 62
     4
100
AcDbLine
 10
2.599999999999994
 20
-31.48846999999999
 30
0.0
 11
11.59993
 21
-31.48846999999999
 31
0.0
  0
LINE
  5
4C1
330
492
100
AcDbEntity
  8
1
  6
CONTINUOUS
 62
     4
100
AcDbLine
 10
14.09999999999999
 20
26.5
 30
0.0
 11
19.09999999999999
 21
26.5
 31
0.0
  0
LINE
  5
4C2
330
492
100
AcDbEntity
  8
1
  6
CONTINUOUS
 62
     4
100
AcDbLine
 10
21.60007
 20
31.48852999999999
 30
0.0
 11
21.60007
 21
4.570930000000004
 31
0.0
  0
LINE
  5
4C3
330
492
100
AcDbEntity
  8
1
  6
CONTINUOUS
 62
     4
100
AcDbLine
 10
0.3799999999999954
 20
21.95
 30
0.0
 11
1.599999999999994
 21
21.95
 31
0.0
  0
LINE
  5
4C4
330
492
100
AcDbEntity
  8
1
  6
CONTINUOUS
 62
     4
100
AcDbLine
 10
2.0
 20
0.0
 30
0.0
 11
2.0
 21
-30.88853
 31
0.0
  0
LINE
  5
4C5
330
492
100
AcDbEntity
  8
SK3
100
AcDbLine
 10
-63.67952999999999
 20
8.506799999999998
 30
0.0
 11
-56.15000000000001
 21
8.506799999999998
 31
0.0
  0
LINE
  5
4C6
330
492
100
AcDbEntity
  8
SK3
100
AcDbLine
 10
-63.67952999999999
 20
8.506799999999998
 30
0.0
 11
-63.67952999999999
 21
-8.506799999999998
 31
0.0
  0
LINE
  5
4C7
330
492
100
AcDbEntity
  8
SK3
100
AcDbLine
 10
-18.3586
 20
0.0
 30
0.0
 11
-22.39999999999999
 21
-7.0
 31
0.0
  0
LINE
  5
4C8
330
492
100
AcDbEntity
  8
SK3
100
AcDbLine
 10
-55.28006999999999
 20
-7.0
 30
0.0
 11
-22.39999999999999
 21
-7.0
 31
0.0
  0
LINE
  5
4C9
330
492
100
AcDbEntity
  8
SK3
100
AcDbLine
 10
-63.67967
 20
-8.506799999999998
 30
0.0
 11
-65.4
 21
-9.5
 31
0.0
  0
LINE
  5
4CA
330
492
100
AcDbEntity
  8
SK3
100
AcDbLine
 10
-63.67967
 20
-8.506799999999998
 30
0.0
 11
-56.15000000000001
 21
-8.506799999999998
 31
0.0
  0
LINE
  5
4CB
330
492
100
AcDbEntity
  8
SK3
100
AcDbLine
 10
-55.28006999999999
 20
7.0
 30
0.0
 11
-55.28006999999999
 21
-7.0
 31
0.0
  0
LINE
  5
4CC
330
492
100
AcDbEntity
  8
SK3
100
AcDbLine
 10
-22.39999999999999
 20
0.0
 30
0.0
 11
-22.39999999999999
 21
-7.0
 31
0.0
  0
LINE
  5
4CD
330
492
100
AcDbEntity
  8
SK3
100
AcDbLine
 10
-35.4
 20
0.0
 30
0.0
 11
-35.4
 21
-8.0
 31
0.0
  0
LINE
  5
4CE
330
492
100
AcDbEntity
  8
SK3
100
AcDbLine
 10
-56.15000000000001
 20
0.0
 30
0.0
 11
-56.15000000000001
 21
-8.506799999999998
 31
0.0
  0
ARC
  5
4CF
330
492
100
AcDbEntity
  8
1
  6
CONTINUOUS
 62
     4
100
AcDbCircle
 10
2.599999999999994
 20
30.88852999999999
 30
0.0
 40
0.6000000000000015
100
AcDbArc
 50
90.00000002350311
 51
180.0000000235027
  0
ARC
  5
4D0
330
492
100
AcDbEntity
  8
1
  6
CONTINUOUS
 62
     4
100
AcDbCircle
 10
26.4
 20
30.88853
 30
0.0
 40
0.5999999999999979
100
AcDbArc
 50
0.0000000235031287
 51
90.00000002350322
  0
LINE
  5
4D1
330
492
100
AcDbEntity
  8
SK3
100
AcDbLine
 10
-55.28006999999999
 20
-7.0
 30
0.0
 11
-56.15000000000001
 21
-8.506730000000001
 31
0.0
  0
LINE
  5
4D2
330
492
100
AcDbEntity
  8
1
  6
CONTINUOUS
 62
     4
100
AcDbLine
 10
11.59993
 20
-31.48846999999999
 30
0.0
 11
11.59993
 21
-8.05
 31
0.0
  0
LINE
  5
4D3
330
492
100
AcDbEntity
  8
1
  6
CONTINUOUS
 62
     4
100
AcDbLine
 10
21.60007
 20
-31.48846999999999
 30
0.0
 11
21.60007
 21
-4.570930000000004
 31
0.0
  0
ARC
  5
4D4
330
492
100
AcDbEntity
  8
1
  6
CONTINUOUS
 62
     4
100
AcDbCircle
 10
26.4
 20
-30.88853
 30
0.0
 40
0.599999999999999
100
AcDbArc
 50
270.000000023503
 51
0.0000000235031287
  0
ARC
  5
4D5
330
492
100
AcDbEntity
  8
1
  6
CONTINUOUS
 62
     4
100
AcDbCircle
 10
2.599999999999994
 20
-30.88852999999999
 30
0.0
 40
0.6000000000000015
100
AcDbArc
 50
180.0000000000003
 51
270.0
  0
ARC
  5
4D6
330
492
100
AcDbEntity
  8
1
  6
CONTINUOUS
 62
     4
100
AcDbCircle
 10
0.3799447920405896
 20
-22.34998201534535
 30
0.0
 40
0.3999872532314359
100
AcDbArc
 50
89.99295415898592
 51
161.7908437522229
  0
ARC
  5
4D7
330
492
100
AcDbEntity
  8
1
  6
CONTINUOUS
 62
     4
100
AcDbCircle
 10
1.599999999999994
 20
-22.35
 30
0.0
 40
0.3999999999999986
100
AcDbArc
 50
0.0
 51
90.0
  0
ARC
  5
4D8
330
492
100
AcDbEntity
  8
1
  6
CONTINUOUS
 62
     4
100
AcDbCircle
 10
0.3799447920405896
 20
22.34998201534535
 30
0.0
 40
0.3999872532314359
100
AcDbArc
 50
198.2091562712802
 51
270.0070458645171
  0
ARC
  5
4D9
330
492
100
AcDbEntity
  8
1
  6
CONTINUOUS
 62
     4
100
AcDbCircle
 10
1.599999999999994
 20
22.35
 30
0.0
 40
0.3999999999999986
100
AcDbArc
 50
270.0000000235031
 51
0.0000000235031287
  0
LINE
  5
4DA
330
492
100
AcDbEntity
  8
SK4
100
AcDbLine
 10
-68.08759999999999
 20
0.0
 30
0.0
 11
-15.0
 21
0.0
 31
0.0
  0
LINE
  5
4DB
330
492
100
AcDbEntity
  8
SK3
100
AcDbLine
 10
-55.85746999999999
 20
-8.0
 30
0.0
 11
-35.4
 21
-8.0
 31
0.0
  0
LINE
  5
4DC
330
492
100
AcDbEntity
  8
SK3
100
AcDbLine
 10
-55.85746999999999
 20
8.0
 30
0.0
 11
-35.4
 21
8.0
 31
0.0
  0
ENDBLK
  5
4DE
330
492
100
AcDbEntity
  8
0
100
AcDbBlockEnd
  0
BLOCK
  5
535
330
52B
100
AcDbEntity
  8
0
100
AcDbBlockBegin
  2
*D12
 70
     1
 10
0.0
 20
0.0
 30
0.0
  3
*D12
  1

  0
LINE
  5
596
330
52B
100
AcDbEntity
  8
SK2
 62
     0
100
AcDbLine
 10
0.0
 20
22.225
 30
0.0
 11
0.0000000000000026
 21
65.0
 31
0.0
  0
LINE
  5
597
330
52B
100
AcDbEntity
  8
SK2
 62
     0
100
AcDbLine
 10
27.0
 20
30.88853
 30
0.0
 11
27.0
 21
65.0
 31
0.0
  0
LINE
  5
598
330
52B
100
AcDbEntity
  8
SK2
 62
     0
100
AcDbLine
 10
4.570000000000002
 20
60.0
 30
0.0
 11
22.43
 21
60.0
 31
0.0
  0
SOLID
  5
599
330
52B
100
AcDbEntity
  8
SK2
 62
     0
100
AcDbTrace
 10
4.570000000000002
 20
60.76166666666667
 30
0.0
 11
4.570000000000002
 21
59.23833333333333
 31
0.0
 12
0.0000000000000023
 22
60.0
 32
0.0
 13
0.0000000000000023
 23
60.0
 33
0.0
  0
SOLID
  5
59A
330
52B
100
AcDbEntity
  8
SK2
 62
     0
100
AcDbTrace
 10
22.43
 20
60.76166666666667
 30
0.0
 11
22.43
 21
59.23833333333333
 31
0.0
 12
27.0
 22
60.0
 32
0.0
 13
27.0
 23
60.0
 33
0.0
  0
MTEXT
  5
59B
330
52B
100
AcDbEntity
  8
SK2
 62
     0
100
AcDbMText
 10
13.5
 20
64.58499999999999
 30
0.0
 40
4.57
 41
0.0
 71
     5
 72
     1
  1
\A1;27
  7
SIMPLEX
1001
ACAD
1000
MTEXTBEGIN
1070
    73
1070
     1
1070
    44
1040
1.0
1070
    74
1070
     0
1000
MTEXTEND
  0
POINT
  5
59C
330
52B
100
AcDbEntity
  8
DEFPOINTS
 62
     0
100
AcDbPoint
 10
0.0
 20
22.225
 30
0.0
  0
POINT
  5
59D
330
52B
100
AcDbEntity
  8
DEFPOINTS
 62
     0
100
AcDbPoint
 10
27.0
 20
30.88853
 30
0.0
  0
POINT
  5
59E
330
52B
100
AcDbEntity
  8
DEFPOINTS
 62
     0
100
AcDbPoint
 10
27.0
 20
60.0
 30
0.0
  0
ENDBLK
  5
536
330
52B
100
AcDbEntity
  8
0
100
AcDbBlockEnd
  0
BLOCK
  5
541
330
537
100
AcDbEntity
  8
0
100
AcDbBlockBegin
  2
*D13
 70
     1
 10
0.0
 20
0.0
 30
0.0
  3
*D13
  1

  0
LINE
  5
571
330
537
100
AcDbEntity
  8
SK2
 62
     0
100
AcDbLine
 10
-65.4
 20
11.82259999958979
 30
0.0
 11
-65.4
 21
80.00000000000001
 31
0.0
  0
LINE
  5
572
330
537
100
AcDbEntity
  8
SK2
 62
     0
100
AcDbLine
 10
0.0
 20
22.225
 30
0.0
 11
0.0000000000000035
 21
80.0
 31
0.0
  0
LINE
  5
573
330
537
100
AcDbEntity
  8
SK2
 62
     0
100
AcDbLine
 10
-60.83000000000001
 20
75.0
 30
0.0
 11
-4.569999999999996
 21
75.0
 31
0.0
  0
SOLID
  5
574
330
537
100
AcDbEntity
  8
SK2
 62
     0
100
AcDbTrace
 10
-60.83000000000001
 20
75.76166666666667
 30
0.0
 11
-60.83000000000001
 21
74.23833333333333
 31
0.0
 12
-65.4
 22
75.0
 32
0.0
 13
-65.4
 23
75.0
 33
0.0
  0
SOLID
  5
575
330
537
100
AcDbEntity
  8
SK2
 62
     0
100
AcDbTrace
 10
-4.569999999999996
 20
75.76166666666667
 30
0.0
 11
-4.569999999999996
 21
74.23833333333333
 31
0.0
 12
0.0000000000000032
 22
75.0
 32
0.0
 13
0.0000000000000032
 23
75.0
 33
0.0
  0
MTEXT
  5
576
330
537
100
AcDbEntity
  8
SK2
 62
     0
100
AcDbMText
 10
-32.7
 20
79.58499999999999
 30
0.0
 40
4.57
 41
0.0
 71
     5
 72
     1
  1
\A1;65.4
  7
SIMPLEX
1001
ACAD
1000
MTEXTBEGIN
1070
    73
1070
     1
1070
    44
1040
1.0
1070
    74
1070
     0
1000
MTEXTEND
  0
POINT
  5
577
330
537
100
AcDbEntity
  8
DEFPOINTS
 62
     0
100
AcDbPoint
 10
-65.4
 20
11.82259999958979
 30
0.0
  0
POINT
  5
578
330
537
100
AcDbEntity
  8
DEFPOINTS
 62
     0
100
AcDbPoint
 10
0.0
 20
22.225
 30
0.0
  0
POINT
  5
579
330
537
100
AcDbEntity
  8
DEFPOINTS
 62
     0
100
AcDbPoint
 10
0.0000000000000032
 20
75.0
 30
0.0
  0
ENDBLK
  5
542
330
537
100
AcDbEntity
  8
0
100
AcDbBlockEnd
  0
BLOCK
  5
54D
330
543
100
AcDbEntity
  8
0
100
AcDbBlockBegin
  2
*D14
 70
     1
 10
0.0
 20
0.0
 30
0.0
  3
*D14
  1

  0
LINE
  5
57A
330
543
100
AcDbEntity
  8
SK2
 62
     0
100
AcDbLine
 10
0.0
 20
22.225
 30
0.0
 11
-9.999999999999989
 21
22.225
 31
0.0
  0
LINE
  5
57B
330
543
100
AcDbEntity
  8
SK2
 62
     0
100
AcDbLine
 10
0.0
 20
-22.225
 30
0.0
 11
-10.0
 21
-22.22499999999999
 31
0.0
  0
LINE
  5
57C
330
543
100
AcDbEntity
  8
SK2
 62
     0
100
AcDbLine
 10
-4.999999999999991
 20
17.655
 30
0.0
 11
-4.999999999999998
 21
-17.655
 31
0.0
  0
SOLID
  5
57D
330
543
100
AcDbEntity
  8
SK2
 62
     0
100
AcDbTrace
 10
-5.761666666666657
 20
17.655
 30
0.0
 11
-4.238333333333324
 21
17.655
 31
0.0
 12
-4.999999999999989
 22
22.225
 32
0.0
 13
-4.999999999999989
 23
22.225
 33
0.0
  0
SOLID
  5
57E
330
543
100
AcDbEntity
  8
SK2
 62
     0
100
AcDbTrace
 10
-5.761666666666664
 20
-17.655
 30
0.0
 11
-4.238333333333331
 21
-17.655
 31
0.0
 12
-5.0
 22
-22.225
 32
0.0
 13
-5.0
 23
-22.225
 33
0.0
  0
MTEXT
  5
57F
330
543
100
AcDbEntity
  8
SK2
 62
     0
100
AcDbMText
 10
-9.584999999999995
 20
0.0000000000000009
 30
0.0
 40
4.57
 41
0.0
 71
     5
 72
     1
  1
\A1;%%C44.45
  7
SIMPLEX
 11
0.0000000000000001
 21
1.0
 31
0.0
1001
ACAD
1000
MTEXTBEGIN
1070
    73
1070
     1
1070
    44
1040
1.0
1070
    74
1070
     0
1000
MTEXTEND
  0
POINT
  5
580
330
543
100
AcDbEntity
  8
DEFPOINTS
 62
     0
100
AcDbPoint
 10
0.0
 20
22.225
 30
0.0
  0
POINT
  5
581
330
543
100
AcDbEntity
  8
DEFPOINTS
 62
     0
100
AcDbPoint
 10
0.0
 20
-22.225
 30
0.0
  0
POINT
  5
582
330
543
100
AcDbEntity
  8
DEFPOINTS
 62
     0
100
AcDbPoint
 10
-5.0
 20
-22.225
 30
0.0
  0
ENDBLK
  5
54E
330
543
100
AcDbEntity
  8
0
100
AcDbBlockEnd
  0
BLOCK
  5
559
330
54F
100
AcDbEntity
  8
0
100
AcDbBlockBegin
  2
*D15
 70
     1
 10
0.0
 20
0.0
 30
0.0
  3
*D15
  1

  0
LINE
  5
583
330
54F
100
AcDbEntity
  8
SK2
 62
     0
100
AcDbLine
 10
2.599999999999994
 20
-31.48846999999999
 30
0.0
 11
-100.0
 21
-31.48846999999997
 31
0.0
  0
LINE
  5
584
330
54F
100
AcDbEntity
  8
SK2
 62
     0
100
AcDbLine
 10
2.599999999999994
 20
31.48852999999999
 30
0.0
 11
-100.0
 21
31.48853000000002
 31
0.0
  0
LINE
  5
585
330
54F
100
AcDbEntity
  8
SK2
 62
     0
100
AcDbLine
 10
-95.0
 20
-26.91846999999997
 30
0.0
 11
-95.0
 21
26.91853000000002
 31
0.0
  0
SOLID
  5
586
330
54F
100
AcDbEntity
  8
SK2
 62
     0
100
AcDbTrace
 10
-95.76166666666667
 20
-26.91846999999997
 30
0.0
 11
-94.23833333333332
 21
-26.91846999999997
 31
0.0
 12
-95.0
 22
-31.48846999999997
 32
0.0
 13
-95.0
 23
-31.48846999999997
 33
0.0
  0
SOLID
  5
587
330
54F
100
AcDbEntity
  8
SK2
 62
     0
100
AcDbTrace
 10
-95.76166666666667
 20
26.91853000000002
 30
0.0
 11
-94.23833333333332
 21
26.91853000000002
 31
0.0
 12
-95.0
 22
31.48853000000002
 32
0.0
 13
-95.0
 23
31.48853000000002
 33
0.0
  0
MTEXT
  5
588
330
54F
100
AcDbEntity
  8
SK2
 62
     0
100
AcDbMText
 10
-99.585
 20
0.0000300000000123
 30
0.0
 40
4.57
 41
0.0
 71
     5
 72
     1
  1
\A1;%%C62.98
  7
SIMPLEX
 11
0.0000000000000001
 21
1.0
 31
0.0
1001
ACAD
1000
MTEXTBEGIN
1070
    73
1070
     1
1070
    44
1040
1.0
1070
    74
1070
     0
1000
MTEXTEND
  0
POINT
  5
589
330
54F
100
AcDbEntity
  8
DEFPOINTS
 62
     0
100
AcDbPoint
 10
2.599999999999994
 20
-31.48846999999999
 30
0.0
  0
POINT
  5
58A
330
54F
100
AcDbEntity
  8
DEFPOINTS
 62
     0
100
AcDbPoint
 10
2.599999999999994
 20
31.48852999999999
 30
0.0
  0
POINT
  5
58B
330
54F
100
AcDbEntity
  8
DEFPOINTS
 62
     0
100
AcDbPoint
 10
-95.0
 20
31.48853000000002
 30
0.0
  0
ENDBLK
  5
55A
330
54F
100
AcDbEntity
  8
0
100
AcDbBlockEnd
  0
BLOCK
  5
566
330
55B
100
AcDbEntity
  8
0
100
AcDbBlockBegin
  2
*D16
 70
     1
 10
0.0
 20
0.0
 30
0.0
  3
*D16
  1

  0
LINE
  5
58C
330
55B
100
AcDbEntity
  8
SK2
 62
     0
100
AcDbLine
 10
-55.85746999999999
 20
8.0
 30
0.0
 11
-85.0
 21
8.000000000000008
 31
0.0
  0
LINE
  5
58D
330
55B
100
AcDbEntity
  8
SK2
 62
     0
100
AcDbLine
 10
-55.85746999999999
 20
-8.0
 30
0.0
 11
-85.0
 21
-7.999999999999992
 31
0.0
  0
LINE
  5
58E
330
55B
100
AcDbEntity
  8
SK2
 62
     0
100
AcDbLine
 10
-80.0
 20
3.430000000000006
 30
0.0
 11
-80.0
 21
-3.429999999999992
 31
0.0
  0
LINE
  5
58F
330
55B
100
AcDbEntity
  8
SK2
 62
     0
100
AcDbLine
 10
-80.0
 20
-7.999999999999992
 30
0.0
 11
-80.0
 21
-28.70380952380951
 31
0.0
  0
SOLID
  5
590
330
55B
100
AcDbEntity
  8
SK2
 62
     0
100
AcDbTrace
 10
-80.76166666666667
 20
3.430000000000006
 30
0.0
 11
-79.23833333333333
 21
3.430000000000006
 31
0.0
 12
-80.0
 22
8.000000000000007
 32
0.0
 13
-80.0
 23
8.000000000000007
 33
0.0
  0
SOLID
  5
591
330
55B
100
AcDbEntity
  8
SK2
 62
     0
100
AcDbTrace
 10
-80.76166666666667
 20
-3.429999999999992
 30
0.0
 11
-79.23833333333333
 21
-3.429999999999992
 31
0.0
 12
-80.0
 22
-7.999999999999992
 32
0.0
 13
-80.0
 23
-7.999999999999992
 33
0.0
  0
MTEXT
  5
592
330
55B
100
AcDbEntity
  8
SK2
 62
     0
100
AcDbMText
 10
-84.58499999999999
 20
-20.63690476190477
 30
0.0
 40
4.57
 41
0.0
 71
     5
 72
     1
  1
\A1;M16
  7
SIMPLEX
 11
0.0000000000000001
 21
1.0
 31
0.0
1001
ACAD
1000
MTEXTBEGIN
1070
    73
1070
     1
1070
    44
1040
1.0
1070
    74
1070
     0
1000
MTEXTEND
  0
POINT
  5
593
330
55B
100
AcDbEntity
  8
DEFPOINTS
 62
     0
100
AcDbPoint
 10
-55.85746999999999
 20
8.0
 30
0.0
  0
POINT
  5
594
330
55B
100
AcDbEntity
  8
DEFPOINTS
 62
     0
100
AcDbPoint
 10
-55.85746999999999
 20
-8.0
 30
0.0
  0
POINT
  5
595
330
55B
100
AcDbEntity
  8
DEFPOINTS
 62
     0
100
AcDbPoint
 10
-80.0
 20
-7.999999999999992
 30
0.0
  0
ENDBLK
  5
567
330
55B
100
AcDbEntity
  8
0
100
AcDbBlockEnd
  0
ENDSEC
  0
SECTION
  2
ENTITIES
  0
LINE
  5
38F
330
18
100
AcDbEntity
  8
SK1
100
AcDbLine
 10
73.0
 20
-11.0
 30
0.0
 11
55.0
 21
-11.0
 31
0.0
  0
ARC
  5
391
330
18
100
AcDbEntity
  8
1
100
AcDbCircle
 10
30.99999999999985
 20
-23.99999999999999
 30
0.0
 40
4.0
100
AcDbArc
 50
89.99999200000001
 51
179.999985
  0
LINE
  5
392
330
18
100
AcDbEntity
  8
1
100
AcDbLine
 10
42.0
 20
-19.99999999999999
 30
0.0
 11
30.99999999999985
 21
-19.99999999999999
 31
0.0
  0
ARC
  5
393
330
18
100
AcDbEntity
  8
1
100
AcDbCircle
 10
42.0
 20
-18.99999999999999
 30
0.0
 40
1.0
100
AcDbArc
 50
270.0
 51
0.0
  0
LINE
  5
397
330
18
100
AcDbEntity
  8
SK1
100
AcDbLine
 10
73.0
 20
11.0
 30
0.0
 11
55.0
 21
11.0
 31
0.0
  0
LINE
  5
39B
330
18
100
AcDbEntity
  8
SK1
100
AcDbLine
 10
73.0
 20
10.85
 30
0.0
 11
73.0
 21
-11.0
 31
0.0
  0
POINT
  5
3A0
330
18
100
AcDbEntity
  8
1__1
 62
     7
100
AcDbPoint
 10
71.43600000000001
 20
48.425
 30
0.0
  0
ARC
  5
3A1
330
18
100
AcDbEntity
  8
1
100
AcDbCircle
 10
42.0
 20
19.0
 30
0.0
 40
1.0
100
AcDbArc
 50
0.000008
 51
90.0
  0
ARC
  5
3A2
330
18
100
AcDbEntity
  8
1
100
AcDbCircle
 10
30.99999999999985
 20
24.0
 30
0.0
 40
4.0
100
AcDbArc
 50
180.000015
 51
270.0
  0
LINE
  5
3A3
330
18
100
AcDbEntity
  8
1
100
AcDbLine
 10
42.0
 20
20.0
 30
0.0
 11
30.99999999999985
 21
20.0
 31
0.0
  0
LINE
  5
3A4
330
18
100
AcDbEntity
  8
SK1
100
AcDbLine
 10
74.0
 20
0.0
 30
0.0
 11
74.0
 21
-7.0
 31
0.0
  0
POINT
  5
3A5
330
18
100
AcDbEntity
  8
1__1
 62
     7
100
AcDbPoint
 10
130.936
 20
48.425
 30
0.0
  0
LINE
  5
3A6
330
18
100
AcDbEntity
  8
SK3
100
AcDbLine
 10
50.0
 20
-3.0
 30
0.0
 11
69.0
 21
-3.0
 31
0.0
  0
LINE
  5
3A7
330
18
100
AcDbEntity
  8
SK3
100
AcDbLine
 10
50.0
 20
3.0
 30
0.0
 11
69.0
 21
3.0
 31
0.0
  0
ARC
  5
3A8
330
18
100
AcDbEntity
  8
SK3
100
AcDbCircle
 10
50.0
 20
0.0
 30
0.0
 40
3.0
100
AcDbArc
 50
90.0
 51
269.999969
  0
ARC
  5
3A9
330
18
100
AcDbEntity
  8
SK3
100
AcDbCircle
 10
69.0
 20
0.0
 30
0.0
 40
3.0
100
AcDbArc
 50
270.0
 51
89.999962
  0
LINE
  5
3AA
330
18
100
AcDbEntity
  8
SK4
100
AcDbLine
 10
50.0
 20
-6.0
 30
0.0
 11
50.0
 21
6.0
 31
0.0
  0
LINE
  5
3AB
330
18
100
AcDbEntity
  8
SK4
100
AcDbLine
 10
69.0
 20
-6.0
 30
0.0
 11
69.0
 21
6.0
 31
0.0
  0
POINT
  5
3AC
330
18
100
AcDbEntity
  8
1__1
 62
     7
100
AcDbPoint
 10
71.43600000000001
 20
48.425
 30
0.0
  0
LINE
  5
3B3
330
18
100
AcDbEntity
  8
4
100
AcDbLine
 10
-65.4
 20
0.0000000000000001
 30
0.0
 11
60.59999999999999
 21
0.0000000000000036
 31
0.0
  0
LINE
  5
3B4
330
18
100
AcDbEntity
  8
1
100
AcDbLine
 10
60.0
 20
5.0
 30
0.0
 11
60.0
 21
-5.0
 31
0.0
  0
LINE
  5
3B5
330
18
100
AcDbEntity
  8
1
100
AcDbLine
 10
55.0
 20
5.0
 30
0.0
 11
60.0
 21
5.0
 31
0.0
  0
LINE
  5
3B6
330
18
100
AcDbEntity
  8
1
100
AcDbLine
 10
60.0
 20
5.0
 30
0.0
 11
60.59999999999999
 21
4.400000000000005
 31
0.0
  0
LINE
  5
3B7
330
18
100
AcDbEntity
  8
1
100
AcDbLine
 10
60.59999999999999
 20
4.400000000000005
 30
0.0
 11
60.59999999999999
 21
-4.399999999999998
 31
0.0
  0
LINE
  5
3B8
330
18
100
AcDbEntity
  8
1
100
AcDbLine
 10
60.59999999999999
 20
-4.399999999999998
 30
0.0
 11
60.0
 21
-5.0
 31
0.0
  0
LINE
  5
3B9
330
18
100
AcDbEntity
  8
1
100
AcDbLine
 10
60.0
 20
-5.0
 30
0.0
 11
55.0
 21
-5.0
 31
0.0
  0
LINE
  5
3BA
330
18
100
AcDbEntity
  8
1
100
AcDbLine
 10
55.0
 20
-5.0
 30
0.0
 11
55.0
 21
-19.99999999999999
 31
0.0
  0
LINE
  5
3BB
330
18
100
AcDbEntity
  8
1
100
AcDbLine
 10
55.0
 20
-19.99999999999999
 30
0.0
 11
43.0
 21
-19.99999999999999
 31
0.0
  0
LINE
  5
3BC
330
18
100
AcDbEntity
  8
1
100
AcDbLine
 10
43.0
 20
-19.99999999999999
 30
0.0
 11
43.0
 21
20.0
 31
0.0
  0
LINE
  5
3BD
330
18
100
AcDbEntity
  8
1
100
AcDbLine
 10
43.0
 20
20.0
 30
0.0
 11
55.0
 21
20.0
 31
0.0
  0
LINE
  5
3BE
330
18
100
AcDbEntity
  8
1
100
AcDbLine
 10
55.0
 20
20.0
 30
0.0
 11
55.0
 21
5.0
 31
0.0
  0
LINE
  5
3D7
330
18
100
AcDbEntity
  8
SK1
100
AcDbLine
 10
74.0
 20
0.0
 30
0.0
 11
74.0
 21
10.0
 31
0.0
  0
LINE
  5
3D8
330
18
100
AcDbEntity
  8
SK1
100
AcDbLine
 10
74.0
 20
10.0
 30
0.0
 11
73.0
 21
11.0
 31
0.0
  0
LINE
  5
3D9
330
18
100
AcDbEntity
  8
1
100
AcDbLine
 10
43.0
 20
5.050000000000004
 30
0.0
 11
43.0
 21
19.0
 31
0.0
  0
LINE
  5
3DA
330
18
100
AcDbEntity
  8
1
100
AcDbLine
 10
43.0
 20
-18.99999999999999
 30
0.0
 11
43.0
 21
-5.049999999999997
 31
0.0
  0
LINE
  5
3E8
330
18
100
AcDbEntity
  8
SK1
100
AcDbLine
 10
74.0
 20
-7.0
 30
0.0
 11
74.0
 21
-10.0
 31
0.0
  0
LINE
  5
3E9
330
18
100
AcDbEntity
  8
SK1
100
AcDbLine
 10
74.0
 20
-10.0
 30
0.0
 11
73.0
 21
-11.0
 31
0.0
  0
LINE
  5
3EA
330
18
100
AcDbEntity
  8
SK2
100
AcDbLine
 10
74.0
 20
0.0
 30
0.0
 11
89.62999999999999
 21
-27.553
 31
0.0
  0
TEXT
  5
3EB
330
18
100
AcDbEntity
  8
SK2
100
AcDbText
 10
88.01299999999997
 20
-33.239
 30
0.0
 40
3.499151999999999
  1
M10
 41
0.8890459999999999
100
AcDbText
  0
LINE
  5
3EC
330
18
100
AcDbEntity
  8
SK4
100
AcDbLine
 10
-68.40150409795978
 20
0.0
 30
0.0
 11
76.238
 21
0.0
 31
0.0
  0
LINE
  5
3EE
330
18
100
AcDbEntity
  8
SK2
100
AcDbLine
 10
73.0
 20
11.0
 30
0.0
 11
90.0
 21
10.99999999999999
 31
0.0
  0
LINE
  5
3EF
330
18
100
AcDbEntity
  8
SK2
100
AcDbLine
 10
73.0
 20
-11.0
 30
0.0
 11
90.0
 21
-11.0
 31
0.0
  0
LINE
  5
3F0
330
18
100
AcDbEntity
  8
SK2
100
AcDbLine
 10
85.0
 20
6.429999999999997
 30
0.0
 11
85.0
 21
-6.430000000000002
 31
0.0
  0
SOLID
  5
3F1
330
18
100
AcDbEntity
  8
SK2
100
AcDbTrace
 10
84.23833333333332
 20
6.429999999999997
 30
0.0
 11
85.76166666666667
 21
6.429999999999997
 31
0.0
 12
85.0
 22
10.99999999999999
 32
0.0
 13
85.0
 23
10.99999999999999
 33
0.0
  0
SOLID
  5
3F2
330
18
100
AcDbEntity
  8
SK2
100
AcDbTrace
 10
84.23833333333332
 20
-6.430000000000002
 30
0.0
 11
85.76166666666667
 21
-6.430000000000002
 31
0.0
 12
85.0
 22
-11.0
 32
0.0
 13
85.0
 23
-11.0
 33
0.0
  0
LINE
  5
3F4
330
18
100
AcDbEntity
  8
SK2
100
AcDbLine
 10
55.0
 20
20.0
 30
0.0
 11
105.0
 21
19.99999999999998
 31
0.0
  0
LINE
  5
3F5
330
18
100
AcDbEntity
  8
SK2
100
AcDbLine
 10
55.0
 20
-19.99999999999999
 30
0.0
 11
105.0
 21
-20.00000000000001
 31
0.0
  0
LINE
  5
3F6
330
18
100
AcDbEntity
  8
SK2
100
AcDbLine
 10
100.0
 20
15.42999999999998
 30
0.0
 11
100.0
 21
-15.43000000000001
 31
0.0
  0
SOLID
  5
3F7
330
18
100
AcDbEntity
  8
SK2
100
AcDbTrace
 10
99.23833333333334
 20
15.42999999999998
 30
0.0
 11
100.7616666666666
 21
15.42999999999998
 31
0.0
 12
100.0
 22
19.99999999999998
 32
0.0
 13
100.0
 23
19.99999999999998
 33
0.0
  0
SOLID
  5
3F8
330
18
100
AcDbEntity
  8
SK2
100
AcDbTrace
 10
99.23833333333334
 20
-15.43000000000001
 30
0.0
 11
100.7616666666666
 21
-15.43000000000001
 31
0.0
 12
100.0
 22
-20.00000000000001
 32
0.0
 13
100.0
 23
-20.00000000000001
 33
0.0
  0
LINE
  5
3FD
330
18
100
AcDbEntity
  8
SK2
100
AcDbLine
 10
0.0
 20
22.225
 30
0.0
 11
0.0000000000000035
 21
80.0
 31
0.0
  0
TEXT
  5
4E7
330
18
100
AcDbEntity
  8
6
100
AcDbText
 10
-46.0
 20
10.0
 30
0.0
 40
3.0
  1
SK40 MAS-BT
  7
SIMPLEX
100
AcDbText
  0
ARC
  5
4E8
330
18
100
AcDbEntity
  8
1
  6
CONTINUOUS
 62
     4
100
AcDbCircle
 10
15.0
 20
-0.0500000000000008
 30
0.0
 40
8.0
100
AcDbArc
 50
270.0
 51
0.0000000000000057
  0
LINE
  5
4E9
330
18
100
AcDbEntity
  8
1
  6
CONTINUOUS
 62
     4
100
AcDbLine
 10
14.09999999999999
 20
-27.1582
 30
0.0
 11
11.59993
 21
-31.48846999999999
 31
0.0
  0
LINE
  5
4EA
330
18
100
AcDbEntity
  8
1
  6
CONTINUOUS
 62
     4
100
AcDbLine
 10
19.09999999999999
 20
-27.1582
 30
0.0
 11
21.60007
 21
-31.48846999999999
 31
0.0
  0
LINE
  5
4EB
330
18
100
AcDbEntity
  8
1
  6
CONTINUOUS
 62
     4
100
AcDbLine
 10
23.0
 20
0.0
 30
0.0
 11
23.0
 21
-0.0499999999999972
 31
0.0
  0
LINE
  5
4EC
330
18
100
AcDbEntity
  8
1
  6
CONTINUOUS
 62
     4
100
AcDbLine
 10
21.60007
 20
-31.48846999999999
 30
0.0
 11
26.4
 21
-31.48846999999999
 31
0.0
  0
LINE
  5
4ED
330
18
100
AcDbEntity
  8
1
  6
CONTINUOUS
 62
     4
100
AcDbLine
 10
14.09999999999999
 20
-26.5
 30
0.0
 11
19.09999999999999
 21
-26.5
 31
0.0
  0
LINE
  5
4EE
330
18
100
AcDbEntity
  8
1
  6
CONTINUOUS
 62
     4
100
AcDbLine
 10
2.0
 20
-8.05
 30
0.0
 11
15.0
 21
-8.05
 31
0.0
  0
LINE
  5
4EF
330
18
100
AcDbEntity
  8
1
  6
CONTINUOUS
 62
     4
100
AcDbLine
 10
27.0
 20
0.0
 30
0.0
 11
27.0
 21
-30.88853
 31
0.0
  0
LINE
  5
4F0
330
18
100
AcDbEntity
  8
1
  6
CONTINUOUS
 62
     4
100
AcDbLine
 10
-64.54433
 20
-12.81213
 30
0.0
 11
0.0
 21
-22.225
 31
0.0
  0
LINE
  5
4F1
330
18
100
AcDbEntity
  8
1
  6
CONTINUOUS
 62
     4
100
AcDbLine
 10
0.3799999999999954
 20
-21.94999999999999
 30
0.0
 11
1.599999999999994
 21
-21.94999999999999
 31
0.0
  0
ARC
  5
4F2
330
18
100
AcDbEntity
  8
1
  6
CONTINUOUS
 62
     4
100
AcDbCircle
 10
-64.39999980755004
 20
-11.8226002225565
 30
0.0
 40
1.000000192449984
100
AcDbArc
 50
179.9999872484539
 51
261.7015075593027
  0
LINE
  5
4F3
330
18
100
AcDbEntity
  8
1
  6
CONTINUOUS
 62
     4
100
AcDbLine
 10
0.0
 20
0.0
 30
0.0
 11
0.0
 21
-22.225
 31
0.0
  0
LINE
  5
4F4
330
18
100
AcDbEntity
  8
1
  6
CONTINUOUS
 62
     4
100
AcDbLine
 10
-65.4
 20
0.0
 30
0.0
 11
-65.4
 21
-11.8226
 31
0.0
  0
LINE
  5
4F5
330
18
100
AcDbEntity
  8
SK3
100
AcDbLine
 10
-18.3586
 20
0.0
 30
0.0
 11
-22.39999999999999
 21
7.0
 31
0.0
  0
ARC
  5
4F6
330
18
100
AcDbEntity
  8
1
  6
CONTINUOUS
 62
     4
100
AcDbCircle
 10
15.0
 20
0.0500000000000004
 30
0.0
 40
8.0
100
AcDbArc
 50
0.0000000235031032
 51
90.0000000235031
  0
LINE
  5
4F7
330
18
100
AcDbEntity
  8
1
  6
CONTINUOUS
 62
     4
100
AcDbLine
 10
-64.54433
 20
12.81212999999999
 30
0.0
 11
0.0
 21
22.225
 31
0.0
  0
LINE
  5
4F8
330
18
100
AcDbEntity
  8
SK3
100
AcDbLine
 10
-55.28006999999999
 20
7.0
 30
0.0
 11
-22.39999999999999
 21
7.0
 31
0.0
  0
LINE
  5
4F9
330
18
100
AcDbEntity
  8
SK3
100
AcDbLine
 10
-63.67952999999999
 20
8.506799999999998
 30
0.0
 11
-65.4
 21
9.5
 31
0.0
  0
LINE
  5
4FA
330
18
100
AcDbEntity
  8
SK3
100
AcDbLine
 10
-22.39999999999999
 20
0.0
 30
0.0
 11
-22.39999999999999
 21
7.0
 31
0.0
  0
LINE
  5
4FB
330
18
100
AcDbEntity
  8
SK3
100
AcDbLine
 10
-35.4
 20
0.0
 30
0.0
 11
-35.4
 21
8.0
 31
0.0
  0
LINE
  5
4FC
330
18
100
AcDbEntity
  8
SK3
100
AcDbLine
 10
-56.15000000000001
 20
0.0
 30
0.0
 11
-56.15000000000001
 21
8.506799999999998
 31
0.0
  0
LINE
  5
4FD
330
18
100
AcDbEntity
  8
SK3
100
AcDbLine
 10
-55.28006999999999
 20
7.0
 30
0.0
 11
-56.15000000000001
 21
8.506730000000004
 31
0.0
  0
LINE
  5
4FE
330
18
100
AcDbEntity
  8
1
  6
CONTINUOUS
 62
     4
100
AcDbLine
 10
11.59993
 20
31.48852999999999
 30
0.0
 11
11.59993
 21
8.049999999999997
 31
0.0
  0
LINE
  5
4FF
330
18
100
AcDbEntity
  8
1
  6
CONTINUOUS
 62
     4
100
AcDbLine
 10
14.09999999999999
 20
27.15827
 30
0.0
 11
11.59993
 21
31.48852999999999
 31
0.0
  0
LINE
  5
500
330
18
100
AcDbEntity
  8
1
  6
CONTINUOUS
 62
     4
100
AcDbLine
 10
19.09999999999999
 20
27.15827
 30
0.0
 11
21.60007
 21
31.48852999999999
 31
0.0
  0
LINE
  5
501
330
18
100
AcDbEntity
  8
1
  6
CONTINUOUS
 62
     4
100
AcDbLine
 10
23.0
 20
0.0
 30
0.0
 11
23.0
 21
0.0499999999999972
 31
0.0
  0
LINE
  5
502
330
18
100
AcDbEntity
  8
1
  6
CONTINUOUS
 62
     4
100
AcDbLine
 10
21.60007
 20
31.48852999999999
 30
0.0
 11
26.4
 21
31.48852999999999
 31
0.0
  0
LINE
  5
503
330
18
100
AcDbEntity
  8
1
  6
CONTINUOUS
 62
     4
100
AcDbLine
 10
2.599999999999994
 20
31.48852999999999
 30
0.0
 11
11.59993
 21
31.48852999999999
 31
0.0
  0
LINE
  5
504
330
18
100
AcDbEntity
  8
1
  6
CONTINUOUS
 62
     4
100
AcDbLine
 10
2.0
 20
8.049999999999997
 30
0.0
 11
15.0
 21
8.049999999999997
 31
0.0
  0
LINE
  5
505
330
18
100
AcDbEntity
  8
1
  6
CONTINUOUS
 62
     4
100
AcDbLine
 10
27.0
 20
0.0
 30
0.0
 11
27.0
 21
30.88853
 31
0.0
  0
ARC
  5
506
330
18
100
AcDbEntity
  8
1
  6
CONTINUOUS
 62
     4
100
AcDbCircle
 10
-64.39999980755004
 20
11.8226002225565
 30
0.0
 40
1.000000192449984
100
AcDbArc
 50
98.29849246420039
 51
180.0000127750492
  0
LINE
  5
507
330
18
100
AcDbEntity
  8
1
  6
CONTINUOUS
 62
     4
100
AcDbLine
 10
2.0
 20
0.0
 30
0.0
 11
2.0
 21
30.88853
 31
0.0
  0
LINE
  5
508
330
18
100
AcDbEntity
  8
1
  6
CONTINUOUS
 62
     4
100
AcDbLine
 10
0.0
 20
0.0
 30
0.0
 11
0.0
 21
22.225
 31
0.0
  0
LINE
  5
509
330
18
100
AcDbEntity
  8
1
  6
CONTINUOUS
 62
     4
100
AcDbLine
 10
14.09999999999999
 20
-8.05
 30
0.0
 11
14.09999999999999
 21
-27.1582
 31
0.0
  0
LINE
  5
50A
330
18
100
AcDbEntity
  8
1
  6
CONTINUOUS
 62
     4
100
AcDbLine
 10
19.09999999999999
 20
-6.919469999999996
 30
0.0
 11
19.09999999999999
 21
-27.1582
 31
0.0
  0
LINE
  5
50B
330
18
100
AcDbEntity
  8
1
  6
CONTINUOUS
 62
     4
100
AcDbLine
 10
14.09999999999999
 20
8.049999999999997
 30
0.0
 11
14.09999999999999
 21
27.15827
 31
0.0
  0
LINE
  5
50C
330
18
100
AcDbEntity
  8
1
  6
CONTINUOUS
 62
     4
100
AcDbLine
 10
19.09999999999999
 20
6.919469999999996
 30
0.0
 11
19.09999999999999
 21
27.15827
 31
0.0
  0
LINE
  5
50D
330
18
100
AcDbEntity
  8
1
  6
CONTINUOUS
 62
     4
100
AcDbLine
 10
-65.4
 20
0.0
 30
0.0
 11
-65.4
 21
11.8226
 31
0.0
  0
LINE
  5
50E
330
18
100
AcDbEntity
  8
1
  6
CONTINUOUS
 62
     4
100
AcDbLine
 10
2.599999999999994
 20
-31.48846999999999
 30
0.0
 11
11.59993
 21
-31.48846999999999
 31
0.0
  0
LINE
  5
50F
330
18
100
AcDbEntity
  8
1
  6
CONTINUOUS
 62
     4
100
AcDbLine
 10
14.09999999999999
 20
26.5
 30
0.0
 11
19.09999999999999
 21
26.5
 31
0.0
  0
LINE
  5
510
330
18
100
AcDbEntity
  8
1
  6
CONTINUOUS
 62
     4
100
AcDbLine
 10
21.60007
 20
31.48852999999999
 30
0.0
 11
21.60007
 21
4.570930000000004
 31
0.0
  0
LINE
  5
511
330
18
100
AcDbEntity
  8
1
  6
CONTINUOUS
 62
     4
100
AcDbLine
 10
0.3799999999999954
 20
21.95
 30
0.0
 11
1.599999999999994
 21
21.95
 31
0.0
  0
LINE
  5
512
330
18
100
AcDbEntity
  8
1
  6
CONTINUOUS
 62
     4
100
AcDbLine
 10
2.0
 20
0.0
 30
0.0
 11
2.0
 21
-30.88853
 31
0.0
  0
LINE
  5
513
330
18
100
AcDbEntity
  8
SK3
100
AcDbLine
 10
-63.67952999999999
 20
8.506799999999998
 30
0.0
 11
-56.15000000000001
 21
8.506799999999998
 31
0.0
  0
LINE
  5
514
330
18
100
AcDbEntity
  8
SK3
100
AcDbLine
 10
-63.67952999999999
 20
8.506799999999998
 30
0.0
 11
-63.67952999999999
 21
-8.506799999999998
 31
0.0
  0
LINE
  5
515
330
18
100
AcDbEntity
  8
SK3
100
AcDbLine
 10
-18.3586
 20
0.0
 30
0.0
 11
-22.39999999999999
 21
-7.0
 31
0.0
  0
LINE
  5
516
330
18
100
AcDbEntity
  8
SK3
100
AcDbLine
 10
-55.28006999999999
 20
-7.0
 30
0.0
 11
-22.39999999999999
 21
-7.0
 31
0.0
  0
LINE
  5
517
330
18
100
AcDbEntity
  8
SK3
100
AcDbLine
 10
-63.67967
 20
-8.506799999999998
 30
0.0
 11
-65.4
 21
-9.5
 31
0.0
  0
LINE
  5
518
330
18
100
AcDbEntity
  8
SK3
100
AcDbLine
 10
-63.67967
 20
-8.506799999999998
 30
0.0
 11
-56.15000000000001
 21
-8.506799999999998
 31
0.0
  0
LINE
  5
519
330
18
100
AcDbEntity
  8
SK3
100
AcDbLine
 10
-55.28006999999999
 20
7.0
 30
0.0
 11
-55.28006999999999
 21
-7.0
 31
0.0
  0
LINE
  5
51A
330
18
100
AcDbEntity
  8
SK3
100
AcDbLine
 10
-22.39999999999999
 20
0.0
 30
0.0
 11
-22.39999999999999
 21
-7.0
 31
0.0
  0
LINE
  5
51B
330
18
100
AcDbEntity
  8
SK3
100
AcDbLine
 10
-35.4
 20
0.0
 30
0.0
 11
-35.4
 21
-8.0
 31
0.0
  0
LINE
  5
51C
330
18
100
AcDbEntity
  8
SK3
100
AcDbLine
 10
-56.15000000000001
 20
0.0
 30
0.0
 11
-56.15000000000001
 21
-8.506799999999998
 31
0.0
  0
ARC
  5
51D
330
18
100
AcDbEntity
  8
1
  6
CONTINUOUS
 62
     4
100
AcDbCircle
 10
2.599999999999994
 20
30.88852999999999
 30
0.0
 40
0.6000000000000015
100
AcDbArc
 50
90.0000000235031
 51
180.0000000235027
  0
ARC
  5
51E
330
18
100
AcDbEntity
  8
1
  6
CONTINUOUS
 62
     4
100
AcDbCircle
 10
26.4
 20
30.88853
 30
0.0
 40
0.5999999999999979
100
AcDbArc
 50
0.0000000235031287
 51
90.0000000235032
  0
LINE
  5
51F
330
18
100
AcDbEntity
  8
SK3
100
AcDbLine
 10
-55.28006999999999
 20
-7.0
 30
0.0
 11
-56.15000000000001
 21
-8.506730000000001
 31
0.0
  0
LINE
  5
520
330
18
100
AcDbEntity
  8
1
  6
CONTINUOUS
 62
     4
100
AcDbLine
 10
11.59993
 20
-31.48846999999999
 30
0.0
 11
11.59993
 21
-8.05
 31
0.0
  0
LINE
  5
521
330
18
100
AcDbEntity
  8
1
  6
CONTINUOUS
 62
     4
100
AcDbLine
 10
21.60007
 20
-31.48846999999999
 30
0.0
 11
21.60007
 21
-4.570930000000004
 31
0.0
  0
ARC
  5
522
330
18
100
AcDbEntity
  8
1
  6
CONTINUOUS
 62
     4
100
AcDbCircle
 10
26.4
 20
-30.88853
 30
0.0
 40
0.599999999999999
100
AcDbArc
 50
270.000000023503
 51
0.0000000235031287
  0
ARC
  5
523
330
18
100
AcDbEntity
  8
1
  6
CONTINUOUS
 62
     4
100
AcDbCircle
 10
2.599999999999994
 20
-30.88852999999999
 30
0.0
 40
0.6000000000000015
100
AcDbArc
 50
180.0000000000003
 51
270.0
  0
ARC
  5
524
330
18
100
AcDbEntity
  8
1
  6
CONTINUOUS
 62
     4
100
AcDbCircle
 10
0.3799447920405896
 20
-22.34998201534535
 30
0.0
 40
0.3999872532314359
100
AcDbArc
 50
89.99295415898592
 51
161.7908437522229
  0
ARC
  5
525
330
18
100
AcDbEntity
  8
1
  6
CONTINUOUS
 62
     4
100
AcDbCircle
 10
1.599999999999994
 20
-22.35
 30
0.0
 40
0.3999999999999986
100
AcDbArc
 50
0.0
 51
90.0
  0
ARC
  5
526
330
18
100
AcDbEntity
  8
1
  6
CONTINUOUS
 62
     4
100
AcDbCircle
 10
0.3799447920405896
 20
22.34998201534535
 30
0.0
 40
0.3999872532314359
100
AcDbArc
 50
198.2091562712802
 51
270.0070458645171
  0
ARC
  5
527
330
18
100
AcDbEntity
  8
1
  6
CONTINUOUS
 62
     4
100
AcDbCircle
 10
1.599999999999994
 20
22.35
 30
0.0
 40
0.3999999999999986
100
AcDbArc
 50
270.0000000235031
 51
0.0000000235031287
  0
LINE
  5
529
330
18
100
AcDbEntity
  8
SK3
100
AcDbLine
 10
-55.85746999999999
 20
-8.0
 30
0.0
 11
-35.4
 21
-8.0
 31
0.0
  0
LINE
  5
52A
330
18
100
AcDbEntity
  8
SK3
100
AcDbLine
 10
-55.85746999999999
 20
8.0
 30
0.0
 11
-35.4
 21
8.0
 31
0.0
  0
LINE
  5
59F
330
18
100
AcDbEntity
  8
SK2
100
AcDbLine
 10
2.599999999999994
 20
-31.48846999999999
 30
0.0
 11
-100.0
 21
-31.48846999999997
 31
0.0
  0
LINE
  5
5A0
330
18
100
AcDbEntity
  8
SK2
100
AcDbLine
 10
2.599999999999994
 20
31.48852999999999
 30
0.0
 11
-100.0
 21
31.48853000000002
 31
0.0
  0
LINE
  5
5A1
330
18
100
AcDbEntity
  8
SK2
100
AcDbLine
 10
-95.0
 20
-26.91846999999997
 30
0.0
 11
-95.0
 21
26.91853000000002
 31
0.0
  0
SOLID
  5
5A2
330
18
100
AcDbEntity
  8
SK2
100
AcDbTrace
 10
-95.76166666666667
 20
-26.91846999999997
 30
0.0
 11
-94.23833333333332
 21
-26.91846999999997
 31
0.0
 12
-95.0
 22
-31.48846999999997
 32
0.0
 13
-95.0
 23
-31.48846999999997
 33
0.0
  0
SOLID
  5
5A3
330
18
100
AcDbEntity
  8
SK2
100
AcDbTrace
 10
-95.76166666666667
 20
26.91853000000002
 30
0.0
 11
-94.23833333333332
 21
26.91853000000002
 31
0.0
 12
-95.0
 22
31.48853000000002
 32
0.0
 13
-95.0
 23
31.48853000000002
 33
0.0
  0
LINE
  5
5A6
330
18
100
AcDbEntity
  8
SK2
100
AcDbLine
 10
-55.85746999999999
 20
8.0
 30
0.0
 11
-85.0
 21
8.000000000000008
 31
0.0
  0
LINE
  5
5A7
330
18
100
AcDbEntity
  8
SK2
100
AcDbLine
 10
-55.85746999999999
 20
-8.0
 30
0.0
 11
-85.0
 21
-7.999999999999992
 31
0.0
  0
LINE
  5
5A8
330
18
100
AcDbEntity
  8
SK2
100
AcDbLine
 10
-80.0
 20
3.430000000000006
 30
0.0
 11
-80.0
 21
-3.429999999999992
 31
0.0
  0
LINE
  5
5A9
330
18
100
AcDbEntity
  8
SK2
100
AcDbLine
 10
-80.0
 20
-7.999999999999992
 30
0.0
 11
-80.0
 21
-28.70380952380951
 31
0.0
  0
SOLID
  5
5AA
330
18
100
AcDbEntity
  8
SK2
100
AcDbTrace
 10
-80.76166666666667
 20
3.430000000000006
 30
0.0
 11
-79.23833333333333
 21
3.430000000000006
 31
0.0
 12
-80.0
 22
8.000000000000007
 32
0.0
 13
-80.0
 23
8.000000000000007
 33
0.0
  0
SOLID
  5
5AB
330
18
100
AcDbEntity
  8
SK2
100
AcDbTrace
 10
-80.76166666666667
 20
-3.429999999999992
 30
0.0
 11
-79.23833333333333
 21
-3.429999999999992
 31
0.0
 12
-80.0
 22
-7.999999999999992
 32
0.0
 13
-80.0
 23
-7.999999999999992
 33
0.0
  0
LINE
  5
5AD
330
18
100
AcDbEntity
  8
SK2
100
AcDbLine
 10
0.0
 20
22.225
 30
0.0
 11
-9.999999999999989
 21
22.225
 31
0.0
  0
LINE
  5
5AE
330
18
100
AcDbEntity
  8
SK2
100
AcDbLine
 10
0.0
 20
-22.225
 30
0.0
 11
-10.0
 21
-22.22499999999999
 31
0.0
  0
LINE
  5
5AF
330
18
100
AcDbEntity
  8
SK2
100
AcDbLine
 10
-4.999999999999991
 20
17.655
 30
0.0
 11
-4.999999999999998
 21
-17.655
 31
0.0
  0
SOLID
  5
5B0
330
18
100
AcDbEntity
  8
SK2
100
AcDbTrace
 10
-5.761666666666657
 20
17.655
 30
0.0
 11
-4.238333333333324
 21
17.655
 31
0.0
 12
-4.999999999999989
 22
22.225
 32
0.0
 13
-4.999999999999989
 23
22.225
 33
0.0
  0
SOLID
  5
5B1
330
18
100
AcDbEntity
  8
SK2
100
AcDbTrace
 10
-5.761666666666664
 20
-17.655
 30
0.0
 11
-4.238333333333331
 21
-17.655
 31
0.0
 12
-5.0
 22
-22.225
 32
0.0
 13
-5.0
 23
-22.225
 33
0.0
  0
LINE
  5
5B3
330
18
100
AcDbEntity
  8
SK2
100
AcDbLine
 10
-65.4
 20
11.82259999958979
 30
0.0
 11
-65.4
 21
80.00000000000001
 31
0.0
  0
LINE
  5
5B4
330
18
100
AcDbEntity
  8
SK2
100
AcDbLine
 10
0.0
 20
22.225
 30
0.0
 11
0.0000000000000035
 21
80.0
 31
0.0
  0
LINE
  5
5B5
330
18
100
AcDbEntity
  8
SK2
100
AcDbLine
 10
-60.83000000000001
 20
75.0
 30
0.0
 11
-4.569999999999996
 21
75.0
 31
0.0
  0
SOLID
  5
5B6
330
18
100
AcDbEntity
  8
SK2
100
AcDbTrace
 10
-60.83000000000001
 20
75.76166666666667
 30
0.0
 11
-60.83000000000001
 21
74.23833333333333
 31
0.0
 12
-65.4
 22
75.0
 32
0.0
 13
-65.4
 23
75.0
 33
0.0
  0
SOLID
  5
5B7
330
18
100
AcDbEntity
  8
SK2
100
AcDbTrace
 10
-4.569999999999996
 20
75.76166666666667
 30
0.0
 11
-4.569999999999996
 21
74.23833333333333
 31
0.0
 12
0.0000000000000032
 22
75.0
 32
0.0
 13
0.0000000000000032
 23
75.0
 33
0.0
  0
LINE
  5
5B9
330
18
100
AcDbEntity
  8
SK2
100
AcDbLine
 10
0.0
 20
22.225
 30
0.0
 11
0.0000000000000026
 21
65.0
 31
0.0
  0
LINE
  5
5BA
330
18
100
AcDbEntity
  8
SK2
100
AcDbLine
 10
27.0
 20
30.88853
 30
0.0
 11
27.0
 21
65.0
 31
0.0
  0
LINE
  5
5BB
330
18
100
AcDbEntity
  8
SK2
100
AcDbLine
 10
4.570000000000002
 20
60.0
 30
0.0
 11
22.43
 21
60.0
 31
0.0
  0
SOLID
  5
5BC
330
18
100
AcDbEntity
  8
SK2
100
AcDbTrace
 10
4.570000000000002
 20
60.76166666666667
 30
0.0
 11
4.570000000000002
 21
59.23833333333333
 31
0.0
 12
0.0000000000000023
 22
60.0
 32
0.0
 13
0.0000000000000023
 23
60.0
 33
0.0
  0
SOLID
  5
5BD
330
18
100
AcDbEntity
  8
SK2
100
AcDbTrace
 10
22.43
 20
60.76166666666667
 30
0.0
 11
22.43
 21
59.23833333333333
 31
0.0
 12
27.0
 22
60.0
 32
0.0
 13
27.0
 23
60.0
 33
0.0
  0
LINE
  5
5BF
330
18
100
AcDbEntity
  8
SK2
100
AcDbLine
 10
43.0
 20
-19.99999999999999
 30
0.0
 11
43.0
 21
-50.0
 31
0.0
  0
LINE
  5
5C0
330
18
100
AcDbEntity
  8
SK2
100
AcDbLine
 10
74.0
 20
-10.0
 30
0.0
 11
74.0
 21
-50.0
 31
0.0
  0
LINE
  5
5C1
330
18
100
AcDbEntity
  8
SK2
100
AcDbLine
 10
47.57
 20
-45.0
 30
0.0
 11
69.43000000000001
 21
-45.0
 31
0.0
  0
SOLID
  5
5C2
330
18
100
AcDbEntity
  8
SK2
100
AcDbTrace
 10
47.57
 20
-44.23833333333333
 30
0.0
 11
47.57
 21
-45.76166666666667
 31
0.0
 12
43.0
 22
-45.0
 32
0.0
 13
43.0
 23
-45.0
 33
0.0
  0
SOLID
  5
5C3
330
18
100
AcDbEntity
  8
SK2
100
AcDbTrace
 10
69.43000000000001
 20
-44.23833333333333
 30
0.0
 11
69.43000000000001
 21
-45.76166666666667
 31
0.0
 12
74.0
 22
-45.0
 32
0.0
 13
74.0
 23
-45.0
 33
0.0
  0
LINE
  5
5C5
330
18
100
AcDbEntity
  8
SK2
100
AcDbLine
 10
55.0
 20
-19.99999999999999
 30
0.0
 11
55.0
 21
-35.0
 31
0.0
  0
LINE
  5
5C6
330
18
100
AcDbEntity
  8
SK2
100
AcDbLine
 10
74.0
 20
-10.0
 30
0.0
 11
74.0
 21
-35.0
 31
0.0
  0
LINE
  5
5C7
330
18
100
AcDbEntity
  8
SK2
100
AcDbLine
 10
59.57
 20
-30.0
 30
0.0
 11
69.43000000000001
 21
-30.0
 31
0.0
  0
SOLID
  5
5C8
330
18
100
AcDbEntity
  8
SK2
100
AcDbTrace
 10
59.57
 20
-29.23833333333333
 30
0.0
 11
59.57
 21
-30.76166666666666
 31
0.0
 12
55.0
 22
-30.0
 32
0.0
 13
55.0
 23
-30.0
 33
0.0
  0
SOLID
  5
5C9
330
18
100
AcDbEntity
  8
SK2
100
AcDbTrace
 10
69.43000000000001
 20
-29.23833333333333
 30
0.0
 11
69.43000000000001
 21
-30.76166666666666
 31
0.0
 12
74.0
 22
-30.0
 32
0.0
 13
74.0
 23
-30.0
 33
0.0
  0
LINE
  5
5CB
330
18
100
AcDbEntity
  8
2
100
AcDbLine
 10
0.0
 20
27.81399999999999
 30
0.0
 11
0.0000000000000032
 21
80.0
 31
0.0
  0
LINE
  5
5CC
330
18
100
AcDbEntity
  8
2
100
AcDbLine
 10
55.0
 20
20.0
 30
0.0
 11
55.0
 21
80.0
 31
0.0
  0
LINE
  5
5CD
330
18
100
AcDbEntity
  8
2
100
AcDbLine
 10
4.570000000000002
 20
75.0
 30
0.0
 11
50.43
 21
75.0
 31
0.0
  0
SOLID
  5
5CE
330
18
100
AcDbEntity
  8
2
100
AcDbTrace
 10
4.570000000000002
 20
75.76166666666667
 30
0.0
 11
4.570000000000002
 21
74.23833333333333
 31
0.0
 12
0.0000000000000029
 22
75.0
 32
0.0
 13
0.0000000000000029
 23
75.0
 33
0.0
  0
SOLID
  5
5CF
330
18
100
AcDbEntity
  8
2
100
AcDbTrace
 10
50.43
 20
75.76166666666667
 30
0.0
 11
50.43
 21
74.23833333333333
 31
0.0
 12
55.0
 22
75.0
 32
0.0
 13
55.0
 23
75.0
 33
0.0
  0
TEXT
  5
5D1
330
18
100
AcDbEntity
  8
2
100
AcDbText
 10
23.80047619047619
 20
77.3
 30
0.0
 40
4.57
  1
55
  7
SIMPLEX
100
AcDbText
  0
TEXT
  5
5D2
330
18
100
AcDbEntity
  8
SK2
100
AcDbText
 10
61.34452380952381
 20
-27.7
 30
0.0
 40
4.57
  1
19
  7
SIMPLEX
100
AcDbText
  0
TEXT
  5
5D3
330
18
100
AcDbEntity
  8
SK2
100
AcDbText
 10
55.7797619047619
 20
-42.7
 30
0.0
 40
4.57
  1
31
  7
SIMPLEX
100
AcDbText
  0
TEXT
  5
5D4
330
18
100
AcDbEntity
  8
SK2
100
AcDbText
 10
9.800476190476194
 20
62.3
 30
0.0
 40
4.57
  1
27
  7
SIMPLEX
100
AcDbText
  0
TEXT
  5
5D5
330
18
100
AcDbEntity
  8
SK2
100
AcDbText
 10
-39.77261904761905
 20
77.3
 30
0.0
 40
4.57
  1
65.4
  7
SIMPLEX
100
AcDbText
  0
TEXT
  5
5D6
330
18
100
AcDbEntity
  8
SK2
100
AcDbText
 10
-7.299999999999997
 20
-11.20738095238095
 30
0.0
 40
4.57
  1
%%c
 50
90.0
  7
SIMPLEX
100
AcDbText
  0
TEXT
  5
5D7
330
18
100
AcDbEntity
  8
SK2
100
AcDbText
 10
-7.299999999999997
 20
-7.072619047619046
 30
0.0
 40
4.57
  1
44.45
 50
90.0
  7
SIMPLEX
100
AcDbText
  0
TEXT
  5
5D8
330
18
100
AcDbEntity
  8
SK2
100
AcDbText
 10
-82.3
 20
-26.40380952380953
 30
0.0
 40
4.57
  1
M16
 50
90.0
  7
SIMPLEX
100
AcDbText
  0
TEXT
  5
5D9
330
18
100
AcDbEntity
  8
SK2
100
AcDbText
 10
-97.30000000000002
 20
-5.76687476190475
 30
0.0
 40
4.57
  1
%%c
 50
90.0
  7
SIMPLEX
100
AcDbText
  0
TEXT
  5
5DA
330
18
100
AcDbEntity
  8
SK2
100
AcDbText
 10
-97.30000000000002
 20
-1.632112857142845
 30
0.0
 40
4.57
  1
63
 50
90.0
  7
SIMPLEX
100
AcDbText
  0
TEXT
  5
5DB
330
18
100
AcDbEntity
  8
SK2
100
AcDbText
 10
97.70000000000001
 20
-5.766904761904758
 30
0.0
 40
4.57
  1
%%c
 50
90.0
  7
SIMPLEX
100
AcDbText
  0
TEXT
  5
5DC
330
18
100
AcDbEntity
  8
SK2
100
AcDbText
 10
97.70000000000001
 20
-1.632142857142853
 30
0.0
 40
4.57
  1
40
 50
90.0
  7
SIMPLEX
100
AcDbText
  0
TEXT
  5
5DD
330
18
100
AcDbEntity
  8
SK2
100
AcDbText
 10
82.70000000000001
 20
-5.766904761904751
 30
0.0
 40
4.57
  1
%%c
 50
90.0
  7
SIMPLEX
100
AcDbText
  0
TEXT
  5
5DE
330
18
100
AcDbEntity
  8
SK2
100
AcDbText
 10
82.70000000000001
 20
-1.632142857142847
 30
0.0
 40
4.57
  1
22
 50
90.0
  7
SIMPLEX
100
AcDbText
  0
ENDSEC
  0
SECTION
  2
OBJECTS
  0
DICTIONARY
  5
C
330
0
100
AcDbDictionary
  3
ACAD_GROUP
350
D
  3
ACAD_LAYOUT
350
301
  3
ACAD_MLINESTYLE
350
E
  3
ACAD_PLOTSETTINGS
350
302
1001
ACAD
1000
TREAT_AS_HARD
1070
     0
  0
DICTIONARY
  5
5E0
330
18
100
AcDbDictionary
  3
ACAD_LAYOUTSELFREF
350
5E1
  0
DICTIONARY
  5
5E2
330
338
100
AcDbDictionary
  3
ACAD_LAYOUTSELFREF
350
5E3
  0
DICTIONARY
  5
D
102
{ACAD_REACTORS
330
C
102
}
330
C
100
AcDbDictionary
1001
ACAD
1000
TREAT_AS_HARD
1070
     0
  0
DICTIONARY
  5
301
102
{ACAD_REACTORS
330
C
102
}
330
C
100
AcDbDictionary
1001
ACAD
1000
TREAT_AS_HARD
1070
     0
  0
DICTIONARY
  5
E
102
{ACAD_REACTORS
330
C
102
}
330
C
100
AcDbDictionary
  3
STANDARD
350
1B
1001
ACAD
1000
TREAT_AS_HARD
1070
     0
  0
DICTIONARY
  5
302
102
{ACAD_REACTORS
330
C
102
}
330
C
100
AcDbDictionary
1001
ACAD
1000
TREAT_AS_HARD
1070
     0
  0
XRECORD
  5
5E1
102
{ACAD_REACTORS
330
5E0
102
}
330
5E0
100
AcDbXrecord
340
18
  0
XRECORD
  5
5E3
102
{ACAD_REACTORS
330
5E2
102
}
330
5E2
100
AcDbXrecord
340
338
  0
MLINESTYLE
  5
1B
102
{ACAD_REACTORS
330
E
102
}
330
E
100
AcDbMlineStyle
  2
STANDARD
 70
     0
  3

 62
     0
 51
90.0
 52
90.0
 71
     2
 49
0.5
 62
   256
  6
BYLAYER
 49
-0.5
 62
   256
  6
BYLAYER
  0
ENDSEC
  0
EOF
