999
DXF file: 200_50-524-25-3-bmg.dxf
999
Pro/ENGINEER 2010430 by Parametric Technology Corporation
  0
SECTION
  2
HEADER
  9
$ACADVER
  1
AC1021
  9
$DWGCODEPAGE
  3
ANSI_1252
  9
$EXTMAX
 10
420.0
 20
297.0
 30
0.0
  9
$EXTMIN
 10
0.0
 20
0.0
 30
0.0
  9
$LIMMIN
 10
0.0
 20
0.0
  9
$LIMMAX
 10
420.0
 20
297.0
  9
$VIEWCTR
 10
210.0
 20
148.5
  9
$VIEWSIZE
 40
297.0
  9
$CLAYER
  8
0
  9
$LTSCALE
 40
23.1
  9
$CELTYPE
  6
BYLAYER
  9
$DIMSCALE
 40
1.0
  9
$DIMASZ
 40
3.5
  9
$DIMEXO
 40
2.625
  9
$DIMDLI
 40
15.96
  9
$DIMEXE
 40
7.56
  9
$DIMCEN
 40
3.78
  9
$DIMLFAC
 40
1.0
  9
$DIMBLK
  1
_FILLED
  9
$DIMTXT
 40
3.5
  9
$DIMTOL
 70
0
  9
$DIMLIM
 70
0
  9
$DIMTFAC
 40
1.0
  9
$PDMODE
 70
3
  9
$PDSIZE
 40
0.3125
  9
$HANDSEED
  5
335
  9
$TILEMODE
 70
1
  9
$MEASUREMENT
 70
1
  9
$INSUNITS
 70
4
  0
ENDSEC
  0
SECTION
  2
CLASSES
  0
CLASS
  1
ACDBDICTIONARYWDFLT
  2
AcDbDictionaryWithDefault
  3
AutoCAD 2000
 90
0
 91
1
280
0
281
0
  0
CLASS
  1
ACDBPLACEHOLDER
  2
AcDbPlaceHolder
  3
AutoCAD 2000
 90
0
 91
1
280
0
281
0
  0
CLASS
  1
LAYOUT
  2
AcDbLayout
  3
AutoCAD 2000
 90
0
 91
0
280
0
281
0
  0
ENDSEC
  0
SECTION
  2
TABLES
  0
TABLE
  2
VPORT
  5
8
100
AcDbSymbolTable
 70
2
  0
VPORT
  5
1F4
100
AcDbSymbolTableRecord
100
AcDbViewportTableRecord
  2
*ACTIVE
 70
0
 10
0.0
 20
0.0
 11
1.0
 21
1.0
 12
210.0
 22
148.5
 13
0.0
 23
0.0
 14
1.0
 24
1.0
 15
0.0
 25
0.0
 16
0.0
 26
0.0
 36
1.0
 17
0.0
 27
0.0
 37
0.0
 40
297.0
 41
1.4141414141
 42
50.0
 43
0.0
 44
0.0
 50
0.0
 51
0.0
 71
0
 72
100
 73
1
 74
1
 75
0
 76
0
 77
0
 78
0
  0
ENDTAB
  0
TABLE
  2
LTYPE
  5
5
100
AcDbSymbolTable
 70
6
  0
LTYPE
  5
14
100
AcDbSymbolTableRecord
100
AcDbLinetypeTableRecord
  2
BYBLOCK
 70
0
  3

 72
65
 73
0
 40
0.0
  0
LTYPE
  5
15
100
AcDbSymbolTableRecord
100
AcDbLinetypeTableRecord
  2
BYLAYER
 70
0
  3

 72
65
 73
0
 40
0.0
  0
LTYPE
  5
16
100
AcDbSymbolTableRecord
100
AcDbLinetypeTableRecord
  2
CONTINUOUS
 70
64
  3
Solid line
 72
65
 73
0
 40
0.0
  0
LTYPE
  5
1F5
100
AcDbSymbolTableRecord
100
AcDbLinetypeTableRecord
  2
CENTER
 70
64
  3
____ _ ____ _ ____ _ ____ _ ____ _ ____ _ ____
 72
65
 73
4
 40
0.6
 49
0.375
 74
0
 49
-0.075
 74
0
 49
0.075
 74
0
 49
-0.075
 74
0
  0
LTYPE
  5
1F6
100
AcDbSymbolTableRecord
100
AcDbLinetypeTableRecord
  2
HIDDEN
 70
64
  3
- - - - - - - - - - - - - - - - - - - -
 72
65
 73
2
 40
0.2
 49
0.1
 74
0
 49
-0.1
 74
0
  0
LTYPE
  5
1F7
100
AcDbSymbolTableRecord
100
AcDbLinetypeTableRecord
  2
PHANTOM
 70
64
  3
_____ _ _ _____ _ _ _____ _ _ _____
 72
65
 73
6
 40
0.8
 49
0.45
 74
0
 49
-0.05
 74
0
 49
0.1
 74
0
 49
-0.05
 74
0
 49
0.1
 74
0
 49
-0.05
 74
0
  0
LTYPE
  5
1F8
100
AcDbSymbolTableRecord
100
AcDbLinetypeTableRecord
  2
DOT
 70
64
  3
. . . . . . . . . . . . . . . . . . . .
 72
65
 73
2
 40
0.2
 49
0.1
 74
0
 49
-0.1
 74
0
  0
LTYPE
  5
1F9
100
AcDbSymbolTableRecord
100
AcDbLinetypeTableRecord
  2
DASHED
 70
64
  3
- - - - - - - - - - - - - - - - - - - -
 72
65
 73
2
 40
0.2
 49
0.1
 74
0
 49
-0.1
 74
0
  0
ENDTAB
  0
TABLE
  2
LAYER
  5
2
100
AcDbSymbolTable
 70
36
  0
LAYER
  5
10
100
AcDbSymbolTableRecord
100
AcDbLayerTableRecord
  2
0
 70
0
 62
7
  6
CONTINUOUS
370
-3
390
F
  0
LAYER
  5
1FA
100
AcDbSymbolTableRecord
100
AcDbLayerTableRecord
  2
DEFAULT_1
 70
0
 62
7
  6
CENTER
370
-3
390
F
  0
LAYER
  5
1FB
100
AcDbSymbolTableRecord
100
AcDbLayerTableRecord
  2
DEFAULT_2
 70
0
 62
8
  6
HIDDEN
370
-3
390
F
  0
LAYER
  5
1FC
100
AcDbSymbolTableRecord
100
AcDbLayerTableRecord
  2
DEFAULT_3
 70
0
 62
7
  6
PHANTOM
370
-3
390
F
  0
LAYER
  5
1FD
100
AcDbSymbolTableRecord
100
AcDbLayerTableRecord
  2
1
 70
0
 62
7
  6
CONTINUOUS
370
-3
390
F
  0
LAYER
  5
1FE
100
AcDbSymbolTableRecord
100
AcDbLayerTableRecord
  2
2
 70
0
 62
7
  6
CONTINUOUS
370
-3
390
F
  0
LAYER
  5
1FF
100
AcDbSymbolTableRecord
100
AcDbLayerTableRecord
  2
4
 70
0
 62
7
  6
CONTINUOUS
370
-3
390
F
  0
LAYER
  5
200
100
AcDbSymbolTableRecord
100
AcDbLayerTableRecord
  2
5
 70
0
 62
7
  6
CONTINUOUS
370
-3
390
F
  0
LAYER
  5
201
100
AcDbSymbolTableRecord
100
AcDbLayerTableRecord
  2
6
 70
0
 62
7
  6
CONTINUOUS
370
-3
390
F
  0
LAYER
  5
202
100
AcDbSymbolTableRecord
100
AcDbLayerTableRecord
  2
ACHSEN
 70
0
 62
7
  6
CONTINUOUS
370
-3
390
F
  0
LAYER
  5
203
100
AcDbSymbolTableRecord
100
AcDbLayerTableRecord
  2
ANALYSEN
 70
0
 62
7
  6
CONTINUOUS
370
-3
390
F
  0
LAYER
  5
204
100
AcDbSymbolTableRecord
100
AcDbLayerTableRecord
  2
AUFMASS_EINFUEHRFASE
 70
0
 62
7
  6
CONTINUOUS
370
-3
390
F
  0
LAYER
  5
205
100
AcDbSymbolTableRecord
100
AcDbLayerTableRecord
  2
AUFMASS_WEICHBEARBEITUNG
 70
0
 62
7
  6
CONTINUOUS
370
-3
390
F
  0
LAYER
  5
206
100
AcDbSymbolTableRecord
100
AcDbLayerTableRecord
  2
AUFMASS_WEICHBEARBEITUNG_FERTIG
 70
0
 62
7
  6
CONTINUOUS
370
-3
390
F
  0
LAYER
  5
207
100
AcDbSymbolTableRecord
100
AcDbLayerTableRecord
  2
AUFMASS_WEICHBE_INNENKONTUR
 70
0
 62
7
  6
CONTINUOUS
370
-3
390
F
  0
LAYER
  5
208
100
AcDbSymbolTableRecord
100
AcDbLayerTableRecord
  2
AUSFORMSCHRAEGEN
 70
0
 62
7
  6
CONTINUOUS
370
-3
390
F
  0
LAYER
  5
209
100
AcDbSymbolTableRecord
100
AcDbLayerTableRecord
  2
AUSSENKONTUR
 70
0
 62
7
  6
CONTINUOUS
370
-3
390
F
  0
LAYER
  5
20A
100
AcDbSymbolTableRecord
100
AcDbLayerTableRecord
  2
BEZUG
 70
0
 62
7
  6
CONTINUOUS
370
-3
390
F
  0
LAYER
  5
20B
100
AcDbSymbolTableRecord
100
AcDbLayerTableRecord
  2
BEZUGSACHSEN
 70
0
 62
7
  6
CONTINUOUS
370
-3
390
F
  0
LAYER
  5
20C
100
AcDbSymbolTableRecord
100
AcDbLayerTableRecord
  2
BEZUGSACHSENKENNZEICHEN
 70
0
 62
7
  6
CONTINUOUS
370
-3
390
F
  0
LAYER
  5
20D
100
AcDbSymbolTableRecord
100
AcDbLayerTableRecord
  2
BEZUGSEBENEN
 70
0
 62
7
  6
CONTINUOUS
370
-3
390
F
  0
LAYER
  5
20E
100
AcDbSymbolTableRecord
100
AcDbLayerTableRecord
  2
BEZUGSEBENE_B
 70
0
 62
7
  6
CONTINUOUS
370
-3
390
F
  0
LAYER
  5
20F
100
AcDbSymbolTableRecord
100
AcDbLayerTableRecord
  2
BEZUGSPUNKTE
 70
0
 62
7
  6
CONTINUOUS
370
-3
390
F
  0
LAYER
  5
210
100
AcDbSymbolTableRecord
100
AcDbLayerTableRecord
  2
BG_STARTBEZUEGE
 70
0
 62
7
  6
CONTINUOUS
370
-3
390
F
  0
LAYER
  5
211
100
AcDbSymbolTableRecord
100
AcDbLayerTableRecord
  2
BOHRUNGEN
 70
0
 62
7
  6
CONTINUOUS
370
-3
390
F
  0
LAYER
  5
212
100
AcDbSymbolTableRecord
100
AcDbLayerTableRecord
  2
EBENEN
 70
0
 62
7
  6
CONTINUOUS
370
-3
390
F
  0
LAYER
  5
213
100
AcDbSymbolTableRecord
100
AcDbLayerTableRecord
  2
FASEN
 70
0
 62
7
  6
CONTINUOUS
370
-3
390
F
  0
LAYER
  5
214
100
AcDbSymbolTableRecord
100
AcDbLayerTableRecord
  2
FLAECHEN
 70
0
 62
7
  6
CONTINUOUS
370
-3
390
F
  0
LAYER
  5
215
100
AcDbSymbolTableRecord
100
AcDbLayerTableRecord
  2
FORM_LAGE_TOLERANZEN
 70
0
 62
7
  6
CONTINUOUS
370
-3
390
F
  0
LAYER
  5
216
100
AcDbSymbolTableRecord
100
AcDbLayerTableRecord
  2
GEOMTOL
 70
0
 62
7
  6
CONTINUOUS
370
-3
390
F
  0
LAYER
  5
217
100
AcDbSymbolTableRecord
100
AcDbLayerTableRecord
  2
GEWINDE
 70
0
 62
7
  6
CONTINUOUS
370
-3
390
F
  0
LAYER
  5
218
100
AcDbSymbolTableRecord
100
AcDbLayerTableRecord
  2
HILFEN
 70
0
 62
7
  6
CONTINUOUS
370
-3
390
F
  0
LAYER
  5
219
100
AcDbSymbolTableRecord
100
AcDbLayerTableRecord
  2
INNENKONTUR
 70
0
 62
7
  6
CONTINUOUS
370
-3
390
F
  0
LAYER
  5
21A
100
AcDbSymbolTableRecord
100
AcDbLayerTableRecord
  2
KOORDINATENSYSTEME
 70
0
 62
7
  6
CONTINUOUS
370
-3
390
F
  0
LAYER
  5
21B
100
AcDbSymbolTableRecord
100
AcDbLayerTableRecord
  2
KOORDSYS
 70
0
 62
7
  6
CONTINUOUS
370
-3
390
F
  0
LAYER
  5
21C
100
AcDbSymbolTableRecord
100
AcDbLayerTableRecord
  2
KURVEN
 70
0
 62
7
  6
CONTINUOUS
370
-3
390
F
  0
LAYER
  5
21D
100
AcDbSymbolTableRecord
100
AcDbLayerTableRecord
  2
KURVE_FUER_GTOL_DETAILANSICHT
 70
0
 62
7
  6
CONTINUOUS
370
-3
390
F
  0
LAYER
  5
21E
100
AcDbSymbolTableRecord
100
AcDbLayerTableRecord
  2
KURVE_GAUGE2_POLIGON_INNENEINST
 70
0
 62
7
  6
CONTINUOUS
370
-3
390
F
  0
LAYER
  5
21F
100
AcDbSymbolTableRecord
100
AcDbLayerTableRecord
  2
KURVE_PHANTOM1_GAUGE_PIN_1
 70
0
 62
7
  6
CONTINUOUS
370
-3
390
F
  0
LAYER
  5
220
100
AcDbSymbolTableRecord
100
AcDbLayerTableRecord
  2
KURVE_PHANTOM2_GAUGE_PIN1
 70
0
 62
7
  6
CONTINUOUS
370
-3
390
F
  0
LAYER
  5
221
100
AcDbSymbolTableRecord
100
AcDbLayerTableRecord
  2
KURVE_POLIGON_BEMASUNG
 70
0
 62
7
  6
CONTINUOUS
370
-3
390
F
  0
LAYER
  5
222
100
AcDbSymbolTableRecord
100
AcDbLayerTableRecord
  2
NOCUT
 70
0
 62
7
  6
CONTINUOUS
370
-3
390
F
  0
LAYER
  5
223
100
AcDbSymbolTableRecord
100
AcDbLayerTableRecord
  2
PLATZIERUNG
 70
0
 62
7
  6
CONTINUOUS
370
-3
390
F
  0
LAYER
  5
224
100
AcDbSymbolTableRecord
100
AcDbLayerTableRecord
  2
PUNKTE
 70
0
 62
7
  6
CONTINUOUS
370
-3
390
F
  0
LAYER
  5
225
100
AcDbSymbolTableRecord
100
AcDbLayerTableRecord
  2
RUNDUNGEN
 70
0
 62
7
  6
CONTINUOUS
370
-3
390
F
  0
LAYER
  5
226
100
AcDbSymbolTableRecord
100
AcDbLayerTableRecord
  2
SK1
 70
0
 62
7
  6
CONTINUOUS
370
-3
390
F
  0
LAYER
  5
227
100
AcDbSymbolTableRecord
100
AcDbLayerTableRecord
  2
SK2
 70
0
 62
7
  6
CONTINUOUS
370
-3
390
F
  0
LAYER
  5
228
100
AcDbSymbolTableRecord
100
AcDbLayerTableRecord
  2
SK4
 70
0
 62
7
  6
CONTINUOUS
370
-3
390
F
  0
LAYER
  5
229
100
AcDbSymbolTableRecord
100
AcDbLayerTableRecord
  2
SKELETTE
 70
0
 62
7
  6
CONTINUOUS
370
-3
390
F
  0
LAYER
  5
22A
100
AcDbSymbolTableRecord
100
AcDbLayerTableRecord
  2
S_ACHSEN
 70
0
 62
7
  6
CONTINUOUS
370
-3
390
F
  0
LAYER
  5
22B
100
AcDbSymbolTableRecord
100
AcDbLayerTableRecord
  2
S_EBENEN
 70
0
 62
7
  6
CONTINUOUS
370
-3
390
F
  0
LAYER
  5
22C
100
AcDbSymbolTableRecord
100
AcDbLayerTableRecord
  2
S_KOORDSYS
 70
0
 62
7
  6
CONTINUOUS
370
-3
390
F
  0
LAYER
  5
22D
100
AcDbSymbolTableRecord
100
AcDbLayerTableRecord
  2
TEIL_STARTBEZUEGE
 70
0
 62
7
  6
CONTINUOUS
370
-3
390
F
  0
LAYER
  5
22E
100
AcDbSymbolTableRecord
100
AcDbLayerTableRecord
  2
TOL_BEZUEGE
 70
0
 62
7
  6
CONTINUOUS
370
-3
390
F
  0
LAYER
  5
22F
100
AcDbSymbolTableRecord
100
AcDbLayerTableRecord
  2
VERBFLAECHE
 70
0
 62
7
  6
CONTINUOUS
370
-3
390
F
  0
LAYER
  5
230
100
AcDbSymbolTableRecord
100
AcDbLayerTableRecord
  2
VERERBUNG
 70
0
 62
7
  6
CONTINUOUS
370
-3
390
F
  0
LAYER
  5
231
100
AcDbSymbolTableRecord
100
AcDbLayerTableRecord
  2
VERPACKUNG
 70
0
 62
7
  6
CONTINUOUS
370
-3
390
F
  0
LAYER
  5
232
100
AcDbSymbolTableRecord
100
AcDbLayerTableRecord
  2
VOLGEOM
 70
0
 62
7
  6
CONTINUOUS
370
-3
390
F
  0
LAYER
  5
233
100
AcDbSymbolTableRecord
100
AcDbLayerTableRecord
  2
VOLUMEN
 70
0
 62
7
  6
CONTINUOUS
370
-3
390
F
  0
LAYER
  5
234
100
AcDbSymbolTableRecord
100
AcDbLayerTableRecord
  2
XSEC_DATUMS
 70
0
 62
7
  6
CONTINUOUS
370
-3
390
F
  0
LAYER
  5
235
100
AcDbSymbolTableRecord
100
AcDbLayerTableRecord
  2
ZEICHNUNG
 70
0
 62
7
  6
CONTINUOUS
370
-3
390
F
  0
ENDTAB
  0
TABLE
  2
STYLE
  5
3
100
AcDbSymbolTable
 70
1
  0
STYLE
  5
11
100
AcDbSymbolTableRecord
100
AcDbTextStyleTableRecord
  2
STANDARD
 70
0
 40
0.0
 41
0.7
 50
0.0
 71
0
 42
0.2
  3
txt
  4

  0
STYLE
  5
236
100
AcDbSymbolTableRecord
100
AcDbTextStyleTableRecord
  2
TEXTSTYLE_1
 70
0
 40
0.0
 41
0.8
 50
0.0
 71
0
 42
0.2
  3
gdt
  4

  0
STYLE
  5
237
100
AcDbSymbolTableRecord
100
AcDbTextStyleTableRecord
  2
TEXTSTYLE_2
 70
0
 40
0.0
 41
0.7
 50
0.0
 71
0
 42
0.2
  3
gdt
  4

  0
ENDTAB
  0
TABLE
  2
VIEW
  5
6
100
AcDbSymbolTable
 70
0
  0
ENDTAB
  0
TABLE
  2
UCS
  5
7
100
AcDbSymbolTable
 70
0
  0
ENDTAB
  0
TABLE
  2
APPID
  5
9
100
AcDbSymbolTable
 70
1
  0
APPID
  5
238
100
AcDbSymbolTableRecord
100
AcDbRegAppTableRecord
  2
ACAD
 70
0
  0
ENDTAB
  0
TABLE
  2
BLOCK_RECORD
  5
1
100
AcDbSymbolTable
 70
0
  0
BLOCK_RECORD
  5
239
100
AcDbSymbolTableRecord
100
AcDbBlockTableRecord
  2
*Model_Space
  0
BLOCK_RECORD
  5
23A
100
AcDbSymbolTableRecord
100
AcDbBlockTableRecord
  2
*Paper_Space
  0
BLOCK_RECORD
  5
23B
100
AcDbSymbolTableRecord
100
AcDbBlockTableRecord
  2
_FILLED
  0
BLOCK_RECORD
  5
23C
100
AcDbSymbolTableRecord
100
AcDbBlockTableRecord
  2
*D0
  0
BLOCK_RECORD
  5
23D
100
AcDbSymbolTableRecord
100
AcDbBlockTableRecord
  2
*D1
  0
BLOCK_RECORD
  5
23E
100
AcDbSymbolTableRecord
100
AcDbBlockTableRecord
  2
*D2
  0
BLOCK_RECORD
  5
23F
100
AcDbSymbolTableRecord
100
AcDbBlockTableRecord
  2
*D3
  0
BLOCK_RECORD
  5
240
100
AcDbSymbolTableRecord
100
AcDbBlockTableRecord
  2
*D4
  0
BLOCK_RECORD
  5
241
100
AcDbSymbolTableRecord
100
AcDbBlockTableRecord
  2
*D5
  0
BLOCK_RECORD
  5
242
100
AcDbSymbolTableRecord
100
AcDbBlockTableRecord
  2
*D6
  0
ENDTAB
  0
TABLE
  2
DIMSTYLE
  5
A
100
AcDbSymbolTable
 70
1
100
AcDbDimStyleTable
 71
0
  0
DIMSTYLE
105
243
100
AcDbSymbolTableRecord
100
AcDbDimStyleTableRecord
  2
STANDARD
 70
0
  3

  4

 40
1.0
 41
3.5
 42
0.0625
 43
0.38
 44
0.18
 45
0.0
 46
0.0
 47
0.005
 48
0.005
140
3.5
141
0.09
142
0.0
143
25.4
144
1.0
145
0.0
146
1.0
147
0.09
 71
0.0
 72
0.0
 73
0
 74
0
 75
0
 76
0
 77
1
 78
8
170
0
171
2
172
0
173
0
174
0
175
0
176
0
177
0
178
5
270
2
271
3
272
3
273
2
274
2
275
0
280
0
281
0
282
0
283
1
284
8
285
0
286
0
287
3
288
0
340
11
341
23B
342
23B
343
23B
344
23B
  0
DIMSTYLE
105
244
100
AcDbSymbolTableRecord
100
AcDbDimStyleTableRecord
  2
DIMSTYLE_1
 70
0
  3

  4

 40
1.0
 41
3.5
 42
0.0625
 43
0.38
 44
0.18
 45
0.0
 46
0.0
 47
0.0
 48
0.0
140
3.5
141
0.09
142
0.0
143
25.4
144
1.0
145
0.0
146
1.0
147
0.09
 71
0.0
 72
0.0
 73
0
 74
0
 75
0
 76
0
 77
1
 78
8
170
0
171
2
172
0
173
0
174
0
175
0
176
0
177
0
178
5
270
2
271
0
272
0
273
2
274
2
275
0
280
0
281
0
282
0
283
1
284
8
285
0
286
0
287
3
288
0
340
11
341
23B
342
23B
343
23B
344
23B
  0
DIMSTYLE
105
245
100
AcDbSymbolTableRecord
100
AcDbDimStyleTableRecord
  2
DIMSTYLE_2
 70
0
  3

  4

 40
1.0
 41
3.5
 42
0.0625
 43
0.38
 44
0.18
 45
0.0
 46
0.0
 47
0.0
 48
0.0
140
3.5
141
0.09
142
0.0
143
25.4
144
1.0
145
0.0
146
1.0
147
0.09
 71
0.0
 72
0.0
 73
0
 74
0
 75
0
 76
0
 77
1
 78
8
170
0
171
2
172
0
173
0
174
0
175
0
176
0
177
0
178
5
270
2
271
2
272
2
273
2
274
2
275
0
280
0
281
0
282
0
283
1
284
8
285
0
286
0
287
3
288
0
340
11
341
23B
342
23B
343
23B
344
23B
  0
ENDTAB
  0
ENDSEC
  0
SECTION
  2
BLOCKS
  0
BLOCK
  5
20
100
AcDbEntity
  8
0
100
AcDbBlockBegin
  2
*Model_Space
 70
0
 10
0.0
 20
0.0
 30
0.0
  3
*Model_Space
  1

  0
ENDBLK
  5
21
100
AcDbEntity
  8
0
100
AcDbBlockEnd
  0
BLOCK
  5
1C
100
AcDbEntity
  8
0
100
AcDbBlockBegin
  2
*Paper_Space
 70
0
 10
0.0
 20
0.0
 30
0.0
  3
*Paper_Space
  1

  0
ENDBLK
  5
1D
100
AcDbEntity
  8
0
100
AcDbBlockEnd
  0
BLOCK
  5
246
100
AcDbEntity
  8
0
100
AcDbBlockBegin
  2
_FILLED
 70
64
 10
0.0
 20
0.0
  3
_FILLED
  1

  0
SOLID
  5
247
100
AcDbEntity
  8
0
  6
BYBLOCK
 62
0
100
AcDbTrace
 10
0.0
 20
0.0
 11
-1.0
 21
0.125
 12
-1.0
 22
-0.125
 13
-1.0
 23
-0.125
  0
ENDBLK
  5
248
100
AcDbEntity
  8
0
  6
BYBLOCK
 62
0
100
AcDbBlockEnd
  0
BLOCK
  5
249
100
AcDbEntity
  8
0
100
AcDbBlockBegin
 62
2
  6
CONTINUOUS
  2
*D0
 70
65
 10
0.0
 20
0.0
  3
*D0
  1

  0
MTEXT
  5
24A
100
AcDbEntity
  8
0
100
AcDbMText
 62
5
  6
CONTINUOUS
  7
TEXTSTYLE_2
 71
2
 72
1
 10
350.145
 20
160.0
 30
0.0
 11
0.0
 21
1.0
 31
0.0
 44
0.9
  1
{\Fgdt;n}\Ftxt;85
 40
3.5
 41
9.9166666667
  0
LINE
  5
24B
100
AcDbEntity
  8
0
100
AcDbLine
 62
2
  6
CONTINUOUS
 10
238.0919499388
 20
202.475
 11
356.02
 21
202.475
  0
LINE
  5
24C
100
AcDbEntity
  8
0
100
AcDbLine
 62
2
  6
CONTINUOUS
 10
238.0919499388
 20
117.525
 11
356.02
 21
117.525
  0
LINE
  5
24D
100
AcDbEntity
  8
0
100
AcDbLine
 62
2
  6
CONTINUOUS
 10
354.52
 20
202.475
 11
354.52
 21
160.0
  0
LINE
  5
24E
100
AcDbEntity
  8
0
100
AcDbLine
 62
2
  6
CONTINUOUS
 10
354.52
 20
117.525
 11
354.52
 21
160.0
  0
INSERT
  5
24F
100
AcDbEntity
  8
0
100
AcDbBlockReference
 62
2
  6
CONTINUOUS
  2
_FILLED
 10
354.52
 20
202.475
 41
3.5
 42
3.5
 43
3.5
 50
90.0
  0
INSERT
  5
250
100
AcDbEntity
  8
0
100
AcDbBlockReference
 62
2
  6
CONTINUOUS
  2
_FILLED
 10
354.52
 20
117.525
 41
3.5
 42
3.5
 43
3.5
 50
270.0
  0
ENDBLK
  5
251
100
AcDbEntity
  8
0
  6
BYBLOCK
 62
0
100
AcDbBlockEnd
  0
BLOCK
  5
252
100
AcDbEntity
  8
2
100
AcDbBlockBegin
 62
2
  6
CONTINUOUS
  2
*D1
 70
65
 10
0.0
 20
0.0
  3
*D1
  1

  0
MTEXT
  5
253
100
AcDbEntity
  8
2
100
AcDbMText
 62
5
  6
CONTINUOUS
  7
STANDARD
 71
2
 72
1
 10
251.19
 20
235.3625
 30
0.0
 11
1.0
 21
0.0
 31
0.0
 44
0.9
  1
122.38
 40
3.5
 41
14.75
  0
LINE
  5
254
100
AcDbEntity
  8
2
100
AcDbLine
 62
2
  6
CONTINUOUS
 10
190.0
 20
210.0
 11
190.0
 21
232.4875
  0
LINE
  5
255
100
AcDbEntity
  8
2
100
AcDbLine
 62
2
  6
CONTINUOUS
 10
312.38
 20
183.0
 11
312.38
 21
232.4875
  0
LINE
  5
256
100
AcDbEntity
  8
2
100
AcDbLine
 62
2
  6
CONTINUOUS
 10
190.0
 20
230.9875
 11
251.19
 21
230.9875
  0
LINE
  5
257
100
AcDbEntity
  8
2
100
AcDbLine
 62
2
  6
CONTINUOUS
 10
312.38
 20
230.9875
 11
251.19
 21
230.9875
  0
INSERT
  5
258
100
AcDbEntity
  8
2
100
AcDbBlockReference
 62
2
  6
CONTINUOUS
  2
_FILLED
 10
190.0
 20
230.9875
 41
3.5
 42
3.5
 43
3.5
 50
180.0
  0
INSERT
  5
259
100
AcDbEntity
  8
2
100
AcDbBlockReference
 62
2
  6
CONTINUOUS
  2
_FILLED
 10
312.38
 20
230.9875
 41
3.5
 42
3.5
 43
3.5
  0
ENDBLK
  5
25A
100
AcDbEntity
  8
0
  6
BYBLOCK
 62
0
100
AcDbBlockEnd
  0
BLOCK
  5
25B
100
AcDbEntity
  8
SK2
100
AcDbBlockBegin
 62
2
  6
CONTINUOUS
  2
*D2
 70
65
 10
0.0
 20
0.0
  3
*D2
  1

  0
MTEXT
  5
25C
100
AcDbEntity
  8
SK2
100
AcDbMText
 62
5
  6
CONTINUOUS
  7
STANDARD
 71
2
 72
1
 10
200.29
 20
255.3625
 30
0.0
 11
1.0
 21
0.0
 31
0.0
 44
0.9
  1
224.18
 40
3.5
 41
15.0
  0
LINE
  5
25D
100
AcDbEntity
  8
SK2
100
AcDbLine
 62
2
  6
CONTINUOUS
 10
88.2
 20
160.0
 11
88.2
 21
252.4875
  0
LINE
  5
25E
100
AcDbEntity
  8
SK2
100
AcDbLine
 62
2
  6
CONTINUOUS
 10
312.38
 20
160.0
 11
312.38
 21
237.9875
  0
LINE
  5
25F
100
AcDbEntity
  8
SK2
100
AcDbLine
 62
2
  6
CONTINUOUS
 10
312.38
 20
243.9875
 11
312.38
 21
252.4875
  0
LINE
  5
260
100
AcDbEntity
  8
SK2
100
AcDbLine
 62
2
  6
CONTINUOUS
 10
88.2
 20
250.9875
 11
200.29
 21
250.9875
  0
LINE
  5
261
100
AcDbEntity
  8
SK2
100
AcDbLine
 62
2
  6
CONTINUOUS
 10
312.38
 20
250.9875
 11
200.29
 21
250.9875
  0
INSERT
  5
262
100
AcDbEntity
  8
SK2
100
AcDbBlockReference
 62
2
  6
CONTINUOUS
  2
_FILLED
 10
88.2
 20
250.9875
 41
3.5
 42
3.5
 43
3.5
 50
180.0
  0
INSERT
  5
263
100
AcDbEntity
  8
SK2
100
AcDbBlockReference
 62
2
  6
CONTINUOUS
  2
_FILLED
 10
312.38
 20
250.9875
 41
3.5
 42
3.5
 43
3.5
  0
ENDBLK
  5
264
100
AcDbEntity
  8
0
  6
BYBLOCK
 62
0
100
AcDbBlockEnd
  0
BLOCK
  5
265
100
AcDbEntity
  8
SK2
100
AcDbBlockBegin
 62
2
  6
CONTINUOUS
  2
*D3
 70
65
 10
0.0
 20
0.0
  3
*D3
  1

  0
MTEXT
  5
266
100
AcDbEntity
  8
SK2
100
AcDbMText
 62
5
  6
CONTINUOUS
  7
STANDARD
 71
2
 72
1
 10
270.19
 20
225.3625
 30
0.0
 11
1.0
 21
0.0
 31
0.0
 44
0.9
  1
84.38
 40
3.5
 41
12.75
  0
LINE
  5
267
100
AcDbEntity
  8
SK2
100
AcDbLine
 62
2
  6
CONTINUOUS
 10
228.0
 20
210.0
 11
228.0
 21
222.4875
  0
LINE
  5
268
100
AcDbEntity
  8
SK2
100
AcDbLine
 62
2
  6
CONTINUOUS
 10
312.38
 20
160.0
 11
312.38
 21
222.4875
  0
LINE
  5
269
100
AcDbEntity
  8
SK2
100
AcDbLine
 62
2
  6
CONTINUOUS
 10
228.0
 20
220.9875
 11
270.19
 21
220.9875
  0
LINE
  5
26A
100
AcDbEntity
  8
SK2
100
AcDbLine
 62
2
  6
CONTINUOUS
 10
312.38
 20
220.9875
 11
270.19
 21
220.9875
  0
INSERT
  5
26B
100
AcDbEntity
  8
SK2
100
AcDbBlockReference
 62
2
  6
CONTINUOUS
  2
_FILLED
 10
228.0
 20
220.9875
 41
3.5
 42
3.5
 43
3.5
 50
180.0
  0
INSERT
  5
26C
100
AcDbEntity
  8
SK2
100
AcDbBlockReference
 62
2
  6
CONTINUOUS
  2
_FILLED
 10
312.38
 20
220.9875
 41
3.5
 42
3.5
 43
3.5
  0
ENDBLK
  5
26D
100
AcDbEntity
  8
0
  6
BYBLOCK
 62
0
100
AcDbBlockEnd
  0
BLOCK
  5
26E
100
AcDbEntity
  8
2
100
AcDbBlockBegin
 62
2
  6
CONTINUOUS
  2
*D4
 70
65
 10
0.0
 20
0.0
  3
*D4
  1

  0
MTEXT
  5
26F
100
AcDbEntity
  8
2
100
AcDbMText
 62
5
  6
CONTINUOUS
  7
TEXTSTYLE_2
 71
2
 72
1
 10
330.145
 20
160.0
 30
0.0
 11
0.0
 21
1.0
 31
0.0
 44
0.9
  1
{\Fgdt;n}\Ftxt;25
 40
3.5
 41
9.9166666667
  0
LINE
  5
270
100
AcDbEntity
  8
2
100
AcDbLine
 62
2
  6
CONTINUOUS
 10
312.38
 20
147.5
 11
336.02
 21
147.5
  0
LINE
  5
271
100
AcDbEntity
  8
2
100
AcDbLine
 62
2
  6
CONTINUOUS
 10
312.38
 20
172.5
 11
336.02
 21
172.5
  0
LINE
  5
272
100
AcDbEntity
  8
2
100
AcDbLine
 62
2
  6
CONTINUOUS
 10
334.52
 20
147.5
 11
334.52
 21
160.0
  0
LINE
  5
273
100
AcDbEntity
  8
2
100
AcDbLine
 62
2
  6
CONTINUOUS
 10
334.52
 20
172.5
 11
334.52
 21
160.0
  0
INSERT
  5
274
100
AcDbEntity
  8
2
100
AcDbBlockReference
 62
2
  6
CONTINUOUS
  2
_FILLED
 10
334.52
 20
147.5
 41
3.5
 42
3.5
 43
3.5
 50
270.0
  0
INSERT
  5
275
100
AcDbEntity
  8
2
100
AcDbBlockReference
 62
2
  6
CONTINUOUS
  2
_FILLED
 10
334.52
 20
172.5
 41
3.5
 42
3.5
 43
3.5
 50
90.0
  0
ENDBLK
  5
276
100
AcDbEntity
  8
0
  6
BYBLOCK
 62
0
100
AcDbBlockEnd
  0
BLOCK
  5
277
100
AcDbEntity
  8
SK2
100
AcDbBlockBegin
 62
2
  6
CONTINUOUS
  2
*D5
 70
65
 10
0.0
 20
0.0
  3
*D5
  1

  0
MTEXT
  5
278
100
AcDbEntity
  8
SK2
100
AcDbMText
 62
5
  6
CONTINUOUS
  7
TEXTSTYLE_2
 71
2
 72
1
 10
340.145
 20
160.0
 30
0.0
 11
0.0
 21
1.0
 31
0.0
 44
0.9
  1
{\Fgdt;n}\Ftxt;42
 40
3.5
 41
10.1666666667
  0
LINE
  5
279
100
AcDbEntity
  8
SK2
100
AcDbLine
 62
2
  6
CONTINUOUS
 10
292.88
 20
181.0
 11
346.02
 21
181.0
  0
LINE
  5
27A
100
AcDbEntity
  8
SK2
100
AcDbLine
 62
2
  6
CONTINUOUS
 10
292.88
 20
139.0
 11
346.02
 21
139.0
  0
LINE
  5
27B
100
AcDbEntity
  8
SK2
100
AcDbLine
 62
2
  6
CONTINUOUS
 10
344.52
 20
181.0
 11
344.52
 21
160.0
  0
LINE
  5
27C
100
AcDbEntity
  8
SK2
100
AcDbLine
 62
2
  6
CONTINUOUS
 10
344.52
 20
139.0
 11
344.52
 21
160.0
  0
INSERT
  5
27D
100
AcDbEntity
  8
SK2
100
AcDbBlockReference
 62
2
  6
CONTINUOUS
  2
_FILLED
 10
344.52
 20
181.0
 41
3.5
 42
3.5
 43
3.5
 50
90.0
  0
INSERT
  5
27E
100
AcDbEntity
  8
SK2
100
AcDbBlockReference
 62
2
  6
CONTINUOUS
  2
_FILLED
 10
344.52
 20
139.0
 41
3.5
 42
3.5
 43
3.5
 50
270.0
  0
ENDBLK
  5
27F
100
AcDbEntity
  8
0
  6
BYBLOCK
 62
0
100
AcDbBlockEnd
  0
BLOCK
  5
280
100
AcDbEntity
  8
2
100
AcDbBlockBegin
 62
2
  6
CONTINUOUS
  2
*D6
 70
65
 10
0.0
 20
0.0
  3
*D6
  1

  0
MTEXT
  5
281
100
AcDbEntity
  8
2
100
AcDbMText
 62
5
  6
CONTINUOUS
  7
STANDARD
 71
2
 72
1
 10
255.0
 20
245.3625
 30
0.0
 11
1.0
 21
0.0
 31
0.0
 44
0.9
  1
130
 40
3.5
 41
7.25
  0
LINE
  5
282
100
AcDbEntity
  8
2
100
AcDbLine
 62
2
  6
CONTINUOUS
 10
190.0
 20
210.0
 11
190.0
 21
242.4875
  0
LINE
  5
283
100
AcDbEntity
  8
2
100
AcDbLine
 62
2
  6
CONTINUOUS
 10
320.0
 20
160.0
 11
320.0
 21
169.5
  0
LINE
  5
284
100
AcDbEntity
  8
2
100
AcDbLine
 62
2
  6
CONTINUOUS
 10
320.0
 20
175.5
 11
320.0
 21
242.4875
  0
LINE
  5
285
100
AcDbEntity
  8
2
100
AcDbLine
 62
2
  6
CONTINUOUS
 10
190.0
 20
240.9875
 11
255.0
 21
240.9875
  0
LINE
  5
286
100
AcDbEntity
  8
2
100
AcDbLine
 62
2
  6
CONTINUOUS
 10
320.0
 20
240.9875
 11
255.0
 21
240.9875
  0
INSERT
  5
287
100
AcDbEntity
  8
2
100
AcDbBlockReference
 62
2
  6
CONTINUOUS
  2
_FILLED
 10
190.0
 20
240.9875
 41
3.5
 42
3.5
 43
3.5
 50
180.0
  0
INSERT
  5
288
100
AcDbEntity
  8
2
100
AcDbBlockReference
 62
2
  6
CONTINUOUS
  2
_FILLED
 10
320.0
 20
240.9875
 41
3.5
 42
3.5
 43
3.5
  0
ENDBLK
  5
289
100
AcDbEntity
  8
0
  6
BYBLOCK
 62
0
100
AcDbBlockEnd
  0
ENDSEC
  0
SECTION
  2
ENTITIES
  0
DIMENSION
  5
28A
100
AcDbEntity
  8
0
100
AcDbDimension
 62
2
  6
CONTINUOUS
  2
*D0
 10
354.52
 20
117.525
 11
353.0058491733
 21
157.7836332715
 70
160
 71
2
 42
84.95
  1
%%c<>
  3
DIMSTYLE_1
100
AcDbAlignedDimension
 13
238.0919499388
 23
202.475
 14
238.0919499388
 24
117.525
 50
270.0
100
AcDbRotatedDimension
  0
DIMENSION
  5
28B
100
AcDbEntity
  8
2
100
AcDbDimension
 62
2
  6
CONTINUOUS
  2
*D1
 10
312.38
 20
230.9875
 11
243.815
 21
233.6125
 70
160
 71
2
 42
122.38
  3
DIMSTYLE_2
100
AcDbAlignedDimension
 13
190.0
 23
210.0
 14
312.38
 24
183.0
100
AcDbRotatedDimension
  0
DIMENSION
  5
28C
100
AcDbEntity
  8
SK2
100
AcDbDimension
 62
2
  6
CONTINUOUS
  2
*D2
 10
312.38
 20
250.9875
 11
192.79
 21
253.6125
 70
160
 71
2
 42
224.18
  3
DIMSTYLE_2
100
AcDbAlignedDimension
 13
88.2
 23
160.0
 14
312.38
 24
160.0
100
AcDbRotatedDimension
  0
DIMENSION
  5
28D
100
AcDbEntity
  8
SK2
100
AcDbDimension
 62
2
  6
CONTINUOUS
  2
*D3
 10
312.38
 20
220.9875
 11
263.815
 21
223.6125
 70
160
 71
2
 42
84.38
  3
DIMSTYLE_2
100
AcDbAlignedDimension
 13
228.0
 23
210.0
 14
312.38
 24
160.0
100
AcDbRotatedDimension
  0
DIMENSION
  5
28E
100
AcDbEntity
  8
2
100
AcDbDimension
 62
2
  6
CONTINUOUS
  2
*D4
 10
334.52
 20
172.5
 11
333.0058491733
 21
157.7836332715
 70
160
 71
2
 42
25.0
  1
%%c<>
  3
DIMSTYLE_2
100
AcDbAlignedDimension
 13
312.38
 23
147.5
 14
312.38
 24
172.5
 50
90.0
100
AcDbRotatedDimension
  0
DIMENSION
  5
28F
100
AcDbEntity
  8
SK2
100
AcDbDimension
 62
2
  6
CONTINUOUS
  2
*D5
 10
344.52
 20
139.0
 11
343.0338537743
 21
157.72775848
 70
160
 71
2
 42
42.0
  1
%%c<>
  3
DIMSTYLE_2
100
AcDbAlignedDimension
 13
292.88
 23
181.0
 14
292.88
 24
139.0
 50
270.0
100
AcDbRotatedDimension
  0
DIMENSION
  5
290
100
AcDbEntity
  8
2
100
AcDbDimension
 62
2
  6
CONTINUOUS
  2
*D6
 10
320.0
 20
240.9875
 11
251.375
 21
243.6125
 70
160
 71
2
 42
130.0
  3
DIMSTYLE_2
100
AcDbAlignedDimension
 13
190.0
 23
210.0
 14
320.0
 24
160.0
100
AcDbRotatedDimension
  0
MTEXT
  5
291
100
AcDbEntity
  8
6
100
AcDbMText
 62
5
  6
CONTINUOUS
  7
STANDARD
 71
1
 72
1
 10
187.1438497029
 20
82.3507156451
 30
0.0
 11
1.0
 21
0.0
 31
0.0
 44
0.9
  3
Für diese Unterlage behalten wir das Ur-\Pheberrecht. Sie darf nur für den von uns\Pbestimmten Zweck benutzt und ohne unsere \PZustimmung weder vervielfältigt noch \PDritten zugänglich gemacht werden.\P \PWe own the copyright of this document. It\Pde
  1
termined and may neither be copied or\Pmade accessible to outsiders without our\Ppermission.\P \PCe plan reste notre propriété. Il ne peut\Pétre utilisé, copié ou reproduit sans notre\Paccord.
 40
3.5
 41
103.5833333333
  0
LINE
  5
292
100
AcDbEntity
  8
1
100
AcDbLine
 62
9
  6
CONTINUOUS
 10
88.2
 20
179.2131954077
 11
88.2
 21
140.7868045923
  0
LINE
  5
293
100
AcDbEntity
  8
1
100
AcDbLine
 62
9
  6
CONTINUOUS
 10
89.0556813308
 20
180.2027266713
 11
89.0556813308
 21
139.7972733287
  0
LINE
  5
294
100
AcDbEntity
  8
1
100
AcDbLine
 62
6
  6
CONTINUOUS
 10
227.0
 20
110.0125
 11
220.725478295
 21
110.0125
  0
LINE
  5
295
100
AcDbEntity
  8
1
100
AcDbLine
 62
6
  6
CONTINUOUS
 10
194.0
 20
110.0125
 11
205.674521705
 21
110.0125
  0
LINE
  5
296
100
AcDbEntity
  8
1
100
AcDbLine
 62
6
  6
CONTINUOUS
 10
238.0919499388
 20
117.525
 11
229.0
 21
117.525
  0
LINE
  5
297
100
AcDbEntity
  8
1
100
AcDbLine
 62
6
  6
CONTINUOUS
 10
209.9125
 20
117.625
 11
216.4875
 21
117.625
  0
LINE
  5
298
100
AcDbEntity
  8
1
100
AcDbLine
 62
6
  6
CONTINUOUS
 10
192.0
 20
125.425
 11
190.35
 21
125.425
  0
LINE
  5
299
100
AcDbEntity
  8
1
100
AcDbLine
 62
6
  6
CONTINUOUS
 10
189.3808093837
 20
125.1653061571
 11
89.0556813308
 21
139.7972733287
  0
LINE
  5
29A
100
AcDbEntity
  8
1
100
AcDbLine
 62
6
  6
CONTINUOUS
 10
190.35
 20
125.425
 11
189.3808093837
 21
125.1653061571
  0
LINE
  5
29B
100
AcDbEntity
  8
1
100
AcDbLine
 62
6
  6
CONTINUOUS
 10
189.3808093837
 20
194.8346938429
 11
189.3808093837
 21
125.1653061571
  0
LINE
  5
29C
100
AcDbEntity
  8
1
100
AcDbLine
 62
6
  6
CONTINUOUS
 10
276.6479491924
 20
137.025
 11
268.8418802154
 21
137.025
  0
LINE
  5
29D
100
AcDbEntity
  8
1
100
AcDbLine
 62
6
  6
CONTINUOUS
 10
315.0
 20
139.0
 11
301.25
 21
139.0
  0
LINE
  5
29E
100
AcDbEntity
  8
1
100
AcDbLine
 62
6
  6
CONTINUOUS
 10
291.9882864376
 20
139.025
 11
278.9573502692
 21
139.025
  0
LINE
  5
29F
100
AcDbEntity
  8
1
100
AcDbLine
 62
6
  6
CONTINUOUS
 10
315.0
 20
140.5845919358
 11
308.0
 21
140.5845919358
  0
LINE
  5
2A0
100
AcDbEntity
  8
1
100
AcDbLine
 62
8
  6
HIDDEN
 10
311.5139745962
 20
143.0025
 11
300.0
 21
143.0025
  0
LINE
  5
2A1
100
AcDbEntity
  8
1
100
AcDbLine
 62
6
  6
CONTINUOUS
 10
300.0
 20
143.0025
 11
296.7942135624
 21
143.0025
  0
LINE
  5
2A2
100
AcDbEntity
  8
1
100
AcDbLine
 62
6
  6
CONTINUOUS
 10
315.0
 20
143.3618235976
 11
308.0
 21
143.3618235976
  0
LINE
  5
2A3
100
AcDbEntity
  8
DEFAULT_1
100
AcDbLine
 62
7
  6
CENTER
 10
190.0
 20
106.0125
 11
190.0
 21
213.9875
  0
LINE
  5
2A4
100
AcDbEntity
  8
1
100
AcDbLine
 62
6
  6
CONTINUOUS
 10
190.35
 20
194.575
 11
190.35
 21
125.425
  0
LINE
  5
2A5
100
AcDbEntity
  8
1
100
AcDbLine
 62
9
  6
CONTINUOUS
 10
192.0
 20
194.575
 11
192.0
 21
125.425
  0
LINE
  5
2A6
100
AcDbEntity
  8
1
100
AcDbLine
 62
9
  6
CONTINUOUS
 10
193.0
 20
111.0125176323
 11
193.0
 21
146.0975
  0
LINE
  5
2A7
100
AcDbEntity
  8
1
100
AcDbLine
 62
6
  6
CONTINUOUS
 10
193.0
 20
146.0975
 11
193.0
 21
154.8482405918
  0
LINE
  5
2A8
100
AcDbEntity
  8
1
100
AcDbLine
 62
6
  6
CONTINUOUS
 10
193.0
 20
165.1517594082
 11
193.0
 21
173.9025
  0
LINE
  5
2A9
100
AcDbEntity
  8
1
100
AcDbLine
 62
9
  6
CONTINUOUS
 10
193.0
 20
173.9025
 11
193.0
 21
208.9874823678
  0
LINE
  5
2AA
100
AcDbEntity
  8
1
100
AcDbLine
 62
9
  6
CONTINUOUS
 10
194.0
 20
110.0125
 11
194.0
 21
147.0975
  0
LINE
  5
2AB
100
AcDbEntity
  8
1
100
AcDbLine
 62
9
  6
CONTINUOUS
 10
194.0
 20
172.9025
 11
194.0
 21
209.9875
  0
LINE
  5
2AC
100
AcDbEntity
  8
1
100
AcDbLine
 62
6
  6
CONTINUOUS
 10
216.7375
 20
203.0451852365
 11
220.725478295
 21
209.9875
  0
LINE
  5
2AD
100
AcDbEntity
  8
1
100
AcDbLine
 62
6
  6
CONTINUOUS
 10
205.674521705
 20
145.813703113
 11
194.0
 21
145.813703113
  0
LINE
  5
2AE
100
AcDbEntity
  8
1
100
AcDbLine
 62
6
  6
CONTINUOUS
 10
194.0
 20
147.0975
 11
211.3475
 21
147.0975
  0
LINE
  5
2AF
100
AcDbEntity
  8
1
100
AcDbLine
 62
8
  6
HIDDEN
 10
291.4608130162
 20
150.44
 11
280.88
 21
150.44
  0
LINE
  5
2B0
100
AcDbEntity
  8
1
100
AcDbLine
 62
6
  6
CONTINUOUS
 10
216.7375
 20
116.9548147635
 11
220.725478295
 21
110.0125
  0
LINE
  5
2B1
100
AcDbEntity
  8
1
100
AcDbLine
 62
6
  6
CONTINUOUS
 10
205.674521705
 20
209.9875
 11
205.674521705
 21
174.186296887
  0
LINE
  5
2B2
100
AcDbEntity
  8
1
100
AcDbLine
 62
6
  6
CONTINUOUS
 10
205.674521705
 20
145.813703113
 11
205.674521705
 21
110.0125
  0
LINE
  5
2B3
100
AcDbEntity
  8
1
100
AcDbLine
 62
6
  6
CONTINUOUS
 10
193.0
 20
146.0975
 11
194.0
 21
147.0975
  0
LINE
  5
2B4
100
AcDbEntity
  8
1
100
AcDbLine
 62
8
  6
HIDDEN
 10
312.38
 20
172.5
 11
291.4608130162
 21
169.56
  0
LINE
  5
2B5
100
AcDbEntity
  8
1
100
AcDbLine
 62
6
  6
CONTINUOUS
 10
315.0
 20
157.2227683382
 11
308.0
 21
157.2227683382
  0
LINE
  5
2B6
100
AcDbEntity
  8
4
100
AcDbLine
 62
7
  6
CENTER
 10
317.38
 20
160.0
 11
84.2
 21
160.0
  0
LINE
  5
2B7
100
AcDbEntity
  8
1
100
AcDbLine
 62
6
  6
CONTINUOUS
 10
193.0
 20
173.9025
 11
194.0
 21
172.9025
  0
LINE
  5
2B8
100
AcDbEntity
  8
1
100
AcDbLine
 62
6
  6
CONTINUOUS
 10
209.6625
 20
203.0451572871
 11
209.6625
 21
172.9025
  0
LINE
  5
2B9
100
AcDbEntity
  8
1
100
AcDbLine
 62
6
  6
CONTINUOUS
 10
209.6625
 20
147.0975
 11
209.6625
 21
116.9548427129
  0
LINE
  5
2BA
100
AcDbEntity
  8
1
100
AcDbLine
 62
9
  6
CONTINUOUS
 10
209.9125
 20
117.625
 11
209.9125
 21
147.0975
  0
LINE
  5
2BB
100
AcDbEntity
  8
1
100
AcDbLine
 62
9
  6
CONTINUOUS
 10
209.9125
 20
172.9025
 11
209.9125
 21
202.375
  0
LINE
  5
2BC
100
AcDbEntity
  8
1
100
AcDbLine
 62
6
  6
CONTINUOUS
 10
315.0
 20
162.7772316618
 11
308.0
 21
162.7772316618
  0
LINE
  5
2BD
100
AcDbEntity
  8
1
100
AcDbLine
 62
8
  6
HIDDEN
 10
291.4608130162
 20
169.56
 11
280.88
 21
169.56
  0
LINE
  5
2BE
100
AcDbEntity
  8
1
100
AcDbLine
 62
8
  6
HIDDEN
 10
312.38
 20
147.5
 11
291.4608130162
 21
150.44
  0
LINE
  5
2BF
100
AcDbEntity
  8
1
100
AcDbLine
 62
9
  6
CONTINUOUS
 10
216.4875
 20
117.625
 11
216.4875
 21
148.1655204487
  0
LINE
  5
2C0
100
AcDbEntity
  8
1
100
AcDbLine
 62
9
  6
CONTINUOUS
 10
216.4875
 20
171.8344795513
 11
216.4875
 21
202.375
  0
LINE
  5
2C1
100
AcDbEntity
  8
1
100
AcDbLine
 62
6
  6
CONTINUOUS
 10
216.7375
 20
116.9548147635
 11
216.7375
 21
148.277269676
  0
LINE
  5
2C2
100
AcDbEntity
  8
1
100
AcDbLine
 62
6
  6
CONTINUOUS
 10
216.7375
 20
171.722730324
 11
216.7375
 21
203.0451852365
  0
LINE
  5
2C3
100
AcDbEntity
  8
1
100
AcDbLine
 62
6
  6
CONTINUOUS
 10
220.725478295
 20
209.9875
 11
220.725478295
 21
170.4724910073
  0
LINE
  5
2C4
100
AcDbEntity
  8
1
100
AcDbLine
 62
6
  6
CONTINUOUS
 10
220.725478295
 20
149.5275185578
 11
220.725478295
 21
110.0125
  0
LINE
  5
2C5
100
AcDbEntity
  8
1
100
AcDbLine
 62
6
  6
CONTINUOUS
 10
194.0
 20
172.9025
 11
211.3475
 21
172.9025
  0
LINE
  5
2C6
100
AcDbEntity
  8
1
100
AcDbLine
 62
6
  6
CONTINUOUS
 10
194.0
 20
174.186296887
 11
205.674521705
 21
174.186296887
  0
LINE
  5
2C7
100
AcDbEntity
  8
1
100
AcDbLine
 62
6
  6
CONTINUOUS
 10
315.0
 20
176.6381764024
 11
308.0
 21
176.6381764024
  0
LINE
  5
2C8
100
AcDbEntity
  8
1
100
AcDbLine
 62
8
  6
HIDDEN
 10
311.5139745962
 20
176.9975
 11
300.0
 21
176.9975
  0
LINE
  5
2C9
100
AcDbEntity
  8
1
100
AcDbLine
 62
6
  6
CONTINUOUS
 10
300.0
 20
176.9975
 11
296.7942135624
 21
176.9975
  0
LINE
  5
2CA
100
AcDbEntity
  8
1
100
AcDbLine
 62
9
  6
CONTINUOUS
 10
227.0
 20
209.9875
 11
227.0
 21
110.0125
  0
LINE
  5
2CB
100
AcDbEntity
  8
1
100
AcDbLine
 62
6
  6
CONTINUOUS
 10
228.0
 20
208.9875
 11
228.0
 21
111.0125
  0
LINE
  5
2CC
100
AcDbEntity
  8
1
100
AcDbLine
 62
9
  6
CONTINUOUS
 10
229.0
 20
202.475
 11
229.0
 21
117.525
  0
LINE
  5
2CD
100
AcDbEntity
  8
1
100
AcDbLine
 62
6
  6
CONTINUOUS
 10
205.674521705
 20
110.0125
 11
209.6625
 21
116.9548147635
  0
LINE
  5
2CE
100
AcDbEntity
  8
1
100
AcDbLine
 62
6
  6
CONTINUOUS
 10
315.0
 20
179.4154080642
 11
308.0
 21
179.4154080642
  0
LINE
  5
2CF
100
AcDbEntity
  8
1
100
AcDbLine
 62
6
  6
CONTINUOUS
 10
291.9882864376
 20
180.975
 11
278.9573502692
 21
180.975
  0
LINE
  5
2D0
100
AcDbEntity
  8
1
100
AcDbLine
 62
6
  6
CONTINUOUS
 10
315.0
 20
181.0
 11
301.25
 21
181.0
  0
LINE
  5
2D1
100
AcDbEntity
  8
1
100
AcDbLine
 62
6
  6
CONTINUOUS
 10
276.6479491924
 20
182.975
 11
268.8418802154
 21
182.975
  0
LINE
  5
2D2
100
AcDbEntity
  8
1
100
AcDbLine
 62
6
  6
CONTINUOUS
 10
205.674521705
 20
209.9875
 11
209.6625
 21
203.0451852365
  0
LINE
  5
2D3
100
AcDbEntity
  8
1
100
AcDbLine
 62
9
  6
CONTINUOUS
 10
238.0919499388
 20
117.525
 11
238.0919499388
 21
202.475
  0
LINE
  5
2D4
100
AcDbEntity
  8
1
100
AcDbLine
 62
9
  6
CONTINUOUS
 10
238.6239116855
 20
117.6782316137
 11
238.6239116855
 21
202.3217683863
  0
LINE
  5
2D5
100
AcDbEntity
  8
1
100
AcDbLine
 62
6
  6
CONTINUOUS
 10
192.0
 20
194.575
 11
190.35
 21
194.575
  0
LINE
  5
2D6
100
AcDbEntity
  8
1
100
AcDbLine
 62
6
  6
CONTINUOUS
 10
190.35
 20
194.575
 11
189.3808093837
 21
194.8346938429
  0
LINE
  5
2D7
100
AcDbEntity
  8
1
100
AcDbLine
 62
6
  6
CONTINUOUS
 10
189.3808093837
 20
194.8346938429
 11
89.0556813308
 21
180.2027266713
  0
LINE
  5
2D8
100
AcDbEntity
  8
1
100
AcDbLine
 62
6
  6
CONTINUOUS
 10
209.9125
 20
202.375
 11
216.4875
 21
202.375
  0
LINE
  5
2D9
100
AcDbEntity
  8
1
100
AcDbLine
 62
6
  6
CONTINUOUS
 10
238.0919499388
 20
202.475
 11
229.0
 21
202.475
  0
LINE
  5
2DA
100
AcDbEntity
  8
1
100
AcDbLine
 62
6
  6
CONTINUOUS
 10
227.0
 20
209.9875
 11
220.725478295
 21
209.9875
  0
LINE
  5
2DB
100
AcDbEntity
  8
1
100
AcDbLine
 62
6
  6
CONTINUOUS
 10
194.0
 20
209.9875
 11
205.674521705
 21
209.9875
  0
LINE
  5
2DC
100
AcDbEntity
  8
1
100
AcDbLine
 62
6
  6
CONTINUOUS
 10
267.6201843828
 20
135.8944382192
 11
238.6239116855
 21
117.6782316137
  0
LINE
  5
2DD
100
AcDbEntity
  8
1
100
AcDbLine
 62
6
  6
CONTINUOUS
 10
267.6201843828
 20
184.1055617808
 11
238.6239116855
 21
202.3217683863
  0
LINE
  5
2DE
100
AcDbEntity
  8
1
100
AcDbLine
 62
9
  6
CONTINUOUS
 10
267.6201843828
 20
135.8944382192
 11
267.6201843828
 21
184.1055617808
  0
LINE
  5
2DF
100
AcDbEntity
  8
1
100
AcDbLine
 62
9
  6
CONTINUOUS
 10
267.8874353084
 20
136.1718529282
 11
267.8874353084
 21
183.8281470718
  0
LINE
  5
2E0
100
AcDbEntity
  8
1
100
AcDbLine
 62
9
  6
CONTINUOUS
 10
268.1490598923
 20
183.375
 11
268.1490598923
 21
136.625
  0
LINE
  5
2E1
100
AcDbEntity
  8
1
100
AcDbLine
 62
9
  6
CONTINUOUS
 10
268.8418802154
 20
182.975
 11
268.8418802154
 21
137.025
  0
LINE
  5
2E2
100
AcDbEntity
  8
1
100
AcDbLine
 62
6
  6
CONTINUOUS
 10
268.1490598923
 20
136.625
 11
267.8874353084
 21
136.1718529282
  0
LINE
  5
2E3
100
AcDbEntity
  8
1
100
AcDbLine
 62
6
  6
CONTINUOUS
 10
268.1490598923
 20
183.375
 11
267.8874353084
 21
183.8281470718
  0
LINE
  5
2E4
100
AcDbEntity
  8
1
100
AcDbLine
 62
9
  6
CONTINUOUS
 10
276.6479491924
 20
182.975
 11
276.6479491924
 21
137.025
  0
LINE
  5
2E5
100
AcDbEntity
  8
1
100
AcDbLine
 62
9
  6
CONTINUOUS
 10
277.5139745962
 20
182.475
 11
277.5139745962
 21
137.525
  0
LINE
  5
2E6
100
AcDbEntity
  8
1
100
AcDbLine
 62
9
  6
CONTINUOUS
 10
278.0913248654
 20
181.475
 11
278.0913248654
 21
138.525
  0
LINE
  5
2E7
100
AcDbEntity
  8
1
100
AcDbLine
 62
9
  6
CONTINUOUS
 10
278.9573502692
 20
180.975
 11
278.9573502692
 21
139.025
  0
LINE
  5
2E8
100
AcDbEntity
  8
1
100
AcDbLine
 62
8
  6
HIDDEN
 10
280.88
 20
169.56
 11
280.88
 21
150.44
  0
LINE
  5
2E9
100
AcDbEntity
  8
1
100
AcDbLine
 62
6
  6
CONTINUOUS
 10
278.0913248654
 20
138.525
 11
277.5139745962
 21
137.525
  0
LINE
  5
2EA
100
AcDbEntity
  8
1
100
AcDbLine
 62
6
  6
CONTINUOUS
 10
296.0871067812
 20
142.7096067812
 11
292.6953932188
 21
139.3178932188
  0
LINE
  5
2EB
100
AcDbEntity
  8
1
100
AcDbLine
 62
6
  6
CONTINUOUS
 10
296.0871067812
 20
177.2903932188
 11
292.6953932188
 21
180.6821067812
  0
LINE
  5
2EC
100
AcDbEntity
  8
1
100
AcDbLine
 62
6
  6
CONTINUOUS
 10
278.0913248654
 20
181.475
 11
277.5139745962
 21
182.475
  0
LINE
  5
2ED
100
AcDbEntity
  8
1
100
AcDbLine
 62
8
  6
HIDDEN
 10
291.4608130162
 20
169.56
 11
291.4608130162
 21
150.44
  0
LINE
  5
2EE
100
AcDbEntity
  8
1
100
AcDbLine
 62
9
  6
CONTINUOUS
 10
291.9882864376
 20
180.975
 11
291.9882864376
 21
139.025
  0
LINE
  5
2EF
100
AcDbEntity
  8
1
100
AcDbLine
 62
9
  6
CONTINUOUS
 10
292.6953932188
 20
180.6821067812
 11
292.6953932188
 21
139.3178932188
  0
LINE
  5
2F0
100
AcDbEntity
  8
1
100
AcDbLine
 62
9
  6
CONTINUOUS
 10
296.0871067812
 20
177.2903932188
 11
296.0871067812
 21
142.7096067812
  0
LINE
  5
2F1
100
AcDbEntity
  8
1
100
AcDbLine
 62
9
  6
CONTINUOUS
 10
296.7942135624
 20
176.9975
 11
296.7942135624
 21
143.0025
  0
LINE
  5
2F2
100
AcDbEntity
  8
1
100
AcDbLine
 62
6
  6
CONTINUOUS
 10
300.0
 20
179.75
 11
300.0
 21
140.25
  0
LINE
  5
2F3
100
AcDbEntity
  8
1
100
AcDbLine
 62
9
  6
CONTINUOUS
 10
301.25
 20
181.0
 11
301.25
 21
139.0
  0
LINE
  5
2F4
100
AcDbEntity
  8
1
100
AcDbLine
 62
9
  6
CONTINUOUS
 10
308.0
 20
179.4154080642
 11
308.0
 21
176.6381764024
  0
LINE
  5
2F5
100
AcDbEntity
  8
1
100
AcDbLine
 62
9
  6
CONTINUOUS
 10
308.0
 20
162.7772316618
 11
308.0
 21
157.2227683382
  0
LINE
  5
2F6
100
AcDbEntity
  8
1
100
AcDbLine
 62
9
  6
CONTINUOUS
 10
308.0
 20
143.3618235976
 11
308.0
 21
140.5845919358
  0
LINE
  5
2F7
100
AcDbEntity
  8
1
100
AcDbLine
 62
8
  6
HIDDEN
 10
312.38
 20
144.5025
 11
311.5139745962
 21
143.0025
  0
LINE
  5
2F8
100
AcDbEntity
  8
1
100
AcDbLine
 62
8
  6
HIDDEN
 10
312.38
 20
175.4975
 11
311.5139745962
 21
176.9975
  0
LINE
  5
2F9
100
AcDbEntity
  8
1
100
AcDbLine
 62
8
  6
HIDDEN
 10
311.5139745962
 20
176.9975
 11
311.5139745962
 21
143.0025
  0
LINE
  5
2FA
100
AcDbEntity
  8
1
100
AcDbLine
 62
8
  6
HIDDEN
 10
312.38
 20
175.4975
 11
312.38
 21
144.5025
  0
LINE
  5
2FB
100
AcDbEntity
  8
1
100
AcDbLine
 62
9
  6
CONTINUOUS
 10
315.0
 20
181.0
 11
315.0
 21
179.4154080642
  0
LINE
  5
2FC
100
AcDbEntity
  8
1
100
AcDbLine
 62
9
  6
CONTINUOUS
 10
315.0
 20
176.6381764024
 11
315.0
 21
162.7772316618
  0
LINE
  5
2FD
100
AcDbEntity
  8
1
100
AcDbLine
 62
9
  6
CONTINUOUS
 10
315.0
 20
157.2227683382
 11
315.0
 21
143.3618235976
  0
LINE
  5
2FE
100
AcDbEntity
  8
1
100
AcDbLine
 62
9
  6
CONTINUOUS
 10
315.0
 20
140.5845919358
 11
315.0
 21
139.0
  0
LINE
  5
2FF
100
AcDbEntity
  8
1
100
AcDbLine
 62
9
  6
CONTINUOUS
 10
320.0
 20
176.0
 11
320.0
 21
144.0
  0
ARC
  5
300
100
AcDbEntity
  8
1
100
AcDbCircle
 62
6
  6
CONTINUOUS
 10
7.2403363244
 20
60.1841939907
 40
228.8506180731
100
AcDbArc
 50
29.5077295963
 51
29.8777286411
  0
ARC
  5
301
100
AcDbEntity
  8
1
100
AcDbCircle
 62
6
  6
CONTINUOUS
 10
89.2
 20
140.7868045923
 40
1.0
100
AcDbArc
 50
180.0
 51
261.7021731718
  0
ARC
  5
302
100
AcDbEntity
  8
1
100
AcDbCircle
 62
6
  6
CONTINUOUS
 10
7.2403363295
 20
259.8158060063
 40
228.8506180672
100
AcDbArc
 50
330.1222713589
 51
330.4922704037
  0
ARC
  5
303
100
AcDbEntity
  8
1
100
AcDbCircle
 62
6
  6
CONTINUOUS
 10
89.2
 20
179.2131954077
 40
1.0
100
AcDbArc
 50
98.2978268282
 51
180.0
  0
ARC
  5
304
100
AcDbEntity
  8
1
100
AcDbCircle
 62
6
  6
CONTINUOUS
 10
194.0
 20
111.0125
 40
1.0
100
AcDbArc
 50
180.0
 51
270.0
  0
ARC
  5
305
100
AcDbEntity
  8
1
100
AcDbCircle
 62
6
  6
CONTINUOUS
 10
227.0
 20
111.0125
 40
1.0
100
AcDbArc
 50
270.0
 51
360.0
  0
ARC
  5
306
100
AcDbEntity
  8
1
100
AcDbCircle
 62
6
  6
CONTINUOUS
 10
229.0
 20
116.525
 40
1.0
100
AcDbArc
 50
90.0
 51
180.0
  0
ARC
  5
307
100
AcDbEntity
  8
1
100
AcDbCircle
 62
6
  6
CONTINUOUS
 10
238.0919499388
 20
118.525
 40
1.0
100
AcDbArc
 50
270.0
 51
302.1380982186
  0
ARC
  5
308
100
AcDbEntity
  8
1
100
AcDbCircle
 62
6
  6
CONTINUOUS
 10
192.0
 20
124.425
 40
1.0
100
AcDbArc
 50
0.0
 51
90.0
  0
ARC
  5
309
100
AcDbEntity
  8
1
100
AcDbCircle
 62
6
  6
CONTINUOUS
 10
268.8418802154
 20
136.225
 40
0.8
100
AcDbArc
 50
90.0
 51
150.0
  0
ARC
  5
30A
100
AcDbEntity
  8
1
100
AcDbCircle
 62
6
  6
CONTINUOUS
 10
267.1946149854
 20
136.5718529282
 40
0.8
100
AcDbArc
 50
302.1380982186
 51
330.0
  0
ARC
  5
30B
100
AcDbEntity
  8
1
100
AcDbCircle
 62
6
  6
CONTINUOUS
 10
216.4875
 20
117.375
 40
0.25
100
AcDbArc
 50
0.0
 51
90.0
  0
ARC
  5
30C
100
AcDbEntity
  8
1
100
AcDbCircle
 62
6
  6
CONTINUOUS
 10
209.9125
 20
117.375
 40
0.25
100
AcDbArc
 50
90.0
 51
180.0
  0
ARC
  5
30D
100
AcDbEntity
  8
1
100
AcDbCircle
 62
6
  6
CONTINUOUS
 10
347.7400152135
 20
82.5402263761
 40
154.4822829706
100
AcDbArc
 50
145.3051136933
 51
145.7374621119
  0
ARC
  5
30E
100
AcDbEntity
  8
1
100
AcDbCircle
 62
6
  6
CONTINUOUS
 10
291.9882864376
 20
140.025
 40
1.0
100
AcDbArc
 50
270.0
 51
315.0
  0
ARC
  5
30F
100
AcDbEntity
  8
1
100
AcDbCircle
 62
6
  6
CONTINUOUS
 10
278.9573502692
 20
138.025
 40
1.0
100
AcDbArc
 50
90.0
 51
150.0
  0
ARC
  5
310
100
AcDbEntity
  8
1
100
AcDbCircle
 62
6
  6
CONTINUOUS
 10
276.6479491924
 20
138.025
 40
1.0
100
AcDbArc
 50
270.0
 51
330.0
  0
ARC
  5
311
100
AcDbEntity
  8
1
100
AcDbCircle
 62
6
  6
CONTINUOUS
 10
301.25
 20
140.25
 40
1.25
100
AcDbArc
 50
180.0
 51
270.0
  0
ARC
  5
312
100
AcDbEntity
  8
1
100
AcDbCircle
 62
6
  6
CONTINUOUS
 10
315.0
 20
144.0
 40
5.0
100
AcDbArc
 50
270.0
 51
360.0
  0
ARC
  5
313
100
AcDbEntity
  8
1
100
AcDbCircle
 62
6
  6
CONTINUOUS
 10
296.7942135624
 20
142.0025
 40
1.0
100
AcDbArc
 50
90.0
 51
135.0
  0
ARC
  5
314
100
AcDbEntity
  8
1
100
AcDbCircle
 62
6
  6
CONTINUOUS
 10
211.3475
 20
160.0
 40
12.9025
100
AcDbArc
 50
270.0
 51
90.0
  0
ARC
  5
315
100
AcDbEntity
  8
1
100
AcDbCircle
 62
6
  6
CONTINUOUS
 10
192.0
 20
195.575
 40
1.0
100
AcDbArc
 50
270.0
 51
360.0
  0
ARC
  5
316
100
AcDbEntity
  8
1
100
AcDbCircle
 62
6
  6
CONTINUOUS
 10
268.8418802154
 20
183.775
 40
0.8
100
AcDbArc
 50
210.0
 51
270.0
  0
ARC
  5
317
100
AcDbEntity
  8
1
100
AcDbCircle
 62
6
  6
CONTINUOUS
 10
267.1946149854
 20
183.4281470718
 40
0.8
100
AcDbArc
 50
30.0
 51
57.8619017814
  0
ARC
  5
318
100
AcDbEntity
  8
1
100
AcDbCircle
 62
6
  6
CONTINUOUS
 10
229.0
 20
203.475
 40
1.0
100
AcDbArc
 50
180.0
 51
270.0
  0
ARC
  5
319
100
AcDbEntity
  8
1
100
AcDbCircle
 62
6
  6
CONTINUOUS
 10
238.0919499388
 20
201.475
 40
1.0
100
AcDbArc
 50
57.8619017814
 51
90.0
  0
ARC
  5
31A
100
AcDbEntity
  8
1
100
AcDbCircle
 62
6
  6
CONTINUOUS
 10
227.0
 20
208.9875
 40
1.0
100
AcDbArc
 50
0.0
 51
90.0
  0
ARC
  5
31B
100
AcDbEntity
  8
1
100
AcDbCircle
 62
6
  6
CONTINUOUS
 10
194.0
 20
208.9875
 40
1.0
100
AcDbArc
 50
90.0
 51
180.0
  0
ARC
  5
31C
100
AcDbEntity
  8
1
100
AcDbCircle
 62
6
  6
CONTINUOUS
 10
216.4875
 20
202.625
 40
0.25
100
AcDbArc
 50
270.0
 51
360.0
  0
ARC
  5
31D
100
AcDbEntity
  8
1
100
AcDbCircle
 62
6
  6
CONTINUOUS
 10
209.9125
 20
202.625
 40
0.25
100
AcDbArc
 50
180.0
 51
270.0
  0
ARC
  5
31E
100
AcDbEntity
  8
1
100
AcDbCircle
 62
6
  6
CONTINUOUS
 10
291.9882864376
 20
179.975
 40
1.0
100
AcDbArc
 50
45.0
 51
90.0
  0
ARC
  5
31F
100
AcDbEntity
  8
1
100
AcDbCircle
 62
6
  6
CONTINUOUS
 10
278.9573502692
 20
181.975
 40
1.0
100
AcDbArc
 50
210.0
 51
270.0
  0
ARC
  5
320
100
AcDbEntity
  8
1
100
AcDbCircle
 62
6
  6
CONTINUOUS
 10
276.6479491924
 20
181.975
 40
1.0
100
AcDbArc
 50
30.0
 51
90.0
  0
ARC
  5
321
100
AcDbEntity
  8
1
100
AcDbCircle
 62
6
  6
CONTINUOUS
 10
315.0
 20
176.0
 40
5.0
100
AcDbArc
 50
0.0
 51
90.0
  0
ARC
  5
322
100
AcDbEntity
  8
1
100
AcDbCircle
 62
6
  6
CONTINUOUS
 10
296.7942135624
 20
177.9975
 40
1.0
100
AcDbArc
 50
225.0
 51
270.0
  0
ARC
  5
323
100
AcDbEntity
  8
1
100
AcDbCircle
 62
6
  6
CONTINUOUS
 10
301.25
 20
179.75
 40
1.25
100
AcDbArc
 50
90.0
 51
180.0
  0
ARC
  5
324
100
AcDbEntity
  8
1
100
AcDbCircle
 62
6
  6
CONTINUOUS
 10
347.7368505506
 20
237.4575865977
 40
154.4784306877
100
AcDbArc
 50
214.2625280055
 51
214.6948845708
  0
SPLINE
  5
325
100
AcDbEntity
  8
1
100
AcDbSpline
 62
6
  6
CONTINUOUS
 70
0
 71
3
 72
12
 73
8
 74
0
 42
0.0000001
 43
0.0000001
 44
0.0000000001
 40
0.0
 40
0.0
 40
0.0
 40
0.0
 40
0.1873462108
 40
0.3004547504
 40
0.4253099535
 40
0.7021451881
 40
1.0
 40
1.0
 40
1.0
 40
1.0
 10
305.2122882363
 20
142.0991801733
 30
0.0
 10
305.2866062504
 20
142.2847049332
 30
0.0
 10
305.5002434869
 20
142.542863734
 30
0.0
 10
305.8642108729
 20
142.8127237472
 30
0.0
 10
306.3494547291
 20
143.0746943771
 30
0.0
 10
307.0674964942
 20
143.3007537592
 30
0.0
 10
307.6822556089
 20
143.3618235976
 30
0.0
 10
308.0
 20
143.3618235976
 30
0.0
  0
SPLINE
  5
326
100
AcDbEntity
  8
1
100
AcDbSpline
 62
6
  6
CONTINUOUS
 70
0
 71
3
 72
14
 73
10
 74
0
 42
0.0000001
 43
0.0000001
 44
0.0000000001
 40
0.0
 40
0.0
 40
0.0
 40
0.0
 40
0.2911827147
 40
0.4336020678
 40
0.5711228503
 40
0.7010230861
 40
0.8190889222
 40
0.9203190395
 40
1.0
 40
1.0
 40
1.0
 40
1.0
 10
315.0
 20
143.3618235976
 30
0.0
 10
315.36114515
 20
143.3618235976
 30
0.0
 10
315.8997502635
 20
143.3993882433
 30
0.0
 10
316.5987014289
 20
143.5156610804
 30
0.0
 10
317.0953338254
 20
143.6251134372
 30
0.0
 10
317.5577053407
 20
143.7467776624
 30
0.0
 10
317.9750026596
 20
143.8632885415
 30
0.0
 10
318.3337567561
 20
143.9553797267
 30
0.0
 10
318.5571649621
 20
143.9905436652
 30
0.0
 10
318.6559907958
 20
143.9906539041
 30
0.0
  0
SPLINE
  5
327
100
AcDbEntity
  8
1
100
AcDbSpline
 62
6
  6
CONTINUOUS
 70
0
 71
3
 72
14
 73
10
 74
0
 42
0.0000001
 43
0.0000001
 44
0.0000000001
 40
0.0
 40
0.0
 40
0.0
 40
0.0
 40
0.0796845487
 40
0.1809168809
 40
0.2989833687
 40
0.4288830839
 40
0.5664023175
 40
0.7088196998
 40
1.0
 40
1.0
 40
1.0
 40
1.0
 10
318.655939695
 20
176.0093461152
 30
0.0
 10
318.5571107676
 20
176.0094629837
 30
0.0
 10
318.3337001507
 20
176.0446326504
 30
0.0
 10
317.9749437269
 20
176.1367277814
 30
0.0
 10
317.5576494379
 20
176.2532379341
 30
0.0
 10
317.095285419
 20
176.3748981952
 30
0.0
 10
316.5986645735
 20
176.4843475014
 30
0.0
 10
315.8997293014
 20
176.6006121159
 30
0.0
 10
315.3611372262
 20
176.6381764024
 30
0.0
 10
315.0
 20
176.6381764024
 30
0.0
  0
SPLINE
  5
328
100
AcDbEntity
  8
1
100
AcDbSpline
 62
6
  6
CONTINUOUS
 70
0
 71
3
 72
12
 73
8
 74
0
 42
0.0000001
 43
0.0000001
 44
0.0000000001
 40
0.0
 40
0.0
 40
0.0
 40
0.0
 40
0.2978275089
 40
0.5746493855
 40
0.6995063992
 40
0.8126231005
 40
1.0
 40
1.0
 40
1.0
 40
1.0
 10
308.0
 20
176.6381764024
 30
0.0
 10
307.6823449043
 20
176.6381764024
 30
0.0
 10
307.0677463514
 20
176.6992125707
 30
0.0
 10
306.3498658328
 20
176.9251544882
 30
0.0
 10
305.8646742329
 20
177.1869887539
 30
0.0
 10
305.5006746632
 20
177.4567374386
 30
0.0
 10
305.2869607091
 20
177.7147761634
 30
0.0
 10
305.2125186712
 20
177.9002456794
 30
0.0
  0
SPLINE
  5
329
100
AcDbEntity
  8
1
100
AcDbSpline
 62
6
  6
CONTINUOUS
 70
0
 71
3
 72
15
 73
11
 74
0
 42
0.0000001
 43
0.0000001
 44
0.0000000001
 40
0.0
 40
0.0
 40
0.0
 40
0.0
 40
0.1253054694
 40
0.2502667796
 40
0.3750981509
 40
0.5000051808
 40
0.6249114411
 40
0.7497405741
 40
0.8746993195
 40
1.0
 40
1.0
 40
1.0
 40
1.0
 10
308.0
 20
157.2227683382
 30
0.0
 10
307.6333387895
 20
157.2227683382
 30
0.0
 10
306.8934112502
 20
157.3631799354
 30
0.0
 10
305.9475841031
 20
157.9711076037
 30
0.0
 10
305.3057391521
 20
158.8964431282
 30
0.0
 10
305.0786858749
 20
160.0000451527
 30
0.0
 10
305.3057738255
 20
161.1036327203
 30
0.0
 10
305.9476340215
 20
162.0289359648
 30
0.0
 10
306.8934479533
 20
162.636828531
 30
0.0
 10
307.6333528026
 20
162.7772316618
 30
0.0
 10
308.0
 20
162.7772316618
 30
0.0
  0
SPLINE
  5
32A
100
AcDbEntity
  8
1
100
AcDbSpline
 62
6
  6
CONTINUOUS
 70
0
 71
3
 72
16
 73
12
 74
0
 42
0.0000001
 43
0.0000001
 44
0.0000000001
 40
0.0
 40
0.0
 40
0.0
 40
0.0
 40
0.1702054271
 40
0.3337945859
 40
0.4844975672
 40
0.617693329
 40
0.7309851994
 40
0.8261866311
 40
0.8695262767
 40
0.9119007985
 40
1.0
 40
1.0
 40
1.0
 40
1.0
 10
308.0
 20
140.5845919358
 30
0.0
 10
307.7934578863
 20
140.5845919358
 30
0.0
 10
307.3881941333
 20
140.6008835804
 30
0.0
 10
306.804093557
 20
140.6745493727
 30
0.0
 10
306.2739202083
 20
140.7973546609
 30
0.0
 10
305.8213757037
 20
140.9691242967
 30
0.0
 10
305.4658096667
 20
141.1888607883
 30
0.0
 10
305.258912451
 20
141.4239812289
 30
0.0
 10
305.1741447182
 20
141.6285501488
 30
0.0
 10
305.1398763606
 20
141.8383795442
 30
0.0
 10
305.1725340292
 20
141.9999392313
 30
0.0
 10
305.2122882363
 20
142.0991801733
 30
0.0
  0
SPLINE
  5
32B
100
AcDbEntity
  8
1
100
AcDbSpline
 62
6
  6
CONTINUOUS
 70
0
 71
3
 72
22
 73
18
 74
0
 42
0.0000001
 43
0.0000001
 44
0.0000000001
 40
0.0
 40
0.0
 40
0.0
 40
0.0
 40
0.1557164484
 40
0.3114609128
 40
0.4670006089
 40
0.6199599064
 40
0.6929014282
 40
0.7607224954
 40
0.8209757769
 40
0.8715422283
 40
0.9113111888
 40
0.9274254745
 40
0.9416221159
 40
0.9548102113
 40
0.9682277141
 40
0.9830264019
 40
1.0
 40
1.0
 40
1.0
 40
1.0
 10
315.0
 20
179.4154080642
 30
0.0
 10
315.3171561073
 20
179.4154080642
 30
0.0
 10
315.9533038848
 20
179.3535529467
 30
0.0
 10
316.8689900958
 20
179.0724378328
 30
0.0
 10
317.6981456223
 20
178.6012062374
 30
0.0
 10
318.2706094645
 20
178.0634287341
 30
0.0
 10
318.6236395986
 20
177.5788441962
 30
0.0
 10
318.8230142757
 20
177.2200539194
 30
0.0
 10
318.9586262239
 20
176.8811426736
 30
0.0
 10
319.0317631264
 20
176.5824601735
 30
0.0
 10
319.0436294197
 20
176.3631045119
 30
0.0
 10
319.0142016193
 20
176.2225244744
 30
0.0
 10
318.9762527131
 20
176.1413063191
 30
0.0
 10
318.9196197585
 20
176.078632278
 30
0.0
 10
318.8453420227
 20
176.0361198265
 30
0.0
 10
318.7554169569
 20
176.0130411518
 30
0.0
 10
318.6905107155
 20
176.0093052338
 30
0.0
 10
318.655939695
 20
176.0093461152
 30
0.0
  0
SPLINE
  5
32C
100
AcDbEntity
  8
1
100
AcDbSpline
 62
6
  6
CONTINUOUS
 70
0
 71
3
 72
25
 73
21
 74
0
 42
0.0000001
 43
0.0000001
 44
0.0000000001
 40
0.0
 40
0.0
 40
0.0
 40
0.0
 40
0.066557954
 40
0.1318571234
 40
0.1946233711
 40
0.2544487629
 40
0.3122877789
 40
0.3414251773
 40
0.3712698953
 40
0.4339234038
 40
0.4999976828
 40
0.5660721261
 40
0.6287259481
 40
0.6585711627
 40
0.6877086225
 40
0.7455487213
 40
0.8053750436
 40
0.8681421178
 40
0.9334419912
 40
1.0
 40
1.0
 40
1.0
 40
1.0
 10
315.0
 20
162.7772316618
 30
0.0
 10
315.2487274921
 20
162.7772316618
 30
0.0
 10
315.7416243569
 20
162.7635618738
 30
0.0
 10
316.4663706466
 20
162.694364193
 30
0.0
 10
317.1569729114
 20
162.558399022
 30
0.0
 10
317.7939474358
 20
162.3245016432
 30
0.0
 10
318.2527607016
 20
162.0085028431
 30
0.0
 10
318.5443409423
 20
161.6811784124
 30
0.0
 10
318.7896050396
 20
161.2963271115
 30
0.0
 10
318.9882768862
 20
160.7294177132
 30
0.0
 10
319.0620303205
 20
160.0000265427
 30
0.0
 10
318.9882892088
 20
159.2706305
 30
0.0
 10
318.7896168075
 20
158.7037209403
 30
0.0
 10
318.5443750732
 20
158.3188503091
 30
0.0
 10
318.2527784402
 20
157.9915319558
 30
0.0
 10
317.7939779215
 20
157.6755053776
 30
0.0
 10
317.1569897358
 20
157.4416051005
 30
0.0
 10
316.4663798896
 20
157.3056360054
 30
0.0
 10
315.7416273273
 20
157.2364376736
 30
0.0
 10
315.2487276969
 20
157.2227683382
 30
0.0
 10
315.0
 20
157.2227683382
 30
0.0
  0
SPLINE
  5
32D
100
AcDbEntity
  8
1
100
AcDbSpline
 62
6
  6
CONTINUOUS
 70
0
 71
3
 72
16
 73
12
 74
0
 42
0.0000001
 43
0.0000001
 44
0.0000000001
 40
0.0
 40
0.0
 40
0.0
 40
0.0
 40
0.0881213387
 40
0.1304987738
 40
0.1738363782
 40
0.2690252079
 40
0.3823040539
 40
0.5154922528
 40
0.6661958025
 40
0.8297868077
 40
1.0
 40
1.0
 40
1.0
 40
1.0
 10
305.2125186712
 20
177.9002456794
 30
0.0
 10
305.1726803931
 20
177.9995012395
 30
0.0
 10
305.1398875603
 20
178.1610934368
 30
0.0
 10
305.1740166153
 20
178.3710115966
 30
0.0
 10
305.2586666275
 20
178.5756560881
 30
0.0
 10
305.4654825699
 20
178.8108853459
 30
0.0
 10
305.8210305173
 20
179.0307164758
 30
0.0
 10
306.2736100679
 20
179.2025593863
 30
0.0
 10
306.8038607552
 20
179.3254128506
 30
0.0
 10
307.3880698714
 20
179.3991111106
 30
0.0
 10
307.793413707
 20
179.4154080642
 30
0.0
 10
308.0
 20
179.4154080642
 30
0.0
  0
SPLINE
  5
32E
100
AcDbEntity
  8
1
100
AcDbSpline
 62
6
  6
CONTINUOUS
 70
0
 71
3
 72
22
 73
18
 74
0
 42
0.0000001
 43
0.0000001
 44
0.0000000001
 40
0.0
 40
0.0
 40
0.0
 40
0.0
 40
0.016972226
 40
0.031769899
 40
0.045186815
 40
0.058374865
 40
0.0725717957
 40
0.0886864471
 40
0.1284564902
 40
0.1790236478
 40
0.2392768045
 40
0.307097861
 40
0.3800389265
 40
0.53299917
 40
0.6885398561
 40
0.844284756
 40
1.0
 40
1.0
 40
1.0
 40
1.0
 10
318.6559907958
 20
143.9906539041
 30
0.0
 10
318.6905587359
 20
143.9906924642
 30
0.0
 10
318.7554592729
 20
143.9869517596
 30
0.0
 10
318.8453759546
 20
143.963867491
 30
0.0
 10
318.9196453574
 20
143.9213482436
 30
0.0
 10
318.9762692353
 20
143.8586680654
 30
0.0
 10
319.0142105779
 20
143.7774461701
 30
0.0
 10
319.0436304114
 20
143.6368623032
 30
0.0
 10
319.0317575423
 20
143.4175049353
 30
0.0
 10
318.9586149147
 20
143.1188228748
 30
0.0
 10
318.8229981404
 20
142.7799159415
 30
0.0
 10
318.6236268602
 20
142.4211288591
 30
0.0
 10
318.270586084
 20
141.9365569355
 30
0.0
 10
317.6981277675
 20
141.3987806814
 30
0.0
 10
316.8689717066
 20
140.9275543805
 30
0.0
 10
315.9532919163
 20
140.6464451435
 30
0.0
 10
315.3171510091
 20
140.5845919358
 30
0.0
 10
315.0
 20
140.5845919358
 30
0.0
  0
SPLINE
  5
32F
100
AcDbEntity
  8
1
100
AcDbSpline
 62
6
  6
CONTINUOUS
 70
0
 71
3
 72
17
 73
13
 74
0
 42
0.0000001
 43
0.0000001
 44
0.0000000001
 40
0.0
 40
0.0
 40
0.0
 40
0.0
 40
0.0259771912
 40
0.0545597879
 40
0.0876874327
 40
0.1264754783
 40
0.2226605515
 40
0.3436453265
 40
0.4866906061
 40
0.6474617659
 40
0.820562314
 40
1.0
 40
1.0
 40
1.0
 40
1.0
 10
193.0
 20
173.9025
 30
0.0
 10
193.0
 20
173.9119183594
 30
0.0
 10
193.0036324626
 20
173.9318232767
 30
0.0
 10
193.0190960561
 20
173.9600476451
 30
0.0
 10
193.0438105736
 20
173.9871596699
 30
0.0
 10
193.0922147734
 20
174.0245449108
 30
0.0
 10
193.1758949619
 20
174.0662515621
 30
0.0
 10
193.2999505291
 20
174.1076546477
 30
0.0
 10
193.4503882148
 20
174.1416893512
 30
0.0
 10
193.6215416744
 20
174.1671258661
 30
0.0
 10
193.8070951918
 20
174.1828066505
 30
0.0
 10
193.9349426086
 20
174.1863369961
 30
0.0
 10
194.0
 20
174.186296887
 30
0.0
  0
SPLINE
  5
330
100
AcDbEntity
  8
1
100
AcDbSpline
 62
6
  6
CONTINUOUS
 70
0
 71
3
 72
15
 73
11
 74
0
 42
0.0000001
 43
0.0000001
 44
0.0000000001
 40
0.0
 40
0.0
 40
0.0
 40
0.0
 40
0.124997355
 40
0.2500020596
 40
0.3750004484
 40
0.5
 40
0.6249995516
 40
0.7499979404
 40
0.875002645
 40
1.0
 40
1.0
 40
1.0
 40
1.0
 10
193.0
 20
154.8482405918
 30
0.0
 10
193.0
 20
155.2775944918
 30
0.0
 10
192.988759322
 20
156.1363138891
 30
0.0
 10
192.9590968474
 20
157.4240491946
 30
0.0
 10
192.9335647504
 20
158.711910432
 30
0.0
 10
192.9239794763
 20
160.0
 30
0.0
 10
192.9335647503
 20
161.288089568
 30
0.0
 10
192.9590968477
 20
162.5759508054
 30
0.0
 10
192.9887593216
 20
163.8636861109
 30
0.0
 10
193.0
 20
164.7224055082
 30
0.0
 10
193.0
 20
165.1517594082
 30
0.0
  0
SPLINE
  5
331
100
AcDbEntity
  8
1
100
AcDbSpline
 62
6
  6
CONTINUOUS
 70
0
 71
3
 72
19
 73
15
 74
0
 42
0.0000001
 43
0.0000001
 44
0.0000000001
 40
0.0
 40
0.0
 40
0.0
 40
0.0
 40
0.0629569901
 40
0.1259029347
 40
0.1886660121
 40
0.2512550471
 40
0.3758347358
 40
0.500001491
 40
0.6241570341
 40
0.7487309245
 40
0.8113207968
 40
0.8740889782
 40
0.9370400436
 40
1.0
 40
1.0
 40
1.0
 40
1.0
 10
220.7254698841
 20
170.4724793962
 30
0.0
 10
221.0853119861
 20
170.1370209411
 30
0.0
 10
221.7701763555
 20
169.4277186599
 30
0.0
 10
222.6789608492
 20
168.2636726973
 30
0.0
 10
223.4608009415
 20
167.013924525
 30
0.0
 10
224.3221962183
 20
165.2580086177
 30
0.0
 10
225.0535723721
 20
162.9185545996
 30
0.0
 10
225.3480406572
 20
160.0000548136
 30
0.0
 10
225.0535899348
 20
157.0816037396
 30
0.0
 10
224.3222987916
 20
154.7422581943
 30
0.0
 10
223.4609397124
 20
152.9863224453
 30
0.0
 10
222.6790726625
 20
151.7364902508
 30
0.0
 10
221.7702557975
 20
150.572334838
 30
0.0
 10
221.0853162996
 20
149.8630183111
 30
0.0
 10
220.7254688341
 20
149.5275316175
 30
0.0
  0
SPLINE
  5
332
100
AcDbEntity
  8
1
100
AcDbSpline
 62
6
  6
CONTINUOUS
 70
0
 71
3
 72
17
 73
13
 74
0
 42
0.0000001
 43
0.0000001
 44
0.0000000001
 40
0.0
 40
0.0
 40
0.0
 40
0.0
 40
0.179437686
 40
0.3525382341
 40
0.5133093939
 40
0.6563546735
 40
0.7773394485
 40
0.8735245217
 40
0.9123125673
 40
0.9454402121
 40
0.9740228088
 40
1.0
 40
1.0
 40
1.0
 40
1.0
 10
194.0
 20
145.813703113
 30
0.0
 10
193.9349426086
 20
145.8136630039
 30
0.0
 10
193.8070951918
 20
145.8171933495
 30
0.0
 10
193.6215416744
 20
145.8328741339
 30
0.0
 10
193.4503882148
 20
145.8583106488
 30
0.0
 10
193.2999505291
 20
145.8923453523
 30
0.0
 10
193.1758949619
 20
145.9337484379
 30
0.0
 10
193.0922147734
 20
145.9754550892
 30
0.0
 10
193.0438105736
 20
146.0128403301
 30
0.0
 10
193.0190960561
 20
146.0399523549
 30
0.0
 10
193.0036324626
 20
146.0681767233
 30
0.0
 10
193.0
 20
146.0880816406
 30
0.0
 10
193.0
 20
146.0975
 30
0.0
  0
ENDSEC
  0
SECTION
  2
OBJECTS
  0
DICTIONARY
  5
C
100
AcDbDictionary
280
0
281
1
  3
ACAD_GROUP
350
D
  3
ACAD_MLINESTYLE
350
17
  3
ACAD_LAYOUT
350
1A
  3
ACAD_PLOTSETTINGS
350
19
  3
ACAD_PLOTSTYLENAME
350
E
  0
DICTIONARY
  5
D
102
{ACAD_REACTORS
330
C
102
}
100
AcDbDictionary
280
0
281
1
  0
ACDBDICTIONARYWDFLT
  5
E
102
{ACAD_REACTORS
330
C
102
}
100
AcDbDictionary
281
1
  3
Normal
350
F
100
AcDbDictionaryWithDefault
340
F
  0
DICTIONARY
  5
17
102
{ACAD_REACTORS
330
C
102
}
100
AcDbDictionary
280
0
281
1
  3
Standard
350
18
  0
DICTIONARY
  5
19
102
{ACAD_REACTORS
330
C
102
}
100
AcDbDictionary
281
1
  0
DICTIONARY
  5
1A
102
{ACAD_REACTORS
330
C
102
}
100
AcDbDictionary
281
1
  3
Model
350
333
  3
Layout1
350
334
  0
ACDBPLACEHOLDER
  5
F
102
{ACAD_REACTORS
330
E
102
}
  0
MLINESTYLE
  5
18
102
{ACAD_REACTORS
330
17
102
}
100
AcDbMlineStyle
  2
STANDARD
 70
0
  3

 62
256
 51
90.0
 52
90.0
 71
2
 49
0.5
 62
256
  6
BYLAYER
 49
-0.5
 62
256
  6
BYLAYER
  0
LAYOUT
  5
333
102
{ACAD_REACTORS
330
1A
102
}
100
AcDbPlotSettings
  1

  2
none_device
  4
ISO_A3_(420.00_x_297.00_MM)
  6

 40
0.0
 41
0.0
 42
0.0
 43
0.0
 44
420.0
 45
297.0
 46
0.0
 47
0.0
 48
0.0
 49
0.0
140
0.0
141
0.0
142
1.0
143
1.0
 70
1024
 72
1
 73
0
 74
0
  7

 75
0
147
1.0
148
0.0
149
0.0
100
AcDbLayout
  1
Model
 70
0
 71
0
 10
0.0
 20
0.0
 11
420.0
 21
297.0
 12
0.0
 22
0.0
 32
0.0
 14
0.0
 24
0.0
 34
0.0
 15
0.0
 25
0.0
 35
0.0
146
0.0
 13
0.0
 23
0.0
 33
0.0
 16
1.0
 26
0.0
 36
0.0
 17
0.0
 27
1.0
 37
0.0
 76
0
330
239
345
0
346
0
  0
LAYOUT
  5
334
102
{ACAD_REACTORS
330
1A
102
}
100
AcDbPlotSettings
  1

  2
none_device
  4
ISO_A3_(420.00_x_297.00_MM)
  6

 40
0.0
 41
0.0
 42
0.0
 43
0.0
 44
420.0
 45
297.0
 46
0.0
 47
0.0
 48
0.0
 49
0.0
140
0.0
141
0.0
142
1.0
143
1.0
 70
0
 72
1
 73
0
 74
0
  7

 75
0
147
1.0
148
0.0
149
0.0
100
AcDbLayout
  1
Layout1
 70
0
 71
1
 10
0.0
 20
0.0
 11
420.0
 21
297.0
 12
0.0
 22
0.0
 32
0.0
 14
0.0
 24
0.0
 34
0.0
 15
0.0
 25
0.0
 35
0.0
146
0.0
 13
0.0
 23
0.0
 33
0.0
 16
1.0
 26
0.0
 36
0.0
 17
0.0
 27
1.0
 37
0.0
 76
0
330
23A
345
0
346
0
  0
ENDSEC
  0
EOF
