999
DXF file: 200_50-520-32-3-bmg.dxf
999
Pro/ENGINEER 2010430 by Parametric Technology Corporation
  0
SECTION
  2
HEADER
  9
$ACADVER
  1
AC1021
  9
$DWGCODEPAGE
  3
ANSI_1252
  9
$EXTMAX
 10
420.0
 20
297.0
 30
0.0
  9
$EXTMIN
 10
0.0
 20
0.0
 30
0.0
  9
$LIMMIN
 10
0.0
 20
0.0
  9
$LIMMAX
 10
420.0
 20
297.0
  9
$VIEWCTR
 10
210.0
 20
148.5
  9
$VIEWSIZE
 40
297.0
  9
$CLAYER
  8
0
  9
$LTSCALE
 40
23.1
  9
$CELTYPE
  6
BYLAYER
  9
$DIMSCALE
 40
1.0
  9
$DIMASZ
 40
3.5
  9
$DIMEXO
 40
2.625
  9
$DIMDLI
 40
15.96
  9
$DIMEXE
 40
7.56
  9
$DIMCEN
 40
3.78
  9
$DIMLFAC
 40
1.0
  9
$DIMBLK
  1
_FILLED
  9
$DIMTXT
 40
3.5
  9
$DIMTOL
 70
0
  9
$DIMLIM
 70
0
  9
$DIMTFAC
 40
1.0
  9
$PDMODE
 70
3
  9
$PDSIZE
 40
0.3125
  9
$HANDSEED
  5
32E
  9
$TILEMODE
 70
1
  9
$MEASUREMENT
 70
1
  9
$INSUNITS
 70
4
  0
ENDSEC
  0
SECTION
  2
CLASSES
  0
CLASS
  1
ACDBDICTIONARYWDFLT
  2
AcDbDictionaryWithDefault
  3
AutoCAD 2000
 90
0
 91
1
280
0
281
0
  0
CLASS
  1
ACDBPLACEHOLDER
  2
AcDbPlaceHolder
  3
AutoCAD 2000
 90
0
 91
1
280
0
281
0
  0
CLASS
  1
LAYOUT
  2
AcDbLayout
  3
AutoCAD 2000
 90
0
 91
0
280
0
281
0
  0
ENDSEC
  0
SECTION
  2
TABLES
  0
TABLE
  2
VPORT
  5
8
100
AcDbSymbolTable
 70
2
  0
VPORT
  5
1F4
100
AcDbSymbolTableRecord
100
AcDbViewportTableRecord
  2
*ACTIVE
 70
0
 10
0.0
 20
0.0
 11
1.0
 21
1.0
 12
210.0
 22
148.5
 13
0.0
 23
0.0
 14
1.0
 24
1.0
 15
0.0
 25
0.0
 16
0.0
 26
0.0
 36
1.0
 17
0.0
 27
0.0
 37
0.0
 40
297.0
 41
1.4141414141
 42
50.0
 43
0.0
 44
0.0
 50
0.0
 51
0.0
 71
0
 72
100
 73
1
 74
1
 75
0
 76
0
 77
0
 78
0
  0
ENDTAB
  0
TABLE
  2
LTYPE
  5
5
100
AcDbSymbolTable
 70
6
  0
LTYPE
  5
14
100
AcDbSymbolTableRecord
100
AcDbLinetypeTableRecord
  2
BYBLOCK
 70
0
  3

 72
65
 73
0
 40
0.0
  0
LTYPE
  5
15
100
AcDbSymbolTableRecord
100
AcDbLinetypeTableRecord
  2
BYLAYER
 70
0
  3

 72
65
 73
0
 40
0.0
  0
LTYPE
  5
16
100
AcDbSymbolTableRecord
100
AcDbLinetypeTableRecord
  2
CONTINUOUS
 70
64
  3
Solid line
 72
65
 73
0
 40
0.0
  0
LTYPE
  5
1F5
100
AcDbSymbolTableRecord
100
AcDbLinetypeTableRecord
  2
CENTER
 70
64
  3
____ _ ____ _ ____ _ ____ _ ____ _ ____ _ ____
 72
65
 73
4
 40
0.6
 49
0.375
 74
0
 49
-0.075
 74
0
 49
0.075
 74
0
 49
-0.075
 74
0
  0
LTYPE
  5
1F6
100
AcDbSymbolTableRecord
100
AcDbLinetypeTableRecord
  2
HIDDEN
 70
64
  3
- - - - - - - - - - - - - - - - - - - -
 72
65
 73
2
 40
0.2
 49
0.1
 74
0
 49
-0.1
 74
0
  0
LTYPE
  5
1F7
100
AcDbSymbolTableRecord
100
AcDbLinetypeTableRecord
  2
PHANTOM
 70
64
  3
_____ _ _ _____ _ _ _____ _ _ _____
 72
65
 73
6
 40
0.8
 49
0.45
 74
0
 49
-0.05
 74
0
 49
0.1
 74
0
 49
-0.05
 74
0
 49
0.1
 74
0
 49
-0.05
 74
0
  0
LTYPE
  5
1F8
100
AcDbSymbolTableRecord
100
AcDbLinetypeTableRecord
  2
DOT
 70
64
  3
. . . . . . . . . . . . . . . . . . . .
 72
65
 73
2
 40
0.2
 49
0.1
 74
0
 49
-0.1
 74
0
  0
LTYPE
  5
1F9
100
AcDbSymbolTableRecord
100
AcDbLinetypeTableRecord
  2
DASHED
 70
64
  3
- - - - - - - - - - - - - - - - - - - -
 72
65
 73
2
 40
0.2
 49
0.1
 74
0
 49
-0.1
 74
0
  0
ENDTAB
  0
TABLE
  2
LAYER
  5
2
100
AcDbSymbolTable
 70
36
  0
LAYER
  5
10
100
AcDbSymbolTableRecord
100
AcDbLayerTableRecord
  2
0
 70
0
 62
7
  6
CONTINUOUS
370
-3
390
F
  0
LAYER
  5
1FA
100
AcDbSymbolTableRecord
100
AcDbLayerTableRecord
  2
DEFAULT_1
 70
0
 62
7
  6
CENTER
370
-3
390
F
  0
LAYER
  5
1FB
100
AcDbSymbolTableRecord
100
AcDbLayerTableRecord
  2
DEFAULT_2
 70
0
 62
8
  6
HIDDEN
370
-3
390
F
  0
LAYER
  5
1FC
100
AcDbSymbolTableRecord
100
AcDbLayerTableRecord
  2
DEFAULT_3
 70
0
 62
7
  6
PHANTOM
370
-3
390
F
  0
LAYER
  5
1FD
100
AcDbSymbolTableRecord
100
AcDbLayerTableRecord
  2
1
 70
0
 62
7
  6
CONTINUOUS
370
-3
390
F
  0
LAYER
  5
1FE
100
AcDbSymbolTableRecord
100
AcDbLayerTableRecord
  2
2
 70
0
 62
7
  6
CONTINUOUS
370
-3
390
F
  0
LAYER
  5
1FF
100
AcDbSymbolTableRecord
100
AcDbLayerTableRecord
  2
4
 70
0
 62
7
  6
CONTINUOUS
370
-3
390
F
  0
LAYER
  5
200
100
AcDbSymbolTableRecord
100
AcDbLayerTableRecord
  2
5
 70
0
 62
7
  6
CONTINUOUS
370
-3
390
F
  0
LAYER
  5
201
100
AcDbSymbolTableRecord
100
AcDbLayerTableRecord
  2
6
 70
0
 62
7
  6
CONTINUOUS
370
-3
390
F
  0
LAYER
  5
202
100
AcDbSymbolTableRecord
100
AcDbLayerTableRecord
  2
ACHSEN
 70
0
 62
7
  6
CONTINUOUS
370
-3
390
F
  0
LAYER
  5
203
100
AcDbSymbolTableRecord
100
AcDbLayerTableRecord
  2
ANALYSEN
 70
0
 62
7
  6
CONTINUOUS
370
-3
390
F
  0
LAYER
  5
204
100
AcDbSymbolTableRecord
100
AcDbLayerTableRecord
  2
AUFMASS_EINFUEHRFASE
 70
0
 62
7
  6
CONTINUOUS
370
-3
390
F
  0
LAYER
  5
205
100
AcDbSymbolTableRecord
100
AcDbLayerTableRecord
  2
AUFMASS_WEICHBEARBEITUNG
 70
0
 62
7
  6
CONTINUOUS
370
-3
390
F
  0
LAYER
  5
206
100
AcDbSymbolTableRecord
100
AcDbLayerTableRecord
  2
AUFMASS_WEICHBEARBEITUNG_FERTIG
 70
0
 62
7
  6
CONTINUOUS
370
-3
390
F
  0
LAYER
  5
207
100
AcDbSymbolTableRecord
100
AcDbLayerTableRecord
  2
AUFMASS_WEICHBE_INNENKONTUR
 70
0
 62
7
  6
CONTINUOUS
370
-3
390
F
  0
LAYER
  5
208
100
AcDbSymbolTableRecord
100
AcDbLayerTableRecord
  2
AUSFORMSCHRAEGEN
 70
0
 62
7
  6
CONTINUOUS
370
-3
390
F
  0
LAYER
  5
209
100
AcDbSymbolTableRecord
100
AcDbLayerTableRecord
  2
AUSSENKONTUR
 70
0
 62
7
  6
CONTINUOUS
370
-3
390
F
  0
LAYER
  5
20A
100
AcDbSymbolTableRecord
100
AcDbLayerTableRecord
  2
BEZUG
 70
0
 62
7
  6
CONTINUOUS
370
-3
390
F
  0
LAYER
  5
20B
100
AcDbSymbolTableRecord
100
AcDbLayerTableRecord
  2
BEZUGSACHSEN
 70
0
 62
7
  6
CONTINUOUS
370
-3
390
F
  0
LAYER
  5
20C
100
AcDbSymbolTableRecord
100
AcDbLayerTableRecord
  2
BEZUGSACHSENKENNZEICHEN
 70
0
 62
7
  6
CONTINUOUS
370
-3
390
F
  0
LAYER
  5
20D
100
AcDbSymbolTableRecord
100
AcDbLayerTableRecord
  2
BEZUGSEBENEN
 70
0
 62
7
  6
CONTINUOUS
370
-3
390
F
  0
LAYER
  5
20E
100
AcDbSymbolTableRecord
100
AcDbLayerTableRecord
  2
BEZUGSEBENE_B
 70
0
 62
7
  6
CONTINUOUS
370
-3
390
F
  0
LAYER
  5
20F
100
AcDbSymbolTableRecord
100
AcDbLayerTableRecord
  2
BEZUGSPUNKTE
 70
0
 62
7
  6
CONTINUOUS
370
-3
390
F
  0
LAYER
  5
210
100
AcDbSymbolTableRecord
100
AcDbLayerTableRecord
  2
BG_STARTBEZUEGE
 70
0
 62
7
  6
CONTINUOUS
370
-3
390
F
  0
LAYER
  5
211
100
AcDbSymbolTableRecord
100
AcDbLayerTableRecord
  2
BOHRUNGEN
 70
0
 62
7
  6
CONTINUOUS
370
-3
390
F
  0
LAYER
  5
212
100
AcDbSymbolTableRecord
100
AcDbLayerTableRecord
  2
EBENEN
 70
0
 62
7
  6
CONTINUOUS
370
-3
390
F
  0
LAYER
  5
213
100
AcDbSymbolTableRecord
100
AcDbLayerTableRecord
  2
FASEN
 70
0
 62
7
  6
CONTINUOUS
370
-3
390
F
  0
LAYER
  5
214
100
AcDbSymbolTableRecord
100
AcDbLayerTableRecord
  2
FLAECHEN
 70
0
 62
7
  6
CONTINUOUS
370
-3
390
F
  0
LAYER
  5
215
100
AcDbSymbolTableRecord
100
AcDbLayerTableRecord
  2
FORM_LAGE_TOLERANZEN
 70
0
 62
7
  6
CONTINUOUS
370
-3
390
F
  0
LAYER
  5
216
100
AcDbSymbolTableRecord
100
AcDbLayerTableRecord
  2
GEOMTOL
 70
0
 62
7
  6
CONTINUOUS
370
-3
390
F
  0
LAYER
  5
217
100
AcDbSymbolTableRecord
100
AcDbLayerTableRecord
  2
GEWINDE
 70
0
 62
7
  6
CONTINUOUS
370
-3
390
F
  0
LAYER
  5
218
100
AcDbSymbolTableRecord
100
AcDbLayerTableRecord
  2
HILFEN
 70
0
 62
7
  6
CONTINUOUS
370
-3
390
F
  0
LAYER
  5
219
100
AcDbSymbolTableRecord
100
AcDbLayerTableRecord
  2
INNENKONTUR
 70
0
 62
7
  6
CONTINUOUS
370
-3
390
F
  0
LAYER
  5
21A
100
AcDbSymbolTableRecord
100
AcDbLayerTableRecord
  2
KOORDINATENSYSTEME
 70
0
 62
7
  6
CONTINUOUS
370
-3
390
F
  0
LAYER
  5
21B
100
AcDbSymbolTableRecord
100
AcDbLayerTableRecord
  2
KOORDSYS
 70
0
 62
7
  6
CONTINUOUS
370
-3
390
F
  0
LAYER
  5
21C
100
AcDbSymbolTableRecord
100
AcDbLayerTableRecord
  2
KURVEN
 70
0
 62
7
  6
CONTINUOUS
370
-3
390
F
  0
LAYER
  5
21D
100
AcDbSymbolTableRecord
100
AcDbLayerTableRecord
  2
KURVE_FUER_GTOL_DETAILANSICHT
 70
0
 62
7
  6
CONTINUOUS
370
-3
390
F
  0
LAYER
  5
21E
100
AcDbSymbolTableRecord
100
AcDbLayerTableRecord
  2
KURVE_GAUGE2_POLIGON_INNENEINST
 70
0
 62
7
  6
CONTINUOUS
370
-3
390
F
  0
LAYER
  5
21F
100
AcDbSymbolTableRecord
100
AcDbLayerTableRecord
  2
KURVE_PHANTOM1_GAUGE_PIN_1
 70
0
 62
7
  6
CONTINUOUS
370
-3
390
F
  0
LAYER
  5
220
100
AcDbSymbolTableRecord
100
AcDbLayerTableRecord
  2
KURVE_PHANTOM2_GAUGE_PIN1
 70
0
 62
7
  6
CONTINUOUS
370
-3
390
F
  0
LAYER
  5
221
100
AcDbSymbolTableRecord
100
AcDbLayerTableRecord
  2
KURVE_POLIGON_BEMASUNG
 70
0
 62
7
  6
CONTINUOUS
370
-3
390
F
  0
LAYER
  5
222
100
AcDbSymbolTableRecord
100
AcDbLayerTableRecord
  2
NOCUT
 70
0
 62
7
  6
CONTINUOUS
370
-3
390
F
  0
LAYER
  5
223
100
AcDbSymbolTableRecord
100
AcDbLayerTableRecord
  2
PLATZIERUNG
 70
0
 62
7
  6
CONTINUOUS
370
-3
390
F
  0
LAYER
  5
224
100
AcDbSymbolTableRecord
100
AcDbLayerTableRecord
  2
PUNKTE
 70
0
 62
7
  6
CONTINUOUS
370
-3
390
F
  0
LAYER
  5
225
100
AcDbSymbolTableRecord
100
AcDbLayerTableRecord
  2
RUNDUNGEN
 70
0
 62
7
  6
CONTINUOUS
370
-3
390
F
  0
LAYER
  5
226
100
AcDbSymbolTableRecord
100
AcDbLayerTableRecord
  2
SK1
 70
0
 62
7
  6
CONTINUOUS
370
-3
390
F
  0
LAYER
  5
227
100
AcDbSymbolTableRecord
100
AcDbLayerTableRecord
  2
SK2
 70
0
 62
7
  6
CONTINUOUS
370
-3
390
F
  0
LAYER
  5
228
100
AcDbSymbolTableRecord
100
AcDbLayerTableRecord
  2
SK4
 70
0
 62
7
  6
CONTINUOUS
370
-3
390
F
  0
LAYER
  5
229
100
AcDbSymbolTableRecord
100
AcDbLayerTableRecord
  2
SKELETTE
 70
0
 62
7
  6
CONTINUOUS
370
-3
390
F
  0
LAYER
  5
22A
100
AcDbSymbolTableRecord
100
AcDbLayerTableRecord
  2
S_ACHSEN
 70
0
 62
7
  6
CONTINUOUS
370
-3
390
F
  0
LAYER
  5
22B
100
AcDbSymbolTableRecord
100
AcDbLayerTableRecord
  2
S_EBENEN
 70
0
 62
7
  6
CONTINUOUS
370
-3
390
F
  0
LAYER
  5
22C
100
AcDbSymbolTableRecord
100
AcDbLayerTableRecord
  2
S_KOORDSYS
 70
0
 62
7
  6
CONTINUOUS
370
-3
390
F
  0
LAYER
  5
22D
100
AcDbSymbolTableRecord
100
AcDbLayerTableRecord
  2
TEIL_STARTBEZUEGE
 70
0
 62
7
  6
CONTINUOUS
370
-3
390
F
  0
LAYER
  5
22E
100
AcDbSymbolTableRecord
100
AcDbLayerTableRecord
  2
TOL_BEZUEGE
 70
0
 62
7
  6
CONTINUOUS
370
-3
390
F
  0
LAYER
  5
22F
100
AcDbSymbolTableRecord
100
AcDbLayerTableRecord
  2
VERBFLAECHE
 70
0
 62
7
  6
CONTINUOUS
370
-3
390
F
  0
LAYER
  5
230
100
AcDbSymbolTableRecord
100
AcDbLayerTableRecord
  2
VERERBUNG
 70
0
 62
7
  6
CONTINUOUS
370
-3
390
F
  0
LAYER
  5
231
100
AcDbSymbolTableRecord
100
AcDbLayerTableRecord
  2
VERPACKUNG
 70
0
 62
7
  6
CONTINUOUS
370
-3
390
F
  0
LAYER
  5
232
100
AcDbSymbolTableRecord
100
AcDbLayerTableRecord
  2
VOLGEOM
 70
0
 62
7
  6
CONTINUOUS
370
-3
390
F
  0
LAYER
  5
233
100
AcDbSymbolTableRecord
100
AcDbLayerTableRecord
  2
VOLUMEN
 70
0
 62
7
  6
CONTINUOUS
370
-3
390
F
  0
LAYER
  5
234
100
AcDbSymbolTableRecord
100
AcDbLayerTableRecord
  2
XSEC_DATUMS
 70
0
 62
7
  6
CONTINUOUS
370
-3
390
F
  0
LAYER
  5
235
100
AcDbSymbolTableRecord
100
AcDbLayerTableRecord
  2
ZEICHNUNG
 70
0
 62
7
  6
CONTINUOUS
370
-3
390
F
  0
ENDTAB
  0
TABLE
  2
STYLE
  5
3
100
AcDbSymbolTable
 70
1
  0
STYLE
  5
11
100
AcDbSymbolTableRecord
100
AcDbTextStyleTableRecord
  2
STANDARD
 70
0
 40
0.0
 41
0.7
 50
0.0
 71
0
 42
0.2
  3
txt
  4

  0
STYLE
  5
236
100
AcDbSymbolTableRecord
100
AcDbTextStyleTableRecord
  2
TEXTSTYLE_1
 70
0
 40
0.0
 41
0.8
 50
0.0
 71
0
 42
0.2
  3
gdt
  4

  0
STYLE
  5
237
100
AcDbSymbolTableRecord
100
AcDbTextStyleTableRecord
  2
TEXTSTYLE_2
 70
0
 40
0.0
 41
0.7
 50
0.0
 71
0
 42
0.2
  3
gdt
  4

  0
ENDTAB
  0
TABLE
  2
VIEW
  5
6
100
AcDbSymbolTable
 70
0
  0
ENDTAB
  0
TABLE
  2
UCS
  5
7
100
AcDbSymbolTable
 70
0
  0
ENDTAB
  0
TABLE
  2
APPID
  5
9
100
AcDbSymbolTable
 70
1
  0
APPID
  5
238
100
AcDbSymbolTableRecord
100
AcDbRegAppTableRecord
  2
ACAD
 70
0
  0
ENDTAB
  0
TABLE
  2
BLOCK_RECORD
  5
1
100
AcDbSymbolTable
 70
0
  0
BLOCK_RECORD
  5
239
100
AcDbSymbolTableRecord
100
AcDbBlockTableRecord
  2
*Model_Space
  0
BLOCK_RECORD
  5
23A
100
AcDbSymbolTableRecord
100
AcDbBlockTableRecord
  2
*Paper_Space
  0
BLOCK_RECORD
  5
23B
100
AcDbSymbolTableRecord
100
AcDbBlockTableRecord
  2
_FILLED
  0
BLOCK_RECORD
  5
23C
100
AcDbSymbolTableRecord
100
AcDbBlockTableRecord
  2
*D0
  0
BLOCK_RECORD
  5
23D
100
AcDbSymbolTableRecord
100
AcDbBlockTableRecord
  2
*D1
  0
BLOCK_RECORD
  5
23E
100
AcDbSymbolTableRecord
100
AcDbBlockTableRecord
  2
*D2
  0
BLOCK_RECORD
  5
23F
100
AcDbSymbolTableRecord
100
AcDbBlockTableRecord
  2
*D3
  0
BLOCK_RECORD
  5
240
100
AcDbSymbolTableRecord
100
AcDbBlockTableRecord
  2
*D4
  0
BLOCK_RECORD
  5
241
100
AcDbSymbolTableRecord
100
AcDbBlockTableRecord
  2
*D5
  0
BLOCK_RECORD
  5
242
100
AcDbSymbolTableRecord
100
AcDbBlockTableRecord
  2
*D6
  0
ENDTAB
  0
TABLE
  2
DIMSTYLE
  5
A
100
AcDbSymbolTable
 70
1
100
AcDbDimStyleTable
 71
0
  0
DIMSTYLE
105
243
100
AcDbSymbolTableRecord
100
AcDbDimStyleTableRecord
  2
STANDARD
 70
0
  3

  4

 40
1.0
 41
3.5
 42
0.0625
 43
0.38
 44
0.18
 45
0.0
 46
0.0
 47
0.005
 48
0.005
140
3.5
141
0.09
142
0.0
143
25.4
144
1.0
145
0.0
146
1.0
147
0.09
 71
0.0
 72
0.0
 73
0
 74
0
 75
0
 76
0
 77
1
 78
8
170
0
171
2
172
0
173
0
174
0
175
0
176
0
177
0
178
5
270
2
271
3
272
3
273
2
274
2
275
0
280
0
281
0
282
0
283
1
284
8
285
0
286
0
287
3
288
0
340
11
341
23B
342
23B
343
23B
344
23B
  0
DIMSTYLE
105
244
100
AcDbSymbolTableRecord
100
AcDbDimStyleTableRecord
  2
DIMSTYLE_1
 70
0
  3

  4

 40
1.0
 41
3.5
 42
0.0625
 43
0.38
 44
0.18
 45
0.0
 46
0.0
 47
0.0
 48
0.0
140
3.5
141
0.09
142
0.0
143
25.4
144
1.0
145
0.0
146
1.0
147
0.09
 71
0.0
 72
0.0
 73
0
 74
0
 75
0
 76
0
 77
1
 78
8
170
0
171
2
172
0
173
0
174
0
175
0
176
0
177
0
178
5
270
2
271
3
272
3
273
2
274
2
275
0
280
0
281
0
282
0
283
1
284
8
285
0
286
0
287
3
288
0
340
11
341
23B
342
23B
343
23B
344
23B
  0
DIMSTYLE
105
245
100
AcDbSymbolTableRecord
100
AcDbDimStyleTableRecord
  2
DIMSTYLE_2
 70
0
  3

  4

 40
1.0
 41
3.5
 42
0.0625
 43
0.38
 44
0.18
 45
0.0
 46
0.0
 47
0.0
 48
0.0
140
3.5
141
0.09
142
0.0
143
25.4
144
1.0
145
0.0
146
1.0
147
0.09
 71
0.0
 72
0.0
 73
0
 74
0
 75
0
 76
0
 77
1
 78
8
170
0
171
2
172
0
173
0
174
0
175
0
176
0
177
0
178
5
270
2
271
2
272
2
273
2
274
2
275
0
280
0
281
0
282
0
283
1
284
8
285
0
286
0
287
3
288
0
340
11
341
23B
342
23B
343
23B
344
23B
  0
ENDTAB
  0
ENDSEC
  0
SECTION
  2
BLOCKS
  0
BLOCK
  5
20
100
AcDbEntity
  8
0
100
AcDbBlockBegin
  2
*Model_Space
 70
0
 10
0.0
 20
0.0
 30
0.0
  3
*Model_Space
  1

  0
ENDBLK
  5
21
100
AcDbEntity
  8
0
100
AcDbBlockEnd
  0
BLOCK
  5
1C
100
AcDbEntity
  8
0
100
AcDbBlockBegin
  2
*Paper_Space
 70
0
 10
0.0
 20
0.0
 30
0.0
  3
*Paper_Space
  1

  0
ENDBLK
  5
1D
100
AcDbEntity
  8
0
100
AcDbBlockEnd
  0
BLOCK
  5
246
100
AcDbEntity
  8
0
100
AcDbBlockBegin
  2
_FILLED
 70
64
 10
0.0
 20
0.0
  3
_FILLED
  1

  0
SOLID
  5
247
100
AcDbEntity
  8
0
  6
BYBLOCK
 62
0
100
AcDbTrace
 10
0.0
 20
0.0
 11
-1.0
 21
0.125
 12
-1.0
 22
-0.125
 13
-1.0
 23
-0.125
  0
ENDBLK
  5
248
100
AcDbEntity
  8
0
  6
BYBLOCK
 62
0
100
AcDbBlockEnd
  0
BLOCK
  5
249
100
AcDbEntity
  8
0
100
AcDbBlockBegin
 62
2
  6
CONTINUOUS
  2
*D0
 70
65
 10
0.0
 20
0.0
  3
*D0
  1

  0
MTEXT
  5
24A
100
AcDbEntity
  8
0
100
AcDbMText
 62
5
  6
CONTINUOUS
  7
TEXTSTYLE_2
 71
2
 72
1
 10
322.735
 20
160.0
 30
0.0
 11
0.0
 21
1.0
 31
0.0
 44
0.9
  1
{\Fgdt;n}\Ftxt;84.95
 40
3.5
 41
17.4166666667
  0
LINE
  5
24B
100
AcDbEntity
  8
0
100
AcDbLine
 62
2
  6
CONTINUOUS
 10
228.0
 20
202.475
 11
328.61
 21
202.475
  0
LINE
  5
24C
100
AcDbEntity
  8
0
100
AcDbLine
 62
2
  6
CONTINUOUS
 10
228.0
 20
117.525
 11
328.61
 21
117.525
  0
LINE
  5
24D
100
AcDbEntity
  8
0
100
AcDbLine
 62
2
  6
CONTINUOUS
 10
327.11
 20
202.475
 11
327.11
 21
160.0
  0
LINE
  5
24E
100
AcDbEntity
  8
0
100
AcDbLine
 62
2
  6
CONTINUOUS
 10
327.11
 20
117.525
 11
327.11
 21
160.0
  0
INSERT
  5
24F
100
AcDbEntity
  8
0
100
AcDbBlockReference
 62
2
  6
CONTINUOUS
  2
_FILLED
 10
327.11
 20
202.475
 41
3.5
 42
3.5
 43
3.5
 50
90.0
  0
INSERT
  5
250
100
AcDbEntity
  8
0
100
AcDbBlockReference
 62
2
  6
CONTINUOUS
  2
_FILLED
 10
327.11
 20
117.525
 41
3.5
 42
3.5
 43
3.5
 50
270.0
  0
ENDBLK
  5
251
100
AcDbEntity
  8
0
  6
BYBLOCK
 62
0
100
AcDbBlockEnd
  0
BLOCK
  5
252
100
AcDbEntity
  8
2
100
AcDbBlockBegin
 62
2
  6
CONTINUOUS
  2
*D1
 70
65
 10
0.0
 20
0.0
  3
*D1
  1

  0
MTEXT
  5
253
100
AcDbEntity
  8
2
100
AcDbMText
 62
5
  6
CONTINUOUS
  7
STANDARD
 71
2
 72
1
 10
235.8355
 20
235.3625
 30
0.0
 11
1.0
 21
0.0
 31
0.0
 44
0.9
  1
91.671
 40
3.5
 41
14.25
  0
LINE
  5
254
100
AcDbEntity
  8
2
100
AcDbLine
 62
2
  6
CONTINUOUS
 10
190.0
 20
210.0
 11
190.0
 21
232.4875
  0
LINE
  5
255
100
AcDbEntity
  8
2
100
AcDbLine
 62
2
  6
CONTINUOUS
 10
281.671
 20
185.975
 11
281.671
 21
232.4875
  0
LINE
  5
256
100
AcDbEntity
  8
2
100
AcDbLine
 62
2
  6
CONTINUOUS
 10
190.0
 20
230.9875
 11
235.8355
 21
230.9875
  0
LINE
  5
257
100
AcDbEntity
  8
2
100
AcDbLine
 62
2
  6
CONTINUOUS
 10
281.671
 20
230.9875
 11
235.8355
 21
230.9875
  0
INSERT
  5
258
100
AcDbEntity
  8
2
100
AcDbBlockReference
 62
2
  6
CONTINUOUS
  2
_FILLED
 10
190.0
 20
230.9875
 41
3.5
 42
3.5
 43
3.5
 50
180.0
  0
INSERT
  5
259
100
AcDbEntity
  8
2
100
AcDbBlockReference
 62
2
  6
CONTINUOUS
  2
_FILLED
 10
281.671
 20
230.9875
 41
3.5
 42
3.5
 43
3.5
  0
ENDBLK
  5
25A
100
AcDbEntity
  8
0
  6
BYBLOCK
 62
0
100
AcDbBlockEnd
  0
BLOCK
  5
25B
100
AcDbEntity
  8
SK2
100
AcDbBlockBegin
 62
2
  6
CONTINUOUS
  2
*D2
 70
65
 10
0.0
 20
0.0
  3
*D2
  1

  0
MTEXT
  5
25C
100
AcDbEntity
  8
SK2
100
AcDbMText
 62
5
  6
CONTINUOUS
  7
STANDARD
 71
2
 72
1
 10
184.9355
 20
255.3625
 30
0.0
 11
1.0
 21
0.0
 31
0.0
 44
0.9
  1
193.471
 40
3.5
 41
16.75
  0
LINE
  5
25D
100
AcDbEntity
  8
SK2
100
AcDbLine
 62
2
  6
CONTINUOUS
 10
88.2
 20
160.0
 11
88.2
 21
252.4875
  0
LINE
  5
25E
100
AcDbEntity
  8
SK2
100
AcDbLine
 62
2
  6
CONTINUOUS
 10
281.671
 20
160.0
 11
281.671
 21
237.9875
  0
LINE
  5
25F
100
AcDbEntity
  8
SK2
100
AcDbLine
 62
2
  6
CONTINUOUS
 10
281.671
 20
243.9875
 11
281.671
 21
252.4875
  0
LINE
  5
260
100
AcDbEntity
  8
SK2
100
AcDbLine
 62
2
  6
CONTINUOUS
 10
88.2
 20
250.9875
 11
184.9355
 21
250.9875
  0
LINE
  5
261
100
AcDbEntity
  8
SK2
100
AcDbLine
 62
2
  6
CONTINUOUS
 10
281.671
 20
250.9875
 11
184.9355
 21
250.9875
  0
INSERT
  5
262
100
AcDbEntity
  8
SK2
100
AcDbBlockReference
 62
2
  6
CONTINUOUS
  2
_FILLED
 10
88.2
 20
250.9875
 41
3.5
 42
3.5
 43
3.5
 50
180.0
  0
INSERT
  5
263
100
AcDbEntity
  8
SK2
100
AcDbBlockReference
 62
2
  6
CONTINUOUS
  2
_FILLED
 10
281.671
 20
250.9875
 41
3.5
 42
3.5
 43
3.5
  0
ENDBLK
  5
264
100
AcDbEntity
  8
0
  6
BYBLOCK
 62
0
100
AcDbBlockEnd
  0
BLOCK
  5
265
100
AcDbEntity
  8
SK2
100
AcDbBlockBegin
 62
2
  6
CONTINUOUS
  2
*D3
 70
65
 10
0.0
 20
0.0
  3
*D3
  1

  0
MTEXT
  5
266
100
AcDbEntity
  8
SK2
100
AcDbMText
 62
5
  6
CONTINUOUS
  7
STANDARD
 71
2
 72
1
 10
254.8355
 20
225.3625
 30
0.0
 11
1.0
 21
0.0
 31
0.0
 44
0.9
  1
53.671
 40
3.5
 41
14.5
  0
LINE
  5
267
100
AcDbEntity
  8
SK2
100
AcDbLine
 62
2
  6
CONTINUOUS
 10
228.0
 20
210.0
 11
228.0
 21
222.4875
  0
LINE
  5
268
100
AcDbEntity
  8
SK2
100
AcDbLine
 62
2
  6
CONTINUOUS
 10
281.671
 20
160.0
 11
281.671
 21
222.4875
  0
LINE
  5
269
100
AcDbEntity
  8
SK2
100
AcDbLine
 62
2
  6
CONTINUOUS
 10
228.0
 20
220.9875
 11
254.8355
 21
220.9875
  0
LINE
  5
26A
100
AcDbEntity
  8
SK2
100
AcDbLine
 62
2
  6
CONTINUOUS
 10
281.671
 20
220.9875
 11
254.8355
 21
220.9875
  0
INSERT
  5
26B
100
AcDbEntity
  8
SK2
100
AcDbBlockReference
 62
2
  6
CONTINUOUS
  2
_FILLED
 10
228.0
 20
220.9875
 41
3.5
 42
3.5
 43
3.5
 50
180.0
  0
INSERT
  5
26C
100
AcDbEntity
  8
SK2
100
AcDbBlockReference
 62
2
  6
CONTINUOUS
  2
_FILLED
 10
281.671
 20
220.9875
 41
3.5
 42
3.5
 43
3.5
  0
ENDBLK
  5
26D
100
AcDbEntity
  8
0
  6
BYBLOCK
 62
0
100
AcDbBlockEnd
  0
BLOCK
  5
26E
100
AcDbEntity
  8
2
100
AcDbBlockBegin
 62
2
  6
CONTINUOUS
  2
*D4
 70
65
 10
0.0
 20
0.0
  3
*D4
  1

  0
MTEXT
  5
26F
100
AcDbEntity
  8
2
100
AcDbMText
 62
5
  6
CONTINUOUS
  7
TEXTSTYLE_2
 71
2
 72
1
 10
302.735
 20
160.0
 30
0.0
 11
0.0
 21
1.0
 31
0.0
 44
0.9
  1
{\Fgdt;n}\Ftxt;32
 40
3.5
 41
9.9166666667
  0
LINE
  5
270
100
AcDbEntity
  8
2
100
AcDbLine
 62
2
  6
CONTINUOUS
 10
281.671
 20
144.0
 11
308.61
 21
144.0
  0
LINE
  5
271
100
AcDbEntity
  8
2
100
AcDbLine
 62
2
  6
CONTINUOUS
 10
281.671
 20
176.0
 11
308.61
 21
176.0
  0
LINE
  5
272
100
AcDbEntity
  8
2
100
AcDbLine
 62
2
  6
CONTINUOUS
 10
307.11
 20
144.0
 11
307.11
 21
160.0
  0
LINE
  5
273
100
AcDbEntity
  8
2
100
AcDbLine
 62
2
  6
CONTINUOUS
 10
307.11
 20
176.0
 11
307.11
 21
160.0
  0
INSERT
  5
274
100
AcDbEntity
  8
2
100
AcDbBlockReference
 62
2
  6
CONTINUOUS
  2
_FILLED
 10
307.11
 20
144.0
 41
3.5
 42
3.5
 43
3.5
 50
270.0
  0
INSERT
  5
275
100
AcDbEntity
  8
2
100
AcDbBlockReference
 62
2
  6
CONTINUOUS
  2
_FILLED
 10
307.11
 20
176.0
 41
3.5
 42
3.5
 43
3.5
 50
90.0
  0
ENDBLK
  5
276
100
AcDbEntity
  8
0
  6
BYBLOCK
 62
0
100
AcDbBlockEnd
  0
BLOCK
  5
277
100
AcDbEntity
  8
SK2
100
AcDbBlockBegin
 62
2
  6
CONTINUOUS
  2
*D5
 70
65
 10
0.0
 20
0.0
  3
*D5
  1

  0
MTEXT
  5
278
100
AcDbEntity
  8
SK2
100
AcDbMText
 62
5
  6
CONTINUOUS
  7
TEXTSTYLE_2
 71
2
 72
1
 10
312.735
 20
160.0
 30
0.0
 11
0.0
 21
1.0
 31
0.0
 44
0.9
  1
{\Fgdt;n}\Ftxt;48
 40
3.5
 41
10.1666666667
  0
LINE
  5
279
100
AcDbEntity
  8
SK2
100
AcDbLine
 62
2
  6
CONTINUOUS
 10
260.171
 20
184.0
 11
318.61
 21
184.0
  0
LINE
  5
27A
100
AcDbEntity
  8
SK2
100
AcDbLine
 62
2
  6
CONTINUOUS
 10
260.171
 20
136.0
 11
318.61
 21
136.0
  0
LINE
  5
27B
100
AcDbEntity
  8
SK2
100
AcDbLine
 62
2
  6
CONTINUOUS
 10
317.11
 20
184.0
 11
317.11
 21
160.0
  0
LINE
  5
27C
100
AcDbEntity
  8
SK2
100
AcDbLine
 62
2
  6
CONTINUOUS
 10
317.11
 20
136.0
 11
317.11
 21
160.0
  0
INSERT
  5
27D
100
AcDbEntity
  8
SK2
100
AcDbBlockReference
 62
2
  6
CONTINUOUS
  2
_FILLED
 10
317.11
 20
184.0
 41
3.5
 42
3.5
 43
3.5
 50
90.0
  0
INSERT
  5
27E
100
AcDbEntity
  8
SK2
100
AcDbBlockReference
 62
2
  6
CONTINUOUS
  2
_FILLED
 10
317.11
 20
136.0
 41
3.5
 42
3.5
 43
3.5
 50
270.0
  0
ENDBLK
  5
27F
100
AcDbEntity
  8
0
  6
BYBLOCK
 62
0
100
AcDbBlockEnd
  0
BLOCK
  5
280
100
AcDbEntity
  8
2
100
AcDbBlockBegin
 62
2
  6
CONTINUOUS
  2
*D6
 70
65
 10
0.0
 20
0.0
  3
*D6
  1

  0
MTEXT
  5
281
100
AcDbEntity
  8
2
100
AcDbMText
 62
5
  6
CONTINUOUS
  7
STANDARD
 71
2
 72
1
 10
240.0
 20
245.3625
 30
0.0
 11
1.0
 21
0.0
 31
0.0
 44
0.9
  1
100
 40
3.5
 41
7.5
  0
LINE
  5
282
100
AcDbEntity
  8
2
100
AcDbLine
 62
2
  6
CONTINUOUS
 10
190.0
 20
210.0
 11
190.0
 21
242.4875
  0
LINE
  5
283
100
AcDbEntity
  8
2
100
AcDbLine
 62
2
  6
CONTINUOUS
 10
290.0
 20
160.0
 11
290.0
 21
173.0
  0
LINE
  5
284
100
AcDbEntity
  8
2
100
AcDbLine
 62
2
  6
CONTINUOUS
 10
290.0
 20
179.0
 11
290.0
 21
242.4875
  0
LINE
  5
285
100
AcDbEntity
  8
2
100
AcDbLine
 62
2
  6
CONTINUOUS
 10
190.0
 20
240.9875
 11
240.0
 21
240.9875
  0
LINE
  5
286
100
AcDbEntity
  8
2
100
AcDbLine
 62
2
  6
CONTINUOUS
 10
290.0
 20
240.9875
 11
240.0
 21
240.9875
  0
INSERT
  5
287
100
AcDbEntity
  8
2
100
AcDbBlockReference
 62
2
  6
CONTINUOUS
  2
_FILLED
 10
190.0
 20
240.9875
 41
3.5
 42
3.5
 43
3.5
 50
180.0
  0
INSERT
  5
288
100
AcDbEntity
  8
2
100
AcDbBlockReference
 62
2
  6
CONTINUOUS
  2
_FILLED
 10
290.0
 20
240.9875
 41
3.5
 42
3.5
 43
3.5
  0
ENDBLK
  5
289
100
AcDbEntity
  8
0
  6
BYBLOCK
 62
0
100
AcDbBlockEnd
  0
ENDSEC
  0
SECTION
  2
ENTITIES
  0
DIMENSION
  5
28A
100
AcDbEntity
  8
0
100
AcDbDimension
 62
2
  6
CONTINUOUS
  2
*D0
 10
327.11
 20
117.525
 11
326.4359872036
 21
156.1073895272
 70
160
 71
2
 42
84.95
  1
%%c<>
  3
DIMSTYLE_1
100
AcDbAlignedDimension
 13
228.0
 23
202.475
 14
228.0
 24
117.525
 50
270.0
100
AcDbRotatedDimension
  0
DIMENSION
  5
28B
100
AcDbEntity
  8
2
100
AcDbDimension
 62
2
  6
CONTINUOUS
  2
*D1
 10
281.671
 20
230.9875
 11
228.7105
 21
233.6125
 70
160
 71
2
 42
91.671
  3
DIMSTYLE_1
100
AcDbAlignedDimension
 13
190.0
 23
210.0
 14
281.671
 24
185.975
100
AcDbRotatedDimension
  0
DIMENSION
  5
28C
100
AcDbEntity
  8
SK2
100
AcDbDimension
 62
2
  6
CONTINUOUS
  2
*D2
 10
281.671
 20
250.9875
 11
176.5605
 21
253.6125
 70
160
 71
2
 42
193.471
  3
DIMSTYLE_1
100
AcDbAlignedDimension
 13
88.2
 23
160.0
 14
281.671
 24
160.0
100
AcDbRotatedDimension
  0
DIMENSION
  5
28D
100
AcDbEntity
  8
SK2
100
AcDbDimension
 62
2
  6
CONTINUOUS
  2
*D3
 10
281.671
 20
220.9875
 11
247.5855
 21
223.6125
 70
160
 71
2
 42
53.671
  3
DIMSTYLE_1
100
AcDbAlignedDimension
 13
228.0
 23
210.0
 14
281.671
 24
160.0
100
AcDbRotatedDimension
  0
DIMENSION
  5
28E
100
AcDbEntity
  8
2
100
AcDbDimension
 62
2
  6
CONTINUOUS
  2
*D4
 10
307.11
 20
176.0
 11
305.5958491733
 21
157.7836332715
 70
160
 71
2
 42
32.0
  1
%%c<>
  3
DIMSTYLE_2
100
AcDbAlignedDimension
 13
281.671
 23
144.0
 14
281.671
 24
176.0
 50
90.0
100
AcDbRotatedDimension
  0
DIMENSION
  5
28F
100
AcDbEntity
  8
SK2
100
AcDbDimension
 62
2
  6
CONTINUOUS
  2
*D5
 10
317.11
 20
136.0
 11
315.6238537743
 21
157.72775848
 70
160
 71
2
 42
48.0
  1
%%c<>
  3
DIMSTYLE_2
100
AcDbAlignedDimension
 13
260.171
 23
184.0
 14
260.171
 24
136.0
 50
270.0
100
AcDbRotatedDimension
  0
DIMENSION
  5
290
100
AcDbEntity
  8
2
100
AcDbDimension
 62
2
  6
CONTINUOUS
  2
*D6
 10
290.0
 20
240.9875
 11
236.25
 21
243.6125
 70
160
 71
2
 42
100.0
  3
DIMSTYLE_2
100
AcDbAlignedDimension
 13
190.0
 23
210.0
 14
290.0
 24
160.0
100
AcDbRotatedDimension
  0
MTEXT
  5
291
100
AcDbEntity
  8
6
100
AcDbMText
 62
5
  6
CONTINUOUS
  7
STANDARD
 71
1
 72
1
 10
187.1438497029
 20
82.3507156451
 30
0.0
 11
1.0
 21
0.0
 31
0.0
 44
0.9
  3
Für diese Unterlage behalten wir das Ur-\Pheberrecht. Sie darf nur für den von uns\Pbestimmten Zweck benutzt und ohne unsere \PZustimmung weder vervielfältigt noch \PDritten zugänglich gemacht werden.\P \PWe own the copyright of this document. It\Pde
  1
termined and may neither be copied or\Pmade accessible to outsiders without our\Ppermission.\P \PCe plan reste notre propriété. Il ne peut\Pétre utilisé, copié ou reproduit sans notre\Paccord.
 40
3.5
 41
103.5833333333
  0
LINE
  5
292
100
AcDbEntity
  8
1
100
AcDbLine
 62
9
  6
CONTINUOUS
 10
88.2
 20
179.2131954077
 11
88.2
 21
140.7868045923
  0
LINE
  5
293
100
AcDbEntity
  8
1
100
AcDbLine
 62
9
  6
CONTINUOUS
 10
89.0556813308
 20
180.2027266713
 11
89.0556813308
 21
139.7972733287
  0
LINE
  5
294
100
AcDbEntity
  8
1
100
AcDbLine
 62
6
  6
CONTINUOUS
 10
227.0
 20
110.0125
 11
220.725478295
 21
110.0125
  0
LINE
  5
295
100
AcDbEntity
  8
1
100
AcDbLine
 62
6
  6
CONTINUOUS
 10
194.0
 20
110.0125
 11
205.674521705
 21
110.0125
  0
LINE
  5
296
100
AcDbEntity
  8
1
100
AcDbLine
 62
6
  6
CONTINUOUS
 10
209.9125
 20
117.625
 11
216.4875
 21
117.625
  0
LINE
  5
297
100
AcDbEntity
  8
1
100
AcDbLine
 62
6
  6
CONTINUOUS
 10
190.35
 20
125.425
 11
189.3808093837
 21
125.1653061571
  0
LINE
  5
298
100
AcDbEntity
  8
1
100
AcDbLine
 62
6
  6
CONTINUOUS
 10
192.0
 20
125.425
 11
190.35
 21
125.425
  0
LINE
  5
299
100
AcDbEntity
  8
1
100
AcDbLine
 62
6
  6
CONTINUOUS
 10
189.3808093837
 20
125.1653061571
 11
89.0556813308
 21
139.7972733287
  0
LINE
  5
29A
100
AcDbEntity
  8
1
100
AcDbLine
 62
6
  6
CONTINUOUS
 10
245.9389491924
 20
134.025
 11
238.3422797049
 21
134.025
  0
LINE
  5
29B
100
AcDbEntity
  8
1
100
AcDbLine
 62
6
  6
CONTINUOUS
 10
284.0
 20
135.0
 11
268.75
 21
135.0
  0
LINE
  5
29C
100
AcDbEntity
  8
1
100
AcDbLine
 62
6
  6
CONTINUOUS
 10
259.2792864376
 20
136.025
 11
248.2483502692
 21
136.025
  0
LINE
  5
29D
100
AcDbEntity
  8
1
100
AcDbLine
 62
6
  6
CONTINUOUS
 10
284.0
 20
137.090144929
 11
278.0
 21
137.090144929
  0
LINE
  5
29E
100
AcDbEntity
  8
1
100
AcDbLine
 62
8
  6
HIDDEN
 10
280.8049745962
 20
139.0025
 11
267.5
 21
139.0025
  0
LINE
  5
29F
100
AcDbEntity
  8
1
100
AcDbLine
 62
6
  6
CONTINUOUS
 10
267.5
 20
139.0025
 11
263.0852135624
 21
139.0025
  0
LINE
  5
2A0
100
AcDbEntity
  8
1
100
AcDbLine
 62
6
  6
CONTINUOUS
 10
284.0
 20
139.8788215179
 11
278.0
 21
139.8788215179
  0
LINE
  5
2A1
100
AcDbEntity
  8
1
100
AcDbLine
 62
6
  6
CONTINUOUS
 10
205.674521705
 20
145.813703113
 11
194.0
 21
145.813703113
  0
LINE
  5
2A2
100
AcDbEntity
  8
1
100
AcDbLine
 62
6
  6
CONTINUOUS
 10
194.0
 20
147.0975
 11
211.3475
 21
147.0975
  0
LINE
  5
2A3
100
AcDbEntity
  8
1
100
AcDbLine
 62
8
  6
HIDDEN
 10
257.0162439119
 20
147.465
 11
241.671
 21
147.465
  0
LINE
  5
2A4
100
AcDbEntity
  8
1
100
AcDbLine
 62
6
  6
CONTINUOUS
 10
189.3808093837
 20
194.8346938429
 11
189.3808093837
 21
125.1653061571
  0
LINE
  5
2A5
100
AcDbEntity
  8
DEFAULT_1
100
AcDbLine
 62
7
  6
CENTER
 10
190.0
 20
106.0125
 11
190.0
 21
213.9875
  0
LINE
  5
2A6
100
AcDbEntity
  8
1
100
AcDbLine
 62
6
  6
CONTINUOUS
 10
190.35
 20
194.575
 11
190.35
 21
125.425
  0
LINE
  5
2A7
100
AcDbEntity
  8
1
100
AcDbLine
 62
9
  6
CONTINUOUS
 10
192.0
 20
194.575
 11
192.0
 21
125.425
  0
LINE
  5
2A8
100
AcDbEntity
  8
1
100
AcDbLine
 62
9
  6
CONTINUOUS
 10
193.0
 20
111.0125176323
 11
193.0
 21
146.0975
  0
LINE
  5
2A9
100
AcDbEntity
  8
1
100
AcDbLine
 62
6
  6
CONTINUOUS
 10
193.0
 20
146.0975
 11
193.0
 21
154.8482405918
  0
LINE
  5
2AA
100
AcDbEntity
  8
1
100
AcDbLine
 62
6
  6
CONTINUOUS
 10
193.0
 20
165.1517594082
 11
193.0
 21
173.9025
  0
LINE
  5
2AB
100
AcDbEntity
  8
1
100
AcDbLine
 62
9
  6
CONTINUOUS
 10
193.0
 20
173.9025
 11
193.0
 21
208.9874823678
  0
LINE
  5
2AC
100
AcDbEntity
  8
1
100
AcDbLine
 62
6
  6
CONTINUOUS
 10
216.7375
 20
203.0451852365
 11
220.725478295
 21
209.9875
  0
LINE
  5
2AD
100
AcDbEntity
  8
1
100
AcDbLine
 62
6
  6
CONTINUOUS
 10
284.0
 20
157.2113234112
 11
278.0
 21
157.2113234112
  0
LINE
  5
2AE
100
AcDbEntity
  8
4
100
AcDbLine
 62
7
  6
CENTER
 10
286.671
 20
160.0
 11
84.2
 21
160.0
  0
LINE
  5
2AF
100
AcDbEntity
  8
1
100
AcDbLine
 62
8
  6
HIDDEN
 10
281.671
 20
144.0
 11
257.0162439119
 21
147.465
  0
LINE
  5
2B0
100
AcDbEntity
  8
1
100
AcDbLine
 62
6
  6
CONTINUOUS
 10
216.7375
 20
116.9548147635
 11
220.725478295
 21
110.0125
  0
LINE
  5
2B1
100
AcDbEntity
  8
1
100
AcDbLine
 62
9
  6
CONTINUOUS
 10
194.0
 20
110.0125
 11
194.0
 21
147.0975
  0
LINE
  5
2B2
100
AcDbEntity
  8
1
100
AcDbLine
 62
9
  6
CONTINUOUS
 10
194.0
 20
172.9025
 11
194.0
 21
209.9875
  0
LINE
  5
2B3
100
AcDbEntity
  8
1
100
AcDbLine
 62
8
  6
HIDDEN
 10
281.671
 20
176.0
 11
257.0162439119
 21
172.535
  0
LINE
  5
2B4
100
AcDbEntity
  8
1
100
AcDbLine
 62
6
  6
CONTINUOUS
 10
284.0
 20
162.7886765888
 11
278.0
 21
162.7886765888
  0
LINE
  5
2B5
100
AcDbEntity
  8
1
100
AcDbLine
 62
6
  6
CONTINUOUS
 10
205.674521705
 20
209.9875
 11
205.674521705
 21
174.186296887
  0
LINE
  5
2B6
100
AcDbEntity
  8
1
100
AcDbLine
 62
6
  6
CONTINUOUS
 10
205.674521705
 20
145.813703113
 11
205.674521705
 21
110.0125
  0
LINE
  5
2B7
100
AcDbEntity
  8
1
100
AcDbLine
 62
6
  6
CONTINUOUS
 10
193.0
 20
146.0975
 11
194.0
 21
147.0975
  0
LINE
  5
2B8
100
AcDbEntity
  8
1
100
AcDbLine
 62
8
  6
HIDDEN
 10
257.0162439119
 20
172.535
 11
241.671
 21
172.535
  0
LINE
  5
2B9
100
AcDbEntity
  8
1
100
AcDbLine
 62
6
  6
CONTINUOUS
 10
194.0
 20
172.9025
 11
211.3475
 21
172.9025
  0
LINE
  5
2BA
100
AcDbEntity
  8
1
100
AcDbLine
 62
6
  6
CONTINUOUS
 10
194.0
 20
174.186296887
 11
205.674521705
 21
174.186296887
  0
LINE
  5
2BB
100
AcDbEntity
  8
1
100
AcDbLine
 62
6
  6
CONTINUOUS
 10
193.0
 20
173.9025
 11
194.0
 21
172.9025
  0
LINE
  5
2BC
100
AcDbEntity
  8
1
100
AcDbLine
 62
6
  6
CONTINUOUS
 10
209.6625
 20
203.0451572871
 11
209.6625
 21
172.9025
  0
LINE
  5
2BD
100
AcDbEntity
  8
1
100
AcDbLine
 62
6
  6
CONTINUOUS
 10
209.6625
 20
147.0975
 11
209.6625
 21
116.9548427129
  0
LINE
  5
2BE
100
AcDbEntity
  8
1
100
AcDbLine
 62
9
  6
CONTINUOUS
 10
209.9125
 20
117.625
 11
209.9125
 21
147.0975
  0
LINE
  5
2BF
100
AcDbEntity
  8
1
100
AcDbLine
 62
9
  6
CONTINUOUS
 10
209.9125
 20
172.9025
 11
209.9125
 21
202.375
  0
LINE
  5
2C0
100
AcDbEntity
  8
1
100
AcDbLine
 62
9
  6
CONTINUOUS
 10
216.4875
 20
117.625
 11
216.4875
 21
148.1655204487
  0
LINE
  5
2C1
100
AcDbEntity
  8
1
100
AcDbLine
 62
9
  6
CONTINUOUS
 10
216.4875
 20
171.8344795513
 11
216.4875
 21
202.375
  0
LINE
  5
2C2
100
AcDbEntity
  8
1
100
AcDbLine
 62
6
  6
CONTINUOUS
 10
284.0
 20
180.1211784821
 11
278.0
 21
180.1211784821
  0
LINE
  5
2C3
100
AcDbEntity
  8
1
100
AcDbLine
 62
8
  6
HIDDEN
 10
280.8049745962
 20
180.9975
 11
267.5
 21
180.9975
  0
LINE
  5
2C4
100
AcDbEntity
  8
1
100
AcDbLine
 62
6
  6
CONTINUOUS
 10
267.5
 20
180.9975
 11
263.0852135624
 21
180.9975
  0
LINE
  5
2C5
100
AcDbEntity
  8
1
100
AcDbLine
 62
6
  6
CONTINUOUS
 10
284.0
 20
182.909855071
 11
278.0
 21
182.909855071
  0
LINE
  5
2C6
100
AcDbEntity
  8
1
100
AcDbLine
 62
6
  6
CONTINUOUS
 10
259.2792864376
 20
183.975
 11
248.2483502692
 21
183.975
  0
LINE
  5
2C7
100
AcDbEntity
  8
1
100
AcDbLine
 62
6
  6
CONTINUOUS
 10
216.7375
 20
116.9548147635
 11
216.7375
 21
148.277269676
  0
LINE
  5
2C8
100
AcDbEntity
  8
1
100
AcDbLine
 62
6
  6
CONTINUOUS
 10
216.7375
 20
171.722730324
 11
216.7375
 21
203.0451852365
  0
LINE
  5
2C9
100
AcDbEntity
  8
1
100
AcDbLine
 62
6
  6
CONTINUOUS
 10
220.725478295
 20
209.9875
 11
220.725478295
 21
170.4724910073
  0
LINE
  5
2CA
100
AcDbEntity
  8
1
100
AcDbLine
 62
6
  6
CONTINUOUS
 10
220.725478295
 20
149.5275185578
 11
220.725478295
 21
110.0125
  0
LINE
  5
2CB
100
AcDbEntity
  8
1
100
AcDbLine
 62
6
  6
CONTINUOUS
 10
284.0
 20
185.0
 11
268.75
 21
185.0
  0
LINE
  5
2CC
100
AcDbEntity
  8
1
100
AcDbLine
 62
6
  6
CONTINUOUS
 10
245.9389491924
 20
185.975
 11
238.3422797049
 21
185.975
  0
LINE
  5
2CD
100
AcDbEntity
  8
1
100
AcDbLine
 62
9
  6
CONTINUOUS
 10
227.0
 20
209.9875
 11
227.0
 21
110.0125
  0
LINE
  5
2CE
100
AcDbEntity
  8
1
100
AcDbLine
 62
6
  6
CONTINUOUS
 10
228.0
 20
208.9875
 11
228.0
 21
111.0125
  0
LINE
  5
2CF
100
AcDbEntity
  8
1
100
AcDbLine
 62
9
  6
CONTINUOUS
 10
228.1475359096
 20
202.2344252385
 11
228.1475359096
 21
117.7655747615
  0
LINE
  5
2D0
100
AcDbEntity
  8
1
100
AcDbLine
 62
6
  6
CONTINUOUS
 10
205.674521705
 20
110.0125
 11
209.6625
 21
116.9548147635
  0
LINE
  5
2D1
100
AcDbEntity
  8
1
100
AcDbLine
 62
6
  6
CONTINUOUS
 10
189.3808093837
 20
194.8346938429
 11
89.0556813308
 21
180.2027266713
  0
LINE
  5
2D2
100
AcDbEntity
  8
1
100
AcDbLine
 62
6
  6
CONTINUOUS
 10
192.0
 20
194.575
 11
190.35
 21
194.575
  0
LINE
  5
2D3
100
AcDbEntity
  8
1
100
AcDbLine
 62
6
  6
CONTINUOUS
 10
190.35
 20
194.575
 11
189.3808093837
 21
194.8346938429
  0
LINE
  5
2D4
100
AcDbEntity
  8
1
100
AcDbLine
 62
6
  6
CONTINUOUS
 10
205.674521705
 20
209.9875
 11
209.6625
 21
203.0451852365
  0
LINE
  5
2D5
100
AcDbEntity
  8
1
100
AcDbLine
 62
6
  6
CONTINUOUS
 10
237.4902648448
 20
187.0
 11
237.4902648448
 21
133.0
  0
LINE
  5
2D6
100
AcDbEntity
  8
1
100
AcDbLine
 62
9
  6
CONTINUOUS
 10
237.5544335025
 20
186.6360814579
 11
237.5544335025
 21
133.3639185421
  0
LINE
  5
2D7
100
AcDbEntity
  8
1
100
AcDbLine
 62
9
  6
CONTINUOUS
 10
238.3422797049
 20
185.975
 11
238.3422797049
 21
134.025
  0
LINE
  5
2D8
100
AcDbEntity
  8
1
100
AcDbLine
 62
6
  6
CONTINUOUS
 10
209.9125
 20
202.375
 11
216.4875
 21
202.375
  0
LINE
  5
2D9
100
AcDbEntity
  8
1
100
AcDbLine
 62
8
  6
HIDDEN
 10
241.671
 20
172.535
 11
241.671
 21
147.465
  0
LINE
  5
2DA
100
AcDbEntity
  8
1
100
AcDbLine
 62
9
  6
CONTINUOUS
 10
245.9389491924
 20
185.975
 11
245.9389491924
 21
134.025
  0
LINE
  5
2DB
100
AcDbEntity
  8
1
100
AcDbLine
 62
9
  6
CONTINUOUS
 10
246.8049745962
 20
185.475
 11
246.8049745962
 21
134.525
  0
LINE
  5
2DC
100
AcDbEntity
  8
1
100
AcDbLine
 62
9
  6
CONTINUOUS
 10
247.3823248654
 20
184.475
 11
247.3823248654
 21
135.525
  0
LINE
  5
2DD
100
AcDbEntity
  8
1
100
AcDbLine
 62
6
  6
CONTINUOUS
 10
237.5544335025
 20
133.3639185421
 11
237.4902648448
 21
133.0
  0
LINE
  5
2DE
100
AcDbEntity
  8
1
100
AcDbLine
 62
6
  6
CONTINUOUS
 10
237.4902648448
 20
133.0
 11
228.1475359096
 21
117.7655747615
  0
LINE
  5
2DF
100
AcDbEntity
  8
1
100
AcDbLine
 62
6
  6
CONTINUOUS
 10
227.0
 20
209.9875
 11
220.725478295
 21
209.9875
  0
LINE
  5
2E0
100
AcDbEntity
  8
1
100
AcDbLine
 62
6
  6
CONTINUOUS
 10
194.0
 20
209.9875
 11
205.674521705
 21
209.9875
  0
LINE
  5
2E1
100
AcDbEntity
  8
1
100
AcDbLine
 62
6
  6
CONTINUOUS
 10
237.4902648448
 20
187.0
 11
228.1475359096
 21
202.2344252385
  0
LINE
  5
2E2
100
AcDbEntity
  8
1
100
AcDbLine
 62
6
  6
CONTINUOUS
 10
237.5544335025
 20
186.6360814579
 11
237.4902648448
 21
187.0
  0
LINE
  5
2E3
100
AcDbEntity
  8
1
100
AcDbLine
 62
9
  6
CONTINUOUS
 10
248.2483502692
 20
183.975
 11
248.2483502692
 21
136.025
  0
LINE
  5
2E4
100
AcDbEntity
  8
1
100
AcDbLine
 62
6
  6
CONTINUOUS
 10
247.3823248654
 20
135.525
 11
246.8049745962
 21
134.525
  0
LINE
  5
2E5
100
AcDbEntity
  8
1
100
AcDbLine
 62
6
  6
CONTINUOUS
 10
247.3823248654
 20
184.475
 11
246.8049745962
 21
185.475
  0
LINE
  5
2E6
100
AcDbEntity
  8
1
100
AcDbLine
 62
8
  6
HIDDEN
 10
257.0162439119
 20
172.535
 11
257.0162439119
 21
147.465
  0
LINE
  5
2E7
100
AcDbEntity
  8
1
100
AcDbLine
 62
9
  6
CONTINUOUS
 10
259.2792864376
 20
183.975
 11
259.2792864376
 21
136.025
  0
LINE
  5
2E8
100
AcDbEntity
  8
1
100
AcDbLine
 62
9
  6
CONTINUOUS
 10
259.9863932188
 20
183.6821067812
 11
259.9863932188
 21
136.3178932188
  0
LINE
  5
2E9
100
AcDbEntity
  8
1
100
AcDbLine
 62
9
  6
CONTINUOUS
 10
262.3781067812
 20
181.2903932188
 11
262.3781067812
 21
138.7096067812
  0
LINE
  5
2EA
100
AcDbEntity
  8
1
100
AcDbLine
 62
9
  6
CONTINUOUS
 10
263.0852135624
 20
180.9975
 11
263.0852135624
 21
139.0025
  0
LINE
  5
2EB
100
AcDbEntity
  8
1
100
AcDbLine
 62
6
  6
CONTINUOUS
 10
262.3781067812
 20
138.7096067812
 11
259.9863932188
 21
136.3178932188
  0
LINE
  5
2EC
100
AcDbEntity
  8
1
100
AcDbLine
 62
6
  6
CONTINUOUS
 10
262.3781067812
 20
181.2903932188
 11
259.9863932188
 21
183.6821067812
  0
LINE
  5
2ED
100
AcDbEntity
  8
1
100
AcDbLine
 62
6
  6
CONTINUOUS
 10
267.5
 20
183.7282608696
 11
267.5
 21
136.25
  0
LINE
  5
2EE
100
AcDbEntity
  8
1
100
AcDbLine
 62
9
  6
CONTINUOUS
 10
268.75
 20
185.0
 11
268.75
 21
135.0
  0
LINE
  5
2EF
100
AcDbEntity
  8
1
100
AcDbLine
 62
9
  6
CONTINUOUS
 10
278.0
 20
182.909855071
 11
278.0
 21
180.1211784821
  0
LINE
  5
2F0
100
AcDbEntity
  8
1
100
AcDbLine
 62
9
  6
CONTINUOUS
 10
278.0
 20
162.7886765888
 11
278.0
 21
157.2113234112
  0
LINE
  5
2F1
100
AcDbEntity
  8
1
100
AcDbLine
 62
9
  6
CONTINUOUS
 10
278.0
 20
139.8788215179
 11
278.0
 21
137.090144929
  0
LINE
  5
2F2
100
AcDbEntity
  8
1
100
AcDbLine
 62
8
  6
HIDDEN
 10
280.8049745962
 20
180.9975
 11
280.8049745962
 21
139.0025
  0
LINE
  5
2F3
100
AcDbEntity
  8
1
100
AcDbLine
 62
8
  6
HIDDEN
 10
281.671
 20
179.4975
 11
281.671
 21
140.5025
  0
LINE
  5
2F4
100
AcDbEntity
  8
1
100
AcDbLine
 62
9
  6
CONTINUOUS
 10
284.0
 20
185.0
 11
284.0
 21
182.909855071
  0
LINE
  5
2F5
100
AcDbEntity
  8
1
100
AcDbLine
 62
9
  6
CONTINUOUS
 10
284.0
 20
180.1211784821
 11
284.0
 21
162.7886765888
  0
LINE
  5
2F6
100
AcDbEntity
  8
1
100
AcDbLine
 62
9
  6
CONTINUOUS
 10
284.0
 20
157.2113234112
 11
284.0
 21
139.8788215179
  0
LINE
  5
2F7
100
AcDbEntity
  8
1
100
AcDbLine
 62
9
  6
CONTINUOUS
 10
284.0
 20
137.090144929
 11
284.0
 21
135.0
  0
LINE
  5
2F8
100
AcDbEntity
  8
1
100
AcDbLine
 62
8
  6
HIDDEN
 10
281.671
 20
140.5025
 11
280.8049745962
 21
139.0025
  0
LINE
  5
2F9
100
AcDbEntity
  8
1
100
AcDbLine
 62
8
  6
HIDDEN
 10
281.671
 20
179.4975
 11
280.8049745962
 21
180.9975
  0
LINE
  5
2FA
100
AcDbEntity
  8
1
100
AcDbLine
 62
9
  6
CONTINUOUS
 10
290.0
 20
179.0
 11
290.0
 21
141.0
  0
ARC
  5
2FB
100
AcDbEntity
  8
1
100
AcDbCircle
 62
6
  6
CONTINUOUS
 10
7.2403363244
 20
60.1841939907
 40
228.8506180731
100
AcDbArc
 50
29.5077295963
 51
29.8777286411
  0
ARC
  5
2FC
100
AcDbEntity
  8
1
100
AcDbCircle
 62
6
  6
CONTINUOUS
 10
89.2
 20
140.7868045923
 40
1.0
100
AcDbArc
 50
180.0
 51
261.7021731718
  0
ARC
  5
2FD
100
AcDbEntity
  8
1
100
AcDbCircle
 62
6
  6
CONTINUOUS
 10
7.2403363295
 20
259.8158060063
 40
228.8506180672
100
AcDbArc
 50
330.1222713589
 51
330.4922704037
  0
ARC
  5
2FE
100
AcDbEntity
  8
1
100
AcDbCircle
 62
6
  6
CONTINUOUS
 10
89.2
 20
179.2131954077
 40
1.0
100
AcDbArc
 50
98.2978268282
 51
180.0
  0
ARC
  5
2FF
100
AcDbEntity
  8
1
100
AcDbCircle
 62
6
  6
CONTINUOUS
 10
194.0
 20
111.0125
 40
1.0
100
AcDbArc
 50
180.0
 51
270.0
  0
ARC
  5
300
100
AcDbEntity
  8
1
100
AcDbCircle
 62
6
  6
CONTINUOUS
 10
227.0
 20
111.0125
 40
1.0
100
AcDbArc
 50
270.0
 51
360.0
  0
ARC
  5
301
100
AcDbEntity
  8
1
100
AcDbCircle
 62
6
  6
CONTINUOUS
 10
229.0
 20
117.2427889788
 40
1.0
100
AcDbArc
 50
148.4806975072
 51
180.0
  0
ARC
  5
302
100
AcDbEntity
  8
1
100
AcDbCircle
 62
6
  6
CONTINUOUS
 10
192.0
 20
124.425
 40
1.0
100
AcDbArc
 50
0.0
 51
90.0
  0
ARC
  5
303
100
AcDbEntity
  8
1
100
AcDbCircle
 62
6
  6
CONTINUOUS
 10
216.4875
 20
117.375
 40
0.25
100
AcDbArc
 50
22.5
 51
90.0
  0
ARC
  5
304
100
AcDbEntity
  8
1
100
AcDbCircle
 62
6
  6
CONTINUOUS
 10
209.9125
 20
117.375
 40
0.25
100
AcDbArc
 50
90.0
 51
180.0
  0
ARC
  5
305
100
AcDbEntity
  8
1
100
AcDbCircle
 62
6
  6
CONTINUOUS
 10
248.2483502692
 20
135.025
 40
1.0
100
AcDbArc
 50
90.0
 51
150.0
  0
ARC
  5
306
100
AcDbEntity
  8
1
100
AcDbCircle
 62
6
  6
CONTINUOUS
 10
245.9389491924
 20
135.025
 40
1.0
100
AcDbArc
 50
270.0
 51
330.0
  0
ARC
  5
307
100
AcDbEntity
  8
1
100
AcDbCircle
 62
6
  6
CONTINUOUS
 10
238.3422797049
 20
133.225
 40
0.8
100
AcDbArc
 50
90.0
 51
170.0
  0
ARC
  5
308
100
AcDbEntity
  8
1
100
AcDbCircle
 62
6
  6
CONTINUOUS
 10
259.2792864376
 20
137.025
 40
1.0
100
AcDbArc
 50
270.0
 51
315.0
  0
ARC
  5
309
100
AcDbEntity
  8
1
100
AcDbCircle
 62
6
  6
CONTINUOUS
 10
263.0852135624
 20
138.0025
 40
1.0
100
AcDbArc
 50
90.0
 51
135.0
  0
ARC
  5
30A
100
AcDbEntity
  8
1
100
AcDbCircle
 62
6
  6
CONTINUOUS
 10
268.75
 20
136.25
 40
1.25
100
AcDbArc
 50
180.0
 51
270.0
  0
ARC
  5
30B
100
AcDbEntity
  8
1
100
AcDbCircle
 62
6
  6
CONTINUOUS
 10
347.7400152135
 20
82.5402263761
 40
154.4822829706
100
AcDbArc
 50
145.3051136933
 51
145.7374621119
  0
ARC
  5
30C
100
AcDbEntity
  8
1
100
AcDbCircle
 62
6
  6
CONTINUOUS
 10
284.0
 20
141.0
 40
6.0
100
AcDbArc
 50
270.0
 51
360.0
  0
ARC
  5
30D
100
AcDbEntity
  8
1
100
AcDbCircle
 62
6
  6
CONTINUOUS
 10
211.3475
 20
160.0
 40
12.9025
100
AcDbArc
 50
270.0
 51
90.0
  0
ARC
  5
30E
100
AcDbEntity
  8
1
100
AcDbCircle
 62
6
  6
CONTINUOUS
 10
192.0
 20
195.575
 40
1.0
100
AcDbArc
 50
270.0
 51
360.0
  0
ARC
  5
30F
100
AcDbEntity
  8
1
100
AcDbCircle
 62
6
  6
CONTINUOUS
 10
248.2483502692
 20
184.975
 40
1.0
100
AcDbArc
 50
210.0
 51
270.0
  0
ARC
  5
310
100
AcDbEntity
  8
1
100
AcDbCircle
 62
6
  6
CONTINUOUS
 10
245.9389491924
 20
184.975
 40
1.0
100
AcDbArc
 50
30.0
 51
90.0
  0
ARC
  5
311
100
AcDbEntity
  8
1
100
AcDbCircle
 62
6
  6
CONTINUOUS
 10
238.3422797049
 20
186.775
 40
0.8
100
AcDbArc
 50
190.0
 51
270.0
  0
ARC
  5
312
100
AcDbEntity
  8
1
100
AcDbCircle
 62
6
  6
CONTINUOUS
 10
263.0852135624
 20
181.9975
 40
1.0
100
AcDbArc
 50
225.0
 51
270.0
  0
ARC
  5
313
100
AcDbEntity
  8
1
100
AcDbCircle
 62
6
  6
CONTINUOUS
 10
259.2792864376
 20
182.975
 40
1.0
100
AcDbArc
 50
45.0
 51
90.0
  0
ARC
  5
314
100
AcDbEntity
  8
1
100
AcDbCircle
 62
6
  6
CONTINUOUS
 10
268.75
 20
183.75
 40
1.25
100
AcDbArc
 50
90.0
 51
156.6321188674
  0
ARC
  5
315
100
AcDbEntity
  8
1
100
AcDbCircle
 62
6
  6
CONTINUOUS
 10
229.0
 20
202.7572110212
 40
1.0
100
AcDbArc
 50
180.0
 51
211.5193024928
  0
ARC
  5
316
100
AcDbEntity
  8
1
100
AcDbCircle
 62
6
  6
CONTINUOUS
 10
227.0
 20
208.9875
 40
1.0
100
AcDbArc
 50
0.0
 51
90.0
  0
ARC
  5
317
100
AcDbEntity
  8
1
100
AcDbCircle
 62
6
  6
CONTINUOUS
 10
194.0
 20
208.9875
 40
1.0
100
AcDbArc
 50
90.0
 51
180.0
  0
ARC
  5
318
100
AcDbEntity
  8
1
100
AcDbCircle
 62
6
  6
CONTINUOUS
 10
216.4875
 20
202.625
 40
0.25
100
AcDbArc
 50
270.0
 51
360.0
  0
ARC
  5
319
100
AcDbEntity
  8
1
100
AcDbCircle
 62
6
  6
CONTINUOUS
 10
209.9125
 20
202.625
 40
0.25
100
AcDbArc
 50
180.0
 51
270.0
  0
ARC
  5
31A
100
AcDbEntity
  8
1
100
AcDbCircle
 62
6
  6
CONTINUOUS
 10
284.0
 20
179.0
 40
6.0
100
AcDbArc
 50
0.0
 51
90.0
  0
ARC
  5
31B
100
AcDbEntity
  8
1
100
AcDbCircle
 62
6
  6
CONTINUOUS
 10
347.7368505506
 20
237.4575865977
 40
154.4784306877
100
AcDbArc
 50
214.2625280055
 51
214.6948845708
  0
SPLINE
  5
31C
100
AcDbEntity
  8
1
100
AcDbSpline
 62
6
  6
CONTINUOUS
 70
0
 71
3
 72
12
 73
8
 74
0
 42
0.0000001
 43
0.0000001
 44
0.0000000001
 40
0.0
 40
0.0
 40
0.0
 40
0.0
 40
0.1864872008
 40
0.2991691175
 40
0.4237947907
 40
0.7009903902
 40
1.0
 40
1.0
 40
1.0
 40
1.0
 10
275.211820776
 20
138.6339010483
 30
0.0
 10
275.285573048
 20
138.8181570114
 30
0.0
 10
275.4988146036
 20
139.074201113
 30
0.0
 10
275.8623517509
 20
139.3400897537
 30
0.0
 10
276.347986333
 20
139.5979283502
 30
0.0
 10
277.0669492051
 20
139.8192106022
 30
0.0
 10
277.6817801853
 20
139.8788215179
 30
0.0
 10
278.0
 20
139.8788215179
 30
0.0
  0
SPLINE
  5
31D
100
AcDbEntity
  8
1
100
AcDbSpline
 62
6
  6
CONTINUOUS
 70
0
 71
3
 72
9
 73
5
 74
0
 42
0.0000001
 43
0.0000001
 44
0.0000000001
 40
0.0
 40
0.0
 40
0.0
 40
0.0
 40
0.1210170113
 40
1.0
 40
1.0
 40
1.0
 40
1.0
 10
267.6
 20
184.2393511425
 30
0.0
 10
267.5921119231
 20
184.2198362435
 30
0.0
 10
267.5304833481
 20
184.0572720109
 30
0.0
 10
267.5
 20
183.8811448242
 30
0.0
 10
267.5
 20
183.7282608696
 30
0.0
  0
LINE
  5
31E
100
AcDbEntity
  8
1
100
AcDbLine
 62
6
  6
CONTINUOUS
 10
267.6025286067
 20
184.2457916917
 11
267.6
 21
184.2393511425
  0
SPLINE
  5
31F
100
AcDbEntity
  8
1
100
AcDbSpline
 62
6
  6
CONTINUOUS
 70
0
 71
3
 72
14
 73
10
 74
0
 42
0.0000001
 43
0.0000001
 44
0.0000000001
 40
0.0
 40
0.0
 40
0.0
 40
0.0
 40
0.2849341028
 40
0.4248354607
 40
0.5607976074
 40
0.6905057872
 40
0.8102728068
 40
0.9152136275
 40
1.0
 40
1.0
 40
1.0
 40
1.0
 10
284.0
 20
139.8788215179
 30
0.0
 10
284.3932413194
 20
139.8788215179
 30
0.0
 10
284.9803156189
 20
139.9165781211
 30
0.0
 10
285.7455732014
 20
140.0336488216
 30
0.0
 10
286.2943615233
 20
140.144920851
 30
0.0
 10
286.8114840618
 20
140.2696308791
 30
0.0
 10
287.2854121304
 20
140.3912939539
 30
0.0
 10
287.7008590169
 20
140.4886620846
 30
0.0
 10
287.9617467631
 20
140.5265799495
 30
0.0
 10
288.0787615394
 20
140.5266422767
 30
0.0
  0
SPLINE
  5
320
100
AcDbEntity
  8
1
100
AcDbSpline
 62
6
  6
CONTINUOUS
 70
0
 71
3
 72
12
 73
8
 74
0
 42
0.0000001
 43
0.0000001
 44
0.0000000001
 40
0.0
 40
0.0
 40
0.0
 40
0.0
 40
0.2990219736
 40
0.576223749
 40
0.7008486278
 40
0.8135266757
 40
1.0
 40
1.0
 40
1.0
 40
1.0
 10
278.0
 20
180.1211784821
 30
0.0
 10
277.6817408381
 20
180.1211784821
 30
0.0
 10
277.0668390589
 20
180.1808033547
 30
0.0
 10
276.3478054317
 20
180.402137733
 30
0.0
 10
275.8621476325
 20
180.6600350256
 30
0.0
 10
275.4986255472
 20
180.9259723523
 30
0.0
 10
275.2854190195
 20
181.1820687696
 30
0.0
 10
275.2117209966
 20
181.3663481219
 30
0.0
  0
SPLINE
  5
321
100
AcDbEntity
  8
1
100
AcDbSpline
 62
6
  6
CONTINUOUS
 70
0
 71
3
 72
14
 73
10
 74
0
 42
0.0000001
 43
0.0000001
 44
0.0000000001
 40
0.0
 40
0.0
 40
0.0
 40
0.0
 40
0.084787904
 40
0.1897281036
 40
0.3094961218
 40
0.4392034612
 40
0.5751658802
 40
0.7150658776
 40
1.0
 40
1.0
 40
1.0
 40
1.0
 10
288.078743805
 20
179.4733563499
 30
0.0
 10
287.9617274092
 20
179.4734162583
 30
0.0
 10
287.7008408526
 20
179.5113491013
 30
0.0
 10
287.2853912456
 20
179.6087046676
 30
0.0
 10
286.8114686414
 20
179.73038021
 30
0.0
 10
286.2943451988
 20
179.8550788113
 30
0.0
 10
285.7455629718
 20
179.9663552335
 30
0.0
 10
284.9803095161
 20
180.083422403
 30
0.0
 10
284.3932396824
 20
180.1211784821
 30
0.0
 10
284.0
 20
180.1211784821
 30
0.0
  0
SPLINE
  5
322
100
AcDbEntity
  8
1
100
AcDbSpline
 62
6
  6
CONTINUOUS
 70
0
 71
3
 72
23
 73
19
 74
0
 42
0.0000001
 43
0.0000001
 44
0.0000000001
 40
0.0
 40
0.0
 40
0.0
 40
0.0
 40
0.0184012597
 40
0.034473728
 40
0.048862242
 40
0.0626721123
 40
0.0933866733
 40
0.1123754217
 40
0.1342104299
 40
0.1862913411
 40
0.2480783111
 40
0.3168255001
 40
0.3898617061
 40
0.4650962202
 40
0.5412869562
 40
0.6941154498
 40
0.8470538126
 40
1.0
 40
1.0
 40
1.0
 40
1.0
 10
288.0787615394
 20
140.5266422767
 30
0.0
 10
288.1190160488
 20
140.5266637179
 30
0.0
 10
288.1946102328
 20
140.5225318376
 30
0.0
 10
288.2994441074
 20
140.4981454639
 30
0.0
 10
288.386682068
 20
140.4530907109
 30
0.0
 10
288.4783319914
 20
140.3590340088
 30
0.0
 10
288.5177380609
 20
140.2178822431
 30
0.0
 10
288.5170426424
 20
140.0616183426
 30
0.0
 10
288.4876349606
 20
139.8597080492
 30
0.0
 10
288.394367389
 20
139.5759703271
 30
0.0
 10
288.2135037343
 20
139.2184952881
 30
0.0
 10
287.9611130455
 20
138.850082508
 30
0.0
 10
287.6463775691
 20
138.4931563466
 30
0.0
 10
287.2794720217
 20
138.1651124902
 30
0.0
 10
286.7357410181
 20
137.779224214
 30
0.0
 10
285.9794929968
 20
137.4087953961
 30
0.0
 10
285.0052438835
 20
137.147524856
 30
0.0
 10
284.3345844101
 20
137.090144929
 30
0.0
 10
284.0
 20
137.090144929
 30
0.0
  0
SPLINE
  5
323
100
AcDbEntity
  8
1
100
AcDbSpline
 62
6
  6
CONTINUOUS
 70
0
 71
3
 72
15
 73
11
 74
0
 42
0.0000001
 43
0.0000001
 44
0.0000000001
 40
0.0
 40
0.0
 40
0.0
 40
0.0
 40
0.1252570027
 40
0.2502386126
 40
0.3751026418
 40
0.5000028313
 40
0.6249027726
 40
0.7497660958
 40
0.8747472157
 40
1.0
 40
1.0
 40
1.0
 40
1.0
 10
278.0
 20
157.2113234112
 30
0.0
 10
277.6327679556
 20
157.2113234112
 30
0.0
 10
276.8914166707
 20
157.3531126822
 30
0.0
 10
275.9456413009
 20
157.9653653443
 30
0.0
 10
275.3052270389
 20
158.8942957331
 30
0.0
 10
275.0789547469
 20
160.0000250508
 30
0.0
 10
275.3052461043
 20
161.1057481072
 30
0.0
 10
275.9456729646
 20
162.0346644467
 30
0.0
 10
276.8914442113
 20
162.6468926833
 30
0.0
 10
277.6327803233
 20
162.7886765888
 30
0.0
 10
278.0
 20
162.7886765888
 30
0.0
  0
SPLINE
  5
324
100
AcDbEntity
  8
1
100
AcDbSpline
 62
6
  6
CONTINUOUS
 70
0
 71
3
 72
16
 73
12
 74
0
 42
0.0000001
 43
0.0000001
 44
0.0000000001
 40
0.0
 40
0.0
 40
0.0
 40
0.0
 40
0.1698604891
 40
0.3331567575
 40
0.4837623584
 40
0.617083521
 40
0.7307562607
 40
0.8264542219
 40
0.8699600923
 40
0.912367852
 40
1.0
 40
1.0
 40
1.0
 40
1.0
 10
278.0
 20
137.090144929
 30
0.0
 10
277.7931732353
 20
137.090144929
 30
0.0
 10
277.3872805626
 20
137.1073646677
 30
0.0
 10
276.8025020215
 20
137.1850240046
 30
0.0
 10
276.2720596446
 20
137.3136521224
 30
0.0
 10
275.8197223433
 20
137.4920701147
 30
0.0
 10
275.4649640142
 20
137.7180387159
 30
0.0
 10
275.2589459423
 20
137.9567291636
 30
0.0
 10
275.1743021595
 20
138.1630185238
 30
0.0
 10
275.1399606237
 20
138.373185175
 30
0.0
 10
275.1721690472
 20
138.5348387785
 30
0.0
 10
275.211820776
 20
138.6339010483
 30
0.0
  0
SPLINE
  5
325
100
AcDbEntity
  8
1
100
AcDbSpline
 62
6
  6
CONTINUOUS
 70
0
 71
3
 72
23
 73
19
 74
0
 42
0.0000001
 43
0.0000001
 44
0.0000000001
 40
0.0
 40
0.0
 40
0.0
 40
0.0
 40
0.1529463142
 40
0.3058858905
 40
0.4587151059
 40
0.5349055203
 40
0.6101413149
 40
0.6831773156
 40
0.7519244707
 40
0.8137107556
 40
0.8657903789
 40
0.8876252757
 40
0.9066130957
 40
0.9373272586
 40
0.9511371178
 40
0.965525995
 40
0.9815989306
 40
1.0
 40
1.0
 40
1.0
 40
1.0
 10
284.0
 20
182.909855071
 30
0.0
 10
284.334585526
 20
182.909855071
 30
0.0
 10
285.0052493618
 20
182.8524740328
 30
0.0
 10
285.9795061983
 20
182.591202623
 30
0.0
 10
286.7357552876
 20
182.2207638172
 30
0.0
 10
287.27949222
 20
181.8348745883
 30
0.0
 10
287.6463951381
 20
181.5068230384
 30
0.0
 10
287.9611298859
 20
181.1498921823
 30
0.0
 10
288.2135218869
 20
180.7814810806
 30
0.0
 10
288.3943765402
 20
180.4240050544
 30
0.0
 10
288.4876396937
 20
180.1402701887
 30
0.0
 10
288.5170443533
 20
179.9383639523
 30
0.0
 10
288.5177353674
 20
179.7821027694
 30
0.0
 10
288.4783246322
 20
179.6409544649
 30
0.0
 10
288.3866707781
 20
179.5469021684
 30
0.0
 10
288.2994307601
 20
179.5018456622
 30
0.0
 10
288.1945919413
 20
179.4774729329
 30
0.0
 10
288.1189979994
 20
179.4733357411
 30
0.0
 10
288.078743805
 20
179.4733563499
 30
0.0
  0
SPLINE
  5
326
100
AcDbEntity
  8
1
100
AcDbSpline
 62
6
  6
CONTINUOUS
 70
0
 71
3
 72
23
 73
19
 74
0
 42
0.0000001
 43
0.0000001
 44
0.0000000001
 40
0.0
 40
0.0
 40
0.0
 40
0.0
 40
0.0661971271
 40
0.1313766407
 40
0.1944936989
 40
0.2550888284
 40
0.3136474447
 40
0.3724213268
 40
0.4344520876
 40
0.5000018181
 40
0.5655514642
 40
0.6275823261
 40
0.6863554656
 40
0.7449133777
 40
0.8055079411
 40
0.868624547
 40
0.9338031835
 40
1.0
 40
1.0
 40
1.0
 40
1.0
 10
284.0
 20
162.7886765888
 30
0.0
 10
284.2655085993
 20
162.7886765888
 30
0.0
 10
284.7925638833
 20
162.7759401264
 30
0.0
 10
285.5705681906
 20
162.7115421405
 30
0.0
 10
286.3189520177
 20
162.5851496966
 30
0.0
 10
287.0201502312
 20
162.3668380805
 30
0.0
 10
287.64808241
 20
162.0107715905
 30
0.0
 10
288.1464955733
 20
161.4736534638
 30
0.0
 10
288.4509666768
 20
160.7772105599
 30
0.0
 10
288.5499528
 20
159.9999778992
 30
0.0
 10
288.4509535434
 20
159.2227471036
 30
0.0
 10
288.1464754061
 20
158.5263099457
 30
0.0
 10
287.6480537867
 20
157.9892067144
 30
0.0
 10
287.0201237976
 20
157.6331549085
 30
0.0
 10
286.3189326246
 20
157.4148451979
 30
0.0
 10
285.5705557285
 20
157.2884559037
 30
0.0
 10
284.7925577714
 20
157.2240628537
 30
0.0
 10
284.2655073533
 20
157.2113234112
 30
0.0
 10
284.0
 20
157.2113234112
 30
0.0
  0
SPLINE
  5
327
100
AcDbEntity
  8
1
100
AcDbSpline
 62
6
  6
CONTINUOUS
 70
0
 71
3
 72
16
 73
12
 74
0
 42
0.0000001
 43
0.0000001
 44
0.0000000001
 40
0.0
 40
0.0
 40
0.0
 40
0.0
 40
0.0876245227
 40
0.1300320185
 40
0.1735396047
 40
0.2692444072
 40
0.3829241096
 40
0.5162492306
 40
0.6668568054
 40
0.8301476613
 40
1.0
 40
1.0
 40
1.0
 40
1.0
 10
275.2117209966
 20
181.3663481219
 30
0.0
 10
275.1721050752
 20
181.4654063604
 30
0.0
 10
275.139955572
 20
181.6270497534
 30
0.0
 10
275.1743603466
 20
181.8371821164
 30
0.0
 10
275.2590590072
 20
182.0434416028
 30
0.0
 10
275.4651193911
 20
182.2820853676
 30
0.0
 10
275.8198916647
 20
182.508011485
 30
0.0
 10
276.2722202461
 20
182.6863964394
 30
0.0
 10
276.8026288799
 20
182.8149958517
 30
0.0
 10
277.3873514751
 20
182.8926412239
 30
0.0
 10
277.7931982004
 20
182.909855071
 30
0.0
 10
278.0
 20
182.909855071
 30
0.0
  0
SPLINE
  5
328
100
AcDbEntity
  8
1
100
AcDbSpline
 62
6
  6
CONTINUOUS
 70
0
 71
3
 72
15
 73
11
 74
0
 42
0.0000001
 43
0.0000001
 44
0.0000000001
 40
0.0
 40
0.0
 40
0.0
 40
0.0
 40
0.124997355
 40
0.2500020596
 40
0.3750004484
 40
0.5
 40
0.6249995516
 40
0.7499979404
 40
0.875002645
 40
1.0
 40
1.0
 40
1.0
 40
1.0
 10
193.0
 20
154.8482405918
 30
0.0
 10
193.0
 20
155.2775944918
 30
0.0
 10
192.988759322
 20
156.1363138891
 30
0.0
 10
192.9590968474
 20
157.4240491946
 30
0.0
 10
192.9335647504
 20
158.711910432
 30
0.0
 10
192.9239794763
 20
160.0
 30
0.0
 10
192.9335647503
 20
161.288089568
 30
0.0
 10
192.9590968477
 20
162.5759508054
 30
0.0
 10
192.9887593216
 20
163.8636861109
 30
0.0
 10
193.0
 20
164.7224055082
 30
0.0
 10
193.0
 20
165.1517594082
 30
0.0
  0
SPLINE
  5
329
100
AcDbEntity
  8
1
100
AcDbSpline
 62
6
  6
CONTINUOUS
 70
0
 71
3
 72
19
 73
15
 74
0
 42
0.0000001
 43
0.0000001
 44
0.0000000001
 40
0.0
 40
0.0
 40
0.0
 40
0.0
 40
0.0629569901
 40
0.1259029347
 40
0.1886660121
 40
0.2512550471
 40
0.3758347358
 40
0.500001491
 40
0.6241570341
 40
0.7487309245
 40
0.8113207968
 40
0.8740889782
 40
0.9370400436
 40
1.0
 40
1.0
 40
1.0
 40
1.0
 10
220.7254698841
 20
170.4724793962
 30
0.0
 10
221.0853119861
 20
170.1370209411
 30
0.0
 10
221.7701763555
 20
169.4277186599
 30
0.0
 10
222.6789608492
 20
168.2636726973
 30
0.0
 10
223.4608009415
 20
167.013924525
 30
0.0
 10
224.3221962183
 20
165.2580086177
 30
0.0
 10
225.0535723721
 20
162.9185545996
 30
0.0
 10
225.3480406572
 20
160.0000548136
 30
0.0
 10
225.0535899348
 20
157.0816037396
 30
0.0
 10
224.3222987916
 20
154.7422581943
 30
0.0
 10
223.4609397124
 20
152.9863224453
 30
0.0
 10
222.6790726625
 20
151.7364902508
 30
0.0
 10
221.7702557975
 20
150.572334838
 30
0.0
 10
221.0853162996
 20
149.8630183111
 30
0.0
 10
220.7254688341
 20
149.5275316175
 30
0.0
  0
SPLINE
  5
32A
100
AcDbEntity
  8
1
100
AcDbSpline
 62
6
  6
CONTINUOUS
 70
0
 71
3
 72
17
 73
13
 74
0
 42
0.0000001
 43
0.0000001
 44
0.0000000001
 40
0.0
 40
0.0
 40
0.0
 40
0.0
 40
0.0259771912
 40
0.0545597879
 40
0.0876874327
 40
0.1264754783
 40
0.2226605515
 40
0.3436453265
 40
0.4866906061
 40
0.6474617659
 40
0.820562314
 40
1.0
 40
1.0
 40
1.0
 40
1.0
 10
193.0
 20
173.9025
 30
0.0
 10
193.0
 20
173.9119183594
 30
0.0
 10
193.0036324626
 20
173.9318232767
 30
0.0
 10
193.0190960561
 20
173.9600476451
 30
0.0
 10
193.0438105736
 20
173.9871596699
 30
0.0
 10
193.0922147734
 20
174.0245449108
 30
0.0
 10
193.1758949619
 20
174.0662515621
 30
0.0
 10
193.2999505291
 20
174.1076546477
 30
0.0
 10
193.4503882148
 20
174.1416893512
 30
0.0
 10
193.6215416744
 20
174.1671258661
 30
0.0
 10
193.8070951918
 20
174.1828066505
 30
0.0
 10
193.9349426086
 20
174.1863369961
 30
0.0
 10
194.0
 20
174.186296887
 30
0.0
  0
SPLINE
  5
32B
100
AcDbEntity
  8
1
100
AcDbSpline
 62
6
  6
CONTINUOUS
 70
0
 71
3
 72
17
 73
13
 74
0
 42
0.0000001
 43
0.0000001
 44
0.0000000001
 40
0.0
 40
0.0
 40
0.0
 40
0.0
 40
0.179437686
 40
0.3525382341
 40
0.5133093939
 40
0.6563546735
 40
0.7773394485
 40
0.8735245217
 40
0.9123125673
 40
0.9454402121
 40
0.9740228088
 40
1.0
 40
1.0
 40
1.0
 40
1.0
 10
194.0
 20
145.813703113
 30
0.0
 10
193.9349426086
 20
145.8136630039
 30
0.0
 10
193.8070951918
 20
145.8171933495
 30
0.0
 10
193.6215416744
 20
145.8328741339
 30
0.0
 10
193.4503882148
 20
145.8583106488
 30
0.0
 10
193.2999505291
 20
145.8923453523
 30
0.0
 10
193.1758949619
 20
145.9337484379
 30
0.0
 10
193.0922147734
 20
145.9754550892
 30
0.0
 10
193.0438105736
 20
146.0128403301
 30
0.0
 10
193.0190960561
 20
146.0399523549
 30
0.0
 10
193.0036324626
 20
146.0681767233
 30
0.0
 10
193.0
 20
146.0880816406
 30
0.0
 10
193.0
 20
146.0975
 30
0.0
  0
ENDSEC
  0
SECTION
  2
OBJECTS
  0
DICTIONARY
  5
C
100
AcDbDictionary
280
0
281
1
  3
ACAD_GROUP
350
D
  3
ACAD_MLINESTYLE
350
17
  3
ACAD_LAYOUT
350
1A
  3
ACAD_PLOTSETTINGS
350
19
  3
ACAD_PLOTSTYLENAME
350
E
  0
DICTIONARY
  5
D
102
{ACAD_REACTORS
330
C
102
}
100
AcDbDictionary
280
0
281
1
  0
ACDBDICTIONARYWDFLT
  5
E
102
{ACAD_REACTORS
330
C
102
}
100
AcDbDictionary
281
1
  3
Normal
350
F
100
AcDbDictionaryWithDefault
340
F
  0
DICTIONARY
  5
17
102
{ACAD_REACTORS
330
C
102
}
100
AcDbDictionary
280
0
281
1
  3
Standard
350
18
  0
DICTIONARY
  5
19
102
{ACAD_REACTORS
330
C
102
}
100
AcDbDictionary
281
1
  0
DICTIONARY
  5
1A
102
{ACAD_REACTORS
330
C
102
}
100
AcDbDictionary
281
1
  3
Model
350
32C
  3
Layout1
350
32D
  0
ACDBPLACEHOLDER
  5
F
102
{ACAD_REACTORS
330
E
102
}
  0
MLINESTYLE
  5
18
102
{ACAD_REACTORS
330
17
102
}
100
AcDbMlineStyle
  2
STANDARD
 70
0
  3

 62
256
 51
90.0
 52
90.0
 71
2
 49
0.5
 62
256
  6
BYLAYER
 49
-0.5
 62
256
  6
BYLAYER
  0
LAYOUT
  5
32C
102
{ACAD_REACTORS
330
1A
102
}
100
AcDbPlotSettings
  1

  2
none_device
  4
ISO_A3_(420.00_x_297.00_MM)
  6

 40
0.0
 41
0.0
 42
0.0
 43
0.0
 44
420.0
 45
297.0
 46
0.0
 47
0.0
 48
0.0
 49
0.0
140
0.0
141
0.0
142
1.0
143
1.0
 70
1024
 72
1
 73
0
 74
0
  7

 75
0
147
1.0
148
0.0
149
0.0
100
AcDbLayout
  1
Model
 70
0
 71
0
 10
0.0
 20
0.0
 11
420.0
 21
297.0
 12
0.0
 22
0.0
 32
0.0
 14
0.0
 24
0.0
 34
0.0
 15
0.0
 25
0.0
 35
0.0
146
0.0
 13
0.0
 23
0.0
 33
0.0
 16
1.0
 26
0.0
 36
0.0
 17
0.0
 27
1.0
 37
0.0
 76
0
330
239
345
0
346
0
  0
LAYOUT
  5
32D
102
{ACAD_REACTORS
330
1A
102
}
100
AcDbPlotSettings
  1

  2
none_device
  4
ISO_A3_(420.00_x_297.00_MM)
  6

 40
0.0
 41
0.0
 42
0.0
 43
0.0
 44
420.0
 45
297.0
 46
0.0
 47
0.0
 48
0.0
 49
0.0
140
0.0
141
0.0
142
1.0
143
1.0
 70
0
 72
1
 73
0
 74
0
  7

 75
0
147
1.0
148
0.0
149
0.0
100
AcDbLayout
  1
Layout1
 70
0
 71
1
 10
0.0
 20
0.0
 11
420.0
 21
297.0
 12
0.0
 22
0.0
 32
0.0
 14
0.0
 24
0.0
 34
0.0
 15
0.0
 25
0.0
 35
0.0
146
0.0
 13
0.0
 23
0.0
 33
0.0
 16
1.0
 26
0.0
 36
0.0
 17
0.0
 27
1.0
 37
0.0
 76
0
330
23A
345
0
346
0
  0
ENDSEC
  0
EOF
