999
DXF file: 200_50-520-16-3-bmg.dxf
999
Pro/ENGINEER 2010430 by Parametric Technology Corporation
  0
SECTION
  2
HEADER
  9
$ACADVER
  1
AC1021
  9
$DWGCODEPAGE
  3
ANSI_1252
  9
$EXTMAX
 10
420.0
 20
297.0
 30
0.0
  9
$EXTMIN
 10
0.0
 20
0.0
 30
0.0
  9
$LIMMIN
 10
0.0
 20
0.0
  9
$LIMMAX
 10
420.0
 20
297.0
  9
$VIEWCTR
 10
210.0
 20
148.5
  9
$VIEWSIZE
 40
297.0
  9
$CLAYER
  8
0
  9
$LTSCALE
 40
23.1
  9
$CELTYPE
  6
BYLAYER
  9
$DIMSCALE
 40
1.0
  9
$DIMASZ
 40
3.5
  9
$DIMEXO
 40
2.625
  9
$DIMDLI
 40
15.96
  9
$DIMEXE
 40
7.56
  9
$DIMCEN
 40
3.78
  9
$DIMLFAC
 40
1.0
  9
$DIMBLK
  1
_FILLED
  9
$DIMTXT
 40
3.5
  9
$DIMTOL
 70
0
  9
$DIMLIM
 70
0
  9
$DIMTFAC
 40
1.0
  9
$PDMODE
 70
3
  9
$PDSIZE
 40
0.3125
  9
$HANDSEED
  5
330
  9
$TILEMODE
 70
1
  9
$MEASUREMENT
 70
1
  9
$INSUNITS
 70
4
  0
ENDSEC
  0
SECTION
  2
CLASSES
  0
CLASS
  1
ACDBDICTIONARYWDFLT
  2
AcDbDictionaryWithDefault
  3
AutoCAD 2000
 90
0
 91
1
280
0
281
0
  0
CLASS
  1
ACDBPLACEHOLDER
  2
AcDbPlaceHolder
  3
AutoCAD 2000
 90
0
 91
1
280
0
281
0
  0
CLASS
  1
LAYOUT
  2
AcDbLayout
  3
AutoCAD 2000
 90
0
 91
0
280
0
281
0
  0
ENDSEC
  0
SECTION
  2
TABLES
  0
TABLE
  2
VPORT
  5
8
100
AcDbSymbolTable
 70
2
  0
VPORT
  5
1F4
100
AcDbSymbolTableRecord
100
AcDbViewportTableRecord
  2
*ACTIVE
 70
0
 10
0.0
 20
0.0
 11
1.0
 21
1.0
 12
210.0
 22
148.5
 13
0.0
 23
0.0
 14
1.0
 24
1.0
 15
0.0
 25
0.0
 16
0.0
 26
0.0
 36
1.0
 17
0.0
 27
0.0
 37
0.0
 40
297.0
 41
1.4141414141
 42
50.0
 43
0.0
 44
0.0
 50
0.0
 51
0.0
 71
0
 72
100
 73
1
 74
1
 75
0
 76
0
 77
0
 78
0
  0
ENDTAB
  0
TABLE
  2
LTYPE
  5
5
100
AcDbSymbolTable
 70
6
  0
LTYPE
  5
14
100
AcDbSymbolTableRecord
100
AcDbLinetypeTableRecord
  2
BYBLOCK
 70
0
  3

 72
65
 73
0
 40
0.0
  0
LTYPE
  5
15
100
AcDbSymbolTableRecord
100
AcDbLinetypeTableRecord
  2
BYLAYER
 70
0
  3

 72
65
 73
0
 40
0.0
  0
LTYPE
  5
16
100
AcDbSymbolTableRecord
100
AcDbLinetypeTableRecord
  2
CONTINUOUS
 70
64
  3
Solid line
 72
65
 73
0
 40
0.0
  0
LTYPE
  5
1F5
100
AcDbSymbolTableRecord
100
AcDbLinetypeTableRecord
  2
CENTER
 70
64
  3
____ _ ____ _ ____ _ ____ _ ____ _ ____ _ ____
 72
65
 73
4
 40
0.6
 49
0.375
 74
0
 49
-0.075
 74
0
 49
0.075
 74
0
 49
-0.075
 74
0
  0
LTYPE
  5
1F6
100
AcDbSymbolTableRecord
100
AcDbLinetypeTableRecord
  2
HIDDEN
 70
64
  3
- - - - - - - - - - - - - - - - - - - -
 72
65
 73
2
 40
0.2
 49
0.1
 74
0
 49
-0.1
 74
0
  0
LTYPE
  5
1F7
100
AcDbSymbolTableRecord
100
AcDbLinetypeTableRecord
  2
PHANTOM
 70
64
  3
_____ _ _ _____ _ _ _____ _ _ _____
 72
65
 73
6
 40
0.8
 49
0.45
 74
0
 49
-0.05
 74
0
 49
0.1
 74
0
 49
-0.05
 74
0
 49
0.1
 74
0
 49
-0.05
 74
0
  0
LTYPE
  5
1F8
100
AcDbSymbolTableRecord
100
AcDbLinetypeTableRecord
  2
DOT
 70
64
  3
. . . . . . . . . . . . . . . . . . . .
 72
65
 73
2
 40
0.2
 49
0.1
 74
0
 49
-0.1
 74
0
  0
LTYPE
  5
1F9
100
AcDbSymbolTableRecord
100
AcDbLinetypeTableRecord
  2
DASHED
 70
64
  3
- - - - - - - - - - - - - - - - - - - -
 72
65
 73
2
 40
0.2
 49
0.1
 74
0
 49
-0.1
 74
0
  0
ENDTAB
  0
TABLE
  2
LAYER
  5
2
100
AcDbSymbolTable
 70
36
  0
LAYER
  5
10
100
AcDbSymbolTableRecord
100
AcDbLayerTableRecord
  2
0
 70
0
 62
7
  6
CONTINUOUS
370
-3
390
F
  0
LAYER
  5
1FA
100
AcDbSymbolTableRecord
100
AcDbLayerTableRecord
  2
DEFAULT_1
 70
0
 62
7
  6
CENTER
370
-3
390
F
  0
LAYER
  5
1FB
100
AcDbSymbolTableRecord
100
AcDbLayerTableRecord
  2
DEFAULT_2
 70
0
 62
8
  6
HIDDEN
370
-3
390
F
  0
LAYER
  5
1FC
100
AcDbSymbolTableRecord
100
AcDbLayerTableRecord
  2
DEFAULT_3
 70
0
 62
7
  6
PHANTOM
370
-3
390
F
  0
LAYER
  5
1FD
100
AcDbSymbolTableRecord
100
AcDbLayerTableRecord
  2
1
 70
0
 62
7
  6
CONTINUOUS
370
-3
390
F
  0
LAYER
  5
1FE
100
AcDbSymbolTableRecord
100
AcDbLayerTableRecord
  2
2
 70
0
 62
7
  6
CONTINUOUS
370
-3
390
F
  0
LAYER
  5
1FF
100
AcDbSymbolTableRecord
100
AcDbLayerTableRecord
  2
4
 70
0
 62
7
  6
CONTINUOUS
370
-3
390
F
  0
LAYER
  5
200
100
AcDbSymbolTableRecord
100
AcDbLayerTableRecord
  2
5
 70
0
 62
7
  6
CONTINUOUS
370
-3
390
F
  0
LAYER
  5
201
100
AcDbSymbolTableRecord
100
AcDbLayerTableRecord
  2
6
 70
0
 62
7
  6
CONTINUOUS
370
-3
390
F
  0
LAYER
  5
202
100
AcDbSymbolTableRecord
100
AcDbLayerTableRecord
  2
ACHSEN
 70
0
 62
7
  6
CONTINUOUS
370
-3
390
F
  0
LAYER
  5
203
100
AcDbSymbolTableRecord
100
AcDbLayerTableRecord
  2
ANALYSEN
 70
0
 62
7
  6
CONTINUOUS
370
-3
390
F
  0
LAYER
  5
204
100
AcDbSymbolTableRecord
100
AcDbLayerTableRecord
  2
AUFMASS_EINFUEHRFASE
 70
0
 62
7
  6
CONTINUOUS
370
-3
390
F
  0
LAYER
  5
205
100
AcDbSymbolTableRecord
100
AcDbLayerTableRecord
  2
AUFMASS_WEICHBEARBEITUNG
 70
0
 62
7
  6
CONTINUOUS
370
-3
390
F
  0
LAYER
  5
206
100
AcDbSymbolTableRecord
100
AcDbLayerTableRecord
  2
AUFMASS_WEICHBEARBEITUNG_FERTIG
 70
0
 62
7
  6
CONTINUOUS
370
-3
390
F
  0
LAYER
  5
207
100
AcDbSymbolTableRecord
100
AcDbLayerTableRecord
  2
AUFMASS_WEICHBE_INNENKONTUR
 70
0
 62
7
  6
CONTINUOUS
370
-3
390
F
  0
LAYER
  5
208
100
AcDbSymbolTableRecord
100
AcDbLayerTableRecord
  2
AUSFORMSCHRAEGEN
 70
0
 62
7
  6
CONTINUOUS
370
-3
390
F
  0
LAYER
  5
209
100
AcDbSymbolTableRecord
100
AcDbLayerTableRecord
  2
AUSSENKONTUR
 70
0
 62
7
  6
CONTINUOUS
370
-3
390
F
  0
LAYER
  5
20A
100
AcDbSymbolTableRecord
100
AcDbLayerTableRecord
  2
BEZUG
 70
0
 62
7
  6
CONTINUOUS
370
-3
390
F
  0
LAYER
  5
20B
100
AcDbSymbolTableRecord
100
AcDbLayerTableRecord
  2
BEZUGSACHSEN
 70
0
 62
7
  6
CONTINUOUS
370
-3
390
F
  0
LAYER
  5
20C
100
AcDbSymbolTableRecord
100
AcDbLayerTableRecord
  2
BEZUGSACHSENKENNZEICHEN
 70
0
 62
7
  6
CONTINUOUS
370
-3
390
F
  0
LAYER
  5
20D
100
AcDbSymbolTableRecord
100
AcDbLayerTableRecord
  2
BEZUGSEBENEN
 70
0
 62
7
  6
CONTINUOUS
370
-3
390
F
  0
LAYER
  5
20E
100
AcDbSymbolTableRecord
100
AcDbLayerTableRecord
  2
BEZUGSEBENE_B
 70
0
 62
7
  6
CONTINUOUS
370
-3
390
F
  0
LAYER
  5
20F
100
AcDbSymbolTableRecord
100
AcDbLayerTableRecord
  2
BEZUGSPUNKTE
 70
0
 62
7
  6
CONTINUOUS
370
-3
390
F
  0
LAYER
  5
210
100
AcDbSymbolTableRecord
100
AcDbLayerTableRecord
  2
BG_STARTBEZUEGE
 70
0
 62
7
  6
CONTINUOUS
370
-3
390
F
  0
LAYER
  5
211
100
AcDbSymbolTableRecord
100
AcDbLayerTableRecord
  2
BOHRUNGEN
 70
0
 62
7
  6
CONTINUOUS
370
-3
390
F
  0
LAYER
  5
212
100
AcDbSymbolTableRecord
100
AcDbLayerTableRecord
  2
EBENEN
 70
0
 62
7
  6
CONTINUOUS
370
-3
390
F
  0
LAYER
  5
213
100
AcDbSymbolTableRecord
100
AcDbLayerTableRecord
  2
FASEN
 70
0
 62
7
  6
CONTINUOUS
370
-3
390
F
  0
LAYER
  5
214
100
AcDbSymbolTableRecord
100
AcDbLayerTableRecord
  2
FLAECHEN
 70
0
 62
7
  6
CONTINUOUS
370
-3
390
F
  0
LAYER
  5
215
100
AcDbSymbolTableRecord
100
AcDbLayerTableRecord
  2
FORM_LAGE_TOLERANZEN
 70
0
 62
7
  6
CONTINUOUS
370
-3
390
F
  0
LAYER
  5
216
100
AcDbSymbolTableRecord
100
AcDbLayerTableRecord
  2
GEOMTOL
 70
0
 62
7
  6
CONTINUOUS
370
-3
390
F
  0
LAYER
  5
217
100
AcDbSymbolTableRecord
100
AcDbLayerTableRecord
  2
GEWINDE
 70
0
 62
7
  6
CONTINUOUS
370
-3
390
F
  0
LAYER
  5
218
100
AcDbSymbolTableRecord
100
AcDbLayerTableRecord
  2
HILFEN
 70
0
 62
7
  6
CONTINUOUS
370
-3
390
F
  0
LAYER
  5
219
100
AcDbSymbolTableRecord
100
AcDbLayerTableRecord
  2
INNENKONTUR
 70
0
 62
7
  6
CONTINUOUS
370
-3
390
F
  0
LAYER
  5
21A
100
AcDbSymbolTableRecord
100
AcDbLayerTableRecord
  2
KOORDINATENSYSTEME
 70
0
 62
7
  6
CONTINUOUS
370
-3
390
F
  0
LAYER
  5
21B
100
AcDbSymbolTableRecord
100
AcDbLayerTableRecord
  2
KOORDSYS
 70
0
 62
7
  6
CONTINUOUS
370
-3
390
F
  0
LAYER
  5
21C
100
AcDbSymbolTableRecord
100
AcDbLayerTableRecord
  2
KURVEN
 70
0
 62
7
  6
CONTINUOUS
370
-3
390
F
  0
LAYER
  5
21D
100
AcDbSymbolTableRecord
100
AcDbLayerTableRecord
  2
KURVE_FUER_GTOL_DETAILANSICHT
 70
0
 62
7
  6
CONTINUOUS
370
-3
390
F
  0
LAYER
  5
21E
100
AcDbSymbolTableRecord
100
AcDbLayerTableRecord
  2
KURVE_GAUGE2_POLIGON_INNENEINST
 70
0
 62
7
  6
CONTINUOUS
370
-3
390
F
  0
LAYER
  5
21F
100
AcDbSymbolTableRecord
100
AcDbLayerTableRecord
  2
KURVE_PHANTOM1_GAUGE_PIN_1
 70
0
 62
7
  6
CONTINUOUS
370
-3
390
F
  0
LAYER
  5
220
100
AcDbSymbolTableRecord
100
AcDbLayerTableRecord
  2
KURVE_PHANTOM2_GAUGE_PIN1
 70
0
 62
7
  6
CONTINUOUS
370
-3
390
F
  0
LAYER
  5
221
100
AcDbSymbolTableRecord
100
AcDbLayerTableRecord
  2
KURVE_POLIGON_BEMASUNG
 70
0
 62
7
  6
CONTINUOUS
370
-3
390
F
  0
LAYER
  5
222
100
AcDbSymbolTableRecord
100
AcDbLayerTableRecord
  2
NOCUT
 70
0
 62
7
  6
CONTINUOUS
370
-3
390
F
  0
LAYER
  5
223
100
AcDbSymbolTableRecord
100
AcDbLayerTableRecord
  2
PLATZIERUNG
 70
0
 62
7
  6
CONTINUOUS
370
-3
390
F
  0
LAYER
  5
224
100
AcDbSymbolTableRecord
100
AcDbLayerTableRecord
  2
PUNKTE
 70
0
 62
7
  6
CONTINUOUS
370
-3
390
F
  0
LAYER
  5
225
100
AcDbSymbolTableRecord
100
AcDbLayerTableRecord
  2
RUNDUNGEN
 70
0
 62
7
  6
CONTINUOUS
370
-3
390
F
  0
LAYER
  5
226
100
AcDbSymbolTableRecord
100
AcDbLayerTableRecord
  2
SK1
 70
0
 62
7
  6
CONTINUOUS
370
-3
390
F
  0
LAYER
  5
227
100
AcDbSymbolTableRecord
100
AcDbLayerTableRecord
  2
SK2
 70
0
 62
7
  6
CONTINUOUS
370
-3
390
F
  0
LAYER
  5
228
100
AcDbSymbolTableRecord
100
AcDbLayerTableRecord
  2
SK4
 70
0
 62
7
  6
CONTINUOUS
370
-3
390
F
  0
LAYER
  5
229
100
AcDbSymbolTableRecord
100
AcDbLayerTableRecord
  2
SKELETTE
 70
0
 62
7
  6
CONTINUOUS
370
-3
390
F
  0
LAYER
  5
22A
100
AcDbSymbolTableRecord
100
AcDbLayerTableRecord
  2
S_ACHSEN
 70
0
 62
7
  6
CONTINUOUS
370
-3
390
F
  0
LAYER
  5
22B
100
AcDbSymbolTableRecord
100
AcDbLayerTableRecord
  2
S_EBENEN
 70
0
 62
7
  6
CONTINUOUS
370
-3
390
F
  0
LAYER
  5
22C
100
AcDbSymbolTableRecord
100
AcDbLayerTableRecord
  2
S_KOORDSYS
 70
0
 62
7
  6
CONTINUOUS
370
-3
390
F
  0
LAYER
  5
22D
100
AcDbSymbolTableRecord
100
AcDbLayerTableRecord
  2
TEIL_STARTBEZUEGE
 70
0
 62
7
  6
CONTINUOUS
370
-3
390
F
  0
LAYER
  5
22E
100
AcDbSymbolTableRecord
100
AcDbLayerTableRecord
  2
TOL_BEZUEGE
 70
0
 62
7
  6
CONTINUOUS
370
-3
390
F
  0
LAYER
  5
22F
100
AcDbSymbolTableRecord
100
AcDbLayerTableRecord
  2
VERBFLAECHE
 70
0
 62
7
  6
CONTINUOUS
370
-3
390
F
  0
LAYER
  5
230
100
AcDbSymbolTableRecord
100
AcDbLayerTableRecord
  2
VERERBUNG
 70
0
 62
7
  6
CONTINUOUS
370
-3
390
F
  0
LAYER
  5
231
100
AcDbSymbolTableRecord
100
AcDbLayerTableRecord
  2
VERPACKUNG
 70
0
 62
7
  6
CONTINUOUS
370
-3
390
F
  0
LAYER
  5
232
100
AcDbSymbolTableRecord
100
AcDbLayerTableRecord
  2
VOLGEOM
 70
0
 62
7
  6
CONTINUOUS
370
-3
390
F
  0
LAYER
  5
233
100
AcDbSymbolTableRecord
100
AcDbLayerTableRecord
  2
VOLUMEN
 70
0
 62
7
  6
CONTINUOUS
370
-3
390
F
  0
LAYER
  5
234
100
AcDbSymbolTableRecord
100
AcDbLayerTableRecord
  2
XSEC_DATUMS
 70
0
 62
7
  6
CONTINUOUS
370
-3
390
F
  0
LAYER
  5
235
100
AcDbSymbolTableRecord
100
AcDbLayerTableRecord
  2
ZEICHNUNG
 70
0
 62
7
  6
CONTINUOUS
370
-3
390
F
  0
ENDTAB
  0
TABLE
  2
STYLE
  5
3
100
AcDbSymbolTable
 70
1
  0
STYLE
  5
11
100
AcDbSymbolTableRecord
100
AcDbTextStyleTableRecord
  2
STANDARD
 70
0
 40
0.0
 41
0.7
 50
0.0
 71
0
 42
0.2
  3
txt
  4

  0
STYLE
  5
236
100
AcDbSymbolTableRecord
100
AcDbTextStyleTableRecord
  2
TEXTSTYLE_1
 70
0
 40
0.0
 41
0.8
 50
0.0
 71
0
 42
0.2
  3
gdt
  4

  0
STYLE
  5
237
100
AcDbSymbolTableRecord
100
AcDbTextStyleTableRecord
  2
TEXTSTYLE_2
 70
0
 40
0.0
 41
0.7
 50
0.0
 71
0
 42
0.2
  3
gdt
  4

  0
ENDTAB
  0
TABLE
  2
VIEW
  5
6
100
AcDbSymbolTable
 70
0
  0
ENDTAB
  0
TABLE
  2
UCS
  5
7
100
AcDbSymbolTable
 70
0
  0
ENDTAB
  0
TABLE
  2
APPID
  5
9
100
AcDbSymbolTable
 70
1
  0
APPID
  5
238
100
AcDbSymbolTableRecord
100
AcDbRegAppTableRecord
  2
ACAD
 70
0
  0
ENDTAB
  0
TABLE
  2
BLOCK_RECORD
  5
1
100
AcDbSymbolTable
 70
0
  0
BLOCK_RECORD
  5
239
100
AcDbSymbolTableRecord
100
AcDbBlockTableRecord
  2
*Model_Space
  0
BLOCK_RECORD
  5
23A
100
AcDbSymbolTableRecord
100
AcDbBlockTableRecord
  2
*Paper_Space
  0
BLOCK_RECORD
  5
23B
100
AcDbSymbolTableRecord
100
AcDbBlockTableRecord
  2
_FILLED
  0
BLOCK_RECORD
  5
23C
100
AcDbSymbolTableRecord
100
AcDbBlockTableRecord
  2
*D0
  0
BLOCK_RECORD
  5
23D
100
AcDbSymbolTableRecord
100
AcDbBlockTableRecord
  2
*D1
  0
BLOCK_RECORD
  5
23E
100
AcDbSymbolTableRecord
100
AcDbBlockTableRecord
  2
*D2
  0
BLOCK_RECORD
  5
23F
100
AcDbSymbolTableRecord
100
AcDbBlockTableRecord
  2
*D3
  0
BLOCK_RECORD
  5
240
100
AcDbSymbolTableRecord
100
AcDbBlockTableRecord
  2
*D4
  0
BLOCK_RECORD
  5
241
100
AcDbSymbolTableRecord
100
AcDbBlockTableRecord
  2
*D5
  0
BLOCK_RECORD
  5
242
100
AcDbSymbolTableRecord
100
AcDbBlockTableRecord
  2
*D6
  0
ENDTAB
  0
TABLE
  2
DIMSTYLE
  5
A
100
AcDbSymbolTable
 70
1
100
AcDbDimStyleTable
 71
0
  0
DIMSTYLE
105
243
100
AcDbSymbolTableRecord
100
AcDbDimStyleTableRecord
  2
STANDARD
 70
0
  3

  4

 40
1.0
 41
3.5
 42
0.0625
 43
0.38
 44
0.18
 45
0.0
 46
0.0
 47
0.005
 48
0.005
140
3.5
141
0.09
142
0.0
143
25.4
144
1.0
145
0.0
146
1.0
147
0.09
 71
0.0
 72
0.0
 73
0
 74
0
 75
0
 76
0
 77
1
 78
8
170
0
171
2
172
0
173
0
174
0
175
0
176
0
177
0
178
5
270
2
271
3
272
3
273
2
274
2
275
0
280
0
281
0
282
0
283
1
284
8
285
0
286
0
287
3
288
0
340
11
341
23B
342
23B
343
23B
344
23B
  0
DIMSTYLE
105
244
100
AcDbSymbolTableRecord
100
AcDbDimStyleTableRecord
  2
DIMSTYLE_1
 70
0
  3

  4

 40
1.0
 41
3.5
 42
0.0625
 43
0.38
 44
0.18
 45
0.0
 46
0.0
 47
0.0
 48
0.0
140
3.5
141
0.09
142
0.0
143
25.4
144
1.0
145
0.0
146
1.0
147
0.09
 71
0.0
 72
0.0
 73
0
 74
0
 75
0
 76
0
 77
1
 78
8
170
0
171
2
172
0
173
0
174
0
175
0
176
0
177
0
178
5
270
2
271
3
272
3
273
2
274
2
275
0
280
0
281
0
282
0
283
1
284
8
285
0
286
0
287
3
288
0
340
11
341
23B
342
23B
343
23B
344
23B
  0
DIMSTYLE
105
245
100
AcDbSymbolTableRecord
100
AcDbDimStyleTableRecord
  2
DIMSTYLE_2
 70
0
  3

  4

 40
1.0
 41
3.5
 42
0.0625
 43
0.38
 44
0.18
 45
0.0
 46
0.0
 47
0.0
 48
0.0
140
3.5
141
0.09
142
0.0
143
25.4
144
1.0
145
0.0
146
1.0
147
0.09
 71
0.0
 72
0.0
 73
0
 74
0
 75
0
 76
0
 77
1
 78
8
170
0
171
2
172
0
173
0
174
0
175
0
176
0
177
0
178
5
270
2
271
2
272
2
273
2
274
2
275
0
280
0
281
0
282
0
283
1
284
8
285
0
286
0
287
3
288
0
340
11
341
23B
342
23B
343
23B
344
23B
  0
ENDTAB
  0
ENDSEC
  0
SECTION
  2
BLOCKS
  0
BLOCK
  5
20
100
AcDbEntity
  8
0
100
AcDbBlockBegin
  2
*Model_Space
 70
0
 10
0.0
 20
0.0
 30
0.0
  3
*Model_Space
  1

  0
ENDBLK
  5
21
100
AcDbEntity
  8
0
100
AcDbBlockEnd
  0
BLOCK
  5
1C
100
AcDbEntity
  8
0
100
AcDbBlockBegin
  2
*Paper_Space
 70
0
 10
0.0
 20
0.0
 30
0.0
  3
*Paper_Space
  1

  0
ENDBLK
  5
1D
100
AcDbEntity
  8
0
100
AcDbBlockEnd
  0
BLOCK
  5
246
100
AcDbEntity
  8
0
100
AcDbBlockBegin
  2
_FILLED
 70
64
 10
0.0
 20
0.0
  3
_FILLED
  1

  0
SOLID
  5
247
100
AcDbEntity
  8
0
  6
BYBLOCK
 62
0
100
AcDbTrace
 10
0.0
 20
0.0
 11
-1.0
 21
0.125
 12
-1.0
 22
-0.125
 13
-1.0
 23
-0.125
  0
ENDBLK
  5
248
100
AcDbEntity
  8
0
  6
BYBLOCK
 62
0
100
AcDbBlockEnd
  0
BLOCK
  5
249
100
AcDbEntity
  8
0
100
AcDbBlockBegin
 62
2
  6
CONTINUOUS
  2
*D0
 70
65
 10
0.0
 20
0.0
  3
*D0
  1

  0
MTEXT
  5
24A
100
AcDbEntity
  8
0
100
AcDbMText
 62
5
  6
CONTINUOUS
  7
TEXTSTYLE_2
 71
2
 72
1
 10
318.495
 20
160.0
 30
0.0
 11
0.0
 21
1.0
 31
0.0
 44
0.9
  1
{\Fgdt;n}\Ftxt;85
 40
3.5
 41
9.9166666667
  0
LINE
  5
24B
100
AcDbEntity
  8
0
100
AcDbLine
 62
2
  6
CONTINUOUS
 10
228.0
 20
202.475
 11
324.37
 21
202.475
  0
LINE
  5
24C
100
AcDbEntity
  8
0
100
AcDbLine
 62
2
  6
CONTINUOUS
 10
228.0
 20
117.525
 11
324.37
 21
117.525
  0
LINE
  5
24D
100
AcDbEntity
  8
0
100
AcDbLine
 62
2
  6
CONTINUOUS
 10
322.87
 20
202.475
 11
322.87
 21
160.0
  0
LINE
  5
24E
100
AcDbEntity
  8
0
100
AcDbLine
 62
2
  6
CONTINUOUS
 10
322.87
 20
117.525
 11
322.87
 21
160.0
  0
INSERT
  5
24F
100
AcDbEntity
  8
0
100
AcDbBlockReference
 62
2
  6
CONTINUOUS
  2
_FILLED
 10
322.87
 20
202.475
 41
3.5
 42
3.5
 43
3.5
 50
90.0
  0
INSERT
  5
250
100
AcDbEntity
  8
0
100
AcDbBlockReference
 62
2
  6
CONTINUOUS
  2
_FILLED
 10
322.87
 20
117.525
 41
3.5
 42
3.5
 43
3.5
 50
270.0
  0
ENDBLK
  5
251
100
AcDbEntity
  8
0
  6
BYBLOCK
 62
0
100
AcDbBlockEnd
  0
BLOCK
  5
252
100
AcDbEntity
  8
2
100
AcDbBlockBegin
 62
2
  6
CONTINUOUS
  2
*D1
 70
65
 10
0.0
 20
0.0
  3
*D1
  1

  0
MTEXT
  5
253
100
AcDbEntity
  8
2
100
AcDbMText
 62
5
  6
CONTINUOUS
  7
STANDARD
 71
2
 72
1
 10
236.6175
 20
235.3625
 30
0.0
 11
1.0
 21
0.0
 31
0.0
 44
0.9
  1
93.235
 40
3.5
 41
15.0
  0
LINE
  5
254
100
AcDbEntity
  8
2
100
AcDbLine
 62
2
  6
CONTINUOUS
 10
190.0
 20
210.0
 11
190.0
 21
232.4875
  0
LINE
  5
255
100
AcDbEntity
  8
2
100
AcDbLine
 62
2
  6
CONTINUOUS
 10
283.235
 20
176.0
 11
283.235
 21
232.4875
  0
LINE
  5
256
100
AcDbEntity
  8
2
100
AcDbLine
 62
2
  6
CONTINUOUS
 10
190.0
 20
230.9875
 11
236.6175
 21
230.9875
  0
LINE
  5
257
100
AcDbEntity
  8
2
100
AcDbLine
 62
2
  6
CONTINUOUS
 10
283.235
 20
230.9875
 11
236.6175
 21
230.9875
  0
INSERT
  5
258
100
AcDbEntity
  8
2
100
AcDbBlockReference
 62
2
  6
CONTINUOUS
  2
_FILLED
 10
190.0
 20
230.9875
 41
3.5
 42
3.5
 43
3.5
 50
180.0
  0
INSERT
  5
259
100
AcDbEntity
  8
2
100
AcDbBlockReference
 62
2
  6
CONTINUOUS
  2
_FILLED
 10
283.235
 20
230.9875
 41
3.5
 42
3.5
 43
3.5
  0
ENDBLK
  5
25A
100
AcDbEntity
  8
0
  6
BYBLOCK
 62
0
100
AcDbBlockEnd
  0
BLOCK
  5
25B
100
AcDbEntity
  8
SK2
100
AcDbBlockBegin
 62
2
  6
CONTINUOUS
  2
*D2
 70
65
 10
0.0
 20
0.0
  3
*D2
  1

  0
MTEXT
  5
25C
100
AcDbEntity
  8
SK2
100
AcDbMText
 62
5
  6
CONTINUOUS
  7
STANDARD
 71
2
 72
1
 10
185.7175
 20
255.3625
 30
0.0
 11
1.0
 21
0.0
 31
0.0
 44
0.9
  1
195.035
 40
3.5
 41
17.0
  0
LINE
  5
25D
100
AcDbEntity
  8
SK2
100
AcDbLine
 62
2
  6
CONTINUOUS
 10
88.2
 20
160.0
 11
88.2
 21
252.4875
  0
LINE
  5
25E
100
AcDbEntity
  8
SK2
100
AcDbLine
 62
2
  6
CONTINUOUS
 10
283.235
 20
160.0
 11
283.235
 21
237.9875
  0
LINE
  5
25F
100
AcDbEntity
  8
SK2
100
AcDbLine
 62
2
  6
CONTINUOUS
 10
283.235
 20
243.9875
 11
283.235
 21
252.4875
  0
LINE
  5
260
100
AcDbEntity
  8
SK2
100
AcDbLine
 62
2
  6
CONTINUOUS
 10
88.2
 20
250.9875
 11
185.7175
 21
250.9875
  0
LINE
  5
261
100
AcDbEntity
  8
SK2
100
AcDbLine
 62
2
  6
CONTINUOUS
 10
283.235
 20
250.9875
 11
185.7175
 21
250.9875
  0
INSERT
  5
262
100
AcDbEntity
  8
SK2
100
AcDbBlockReference
 62
2
  6
CONTINUOUS
  2
_FILLED
 10
88.2
 20
250.9875
 41
3.5
 42
3.5
 43
3.5
 50
180.0
  0
INSERT
  5
263
100
AcDbEntity
  8
SK2
100
AcDbBlockReference
 62
2
  6
CONTINUOUS
  2
_FILLED
 10
283.235
 20
250.9875
 41
3.5
 42
3.5
 43
3.5
  0
ENDBLK
  5
264
100
AcDbEntity
  8
0
  6
BYBLOCK
 62
0
100
AcDbBlockEnd
  0
BLOCK
  5
265
100
AcDbEntity
  8
SK2
100
AcDbBlockBegin
 62
2
  6
CONTINUOUS
  2
*D3
 70
65
 10
0.0
 20
0.0
  3
*D3
  1

  0
MTEXT
  5
266
100
AcDbEntity
  8
SK2
100
AcDbMText
 62
5
  6
CONTINUOUS
  7
STANDARD
 71
2
 72
1
 10
255.6175
 20
225.3625
 30
0.0
 11
1.0
 21
0.0
 31
0.0
 44
0.9
  1
55.235
 40
3.5
 41
14.75
  0
LINE
  5
267
100
AcDbEntity
  8
SK2
100
AcDbLine
 62
2
  6
CONTINUOUS
 10
228.0
 20
210.0
 11
228.0
 21
222.4875
  0
LINE
  5
268
100
AcDbEntity
  8
SK2
100
AcDbLine
 62
2
  6
CONTINUOUS
 10
283.235
 20
160.0
 11
283.235
 21
222.4875
  0
LINE
  5
269
100
AcDbEntity
  8
SK2
100
AcDbLine
 62
2
  6
CONTINUOUS
 10
228.0
 20
220.9875
 11
255.6175
 21
220.9875
  0
LINE
  5
26A
100
AcDbEntity
  8
SK2
100
AcDbLine
 62
2
  6
CONTINUOUS
 10
283.235
 20
220.9875
 11
255.6175
 21
220.9875
  0
INSERT
  5
26B
100
AcDbEntity
  8
SK2
100
AcDbBlockReference
 62
2
  6
CONTINUOUS
  2
_FILLED
 10
228.0
 20
220.9875
 41
3.5
 42
3.5
 43
3.5
 50
180.0
  0
INSERT
  5
26C
100
AcDbEntity
  8
SK2
100
AcDbBlockReference
 62
2
  6
CONTINUOUS
  2
_FILLED
 10
283.235
 20
220.9875
 41
3.5
 42
3.5
 43
3.5
  0
ENDBLK
  5
26D
100
AcDbEntity
  8
0
  6
BYBLOCK
 62
0
100
AcDbBlockEnd
  0
BLOCK
  5
26E
100
AcDbEntity
  8
2
100
AcDbBlockBegin
 62
2
  6
CONTINUOUS
  2
*D4
 70
65
 10
0.0
 20
0.0
  3
*D4
  1

  0
MTEXT
  5
26F
100
AcDbEntity
  8
2
100
AcDbMText
 62
5
  6
CONTINUOUS
  7
TEXTSTYLE_2
 71
2
 72
1
 10
298.495
 20
160.0
 30
0.0
 11
0.0
 21
1.0
 31
0.0
 44
0.9
  1
{\Fgdt;n}\Ftxt;16
 40
3.5
 41
9.4166666667
  0
LINE
  5
270
100
AcDbEntity
  8
2
100
AcDbLine
 62
2
  6
CONTINUOUS
 10
283.235
 20
152.0
 11
304.37
 21
152.0
  0
LINE
  5
271
100
AcDbEntity
  8
2
100
AcDbLine
 62
2
  6
CONTINUOUS
 10
283.235
 20
168.0
 11
304.37
 21
168.0
  0
LINE
  5
272
100
AcDbEntity
  8
2
100
AcDbLine
 62
2
  6
CONTINUOUS
 10
302.87
 20
152.0
 11
302.87
 21
160.0
  0
LINE
  5
273
100
AcDbEntity
  8
2
100
AcDbLine
 62
2
  6
CONTINUOUS
 10
302.87
 20
168.0
 11
302.87
 21
160.0
  0
INSERT
  5
274
100
AcDbEntity
  8
2
100
AcDbBlockReference
 62
2
  6
CONTINUOUS
  2
_FILLED
 10
302.87
 20
152.0
 41
3.5
 42
3.5
 43
3.5
 50
270.0
  0
INSERT
  5
275
100
AcDbEntity
  8
2
100
AcDbBlockReference
 62
2
  6
CONTINUOUS
  2
_FILLED
 10
302.87
 20
168.0
 41
3.5
 42
3.5
 43
3.5
 50
90.0
  0
ENDBLK
  5
276
100
AcDbEntity
  8
0
  6
BYBLOCK
 62
0
100
AcDbBlockEnd
  0
BLOCK
  5
277
100
AcDbEntity
  8
SK2
100
AcDbBlockBegin
 62
2
  6
CONTINUOUS
  2
*D5
 70
65
 10
0.0
 20
0.0
  3
*D5
  1

  0
MTEXT
  5
278
100
AcDbEntity
  8
SK2
100
AcDbMText
 62
5
  6
CONTINUOUS
  7
TEXTSTYLE_2
 71
2
 72
1
 10
308.495
 20
160.0
 30
0.0
 11
0.0
 21
1.0
 31
0.0
 44
0.9
  1
{\Fgdt;n}\Ftxt;28
 40
3.5
 41
10.1666666667
  0
LINE
  5
279
100
AcDbEntity
  8
SK2
100
AcDbLine
 62
2
  6
CONTINUOUS
 10
265.235
 20
174.0
 11
314.37
 21
174.0
  0
LINE
  5
27A
100
AcDbEntity
  8
SK2
100
AcDbLine
 62
2
  6
CONTINUOUS
 10
265.235
 20
146.0
 11
314.37
 21
146.0
  0
LINE
  5
27B
100
AcDbEntity
  8
SK2
100
AcDbLine
 62
2
  6
CONTINUOUS
 10
312.87
 20
174.0
 11
312.87
 21
160.0
  0
LINE
  5
27C
100
AcDbEntity
  8
SK2
100
AcDbLine
 62
2
  6
CONTINUOUS
 10
312.87
 20
146.0
 11
312.87
 21
160.0
  0
INSERT
  5
27D
100
AcDbEntity
  8
SK2
100
AcDbBlockReference
 62
2
  6
CONTINUOUS
  2
_FILLED
 10
312.87
 20
174.0
 41
3.5
 42
3.5
 43
3.5
 50
90.0
  0
INSERT
  5
27E
100
AcDbEntity
  8
SK2
100
AcDbBlockReference
 62
2
  6
CONTINUOUS
  2
_FILLED
 10
312.87
 20
146.0
 41
3.5
 42
3.5
 43
3.5
 50
270.0
  0
ENDBLK
  5
27F
100
AcDbEntity
  8
0
  6
BYBLOCK
 62
0
100
AcDbBlockEnd
  0
BLOCK
  5
280
100
AcDbEntity
  8
2
100
AcDbBlockBegin
 62
2
  6
CONTINUOUS
  2
*D6
 70
65
 10
0.0
 20
0.0
  3
*D6
  1

  0
MTEXT
  5
281
100
AcDbEntity
  8
2
100
AcDbMText
 62
5
  6
CONTINUOUS
  7
STANDARD
 71
2
 72
1
 10
240.0
 20
245.3625
 30
0.0
 11
1.0
 21
0.0
 31
0.0
 44
0.9
  1
100
 40
3.5
 41
7.5
  0
LINE
  5
282
100
AcDbEntity
  8
2
100
AcDbLine
 62
2
  6
CONTINUOUS
 10
190.0
 20
210.0
 11
190.0
 21
242.4875
  0
LINE
  5
283
100
AcDbEntity
  8
2
100
AcDbLine
 62
2
  6
CONTINUOUS
 10
290.0
 20
160.0
 11
290.0
 21
165.0
  0
LINE
  5
284
100
AcDbEntity
  8
2
100
AcDbLine
 62
2
  6
CONTINUOUS
 10
290.0
 20
171.0
 11
290.0
 21
242.4875
  0
LINE
  5
285
100
AcDbEntity
  8
2
100
AcDbLine
 62
2
  6
CONTINUOUS
 10
190.0
 20
240.9875
 11
240.0
 21
240.9875
  0
LINE
  5
286
100
AcDbEntity
  8
2
100
AcDbLine
 62
2
  6
CONTINUOUS
 10
290.0
 20
240.9875
 11
240.0
 21
240.9875
  0
INSERT
  5
287
100
AcDbEntity
  8
2
100
AcDbBlockReference
 62
2
  6
CONTINUOUS
  2
_FILLED
 10
190.0
 20
240.9875
 41
3.5
 42
3.5
 43
3.5
 50
180.0
  0
INSERT
  5
288
100
AcDbEntity
  8
2
100
AcDbBlockReference
 62
2
  6
CONTINUOUS
  2
_FILLED
 10
290.0
 20
240.9875
 41
3.5
 42
3.5
 43
3.5
  0
ENDBLK
  5
289
100
AcDbEntity
  8
0
  6
BYBLOCK
 62
0
100
AcDbBlockEnd
  0
ENDSEC
  0
SECTION
  2
ENTITIES
  0
DIMENSION
  5
28A
100
AcDbEntity
  8
0
100
AcDbDimension
 62
2
  6
CONTINUOUS
  2
*D0
 10
322.87
 20
117.525
 11
321.3558491733
 21
157.7836332715
 70
160
 71
2
 42
84.95
  1
%%c85
  3
DIMSTYLE_1
100
AcDbAlignedDimension
 13
228.0
 23
202.475
 14
228.0
 24
117.525
 50
270.0
100
AcDbRotatedDimension
  0
DIMENSION
  5
28B
100
AcDbEntity
  8
2
100
AcDbDimension
 62
2
  6
CONTINUOUS
  2
*D1
 10
283.235
 20
230.9875
 11
229.1175
 21
233.6125
 70
160
 71
2
 42
93.235
  3
DIMSTYLE_1
100
AcDbAlignedDimension
 13
190.0
 23
210.0
 14
283.235
 24
176.0
100
AcDbRotatedDimension
  0
DIMENSION
  5
28C
100
AcDbEntity
  8
SK2
100
AcDbDimension
 62
2
  6
CONTINUOUS
  2
*D2
 10
283.235
 20
250.9875
 11
177.2175
 21
253.6125
 70
160
 71
2
 42
195.035
  3
DIMSTYLE_1
100
AcDbAlignedDimension
 13
88.2
 23
160.0
 14
283.235
 24
160.0
100
AcDbRotatedDimension
  0
DIMENSION
  5
28D
100
AcDbEntity
  8
SK2
100
AcDbDimension
 62
2
  6
CONTINUOUS
  2
*D3
 10
283.235
 20
220.9875
 11
248.2425
 21
223.6125
 70
160
 71
2
 42
55.235
  3
DIMSTYLE_1
100
AcDbAlignedDimension
 13
228.0
 23
210.0
 14
283.235
 24
160.0
100
AcDbRotatedDimension
  0
DIMENSION
  5
28E
100
AcDbEntity
  8
2
100
AcDbDimension
 62
2
  6
CONTINUOUS
  2
*D4
 10
302.87
 20
168.0
 11
301.2998399713
 21
157.8953828544
 70
160
 71
2
 42
16.0
  1
%%c<>
  3
DIMSTYLE_2
100
AcDbAlignedDimension
 13
283.235
 23
152.0
 14
283.235
 24
168.0
 50
90.0
100
AcDbRotatedDimension
  0
DIMENSION
  5
28F
100
AcDbEntity
  8
SK2
100
AcDbDimension
 62
2
  6
CONTINUOUS
  2
*D5
 10
312.87
 20
146.0
 11
311.3838537743
 21
157.72775848
 70
160
 71
2
 42
28.0
  1
%%c<>
  3
DIMSTYLE_2
100
AcDbAlignedDimension
 13
265.235
 23
174.0
 14
265.235
 24
146.0
 50
270.0
100
AcDbRotatedDimension
  0
DIMENSION
  5
290
100
AcDbEntity
  8
2
100
AcDbDimension
 62
2
  6
CONTINUOUS
  2
*D6
 10
290.0
 20
240.9875
 11
236.25
 21
243.6125
 70
160
 71
2
 42
100.0
  3
DIMSTYLE_2
100
AcDbAlignedDimension
 13
190.0
 23
210.0
 14
290.0
 24
160.0
100
AcDbRotatedDimension
  0
MTEXT
  5
291
100
AcDbEntity
  8
6
100
AcDbMText
 62
5
  6
CONTINUOUS
  7
STANDARD
 71
1
 72
1
 10
187.1438497029
 20
82.3507156451
 30
0.0
 11
1.0
 21
0.0
 31
0.0
 44
0.9
  3
Für diese Unterlage behalten wir das Ur-\Pheberrecht. Sie darf nur für den von uns\Pbestimmten Zweck benutzt und ohne unsere \PZustimmung weder vervielfältigt noch \PDritten zugänglich gemacht werden.\P \PWe own the copyright of this document. It\Pde
  1
termined and may neither be copied or\Pmade accessible to outsiders without our\Ppermission.\P \PCe plan reste notre propriété. Il ne peut\Pétre utilisé, copié ou reproduit sans notre\Paccord.
 40
3.5
 41
103.5833333333
  0
LINE
  5
292
100
AcDbEntity
  8
1
100
AcDbLine
 62
9
  6
CONTINUOUS
 10
88.2
 20
179.2131954077
 11
88.2
 21
140.7868045923
  0
LINE
  5
293
100
AcDbEntity
  8
1
100
AcDbLine
 62
9
  6
CONTINUOUS
 10
89.0556813308
 20
180.2027266713
 11
89.0556813308
 21
139.7972733287
  0
LINE
  5
294
100
AcDbEntity
  8
1
100
AcDbLine
 62
6
  6
CONTINUOUS
 10
227.0
 20
110.0125
 11
220.725478295
 21
110.0125
  0
LINE
  5
295
100
AcDbEntity
  8
1
100
AcDbLine
 62
6
  6
CONTINUOUS
 10
194.0
 20
110.0125
 11
205.674521705
 21
110.0125
  0
LINE
  5
296
100
AcDbEntity
  8
1
100
AcDbLine
 62
6
  6
CONTINUOUS
 10
209.9125
 20
117.625
 11
216.4875
 21
117.625
  0
LINE
  5
297
100
AcDbEntity
  8
1
100
AcDbLine
 62
6
  6
CONTINUOUS
 10
190.35
 20
125.425
 11
189.3808093837
 21
125.1653061571
  0
LINE
  5
298
100
AcDbEntity
  8
1
100
AcDbLine
 62
6
  6
CONTINUOUS
 10
192.0
 20
125.425
 11
190.35
 21
125.425
  0
LINE
  5
299
100
AcDbEntity
  8
1
100
AcDbLine
 62
6
  6
CONTINUOUS
 10
189.3808093837
 20
125.1653061571
 11
89.0556813308
 21
139.7972733287
  0
LINE
  5
29A
100
AcDbEntity
  8
1
100
AcDbLine
 62
6
  6
CONTINUOUS
 10
249.0029491924
 20
144.025
 11
241.4062797049
 21
144.025
  0
LINE
  5
29B
100
AcDbEntity
  8
1
100
AcDbLine
 62
6
  6
CONTINUOUS
 10
205.674521705
 20
145.813703113
 11
194.0
 21
145.813703113
  0
LINE
  5
29C
100
AcDbEntity
  8
1
100
AcDbLine
 62
6
  6
CONTINUOUS
 10
286.0
 20
146.0
 11
273.45
 21
146.0
  0
LINE
  5
29D
100
AcDbEntity
  8
1
100
AcDbLine
 62
6
  6
CONTINUOUS
 10
264.3432864376
 20
146.025
 11
251.3123502692
 21
146.025
  0
LINE
  5
29E
100
AcDbEntity
  8
1
100
AcDbLine
 62
6
  6
CONTINUOUS
 10
194.0
 20
147.0975
 11
211.3475
 21
147.0975
  0
LINE
  5
29F
100
AcDbEntity
  8
1
100
AcDbLine
 62
6
  6
CONTINUOUS
 10
286.0
 20
147.1819563197
 11
280.0
 21
147.1819563197
  0
LINE
  5
2A0
100
AcDbEntity
  8
1
100
AcDbLine
 62
8
  6
HIDDEN
 10
282.3112395693
 20
148.5025
 11
272.2
 21
148.5025
  0
LINE
  5
2A1
100
AcDbEntity
  8
1
100
AcDbLine
 62
6
  6
CONTINUOUS
 10
272.2
 20
148.5025
 11
267.6492135624
 21
148.5025
  0
LINE
  5
2A2
100
AcDbEntity
  8
1
100
AcDbLine
 62
6
  6
CONTINUOUS
 10
286.0
 20
148.7151892844
 11
280.0
 21
148.7151892844
  0
LINE
  5
2A3
100
AcDbEntity
  8
1
100
AcDbLine
 62
6
  6
CONTINUOUS
 10
189.3808093837
 20
194.8346938429
 11
189.3808093837
 21
125.1653061571
  0
LINE
  5
2A4
100
AcDbEntity
  8
DEFAULT_1
100
AcDbLine
 62
7
  6
CENTER
 10
190.0
 20
106.0125
 11
190.0
 21
213.9875
  0
LINE
  5
2A5
100
AcDbEntity
  8
1
100
AcDbLine
 62
6
  6
CONTINUOUS
 10
190.35
 20
194.575
 11
190.35
 21
125.425
  0
LINE
  5
2A6
100
AcDbEntity
  8
1
100
AcDbLine
 62
8
  6
HIDDEN
 10
283.235
 20
168.0
 11
269.2532984955
 21
166.035
  0
LINE
  5
2A7
100
AcDbEntity
  8
1
100
AcDbLine
 62
8
  6
HIDDEN
 10
269.2532984955
 20
153.965
 11
257.735
 21
153.965
  0
LINE
  5
2A8
100
AcDbEntity
  8
1
100
AcDbLine
 62
6
  6
CONTINUOUS
 10
286.0
 20
158.4667670353
 11
280.0
 21
158.4667670353
  0
LINE
  5
2A9
100
AcDbEntity
  8
4
100
AcDbLine
 62
7
  6
CENTER
 10
288.235
 20
160.0
 11
84.2
 21
160.0
  0
LINE
  5
2AA
100
AcDbEntity
  8
1
100
AcDbLine
 62
9
  6
CONTINUOUS
 10
192.0
 20
194.575
 11
192.0
 21
125.425
  0
LINE
  5
2AB
100
AcDbEntity
  8
1
100
AcDbLine
 62
9
  6
CONTINUOUS
 10
193.0
 20
111.0125176323
 11
193.0
 21
146.0975
  0
LINE
  5
2AC
100
AcDbEntity
  8
1
100
AcDbLine
 62
6
  6
CONTINUOUS
 10
193.0
 20
146.0975
 11
193.0
 21
154.8482405918
  0
LINE
  5
2AD
100
AcDbEntity
  8
1
100
AcDbLine
 62
6
  6
CONTINUOUS
 10
193.0
 20
165.1517594082
 11
193.0
 21
173.9025
  0
LINE
  5
2AE
100
AcDbEntity
  8
1
100
AcDbLine
 62
9
  6
CONTINUOUS
 10
193.0
 20
173.9025
 11
193.0
 21
208.9874823678
  0
LINE
  5
2AF
100
AcDbEntity
  8
1
100
AcDbLine
 62
9
  6
CONTINUOUS
 10
194.0
 20
110.0125
 11
194.0
 21
147.0975
  0
LINE
  5
2B0
100
AcDbEntity
  8
1
100
AcDbLine
 62
9
  6
CONTINUOUS
 10
194.0
 20
172.9025
 11
194.0
 21
209.9875
  0
LINE
  5
2B1
100
AcDbEntity
  8
1
100
AcDbLine
 62
6
  6
CONTINUOUS
 10
216.7375
 20
203.0451852365
 11
220.725478295
 21
209.9875
  0
LINE
  5
2B2
100
AcDbEntity
  8
1
100
AcDbLine
 62
6
  6
CONTINUOUS
 10
286.0
 20
161.5332329647
 11
280.0
 21
161.5332329647
  0
LINE
  5
2B3
100
AcDbEntity
  8
1
100
AcDbLine
 62
8
  6
HIDDEN
 10
269.2532984955
 20
166.035
 11
257.735
 21
166.035
  0
LINE
  5
2B4
100
AcDbEntity
  8
1
100
AcDbLine
 62
8
  6
HIDDEN
 10
283.235
 20
152.0
 11
269.2532984955
 21
153.965
  0
LINE
  5
2B5
100
AcDbEntity
  8
1
100
AcDbLine
 62
6
  6
CONTINUOUS
 10
216.7375
 20
116.9548147635
 11
220.725478295
 21
110.0125
  0
LINE
  5
2B6
100
AcDbEntity
  8
1
100
AcDbLine
 62
6
  6
CONTINUOUS
 10
205.674521705
 20
209.9875
 11
205.674521705
 21
174.186296887
  0
LINE
  5
2B7
100
AcDbEntity
  8
1
100
AcDbLine
 62
6
  6
CONTINUOUS
 10
205.674521705
 20
145.813703113
 11
205.674521705
 21
110.0125
  0
LINE
  5
2B8
100
AcDbEntity
  8
1
100
AcDbLine
 62
6
  6
CONTINUOUS
 10
193.0
 20
146.0975
 11
194.0
 21
147.0975
  0
LINE
  5
2B9
100
AcDbEntity
  8
1
100
AcDbLine
 62
6
  6
CONTINUOUS
 10
286.0
 20
171.2848107156
 11
280.0
 21
171.2848107156
  0
LINE
  5
2BA
100
AcDbEntity
  8
1
100
AcDbLine
 62
8
  6
HIDDEN
 10
282.3112395693
 20
171.4975
 11
272.2
 21
171.4975
  0
LINE
  5
2BB
100
AcDbEntity
  8
1
100
AcDbLine
 62
6
  6
CONTINUOUS
 10
272.2
 20
171.4975
 11
267.6492135624
 21
171.4975
  0
LINE
  5
2BC
100
AcDbEntity
  8
1
100
AcDbLine
 62
6
  6
CONTINUOUS
 10
286.0
 20
172.8180436803
 11
280.0
 21
172.8180436803
  0
LINE
  5
2BD
100
AcDbEntity
  8
1
100
AcDbLine
 62
6
  6
CONTINUOUS
 10
194.0
 20
172.9025
 11
211.3475
 21
172.9025
  0
LINE
  5
2BE
100
AcDbEntity
  8
1
100
AcDbLine
 62
6
  6
CONTINUOUS
 10
264.3432864376
 20
173.975
 11
251.3123502692
 21
173.975
  0
LINE
  5
2BF
100
AcDbEntity
  8
1
100
AcDbLine
 62
6
  6
CONTINUOUS
 10
286.0
 20
174.0
 11
273.45
 21
174.0
  0
LINE
  5
2C0
100
AcDbEntity
  8
1
100
AcDbLine
 62
6
  6
CONTINUOUS
 10
194.0
 20
174.186296887
 11
205.674521705
 21
174.186296887
  0
LINE
  5
2C1
100
AcDbEntity
  8
1
100
AcDbLine
 62
6
  6
CONTINUOUS
 10
249.0029491924
 20
175.975
 11
241.4062797049
 21
175.975
  0
LINE
  5
2C2
100
AcDbEntity
  8
1
100
AcDbLine
 62
6
  6
CONTINUOUS
 10
193.0
 20
173.9025
 11
194.0
 21
172.9025
  0
LINE
  5
2C3
100
AcDbEntity
  8
1
100
AcDbLine
 62
6
  6
CONTINUOUS
 10
209.6625
 20
203.0451572871
 11
209.6625
 21
172.9025
  0
LINE
  5
2C4
100
AcDbEntity
  8
1
100
AcDbLine
 62
6
  6
CONTINUOUS
 10
209.6625
 20
147.0975
 11
209.6625
 21
116.9548427129
  0
LINE
  5
2C5
100
AcDbEntity
  8
1
100
AcDbLine
 62
9
  6
CONTINUOUS
 10
209.9125
 20
117.625
 11
209.9125
 21
147.0975
  0
LINE
  5
2C6
100
AcDbEntity
  8
1
100
AcDbLine
 62
9
  6
CONTINUOUS
 10
209.9125
 20
172.9025
 11
209.9125
 21
202.375
  0
LINE
  5
2C7
100
AcDbEntity
  8
1
100
AcDbLine
 62
9
  6
CONTINUOUS
 10
216.4875
 20
117.625
 11
216.4875
 21
148.1655204487
  0
LINE
  5
2C8
100
AcDbEntity
  8
1
100
AcDbLine
 62
9
  6
CONTINUOUS
 10
216.4875
 20
171.8344795513
 11
216.4875
 21
202.375
  0
LINE
  5
2C9
100
AcDbEntity
  8
1
100
AcDbLine
 62
6
  6
CONTINUOUS
 10
216.7375
 20
116.9548147635
 11
216.7375
 21
148.277269676
  0
LINE
  5
2CA
100
AcDbEntity
  8
1
100
AcDbLine
 62
6
  6
CONTINUOUS
 10
216.7375
 20
171.722730324
 11
216.7375
 21
203.0451852365
  0
LINE
  5
2CB
100
AcDbEntity
  8
1
100
AcDbLine
 62
6
  6
CONTINUOUS
 10
220.725478295
 20
209.9875
 11
220.725478295
 21
170.4724910073
  0
LINE
  5
2CC
100
AcDbEntity
  8
1
100
AcDbLine
 62
6
  6
CONTINUOUS
 10
220.725478295
 20
149.5275185578
 11
220.725478295
 21
110.0125
  0
LINE
  5
2CD
100
AcDbEntity
  8
1
100
AcDbLine
 62
9
  6
CONTINUOUS
 10
227.0
 20
209.9875
 11
227.0
 21
110.0125
  0
LINE
  5
2CE
100
AcDbEntity
  8
1
100
AcDbLine
 62
6
  6
CONTINUOUS
 10
228.0
 20
208.9875
 11
228.0
 21
111.0125
  0
LINE
  5
2CF
100
AcDbEntity
  8
1
100
AcDbLine
 62
9
  6
CONTINUOUS
 10
228.1030069653
 20
202.2659792033
 11
228.1030069653
 21
117.7340207967
  0
LINE
  5
2D0
100
AcDbEntity
  8
1
100
AcDbLine
 62
6
  6
CONTINUOUS
 10
205.674521705
 20
110.0125
 11
209.6625
 21
116.9548147635
  0
LINE
  5
2D1
100
AcDbEntity
  8
1
100
AcDbLine
 62
6
  6
CONTINUOUS
 10
189.3808093837
 20
194.8346938429
 11
89.0556813308
 21
180.2027266713
  0
LINE
  5
2D2
100
AcDbEntity
  8
1
100
AcDbLine
 62
6
  6
CONTINUOUS
 10
192.0
 20
194.575
 11
190.35
 21
194.575
  0
LINE
  5
2D3
100
AcDbEntity
  8
1
100
AcDbLine
 62
6
  6
CONTINUOUS
 10
190.35
 20
194.575
 11
189.3808093837
 21
194.8346938429
  0
LINE
  5
2D4
100
AcDbEntity
  8
1
100
AcDbLine
 62
6
  6
CONTINUOUS
 10
205.674521705
 20
209.9875
 11
209.6625
 21
203.0451852365
  0
LINE
  5
2D5
100
AcDbEntity
  8
1
100
AcDbLine
 62
6
  6
CONTINUOUS
 10
209.9125
 20
202.375
 11
216.4875
 21
202.375
  0
LINE
  5
2D6
100
AcDbEntity
  8
1
100
AcDbLine
 62
6
  6
CONTINUOUS
 10
240.5542648448
 20
177.0
 11
240.5542648448
 21
143.0
  0
LINE
  5
2D7
100
AcDbEntity
  8
1
100
AcDbLine
 62
9
  6
CONTINUOUS
 10
240.6184335025
 20
176.6360814579
 11
240.6184335025
 21
143.3639185421
  0
LINE
  5
2D8
100
AcDbEntity
  8
1
100
AcDbLine
 62
9
  6
CONTINUOUS
 10
241.4062797049
 20
175.975
 11
241.4062797049
 21
144.025
  0
LINE
  5
2D9
100
AcDbEntity
  8
1
100
AcDbLine
 62
6
  6
CONTINUOUS
 10
240.6184335025
 20
143.3639185421
 11
240.5542648448
 21
143.0
  0
LINE
  5
2DA
100
AcDbEntity
  8
1
100
AcDbLine
 62
6
  6
CONTINUOUS
 10
240.5542648448
 20
143.0
 11
228.1030069653
 21
117.7340207967
  0
LINE
  5
2DB
100
AcDbEntity
  8
1
100
AcDbLine
 62
6
  6
CONTINUOUS
 10
227.0
 20
209.9875
 11
220.725478295
 21
209.9875
  0
LINE
  5
2DC
100
AcDbEntity
  8
1
100
AcDbLine
 62
6
  6
CONTINUOUS
 10
194.0
 20
209.9875
 11
205.674521705
 21
209.9875
  0
LINE
  5
2DD
100
AcDbEntity
  8
1
100
AcDbLine
 62
6
  6
CONTINUOUS
 10
240.5542648448
 20
177.0
 11
228.1030069653
 21
202.2659792033
  0
LINE
  5
2DE
100
AcDbEntity
  8
1
100
AcDbLine
 62
6
  6
CONTINUOUS
 10
240.6184335025
 20
176.6360814579
 11
240.5542648448
 21
177.0
  0
LINE
  5
2DF
100
AcDbEntity
  8
1
100
AcDbLine
 62
9
  6
CONTINUOUS
 10
249.0029491924
 20
175.975
 11
249.0029491924
 21
144.025
  0
LINE
  5
2E0
100
AcDbEntity
  8
1
100
AcDbLine
 62
9
  6
CONTINUOUS
 10
249.8689745962
 20
175.475
 11
249.8689745962
 21
144.525
  0
LINE
  5
2E1
100
AcDbEntity
  8
1
100
AcDbLine
 62
9
  6
CONTINUOUS
 10
250.4463248654
 20
174.475
 11
250.4463248654
 21
145.525
  0
LINE
  5
2E2
100
AcDbEntity
  8
1
100
AcDbLine
 62
9
  6
CONTINUOUS
 10
251.3123502692
 20
173.975
 11
251.3123502692
 21
146.025
  0
LINE
  5
2E3
100
AcDbEntity
  8
1
100
AcDbLine
 62
6
  6
CONTINUOUS
 10
250.4463248654
 20
145.525
 11
249.8689745962
 21
144.525
  0
LINE
  5
2E4
100
AcDbEntity
  8
1
100
AcDbLine
 62
6
  6
CONTINUOUS
 10
250.4463248654
 20
174.475
 11
249.8689745962
 21
175.475
  0
LINE
  5
2E5
100
AcDbEntity
  8
1
100
AcDbLine
 62
8
  6
HIDDEN
 10
257.735
 20
166.035
 11
257.735
 21
153.965
  0
LINE
  5
2E6
100
AcDbEntity
  8
1
100
AcDbLine
 62
6
  6
CONTINUOUS
 10
266.9421067812
 20
148.2096067812
 11
265.0503932188
 21
146.3178932188
  0
LINE
  5
2E7
100
AcDbEntity
  8
1
100
AcDbLine
 62
6
  6
CONTINUOUS
 10
266.9421067812
 20
171.7903932188
 11
265.0503932188
 21
173.6821067812
  0
LINE
  5
2E8
100
AcDbEntity
  8
1
100
AcDbLine
 62
9
  6
CONTINUOUS
 10
264.3432864376
 20
173.975
 11
264.3432864376
 21
146.025
  0
LINE
  5
2E9
100
AcDbEntity
  8
1
100
AcDbLine
 62
9
  6
CONTINUOUS
 10
265.0503932188
 20
173.6821067812
 11
265.0503932188
 21
146.3178932188
  0
LINE
  5
2EA
100
AcDbEntity
  8
1
100
AcDbLine
 62
9
  6
CONTINUOUS
 10
266.9421067812
 20
171.7903932188
 11
266.9421067812
 21
148.2096067812
  0
LINE
  5
2EB
100
AcDbEntity
  8
1
100
AcDbLine
 62
9
  6
CONTINUOUS
 10
267.6492135624
 20
171.4975
 11
267.6492135624
 21
148.5025
  0
LINE
  5
2EC
100
AcDbEntity
  8
1
100
AcDbLine
 62
8
  6
HIDDEN
 10
269.2532984955
 20
166.035
 11
269.2532984955
 21
153.965
  0
LINE
  5
2ED
100
AcDbEntity
  8
1
100
AcDbLine
 62
6
  6
CONTINUOUS
 10
272.2
 20
172.73
 11
272.2
 21
147.25
  0
LINE
  5
2EE
100
AcDbEntity
  8
1
100
AcDbLine
 62
9
  6
CONTINUOUS
 10
273.45
 20
174.0
 11
273.45
 21
146.0
  0
LINE
  5
2EF
100
AcDbEntity
  8
1
100
AcDbLine
 62
9
  6
CONTINUOUS
 10
280.0
 20
172.8180436803
 11
280.0
 21
171.2848107156
  0
LINE
  5
2F0
100
AcDbEntity
  8
1
100
AcDbLine
 62
9
  6
CONTINUOUS
 10
280.0
 20
161.5332329647
 11
280.0
 21
158.4667670353
  0
LINE
  5
2F1
100
AcDbEntity
  8
1
100
AcDbLine
 62
9
  6
CONTINUOUS
 10
280.0
 20
148.7151892844
 11
280.0
 21
147.1819563197
  0
LINE
  5
2F2
100
AcDbEntity
  8
1
100
AcDbLine
 62
8
  6
HIDDEN
 10
282.3112395693
 20
171.4975
 11
282.3112395693
 21
148.5025
  0
LINE
  5
2F3
100
AcDbEntity
  8
1
100
AcDbLine
 62
8
  6
HIDDEN
 10
283.235
 20
150.1025
 11
282.3112395693
 21
148.5025
  0
LINE
  5
2F4
100
AcDbEntity
  8
1
100
AcDbLine
 62
8
  6
HIDDEN
 10
283.235
 20
169.8975
 11
282.3112395693
 21
171.4975
  0
LINE
  5
2F5
100
AcDbEntity
  8
1
100
AcDbLine
 62
8
  6
HIDDEN
 10
283.235
 20
169.8975
 11
283.235
 21
150.1025
  0
LINE
  5
2F6
100
AcDbEntity
  8
1
100
AcDbLine
 62
9
  6
CONTINUOUS
 10
286.0
 20
174.0
 11
286.0
 21
172.8180436803
  0
LINE
  5
2F7
100
AcDbEntity
  8
1
100
AcDbLine
 62
9
  6
CONTINUOUS
 10
286.0
 20
171.2848107156
 11
286.0
 21
161.5332329647
  0
LINE
  5
2F8
100
AcDbEntity
  8
1
100
AcDbLine
 62
9
  6
CONTINUOUS
 10
286.0
 20
158.4667670353
 11
286.0
 21
148.7151892844
  0
LINE
  5
2F9
100
AcDbEntity
  8
1
100
AcDbLine
 62
9
  6
CONTINUOUS
 10
286.0
 20
147.1819563197
 11
286.0
 21
146.0
  0
LINE
  5
2FA
100
AcDbEntity
  8
1
100
AcDbLine
 62
9
  6
CONTINUOUS
 10
290.0
 20
170.0
 11
290.0
 21
150.0
  0
ARC
  5
2FB
100
AcDbEntity
  8
1
100
AcDbCircle
 62
6
  6
CONTINUOUS
 10
7.2403363244
 20
60.1841939907
 40
228.8506180731
100
AcDbArc
 50
29.5077295963
 51
29.8777286411
  0
ARC
  5
2FC
100
AcDbEntity
  8
1
100
AcDbCircle
 62
6
  6
CONTINUOUS
 10
89.2
 20
140.7868045923
 40
1.0
100
AcDbArc
 50
180.0
 51
261.7021731718
  0
ARC
  5
2FD
100
AcDbEntity
  8
1
100
AcDbCircle
 62
6
  6
CONTINUOUS
 10
7.2403363295
 20
259.8158060063
 40
228.8506180672
100
AcDbArc
 50
330.1222713589
 51
330.4922704037
  0
ARC
  5
2FE
100
AcDbEntity
  8
1
100
AcDbCircle
 62
6
  6
CONTINUOUS
 10
89.2
 20
179.2131954077
 40
1.0
100
AcDbArc
 50
98.2978268282
 51
180.0
  0
ARC
  5
2FF
100
AcDbEntity
  8
1
100
AcDbCircle
 62
6
  6
CONTINUOUS
 10
194.0
 20
111.0125
 40
1.0
100
AcDbArc
 50
180.0
 51
270.0
  0
ARC
  5
300
100
AcDbEntity
  8
1
100
AcDbCircle
 62
6
  6
CONTINUOUS
 10
227.0
 20
111.0125
 40
1.0
100
AcDbArc
 50
270.0
 51
360.0
  0
ARC
  5
301
100
AcDbEntity
  8
1
100
AcDbCircle
 62
6
  6
CONTINUOUS
 10
229.0
 20
117.2919761207
 40
1.0
100
AcDbArc
 50
153.7655875458
 51
180.0
  0
ARC
  5
302
100
AcDbEntity
  8
1
100
AcDbCircle
 62
6
  6
CONTINUOUS
 10
192.0
 20
124.425
 40
1.0
100
AcDbArc
 50
0.0
 51
90.0
  0
ARC
  5
303
100
AcDbEntity
  8
1
100
AcDbCircle
 62
6
  6
CONTINUOUS
 10
216.4875
 20
117.375
 40
0.25
100
AcDbArc
 50
22.5
 51
90.0
  0
ARC
  5
304
100
AcDbEntity
  8
1
100
AcDbCircle
 62
6
  6
CONTINUOUS
 10
209.9125
 20
117.375
 40
0.25
100
AcDbArc
 50
90.0
 51
180.0
  0
ARC
  5
305
100
AcDbEntity
  8
1
100
AcDbCircle
 62
6
  6
CONTINUOUS
 10
251.3123502692
 20
145.025
 40
1.0
100
AcDbArc
 50
90.0
 51
150.0
  0
ARC
  5
306
100
AcDbEntity
  8
1
100
AcDbCircle
 62
6
  6
CONTINUOUS
 10
249.0029491924
 20
145.025
 40
1.0
100
AcDbArc
 50
270.0
 51
330.0
  0
ARC
  5
307
100
AcDbEntity
  8
1
100
AcDbCircle
 62
6
  6
CONTINUOUS
 10
241.4062797049
 20
143.225
 40
0.8
100
AcDbArc
 50
90.0
 51
170.0
  0
ARC
  5
308
100
AcDbEntity
  8
1
100
AcDbCircle
 62
6
  6
CONTINUOUS
 10
267.6492135624
 20
147.5025
 40
1.0
100
AcDbArc
 50
90.0
 51
135.0
  0
ARC
  5
309
100
AcDbEntity
  8
1
100
AcDbCircle
 62
6
  6
CONTINUOUS
 10
264.3432864376
 20
147.025
 40
1.0
100
AcDbArc
 50
270.0
 51
315.0
  0
ARC
  5
30A
100
AcDbEntity
  8
1
100
AcDbCircle
 62
6
  6
CONTINUOUS
 10
347.7400152135
 20
82.5402263761
 40
154.4822829706
100
AcDbArc
 50
145.3051136933
 51
145.7374621119
  0
ARC
  5
30B
100
AcDbEntity
  8
1
100
AcDbCircle
 62
6
  6
CONTINUOUS
 10
286.0
 20
150.0
 40
4.0
100
AcDbArc
 50
270.0
 51
360.0
  0
ARC
  5
30C
100
AcDbEntity
  8
1
100
AcDbCircle
 62
6
  6
CONTINUOUS
 10
273.45
 20
147.25
 40
1.25
100
AcDbArc
 50
180.0
 51
270.0
  0
ARC
  5
30D
100
AcDbEntity
  8
1
100
AcDbCircle
 62
6
  6
CONTINUOUS
 10
211.3475
 20
160.0
 40
12.9025
100
AcDbArc
 50
270.0
 51
90.0
  0
ARC
  5
30E
100
AcDbEntity
  8
1
100
AcDbCircle
 62
6
  6
CONTINUOUS
 10
192.0
 20
195.575
 40
1.0
100
AcDbArc
 50
270.0
 51
360.0
  0
ARC
  5
30F
100
AcDbEntity
  8
1
100
AcDbCircle
 62
6
  6
CONTINUOUS
 10
251.3123502692
 20
174.975
 40
1.0
100
AcDbArc
 50
210.0
 51
270.0
  0
ARC
  5
310
100
AcDbEntity
  8
1
100
AcDbCircle
 62
6
  6
CONTINUOUS
 10
249.0029491924
 20
174.975
 40
1.0
100
AcDbArc
 50
30.0
 51
90.0
  0
ARC
  5
311
100
AcDbEntity
  8
1
100
AcDbCircle
 62
6
  6
CONTINUOUS
 10
241.4062797049
 20
176.775
 40
0.8
100
AcDbArc
 50
190.0
 51
270.0
  0
ARC
  5
312
100
AcDbEntity
  8
1
100
AcDbCircle
 62
6
  6
CONTINUOUS
 10
264.3432864376
 20
172.975
 40
1.0
100
AcDbArc
 50
45.0
 51
90.0
  0
ARC
  5
313
100
AcDbEntity
  8
1
100
AcDbCircle
 62
6
  6
CONTINUOUS
 10
267.6492135624
 20
172.4975
 40
1.0
100
AcDbArc
 50
225.0
 51
270.0
  0
ARC
  5
314
100
AcDbEntity
  8
1
100
AcDbCircle
 62
6
  6
CONTINUOUS
 10
229.0
 20
202.7080238793
 40
1.0
100
AcDbArc
 50
180.0
 51
206.2344124542
  0
ARC
  5
315
100
AcDbEntity
  8
1
100
AcDbCircle
 62
6
  6
CONTINUOUS
 10
227.0
 20
208.9875
 40
1.0
100
AcDbArc
 50
0.0
 51
90.0
  0
ARC
  5
316
100
AcDbEntity
  8
1
100
AcDbCircle
 62
6
  6
CONTINUOUS
 10
194.0
 20
208.9875
 40
1.0
100
AcDbArc
 50
90.0
 51
180.0
  0
ARC
  5
317
100
AcDbEntity
  8
1
100
AcDbCircle
 62
6
  6
CONTINUOUS
 10
216.4875
 20
202.625
 40
0.25
100
AcDbArc
 50
270.0
 51
360.0
  0
ARC
  5
318
100
AcDbEntity
  8
1
100
AcDbCircle
 62
6
  6
CONTINUOUS
 10
209.9125
 20
202.625
 40
0.25
100
AcDbArc
 50
180.0
 51
270.0
  0
ARC
  5
319
100
AcDbEntity
  8
1
100
AcDbCircle
 62
6
  6
CONTINUOUS
 10
286.0
 20
170.0
 40
4.0
100
AcDbArc
 50
0.0
 51
90.0
  0
ARC
  5
31A
100
AcDbEntity
  8
1
100
AcDbCircle
 62
6
  6
CONTINUOUS
 10
273.5869708393
 20
172.7207564799
 40
1.387507506
100
AcDbArc
 50
158.0547714479
 51
163.0312516963
  0
ARC
  5
31B
100
AcDbEntity
  8
1
100
AcDbCircle
 62
6
  6
CONTINUOUS
 10
273.45
 20
172.75
 40
1.25
100
AcDbArc
 50
90.0
 51
156.6321188674
  0
ARC
  5
31C
100
AcDbEntity
  8
1
100
AcDbCircle
 62
6
  6
CONTINUOUS
 10
347.7368505506
 20
237.4575865977
 40
154.4784306877
100
AcDbArc
 50
214.2625280055
 51
214.6948845708
  0
SPLINE
  5
31D
100
AcDbEntity
  8
1
100
AcDbSpline
 62
6
  6
CONTINUOUS
 70
0
 71
3
 72
10
 73
6
 74
0
 42
0.0000001
 43
0.0000001
 44
0.0000000001
 40
0.0
 40
0.0
 40
0.0
 40
0.0
 40
0.2096450541
 40
0.4533742123
 40
1.0
 40
1.0
 40
1.0
 40
1.0
 10
278.5851525543
 20
148.2499313883
 30
0.0
 10
278.6606062841
 20
148.3245212844
 30
0.0
 10
278.8506597492
 20
148.4587218585
 30
0.0
 10
279.3180517916
 20
148.6576759087
 30
0.0
 10
279.7233598283
 20
148.7151892844
 30
0.0
 10
280.0
 20
148.7151892844
 30
0.0
  0
SPLINE
  5
31E
100
AcDbEntity
  8
1
100
AcDbSpline
 62
6
  6
CONTINUOUS
 70
0
 71
3
 72
9
 73
5
 74
0
 42
0.0000001
 43
0.0000001
 44
0.0000000001
 40
0.0
 40
0.0
 40
0.0
 40
0.0
 40
0.1262225215
 40
1.0
 40
1.0
 40
1.0
 40
1.0
 10
272.3
 20
173.2392959075
 30
0.0
 10
272.2918354178
 20
173.2189956844
 30
0.0
 10
272.2307903606
 20
173.0568432407
 30
0.0
 10
272.2
 20
172.8814686239
 30
0.0
 10
272.2
 20
172.73
 30
0.0
  0
SPLINE
  5
31F
100
AcDbEntity
  8
1
100
AcDbSpline
 62
6
  6
CONTINUOUS
 70
0
 71
3
 72
9
 73
5
 74
0
 42
0.0000001
 43
0.0000001
 44
0.0000000001
 40
0.0
 40
0.0
 40
0.0
 40
0.0
 40
0.3482433145
 40
1.0
 40
1.0
 40
1.0
 40
1.0
 10
272.3011819985
 20
173.2480328242
 30
0.0
 10
272.3013179915
 20
173.2476041713
 30
0.0
 10
272.3017088279
 20
173.2463443793
 30
0.0
 10
272.3019409397
 20
173.2450323608
 30
0.0
 10
272.3018978659
 20
173.2441794952
 30
0.0
  0
SPLINE
  5
320
100
AcDbEntity
  8
1
100
AcDbSpline
 62
6
  6
CONTINUOUS
 70
0
 71
3
 72
8
 73
4
 74
0
 42
0.0000001
 43
0.0000001
 44
0.0000000001
 40
0.0
 40
0.0
 40
0.0
 40
0.0
 40
1.0
 40
1.0
 40
1.0
 40
1.0
 10
272.3018978659
 20
173.2441794952
 30
0.0
 10
272.3018097733
 20
173.2424352513
 30
0.0
 10
272.3006298494
 20
173.2409248448
 30
0.0
 10
272.3
 20
173.2392959075
 30
0.0
  0
SPLINE
  5
321
100
AcDbEntity
  8
1
100
AcDbSpline
 62
6
  6
CONTINUOUS
 70
0
 71
3
 72
11
 73
7
 74
0
 42
0.0000001
 43
0.0000001
 44
0.0000000001
 40
0.0
 40
0.0
 40
0.0
 40
0.0
 40
0.2703647083
 40
0.5343990194
 40
0.7825736202
 40
1.0
 40
1.0
 40
1.0
 40
1.0
 10
286.0
 20
148.7151892844
 30
0.0
 10
286.1735798279
 20
148.7151892844
 30
0.0
 10
286.5167249529
 20
148.7246147167
 30
0.0
 10
287.0178953971
 20
148.762690368
 30
0.0
 10
287.4836462103
 20
148.8106686081
 30
0.0
 10
287.7820326101
 20
148.8359938025
 30
0.0
 10
287.9216242573
 20
148.8364232777
 30
0.0
  0
SPLINE
  5
322
100
AcDbEntity
  8
1
100
AcDbSpline
 62
6
  6
CONTINUOUS
 70
0
 71
3
 72
11
 73
7
 74
0
 42
0.0000001
 43
0.0000001
 44
0.0000000001
 40
0.0
 40
0.0
 40
0.0
 40
0.0
 40
0.2174406445
 40
0.4656168556
 40
0.7296413654
 40
1.0
 40
1.0
 40
1.0
 40
1.0
 10
287.9214034527
 20
171.1635733324
 30
0.0
 10
287.7818186491
 20
171.1640181835
 30
0.0
 10
287.483458083
 20
171.189351198
 30
0.0
 10
287.0177561427
 20
171.2373239752
 30
0.0
 10
286.5166519074
 20
171.275391243
 30
0.0
 10
286.1735560922
 20
171.2848107156
 30
0.0
 10
286.0
 20
171.2848107156
 30
0.0
  0
SPLINE
  5
323
100
AcDbEntity
  8
1
100
AcDbSpline
 62
6
  6
CONTINUOUS
 70
0
 71
3
 72
10
 73
6
 74
0
 42
0.0000001
 43
0.0000001
 44
0.0000000001
 40
0.0
 40
0.0
 40
0.0
 40
0.0
 40
0.5466320984
 40
0.7903580968
 40
1.0
 40
1.0
 40
1.0
 40
1.0
 10
280.0
 20
171.2848107156
 30
0.0
 10
279.72335134
 20
171.2848107156
 30
0.0
 10
279.3180329462
 20
171.3423259934
 30
0.0
 10
278.8506355715
 20
171.5412918414
 30
0.0
 10
278.6605827563
 20
171.6754962768
 30
0.0
 10
278.585131579
 20
171.750089375
 30
0.0
  0
SPLINE
  5
324
100
AcDbEntity
  8
1
100
AcDbSpline
 62
6
  6
CONTINUOUS
 70
0
 71
3
 72
15
 73
11
 74
0
 42
0.0000001
 43
0.0000001
 44
0.0000000001
 40
0.0
 40
0.0
 40
0.0
 40
0.0
 40
0.1253148805
 40
0.2503387171
 40
0.3751797661
 40
0.4999973332
 40
0.6248149301
 40
0.7496575949
 40
0.8746840308
 40
1.0
 40
1.0
 40
1.0
 40
1.0
 10
280.0
 20
158.4667670353
 30
0.0
 10
279.7956744092
 20
158.4667670353
 30
0.0
 10
279.3834338795
 20
158.5428332749
 30
0.0
 10
278.8522875668
 20
158.8745695061
 30
0.0
 10
278.4870481508
 20
159.3851464202
 30
0.0
 10
278.35651032
 20
159.9999863163
 30
0.0
 10
278.4870383034
 20
160.6148308008
 30
0.0
 10
278.8522736152
 20
161.125420087
 30
0.0
 10
279.3834261431
 20
161.4571645941
 30
0.0
 10
279.7956726341
 20
161.5332329647
 30
0.0
 10
280.0
 20
161.5332329647
 30
0.0
  0
SPLINE
  5
325
100
AcDbEntity
  8
1
100
AcDbSpline
 62
6
  6
CONTINUOUS
 70
0
 71
3
 72
17
 73
13
 74
0
 42
0.0000001
 43
0.0000001
 44
0.0000000001
 40
0.0
 40
0.0
 40
0.0
 40
0.0
 40
0.1726063824
 40
0.3370401314
 40
0.4851283688
 40
0.6114998342
 40
0.7148732937
 40
0.760174423
 40
0.8034817078
 40
0.8472031956
 40
0.8936122323
 40
1.0
 40
1.0
 40
1.0
 40
1.0
 10
280.0
 20
147.1819563197
 30
0.0
 10
279.8671960473
 20
147.1819563197
 30
0.0
 10
279.6076840397
 20
147.1943170561
 30
0.0
 10
279.2378578058
 20
147.249831068
 30
0.0
 10
278.9117545702
 20
147.3425303702
 30
0.0
 10
278.6487127623
 20
147.4703601784
 30
0.0
 10
278.4873943922
 20
147.6158075666
 30
0.0
 10
278.418066226
 20
147.7480224222
 30
0.0
 10
278.3962385278
 20
147.8488189817
 30
0.0
 10
278.4032691704
 20
147.9525519186
 30
0.0
 10
278.4523007619
 20
148.0969839471
 30
0.0
 10
278.5269399793
 20
148.1923852613
 30
0.0
 10
278.5851525543
 20
148.2499313883
 30
0.0
  0
SPLINE
  5
326
100
AcDbEntity
  8
1
100
AcDbSpline
 62
6
  6
CONTINUOUS
 70
0
 71
3
 72
17
 73
13
 74
0
 42
0.0000001
 43
0.0000001
 44
0.0000000001
 40
0.0
 40
0.0
 40
0.0
 40
0.0
 40
0.1063870162
 40
0.1527956035
 40
0.1965170604
 40
0.2398252946
 40
0.2851278816
 40
0.3885038255
 40
0.5148767323
 40
0.6629656679
 40
0.8273951315
 40
1.0
 40
1.0
 40
1.0
 40
1.0
 10
278.585131579
 20
171.750089375
 30
0.0
 10
278.5269223684
 20
171.8076365932
 30
0.0
 10
278.4522879203
 20
171.9030385281
 30
0.0
 10
278.4032639856
 20
172.0474704523
 30
0.0
 10
278.3962409617
 20
172.1512028255
 30
0.0
 10
278.418073048
 20
172.2519989923
 30
0.0
 10
278.4874117264
 20
172.3842105504
 30
0.0
 10
278.6487344205
 20
172.5296534046
 30
0.0
 10
278.9117787898
 20
172.6574780806
 30
0.0
 10
279.2378769714
 20
172.7501721497
 30
0.0
 10
279.6076946343
 20
172.805684485
 30
0.0
 10
279.8671989109
 20
172.8180436803
 30
0.0
 10
280.0
 20
172.8180436803
 30
0.0
  0
SPLINE
  5
327
100
AcDbEntity
  8
1
100
AcDbSpline
 62
6
  6
CONTINUOUS
 70
0
 71
3
 72
20
 73
16
 74
0
 42
0.0000001
 43
0.0000001
 44
0.0000000001
 40
0.0
 40
0.0
 40
0.0
 40
0.0
 40
0.1554601844
 40
0.3107188024
 40
0.4645480142
 40
0.6127977136
 40
0.6815372414
 40
0.7434831487
 40
0.7957625645
 40
0.8371879949
 40
0.854690518
 40
0.8712340831
 40
0.9058444421
 40
0.9482963032
 40
1.0
 40
1.0
 40
1.0
 40
1.0
 10
286.0
 20
172.8180436803
 30
0.0
 10
286.1856361498
 20
172.8180436803
 30
0.0
 10
286.5573945417
 20
172.7874594091
 30
0.0
 10
287.0974495601
 20
172.6492710731
 30
0.0
 10
287.5962748937
 20
172.4194800517
 30
0.0
 10
287.9566315036
 20
172.1550774113
 30
0.0
 10
288.1847354227
 20
171.9112254311
 30
0.0
 10
288.3100026075
 20
171.7308858848
 30
0.0
 10
288.3868850454
 20
171.5606242338
 30
0.0
 10
288.4070728199
 20
171.4255140946
 30
0.0
 10
288.3862380256
 20
171.3367420656
 30
0.0
 10
288.345068103
 20
171.2643053094
 30
0.0
 10
288.2474976952
 20
171.1997187346
 30
0.0
 10
288.095780698
 20
171.1676915785
 30
0.0
 10
287.9831429038
 20
171.1633765712
 30
0.0
 10
287.9214034527
 20
171.1635733324
 30
0.0
  0
SPLINE
  5
328
100
AcDbEntity
  8
1
100
AcDbSpline
 62
6
  6
CONTINUOUS
 70
0
 71
3
 72
21
 73
17
 74
0
 42
0.0000001
 43
0.0000001
 44
0.0000000001
 40
0.0
 40
0.0
 40
0.0
 40
0.0
 40
0.128138205
 40
0.1909468519
 40
0.2525130726
 40
0.3130996633
 40
0.3737404126
 40
0.4359434463
 40
0.5000028606
 40
0.5640567943
 40
0.626257617
 40
0.6868978265
 40
0.7474839212
 40
0.8090506923
 40
0.871860356
 40
1.0
 40
1.0
 40
1.0
 40
1.0
 10
286.0
 20
161.5332329647
 30
0.0
 10
286.2711510674
 20
161.5332329647
 30
0.0
 10
286.6768320997
 20
161.5033361357
 30
0.0
 10
287.1987603535
 20
161.3843127336
 30
0.0
 10
287.5666279736
 20
161.2459184327
 30
0.0
 10
287.8997197258
 20
161.0434557016
 30
0.0
 10
288.1749153779
 20
160.7625648932
 30
0.0
 10
288.3578298846
 20
160.4044828102
 30
0.0
 10
288.421396321
 20
159.9999924051
 30
0.0
 10
288.3578236876
 20
159.5955097811
 30
0.0
 10
288.1749222852
 20
159.2374412375
 30
0.0
 10
287.8997322205
 20
158.9565538802
 30
0.0
 10
287.5666422618
 20
158.7540913111
 30
0.0
 10
287.1987757146
 20
158.6156871534
 30
0.0
 10
286.6768395969
 20
158.496667977
 30
0.0
 10
286.2711541124
 20
158.4667670353
 30
0.0
 10
286.0
 20
158.4667670353
 30
0.0
  0
SPLINE
  5
329
100
AcDbEntity
  8
1
100
AcDbSpline
 62
6
  6
CONTINUOUS
 70
0
 71
3
 72
20
 73
16
 74
0
 42
0.0000001
 43
0.0000001
 44
0.0000000001
 40
0.0
 40
0.0
 40
0.0
 40
0.0
 40
0.0516981422
 40
0.0941392164
 40
0.1287438992
 40
0.1452879405
 40
0.1627948209
 40
0.2042287562
 40
0.2565185099
 40
0.3184695662
 40
0.3872134051
 40
0.535461032
 40
0.6892873713
 40
0.844541363
 40
1.0
 40
1.0
 40
1.0
 40
1.0
 10
287.9216242573
 20
148.8364232777
 30
0.0
 10
287.9833533632
 20
148.8366131968
 30
0.0
 10
288.0959679522
 20
148.8323023118
 30
0.0
 10
288.2476333815
 20
148.8002123489
 30
0.0
 10
288.3451669309
 20
148.7356117677
 30
0.0
 10
288.3862848091
 20
148.6631500347
 30
0.0
 10
288.4070649888
 20
148.5743562086
 30
0.0
 10
288.3868372087
 20
148.4392386677
 30
0.0
 10
288.3099290479
 20
148.2689677826
 30
0.0
 10
288.1846170067
 20
148.0886475736
 30
0.0
 10
287.9565179983
 20
147.8448085072
 30
0.0
 10
287.596156241
 20
147.5804564148
 30
0.0
 10
287.0973659435
 20
147.3507028797
 30
0.0
 10
286.5573513948
 20
147.212535741
 30
0.0
 10
286.1856230742
 20
147.1819563197
 30
0.0
 10
286.0
 20
147.1819563197
 30
0.0
  0
SPLINE
  5
32A
100
AcDbEntity
  8
1
100
AcDbSpline
 62
6
  6
CONTINUOUS
 70
0
 71
3
 72
19
 73
15
 74
0
 42
0.0000001
 43
0.0000001
 44
0.0000000001
 40
0.0
 40
0.0
 40
0.0
 40
0.0
 40
0.0629569901
 40
0.1259029347
 40
0.1886660121
 40
0.2512550471
 40
0.3758347358
 40
0.500001491
 40
0.6241570341
 40
0.7487309245
 40
0.8113207968
 40
0.8740889782
 40
0.9370400436
 40
1.0
 40
1.0
 40
1.0
 40
1.0
 10
220.7254698841
 20
170.4724793962
 30
0.0
 10
221.0853119861
 20
170.1370209411
 30
0.0
 10
221.7701763555
 20
169.4277186599
 30
0.0
 10
222.6789608492
 20
168.2636726973
 30
0.0
 10
223.4608009415
 20
167.013924525
 30
0.0
 10
224.3221962183
 20
165.2580086177
 30
0.0
 10
225.0535723721
 20
162.9185545996
 30
0.0
 10
225.3480406572
 20
160.0000548136
 30
0.0
 10
225.0535899348
 20
157.0816037396
 30
0.0
 10
224.3222987916
 20
154.7422581943
 30
0.0
 10
223.4609397124
 20
152.9863224453
 30
0.0
 10
222.6790726625
 20
151.7364902508
 30
0.0
 10
221.7702557975
 20
150.572334838
 30
0.0
 10
221.0853162996
 20
149.8630183111
 30
0.0
 10
220.7254688341
 20
149.5275316175
 30
0.0
  0
SPLINE
  5
32B
100
AcDbEntity
  8
1
100
AcDbSpline
 62
6
  6
CONTINUOUS
 70
0
 71
3
 72
15
 73
11
 74
0
 42
0.0000001
 43
0.0000001
 44
0.0000000001
 40
0.0
 40
0.0
 40
0.0
 40
0.0
 40
0.124997355
 40
0.2500020596
 40
0.3750004484
 40
0.5
 40
0.6249995516
 40
0.7499979404
 40
0.875002645
 40
1.0
 40
1.0
 40
1.0
 40
1.0
 10
193.0
 20
154.8482405918
 30
0.0
 10
193.0
 20
155.2775944918
 30
0.0
 10
192.988759322
 20
156.1363138891
 30
0.0
 10
192.9590968474
 20
157.4240491946
 30
0.0
 10
192.9335647504
 20
158.711910432
 30
0.0
 10
192.9239794763
 20
160.0
 30
0.0
 10
192.9335647503
 20
161.288089568
 30
0.0
 10
192.9590968477
 20
162.5759508054
 30
0.0
 10
192.9887593216
 20
163.8636861109
 30
0.0
 10
193.0
 20
164.7224055082
 30
0.0
 10
193.0
 20
165.1517594082
 30
0.0
  0
SPLINE
  5
32C
100
AcDbEntity
  8
1
100
AcDbSpline
 62
6
  6
CONTINUOUS
 70
0
 71
3
 72
17
 73
13
 74
0
 42
0.0000001
 43
0.0000001
 44
0.0000000001
 40
0.0
 40
0.0
 40
0.0
 40
0.0
 40
0.0259771912
 40
0.0545597879
 40
0.0876874327
 40
0.1264754783
 40
0.2226605515
 40
0.3436453265
 40
0.4866906061
 40
0.6474617659
 40
0.820562314
 40
1.0
 40
1.0
 40
1.0
 40
1.0
 10
193.0
 20
173.9025
 30
0.0
 10
193.0
 20
173.9119183594
 30
0.0
 10
193.0036324626
 20
173.9318232767
 30
0.0
 10
193.0190960561
 20
173.9600476451
 30
0.0
 10
193.0438105736
 20
173.9871596699
 30
0.0
 10
193.0922147734
 20
174.0245449108
 30
0.0
 10
193.1758949619
 20
174.0662515621
 30
0.0
 10
193.2999505291
 20
174.1076546477
 30
0.0
 10
193.4503882148
 20
174.1416893512
 30
0.0
 10
193.6215416744
 20
174.1671258661
 30
0.0
 10
193.8070951918
 20
174.1828066505
 30
0.0
 10
193.9349426086
 20
174.1863369961
 30
0.0
 10
194.0
 20
174.186296887
 30
0.0
  0
SPLINE
  5
32D
100
AcDbEntity
  8
1
100
AcDbSpline
 62
6
  6
CONTINUOUS
 70
0
 71
3
 72
17
 73
13
 74
0
 42
0.0000001
 43
0.0000001
 44
0.0000000001
 40
0.0
 40
0.0
 40
0.0
 40
0.0
 40
0.179437686
 40
0.3525382341
 40
0.5133093939
 40
0.6563546735
 40
0.7773394485
 40
0.8735245217
 40
0.9123125673
 40
0.9454402121
 40
0.9740228088
 40
1.0
 40
1.0
 40
1.0
 40
1.0
 10
194.0
 20
145.813703113
 30
0.0
 10
193.9349426086
 20
145.8136630039
 30
0.0
 10
193.8070951918
 20
145.8171933495
 30
0.0
 10
193.6215416744
 20
145.8328741339
 30
0.0
 10
193.4503882148
 20
145.8583106488
 30
0.0
 10
193.2999505291
 20
145.8923453523
 30
0.0
 10
193.1758949619
 20
145.9337484379
 30
0.0
 10
193.0922147734
 20
145.9754550892
 30
0.0
 10
193.0438105736
 20
146.0128403301
 30
0.0
 10
193.0190960561
 20
146.0399523549
 30
0.0
 10
193.0036324626
 20
146.0681767233
 30
0.0
 10
193.0
 20
146.0880816406
 30
0.0
 10
193.0
 20
146.0975
 30
0.0
  0
ENDSEC
  0
SECTION
  2
OBJECTS
  0
DICTIONARY
  5
C
100
AcDbDictionary
280
0
281
1
  3
ACAD_GROUP
350
D
  3
ACAD_MLINESTYLE
350
17
  3
ACAD_LAYOUT
350
1A
  3
ACAD_PLOTSETTINGS
350
19
  3
ACAD_PLOTSTYLENAME
350
E
  0
DICTIONARY
  5
D
102
{ACAD_REACTORS
330
C
102
}
100
AcDbDictionary
280
0
281
1
  0
ACDBDICTIONARYWDFLT
  5
E
102
{ACAD_REACTORS
330
C
102
}
100
AcDbDictionary
281
1
  3
Normal
350
F
100
AcDbDictionaryWithDefault
340
F
  0
DICTIONARY
  5
17
102
{ACAD_REACTORS
330
C
102
}
100
AcDbDictionary
280
0
281
1
  3
Standard
350
18
  0
DICTIONARY
  5
19
102
{ACAD_REACTORS
330
C
102
}
100
AcDbDictionary
281
1
  0
DICTIONARY
  5
1A
102
{ACAD_REACTORS
330
C
102
}
100
AcDbDictionary
281
1
  3
Model
350
32E
  3
Layout1
350
32F
  0
ACDBPLACEHOLDER
  5
F
102
{ACAD_REACTORS
330
E
102
}
  0
MLINESTYLE
  5
18
102
{ACAD_REACTORS
330
17
102
}
100
AcDbMlineStyle
  2
STANDARD
 70
0
  3

 62
256
 51
90.0
 52
90.0
 71
2
 49
0.5
 62
256
  6
BYLAYER
 49
-0.5
 62
256
  6
BYLAYER
  0
LAYOUT
  5
32E
102
{ACAD_REACTORS
330
1A
102
}
100
AcDbPlotSettings
  1

  2
none_device
  4
ISO_A3_(420.00_x_297.00_MM)
  6

 40
0.0
 41
0.0
 42
0.0
 43
0.0
 44
420.0
 45
297.0
 46
0.0
 47
0.0
 48
0.0
 49
0.0
140
0.0
141
0.0
142
1.0
143
1.0
 70
1024
 72
1
 73
0
 74
0
  7

 75
0
147
1.0
148
0.0
149
0.0
100
AcDbLayout
  1
Model
 70
0
 71
0
 10
0.0
 20
0.0
 11
420.0
 21
297.0
 12
0.0
 22
0.0
 32
0.0
 14
0.0
 24
0.0
 34
0.0
 15
0.0
 25
0.0
 35
0.0
146
0.0
 13
0.0
 23
0.0
 33
0.0
 16
1.0
 26
0.0
 36
0.0
 17
0.0
 27
1.0
 37
0.0
 76
0
330
239
345
0
346
0
  0
LAYOUT
  5
32F
102
{ACAD_REACTORS
330
1A
102
}
100
AcDbPlotSettings
  1

  2
none_device
  4
ISO_A3_(420.00_x_297.00_MM)
  6

 40
0.0
 41
0.0
 42
0.0
 43
0.0
 44
420.0
 45
297.0
 46
0.0
 47
0.0
 48
0.0
 49
0.0
140
0.0
141
0.0
142
1.0
143
1.0
 70
0
 72
1
 73
0
 74
0
  7

 75
0
147
1.0
148
0.0
149
0.0
100
AcDbLayout
  1
Layout1
 70
0
 71
1
 10
0.0
 20
0.0
 11
420.0
 21
297.0
 12
0.0
 22
0.0
 32
0.0
 14
0.0
 24
0.0
 34
0.0
 15
0.0
 25
0.0
 35
0.0
146
0.0
 13
0.0
 23
0.0
 33
0.0
 16
1.0
 26
0.0
 36
0.0
 17
0.0
 27
1.0
 37
0.0
 76
0
330
23A
345
0
346
0
  0
ENDSEC
  0
EOF
