999
DXF file: 200_40-520-25-3-bmg.dxf
999
Pro/ENGINEER 2010430 by Parametric Technology Corporation
  0
SECTION
  2
HEADER
  9
$ACADVER
  1
AC1021
  9
$DWGCODEPAGE
  3
ANSI_1252
  9
$EXTMAX
 10
420.0
 20
297.0
 30
0.0
  9
$EXTMIN
 10
0.0
 20
0.0
 30
0.0
  9
$LIMMIN
 10
0.0
 20
0.0
  9
$LIMMAX
 10
420.0
 20
297.0
  9
$VIEWCTR
 10
210.0
 20
148.5
  9
$VIEWSIZE
 40
297.0
  9
$CLAYER
  8
0
  9
$LTSCALE
 40
23.1
  9
$CELTYPE
  6
BYLAYER
  9
$DIMSCALE
 40
1.0
  9
$DIMASZ
 40
3.5
  9
$DIMEXO
 40
2.625
  9
$DIMDLI
 40
15.96
  9
$DIMEXE
 40
7.56
  9
$DIMCEN
 40
3.78
  9
$DIMLFAC
 40
1.0
  9
$DIMBLK
  1
_FILLED
  9
$DIMTXT
 40
3.5
  9
$DIMTOL
 70
0
  9
$DIMLIM
 70
0
  9
$DIMTFAC
 40
1.0
  9
$PDMODE
 70
3
  9
$PDSIZE
 40
0.3125
  9
$HANDSEED
  5
30C
  9
$TILEMODE
 70
1
  9
$MEASUREMENT
 70
1
  9
$INSUNITS
 70
4
  0
ENDSEC
  0
SECTION
  2
CLASSES
  0
CLASS
  1
ACDBDICTIONARYWDFLT
  2
AcDbDictionaryWithDefault
  3
AutoCAD 2000
 90
0
 91
1
280
0
281
0
  0
CLASS
  1
ACDBPLACEHOLDER
  2
AcDbPlaceHolder
  3
AutoCAD 2000
 90
0
 91
1
280
0
281
0
  0
CLASS
  1
LAYOUT
  2
AcDbLayout
  3
AutoCAD 2000
 90
0
 91
0
280
0
281
0
  0
ENDSEC
  0
SECTION
  2
TABLES
  0
TABLE
  2
VPORT
  5
8
100
AcDbSymbolTable
 70
2
  0
VPORT
  5
1F4
100
AcDbSymbolTableRecord
100
AcDbViewportTableRecord
  2
*ACTIVE
 70
0
 10
0.0
 20
0.0
 11
1.0
 21
1.0
 12
210.0
 22
148.5
 13
0.0
 23
0.0
 14
1.0
 24
1.0
 15
0.0
 25
0.0
 16
0.0
 26
0.0
 36
1.0
 17
0.0
 27
0.0
 37
0.0
 40
297.0
 41
1.4141414141
 42
50.0
 43
0.0
 44
0.0
 50
0.0
 51
0.0
 71
0
 72
100
 73
1
 74
1
 75
0
 76
0
 77
0
 78
0
  0
ENDTAB
  0
TABLE
  2
LTYPE
  5
5
100
AcDbSymbolTable
 70
6
  0
LTYPE
  5
14
100
AcDbSymbolTableRecord
100
AcDbLinetypeTableRecord
  2
BYBLOCK
 70
0
  3

 72
65
 73
0
 40
0.0
  0
LTYPE
  5
15
100
AcDbSymbolTableRecord
100
AcDbLinetypeTableRecord
  2
BYLAYER
 70
0
  3

 72
65
 73
0
 40
0.0
  0
LTYPE
  5
16
100
AcDbSymbolTableRecord
100
AcDbLinetypeTableRecord
  2
CONTINUOUS
 70
64
  3
Solid line
 72
65
 73
0
 40
0.0
  0
LTYPE
  5
1F5
100
AcDbSymbolTableRecord
100
AcDbLinetypeTableRecord
  2
CENTER
 70
64
  3
____ _ ____ _ ____ _ ____ _ ____ _ ____ _ ____
 72
65
 73
4
 40
0.6
 49
0.375
 74
0
 49
-0.075
 74
0
 49
0.075
 74
0
 49
-0.075
 74
0
  0
LTYPE
  5
1F6
100
AcDbSymbolTableRecord
100
AcDbLinetypeTableRecord
  2
HIDDEN
 70
64
  3
- - - - - - - - - - - - - - - - - - - -
 72
65
 73
2
 40
0.2
 49
0.1
 74
0
 49
-0.1
 74
0
  0
LTYPE
  5
1F7
100
AcDbSymbolTableRecord
100
AcDbLinetypeTableRecord
  2
PHANTOM
 70
64
  3
_____ _ _ _____ _ _ _____ _ _ _____
 72
65
 73
6
 40
0.8
 49
0.45
 74
0
 49
-0.05
 74
0
 49
0.1
 74
0
 49
-0.05
 74
0
 49
0.1
 74
0
 49
-0.05
 74
0
  0
LTYPE
  5
1F8
100
AcDbSymbolTableRecord
100
AcDbLinetypeTableRecord
  2
DOT
 70
64
  3
. . . . . . . . . . . . . . . . . . . .
 72
65
 73
2
 40
0.2
 49
0.1
 74
0
 49
-0.1
 74
0
  0
LTYPE
  5
1F9
100
AcDbSymbolTableRecord
100
AcDbLinetypeTableRecord
  2
DASHED
 70
64
  3
- - - - - - - - - - - - - - - - - - - -
 72
65
 73
2
 40
0.2
 49
0.1
 74
0
 49
-0.1
 74
0
  0
ENDTAB
  0
TABLE
  2
LAYER
  5
2
100
AcDbSymbolTable
 70
36
  0
LAYER
  5
10
100
AcDbSymbolTableRecord
100
AcDbLayerTableRecord
  2
0
 70
0
 62
7
  6
CONTINUOUS
370
-3
390
F
  0
LAYER
  5
1FA
100
AcDbSymbolTableRecord
100
AcDbLayerTableRecord
  2
DEFAULT_1
 70
0
 62
7
  6
CENTER
370
-3
390
F
  0
LAYER
  5
1FB
100
AcDbSymbolTableRecord
100
AcDbLayerTableRecord
  2
DEFAULT_2
 70
0
 62
8
  6
HIDDEN
370
-3
390
F
  0
LAYER
  5
1FC
100
AcDbSymbolTableRecord
100
AcDbLayerTableRecord
  2
DEFAULT_3
 70
0
 62
7
  6
PHANTOM
370
-3
390
F
  0
LAYER
  5
1FD
100
AcDbSymbolTableRecord
100
AcDbLayerTableRecord
  2
1
 70
0
 62
7
  6
CONTINUOUS
370
-3
390
F
  0
LAYER
  5
1FE
100
AcDbSymbolTableRecord
100
AcDbLayerTableRecord
  2
2
 70
0
 62
7
  6
CONTINUOUS
370
-3
390
F
  0
LAYER
  5
1FF
100
AcDbSymbolTableRecord
100
AcDbLayerTableRecord
  2
4
 70
0
 62
7
  6
CONTINUOUS
370
-3
390
F
  0
LAYER
  5
200
100
AcDbSymbolTableRecord
100
AcDbLayerTableRecord
  2
5
 70
0
 62
7
  6
CONTINUOUS
370
-3
390
F
  0
LAYER
  5
201
100
AcDbSymbolTableRecord
100
AcDbLayerTableRecord
  2
6
 70
0
 62
7
  6
CONTINUOUS
370
-3
390
F
  0
LAYER
  5
202
100
AcDbSymbolTableRecord
100
AcDbLayerTableRecord
  2
ACHSEN
 70
0
 62
7
  6
CONTINUOUS
370
-3
390
F
  0
LAYER
  5
203
100
AcDbSymbolTableRecord
100
AcDbLayerTableRecord
  2
ANALYSEN
 70
0
 62
7
  6
CONTINUOUS
370
-3
390
F
  0
LAYER
  5
204
100
AcDbSymbolTableRecord
100
AcDbLayerTableRecord
  2
AUFMASS_EINFUEHRFASE
 70
0
 62
7
  6
CONTINUOUS
370
-3
390
F
  0
LAYER
  5
205
100
AcDbSymbolTableRecord
100
AcDbLayerTableRecord
  2
AUFMASS_WEICHBEARBEITUNG
 70
0
 62
7
  6
CONTINUOUS
370
-3
390
F
  0
LAYER
  5
206
100
AcDbSymbolTableRecord
100
AcDbLayerTableRecord
  2
AUFMASS_WEICHBEARBEITUNG_FERTIG
 70
0
 62
7
  6
CONTINUOUS
370
-3
390
F
  0
LAYER
  5
207
100
AcDbSymbolTableRecord
100
AcDbLayerTableRecord
  2
AUFMASS_WEICHBE_INNENKONTUR
 70
0
 62
7
  6
CONTINUOUS
370
-3
390
F
  0
LAYER
  5
208
100
AcDbSymbolTableRecord
100
AcDbLayerTableRecord
  2
AUSFORMSCHRAEGEN
 70
0
 62
7
  6
CONTINUOUS
370
-3
390
F
  0
LAYER
  5
209
100
AcDbSymbolTableRecord
100
AcDbLayerTableRecord
  2
AUSSENKONTUR
 70
0
 62
7
  6
CONTINUOUS
370
-3
390
F
  0
LAYER
  5
20A
100
AcDbSymbolTableRecord
100
AcDbLayerTableRecord
  2
BEZUG
 70
0
 62
7
  6
CONTINUOUS
370
-3
390
F
  0
LAYER
  5
20B
100
AcDbSymbolTableRecord
100
AcDbLayerTableRecord
  2
BEZUGSACHSEN
 70
0
 62
7
  6
CONTINUOUS
370
-3
390
F
  0
LAYER
  5
20C
100
AcDbSymbolTableRecord
100
AcDbLayerTableRecord
  2
BEZUGSACHSENKENNZEICHEN
 70
0
 62
7
  6
CONTINUOUS
370
-3
390
F
  0
LAYER
  5
20D
100
AcDbSymbolTableRecord
100
AcDbLayerTableRecord
  2
BEZUGSEBENEN
 70
0
 62
7
  6
CONTINUOUS
370
-3
390
F
  0
LAYER
  5
20E
100
AcDbSymbolTableRecord
100
AcDbLayerTableRecord
  2
BEZUGSEBENE_B
 70
0
 62
7
  6
CONTINUOUS
370
-3
390
F
  0
LAYER
  5
20F
100
AcDbSymbolTableRecord
100
AcDbLayerTableRecord
  2
BEZUGSPUNKTE
 70
0
 62
7
  6
CONTINUOUS
370
-3
390
F
  0
LAYER
  5
210
100
AcDbSymbolTableRecord
100
AcDbLayerTableRecord
  2
BG_STARTBEZUEGE
 70
0
 62
7
  6
CONTINUOUS
370
-3
390
F
  0
LAYER
  5
211
100
AcDbSymbolTableRecord
100
AcDbLayerTableRecord
  2
BOHRUNGEN
 70
0
 62
7
  6
CONTINUOUS
370
-3
390
F
  0
LAYER
  5
212
100
AcDbSymbolTableRecord
100
AcDbLayerTableRecord
  2
EBENEN
 70
0
 62
7
  6
CONTINUOUS
370
-3
390
F
  0
LAYER
  5
213
100
AcDbSymbolTableRecord
100
AcDbLayerTableRecord
  2
FASEN
 70
0
 62
7
  6
CONTINUOUS
370
-3
390
F
  0
LAYER
  5
214
100
AcDbSymbolTableRecord
100
AcDbLayerTableRecord
  2
FLAECHEN
 70
0
 62
7
  6
CONTINUOUS
370
-3
390
F
  0
LAYER
  5
215
100
AcDbSymbolTableRecord
100
AcDbLayerTableRecord
  2
FORM_LAGE_TOLERANZEN
 70
0
 62
7
  6
CONTINUOUS
370
-3
390
F
  0
LAYER
  5
216
100
AcDbSymbolTableRecord
100
AcDbLayerTableRecord
  2
GEOMTOL
 70
0
 62
7
  6
CONTINUOUS
370
-3
390
F
  0
LAYER
  5
217
100
AcDbSymbolTableRecord
100
AcDbLayerTableRecord
  2
GEWINDE
 70
0
 62
7
  6
CONTINUOUS
370
-3
390
F
  0
LAYER
  5
218
100
AcDbSymbolTableRecord
100
AcDbLayerTableRecord
  2
HILFEN
 70
0
 62
7
  6
CONTINUOUS
370
-3
390
F
  0
LAYER
  5
219
100
AcDbSymbolTableRecord
100
AcDbLayerTableRecord
  2
INNENKONTUR
 70
0
 62
7
  6
CONTINUOUS
370
-3
390
F
  0
LAYER
  5
21A
100
AcDbSymbolTableRecord
100
AcDbLayerTableRecord
  2
KOORDINATENSYSTEME
 70
0
 62
7
  6
CONTINUOUS
370
-3
390
F
  0
LAYER
  5
21B
100
AcDbSymbolTableRecord
100
AcDbLayerTableRecord
  2
KOORDSYS
 70
0
 62
7
  6
CONTINUOUS
370
-3
390
F
  0
LAYER
  5
21C
100
AcDbSymbolTableRecord
100
AcDbLayerTableRecord
  2
KURVEN
 70
0
 62
7
  6
CONTINUOUS
370
-3
390
F
  0
LAYER
  5
21D
100
AcDbSymbolTableRecord
100
AcDbLayerTableRecord
  2
KURVE_FUER_GTOL_DETAILANSICHT
 70
0
 62
7
  6
CONTINUOUS
370
-3
390
F
  0
LAYER
  5
21E
100
AcDbSymbolTableRecord
100
AcDbLayerTableRecord
  2
KURVE_GAUGE2_POLIGON_INNENEINST
 70
0
 62
7
  6
CONTINUOUS
370
-3
390
F
  0
LAYER
  5
21F
100
AcDbSymbolTableRecord
100
AcDbLayerTableRecord
  2
KURVE_PHANTOM1_GAUGE_PIN_1
 70
0
 62
7
  6
CONTINUOUS
370
-3
390
F
  0
LAYER
  5
220
100
AcDbSymbolTableRecord
100
AcDbLayerTableRecord
  2
KURVE_PHANTOM2_GAUGE_PIN1
 70
0
 62
7
  6
CONTINUOUS
370
-3
390
F
  0
LAYER
  5
221
100
AcDbSymbolTableRecord
100
AcDbLayerTableRecord
  2
KURVE_POLIGON_BEMASUNG
 70
0
 62
7
  6
CONTINUOUS
370
-3
390
F
  0
LAYER
  5
222
100
AcDbSymbolTableRecord
100
AcDbLayerTableRecord
  2
NOCUT
 70
0
 62
7
  6
CONTINUOUS
370
-3
390
F
  0
LAYER
  5
223
100
AcDbSymbolTableRecord
100
AcDbLayerTableRecord
  2
PLATZIERUNG
 70
0
 62
7
  6
CONTINUOUS
370
-3
390
F
  0
LAYER
  5
224
100
AcDbSymbolTableRecord
100
AcDbLayerTableRecord
  2
PUNKTE
 70
0
 62
7
  6
CONTINUOUS
370
-3
390
F
  0
LAYER
  5
225
100
AcDbSymbolTableRecord
100
AcDbLayerTableRecord
  2
RUNDUNGEN
 70
0
 62
7
  6
CONTINUOUS
370
-3
390
F
  0
LAYER
  5
226
100
AcDbSymbolTableRecord
100
AcDbLayerTableRecord
  2
SK1
 70
0
 62
7
  6
CONTINUOUS
370
-3
390
F
  0
LAYER
  5
227
100
AcDbSymbolTableRecord
100
AcDbLayerTableRecord
  2
SK2
 70
0
 62
7
  6
CONTINUOUS
370
-3
390
F
  0
LAYER
  5
228
100
AcDbSymbolTableRecord
100
AcDbLayerTableRecord
  2
SK4
 70
0
 62
7
  6
CONTINUOUS
370
-3
390
F
  0
LAYER
  5
229
100
AcDbSymbolTableRecord
100
AcDbLayerTableRecord
  2
SKELETTE
 70
0
 62
7
  6
CONTINUOUS
370
-3
390
F
  0
LAYER
  5
22A
100
AcDbSymbolTableRecord
100
AcDbLayerTableRecord
  2
S_ACHSEN
 70
0
 62
7
  6
CONTINUOUS
370
-3
390
F
  0
LAYER
  5
22B
100
AcDbSymbolTableRecord
100
AcDbLayerTableRecord
  2
S_EBENEN
 70
0
 62
7
  6
CONTINUOUS
370
-3
390
F
  0
LAYER
  5
22C
100
AcDbSymbolTableRecord
100
AcDbLayerTableRecord
  2
S_KOORDSYS
 70
0
 62
7
  6
CONTINUOUS
370
-3
390
F
  0
LAYER
  5
22D
100
AcDbSymbolTableRecord
100
AcDbLayerTableRecord
  2
TEIL_STARTBEZUEGE
 70
0
 62
7
  6
CONTINUOUS
370
-3
390
F
  0
LAYER
  5
22E
100
AcDbSymbolTableRecord
100
AcDbLayerTableRecord
  2
TOL_BEZUEGE
 70
0
 62
7
  6
CONTINUOUS
370
-3
390
F
  0
LAYER
  5
22F
100
AcDbSymbolTableRecord
100
AcDbLayerTableRecord
  2
VERBFLAECHE
 70
0
 62
7
  6
CONTINUOUS
370
-3
390
F
  0
LAYER
  5
230
100
AcDbSymbolTableRecord
100
AcDbLayerTableRecord
  2
VERERBUNG
 70
0
 62
7
  6
CONTINUOUS
370
-3
390
F
  0
LAYER
  5
231
100
AcDbSymbolTableRecord
100
AcDbLayerTableRecord
  2
VERPACKUNG
 70
0
 62
7
  6
CONTINUOUS
370
-3
390
F
  0
LAYER
  5
232
100
AcDbSymbolTableRecord
100
AcDbLayerTableRecord
  2
VOLGEOM
 70
0
 62
7
  6
CONTINUOUS
370
-3
390
F
  0
LAYER
  5
233
100
AcDbSymbolTableRecord
100
AcDbLayerTableRecord
  2
VOLUMEN
 70
0
 62
7
  6
CONTINUOUS
370
-3
390
F
  0
LAYER
  5
234
100
AcDbSymbolTableRecord
100
AcDbLayerTableRecord
  2
XSEC_DATUMS
 70
0
 62
7
  6
CONTINUOUS
370
-3
390
F
  0
LAYER
  5
235
100
AcDbSymbolTableRecord
100
AcDbLayerTableRecord
  2
ZEICHNUNG
 70
0
 62
7
  6
CONTINUOUS
370
-3
390
F
  0
ENDTAB
  0
TABLE
  2
STYLE
  5
3
100
AcDbSymbolTable
 70
1
  0
STYLE
  5
11
100
AcDbSymbolTableRecord
100
AcDbTextStyleTableRecord
  2
STANDARD
 70
0
 40
0.0
 41
0.7
 50
0.0
 71
0
 42
0.2
  3
txt
  4

  0
STYLE
  5
236
100
AcDbSymbolTableRecord
100
AcDbTextStyleTableRecord
  2
TEXTSTYLE_1
 70
0
 40
0.0
 41
0.8
 50
0.0
 71
0
 42
0.2
  3
gdt
  4

  0
STYLE
  5
237
100
AcDbSymbolTableRecord
100
AcDbTextStyleTableRecord
  2
TEXTSTYLE_2
 70
0
 40
0.0
 41
0.7
 50
0.0
 71
0
 42
0.2
  3
gdt
  4

  0
ENDTAB
  0
TABLE
  2
VIEW
  5
6
100
AcDbSymbolTable
 70
0
  0
ENDTAB
  0
TABLE
  2
UCS
  5
7
100
AcDbSymbolTable
 70
0
  0
ENDTAB
  0
TABLE
  2
APPID
  5
9
100
AcDbSymbolTable
 70
1
  0
APPID
  5
238
100
AcDbSymbolTableRecord
100
AcDbRegAppTableRecord
  2
ACAD
 70
0
  0
ENDTAB
  0
TABLE
  2
BLOCK_RECORD
  5
1
100
AcDbSymbolTable
 70
0
  0
BLOCK_RECORD
  5
239
100
AcDbSymbolTableRecord
100
AcDbBlockTableRecord
  2
*Model_Space
  0
BLOCK_RECORD
  5
23A
100
AcDbSymbolTableRecord
100
AcDbBlockTableRecord
  2
*Paper_Space
  0
BLOCK_RECORD
  5
23B
100
AcDbSymbolTableRecord
100
AcDbBlockTableRecord
  2
_FILLED
  0
BLOCK_RECORD
  5
23C
100
AcDbSymbolTableRecord
100
AcDbBlockTableRecord
  2
*D0
  0
BLOCK_RECORD
  5
23D
100
AcDbSymbolTableRecord
100
AcDbBlockTableRecord
  2
*D1
  0
BLOCK_RECORD
  5
23E
100
AcDbSymbolTableRecord
100
AcDbBlockTableRecord
  2
*D2
  0
BLOCK_RECORD
  5
23F
100
AcDbSymbolTableRecord
100
AcDbBlockTableRecord
  2
*D3
  0
BLOCK_RECORD
  5
240
100
AcDbSymbolTableRecord
100
AcDbBlockTableRecord
  2
*D4
  0
BLOCK_RECORD
  5
241
100
AcDbSymbolTableRecord
100
AcDbBlockTableRecord
  2
*D5
  0
ENDTAB
  0
TABLE
  2
DIMSTYLE
  5
A
100
AcDbSymbolTable
 70
1
100
AcDbDimStyleTable
 71
0
  0
DIMSTYLE
105
242
100
AcDbSymbolTableRecord
100
AcDbDimStyleTableRecord
  2
STANDARD
 70
0
  3

  4

 40
1.0
 41
3.5
 42
0.0625
 43
0.38
 44
0.18
 45
0.0
 46
0.0
 47
0.005
 48
0.005
140
3.5
141
0.09
142
0.0
143
25.4
144
1.0
145
0.0
146
1.0
147
0.09
 71
0.0
 72
0.0
 73
0
 74
0
 75
0
 76
0
 77
1
 78
8
170
0
171
2
172
0
173
0
174
0
175
0
176
0
177
0
178
5
270
2
271
3
272
3
273
2
274
2
275
0
280
0
281
0
282
0
283
1
284
8
285
0
286
0
287
3
288
0
340
11
341
23B
342
23B
343
23B
344
23B
  0
DIMSTYLE
105
243
100
AcDbSymbolTableRecord
100
AcDbDimStyleTableRecord
  2
DIMSTYLE_1
 70
0
  3

  4

 40
1.0
 41
3.5
 42
0.0625
 43
0.38
 44
0.18
 45
0.0
 46
0.0
 47
0.0
 48
0.0
140
3.5
141
0.09
142
0.0
143
25.4
144
1.0
145
0.0
146
1.0
147
0.09
 71
0.0
 72
0.0
 73
0
 74
0
 75
0
 76
0
 77
1
 78
8
170
0
171
2
172
0
173
0
174
0
175
0
176
0
177
0
178
5
270
2
271
2
272
2
273
2
274
2
275
0
280
0
281
0
282
0
283
1
284
8
285
0
286
0
287
3
288
0
340
11
341
23B
342
23B
343
23B
344
23B
  0
ENDTAB
  0
ENDSEC
  0
SECTION
  2
BLOCKS
  0
BLOCK
  5
20
100
AcDbEntity
  8
0
100
AcDbBlockBegin
  2
*Model_Space
 70
0
 10
0.0
 20
0.0
 30
0.0
  3
*Model_Space
  1

  0
ENDBLK
  5
21
100
AcDbEntity
  8
0
100
AcDbBlockEnd
  0
BLOCK
  5
1C
100
AcDbEntity
  8
0
100
AcDbBlockBegin
  2
*Paper_Space
 70
0
 10
0.0
 20
0.0
 30
0.0
  3
*Paper_Space
  1

  0
ENDBLK
  5
1D
100
AcDbEntity
  8
0
100
AcDbBlockEnd
  0
BLOCK
  5
244
100
AcDbEntity
  8
0
100
AcDbBlockBegin
  2
_FILLED
 70
64
 10
0.0
 20
0.0
  3
_FILLED
  1

  0
SOLID
  5
245
100
AcDbEntity
  8
0
  6
BYBLOCK
 62
0
100
AcDbTrace
 10
0.0
 20
0.0
 11
-1.0
 21
0.125
 12
-1.0
 22
-0.125
 13
-1.0
 23
-0.125
  0
ENDBLK
  5
246
100
AcDbEntity
  8
0
  6
BYBLOCK
 62
0
100
AcDbBlockEnd
  0
BLOCK
  5
247
100
AcDbEntity
  8
2
100
AcDbBlockBegin
 62
2
  6
CONTINUOUS
  2
*D0
 70
65
 10
0.0
 20
0.0
  3
*D0
  1

  0
MTEXT
  5
248
100
AcDbEntity
  8
2
100
AcDbMText
 62
5
  6
CONTINUOUS
  7
STANDARD
 71
2
 72
1
 10
221.19
 20
216.8625
 30
0.0
 11
1.0
 21
0.0
 31
0.0
 44
0.9
  1
62.38
 40
3.5
 41
12.75
  0
LINE
  5
249
100
AcDbEntity
  8
2
100
AcDbLine
 62
2
  6
CONTINUOUS
 10
190.0
 20
191.5
 11
190.0
 21
213.9875
  0
LINE
  5
24A
100
AcDbEntity
  8
2
100
AcDbLine
 62
2
  6
CONTINUOUS
 10
252.38
 20
181.0
 11
252.38
 21
213.9875
  0
LINE
  5
24B
100
AcDbEntity
  8
2
100
AcDbLine
 62
2
  6
CONTINUOUS
 10
190.0
 20
212.4875
 11
221.19
 21
212.4875
  0
LINE
  5
24C
100
AcDbEntity
  8
2
100
AcDbLine
 62
2
  6
CONTINUOUS
 10
252.38
 20
212.4875
 11
221.19
 21
212.4875
  0
INSERT
  5
24D
100
AcDbEntity
  8
2
100
AcDbBlockReference
 62
2
  6
CONTINUOUS
  2
_FILLED
 10
190.0
 20
212.4875
 41
3.5
 42
3.5
 43
3.5
 50
180.0
  0
INSERT
  5
24E
100
AcDbEntity
  8
2
100
AcDbBlockReference
 62
2
  6
CONTINUOUS
  2
_FILLED
 10
252.38
 20
212.4875
 41
3.5
 42
3.5
 43
3.5
  0
ENDBLK
  5
24F
100
AcDbEntity
  8
0
  6
BYBLOCK
 62
0
100
AcDbBlockEnd
  0
BLOCK
  5
250
100
AcDbEntity
  8
SK2
100
AcDbBlockBegin
 62
2
  6
CONTINUOUS
  2
*D1
 70
65
 10
0.0
 20
0.0
  3
*D1
  1

  0
MTEXT
  5
251
100
AcDbEntity
  8
SK2
100
AcDbMText
 62
5
  6
CONTINUOUS
  7
STANDARD
 71
2
 72
1
 10
188.49
 20
236.8625
 30
0.0
 11
1.0
 21
0.0
 31
0.0
 44
0.9
  1
127.78
 40
3.5
 41
15.0
  0
LINE
  5
252
100
AcDbEntity
  8
SK2
100
AcDbLine
 62
2
  6
CONTINUOUS
 10
124.6
 20
160.0
 11
124.6
 21
233.9875
  0
LINE
  5
253
100
AcDbEntity
  8
SK2
100
AcDbLine
 62
2
  6
CONTINUOUS
 10
252.38
 20
160.0
 11
252.38
 21
219.4875
  0
LINE
  5
254
100
AcDbEntity
  8
SK2
100
AcDbLine
 62
2
  6
CONTINUOUS
 10
252.38
 20
225.4875
 11
252.38
 21
233.9875
  0
LINE
  5
255
100
AcDbEntity
  8
SK2
100
AcDbLine
 62
2
  6
CONTINUOUS
 10
124.6
 20
232.4875
 11
188.49
 21
232.4875
  0
LINE
  5
256
100
AcDbEntity
  8
SK2
100
AcDbLine
 62
2
  6
CONTINUOUS
 10
252.38
 20
232.4875
 11
188.49
 21
232.4875
  0
INSERT
  5
257
100
AcDbEntity
  8
SK2
100
AcDbBlockReference
 62
2
  6
CONTINUOUS
  2
_FILLED
 10
124.6
 20
232.4875
 41
3.5
 42
3.5
 43
3.5
 50
180.0
  0
INSERT
  5
258
100
AcDbEntity
  8
SK2
100
AcDbBlockReference
 62
2
  6
CONTINUOUS
  2
_FILLED
 10
252.38
 20
232.4875
 41
3.5
 42
3.5
 43
3.5
  0
ENDBLK
  5
259
100
AcDbEntity
  8
0
  6
BYBLOCK
 62
0
100
AcDbBlockEnd
  0
BLOCK
  5
25A
100
AcDbEntity
  8
SK2
100
AcDbBlockBegin
 62
2
  6
CONTINUOUS
  2
*D2
 70
65
 10
0.0
 20
0.0
  3
*D2
  1

  0
MTEXT
  5
25B
100
AcDbEntity
  8
SK2
100
AcDbMText
 62
5
  6
CONTINUOUS
  7
STANDARD
 71
2
 72
1
 10
234.69
 20
206.8625
 30
0.0
 11
1.0
 21
0.0
 31
0.0
 44
0.9
  1
35.38
 40
3.5
 41
12.25
  0
LINE
  5
25C
100
AcDbEntity
  8
SK2
100
AcDbLine
 62
2
  6
CONTINUOUS
 10
217.0
 20
191.5
 11
217.0
 21
203.9875
  0
LINE
  5
25D
100
AcDbEntity
  8
SK2
100
AcDbLine
 62
2
  6
CONTINUOUS
 10
252.38
 20
160.0
 11
252.38
 21
203.9875
  0
LINE
  5
25E
100
AcDbEntity
  8
SK2
100
AcDbLine
 62
2
  6
CONTINUOUS
 10
217.0
 20
202.4875
 11
234.69
 21
202.4875
  0
LINE
  5
25F
100
AcDbEntity
  8
SK2
100
AcDbLine
 62
2
  6
CONTINUOUS
 10
252.38
 20
202.4875
 11
234.69
 21
202.4875
  0
INSERT
  5
260
100
AcDbEntity
  8
SK2
100
AcDbBlockReference
 62
2
  6
CONTINUOUS
  2
_FILLED
 10
217.0
 20
202.4875
 41
3.5
 42
3.5
 43
3.5
 50
180.0
  0
INSERT
  5
261
100
AcDbEntity
  8
SK2
100
AcDbBlockReference
 62
2
  6
CONTINUOUS
  2
_FILLED
 10
252.38
 20
202.4875
 41
3.5
 42
3.5
 43
3.5
  0
ENDBLK
  5
262
100
AcDbEntity
  8
0
  6
BYBLOCK
 62
0
100
AcDbBlockEnd
  0
BLOCK
  5
263
100
AcDbEntity
  8
2
100
AcDbBlockBegin
 62
2
  6
CONTINUOUS
  2
*D3
 70
65
 10
0.0
 20
0.0
  3
*D3
  1

  0
MTEXT
  5
264
100
AcDbEntity
  8
2
100
AcDbMText
 62
5
  6
CONTINUOUS
  7
TEXTSTYLE_2
 71
2
 72
1
 10
270.145
 20
160.0
 30
0.0
 11
0.0
 21
1.0
 31
0.0
 44
0.9
  1
{\Fgdt;n}\Ftxt;25
 40
3.5
 41
9.9166666667
  0
LINE
  5
265
100
AcDbEntity
  8
2
100
AcDbLine
 62
2
  6
CONTINUOUS
 10
252.38
 20
147.5
 11
276.02
 21
147.5
  0
LINE
  5
266
100
AcDbEntity
  8
2
100
AcDbLine
 62
2
  6
CONTINUOUS
 10
252.38
 20
172.5
 11
276.02
 21
172.5
  0
LINE
  5
267
100
AcDbEntity
  8
2
100
AcDbLine
 62
2
  6
CONTINUOUS
 10
274.52
 20
147.5
 11
274.52
 21
160.0
  0
LINE
  5
268
100
AcDbEntity
  8
2
100
AcDbLine
 62
2
  6
CONTINUOUS
 10
274.52
 20
172.5
 11
274.52
 21
160.0
  0
INSERT
  5
269
100
AcDbEntity
  8
2
100
AcDbBlockReference
 62
2
  6
CONTINUOUS
  2
_FILLED
 10
274.52
 20
147.5
 41
3.5
 42
3.5
 43
3.5
 50
270.0
  0
INSERT
  5
26A
100
AcDbEntity
  8
2
100
AcDbBlockReference
 62
2
  6
CONTINUOUS
  2
_FILLED
 10
274.52
 20
172.5
 41
3.5
 42
3.5
 43
3.5
 50
90.0
  0
ENDBLK
  5
26B
100
AcDbEntity
  8
0
  6
BYBLOCK
 62
0
100
AcDbBlockEnd
  0
BLOCK
  5
26C
100
AcDbEntity
  8
2
100
AcDbBlockBegin
 62
2
  6
CONTINUOUS
  2
*D4
 70
65
 10
0.0
 20
0.0
  3
*D4
  1

  0
MTEXT
  5
26D
100
AcDbEntity
  8
2
100
AcDbMText
 62
5
  6
CONTINUOUS
  7
TEXTSTYLE_2
 71
2
 72
1
 10
280.145
 20
160.0
 30
0.0
 11
0.0
 21
1.0
 31
0.0
 44
0.9
  1
{\Fgdt;n}\Ftxt;42
 40
3.5
 41
10.1666666667
  0
LINE
  5
26E
100
AcDbEntity
  8
2
100
AcDbLine
 62
2
  6
CONTINUOUS
 10
228.301972318
 20
139.0
 11
286.02
 21
139.0
  0
LINE
  5
26F
100
AcDbEntity
  8
2
100
AcDbLine
 62
2
  6
CONTINUOUS
 10
228.301972318
 20
181.0
 11
286.02
 21
181.0
  0
LINE
  5
270
100
AcDbEntity
  8
2
100
AcDbLine
 62
2
  6
CONTINUOUS
 10
284.52
 20
139.0
 11
284.52
 21
160.0
  0
LINE
  5
271
100
AcDbEntity
  8
2
100
AcDbLine
 62
2
  6
CONTINUOUS
 10
284.52
 20
181.0
 11
284.52
 21
160.0
  0
INSERT
  5
272
100
AcDbEntity
  8
2
100
AcDbBlockReference
 62
2
  6
CONTINUOUS
  2
_FILLED
 10
284.52
 20
139.0
 41
3.5
 42
3.5
 43
3.5
 50
270.0
  0
INSERT
  5
273
100
AcDbEntity
  8
2
100
AcDbBlockReference
 62
2
  6
CONTINUOUS
  2
_FILLED
 10
284.52
 20
181.0
 41
3.5
 42
3.5
 43
3.5
 50
90.0
  0
ENDBLK
  5
274
100
AcDbEntity
  8
0
  6
BYBLOCK
 62
0
100
AcDbBlockEnd
  0
BLOCK
  5
275
100
AcDbEntity
  8
2
100
AcDbBlockBegin
 62
2
  6
CONTINUOUS
  2
*D5
 70
65
 10
0.0
 20
0.0
  3
*D5
  1

  0
MTEXT
  5
276
100
AcDbEntity
  8
2
100
AcDbMText
 62
5
  6
CONTINUOUS
  7
STANDARD
 71
2
 72
1
 10
225.0
 20
226.8625
 30
0.0
 11
1.0
 21
0.0
 31
0.0
 44
0.9
  1
70
 40
3.5
 41
5.5
  0
LINE
  5
277
100
AcDbEntity
  8
2
100
AcDbLine
 62
2
  6
CONTINUOUS
 10
190.0
 20
191.5
 11
190.0
 21
223.9875
  0
LINE
  5
278
100
AcDbEntity
  8
2
100
AcDbLine
 62
2
  6
CONTINUOUS
 10
260.0
 20
160.0
 11
260.0
 21
169.5
  0
LINE
  5
279
100
AcDbEntity
  8
2
100
AcDbLine
 62
2
  6
CONTINUOUS
 10
260.0
 20
175.5
 11
260.0
 21
178.0
  0
LINE
  5
27A
100
AcDbEntity
  8
2
100
AcDbLine
 62
2
  6
CONTINUOUS
 10
260.0
 20
184.0
 11
260.0
 21
223.9875
  0
LINE
  5
27B
100
AcDbEntity
  8
2
100
AcDbLine
 62
2
  6
CONTINUOUS
 10
190.0
 20
222.4875
 11
225.0
 21
222.4875
  0
LINE
  5
27C
100
AcDbEntity
  8
2
100
AcDbLine
 62
2
  6
CONTINUOUS
 10
260.0
 20
222.4875
 11
225.0
 21
222.4875
  0
INSERT
  5
27D
100
AcDbEntity
  8
2
100
AcDbBlockReference
 62
2
  6
CONTINUOUS
  2
_FILLED
 10
190.0
 20
222.4875
 41
3.5
 42
3.5
 43
3.5
 50
180.0
  0
INSERT
  5
27E
100
AcDbEntity
  8
2
100
AcDbBlockReference
 62
2
  6
CONTINUOUS
  2
_FILLED
 10
260.0
 20
222.4875
 41
3.5
 42
3.5
 43
3.5
  0
ENDBLK
  5
27F
100
AcDbEntity
  8
0
  6
BYBLOCK
 62
0
100
AcDbBlockEnd
  0
ENDSEC
  0
SECTION
  2
ENTITIES
  0
DIMENSION
  5
280
100
AcDbEntity
  8
2
100
AcDbDimension
 62
2
  6
CONTINUOUS
  2
*D0
 10
252.38
 20
212.4875
 11
214.815
 21
215.1125
 70
160
 71
2
 42
62.38
  3
DIMSTYLE_1
100
AcDbAlignedDimension
 13
190.0
 23
191.5
 14
252.38
 24
181.0
100
AcDbRotatedDimension
  0
DIMENSION
  5
281
100
AcDbEntity
  8
SK2
100
AcDbDimension
 62
2
  6
CONTINUOUS
  2
*D1
 10
252.38
 20
232.4875
 11
180.99
 21
235.1125
 70
160
 71
2
 42
127.78
  3
DIMSTYLE_1
100
AcDbAlignedDimension
 13
124.6
 23
160.0
 14
252.38
 24
160.0
100
AcDbRotatedDimension
  0
DIMENSION
  5
282
100
AcDbEntity
  8
SK2
100
AcDbDimension
 62
2
  6
CONTINUOUS
  2
*D2
 10
252.38
 20
202.4875
 11
228.565
 21
205.1125
 70
160
 71
2
 42
35.38
  3
DIMSTYLE_1
100
AcDbAlignedDimension
 13
217.0
 23
191.5
 14
252.38
 24
160.0
100
AcDbRotatedDimension
  0
DIMENSION
  5
283
100
AcDbEntity
  8
2
100
AcDbDimension
 62
2
  6
CONTINUOUS
  2
*D3
 10
274.52
 20
172.5
 11
273.0058491733
 21
157.7836332715
 70
160
 71
2
 42
25.0
  1
%%c<>
  3
DIMSTYLE_1
100
AcDbAlignedDimension
 13
252.38
 23
147.5
 14
252.38
 24
172.5
 50
90.0
100
AcDbRotatedDimension
  0
DIMENSION
  5
284
100
AcDbEntity
  8
2
100
AcDbDimension
 62
2
  6
CONTINUOUS
  2
*D4
 10
284.52
 20
181.0
 11
283.0338537743
 21
157.72775848
 70
160
 71
2
 42
42.0
  1
%%c<>
  3
DIMSTYLE_1
100
AcDbAlignedDimension
 13
228.301972318
 23
139.0
 14
228.301972318
 24
181.0
 50
90.0
100
AcDbRotatedDimension
  0
DIMENSION
  5
285
100
AcDbEntity
  8
2
100
AcDbDimension
 62
2
  6
CONTINUOUS
  2
*D5
 10
260.0
 20
222.4875
 11
222.25
 21
225.1125
 70
160
 71
2
 42
70.0
  3
DIMSTYLE_1
100
AcDbAlignedDimension
 13
190.0
 23
191.5
 14
260.0
 24
160.0
100
AcDbRotatedDimension
  0
MTEXT
  5
286
100
AcDbEntity
  8
6
100
AcDbMText
 62
5
  6
CONTINUOUS
  7
STANDARD
 71
1
 72
1
 10
187.1438497029
 20
82.3507156451
 30
0.0
 11
1.0
 21
0.0
 31
0.0
 44
0.9
  3
Für diese Unterlage behalten wir das Ur-\Pheberrecht. Sie darf nur für den von uns\Pbestimmten Zweck benutzt und ohne unsere \PZustimmung weder vervielfältigt noch \PDritten zugänglich gemacht werden.\P \PWe own the copyright of this document. It\Pde
  1
termined and may neither be copied or\Pmade accessible to outsiders without our\Ppermission.\P \PCe plan reste notre propriété. Il ne peut\Pétre utilisé, copié ou reproduit sans notre\Paccord.
 40
3.5
 41
103.5833333333
  0
LINE
  5
287
100
AcDbEntity
  8
1
100
AcDbLine
 62
9
  6
CONTINUOUS
 10
124.6
 20
171.821971139
 11
124.6
 21
148.178028861
  0
LINE
  5
288
100
AcDbEntity
  8
1
100
AcDbLine
 62
9
  6
CONTINUOUS
 10
125.4556813308
 20
172.8115024026
 11
125.4556813308
 21
147.1884975974
  0
LINE
  5
289
100
AcDbEntity
  8
1
100
AcDbLine
 62
6
  6
CONTINUOUS
 10
216.0
 20
128.5125
 11
211.6237831296
 21
128.5125
  0
LINE
  5
28A
100
AcDbEntity
  8
1
100
AcDbLine
 62
6
  6
CONTINUOUS
 10
193.0
 20
128.5125
 11
201.5762168704
 21
128.5125
  0
LINE
  5
28B
100
AcDbEntity
  8
1
100
AcDbLine
 62
6
  6
CONTINUOUS
 10
204.8125
 20
133.625
 11
208.3875
 21
133.625
  0
LINE
  5
28C
100
AcDbEntity
  8
1
100
AcDbLine
 62
6
  6
CONTINUOUS
 10
191.0
 20
138.125
 11
189.35
 21
138.125
  0
LINE
  5
28D
100
AcDbEntity
  8
1
100
AcDbLine
 62
6
  6
CONTINUOUS
 10
255.0
 20
139.0
 11
241.25
 21
139.0
  0
LINE
  5
28E
100
AcDbEntity
  8
1
100
AcDbLine
 62
6
  6
CONTINUOUS
 10
227.6553353975
 20
139.0375
 11
217.95
 21
139.0375
  0
LINE
  5
28F
100
AcDbEntity
  8
1
100
AcDbLine
 62
6
  6
CONTINUOUS
 10
188.7332679684
 20
137.9597471502
 11
125.4556813308
 21
147.1884975974
  0
LINE
  5
290
100
AcDbEntity
  8
1
100
AcDbLine
 62
6
  6
CONTINUOUS
 10
189.35
 20
138.125
 11
188.7332679684
 21
137.9597471502
  0
LINE
  5
291
100
AcDbEntity
  8
1
100
AcDbLine
 62
6
  6
CONTINUOUS
 10
255.0
 20
140.5845919358
 11
248.0
 21
140.5845919358
  0
LINE
  5
292
100
AcDbEntity
  8
1
100
AcDbLine
 62
8
  6
HIDDEN
 10
251.5139745962
 20
143.0025
 11
240.0
 21
143.0025
  0
LINE
  5
293
100
AcDbEntity
  8
1
100
AcDbLine
 62
6
  6
CONTINUOUS
 10
240.0
 20
143.0025
 11
236.6016946626
 21
143.0025
  0
LINE
  5
294
100
AcDbEntity
  8
1
100
AcDbLine
 62
6
  6
CONTINUOUS
 10
255.0
 20
143.3618235976
 11
248.0
 21
143.3618235976
  0
LINE
  5
295
100
AcDbEntity
  8
1
100
AcDbLine
 62
6
  6
CONTINUOUS
 10
188.7332679684
 20
182.0402528498
 11
188.7332679684
 21
137.9597471502
  0
LINE
  5
296
100
AcDbEntity
  8
1
100
AcDbLine
 62
6
  6
CONTINUOUS
 10
189.35
 20
181.875
 11
189.35
 21
138.125
  0
LINE
  5
297
100
AcDbEntity
  8
1
100
AcDbLine
 62
8
  6
HIDDEN
 10
231.4608130162
 20
150.44
 11
220.88
 21
150.44
  0
LINE
  5
298
100
AcDbEntity
  8
1
100
AcDbLine
 62
6
  6
CONTINUOUS
 10
201.5762168704
 20
150.6066810168
 11
193.0
 21
150.6066810168
  0
LINE
  5
299
100
AcDbEntity
  8
1
100
AcDbLine
 62
6
  6
CONTINUOUS
 10
193.0
 20
151.905
 11
205.155
 21
151.905
  0
LINE
  5
29A
100
AcDbEntity
  8
DEFAULT_1
100
AcDbLine
 62
7
  6
CENTER
 10
190.0
 20
124.5125
 11
190.0
 21
195.4875
  0
LINE
  5
29B
100
AcDbEntity
  8
1
100
AcDbLine
 62
9
  6
CONTINUOUS
 10
191.0
 20
181.875
 11
191.0
 21
138.125
  0
LINE
  5
29C
100
AcDbEntity
  8
1
100
AcDbLine
 62
9
  6
CONTINUOUS
 10
192.0
 20
129.5125
 11
192.0
 21
150.905
  0
LINE
  5
29D
100
AcDbEntity
  8
1
100
AcDbLine
 62
6
  6
CONTINUOUS
 10
192.0
 20
150.905
 11
192.0
 21
155.6110223286
  0
LINE
  5
29E
100
AcDbEntity
  8
1
100
AcDbLine
 62
6
  6
CONTINUOUS
 10
192.0
 20
164.3889776714
 11
192.0
 21
169.095
  0
LINE
  5
29F
100
AcDbEntity
  8
1
100
AcDbLine
 62
9
  6
CONTINUOUS
 10
192.0
 20
169.095
 11
192.0
 21
190.4875
  0
LINE
  5
2A0
100
AcDbEntity
  8
1
100
AcDbLine
 62
9
  6
CONTINUOUS
 10
193.0
 20
128.5125
 11
193.0
 21
151.905
  0
LINE
  5
2A1
100
AcDbEntity
  8
1
100
AcDbLine
 62
9
  6
CONTINUOUS
 10
193.0
 20
168.095
 11
193.0
 21
191.4875
  0
LINE
  5
2A2
100
AcDbEntity
  8
1
100
AcDbLine
 62
6
  6
CONTINUOUS
 10
209.1375
 20
187.1593520512
 11
211.6237831296
 21
191.4875
  0
LINE
  5
2A3
100
AcDbEntity
  8
1
100
AcDbLine
 62
6
  6
CONTINUOUS
 10
255.0
 20
157.2227683382
 11
248.0
 21
157.2227683382
  0
LINE
  5
2A4
100
AcDbEntity
  8
4
100
AcDbLine
 62
7
  6
CENTER
 10
257.38
 20
160.0
 11
120.6
 21
160.0
  0
LINE
  5
2A5
100
AcDbEntity
  8
1
100
AcDbLine
 62
8
  6
HIDDEN
 10
252.38
 20
147.5
 11
231.4608130162
 21
150.44
  0
LINE
  5
2A6
100
AcDbEntity
  8
1
100
AcDbLine
 62
6
  6
CONTINUOUS
 10
209.1375
 20
132.8406479488
 11
211.6237831296
 21
128.5125
  0
LINE
  5
2A7
100
AcDbEntity
  8
1
100
AcDbLine
 62
6
  6
CONTINUOUS
 10
192.0
 20
150.905
 11
193.0
 21
151.905
  0
LINE
  5
2A8
100
AcDbEntity
  8
1
100
AcDbLine
 62
8
  6
HIDDEN
 10
252.38
 20
172.5
 11
231.4608130162
 21
169.56
  0
LINE
  5
2A9
100
AcDbEntity
  8
1
100
AcDbLine
 62
6
  6
CONTINUOUS
 10
255.0
 20
162.7772316618
 11
248.0
 21
162.7772316618
  0
LINE
  5
2AA
100
AcDbEntity
  8
1
100
AcDbLine
 62
6
  6
CONTINUOUS
 10
192.0
 20
169.095
 11
193.0
 21
168.095
  0
LINE
  5
2AB
100
AcDbEntity
  8
1
100
AcDbLine
 62
6
  6
CONTINUOUS
 10
201.5762168704
 20
191.4875
 11
201.5762168704
 21
169.3933189832
  0
LINE
  5
2AC
100
AcDbEntity
  8
1
100
AcDbLine
 62
6
  6
CONTINUOUS
 10
201.5762168704
 20
150.6066810168
 11
201.5762168704
 21
128.5125
  0
LINE
  5
2AD
100
AcDbEntity
  8
1
100
AcDbLine
 62
6
  6
CONTINUOUS
 10
204.0625
 20
187.1593210669
 11
204.0625
 21
168.095
  0
LINE
  5
2AE
100
AcDbEntity
  8
1
100
AcDbLine
 62
6
  6
CONTINUOUS
 10
204.0625
 20
151.905
 11
204.0625
 21
132.8406789331
  0
LINE
  5
2AF
100
AcDbEntity
  8
1
100
AcDbLine
 62
9
  6
CONTINUOUS
 10
204.8125
 20
133.625
 11
204.8125
 21
151.905
  0
LINE
  5
2B0
100
AcDbEntity
  8
1
100
AcDbLine
 62
9
  6
CONTINUOUS
 10
204.8125
 20
168.095
 11
204.8125
 21
186.375
  0
LINE
  5
2B1
100
AcDbEntity
  8
1
100
AcDbLine
 62
6
  6
CONTINUOUS
 10
193.0
 20
168.095
 11
205.155
 21
168.095
  0
LINE
  5
2B2
100
AcDbEntity
  8
1
100
AcDbLine
 62
6
  6
CONTINUOUS
 10
193.0
 20
169.3933189832
 11
201.5762168704
 21
169.3933189832
  0
LINE
  5
2B3
100
AcDbEntity
  8
1
100
AcDbLine
 62
8
  6
HIDDEN
 10
231.4608130162
 20
169.56
 11
220.88
 21
169.56
  0
LINE
  5
2B4
100
AcDbEntity
  8
1
100
AcDbLine
 62
9
  6
CONTINUOUS
 10
208.3875
 20
133.625
 11
208.3875
 21
152.5784119792
  0
LINE
  5
2B5
100
AcDbEntity
  8
1
100
AcDbLine
 62
9
  6
CONTINUOUS
 10
208.3875
 20
167.4215880208
 11
208.3875
 21
186.375
  0
LINE
  5
2B6
100
AcDbEntity
  8
1
100
AcDbLine
 62
6
  6
CONTINUOUS
 10
209.1375
 20
132.8406479488
 11
209.1375
 21
152.9523962406
  0
LINE
  5
2B7
100
AcDbEntity
  8
1
100
AcDbLine
 62
6
  6
CONTINUOUS
 10
209.1375
 20
167.0476037594
 11
209.1375
 21
187.1593520512
  0
LINE
  5
2B8
100
AcDbEntity
  8
1
100
AcDbLine
 62
6
  6
CONTINUOUS
 10
211.6237831296
 20
191.4875
 11
211.6237831296
 21
166.6029195635
  0
LINE
  5
2B9
100
AcDbEntity
  8
1
100
AcDbLine
 62
6
  6
CONTINUOUS
 10
211.6237831296
 20
153.3970832436
 11
211.6237831296
 21
128.5125
  0
LINE
  5
2BA
100
AcDbEntity
  8
1
100
AcDbLine
 62
6
  6
CONTINUOUS
 10
255.0
 20
176.6381764024
 11
248.0
 21
176.6381764024
  0
LINE
  5
2BB
100
AcDbEntity
  8
1
100
AcDbLine
 62
8
  6
HIDDEN
 10
251.5139745962
 20
176.9975
 11
240.0
 21
176.9975
  0
LINE
  5
2BC
100
AcDbEntity
  8
1
100
AcDbLine
 62
6
  6
CONTINUOUS
 10
240.0
 20
176.9975
 11
236.6016946626
 21
176.9975
  0
LINE
  5
2BD
100
AcDbEntity
  8
1
100
AcDbLine
 62
6
  6
CONTINUOUS
 10
255.0
 20
179.4154080642
 11
248.0
 21
179.4154080642
  0
LINE
  5
2BE
100
AcDbEntity
  8
1
100
AcDbLine
 62
6
  6
CONTINUOUS
 10
227.6553353975
 20
180.9625
 11
217.95
 21
180.9625
  0
LINE
  5
2BF
100
AcDbEntity
  8
1
100
AcDbLine
 62
6
  6
CONTINUOUS
 10
255.0
 20
181.0
 11
241.25
 21
181.0
  0
LINE
  5
2C0
100
AcDbEntity
  8
1
100
AcDbLine
 62
6
  6
CONTINUOUS
 10
189.35
 20
181.875
 11
188.7332679684
 21
182.0402528498
  0
LINE
  5
2C1
100
AcDbEntity
  8
1
100
AcDbLine
 62
9
  6
CONTINUOUS
 10
216.0
 20
191.4875
 11
216.0
 21
128.5125
  0
LINE
  5
2C2
100
AcDbEntity
  8
1
100
AcDbLine
 62
6
  6
CONTINUOUS
 10
217.0
 20
190.4875
 11
217.0
 21
129.5125
  0
LINE
  5
2C3
100
AcDbEntity
  8
1
100
AcDbLine
 62
9
  6
CONTINUOUS
 10
217.95
 20
180.9625
 11
217.95
 21
139.0375
  0
LINE
  5
2C4
100
AcDbEntity
  8
1
100
AcDbLine
 62
6
  6
CONTINUOUS
 10
201.5762168704
 20
128.5125
 11
204.0625
 21
132.8406479488
  0
LINE
  5
2C5
100
AcDbEntity
  8
1
100
AcDbLine
 62
6
  6
CONTINUOUS
 10
188.7332679684
 20
182.0402528498
 11
125.4556813308
 21
172.8115024026
  0
LINE
  5
2C6
100
AcDbEntity
  8
1
100
AcDbLine
 62
6
  6
CONTINUOUS
 10
191.0
 20
181.875
 11
189.35
 21
181.875
  0
LINE
  5
2C7
100
AcDbEntity
  8
1
100
AcDbLine
 62
6
  6
CONTINUOUS
 10
204.8125
 20
186.375
 11
208.3875
 21
186.375
  0
LINE
  5
2C8
100
AcDbEntity
  8
1
100
AcDbLine
 62
6
  6
CONTINUOUS
 10
201.5762168704
 20
191.4875
 11
204.0625
 21
187.1593520512
  0
LINE
  5
2C9
100
AcDbEntity
  8
1
100
AcDbLine
 62
8
  6
HIDDEN
 10
220.88
 20
169.56
 11
220.88
 21
150.44
  0
LINE
  5
2CA
100
AcDbEntity
  8
1
100
AcDbLine
 62
6
  6
CONTINUOUS
 10
216.0
 20
191.4875
 11
211.6237831296
 21
191.4875
  0
LINE
  5
2CB
100
AcDbEntity
  8
1
100
AcDbLine
 62
6
  6
CONTINUOUS
 10
193.0
 20
191.4875
 11
201.5762168704
 21
191.4875
  0
LINE
  5
2CC
100
AcDbEntity
  8
1
100
AcDbLine
 62
9
  6
CONTINUOUS
 10
227.6553353975
 20
180.9625
 11
227.6553353975
 21
139.0375
  0
LINE
  5
2CD
100
AcDbEntity
  8
1
100
AcDbLine
 62
9
  6
CONTINUOUS
 10
228.0779536593
 20
180.868807787
 11
228.0779536593
 21
139.131192213
  0
LINE
  5
2CE
100
AcDbEntity
  8
1
100
AcDbLine
 62
6
  6
CONTINUOUS
 10
236.1790764009
 20
142.908807787
 11
228.0779536593
 21
139.131192213
  0
LINE
  5
2CF
100
AcDbEntity
  8
1
100
AcDbLine
 62
6
  6
CONTINUOUS
 10
236.1790764009
 20
177.091192213
 11
228.0779536593
 21
180.868807787
  0
LINE
  5
2D0
100
AcDbEntity
  8
1
100
AcDbLine
 62
8
  6
HIDDEN
 10
231.4608130162
 20
169.56
 11
231.4608130162
 21
150.44
  0
LINE
  5
2D1
100
AcDbEntity
  8
1
100
AcDbLine
 62
9
  6
CONTINUOUS
 10
236.1790764009
 20
177.091192213
 11
236.1790764009
 21
142.908807787
  0
LINE
  5
2D2
100
AcDbEntity
  8
1
100
AcDbLine
 62
9
  6
CONTINUOUS
 10
236.6016946626
 20
176.9975
 11
236.6016946626
 21
143.0025
  0
LINE
  5
2D3
100
AcDbEntity
  8
1
100
AcDbLine
 62
6
  6
CONTINUOUS
 10
240.0
 20
179.75
 11
240.0
 21
140.25
  0
LINE
  5
2D4
100
AcDbEntity
  8
1
100
AcDbLine
 62
9
  6
CONTINUOUS
 10
241.25
 20
181.0
 11
241.25
 21
139.0
  0
LINE
  5
2D5
100
AcDbEntity
  8
1
100
AcDbLine
 62
9
  6
CONTINUOUS
 10
248.0
 20
179.4154080642
 11
248.0
 21
176.6381764024
  0
LINE
  5
2D6
100
AcDbEntity
  8
1
100
AcDbLine
 62
9
  6
CONTINUOUS
 10
248.0
 20
162.7772316618
 11
248.0
 21
157.2227683382
  0
LINE
  5
2D7
100
AcDbEntity
  8
1
100
AcDbLine
 62
9
  6
CONTINUOUS
 10
248.0
 20
143.3618235976
 11
248.0
 21
140.5845919358
  0
LINE
  5
2D8
100
AcDbEntity
  8
1
100
AcDbLine
 62
8
  6
HIDDEN
 10
251.5139745962
 20
176.9975
 11
251.5139745962
 21
143.0025
  0
LINE
  5
2D9
100
AcDbEntity
  8
1
100
AcDbLine
 62
8
  6
HIDDEN
 10
252.38
 20
175.4975
 11
252.38
 21
144.5025
  0
LINE
  5
2DA
100
AcDbEntity
  8
1
100
AcDbLine
 62
9
  6
CONTINUOUS
 10
255.0
 20
181.0
 11
255.0
 21
179.4154080642
  0
LINE
  5
2DB
100
AcDbEntity
  8
1
100
AcDbLine
 62
9
  6
CONTINUOUS
 10
255.0
 20
176.6381764024
 11
255.0
 21
162.7772316618
  0
LINE
  5
2DC
100
AcDbEntity
  8
1
100
AcDbLine
 62
9
  6
CONTINUOUS
 10
255.0
 20
157.2227683382
 11
255.0
 21
143.3618235976
  0
LINE
  5
2DD
100
AcDbEntity
  8
1
100
AcDbLine
 62
9
  6
CONTINUOUS
 10
255.0
 20
140.5845919358
 11
255.0
 21
139.0
  0
LINE
  5
2DE
100
AcDbEntity
  8
1
100
AcDbLine
 62
8
  6
HIDDEN
 10
252.38
 20
144.5025
 11
251.5139745962
 21
143.0025
  0
LINE
  5
2DF
100
AcDbEntity
  8
1
100
AcDbLine
 62
8
  6
HIDDEN
 10
252.38
 20
175.4975
 11
251.5139745962
 21
176.9975
  0
LINE
  5
2E0
100
AcDbEntity
  8
1
100
AcDbLine
 62
9
  6
CONTINUOUS
 10
260.0
 20
176.0
 11
260.0
 21
144.0
  0
ARC
  5
2E1
100
AcDbEntity
  8
1
100
AcDbCircle
 62
6
  6
CONTINUOUS
 10
74.4572638939
 20
96.3604574597
 40
146.6050035576
100
AcDbArc
 50
29.2949030819
 51
29.8783919703
  0
ARC
  5
2E2
100
AcDbEntity
  8
1
100
AcDbCircle
 62
6
  6
CONTINUOUS
 10
125.6
 20
148.178028861
 40
1.0
100
AcDbArc
 50
180.0
 51
261.7021731718
  0
ARC
  5
2E3
100
AcDbEntity
  8
1
100
AcDbCircle
 62
6
  6
CONTINUOUS
 10
77.4466161078
 20
221.9422754796
 40
143.1674712455
100
AcDbArc
 50
330.1146030172
 51
330.7121019306
  0
ARC
  5
2E4
100
AcDbEntity
  8
1
100
AcDbCircle
 62
6
  6
CONTINUOUS
 10
125.6
 20
171.821971139
 40
1.0
100
AcDbArc
 50
98.2978268282
 51
180.0
  0
ARC
  5
2E5
100
AcDbEntity
  8
1
100
AcDbCircle
 62
6
  6
CONTINUOUS
 10
216.0
 20
129.5125
 40
1.0
100
AcDbArc
 50
270.0
 51
360.0
  0
ARC
  5
2E6
100
AcDbEntity
  8
1
100
AcDbCircle
 62
6
  6
CONTINUOUS
 10
193.0
 20
129.5125
 40
1.0
100
AcDbArc
 50
180.0
 51
270.0
  0
ARC
  5
2E7
100
AcDbEntity
  8
1
100
AcDbCircle
 62
6
  6
CONTINUOUS
 10
217.95
 20
138.0375
 40
1.0
100
AcDbArc
 50
90.0
 51
161.8051276612
  0
ARC
  5
2E8
100
AcDbEntity
  8
1
100
AcDbCircle
 62
6
  6
CONTINUOUS
 10
227.6553353975
 20
140.0375
 40
1.0
100
AcDbArc
 50
270.0
 51
295.0
  0
ARC
  5
2E9
100
AcDbEntity
  8
1
100
AcDbCircle
 62
6
  6
CONTINUOUS
 10
191.0
 20
137.125
 40
1.0
100
AcDbArc
 50
0.0
 51
90.0
  0
ARC
  5
2EA
100
AcDbEntity
  8
1
100
AcDbCircle
 62
6
  6
CONTINUOUS
 10
208.3875
 20
132.875
 40
0.75
100
AcDbArc
 50
6.4285714286
 51
90.0
  0
ARC
  5
2EB
100
AcDbEntity
  8
1
100
AcDbCircle
 62
6
  6
CONTINUOUS
 10
204.8125
 20
132.875
 40
0.75
100
AcDbArc
 50
90.0
 51
180.0
  0
ARC
  5
2EC
100
AcDbEntity
  8
1
100
AcDbCircle
 62
6
  6
CONTINUOUS
 10
281.8215623406
 20
118.7492139255
 40
84.9570794545
100
AcDbArc
 50
145.7178128495
 51
146.5076229189
  0
ARC
  5
2ED
100
AcDbEntity
  8
1
100
AcDbCircle
 62
6
  6
CONTINUOUS
 10
255.0
 20
144.0
 40
5.0
100
AcDbArc
 50
270.0
 51
360.0
  0
ARC
  5
2EE
100
AcDbEntity
  8
1
100
AcDbCircle
 62
6
  6
CONTINUOUS
 10
241.25
 20
140.25
 40
1.25
100
AcDbArc
 50
180.0
 51
270.0
  0
ARC
  5
2EF
100
AcDbEntity
  8
1
100
AcDbCircle
 62
6
  6
CONTINUOUS
 10
236.6016946626
 20
142.0025
 40
1.0
100
AcDbArc
 50
90.0
 51
115.0
  0
ARC
  5
2F0
100
AcDbEntity
  8
1
100
AcDbCircle
 62
6
  6
CONTINUOUS
 10
205.155
 20
160.0
 40
8.095
100
AcDbArc
 50
270.0
 51
90.0
  0
ARC
  5
2F1
100
AcDbEntity
  8
1
100
AcDbCircle
 62
6
  6
CONTINUOUS
 10
217.95
 20
181.9625
 40
1.0
100
AcDbArc
 50
198.1948723388
 51
270.0
  0
ARC
  5
2F2
100
AcDbEntity
  8
1
100
AcDbCircle
 62
6
  6
CONTINUOUS
 10
227.6553353975
 20
179.9625
 40
1.0
100
AcDbArc
 50
65.0
 51
90.0
  0
ARC
  5
2F3
100
AcDbEntity
  8
1
100
AcDbCircle
 62
6
  6
CONTINUOUS
 10
191.0
 20
182.875
 40
1.0
100
AcDbArc
 50
270.0
 51
360.0
  0
ARC
  5
2F4
100
AcDbEntity
  8
1
100
AcDbCircle
 62
6
  6
CONTINUOUS
 10
216.0
 20
190.4875
 40
1.0
100
AcDbArc
 50
0.0
 51
90.0
  0
ARC
  5
2F5
100
AcDbEntity
  8
1
100
AcDbCircle
 62
6
  6
CONTINUOUS
 10
193.0
 20
190.4875
 40
1.0
100
AcDbArc
 50
90.0
 51
180.0
  0
ARC
  5
2F6
100
AcDbEntity
  8
1
100
AcDbCircle
 62
6
  6
CONTINUOUS
 10
208.3875
 20
187.125
 40
0.75
100
AcDbArc
 50
270.0
 51
353.5714285714
  0
ARC
  5
2F7
100
AcDbEntity
  8
1
100
AcDbCircle
 62
6
  6
CONTINUOUS
 10
204.8125
 20
187.125
 40
0.75
100
AcDbArc
 50
180.0
 51
270.0
  0
ARC
  5
2F8
100
AcDbEntity
  8
1
100
AcDbCircle
 62
6
  6
CONTINUOUS
 10
255.0
 20
176.0
 40
5.0
100
AcDbArc
 50
0.0
 51
90.0
  0
ARC
  5
2F9
100
AcDbEntity
  8
1
100
AcDbCircle
 62
6
  6
CONTINUOUS
 10
241.25
 20
179.75
 40
1.25
100
AcDbArc
 50
90.0
 51
180.0
  0
ARC
  5
2FA
100
AcDbEntity
  8
1
100
AcDbCircle
 62
6
  6
CONTINUOUS
 10
236.6016946626
 20
177.9975
 40
1.0
100
AcDbArc
 50
245.0
 51
270.0
  0
ARC
  5
2FB
100
AcDbEntity
  8
1
100
AcDbCircle
 62
6
  6
CONTINUOUS
 10
279.6006525208
 20
199.7590322224
 40
82.2817421142
100
AcDbArc
 50
213.4794902504
 51
214.2949796602
  0
SPLINE
  5
2FC
100
AcDbEntity
  8
1
100
AcDbSpline
 62
6
  6
CONTINUOUS
 70
0
 71
3
 72
12
 73
8
 74
0
 42
0.0000001
 43
0.0000001
 44
0.0000000001
 40
0.0
 40
0.0
 40
0.0
 40
0.0
 40
0.1873462108
 40
0.3004547504
 40
0.4253099535
 40
0.7021451881
 40
1.0
 40
1.0
 40
1.0
 40
1.0
 10
245.2122882363
 20
142.0991801733
 30
0.0
 10
245.2866062504
 20
142.2847049332
 30
0.0
 10
245.5002434869
 20
142.542863734
 30
0.0
 10
245.8642108729
 20
142.8127237472
 30
0.0
 10
246.3494547291
 20
143.0746943771
 30
0.0
 10
247.0674964942
 20
143.3007537592
 30
0.0
 10
247.6822556089
 20
143.3618235976
 30
0.0
 10
248.0
 20
143.3618235976
 30
0.0
  0
SPLINE
  5
2FD
100
AcDbEntity
  8
1
100
AcDbSpline
 62
6
  6
CONTINUOUS
 70
0
 71
3
 72
14
 73
10
 74
0
 42
0.0000001
 43
0.0000001
 44
0.0000000001
 40
0.0
 40
0.0
 40
0.0
 40
0.0
 40
0.2911827147
 40
0.4336020678
 40
0.5711228503
 40
0.7010230861
 40
0.8190889222
 40
0.9203190395
 40
1.0
 40
1.0
 40
1.0
 40
1.0
 10
255.0
 20
143.3618235976
 30
0.0
 10
255.36114515
 20
143.3618235976
 30
0.0
 10
255.8997502635
 20
143.3993882433
 30
0.0
 10
256.5987014289
 20
143.5156610804
 30
0.0
 10
257.0953338254
 20
143.6251134372
 30
0.0
 10
257.5577053407
 20
143.7467776624
 30
0.0
 10
257.9750026596
 20
143.8632885415
 30
0.0
 10
258.3337567561
 20
143.9553797267
 30
0.0
 10
258.5571649621
 20
143.9905436652
 30
0.0
 10
258.6559907958
 20
143.9906539041
 30
0.0
  0
SPLINE
  5
2FE
100
AcDbEntity
  8
1
100
AcDbSpline
 62
6
  6
CONTINUOUS
 70
0
 71
3
 72
14
 73
10
 74
0
 42
0.0000001
 43
0.0000001
 44
0.0000000001
 40
0.0
 40
0.0
 40
0.0
 40
0.0
 40
0.0796845487
 40
0.1809168809
 40
0.2989833687
 40
0.4288830839
 40
0.5664023175
 40
0.7088196998
 40
1.0
 40
1.0
 40
1.0
 40
1.0
 10
258.655939695
 20
176.0093461152
 30
0.0
 10
258.5571107676
 20
176.0094629837
 30
0.0
 10
258.3337001507
 20
176.0446326504
 30
0.0
 10
257.9749437269
 20
176.1367277814
 30
0.0
 10
257.5576494379
 20
176.2532379341
 30
0.0
 10
257.095285419
 20
176.3748981952
 30
0.0
 10
256.5986645735
 20
176.4843475014
 30
0.0
 10
255.8997293014
 20
176.6006121159
 30
0.0
 10
255.3611372262
 20
176.6381764024
 30
0.0
 10
255.0
 20
176.6381764024
 30
0.0
  0
SPLINE
  5
2FF
100
AcDbEntity
  8
1
100
AcDbSpline
 62
6
  6
CONTINUOUS
 70
0
 71
3
 72
12
 73
8
 74
0
 42
0.0000001
 43
0.0000001
 44
0.0000000001
 40
0.0
 40
0.0
 40
0.0
 40
0.0
 40
0.2978275089
 40
0.5746493855
 40
0.6995063992
 40
0.8126231005
 40
1.0
 40
1.0
 40
1.0
 40
1.0
 10
248.0
 20
176.6381764024
 30
0.0
 10
247.6823449043
 20
176.6381764024
 30
0.0
 10
247.0677463514
 20
176.6992125707
 30
0.0
 10
246.3498658328
 20
176.9251544882
 30
0.0
 10
245.8646742329
 20
177.1869887539
 30
0.0
 10
245.5006746632
 20
177.4567374386
 30
0.0
 10
245.2869607091
 20
177.7147761634
 30
0.0
 10
245.2125186712
 20
177.9002456794
 30
0.0
  0
SPLINE
  5
300
100
AcDbEntity
  8
1
100
AcDbSpline
 62
6
  6
CONTINUOUS
 70
0
 71
3
 72
15
 73
11
 74
0
 42
0.0000001
 43
0.0000001
 44
0.0000000001
 40
0.0
 40
0.0
 40
0.0
 40
0.0
 40
0.1253054694
 40
0.2502667796
 40
0.3750981509
 40
0.5000051808
 40
0.6249114411
 40
0.7497405741
 40
0.8746993195
 40
1.0
 40
1.0
 40
1.0
 40
1.0
 10
248.0
 20
157.2227683382
 30
0.0
 10
247.6333387895
 20
157.2227683382
 30
0.0
 10
246.8934112502
 20
157.3631799354
 30
0.0
 10
245.9475841031
 20
157.9711076037
 30
0.0
 10
245.3057391521
 20
158.8964431282
 30
0.0
 10
245.0786858749
 20
160.0000451527
 30
0.0
 10
245.3057738255
 20
161.1036327203
 30
0.0
 10
245.9476340215
 20
162.0289359648
 30
0.0
 10
246.8934479533
 20
162.636828531
 30
0.0
 10
247.6333528026
 20
162.7772316618
 30
0.0
 10
248.0
 20
162.7772316618
 30
0.0
  0
SPLINE
  5
301
100
AcDbEntity
  8
1
100
AcDbSpline
 62
6
  6
CONTINUOUS
 70
0
 71
3
 72
16
 73
12
 74
0
 42
0.0000001
 43
0.0000001
 44
0.0000000001
 40
0.0
 40
0.0
 40
0.0
 40
0.0
 40
0.1702054271
 40
0.3337945859
 40
0.4844975672
 40
0.617693329
 40
0.7309851994
 40
0.8261866311
 40
0.8695262767
 40
0.9119007985
 40
1.0
 40
1.0
 40
1.0
 40
1.0
 10
248.0
 20
140.5845919358
 30
0.0
 10
247.7934578863
 20
140.5845919358
 30
0.0
 10
247.3881941333
 20
140.6008835804
 30
0.0
 10
246.804093557
 20
140.6745493727
 30
0.0
 10
246.2739202083
 20
140.7973546609
 30
0.0
 10
245.8213757037
 20
140.9691242967
 30
0.0
 10
245.4658096667
 20
141.1888607883
 30
0.0
 10
245.258912451
 20
141.4239812289
 30
0.0
 10
245.1741447182
 20
141.6285501488
 30
0.0
 10
245.1398763606
 20
141.8383795442
 30
0.0
 10
245.1725340292
 20
141.9999392313
 30
0.0
 10
245.2122882363
 20
142.0991801733
 30
0.0
  0
SPLINE
  5
302
100
AcDbEntity
  8
1
100
AcDbSpline
 62
6
  6
CONTINUOUS
 70
0
 71
3
 72
22
 73
18
 74
0
 42
0.0000001
 43
0.0000001
 44
0.0000000001
 40
0.0
 40
0.0
 40
0.0
 40
0.0
 40
0.1557164484
 40
0.3114609128
 40
0.4670006089
 40
0.6199599064
 40
0.6929014282
 40
0.7607224954
 40
0.8209757769
 40
0.8715422283
 40
0.9113111888
 40
0.9274254745
 40
0.9416221159
 40
0.9548102113
 40
0.9682277141
 40
0.9830264019
 40
1.0
 40
1.0
 40
1.0
 40
1.0
 10
255.0
 20
179.4154080642
 30
0.0
 10
255.3171561073
 20
179.4154080642
 30
0.0
 10
255.9533038848
 20
179.3535529467
 30
0.0
 10
256.8689900958
 20
179.0724378328
 30
0.0
 10
257.6981456223
 20
178.6012062374
 30
0.0
 10
258.2706094645
 20
178.0634287341
 30
0.0
 10
258.6236395986
 20
177.5788441962
 30
0.0
 10
258.8230142757
 20
177.2200539194
 30
0.0
 10
258.9586262239
 20
176.8811426736
 30
0.0
 10
259.0317631264
 20
176.5824601735
 30
0.0
 10
259.0436294197
 20
176.3631045119
 30
0.0
 10
259.0142016193
 20
176.2225244744
 30
0.0
 10
258.9762527131
 20
176.1413063191
 30
0.0
 10
258.9196197585
 20
176.078632278
 30
0.0
 10
258.8453420227
 20
176.0361198265
 30
0.0
 10
258.7554169569
 20
176.0130411518
 30
0.0
 10
258.6905107155
 20
176.0093052338
 30
0.0
 10
258.655939695
 20
176.0093461152
 30
0.0
  0
SPLINE
  5
303
100
AcDbEntity
  8
1
100
AcDbSpline
 62
6
  6
CONTINUOUS
 70
0
 71
3
 72
25
 73
21
 74
0
 42
0.0000001
 43
0.0000001
 44
0.0000000001
 40
0.0
 40
0.0
 40
0.0
 40
0.0
 40
0.066557954
 40
0.1318571234
 40
0.1946233711
 40
0.2544487629
 40
0.3122877789
 40
0.3414251773
 40
0.3712698953
 40
0.4339234038
 40
0.4999976828
 40
0.5660721261
 40
0.6287259481
 40
0.6585711627
 40
0.6877086225
 40
0.7455487213
 40
0.8053750436
 40
0.8681421178
 40
0.9334419912
 40
1.0
 40
1.0
 40
1.0
 40
1.0
 10
255.0
 20
162.7772316618
 30
0.0
 10
255.2487274921
 20
162.7772316618
 30
0.0
 10
255.7416243569
 20
162.7635618738
 30
0.0
 10
256.4663706466
 20
162.694364193
 30
0.0
 10
257.1569729114
 20
162.558399022
 30
0.0
 10
257.7939474358
 20
162.3245016432
 30
0.0
 10
258.2527607016
 20
162.0085028431
 30
0.0
 10
258.5443409423
 20
161.6811784124
 30
0.0
 10
258.7896050396
 20
161.2963271115
 30
0.0
 10
258.9882768862
 20
160.7294177132
 30
0.0
 10
259.0620303205
 20
160.0000265427
 30
0.0
 10
258.9882892088
 20
159.2706305
 30
0.0
 10
258.7896168075
 20
158.7037209403
 30
0.0
 10
258.5443750732
 20
158.3188503091
 30
0.0
 10
258.2527784402
 20
157.9915319558
 30
0.0
 10
257.7939779215
 20
157.6755053776
 30
0.0
 10
257.1569897358
 20
157.4416051005
 30
0.0
 10
256.4663798896
 20
157.3056360054
 30
0.0
 10
255.7416273273
 20
157.2364376736
 30
0.0
 10
255.2487276969
 20
157.2227683382
 30
0.0
 10
255.0
 20
157.2227683382
 30
0.0
  0
SPLINE
  5
304
100
AcDbEntity
  8
1
100
AcDbSpline
 62
6
  6
CONTINUOUS
 70
0
 71
3
 72
16
 73
12
 74
0
 42
0.0000001
 43
0.0000001
 44
0.0000000001
 40
0.0
 40
0.0
 40
0.0
 40
0.0
 40
0.0881213387
 40
0.1304987738
 40
0.1738363782
 40
0.2690252079
 40
0.3823040539
 40
0.5154922528
 40
0.6661958025
 40
0.8297868077
 40
1.0
 40
1.0
 40
1.0
 40
1.0
 10
245.2125186712
 20
177.9002456794
 30
0.0
 10
245.1726803931
 20
177.9995012395
 30
0.0
 10
245.1398875603
 20
178.1610934368
 30
0.0
 10
245.1740166153
 20
178.3710115966
 30
0.0
 10
245.2586666275
 20
178.5756560881
 30
0.0
 10
245.4654825699
 20
178.8108853459
 30
0.0
 10
245.8210305173
 20
179.0307164758
 30
0.0
 10
246.2736100679
 20
179.2025593863
 30
0.0
 10
246.8038607552
 20
179.3254128506
 30
0.0
 10
247.3880698714
 20
179.3991111106
 30
0.0
 10
247.793413707
 20
179.4154080642
 30
0.0
 10
248.0
 20
179.4154080642
 30
0.0
  0
SPLINE
  5
305
100
AcDbEntity
  8
1
100
AcDbSpline
 62
6
  6
CONTINUOUS
 70
0
 71
3
 72
22
 73
18
 74
0
 42
0.0000001
 43
0.0000001
 44
0.0000000001
 40
0.0
 40
0.0
 40
0.0
 40
0.0
 40
0.016972226
 40
0.031769899
 40
0.045186815
 40
0.058374865
 40
0.0725717957
 40
0.0886864471
 40
0.1284564902
 40
0.1790236478
 40
0.2392768045
 40
0.307097861
 40
0.3800389265
 40
0.53299917
 40
0.6885398561
 40
0.844284756
 40
1.0
 40
1.0
 40
1.0
 40
1.0
 10
258.6559907958
 20
143.9906539041
 30
0.0
 10
258.6905587359
 20
143.9906924642
 30
0.0
 10
258.7554592729
 20
143.9869517596
 30
0.0
 10
258.8453759546
 20
143.963867491
 30
0.0
 10
258.9196453574
 20
143.9213482436
 30
0.0
 10
258.9762692353
 20
143.8586680654
 30
0.0
 10
259.0142105779
 20
143.7774461701
 30
0.0
 10
259.0436304114
 20
143.6368623032
 30
0.0
 10
259.0317575423
 20
143.4175049353
 30
0.0
 10
258.9586149147
 20
143.1188228748
 30
0.0
 10
258.8229981404
 20
142.7799159415
 30
0.0
 10
258.6236268602
 20
142.4211288591
 30
0.0
 10
258.270586084
 20
141.9365569355
 30
0.0
 10
257.6981277675
 20
141.3987806814
 30
0.0
 10
256.8689717066
 20
140.9275543805
 30
0.0
 10
255.9532919163
 20
140.6464451435
 30
0.0
 10
255.3171510091
 20
140.5845919358
 30
0.0
 10
255.0
 20
140.5845919358
 30
0.0
  0
SPLINE
  5
306
100
AcDbEntity
  8
1
100
AcDbSpline
 62
6
  6
CONTINUOUS
 70
0
 71
3
 72
16
 73
12
 74
0
 42
0.0000001
 43
0.0000001
 44
0.0000000001
 40
0.0
 40
0.0
 40
0.0
 40
0.0
 40
0.1783760384
 40
0.350508308
 40
0.5105136198
 40
0.6530942481
 40
0.7740243299
 40
0.8707192257
 40
0.9100425221
 40
0.9439770077
 40
1.0
 40
1.0
 40
1.0
 40
1.0
 10
193.0
 20
150.6066810168
 30
0.0
 10
192.9349398607
 20
150.6066375174
 30
0.0
 10
192.8070655378
 20
150.6103867122
 30
0.0
 10
192.6214676827
 20
150.6267888813
 30
0.0
 10
192.4502675144
 20
150.6535891225
 30
0.0
 10
192.2997670428
 20
150.689416306
 30
0.0
 10
192.1755926333
 20
150.7330020961
 30
0.0
 10
192.0919589893
 20
150.7768093963
 30
0.0
 10
192.0436549361
 20
150.8161614741
 30
0.0
 10
192.0126470092
 20
150.8517046915
 30
0.0
 10
192.0
 20
150.8845664007
 30
0.0
 10
192.0
 20
150.905
 30
0.0
  0
SPLINE
  5
307
100
AcDbEntity
  8
1
100
AcDbSpline
 62
6
  6
CONTINUOUS
 70
0
 71
3
 72
15
 73
11
 74
0
 42
0.0000001
 43
0.0000001
 44
0.0000000001
 40
0.0
 40
0.0
 40
0.0
 40
0.0
 40
0.1249886704
 40
0.250160218
 40
0.3751757334
 40
0.5000190195
 40
0.6248372878
 40
0.7498352733
 40
0.8750100864
 40
1.0
 40
1.0
 40
1.0
 40
1.0
 10
211.6237820398
 20
166.6029182031
 30
0.0
 10
212.0426415497
 20
166.1652819784
 30
0.0
 10
212.7964976417
 20
165.2040886944
 30
0.0
 10
213.6278641948
 20
163.5749888811
 30
0.0
 10
214.1361720382
 20
161.8184169655
 30
0.0
 10
214.3068919335
 20
159.9998439268
 30
0.0
 10
214.1361018482
 20
158.1813699276
 30
0.0
 10
213.6278518697
 20
156.4249838503
 30
0.0
 10
212.7965088932
 20
154.7959399202
 30
0.0
 10
212.0426360692
 20
153.834734823
 30
0.0
 10
211.6237806364
 20
153.3970863557
 30
0.0
  0
SPLINE
  5
308
100
AcDbEntity
  8
1
100
AcDbSpline
 62
6
  6
CONTINUOUS
 70
0
 71
3
 72
15
 73
11
 74
0
 42
0.0000001
 43
0.0000001
 44
0.0000000001
 40
0.0
 40
0.0
 40
0.0
 40
0.0
 40
0.1249978916
 40
0.2500029175
 40
0.3749997106
 40
0.5
 40
0.6250002894
 40
0.7499970825
 40
0.8750021084
 40
1.0
 40
1.0
 40
1.0
 40
1.0
 10
192.0
 20
155.6110223286
 30
0.0
 10
192.0
 20
155.9768627479
 30
0.0
 10
191.9855512107
 20
156.7085382517
 30
0.0
 10
191.9473044556
 20
157.8053854095
 30
0.0
 10
191.9139966812
 20
158.9024530086
 30
0.0
 10
191.9007916221
 20
160.0
 30
0.0
 10
191.9139966814
 20
161.0975469914
 30
0.0
 10
191.9473044556
 20
162.1946145905
 30
0.0
 10
191.9855512104
 20
163.2914617484
 30
0.0
 10
192.0
 20
164.0231372521
 30
0.0
 10
192.0
 20
164.3889776714
 30
0.0
  0
SPLINE
  5
309
100
AcDbEntity
  8
1
100
AcDbSpline
 62
6
  6
CONTINUOUS
 70
0
 71
3
 72
16
 73
12
 74
0
 42
0.0000001
 43
0.0000001
 44
0.0000000001
 40
0.0
 40
0.0
 40
0.0
 40
0.0
 40
0.0560229923
 40
0.0899574779
 40
0.1292807743
 40
0.2259756701
 40
0.3469057519
 40
0.4894863802
 40
0.649491692
 40
0.8216239616
 40
1.0
 40
1.0
 40
1.0
 40
1.0
 10
192.0
 20
169.095
 30
0.0
 10
192.0
 20
169.1154335993
 30
0.0
 10
192.0126470092
 20
169.1482953085
 30
0.0
 10
192.0436549361
 20
169.1838385259
 30
0.0
 10
192.0919589893
 20
169.2231906037
 30
0.0
 10
192.1755926333
 20
169.2669979039
 30
0.0
 10
192.2997670428
 20
169.310583694
 30
0.0
 10
192.4502675144
 20
169.3464108775
 30
0.0
 10
192.6214676827
 20
169.3732111187
 30
0.0
 10
192.8070655378
 20
169.3896132878
 30
0.0
 10
192.9349398607
 20
169.3933624826
 30
0.0
 10
193.0
 20
169.3933189832
 30
0.0
  0
ENDSEC
  0
SECTION
  2
OBJECTS
  0
DICTIONARY
  5
C
100
AcDbDictionary
280
0
281
1
  3
ACAD_GROUP
350
D
  3
ACAD_MLINESTYLE
350
17
  3
ACAD_LAYOUT
350
1A
  3
ACAD_PLOTSETTINGS
350
19
  3
ACAD_PLOTSTYLENAME
350
E
  0
DICTIONARY
  5
D
102
{ACAD_REACTORS
330
C
102
}
100
AcDbDictionary
280
0
281
1
  0
ACDBDICTIONARYWDFLT
  5
E
102
{ACAD_REACTORS
330
C
102
}
100
AcDbDictionary
281
1
  3
Normal
350
F
100
AcDbDictionaryWithDefault
340
F
  0
DICTIONARY
  5
17
102
{ACAD_REACTORS
330
C
102
}
100
AcDbDictionary
280
0
281
1
  3
Standard
350
18
  0
DICTIONARY
  5
19
102
{ACAD_REACTORS
330
C
102
}
100
AcDbDictionary
281
1
  0
DICTIONARY
  5
1A
102
{ACAD_REACTORS
330
C
102
}
100
AcDbDictionary
281
1
  3
Model
350
30A
  3
Layout1
350
30B
  0
ACDBPLACEHOLDER
  5
F
102
{ACAD_REACTORS
330
E
102
}
  0
MLINESTYLE
  5
18
102
{ACAD_REACTORS
330
17
102
}
100
AcDbMlineStyle
  2
STANDARD
 70
0
  3

 62
256
 51
90.0
 52
90.0
 71
2
 49
0.5
 62
256
  6
BYLAYER
 49
-0.5
 62
256
  6
BYLAYER
  0
LAYOUT
  5
30A
102
{ACAD_REACTORS
330
1A
102
}
100
AcDbPlotSettings
  1

  2
none_device
  4
ISO_A3_(420.00_x_297.00_MM)
  6

 40
0.0
 41
0.0
 42
0.0
 43
0.0
 44
420.0
 45
297.0
 46
0.0
 47
0.0
 48
0.0
 49
0.0
140
0.0
141
0.0
142
1.0
143
1.0
 70
1024
 72
1
 73
0
 74
0
  7

 75
0
147
1.0
148
0.0
149
0.0
100
AcDbLayout
  1
Model
 70
0
 71
0
 10
0.0
 20
0.0
 11
420.0
 21
297.0
 12
0.0
 22
0.0
 32
0.0
 14
0.0
 24
0.0
 34
0.0
 15
0.0
 25
0.0
 35
0.0
146
0.0
 13
0.0
 23
0.0
 33
0.0
 16
1.0
 26
0.0
 36
0.0
 17
0.0
 27
1.0
 37
0.0
 76
0
330
239
345
0
346
0
  0
LAYOUT
  5
30B
102
{ACAD_REACTORS
330
1A
102
}
100
AcDbPlotSettings
  1

  2
none_device
  4
ISO_A3_(420.00_x_297.00_MM)
  6

 40
0.0
 41
0.0
 42
0.0
 43
0.0
 44
420.0
 45
297.0
 46
0.0
 47
0.0
 48
0.0
 49
0.0
140
0.0
141
0.0
142
1.0
143
1.0
 70
0
 72
1
 73
0
 74
0
  7

 75
0
147
1.0
148
0.0
149
0.0
100
AcDbLayout
  1
Layout1
 70
0
 71
1
 10
0.0
 20
0.0
 11
420.0
 21
297.0
 12
0.0
 22
0.0
 32
0.0
 14
0.0
 24
0.0
 34
0.0
 15
0.0
 25
0.0
 35
0.0
146
0.0
 13
0.0
 23
0.0
 33
0.0
 16
1.0
 26
0.0
 36
0.0
 17
0.0
 27
1.0
 37
0.0
 76
0
330
23A
345
0
346
0
  0
ENDSEC
  0
EOF
