999
DXF file: 200_30-520-32-3-bmg.dxf
999
Pro/ENGINEER 2010430 by Parametric Technology Corporation
  0
SECTION
  2
HEADER
  9
$ACADVER
  1
AC1021
  9
$DWGCODEPAGE
  3
ANSI_1252
  9
$EXTMAX
 10
420.0
 20
297.0
 30
0.0
  9
$EXTMIN
 10
0.0
 20
0.0
 30
0.0
  9
$LIMMIN
 10
0.0
 20
0.0
  9
$LIMMAX
 10
420.0
 20
297.0
  9
$VIEWCTR
 10
210.0
 20
148.5
  9
$VIEWSIZE
 40
297.0
  9
$CLAYER
  8
0
  9
$LTSCALE
 40
23.1
  9
$CELTYPE
  6
BYLAYER
  9
$DIMSCALE
 40
1.0
  9
$DIMASZ
 40
3.5
  9
$DIMEXO
 40
2.625
  9
$DIMDLI
 40
15.96
  9
$DIMEXE
 40
7.56
  9
$DIMCEN
 40
3.78
  9
$DIMLFAC
 40
1.0
  9
$DIMBLK
  1
_FILLED
  9
$DIMTXT
 40
3.5
  9
$DIMTOL
 70
0
  9
$DIMLIM
 70
0
  9
$DIMTFAC
 40
1.0
  9
$PDMODE
 70
3
  9
$PDSIZE
 40
0.3125
  9
$HANDSEED
  5
302
  9
$TILEMODE
 70
1
  9
$MEASUREMENT
 70
1
  9
$INSUNITS
 70
4
  0
ENDSEC
  0
SECTION
  2
CLASSES
  0
CLASS
  1
ACDBDICTIONARYWDFLT
  2
AcDbDictionaryWithDefault
  3
AutoCAD 2000
 90
0
 91
1
280
0
281
0
  0
CLASS
  1
ACDBPLACEHOLDER
  2
AcDbPlaceHolder
  3
AutoCAD 2000
 90
0
 91
1
280
0
281
0
  0
CLASS
  1
LAYOUT
  2
AcDbLayout
  3
AutoCAD 2000
 90
0
 91
0
280
0
281
0
  0
ENDSEC
  0
SECTION
  2
TABLES
  0
TABLE
  2
VPORT
  5
8
100
AcDbSymbolTable
 70
2
  0
VPORT
  5
1F4
100
AcDbSymbolTableRecord
100
AcDbViewportTableRecord
  2
*ACTIVE
 70
0
 10
0.0
 20
0.0
 11
1.0
 21
1.0
 12
210.0
 22
148.5
 13
0.0
 23
0.0
 14
1.0
 24
1.0
 15
0.0
 25
0.0
 16
0.0
 26
0.0
 36
1.0
 17
0.0
 27
0.0
 37
0.0
 40
297.0
 41
1.4141414141
 42
50.0
 43
0.0
 44
0.0
 50
0.0
 51
0.0
 71
0
 72
100
 73
1
 74
1
 75
0
 76
0
 77
0
 78
0
  0
ENDTAB
  0
TABLE
  2
LTYPE
  5
5
100
AcDbSymbolTable
 70
6
  0
LTYPE
  5
14
100
AcDbSymbolTableRecord
100
AcDbLinetypeTableRecord
  2
BYBLOCK
 70
0
  3

 72
65
 73
0
 40
0.0
  0
LTYPE
  5
15
100
AcDbSymbolTableRecord
100
AcDbLinetypeTableRecord
  2
BYLAYER
 70
0
  3

 72
65
 73
0
 40
0.0
  0
LTYPE
  5
16
100
AcDbSymbolTableRecord
100
AcDbLinetypeTableRecord
  2
CONTINUOUS
 70
64
  3
Solid line
 72
65
 73
0
 40
0.0
  0
LTYPE
  5
1F5
100
AcDbSymbolTableRecord
100
AcDbLinetypeTableRecord
  2
CENTER
 70
64
  3
____ _ ____ _ ____ _ ____ _ ____ _ ____ _ ____
 72
65
 73
4
 40
0.6
 49
0.375
 74
0
 49
-0.075
 74
0
 49
0.075
 74
0
 49
-0.075
 74
0
  0
LTYPE
  5
1F6
100
AcDbSymbolTableRecord
100
AcDbLinetypeTableRecord
  2
HIDDEN
 70
64
  3
- - - - - - - - - - - - - - - - - - - -
 72
65
 73
2
 40
0.2
 49
0.1
 74
0
 49
-0.1
 74
0
  0
LTYPE
  5
1F7
100
AcDbSymbolTableRecord
100
AcDbLinetypeTableRecord
  2
PHANTOM
 70
64
  3
_____ _ _ _____ _ _ _____ _ _ _____
 72
65
 73
6
 40
0.8
 49
0.45
 74
0
 49
-0.05
 74
0
 49
0.1
 74
0
 49
-0.05
 74
0
 49
0.1
 74
0
 49
-0.05
 74
0
  0
LTYPE
  5
1F8
100
AcDbSymbolTableRecord
100
AcDbLinetypeTableRecord
  2
DOT
 70
64
  3
. . . . . . . . . . . . . . . . . . . .
 72
65
 73
2
 40
0.2
 49
0.1
 74
0
 49
-0.1
 74
0
  0
LTYPE
  5
1F9
100
AcDbSymbolTableRecord
100
AcDbLinetypeTableRecord
  2
DASHED
 70
64
  3
- - - - - - - - - - - - - - - - - - - -
 72
65
 73
2
 40
0.2
 49
0.1
 74
0
 49
-0.1
 74
0
  0
ENDTAB
  0
TABLE
  2
LAYER
  5
2
100
AcDbSymbolTable
 70
36
  0
LAYER
  5
10
100
AcDbSymbolTableRecord
100
AcDbLayerTableRecord
  2
0
 70
0
 62
7
  6
CONTINUOUS
370
-3
390
F
  0
LAYER
  5
1FA
100
AcDbSymbolTableRecord
100
AcDbLayerTableRecord
  2
DEFAULT_1
 70
0
 62
7
  6
CENTER
370
-3
390
F
  0
LAYER
  5
1FB
100
AcDbSymbolTableRecord
100
AcDbLayerTableRecord
  2
DEFAULT_2
 70
0
 62
8
  6
HIDDEN
370
-3
390
F
  0
LAYER
  5
1FC
100
AcDbSymbolTableRecord
100
AcDbLayerTableRecord
  2
DEFAULT_3
 70
0
 62
7
  6
PHANTOM
370
-3
390
F
  0
LAYER
  5
1FD
100
AcDbSymbolTableRecord
100
AcDbLayerTableRecord
  2
1
 70
0
 62
7
  6
CONTINUOUS
370
-3
390
F
  0
LAYER
  5
1FE
100
AcDbSymbolTableRecord
100
AcDbLayerTableRecord
  2
2
 70
0
 62
7
  6
CONTINUOUS
370
-3
390
F
  0
LAYER
  5
1FF
100
AcDbSymbolTableRecord
100
AcDbLayerTableRecord
  2
4
 70
0
 62
7
  6
CONTINUOUS
370
-3
390
F
  0
LAYER
  5
200
100
AcDbSymbolTableRecord
100
AcDbLayerTableRecord
  2
5
 70
0
 62
7
  6
CONTINUOUS
370
-3
390
F
  0
LAYER
  5
201
100
AcDbSymbolTableRecord
100
AcDbLayerTableRecord
  2
6
 70
0
 62
7
  6
CONTINUOUS
370
-3
390
F
  0
LAYER
  5
202
100
AcDbSymbolTableRecord
100
AcDbLayerTableRecord
  2
ACHSEN
 70
0
 62
7
  6
CONTINUOUS
370
-3
390
F
  0
LAYER
  5
203
100
AcDbSymbolTableRecord
100
AcDbLayerTableRecord
  2
ANALYSEN
 70
0
 62
7
  6
CONTINUOUS
370
-3
390
F
  0
LAYER
  5
204
100
AcDbSymbolTableRecord
100
AcDbLayerTableRecord
  2
AUFMASS_EINFUEHRFASE
 70
0
 62
7
  6
CONTINUOUS
370
-3
390
F
  0
LAYER
  5
205
100
AcDbSymbolTableRecord
100
AcDbLayerTableRecord
  2
AUFMASS_WEICHBEARBEITUNG
 70
0
 62
7
  6
CONTINUOUS
370
-3
390
F
  0
LAYER
  5
206
100
AcDbSymbolTableRecord
100
AcDbLayerTableRecord
  2
AUFMASS_WEICHBEARBEITUNG_FERTIG
 70
0
 62
7
  6
CONTINUOUS
370
-3
390
F
  0
LAYER
  5
207
100
AcDbSymbolTableRecord
100
AcDbLayerTableRecord
  2
AUFMASS_WEICHBE_INNENKONTUR
 70
0
 62
7
  6
CONTINUOUS
370
-3
390
F
  0
LAYER
  5
208
100
AcDbSymbolTableRecord
100
AcDbLayerTableRecord
  2
AUSFORMSCHRAEGEN
 70
0
 62
7
  6
CONTINUOUS
370
-3
390
F
  0
LAYER
  5
209
100
AcDbSymbolTableRecord
100
AcDbLayerTableRecord
  2
AUSSENKONTUR
 70
0
 62
7
  6
CONTINUOUS
370
-3
390
F
  0
LAYER
  5
20A
100
AcDbSymbolTableRecord
100
AcDbLayerTableRecord
  2
BEZUG
 70
0
 62
7
  6
CONTINUOUS
370
-3
390
F
  0
LAYER
  5
20B
100
AcDbSymbolTableRecord
100
AcDbLayerTableRecord
  2
BEZUGSACHSEN
 70
0
 62
7
  6
CONTINUOUS
370
-3
390
F
  0
LAYER
  5
20C
100
AcDbSymbolTableRecord
100
AcDbLayerTableRecord
  2
BEZUGSACHSENKENNZEICHEN
 70
0
 62
7
  6
CONTINUOUS
370
-3
390
F
  0
LAYER
  5
20D
100
AcDbSymbolTableRecord
100
AcDbLayerTableRecord
  2
BEZUGSEBENEN
 70
0
 62
7
  6
CONTINUOUS
370
-3
390
F
  0
LAYER
  5
20E
100
AcDbSymbolTableRecord
100
AcDbLayerTableRecord
  2
BEZUGSEBENE_B
 70
0
 62
7
  6
CONTINUOUS
370
-3
390
F
  0
LAYER
  5
20F
100
AcDbSymbolTableRecord
100
AcDbLayerTableRecord
  2
BEZUGSPUNKTE
 70
0
 62
7
  6
CONTINUOUS
370
-3
390
F
  0
LAYER
  5
210
100
AcDbSymbolTableRecord
100
AcDbLayerTableRecord
  2
BG_STARTBEZUEGE
 70
0
 62
7
  6
CONTINUOUS
370
-3
390
F
  0
LAYER
  5
211
100
AcDbSymbolTableRecord
100
AcDbLayerTableRecord
  2
BOHRUNGEN
 70
0
 62
7
  6
CONTINUOUS
370
-3
390
F
  0
LAYER
  5
212
100
AcDbSymbolTableRecord
100
AcDbLayerTableRecord
  2
EBENEN
 70
0
 62
7
  6
CONTINUOUS
370
-3
390
F
  0
LAYER
  5
213
100
AcDbSymbolTableRecord
100
AcDbLayerTableRecord
  2
FASEN
 70
0
 62
7
  6
CONTINUOUS
370
-3
390
F
  0
LAYER
  5
214
100
AcDbSymbolTableRecord
100
AcDbLayerTableRecord
  2
FLAECHEN
 70
0
 62
7
  6
CONTINUOUS
370
-3
390
F
  0
LAYER
  5
215
100
AcDbSymbolTableRecord
100
AcDbLayerTableRecord
  2
FORM_LAGE_TOLERANZEN
 70
0
 62
7
  6
CONTINUOUS
370
-3
390
F
  0
LAYER
  5
216
100
AcDbSymbolTableRecord
100
AcDbLayerTableRecord
  2
GEOMTOL
 70
0
 62
7
  6
CONTINUOUS
370
-3
390
F
  0
LAYER
  5
217
100
AcDbSymbolTableRecord
100
AcDbLayerTableRecord
  2
GEWINDE
 70
0
 62
7
  6
CONTINUOUS
370
-3
390
F
  0
LAYER
  5
218
100
AcDbSymbolTableRecord
100
AcDbLayerTableRecord
  2
HILFEN
 70
0
 62
7
  6
CONTINUOUS
370
-3
390
F
  0
LAYER
  5
219
100
AcDbSymbolTableRecord
100
AcDbLayerTableRecord
  2
INNENKONTUR
 70
0
 62
7
  6
CONTINUOUS
370
-3
390
F
  0
LAYER
  5
21A
100
AcDbSymbolTableRecord
100
AcDbLayerTableRecord
  2
KOORDINATENSYSTEME
 70
0
 62
7
  6
CONTINUOUS
370
-3
390
F
  0
LAYER
  5
21B
100
AcDbSymbolTableRecord
100
AcDbLayerTableRecord
  2
KOORDSYS
 70
0
 62
7
  6
CONTINUOUS
370
-3
390
F
  0
LAYER
  5
21C
100
AcDbSymbolTableRecord
100
AcDbLayerTableRecord
  2
KURVEN
 70
0
 62
7
  6
CONTINUOUS
370
-3
390
F
  0
LAYER
  5
21D
100
AcDbSymbolTableRecord
100
AcDbLayerTableRecord
  2
KURVE_FUER_GTOL_DETAILANSICHT
 70
0
 62
7
  6
CONTINUOUS
370
-3
390
F
  0
LAYER
  5
21E
100
AcDbSymbolTableRecord
100
AcDbLayerTableRecord
  2
KURVE_GAUGE2_POLIGON_INNENEINST
 70
0
 62
7
  6
CONTINUOUS
370
-3
390
F
  0
LAYER
  5
21F
100
AcDbSymbolTableRecord
100
AcDbLayerTableRecord
  2
KURVE_PHANTOM1_GAUGE_PIN_1
 70
0
 62
7
  6
CONTINUOUS
370
-3
390
F
  0
LAYER
  5
220
100
AcDbSymbolTableRecord
100
AcDbLayerTableRecord
  2
KURVE_PHANTOM2_GAUGE_PIN1
 70
0
 62
7
  6
CONTINUOUS
370
-3
390
F
  0
LAYER
  5
221
100
AcDbSymbolTableRecord
100
AcDbLayerTableRecord
  2
KURVE_POLIGON_BEMASUNG
 70
0
 62
7
  6
CONTINUOUS
370
-3
390
F
  0
LAYER
  5
222
100
AcDbSymbolTableRecord
100
AcDbLayerTableRecord
  2
NOCUT
 70
0
 62
7
  6
CONTINUOUS
370
-3
390
F
  0
LAYER
  5
223
100
AcDbSymbolTableRecord
100
AcDbLayerTableRecord
  2
PLATZIERUNG
 70
0
 62
7
  6
CONTINUOUS
370
-3
390
F
  0
LAYER
  5
224
100
AcDbSymbolTableRecord
100
AcDbLayerTableRecord
  2
PUNKTE
 70
0
 62
7
  6
CONTINUOUS
370
-3
390
F
  0
LAYER
  5
225
100
AcDbSymbolTableRecord
100
AcDbLayerTableRecord
  2
RUNDUNGEN
 70
0
 62
7
  6
CONTINUOUS
370
-3
390
F
  0
LAYER
  5
226
100
AcDbSymbolTableRecord
100
AcDbLayerTableRecord
  2
SK1
 70
0
 62
7
  6
CONTINUOUS
370
-3
390
F
  0
LAYER
  5
227
100
AcDbSymbolTableRecord
100
AcDbLayerTableRecord
  2
SK2
 70
0
 62
7
  6
CONTINUOUS
370
-3
390
F
  0
LAYER
  5
228
100
AcDbSymbolTableRecord
100
AcDbLayerTableRecord
  2
SK4
 70
0
 62
7
  6
CONTINUOUS
370
-3
390
F
  0
LAYER
  5
229
100
AcDbSymbolTableRecord
100
AcDbLayerTableRecord
  2
SKELETTE
 70
0
 62
7
  6
CONTINUOUS
370
-3
390
F
  0
LAYER
  5
22A
100
AcDbSymbolTableRecord
100
AcDbLayerTableRecord
  2
S_ACHSEN
 70
0
 62
7
  6
CONTINUOUS
370
-3
390
F
  0
LAYER
  5
22B
100
AcDbSymbolTableRecord
100
AcDbLayerTableRecord
  2
S_EBENEN
 70
0
 62
7
  6
CONTINUOUS
370
-3
390
F
  0
LAYER
  5
22C
100
AcDbSymbolTableRecord
100
AcDbLayerTableRecord
  2
S_KOORDSYS
 70
0
 62
7
  6
CONTINUOUS
370
-3
390
F
  0
LAYER
  5
22D
100
AcDbSymbolTableRecord
100
AcDbLayerTableRecord
  2
TEIL_STARTBEZUEGE
 70
0
 62
7
  6
CONTINUOUS
370
-3
390
F
  0
LAYER
  5
22E
100
AcDbSymbolTableRecord
100
AcDbLayerTableRecord
  2
TOL_BEZUEGE
 70
0
 62
7
  6
CONTINUOUS
370
-3
390
F
  0
LAYER
  5
22F
100
AcDbSymbolTableRecord
100
AcDbLayerTableRecord
  2
VERBFLAECHE
 70
0
 62
7
  6
CONTINUOUS
370
-3
390
F
  0
LAYER
  5
230
100
AcDbSymbolTableRecord
100
AcDbLayerTableRecord
  2
VERERBUNG
 70
0
 62
7
  6
CONTINUOUS
370
-3
390
F
  0
LAYER
  5
231
100
AcDbSymbolTableRecord
100
AcDbLayerTableRecord
  2
VERPACKUNG
 70
0
 62
7
  6
CONTINUOUS
370
-3
390
F
  0
LAYER
  5
232
100
AcDbSymbolTableRecord
100
AcDbLayerTableRecord
  2
VOLGEOM
 70
0
 62
7
  6
CONTINUOUS
370
-3
390
F
  0
LAYER
  5
233
100
AcDbSymbolTableRecord
100
AcDbLayerTableRecord
  2
VOLUMEN
 70
0
 62
7
  6
CONTINUOUS
370
-3
390
F
  0
LAYER
  5
234
100
AcDbSymbolTableRecord
100
AcDbLayerTableRecord
  2
XSEC_DATUMS
 70
0
 62
7
  6
CONTINUOUS
370
-3
390
F
  0
LAYER
  5
235
100
AcDbSymbolTableRecord
100
AcDbLayerTableRecord
  2
ZEICHNUNG
 70
0
 62
7
  6
CONTINUOUS
370
-3
390
F
  0
ENDTAB
  0
TABLE
  2
STYLE
  5
3
100
AcDbSymbolTable
 70
1
  0
STYLE
  5
11
100
AcDbSymbolTableRecord
100
AcDbTextStyleTableRecord
  2
STANDARD
 70
0
 40
0.0
 41
0.7
 50
0.0
 71
0
 42
0.2
  3
txt
  4

  0
STYLE
  5
236
100
AcDbSymbolTableRecord
100
AcDbTextStyleTableRecord
  2
TEXTSTYLE_1
 70
0
 40
0.0
 41
0.8
 50
0.0
 71
0
 42
0.2
  3
gdt
  4

  0
STYLE
  5
237
100
AcDbSymbolTableRecord
100
AcDbTextStyleTableRecord
  2
TEXTSTYLE_2
 70
0
 40
0.0
 41
0.7
 50
0.0
 71
0
 42
0.2
  3
gdt
  4

  0
ENDTAB
  0
TABLE
  2
VIEW
  5
6
100
AcDbSymbolTable
 70
0
  0
ENDTAB
  0
TABLE
  2
UCS
  5
7
100
AcDbSymbolTable
 70
0
  0
ENDTAB
  0
TABLE
  2
APPID
  5
9
100
AcDbSymbolTable
 70
1
  0
APPID
  5
238
100
AcDbSymbolTableRecord
100
AcDbRegAppTableRecord
  2
ACAD
 70
0
  0
ENDTAB
  0
TABLE
  2
BLOCK_RECORD
  5
1
100
AcDbSymbolTable
 70
0
  0
BLOCK_RECORD
  5
239
100
AcDbSymbolTableRecord
100
AcDbBlockTableRecord
  2
*Model_Space
  0
BLOCK_RECORD
  5
23A
100
AcDbSymbolTableRecord
100
AcDbBlockTableRecord
  2
*Paper_Space
  0
BLOCK_RECORD
  5
23B
100
AcDbSymbolTableRecord
100
AcDbBlockTableRecord
  2
_FILLED
  0
BLOCK_RECORD
  5
23C
100
AcDbSymbolTableRecord
100
AcDbBlockTableRecord
  2
*D0
  0
BLOCK_RECORD
  5
23D
100
AcDbSymbolTableRecord
100
AcDbBlockTableRecord
  2
*D1
  0
BLOCK_RECORD
  5
23E
100
AcDbSymbolTableRecord
100
AcDbBlockTableRecord
  2
*D2
  0
BLOCK_RECORD
  5
23F
100
AcDbSymbolTableRecord
100
AcDbBlockTableRecord
  2
*D3
  0
BLOCK_RECORD
  5
240
100
AcDbSymbolTableRecord
100
AcDbBlockTableRecord
  2
*D4
  0
BLOCK_RECORD
  5
241
100
AcDbSymbolTableRecord
100
AcDbBlockTableRecord
  2
*D5
  0
ENDTAB
  0
TABLE
  2
DIMSTYLE
  5
A
100
AcDbSymbolTable
 70
1
100
AcDbDimStyleTable
 71
0
  0
DIMSTYLE
105
242
100
AcDbSymbolTableRecord
100
AcDbDimStyleTableRecord
  2
STANDARD
 70
0
  3

  4

 40
1.0
 41
3.5
 42
0.0625
 43
0.38
 44
0.18
 45
0.0
 46
0.0
 47
0.005
 48
0.005
140
3.5
141
0.09
142
0.0
143
25.4
144
1.0
145
0.0
146
1.0
147
0.09
 71
0.0
 72
0.0
 73
0
 74
0
 75
0
 76
0
 77
1
 78
8
170
0
171
2
172
0
173
0
174
0
175
0
176
0
177
0
178
5
270
2
271
3
272
3
273
2
274
2
275
0
280
0
281
0
282
0
283
1
284
8
285
0
286
0
287
3
288
0
340
11
341
23B
342
23B
343
23B
344
23B
  0
DIMSTYLE
105
243
100
AcDbSymbolTableRecord
100
AcDbDimStyleTableRecord
  2
DIMSTYLE_1
 70
0
  3

  4

 40
1.0
 41
3.5
 42
0.0625
 43
0.38
 44
0.18
 45
0.0
 46
0.0
 47
0.0
 48
0.0
140
3.5
141
0.09
142
0.0
143
25.4
144
1.0
145
0.0
146
1.0
147
0.09
 71
0.0
 72
0.0
 73
0
 74
0
 75
0
 76
0
 77
1
 78
8
170
0
171
2
172
0
173
0
174
0
175
0
176
0
177
0
178
5
270
2
271
3
272
3
273
2
274
2
275
0
280
0
281
0
282
0
283
1
284
8
285
0
286
0
287
3
288
0
340
11
341
23B
342
23B
343
23B
344
23B
  0
DIMSTYLE
105
244
100
AcDbSymbolTableRecord
100
AcDbDimStyleTableRecord
  2
DIMSTYLE_2
 70
0
  3

  4

 40
1.0
 41
3.5
 42
0.0625
 43
0.38
 44
0.18
 45
0.0
 46
0.0
 47
0.0
 48
0.0
140
3.5
141
0.09
142
0.0
143
25.4
144
1.0
145
0.0
146
1.0
147
0.09
 71
0.0
 72
0.0
 73
0
 74
0
 75
0
 76
0
 77
1
 78
8
170
0
171
2
172
0
173
0
174
0
175
0
176
0
177
0
178
5
270
2
271
2
272
2
273
2
274
2
275
0
280
0
281
0
282
0
283
1
284
8
285
0
286
0
287
3
288
0
340
11
341
23B
342
23B
343
23B
344
23B
  0
ENDTAB
  0
ENDSEC
  0
SECTION
  2
BLOCKS
  0
BLOCK
  5
20
100
AcDbEntity
  8
0
100
AcDbBlockBegin
  2
*Model_Space
 70
0
 10
0.0
 20
0.0
 30
0.0
  3
*Model_Space
  1

  0
ENDBLK
  5
21
100
AcDbEntity
  8
0
100
AcDbBlockEnd
  0
BLOCK
  5
1C
100
AcDbEntity
  8
0
100
AcDbBlockBegin
  2
*Paper_Space
 70
0
 10
0.0
 20
0.0
 30
0.0
  3
*Paper_Space
  1

  0
ENDBLK
  5
1D
100
AcDbEntity
  8
0
100
AcDbBlockEnd
  0
BLOCK
  5
245
100
AcDbEntity
  8
0
100
AcDbBlockBegin
  2
_FILLED
 70
64
 10
0.0
 20
0.0
  3
_FILLED
  1

  0
SOLID
  5
246
100
AcDbEntity
  8
0
  6
BYBLOCK
 62
0
100
AcDbTrace
 10
0.0
 20
0.0
 11
-1.0
 21
0.125
 12
-1.0
 22
-0.125
 13
-1.0
 23
-0.125
  0
ENDBLK
  5
247
100
AcDbEntity
  8
0
  6
BYBLOCK
 62
0
100
AcDbBlockEnd
  0
BLOCK
  5
248
100
AcDbEntity
  8
2
100
AcDbBlockBegin
 62
2
  6
CONTINUOUS
  2
*D0
 70
65
 10
0.0
 20
0.0
  3
*D0
  1

  0
MTEXT
  5
249
100
AcDbEntity
  8
2
100
AcDbMText
 62
5
  6
CONTINUOUS
  7
STANDARD
 71
2
 72
1
 10
225.8355
 20
209.375
 30
0.0
 11
1.0
 21
0.0
 31
0.0
 44
0.9
  1
71.671
 40
3.5
 41
14.25
  0
LINE
  5
24A
100
AcDbEntity
  8
2
100
AcDbLine
 62
2
  6
CONTINUOUS
 10
190.0
 20
183.0
 11
190.0
 21
206.5
  0
LINE
  5
24B
100
AcDbEntity
  8
2
100
AcDbLine
 62
2
  6
CONTINUOUS
 10
261.671
 20
181.0
 11
261.671
 21
206.5
  0
LINE
  5
24C
100
AcDbEntity
  8
2
100
AcDbLine
 62
2
  6
CONTINUOUS
 10
190.0
 20
205.0
 11
225.8355
 21
205.0
  0
LINE
  5
24D
100
AcDbEntity
  8
2
100
AcDbLine
 62
2
  6
CONTINUOUS
 10
261.671
 20
205.0
 11
225.8355
 21
205.0
  0
INSERT
  5
24E
100
AcDbEntity
  8
2
100
AcDbBlockReference
 62
2
  6
CONTINUOUS
  2
_FILLED
 10
190.0
 20
205.0
 41
3.5
 42
3.5
 43
3.5
 50
180.0
  0
INSERT
  5
24F
100
AcDbEntity
  8
2
100
AcDbBlockReference
 62
2
  6
CONTINUOUS
  2
_FILLED
 10
261.671
 20
205.0
 41
3.5
 42
3.5
 43
3.5
  0
ENDBLK
  5
250
100
AcDbEntity
  8
0
  6
BYBLOCK
 62
0
100
AcDbBlockEnd
  0
BLOCK
  5
251
100
AcDbEntity
  8
SK2
100
AcDbBlockBegin
 62
2
  6
CONTINUOUS
  2
*D1
 70
65
 10
0.0
 20
0.0
  3
*D1
  1

  0
MTEXT
  5
252
100
AcDbEntity
  8
SK2
100
AcDbMText
 62
5
  6
CONTINUOUS
  7
STANDARD
 71
2
 72
1
 10
201.6355
 20
229.375
 30
0.0
 11
1.0
 21
0.0
 31
0.0
 44
0.9
  1
120.071
 40
3.5
 41
17.0
  0
LINE
  5
253
100
AcDbEntity
  8
SK2
100
AcDbLine
 62
2
  6
CONTINUOUS
 10
141.6
 20
160.0
 11
141.6
 21
226.5
  0
LINE
  5
254
100
AcDbEntity
  8
SK2
100
AcDbLine
 62
2
  6
CONTINUOUS
 10
261.671
 20
160.0
 11
261.671
 21
212.0
  0
LINE
  5
255
100
AcDbEntity
  8
SK2
100
AcDbLine
 62
2
  6
CONTINUOUS
 10
261.671
 20
218.0
 11
261.671
 21
226.5
  0
LINE
  5
256
100
AcDbEntity
  8
SK2
100
AcDbLine
 62
2
  6
CONTINUOUS
 10
141.6
 20
225.0
 11
201.6355
 21
225.0
  0
LINE
  5
257
100
AcDbEntity
  8
SK2
100
AcDbLine
 62
2
  6
CONTINUOUS
 10
261.671
 20
225.0
 11
201.6355
 21
225.0
  0
INSERT
  5
258
100
AcDbEntity
  8
SK2
100
AcDbBlockReference
 62
2
  6
CONTINUOUS
  2
_FILLED
 10
141.6
 20
225.0
 41
3.5
 42
3.5
 43
3.5
 50
180.0
  0
INSERT
  5
259
100
AcDbEntity
  8
SK2
100
AcDbBlockReference
 62
2
  6
CONTINUOUS
  2
_FILLED
 10
261.671
 20
225.0
 41
3.5
 42
3.5
 43
3.5
  0
ENDBLK
  5
25A
100
AcDbEntity
  8
0
  6
BYBLOCK
 62
0
100
AcDbBlockEnd
  0
BLOCK
  5
25B
100
AcDbEntity
  8
SK2
100
AcDbBlockBegin
 62
2
  6
CONTINUOUS
  2
*D2
 70
65
 10
0.0
 20
0.0
  3
*D2
  1

  0
MTEXT
  5
25C
100
AcDbEntity
  8
SK2
100
AcDbMText
 62
5
  6
CONTINUOUS
  7
STANDARD
 71
2
 72
1
 10
236.8355
 20
199.375
 30
0.0
 11
1.0
 21
0.0
 31
0.0
 44
0.9
  1
49.671
 40
3.5
 41
15.0
  0
LINE
  5
25D
100
AcDbEntity
  8
SK2
100
AcDbLine
 62
2
  6
CONTINUOUS
 10
212.0
 20
183.0
 11
212.0
 21
196.5
  0
LINE
  5
25E
100
AcDbEntity
  8
SK2
100
AcDbLine
 62
2
  6
CONTINUOUS
 10
261.671
 20
160.0
 11
261.671
 21
196.5
  0
LINE
  5
25F
100
AcDbEntity
  8
SK2
100
AcDbLine
 62
2
  6
CONTINUOUS
 10
212.0
 20
195.0
 11
236.8355
 21
195.0
  0
LINE
  5
260
100
AcDbEntity
  8
SK2
100
AcDbLine
 62
2
  6
CONTINUOUS
 10
261.671
 20
195.0
 11
236.8355
 21
195.0
  0
INSERT
  5
261
100
AcDbEntity
  8
SK2
100
AcDbBlockReference
 62
2
  6
CONTINUOUS
  2
_FILLED
 10
212.0
 20
195.0
 41
3.5
 42
3.5
 43
3.5
 50
180.0
  0
INSERT
  5
262
100
AcDbEntity
  8
SK2
100
AcDbBlockReference
 62
2
  6
CONTINUOUS
  2
_FILLED
 10
261.671
 20
195.0
 41
3.5
 42
3.5
 43
3.5
  0
ENDBLK
  5
263
100
AcDbEntity
  8
0
  6
BYBLOCK
 62
0
100
AcDbBlockEnd
  0
BLOCK
  5
264
100
AcDbEntity
  8
2
100
AcDbBlockBegin
 62
2
  6
CONTINUOUS
  2
*D3
 70
65
 10
0.0
 20
0.0
  3
*D3
  1

  0
MTEXT
  5
265
100
AcDbEntity
  8
2
100
AcDbMText
 62
5
  6
CONTINUOUS
  7
TEXTSTYLE_2
 71
2
 72
1
 10
282.735
 20
160.0
 30
0.0
 11
0.0
 21
1.0
 31
0.0
 44
0.9
  1
{\Fgdt;n}\Ftxt;32
 40
3.5
 41
9.9166666667
  0
LINE
  5
266
100
AcDbEntity
  8
2
100
AcDbLine
 62
2
  6
CONTINUOUS
 10
261.671
 20
144.0
 11
288.61
 21
144.0
  0
LINE
  5
267
100
AcDbEntity
  8
2
100
AcDbLine
 62
2
  6
CONTINUOUS
 10
261.671
 20
176.0
 11
288.61
 21
176.0
  0
LINE
  5
268
100
AcDbEntity
  8
2
100
AcDbLine
 62
2
  6
CONTINUOUS
 10
287.11
 20
144.0
 11
287.11
 21
160.0
  0
LINE
  5
269
100
AcDbEntity
  8
2
100
AcDbLine
 62
2
  6
CONTINUOUS
 10
287.11
 20
176.0
 11
287.11
 21
160.0
  0
INSERT
  5
26A
100
AcDbEntity
  8
2
100
AcDbBlockReference
 62
2
  6
CONTINUOUS
  2
_FILLED
 10
287.11
 20
144.0
 41
3.5
 42
3.5
 43
3.5
 50
270.0
  0
INSERT
  5
26B
100
AcDbEntity
  8
2
100
AcDbBlockReference
 62
2
  6
CONTINUOUS
  2
_FILLED
 10
287.11
 20
176.0
 41
3.5
 42
3.5
 43
3.5
 50
90.0
  0
ENDBLK
  5
26C
100
AcDbEntity
  8
0
  6
BYBLOCK
 62
0
100
AcDbBlockEnd
  0
BLOCK
  5
26D
100
AcDbEntity
  8
2
100
AcDbBlockBegin
 62
2
  6
CONTINUOUS
  2
*D4
 70
65
 10
0.0
 20
0.0
  3
*D4
  1

  0
MTEXT
  5
26E
100
AcDbEntity
  8
2
100
AcDbMText
 62
5
  6
CONTINUOUS
  7
STANDARD
 71
2
 72
1
 10
230.0
 20
219.375
 30
0.0
 11
1.0
 21
0.0
 31
0.0
 44
0.9
  1
80
 40
3.5
 41
5.5
  0
LINE
  5
26F
100
AcDbEntity
  8
2
100
AcDbLine
 62
2
  6
CONTINUOUS
 10
190.0
 20
183.0
 11
190.0
 21
216.5
  0
LINE
  5
270
100
AcDbEntity
  8
2
100
AcDbLine
 62
2
  6
CONTINUOUS
 10
270.0
 20
160.0
 11
270.0
 21
173.0
  0
LINE
  5
271
100
AcDbEntity
  8
2
100
AcDbLine
 62
2
  6
CONTINUOUS
 10
270.0
 20
179.0
 11
270.0
 21
216.5
  0
LINE
  5
272
100
AcDbEntity
  8
2
100
AcDbLine
 62
2
  6
CONTINUOUS
 10
190.0
 20
215.0
 11
230.0
 21
215.0
  0
LINE
  5
273
100
AcDbEntity
  8
2
100
AcDbLine
 62
2
  6
CONTINUOUS
 10
270.0
 20
215.0
 11
230.0
 21
215.0
  0
INSERT
  5
274
100
AcDbEntity
  8
2
100
AcDbBlockReference
 62
2
  6
CONTINUOUS
  2
_FILLED
 10
190.0
 20
215.0
 41
3.5
 42
3.5
 43
3.5
 50
180.0
  0
INSERT
  5
275
100
AcDbEntity
  8
2
100
AcDbBlockReference
 62
2
  6
CONTINUOUS
  2
_FILLED
 10
270.0
 20
215.0
 41
3.5
 42
3.5
 43
3.5
  0
ENDBLK
  5
276
100
AcDbEntity
  8
0
  6
BYBLOCK
 62
0
100
AcDbBlockEnd
  0
BLOCK
  5
277
100
AcDbEntity
  8
0
100
AcDbBlockBegin
 62
2
  6
CONTINUOUS
  2
*D5
 70
65
 10
0.0
 20
0.0
  3
*D5
  1

  0
MTEXT
  5
278
100
AcDbEntity
  8
0
100
AcDbMText
 62
5
  6
CONTINUOUS
  7
TEXTSTYLE_2
 71
2
 72
1
 10
292.735
 20
160.0
 30
0.0
 11
0.0
 21
1.0
 31
0.0
 44
0.9
  1
{\Fgdt;n}\Ftxt;50
 40
3.5
 41
9.9166666667
  0
LINE
  5
279
100
AcDbEntity
  8
0
100
AcDbLine
 62
2
  6
CONTINUOUS
 10
264.0
 20
135.0
 11
298.61
 21
135.0
  0
LINE
  5
27A
100
AcDbEntity
  8
0
100
AcDbLine
 62
2
  6
CONTINUOUS
 10
264.0
 20
185.0
 11
298.61
 21
185.0
  0
LINE
  5
27B
100
AcDbEntity
  8
0
100
AcDbLine
 62
2
  6
CONTINUOUS
 10
297.11
 20
135.0
 11
297.11
 21
160.0
  0
LINE
  5
27C
100
AcDbEntity
  8
0
100
AcDbLine
 62
2
  6
CONTINUOUS
 10
297.11
 20
185.0
 11
297.11
 21
160.0
  0
INSERT
  5
27D
100
AcDbEntity
  8
0
100
AcDbBlockReference
 62
2
  6
CONTINUOUS
  2
_FILLED
 10
297.11
 20
135.0
 41
3.5
 42
3.5
 43
3.5
 50
270.0
  0
INSERT
  5
27E
100
AcDbEntity
  8
0
100
AcDbBlockReference
 62
2
  6
CONTINUOUS
  2
_FILLED
 10
297.11
 20
185.0
 41
3.5
 42
3.5
 43
3.5
 50
90.0
  0
ENDBLK
  5
27F
100
AcDbEntity
  8
0
  6
BYBLOCK
 62
0
100
AcDbBlockEnd
  0
ENDSEC
  0
SECTION
  2
ENTITIES
  0
DIMENSION
  5
280
100
AcDbEntity
  8
2
100
AcDbDimension
 62
2
  6
CONTINUOUS
  2
*D0
 10
261.671
 20
205.0
 11
218.7105
 21
207.625
 70
160
 71
2
 42
71.671
  3
DIMSTYLE_1
100
AcDbAlignedDimension
 13
190.0
 23
183.0
 14
261.671
 24
181.0
100
AcDbRotatedDimension
  0
DIMENSION
  5
281
100
AcDbEntity
  8
SK2
100
AcDbDimension
 62
2
  6
CONTINUOUS
  2
*D1
 10
261.671
 20
225.0
 11
193.1355
 21
227.625
 70
160
 71
2
 42
120.071
  3
DIMSTYLE_1
100
AcDbAlignedDimension
 13
141.6
 23
160.0
 14
261.671
 24
160.0
100
AcDbRotatedDimension
  0
DIMENSION
  5
282
100
AcDbEntity
  8
SK2
100
AcDbDimension
 62
2
  6
CONTINUOUS
  2
*D2
 10
261.671
 20
195.0
 11
229.3355
 21
197.625
 70
160
 71
2
 42
49.671
  3
DIMSTYLE_1
100
AcDbAlignedDimension
 13
212.0
 23
183.0
 14
261.671
 24
160.0
100
AcDbRotatedDimension
  0
DIMENSION
  5
283
100
AcDbEntity
  8
2
100
AcDbDimension
 62
2
  6
CONTINUOUS
  2
*D3
 10
287.11
 20
176.0
 11
285.5958491733
 21
157.7836332715
 70
160
 71
2
 42
32.0
  1
%%c<>
  3
DIMSTYLE_2
100
AcDbAlignedDimension
 13
261.671
 23
144.0
 14
261.671
 24
176.0
 50
90.0
100
AcDbRotatedDimension
  0
DIMENSION
  5
284
100
AcDbEntity
  8
2
100
AcDbDimension
 62
2
  6
CONTINUOUS
  2
*D4
 10
270.0
 20
215.0
 11
227.25
 21
217.625
 70
160
 71
2
 42
80.0
  3
DIMSTYLE_1
100
AcDbAlignedDimension
 13
190.0
 23
183.0
 14
270.0
 24
160.0
100
AcDbRotatedDimension
  0
DIMENSION
  5
285
100
AcDbEntity
  8
0
100
AcDbDimension
 62
2
  6
CONTINUOUS
  2
*D5
 10
297.11
 20
185.0
 11
295.5958491733
 21
157.7836332715
 70
160
 71
2
 42
50.0
  1
%%c<>
  3
DIMSTYLE_2
100
AcDbAlignedDimension
 13
264.0
 23
135.0
 14
264.0
 24
185.0
 50
90.0
100
AcDbRotatedDimension
  0
MTEXT
  5
286
100
AcDbEntity
  8
6
100
AcDbMText
 62
5
  6
CONTINUOUS
  7
STANDARD
 71
1
 72
1
 10
187.1438497029
 20
82.3507156451
 30
0.0
 11
1.0
 21
0.0
 31
0.0
 44
0.9
  3
Für diese Unterlage behalten wir das Ur-\Pheberrecht. Sie darf nur für den von uns\Pbestimmten Zweck benutzt und ohne unsere \PZustimmung weder vervielfältigt noch \PDritten zugänglich gemacht werden.\P \PWe own the copyright of this document. It\Pde
  1
termined and may neither be copied or\Pmade accessible to outsiders without our\Ppermission.\P \PCe plan reste notre propriété. Il ne peut\Pétre utilisé, copié ou reproduit sans notre\Paccord.
 40
3.5
 41
103.5833333333
  0
LINE
  5
287
100
AcDbEntity
  8
1
100
AcDbLine
 62
9
  6
CONTINUOUS
 10
141.6
 20
168.3837114216
 11
141.6
 21
151.6162885784
  0
LINE
  5
288
100
AcDbEntity
  8
1
100
AcDbLine
 62
9
  6
CONTINUOUS
 10
142.0278406654
 20
168.8784770535
 11
142.0278406654
 21
151.1215229465
  0
LINE
  5
289
100
AcDbEntity
  8
1
100
AcDbLine
 62
6
  6
CONTINUOUS
 10
264.0
 20
135.0
 11
248.75
 21
135.0
  0
LINE
  5
28A
100
AcDbEntity
  8
1
100
AcDbLine
 62
6
  6
CONTINUOUS
 10
188.3707693492
 20
175.6373840621
 11
188.3707693492
 21
144.3626159379
  0
LINE
  5
28B
100
AcDbEntity
  8
1
100
AcDbLine
 62
6
  6
CONTINUOUS
 10
189.35
 20
175.375
 11
189.35
 21
144.625
  0
LINE
  5
28C
100
AcDbEntity
  8
DEFAULT_1
100
AcDbLine
 62
7
  6
CENTER
 10
190.0
 20
134.01
 11
190.0
 21
185.99
  0
LINE
  5
28D
100
AcDbEntity
  8
1
100
AcDbLine
 62
6
  6
CONTINUOUS
 10
211.0
 20
137.01
 11
207.5466464284
 21
137.01
  0
LINE
  5
28E
100
AcDbEntity
  8
1
100
AcDbLine
 62
6
  6
CONTINUOUS
 10
193.0
 20
137.01
 11
199.6533535716
 21
137.01
  0
LINE
  5
28F
100
AcDbEntity
  8
1
100
AcDbLine
 62
6
  6
CONTINUOUS
 10
264.0
 20
137.090144929
 11
258.0
 21
137.090144929
  0
LINE
  5
290
100
AcDbEntity
  8
1
100
AcDbLine
 62
8
  6
HIDDEN
 10
260.8049745962
 20
139.025
 11
247.5
 21
139.025
  0
LINE
  5
291
100
AcDbEntity
  8
1
100
AcDbLine
 62
6
  6
CONTINUOUS
 10
247.5
 20
139.025
 11
213.0
 21
139.025
  0
LINE
  5
292
100
AcDbEntity
  8
1
100
AcDbLine
 62
6
  6
CONTINUOUS
 10
264.0
 20
139.8788215179
 11
258.0
 21
139.8788215179
  0
LINE
  5
293
100
AcDbEntity
  8
1
100
AcDbLine
 62
6
  6
CONTINUOUS
 10
202.3125
 20
141.125
 11
204.8875
 21
141.125
  0
LINE
  5
294
100
AcDbEntity
  8
1
100
AcDbLine
 62
9
  6
CONTINUOUS
 10
191.0
 20
175.375
 11
191.0
 21
144.625
  0
LINE
  5
295
100
AcDbEntity
  8
1
100
AcDbLine
 62
9
  6
CONTINUOUS
 10
192.0
 20
138.01
 11
192.0
 21
150.905
  0
LINE
  5
296
100
AcDbEntity
  8
1
100
AcDbLine
 62
6
  6
CONTINUOUS
 10
192.0
 20
150.905
 11
192.0
 21
157.2947966805
  0
LINE
  5
297
100
AcDbEntity
  8
1
100
AcDbLine
 62
6
  6
CONTINUOUS
 10
192.0
 20
162.7052033195
 11
192.0
 21
169.095
  0
LINE
  5
298
100
AcDbEntity
  8
1
100
AcDbLine
 62
9
  6
CONTINUOUS
 10
192.0
 20
169.095
 11
192.0
 21
181.99
  0
LINE
  5
299
100
AcDbEntity
  8
1
100
AcDbLine
 62
9
  6
CONTINUOUS
 10
193.0
 20
137.01
 11
193.0
 21
151.905
  0
LINE
  5
29A
100
AcDbEntity
  8
1
100
AcDbLine
 62
9
  6
CONTINUOUS
 10
193.0
 20
168.095
 11
193.0
 21
182.99
  0
LINE
  5
29B
100
AcDbEntity
  8
1
100
AcDbLine
 62
6
  6
CONTINUOUS
 10
191.0
 20
144.625
 11
189.35
 21
144.625
  0
LINE
  5
29C
100
AcDbEntity
  8
1
100
AcDbLine
 62
6
  6
CONTINUOUS
 10
188.3707693492
 20
144.3626159379
 11
142.0278406654
 21
151.1215229465
  0
LINE
  5
29D
100
AcDbEntity
  8
1
100
AcDbLine
 62
6
  6
CONTINUOUS
 10
199.6533535716
 20
182.99
 11
199.6533535716
 21
169.5085970896
  0
LINE
  5
29E
100
AcDbEntity
  8
1
100
AcDbLine
 62
6
  6
CONTINUOUS
 10
199.6533535716
 20
150.4914029104
 11
199.6533535716
 21
137.01
  0
LINE
  5
29F
100
AcDbEntity
  8
1
100
AcDbLine
 62
6
  6
CONTINUOUS
 10
205.6375
 20
179.6665377203
 11
207.5466464284
 21
182.99
  0
LINE
  5
2A0
100
AcDbEntity
  8
1
100
AcDbLine
 62
6
  6
CONTINUOUS
 10
189.35
 20
144.625
 11
188.3707693492
 21
144.3626159379
  0
LINE
  5
2A1
100
AcDbEntity
  8
1
100
AcDbLine
 62
8
  6
HIDDEN
 10
237.0162439119
 20
147.465
 11
221.671
 21
147.465
  0
LINE
  5
2A2
100
AcDbEntity
  8
1
100
AcDbLine
 62
6
  6
CONTINUOUS
 10
199.6533535716
 20
150.4914029104
 11
193.0
 21
150.4914029104
  0
LINE
  5
2A3
100
AcDbEntity
  8
1
100
AcDbLine
 62
6
  6
CONTINUOUS
 10
205.6375
 20
140.3334622797
 11
207.5466464284
 21
137.01
  0
LINE
  5
2A4
100
AcDbEntity
  8
1
100
AcDbLine
 62
6
  6
CONTINUOUS
 10
201.5625
 20
179.6665034043
 11
201.5625
 21
168.0847367768
  0
LINE
  5
2A5
100
AcDbEntity
  8
1
100
AcDbLine
 62
6
  6
CONTINUOUS
 10
201.5625
 20
151.9152632232
 11
201.5625
 21
140.3334965957
  0
LINE
  5
2A6
100
AcDbEntity
  8
1
100
AcDbLine
 62
9
  6
CONTINUOUS
 10
202.3125
 20
141.125
 11
202.3125
 21
151.9881825564
  0
LINE
  5
2A7
100
AcDbEntity
  8
1
100
AcDbLine
 62
9
  6
CONTINUOUS
 10
202.3125
 20
168.0118174436
 11
202.3125
 21
178.875
  0
LINE
  5
2A8
100
AcDbEntity
  8
1
100
AcDbLine
 62
9
  6
CONTINUOUS
 10
204.8875
 20
141.125
 11
204.8875
 21
152.8168621933
  0
LINE
  5
2A9
100
AcDbEntity
  8
1
100
AcDbLine
 62
9
  6
CONTINUOUS
 10
204.8875
 20
167.1831378067
 11
204.8875
 21
178.875
  0
LINE
  5
2AA
100
AcDbEntity
  8
1
100
AcDbLine
 62
6
  6
CONTINUOUS
 10
192.0
 20
150.905
 11
193.0
 21
151.905
  0
LINE
  5
2AB
100
AcDbEntity
  8
1
100
AcDbLine
 62
6
  6
CONTINUOUS
 10
193.0
 20
151.905
 11
201.155
 21
151.905
  0
LINE
  5
2AC
100
AcDbEntity
  8
1
100
AcDbLine
 62
8
  6
HIDDEN
 10
261.671
 20
144.0
 11
237.0162439119
 21
147.465
  0
LINE
  5
2AD
100
AcDbEntity
  8
1
100
AcDbLine
 62
6
  6
CONTINUOUS
 10
192.0
 20
169.095
 11
193.0
 21
168.095
  0
LINE
  5
2AE
100
AcDbEntity
  8
1
100
AcDbLine
 62
6
  6
CONTINUOUS
 10
205.6375
 20
140.333463922
 11
205.6375
 21
153.2593606572
  0
LINE
  5
2AF
100
AcDbEntity
  8
1
100
AcDbLine
 62
6
  6
CONTINUOUS
 10
205.6375
 20
166.7406393428
 11
205.6375
 21
179.666536078
  0
LINE
  5
2B0
100
AcDbEntity
  8
1
100
AcDbLine
 62
6
  6
CONTINUOUS
 10
207.5466464284
 20
182.99
 11
207.5466464284
 21
166.7643804091
  0
LINE
  5
2B1
100
AcDbEntity
  8
1
100
AcDbLine
 62
6
  6
CONTINUOUS
 10
207.5466464284
 20
153.2356408745
 11
207.5466464284
 21
137.01
  0
LINE
  5
2B2
100
AcDbEntity
  8
1
100
AcDbLine
 62
6
  6
CONTINUOUS
 10
264.0
 20
157.2113234112
 11
258.0
 21
157.2113234112
  0
LINE
  5
2B3
100
AcDbEntity
  8
4
100
AcDbLine
 62
7
  6
CENTER
 10
265.671
 20
160.0
 11
138.6
 21
160.0
  0
LINE
  5
2B4
100
AcDbEntity
  8
1
100
AcDbLine
 62
9
  6
CONTINUOUS
 10
211.0
 20
182.99
 11
211.0
 21
137.01
  0
LINE
  5
2B5
100
AcDbEntity
  8
1
100
AcDbLine
 62
6
  6
CONTINUOUS
 10
212.0
 20
181.99
 11
212.0
 21
138.01
  0
LINE
  5
2B6
100
AcDbEntity
  8
1
100
AcDbLine
 62
9
  6
CONTINUOUS
 10
213.0
 20
180.975
 11
213.0
 21
139.025
  0
LINE
  5
2B7
100
AcDbEntity
  8
1
100
AcDbLine
 62
6
  6
CONTINUOUS
 10
199.6533535716
 20
137.01
 11
201.5625
 21
140.3334622797
  0
LINE
  5
2B8
100
AcDbEntity
  8
1
100
AcDbLine
 62
6
  6
CONTINUOUS
 10
264.0
 20
162.7886765888
 11
258.0
 21
162.7886765888
  0
LINE
  5
2B9
100
AcDbEntity
  8
1
100
AcDbLine
 62
6
  6
CONTINUOUS
 10
199.6533535716
 20
182.99
 11
201.5625
 21
179.6665377203
  0
LINE
  5
2BA
100
AcDbEntity
  8
1
100
AcDbLine
 62
8
  6
HIDDEN
 10
261.671
 20
176.0
 11
237.0162439119
 21
172.535
  0
LINE
  5
2BB
100
AcDbEntity
  8
1
100
AcDbLine
 62
6
  6
CONTINUOUS
 10
193.0
 20
168.095
 11
201.155
 21
168.095
  0
LINE
  5
2BC
100
AcDbEntity
  8
1
100
AcDbLine
 62
6
  6
CONTINUOUS
 10
193.0
 20
169.5085970896
 11
199.6533535716
 21
169.5085970896
  0
LINE
  5
2BD
100
AcDbEntity
  8
1
100
AcDbLine
 62
6
  6
CONTINUOUS
 10
189.35
 20
175.375
 11
188.3707693492
 21
175.6373840621
  0
LINE
  5
2BE
100
AcDbEntity
  8
1
100
AcDbLine
 62
8
  6
HIDDEN
 10
221.671
 20
172.535
 11
221.671
 21
147.465
  0
LINE
  5
2BF
100
AcDbEntity
  8
1
100
AcDbLine
 62
8
  6
HIDDEN
 10
237.0162439119
 20
172.535
 11
221.671
 21
172.535
  0
LINE
  5
2C0
100
AcDbEntity
  8
1
100
AcDbLine
 62
6
  6
CONTINUOUS
 10
188.3707693492
 20
175.6373840621
 11
142.0278406654
 21
168.8784770535
  0
LINE
  5
2C1
100
AcDbEntity
  8
1
100
AcDbLine
 62
6
  6
CONTINUOUS
 10
191.0
 20
175.375
 11
189.35
 21
175.375
  0
LINE
  5
2C2
100
AcDbEntity
  8
1
100
AcDbLine
 62
6
  6
CONTINUOUS
 10
202.3125
 20
178.875
 11
204.8875
 21
178.875
  0
LINE
  5
2C3
100
AcDbEntity
  8
1
100
AcDbLine
 62
6
  6
CONTINUOUS
 10
264.0
 20
180.1211784821
 11
258.0
 21
180.1211784821
  0
LINE
  5
2C4
100
AcDbEntity
  8
1
100
AcDbLine
 62
8
  6
HIDDEN
 10
260.8049745962
 20
180.975
 11
247.5
 21
180.975
  0
LINE
  5
2C5
100
AcDbEntity
  8
1
100
AcDbLine
 62
6
  6
CONTINUOUS
 10
247.5
 20
180.975
 11
213.0
 21
180.975
  0
LINE
  5
2C6
100
AcDbEntity
  8
1
100
AcDbLine
 62
6
  6
CONTINUOUS
 10
264.0
 20
182.909855071
 11
258.0
 21
182.909855071
  0
LINE
  5
2C7
100
AcDbEntity
  8
1
100
AcDbLine
 62
6
  6
CONTINUOUS
 10
211.0
 20
182.99
 11
207.5466464284
 21
182.99
  0
LINE
  5
2C8
100
AcDbEntity
  8
1
100
AcDbLine
 62
6
  6
CONTINUOUS
 10
193.0
 20
182.99
 11
199.6533535716
 21
182.99
  0
LINE
  5
2C9
100
AcDbEntity
  8
1
100
AcDbLine
 62
8
  6
HIDDEN
 10
237.0162439119
 20
172.535
 11
237.0162439119
 21
147.465
  0
LINE
  5
2CA
100
AcDbEntity
  8
1
100
AcDbLine
 62
6
  6
CONTINUOUS
 10
264.0
 20
185.0
 11
248.75
 21
185.0
  0
LINE
  5
2CB
100
AcDbEntity
  8
1
100
AcDbLine
 62
6
  6
CONTINUOUS
 10
247.5
 20
183.7282608696
 11
247.5
 21
136.25
  0
LINE
  5
2CC
100
AcDbEntity
  8
1
100
AcDbLine
 62
9
  6
CONTINUOUS
 10
248.75
 20
185.0
 11
248.75
 21
135.0
  0
LINE
  5
2CD
100
AcDbEntity
  8
1
100
AcDbLine
 62
9
  6
CONTINUOUS
 10
258.0
 20
182.909855071
 11
258.0
 21
180.1211784821
  0
LINE
  5
2CE
100
AcDbEntity
  8
1
100
AcDbLine
 62
9
  6
CONTINUOUS
 10
258.0
 20
162.7886765888
 11
258.0
 21
157.2113234112
  0
LINE
  5
2CF
100
AcDbEntity
  8
1
100
AcDbLine
 62
9
  6
CONTINUOUS
 10
258.0
 20
139.8788215179
 11
258.0
 21
137.090144929
  0
LINE
  5
2D0
100
AcDbEntity
  8
1
100
AcDbLine
 62
8
  6
HIDDEN
 10
260.8049745962
 20
180.975
 11
260.8049745962
 21
139.025
  0
LINE
  5
2D1
100
AcDbEntity
  8
1
100
AcDbLine
 62
8
  6
HIDDEN
 10
261.671
 20
179.475
 11
261.671
 21
140.525
  0
LINE
  5
2D2
100
AcDbEntity
  8
1
100
AcDbLine
 62
9
  6
CONTINUOUS
 10
264.0
 20
185.0
 11
264.0
 21
182.909855071
  0
LINE
  5
2D3
100
AcDbEntity
  8
1
100
AcDbLine
 62
9
  6
CONTINUOUS
 10
264.0
 20
180.1211784821
 11
264.0
 21
162.7886765888
  0
LINE
  5
2D4
100
AcDbEntity
  8
1
100
AcDbLine
 62
9
  6
CONTINUOUS
 10
264.0
 20
157.2113234112
 11
264.0
 21
139.8788215179
  0
LINE
  5
2D5
100
AcDbEntity
  8
1
100
AcDbLine
 62
9
  6
CONTINUOUS
 10
264.0
 20
137.090144929
 11
264.0
 21
135.0
  0
LINE
  5
2D6
100
AcDbEntity
  8
1
100
AcDbLine
 62
8
  6
HIDDEN
 10
261.671
 20
140.525
 11
260.8049745962
 21
139.025
  0
LINE
  5
2D7
100
AcDbEntity
  8
1
100
AcDbLine
 62
8
  6
HIDDEN
 10
261.671
 20
179.475
 11
260.8049745962
 21
180.975
  0
LINE
  5
2D8
100
AcDbEntity
  8
1
100
AcDbLine
 62
9
  6
CONTINUOUS
 10
270.0
 20
179.0
 11
270.0
 21
141.0
  0
ARC
  5
2D9
100
AcDbEntity
  8
1
100
AcDbCircle
 62
6
  6
CONTINUOUS
 10
82.0067108957
 20
101.911282635
 40
135.6839321894
100
AcDbArc
 50
29.1946791364
 51
29.880779419
  0
ARC
  5
2DA
100
AcDbEntity
  8
1
100
AcDbCircle
 62
6
  6
CONTINUOUS
 10
142.1
 20
151.6162885784
 40
0.5
100
AcDbArc
 50
180.0
 51
261.7021731718
  0
ARC
  5
2DB
100
AcDbEntity
  8
1
100
AcDbCircle
 62
6
  6
CONTINUOUS
 10
86.036001555
 20
215.8055504857
 40
131.0528158902
100
AcDbArc
 50
330.107097796
 51
330.8174436486
  0
ARC
  5
2DC
100
AcDbEntity
  8
1
100
AcDbCircle
 62
6
  6
CONTINUOUS
 10
142.1
 20
168.3837114216
 40
0.5
100
AcDbArc
 50
98.2978268282
 51
180.0
  0
ARC
  5
2DD
100
AcDbEntity
  8
1
100
AcDbCircle
 62
6
  6
CONTINUOUS
 10
213.0
 20
138.025
 40
1.0
100
AcDbArc
 50
90.0
 51
180.0
  0
ARC
  5
2DE
100
AcDbEntity
  8
1
100
AcDbCircle
 62
6
  6
CONTINUOUS
 10
211.0
 20
138.01
 40
1.0
100
AcDbArc
 50
270.0
 51
360.0
  0
ARC
  5
2DF
100
AcDbEntity
  8
1
100
AcDbCircle
 62
6
  6
CONTINUOUS
 10
193.0
 20
138.01
 40
1.0
100
AcDbArc
 50
180.0
 51
270.0
  0
ARC
  5
2E0
100
AcDbEntity
  8
1
100
AcDbCircle
 62
6
  6
CONTINUOUS
 10
191.0
 20
143.625
 40
1.0
100
AcDbArc
 50
0.0
 51
90.0
  0
ARC
  5
2E1
100
AcDbEntity
  8
1
100
AcDbCircle
 62
6
  6
CONTINUOUS
 10
204.8875
 20
140.375
 40
0.75
100
AcDbArc
 50
0.0
 51
90.0
  0
ARC
  5
2E2
100
AcDbEntity
  8
1
100
AcDbCircle
 62
6
  6
CONTINUOUS
 10
202.3125
 20
140.375
 40
0.75
100
AcDbArc
 50
90.0
 51
173.5714285714
  0
ARC
  5
2E3
100
AcDbEntity
  8
1
100
AcDbCircle
 62
6
  6
CONTINUOUS
 10
275.3169522631
 20
120.3202843432
 40
82.1575828046
100
AcDbArc
 50
145.5765231226
 51
146.4345949863
  0
ARC
  5
2E4
100
AcDbEntity
  8
1
100
AcDbCircle
 62
6
  6
CONTINUOUS
 10
264.0
 20
141.0
 40
6.0
100
AcDbArc
 50
270.0
 51
360.0
  0
ARC
  5
2E5
100
AcDbEntity
  8
1
100
AcDbCircle
 62
6
  6
CONTINUOUS
 10
248.75
 20
136.25
 40
1.25
100
AcDbArc
 50
180.0
 51
270.0
  0
ARC
  5
2E6
100
AcDbEntity
  8
1
100
AcDbCircle
 62
6
  6
CONTINUOUS
 10
201.155
 20
160.0
 40
8.095
100
AcDbArc
 50
270.0
 51
90.0
  0
ARC
  5
2E7
100
AcDbEntity
  8
1
100
AcDbCircle
 62
6
  6
CONTINUOUS
 10
191.0
 20
176.375
 40
1.0
100
AcDbArc
 50
270.0
 51
360.0
  0
ARC
  5
2E8
100
AcDbEntity
  8
1
100
AcDbCircle
 62
6
  6
CONTINUOUS
 10
213.0
 20
181.975
 40
1.0
100
AcDbArc
 50
180.0
 51
270.0
  0
ARC
  5
2E9
100
AcDbEntity
  8
1
100
AcDbCircle
 62
6
  6
CONTINUOUS
 10
193.0
 20
181.99
 40
1.0
100
AcDbArc
 50
90.0
 51
180.0
  0
ARC
  5
2EA
100
AcDbEntity
  8
1
100
AcDbCircle
 62
6
  6
CONTINUOUS
 10
211.0
 20
181.99
 40
1.0
100
AcDbArc
 50
0.0
 51
90.0
  0
ARC
  5
2EB
100
AcDbEntity
  8
1
100
AcDbCircle
 62
6
  6
CONTINUOUS
 10
204.8875
 20
179.625
 40
0.75
100
AcDbArc
 50
270.0
 51
360.0
  0
ARC
  5
2EC
100
AcDbEntity
  8
1
100
AcDbCircle
 62
6
  6
CONTINUOUS
 10
202.3125
 20
179.625
 40
0.75
100
AcDbArc
 50
186.4285714286
 51
270.0
  0
ARC
  5
2ED
100
AcDbEntity
  8
1
100
AcDbCircle
 62
6
  6
CONTINUOUS
 10
272.7941698098
 20
197.9784630904
 40
79.1148497265
100
AcDbArc
 50
213.5489202421
 51
214.4399827751
  0
ARC
  5
2EE
100
AcDbEntity
  8
1
100
AcDbCircle
 62
6
  6
CONTINUOUS
 10
264.0
 20
179.0
 40
6.0
100
AcDbArc
 50
0.0
 51
90.0
  0
ARC
  5
2EF
100
AcDbEntity
  8
1
100
AcDbCircle
 62
6
  6
CONTINUOUS
 10
248.75
 20
183.75
 40
1.25
100
AcDbArc
 50
90.0
 51
156.6321188674
  0
SPLINE
  5
2F0
100
AcDbEntity
  8
1
100
AcDbSpline
 62
6
  6
CONTINUOUS
 70
0
 71
3
 72
12
 73
8
 74
0
 42
0.0000001
 43
0.0000001
 44
0.0000000001
 40
0.0
 40
0.0
 40
0.0
 40
0.0
 40
0.1864872008
 40
0.2991691175
 40
0.4237947907
 40
0.7009903902
 40
1.0
 40
1.0
 40
1.0
 40
1.0
 10
255.211820776
 20
138.6339010483
 30
0.0
 10
255.285573048
 20
138.8181570114
 30
0.0
 10
255.4988146036
 20
139.074201113
 30
0.0
 10
255.8623517509
 20
139.3400897537
 30
0.0
 10
256.347986333
 20
139.5979283502
 30
0.0
 10
257.0669492051
 20
139.8192106022
 30
0.0
 10
257.6817801853
 20
139.8788215179
 30
0.0
 10
258.0
 20
139.8788215179
 30
0.0
  0
SPLINE
  5
2F1
100
AcDbEntity
  8
1
100
AcDbSpline
 62
6
  6
CONTINUOUS
 70
0
 71
3
 72
9
 73
5
 74
0
 42
0.0000001
 43
0.0000001
 44
0.0000000001
 40
0.0
 40
0.0
 40
0.0
 40
0.0
 40
0.1210170113
 40
1.0
 40
1.0
 40
1.0
 40
1.0
 10
247.6
 20
184.2393511425
 30
0.0
 10
247.5921119231
 20
184.2198362435
 30
0.0
 10
247.5304833481
 20
184.0572720109
 30
0.0
 10
247.5
 20
183.8811448242
 30
0.0
 10
247.5
 20
183.7282608696
 30
0.0
  0
LINE
  5
2F2
100
AcDbEntity
  8
1
100
AcDbLine
 62
6
  6
CONTINUOUS
 10
247.6025286067
 20
184.2457916917
 11
247.6
 21
184.2393511425
  0
SPLINE
  5
2F3
100
AcDbEntity
  8
1
100
AcDbSpline
 62
6
  6
CONTINUOUS
 70
0
 71
3
 72
14
 73
10
 74
0
 42
0.0000001
 43
0.0000001
 44
0.0000000001
 40
0.0
 40
0.0
 40
0.0
 40
0.0
 40
0.2849341028
 40
0.4248354607
 40
0.5607976074
 40
0.6905057872
 40
0.8102728068
 40
0.9152136275
 40
1.0
 40
1.0
 40
1.0
 40
1.0
 10
264.0
 20
139.8788215179
 30
0.0
 10
264.3932413194
 20
139.8788215179
 30
0.0
 10
264.9803156189
 20
139.9165781211
 30
0.0
 10
265.7455732014
 20
140.0336488216
 30
0.0
 10
266.2943615233
 20
140.144920851
 30
0.0
 10
266.8114840618
 20
140.2696308791
 30
0.0
 10
267.2854121304
 20
140.3912939539
 30
0.0
 10
267.7008590169
 20
140.4886620846
 30
0.0
 10
267.9617467631
 20
140.5265799495
 30
0.0
 10
268.0787615394
 20
140.5266422767
 30
0.0
  0
SPLINE
  5
2F4
100
AcDbEntity
  8
1
100
AcDbSpline
 62
6
  6
CONTINUOUS
 70
0
 71
3
 72
12
 73
8
 74
0
 42
0.0000001
 43
0.0000001
 44
0.0000000001
 40
0.0
 40
0.0
 40
0.0
 40
0.0
 40
0.2990219736
 40
0.576223749
 40
0.7008486278
 40
0.8135266757
 40
1.0
 40
1.0
 40
1.0
 40
1.0
 10
258.0
 20
180.1211784821
 30
0.0
 10
257.6817408381
 20
180.1211784821
 30
0.0
 10
257.0668390589
 20
180.1808033547
 30
0.0
 10
256.3478054317
 20
180.402137733
 30
0.0
 10
255.8621476325
 20
180.6600350256
 30
0.0
 10
255.4986255472
 20
180.9259723523
 30
0.0
 10
255.2854190195
 20
181.1820687696
 30
0.0
 10
255.2117209966
 20
181.3663481219
 30
0.0
  0
SPLINE
  5
2F5
100
AcDbEntity
  8
1
100
AcDbSpline
 62
6
  6
CONTINUOUS
 70
0
 71
3
 72
14
 73
10
 74
0
 42
0.0000001
 43
0.0000001
 44
0.0000000001
 40
0.0
 40
0.0
 40
0.0
 40
0.0
 40
0.084787904
 40
0.1897281036
 40
0.3094961218
 40
0.4392034612
 40
0.5751658802
 40
0.7150658776
 40
1.0
 40
1.0
 40
1.0
 40
1.0
 10
268.078743805
 20
179.4733563499
 30
0.0
 10
267.9617274092
 20
179.4734162583
 30
0.0
 10
267.7008408526
 20
179.5113491013
 30
0.0
 10
267.2853912456
 20
179.6087046676
 30
0.0
 10
266.8114686414
 20
179.73038021
 30
0.0
 10
266.2943451988
 20
179.8550788113
 30
0.0
 10
265.7455629718
 20
179.9663552335
 30
0.0
 10
264.9803095161
 20
180.083422403
 30
0.0
 10
264.3932396824
 20
180.1211784821
 30
0.0
 10
264.0
 20
180.1211784821
 30
0.0
  0
SPLINE
  5
2F6
100
AcDbEntity
  8
1
100
AcDbSpline
 62
6
  6
CONTINUOUS
 70
0
 71
3
 72
23
 73
19
 74
0
 42
0.0000001
 43
0.0000001
 44
0.0000000001
 40
0.0
 40
0.0
 40
0.0
 40
0.0
 40
0.0184012597
 40
0.034473728
 40
0.048862242
 40
0.0626721123
 40
0.0933866733
 40
0.1123754217
 40
0.1342104299
 40
0.1862913411
 40
0.2480783111
 40
0.3168255001
 40
0.3898617061
 40
0.4650962202
 40
0.5412869562
 40
0.6941154498
 40
0.8470538126
 40
1.0
 40
1.0
 40
1.0
 40
1.0
 10
268.0787615394
 20
140.5266422767
 30
0.0
 10
268.1190160488
 20
140.5266637179
 30
0.0
 10
268.1946102328
 20
140.5225318376
 30
0.0
 10
268.2994441074
 20
140.4981454639
 30
0.0
 10
268.386682068
 20
140.4530907109
 30
0.0
 10
268.4783319914
 20
140.3590340088
 30
0.0
 10
268.5177380609
 20
140.2178822431
 30
0.0
 10
268.5170426424
 20
140.0616183426
 30
0.0
 10
268.4876349606
 20
139.8597080492
 30
0.0
 10
268.394367389
 20
139.5759703271
 30
0.0
 10
268.2135037343
 20
139.2184952881
 30
0.0
 10
267.9611130455
 20
138.850082508
 30
0.0
 10
267.6463775691
 20
138.4931563466
 30
0.0
 10
267.2794720217
 20
138.1651124902
 30
0.0
 10
266.7357410181
 20
137.779224214
 30
0.0
 10
265.9794929968
 20
137.4087953961
 30
0.0
 10
265.0052438835
 20
137.147524856
 30
0.0
 10
264.3345844101
 20
137.090144929
 30
0.0
 10
264.0
 20
137.090144929
 30
0.0
  0
SPLINE
  5
2F7
100
AcDbEntity
  8
1
100
AcDbSpline
 62
6
  6
CONTINUOUS
 70
0
 71
3
 72
15
 73
11
 74
0
 42
0.0000001
 43
0.0000001
 44
0.0000000001
 40
0.0
 40
0.0
 40
0.0
 40
0.0
 40
0.1252570027
 40
0.2502386126
 40
0.3751026418
 40
0.5000028313
 40
0.6249027726
 40
0.7497660958
 40
0.8747472157
 40
1.0
 40
1.0
 40
1.0
 40
1.0
 10
258.0
 20
157.2113234112
 30
0.0
 10
257.6327679556
 20
157.2113234112
 30
0.0
 10
256.8914166707
 20
157.3531126822
 30
0.0
 10
255.9456413009
 20
157.9653653443
 30
0.0
 10
255.3052270389
 20
158.8942957331
 30
0.0
 10
255.0789547469
 20
160.0000250508
 30
0.0
 10
255.3052461043
 20
161.1057481072
 30
0.0
 10
255.9456729646
 20
162.0346644467
 30
0.0
 10
256.8914442113
 20
162.6468926833
 30
0.0
 10
257.6327803233
 20
162.7886765888
 30
0.0
 10
258.0
 20
162.7886765888
 30
0.0
  0
SPLINE
  5
2F8
100
AcDbEntity
  8
1
100
AcDbSpline
 62
6
  6
CONTINUOUS
 70
0
 71
3
 72
16
 73
12
 74
0
 42
0.0000001
 43
0.0000001
 44
0.0000000001
 40
0.0
 40
0.0
 40
0.0
 40
0.0
 40
0.1698604891
 40
0.3331567575
 40
0.4837623584
 40
0.617083521
 40
0.7307562607
 40
0.8264542219
 40
0.8699600923
 40
0.912367852
 40
1.0
 40
1.0
 40
1.0
 40
1.0
 10
258.0
 20
137.090144929
 30
0.0
 10
257.7931732353
 20
137.090144929
 30
0.0
 10
257.3872805626
 20
137.1073646677
 30
0.0
 10
256.8025020215
 20
137.1850240046
 30
0.0
 10
256.2720596446
 20
137.3136521224
 30
0.0
 10
255.8197223433
 20
137.4920701147
 30
0.0
 10
255.4649640142
 20
137.7180387159
 30
0.0
 10
255.2589459423
 20
137.9567291636
 30
0.0
 10
255.1743021595
 20
138.1630185238
 30
0.0
 10
255.1399606237
 20
138.373185175
 30
0.0
 10
255.1721690472
 20
138.5348387785
 30
0.0
 10
255.211820776
 20
138.6339010483
 30
0.0
  0
SPLINE
  5
2F9
100
AcDbEntity
  8
1
100
AcDbSpline
 62
6
  6
CONTINUOUS
 70
0
 71
3
 72
23
 73
19
 74
0
 42
0.0000001
 43
0.0000001
 44
0.0000000001
 40
0.0
 40
0.0
 40
0.0
 40
0.0
 40
0.1529463142
 40
0.3058858905
 40
0.4587151059
 40
0.5349055203
 40
0.6101413149
 40
0.6831773156
 40
0.7519244707
 40
0.8137107556
 40
0.8657903789
 40
0.8876252757
 40
0.9066130957
 40
0.9373272586
 40
0.9511371178
 40
0.965525995
 40
0.9815989306
 40
1.0
 40
1.0
 40
1.0
 40
1.0
 10
264.0
 20
182.909855071
 30
0.0
 10
264.334585526
 20
182.909855071
 30
0.0
 10
265.0052493618
 20
182.8524740328
 30
0.0
 10
265.9795061983
 20
182.591202623
 30
0.0
 10
266.7357552876
 20
182.2207638172
 30
0.0
 10
267.27949222
 20
181.8348745883
 30
0.0
 10
267.6463951381
 20
181.5068230384
 30
0.0
 10
267.9611298859
 20
181.1498921823
 30
0.0
 10
268.2135218869
 20
180.7814810806
 30
0.0
 10
268.3943765402
 20
180.4240050544
 30
0.0
 10
268.4876396937
 20
180.1402701887
 30
0.0
 10
268.5170443533
 20
179.9383639523
 30
0.0
 10
268.5177353674
 20
179.7821027694
 30
0.0
 10
268.4783246322
 20
179.6409544649
 30
0.0
 10
268.3866707781
 20
179.5469021684
 30
0.0
 10
268.2994307601
 20
179.5018456622
 30
0.0
 10
268.1945919413
 20
179.4774729329
 30
0.0
 10
268.1189979994
 20
179.4733357411
 30
0.0
 10
268.078743805
 20
179.4733563499
 30
0.0
  0
SPLINE
  5
2FA
100
AcDbEntity
  8
1
100
AcDbSpline
 62
6
  6
CONTINUOUS
 70
0
 71
3
 72
23
 73
19
 74
0
 42
0.0000001
 43
0.0000001
 44
0.0000000001
 40
0.0
 40
0.0
 40
0.0
 40
0.0
 40
0.0661971271
 40
0.1313766407
 40
0.1944936989
 40
0.2550888284
 40
0.3136474447
 40
0.3724213268
 40
0.4344520876
 40
0.5000018181
 40
0.5655514642
 40
0.6275823261
 40
0.6863554656
 40
0.7449133777
 40
0.8055079411
 40
0.868624547
 40
0.9338031835
 40
1.0
 40
1.0
 40
1.0
 40
1.0
 10
264.0
 20
162.7886765888
 30
0.0
 10
264.2655085993
 20
162.7886765888
 30
0.0
 10
264.7925638833
 20
162.7759401264
 30
0.0
 10
265.5705681906
 20
162.7115421405
 30
0.0
 10
266.3189520177
 20
162.5851496966
 30
0.0
 10
267.0201502312
 20
162.3668380805
 30
0.0
 10
267.64808241
 20
162.0107715905
 30
0.0
 10
268.1464955733
 20
161.4736534638
 30
0.0
 10
268.4509666768
 20
160.7772105599
 30
0.0
 10
268.5499528
 20
159.9999778992
 30
0.0
 10
268.4509535434
 20
159.2227471036
 30
0.0
 10
268.1464754061
 20
158.5263099457
 30
0.0
 10
267.6480537867
 20
157.9892067144
 30
0.0
 10
267.0201237976
 20
157.6331549085
 30
0.0
 10
266.3189326246
 20
157.4148451979
 30
0.0
 10
265.5705557285
 20
157.2884559037
 30
0.0
 10
264.7925577714
 20
157.2240628537
 30
0.0
 10
264.2655073533
 20
157.2113234112
 30
0.0
 10
264.0
 20
157.2113234112
 30
0.0
  0
SPLINE
  5
2FB
100
AcDbEntity
  8
1
100
AcDbSpline
 62
6
  6
CONTINUOUS
 70
0
 71
3
 72
16
 73
12
 74
0
 42
0.0000001
 43
0.0000001
 44
0.0000000001
 40
0.0
 40
0.0
 40
0.0
 40
0.0
 40
0.0876245227
 40
0.1300320185
 40
0.1735396047
 40
0.2692444072
 40
0.3829241096
 40
0.5162492306
 40
0.6668568054
 40
0.8301476613
 40
1.0
 40
1.0
 40
1.0
 40
1.0
 10
255.2117209966
 20
181.3663481219
 30
0.0
 10
255.1721050752
 20
181.4654063604
 30
0.0
 10
255.139955572
 20
181.6270497534
 30
0.0
 10
255.1743603466
 20
181.8371821164
 30
0.0
 10
255.2590590072
 20
182.0434416028
 30
0.0
 10
255.4651193911
 20
182.2820853676
 30
0.0
 10
255.8198916647
 20
182.508011485
 30
0.0
 10
256.2722202461
 20
182.6863964394
 30
0.0
 10
256.8026288799
 20
182.8149958517
 30
0.0
 10
257.3873514751
 20
182.8926412239
 30
0.0
 10
257.7931982004
 20
182.909855071
 30
0.0
 10
258.0
 20
182.909855071
 30
0.0
  0
SPLINE
  5
2FC
100
AcDbEntity
  8
1
100
AcDbSpline
 62
6
  6
CONTINUOUS
 70
0
 71
3
 72
15
 73
11
 74
0
 42
0.0000001
 43
0.0000001
 44
0.0000000001
 40
0.0
 40
0.0
 40
0.0
 40
0.0
 40
0.0717185522
 40
0.1549267556
 40
0.2559200561
 40
0.376316587
 40
0.5146672711
 40
0.667750496
 40
0.8311927225
 40
1.0
 40
1.0
 40
1.0
 40
1.0
 10
192.0
 20
169.095
 30
0.0
 10
192.0
 20
169.1226520889
 30
0.0
 10
192.0156722513
 20
169.1828245616
 30
0.0
 10
192.0778338198
 20
169.2617024095
 30
0.0
 10
192.1729539437
 20
169.3320838909
 30
0.0
 10
192.298072115
 20
169.3932173365
 30
0.0
 10
192.4491405395
 20
169.4432885359
 30
0.0
 10
192.6208029163
 20
169.4805768646
 30
0.0
 10
192.806747845
 20
169.5034488537
 30
0.0
 10
192.934914008
 20
169.508633457
 30
0.0
 10
193.0
 20
169.5085970896
 30
0.0
  0
SPLINE
  5
2FD
100
AcDbEntity
  8
1
100
AcDbSpline
 62
6
  6
CONTINUOUS
 70
0
 71
3
 72
15
 73
11
 74
0
 42
0.0000001
 43
0.0000001
 44
0.0000000001
 40
0.0
 40
0.0
 40
0.0
 40
0.0
 40
0.1688072775
 40
0.332249504
 40
0.4853327289
 40
0.623683413
 40
0.7440799439
 40
0.8450732444
 40
0.9282814478
 40
1.0
 40
1.0
 40
1.0
 40
1.0
 10
193.0
 20
150.4914029104
 30
0.0
 10
192.934914008
 20
150.491366543
 30
0.0
 10
192.806747845
 20
150.4965511463
 30
0.0
 10
192.6208029163
 20
150.5194231354
 30
0.0
 10
192.4491405395
 20
150.5567114641
 30
0.0
 10
192.298072115
 20
150.6067826635
 30
0.0
 10
192.1729539437
 20
150.6679161091
 30
0.0
 10
192.0778338198
 20
150.7382975905
 30
0.0
 10
192.0156722513
 20
150.8171754384
 30
0.0
 10
192.0
 20
150.8773479111
 30
0.0
 10
192.0
 20
150.905
 30
0.0
  0
SPLINE
  5
2FE
100
AcDbEntity
  8
1
100
AcDbSpline
 62
6
  6
CONTINUOUS
 70
0
 71
3
 72
19
 73
15
 74
0
 42
0.0000001
 43
0.0000001
 44
0.0000000001
 40
0.0
 40
0.0
 40
0.0
 40
0.0
 40
0.0631702166
 40
0.12634484
 40
0.1894410283
 40
0.2523777067
 40
0.3771533498
 40
0.4999668679
 40
0.622792025
 40
0.7475958813
 40
0.8105225091
 40
0.8736083998
 40
0.9367911643
 40
1.0
 40
1.0
 40
1.0
 40
1.0
 10
207.5466171928
 20
166.7643400338
 30
0.0
 10
207.7652005668
 20
166.5386977149
 30
0.0
 10
208.1799197108
 20
166.0649869655
 30
0.0
 10
208.7269994589
 20
165.2961840624
 30
0.0
 10
209.1952553876
 20
164.4781874284
 30
0.0
 10
209.7076921881
 20
163.3392392947
 30
0.0
 10
210.1359271992
 20
161.8449725266
 30
0.0
 10
210.3065566325
 20
160.0004503149
 30
0.0
 10
210.1360424632
 20
158.1557797228
 30
0.0
 10
209.7079057981
 20
156.6613255508
 30
0.0
 10
209.1955106543
 20
155.5223153567
 30
0.0
 10
208.7273465297
 20
154.7043382283
 30
0.0
 10
208.1802144894
 20
153.9353446783
 30
0.0
 10
207.7653094698
 20
153.4614880521
 30
0.0
 10
207.5466109076
 20
153.2356899223
 30
0.0
  0
SPLINE
  5
2FF
100
AcDbEntity
  8
1
100
AcDbSpline
 62
6
  6
CONTINUOUS
 70
0
 71
3
 72
11
 73
7
 74
0
 42
0.0000001
 43
0.0000001
 44
0.0000000001
 40
0.0
 40
0.0
 40
0.0
 40
0.0
 40
0.2500010457
 40
0.5
 40
0.7499989543
 40
1.0
 40
1.0
 40
1.0
 40
1.0
 10
192.0
 20
157.2947966805
 30
0.0
 10
192.0
 20
157.745686233
 30
0.0
 10
191.9842582248
 20
158.6473675852
 30
0.0
 10
191.9694787445
 20
160.0
 30
0.0
 10
191.9842582248
 20
161.3526324148
 30
0.0
 10
192.0
 20
162.254313767
 30
0.0
 10
192.0
 20
162.7052033195
 30
0.0
  0
ENDSEC
  0
SECTION
  2
OBJECTS
  0
DICTIONARY
  5
C
100
AcDbDictionary
280
0
281
1
  3
ACAD_GROUP
350
D
  3
ACAD_MLINESTYLE
350
17
  3
ACAD_LAYOUT
350
1A
  3
ACAD_PLOTSETTINGS
350
19
  3
ACAD_PLOTSTYLENAME
350
E
  0
DICTIONARY
  5
D
102
{ACAD_REACTORS
330
C
102
}
100
AcDbDictionary
280
0
281
1
  0
ACDBDICTIONARYWDFLT
  5
E
102
{ACAD_REACTORS
330
C
102
}
100
AcDbDictionary
281
1
  3
Normal
350
F
100
AcDbDictionaryWithDefault
340
F
  0
DICTIONARY
  5
17
102
{ACAD_REACTORS
330
C
102
}
100
AcDbDictionary
280
0
281
1
  3
Standard
350
18
  0
DICTIONARY
  5
19
102
{ACAD_REACTORS
330
C
102
}
100
AcDbDictionary
281
1
  0
DICTIONARY
  5
1A
102
{ACAD_REACTORS
330
C
102
}
100
AcDbDictionary
281
1
  3
Model
350
300
  3
Layout1
350
301
  0
ACDBPLACEHOLDER
  5
F
102
{ACAD_REACTORS
330
E
102
}
  0
MLINESTYLE
  5
18
102
{ACAD_REACTORS
330
17
102
}
100
AcDbMlineStyle
  2
STANDARD
 70
0
  3

 62
256
 51
90.0
 52
90.0
 71
2
 49
0.5
 62
256
  6
BYLAYER
 49
-0.5
 62
256
  6
BYLAYER
  0
LAYOUT
  5
300
102
{ACAD_REACTORS
330
1A
102
}
100
AcDbPlotSettings
  1

  2
none_device
  4
ISO_A3_(420.00_x_297.00_MM)
  6

 40
0.0
 41
0.0
 42
0.0
 43
0.0
 44
420.0
 45
297.0
 46
0.0
 47
0.0
 48
0.0
 49
0.0
140
0.0
141
0.0
142
1.0
143
1.0
 70
1024
 72
1
 73
0
 74
0
  7

 75
0
147
1.0
148
0.0
149
0.0
100
AcDbLayout
  1
Model
 70
0
 71
0
 10
0.0
 20
0.0
 11
420.0
 21
297.0
 12
0.0
 22
0.0
 32
0.0
 14
0.0
 24
0.0
 34
0.0
 15
0.0
 25
0.0
 35
0.0
146
0.0
 13
0.0
 23
0.0
 33
0.0
 16
1.0
 26
0.0
 36
0.0
 17
0.0
 27
1.0
 37
0.0
 76
0
330
239
345
0
346
0
  0
LAYOUT
  5
301
102
{ACAD_REACTORS
330
1A
102
}
100
AcDbPlotSettings
  1

  2
none_device
  4
ISO_A3_(420.00_x_297.00_MM)
  6

 40
0.0
 41
0.0
 42
0.0
 43
0.0
 44
420.0
 45
297.0
 46
0.0
 47
0.0
 48
0.0
 49
0.0
140
0.0
141
0.0
142
1.0
143
1.0
 70
0
 72
1
 73
0
 74
0
  7

 75
0
147
1.0
148
0.0
149
0.0
100
AcDbLayout
  1
Layout1
 70
0
 71
1
 10
0.0
 20
0.0
 11
420.0
 21
297.0
 12
0.0
 22
0.0
 32
0.0
 14
0.0
 24
0.0
 34
0.0
 15
0.0
 25
0.0
 35
0.0
146
0.0
 13
0.0
 23
0.0
 33
0.0
 16
1.0
 26
0.0
 36
0.0
 17
0.0
 27
1.0
 37
0.0
 76
0
330
23A
345
0
346
0
  0
ENDSEC
  0
EOF
