  0
SECTION
  2
HEADER
  9
$ACADVER
  1
AC1012
  9
$DWGCODEPAGE
  3
ANSI_1252
  9
$INSBASE
 10
0.0
 20
0.0
 30
0.0
  9
$EXTMIN
 10
-101.8948042247152
 20
-31.63574102525092
 30
-0.0015258207003583
  9
$EXTMAX
 10
180.0194866832107
 20
81.8743904422438
 30
0.0000000349246037
  9
$LIMMIN
 10
-170.0
 20
-170.0
  9
$LIMMAX
 10
519.0
 20
260.0
  9
$ORTHOMODE
 70
     1
  9
$REGENMODE
 70
     1
  9
$FILLMODE
 70
     1
  9
$QTEXTMODE
 70
     0
  9
$MIRRTEXT
 70
     0
  9
$DRAGMODE
 70
     2
  9
$LTSCALE
 40
15.0
  9
$OSMODE
 70
     0
  9
$ATTMODE
 70
     1
  9
$TEXTSIZE
 40
4.57
  9
$TRACEWID
 40
0.05
  9
$TEXTSTYLE
  7
SIMPLEX
  9
$CLAYER
  8
SK2
  9
$CELTYPE
  6
BYLAYER
  9
$CECOLOR
 62
   256
  9
$CELTSCALE
 40
1.0
  9
$DELOBJ
 70
     1
  9
$DISPSILH
 70
     0
  9
$DIMSCALE
 40
0.0
  9
$DIMASZ
 40
4.57
  9
$DIMEXO
 40
0.0
  9
$DIMDLI
 40
0.38
  9
$DIMRND
 40
0.0
  9
$DIMDLE
 40
0.0
  9
$DIMEXE
 40
5.0
  9
$DIMTP
 40
0.0
  9
$DIMTM
 40
0.0
  9
$DIMTXT
 40
4.57
  9
$DIMCEN
 40
0.09
  9
$DIMTSZ
 40
0.0
  9
$DIMTOL
 70
     0
  9
$DIMLIM
 70
     0
  9
$DIMTIH
 70
     0
  9
$DIMTOH
 70
     0
  9
$DIMSE1
 70
     0
  9
$DIMSE2
 70
     0
  9
$DIMTAD
 70
     1
  9
$DIMZIN
 70
     8
  9
$DIMBLK
  1

  9
$DIMASO
 70
     1
  9
$DIMSHO
 70
     1
  9
$DIMPOST
  1

  9
$DIMAPOST
  1

  9
$DIMALT
 70
     0
  9
$DIMALTD
 70
     2
  9
$DIMALTF
 40
25.4
  9
$DIMLFAC
 40
1.0
  9
$DIMTOFL
 70
     0
  9
$DIMTVP
 40
0.0
  9
$DIMTIX
 70
     0
  9
$DIMSOXD
 70
     0
  9
$DIMSAH
 70
     0
  9
$DIMBLK1
  1

  9
$DIMBLK2
  1

  9
$DIMSTYLE
  2
STANDARD
  9
$DIMCLRD
 70
     0
  9
$DIMCLRE
 70
     0
  9
$DIMCLRT
 70
     0
  9
$DIMTFAC
 40
1.0
  9
$DIMGAP
 40
2.299999999999999
  9
$DIMJUST
 70
     0
  9
$DIMSD1
 70
     0
  9
$DIMSD2
 70
     0
  9
$DIMTOLJ
 70
     1
  9
$DIMTZIN
 70
     0
  9
$DIMALTZ
 70
     0
  9
$DIMALTTZ
 70
     0
  9
$DIMFIT
 70
     3
  9
$DIMUPT
 70
     0
  9
$DIMUNIT
 70
     2
  9
$DIMDEC
 70
     2
  9
$DIMTDEC
 70
     4
  9
$DIMALTU
 70
     2
  9
$DIMALTTD
 70
     2
  9
$DIMTXSTY
  7
SIMPLEX
  9
$DIMAUNIT
 70
     0
  9
$LUNITS
 70
     2
  9
$LUPREC
 70
     2
  9
$SKETCHINC
 40
0.1
  9
$FILLETRAD
 40
0.0
  9
$AUNITS
 70
     0
  9
$AUPREC
 70
     0
  9
$MENU
  1
c:\tdm21\cad\caduti13\tdm13
  9
$ELEVATION
 40
0.0
  9
$PELEVATION
 40
0.0
  9
$THICKNESS
 40
0.0
  9
$LIMCHECK
 70
     0
  9
$BLIPMODE
 70
     0
  9
$CHAMFERA
 40
0.0
  9
$CHAMFERB
 40
0.0
  9
$CHAMFERC
 40
0.0
  9
$CHAMFERD
 40
0.0
  9
$SKPOLY
 70
     0
  9
$TDCREATE
 40
2452448.994084027
  9
$TDUPDATE
 40
2452448.994084027
  9
$TDINDWG
 40
0.0023762731
  9
$TDUSRTIMER
 40
0.0023762731
  9
$USRTIMER
 70
     1
  9
$ANGBASE
 50
0.0
  9
$ANGDIR
 70
     0
  9
$PDMODE
 70
     1
  9
$PDSIZE
 40
0.0
  9
$PLINEWID
 40
0.0
  9
$COORDS
 70
     1
  9
$SPLFRAME
 70
     0
  9
$SPLINETYPE
 70
     6
  9
$SPLINESEGS
 70
     8
  9
$ATTDIA
 70
     0
  9
$ATTREQ
 70
     1
  9
$HANDLING
 70
  4097
  9
$HANDSEED
  5
5BF
  9
$SURFTAB1
 70
     6
  9
$SURFTAB2
 70
     6
  9
$SURFTYPE
 70
     6
  9
$SURFU
 70
     6
  9
$SURFV
 70
     6
  9
$UCSNAME
  2

  9
$UCSORG
 10
0.0
 20
0.0
 30
0.0
  9
$UCSXDIR
 10
1.0
 20
0.0
 30
0.0
  9
$UCSYDIR
 10
0.0
 20
1.0
 30
0.0
  9
$PUCSNAME
  2

  9
$PUCSORG
 10
0.0
 20
0.0
 30
0.0
  9
$PUCSXDIR
 10
1.0
 20
0.0
 30
0.0
  9
$PUCSYDIR
 10
0.0
 20
1.0
 30
0.0
  9
$USERI1
 70
     0
  9
$USERI2
 70
     0
  9
$USERI3
 70
     0
  9
$USERI4
 70
     0
  9
$USERI5
 70
     0
  9
$USERR1
 40
0.0
  9
$USERR2
 40
0.0
  9
$USERR3
 40
0.0
  9
$USERR4
 40
0.0
  9
$USERR5
 40
0.0
  9
$WORLDVIEW
 70
     1
  9
$SHADEDGE
 70
     3
  9
$SHADEDIF
 70
    70
  9
$TILEMODE
 70
     1
  9
$MAXACTVP
 70
    16
  9
$PINSBASE
 10
0.0
 20
0.0
 30
0.0
  9
$PLIMCHECK
 70
     0
  9
$PEXTMIN
 10
0.0
 20
0.0
 30
0.0
  9
$PEXTMAX
 10
0.0
 20
0.0
 30
0.0
  9
$PLIMMIN
 10
0.0
 20
0.0
  9
$PLIMMAX
 10
12.0
 20
9.0
  9
$UNITMODE
 70
     0
  9
$VISRETAIN
 70
     0
  9
$PLINEGEN
 70
     0
  9
$PSLTSCALE
 70
     1
  9
$TREEDEPTH
 70
  3020
  9
$PICKSTYLE
 70
     1
  9
$CMLSTYLE
  2
STANDARD
  9
$CMLJUST
 70
     0
  9
$CMLSCALE
 40
1.0
  9
$SAVEIMAGES
 70
     1
  0
ENDSEC
  0
SECTION
  2
CLASSES
  0
CLASS
  1
ACDBDICTIONARYWDFLT
  2
AcDbDictionaryWithDefault
  3
AutoCAD 2000
 90
    32768
280
     0
281
     0
  0
CLASS
  1
ACDBPLACEHOLDER
  2
AcDbPlaceHolder
  3
AutoCAD 2000
 90
    32768
280
     0
281
     0
  0
CLASS
  1
LAYOUT
  2
AcDbLayout
  3
AutoCAD 2000
 90
    32768
280
     0
281
     0
  0
CLASS
  1
LONG_TRANSACTION
  2
AcDbLongTransaction
  3
AutoCAD 2000
 90
    32768
280
     0
281
     0
  0
CLASS
  1
LWPOLYLINE
  2
AcDbPolyline
  3
AutoCAD 2000
 90
    32768
280
     0
281
     1
  0
CLASS
  1
HATCH
  2
AcDbHatch
  3
AutoCAD 2000
 90
    32768
280
     0
281
     1
  0
CLASS
  1
XRECORD
  2
AcDbXrecord
  3
AutoCAD 2000
 90
    32768
280
     0
281
     0
  0
ENDSEC
  0
SECTION
  2
TABLES
  0
TABLE
  2
VPORT
  5
8
330
0
100
AcDbSymbolTable
 70
     3
  0
VPORT
  5
5BA
330
8
100
AcDbSymbolTableRecord
100
AcDbViewportTableRecord
  2
*ACTIVE
 70
     0
 10
0.0
 20
0.0
 11
1.0
 21
1.0
 12
39.06234122924777
 22
25.11932470849643
 13
0.0
 23
0.0
 14
5.0
 24
5.0
 15
5.0
 25
5.0
 16
0.0
 26
0.0
 36
1.0
 17
0.0
 27
0.0
 37
0.0
 40
137.246457006201
 41
2.130434782608695
 42
50.0
 43
0.0
 44
0.0
 50
0.0
 51
0.0
 71
     0
 72
   100
 73
     1
 74
     1
 75
     0
 76
     0
 77
     0
 78
     0
  0
ENDTAB
  0
TABLE
  2
LTYPE
  5
5
330
0
100
AcDbSymbolTable
 70
     3
  0
LTYPE
  5
12
330
5
100
AcDbSymbolTableRecord
100
AcDbLinetypeTableRecord
  2
BYBLOCK
 70
     0
  3

 72
    65
 73
     0
 40
0.0
  0
LTYPE
  5
13
330
5
100
AcDbSymbolTableRecord
100
AcDbLinetypeTableRecord
  2
BYLAYER
 70
     0
  3

 72
    65
 73
     0
 40
0.0
  0
LTYPE
  5
14
330
5
100
AcDbSymbolTableRecord
100
AcDbLinetypeTableRecord
  2
CONTINUOUS
 70
     0
  3
Solid line
 72
    65
 73
     0
 40
0.0
  0
LTYPE
  5
1F
330
5
100
AcDbSymbolTableRecord
100
AcDbLinetypeTableRecord
  2
CENTER
 70
     0
  3
____ . ____ . ____
 72
    65
 73
     4
 40
1.5
 49
1.0
 74
     0
 49
-0.25
 74
     0
 49
0.0
 74
     0
 49
-0.25
 74
     0
  0
LTYPE
  5
20
330
5
100
AcDbSymbolTableRecord
100
AcDbLinetypeTableRecord
  2
HIDDEN
 70
     0
  3
_ _ _ _ _ _ _ _ _ _ _ _ _ _ _ _ _ _ _ _ _ _ _
 72
    65
 73
     2
 40
0.375
 49
0.25
 74
     0
 49
-0.125
 74
     0
  0
ENDTAB
  0
TABLE
  2
LAYER
  5
2
330
0
100
AcDbSymbolTable
 70
    15
  0
LAYER
  5
F
330
2
100
AcDbSymbolTableRecord
100
AcDbLayerTableRecord
  2
0
 70
     0
 62
    -7
  6
CONTINUOUS
  0
LAYER
  5
23
330
2
100
AcDbSymbolTableRecord
100
AcDbLayerTableRecord
  2
1
 70
     0
 62
     4
  6
CONTINUOUS
  0
LAYER
  5
24
330
2
100
AcDbSymbolTableRecord
100
AcDbLayerTableRecord
  2
SK1
 70
     0
 62
     4
  6
CONTINUOUS
  0
LAYER
  5
25
330
2
100
AcDbSymbolTableRecord
100
AcDbLayerTableRecord
  2
2
 70
     0
 62
     7
  6
CONTINUOUS
  0
LAYER
  5
26
330
2
100
AcDbSymbolTableRecord
100
AcDbLayerTableRecord
  2
2L
 70
     0
 62
     7
  6
CONTINUOUS
  0
LAYER
  5
27
330
2
100
AcDbSymbolTableRecord
100
AcDbLayerTableRecord
  2
SK2
 70
     0
 62
     7
  6
CONTINUOUS
  0
LAYER
  5
28
330
2
100
AcDbSymbolTableRecord
100
AcDbLayerTableRecord
  2
3
 70
     0
 62
     1
  6
HIDDEN
  0
LAYER
  5
29
330
2
100
AcDbSymbolTableRecord
100
AcDbLayerTableRecord
  2
SK3
 70
     0
 62
     1
  6
HIDDEN
  0
LAYER
  5
2A
330
2
100
AcDbSymbolTableRecord
100
AcDbLayerTableRecord
  2
4
 70
     0
 62
    -2
  6
CENTER
  0
LAYER
  5
2B
330
2
100
AcDbSymbolTableRecord
100
AcDbLayerTableRecord
  2
SK4
 70
     0
 62
     2
  6
CENTER
  0
LAYER
  5
2C
330
2
100
AcDbSymbolTableRecord
100
AcDbLayerTableRecord
  2
5
 70
     0
 62
    -7
  6
CONTINUOUS
  0
LAYER
  5
2D
330
2
100
AcDbSymbolTableRecord
100
AcDbLayerTableRecord
  2
6
 70
     0
 62
     5
  6
CONTINUOUS
  0
LAYER
  5
2E
330
2
100
AcDbSymbolTableRecord
100
AcDbLayerTableRecord
  2
SK6
 70
     0
 62
     5
  6
CONTINUOUS
  0
LAYER
  5
2F
330
2
100
AcDbSymbolTableRecord
100
AcDbLayerTableRecord
  2
DEFPOINTS
 70
     0
 62
    -7
  6
CONTINUOUS
  0
LAYER
  5
376
330
2
100
AcDbSymbolTableRecord
100
AcDbLayerTableRecord
  2
1__1
 70
     0
 62
    -1
  6
CONTINUOUS
  0
ENDTAB
  0
TABLE
  2
STYLE
  5
3
330
0
100
AcDbSymbolTable
 70
     3
  0
STYLE
  5
10
330
3
100
AcDbSymbolTableRecord
100
AcDbTextStyleTableRecord
  2
STANDARD
 70
     0
 40
0.0
 41
1.0
 50
0.0
 71
     0
 42
5.0
  3
txt
  4

  0
STYLE
  5
1D
330
3
100
AcDbSymbolTableRecord
100
AcDbTextStyleTableRecord
  2
TXT
 70
     0
 40
8.0
 41
1.0
 50
0.0
 71
     0
 42
8.0
  3
txt
  4

  0
STYLE
  5
1E
330
3
100
AcDbSymbolTableRecord
100
AcDbTextStyleTableRecord
  2
SIMPLEX
 70
     0
 40
0.0
 41
1.0
 50
0.0
 71
     0
 42
4.57
  3
simplex
  4

  0
ENDTAB
  0
TABLE
  2
VIEW
  5
6
330
0
100
AcDbSymbolTable
 70
     0
  0
ENDTAB
  0
TABLE
  2
UCS
  5
7
330
0
100
AcDbSymbolTable
 70
     0
  0
ENDTAB
  0
TABLE
  2
APPID
  5
9
330
0
100
AcDbSymbolTable
 70
     1
  0
APPID
  5
11
330
9
100
AcDbSymbolTableRecord
100
AcDbRegAppTableRecord
  2
ACAD
 70
     0
  0
ENDTAB
  0
TABLE
  2
DIMSTYLE
  5
A
330
0
100
AcDbSymbolTable
 70
     1
  0
DIMSTYLE
105
3F
102
{ACAD_REACTORS
330
3EE
330
3FA
330
403
330
47E
330
47F
330
481
330
482
330
483
330
4D0
330
4D1
330
4CF
330
4CD
330
4CC
330
3E5
102
}
330
A
100
AcDbSymbolTableRecord
100
AcDbDimStyleTableRecord
  2
STANDARD
 70
     0
  3

  4

  5

  6

  7

 40
0.0
 41
4.57
 42
0.0
 43
0.38
 44
5.0
 45
0.0
 46
0.0
 47
0.0
 48
0.0
140
4.57
141
0.09
142
0.0
143
25.4
144
1.0
145
0.0
146
1.0
147
2.299999999999999
 71
     0
 72
     0
 73
     0
 74
     0
 75
     0
 76
     0
 77
     1
 78
     8
170
     0
171
     2
172
     0
173
     0
174
     0
175
     0
176
     0
177
     0
178
     0
270
     2
271
     2
272
     4
273
     2
274
     2
340
1E
275
     0
280
     0
281
     0
282
     0
283
     1
284
     0
285
     0
286
     0
287
     3
288
     0
  0
ENDTAB
  0
TABLE
  2
BLOCK_RECORD
  5
1
330
0
100
AcDbSymbolTable
 70
    15
  0
BLOCK_RECORD
  5
18
102
{ACAD_XDICTIONARY
360
5BB
102
}
330
1
100
AcDbSymbolTableRecord
100
AcDbBlockTableRecord
  2
*MODEL_SPACE
  0
BLOCK_RECORD
  5
338
102
{ACAD_XDICTIONARY
360
5BD
102
}
330
1
100
AcDbSymbolTableRecord
100
AcDbBlockTableRecord
  2
*PAPER_SPACE
  0
BLOCK_RECORD
  5
345
330
1
100
AcDbSymbolTableRecord
100
AcDbBlockTableRecord
  2
*D0
  0
BLOCK_RECORD
  5
351
330
1
100
AcDbSymbolTableRecord
100
AcDbBlockTableRecord
  2
*D1
  0
BLOCK_RECORD
  5
35D
330
1
100
AcDbSymbolTableRecord
100
AcDbBlockTableRecord
  2
*D2
  0
BLOCK_RECORD
  5
36A
330
1
100
AcDbSymbolTableRecord
100
AcDbBlockTableRecord
  2
*D3
  0
BLOCK_RECORD
  5
43F
330
1
100
AcDbSymbolTableRecord
100
AcDbBlockTableRecord
  2
*D4
  0
BLOCK_RECORD
  5
44B
330
1
100
AcDbSymbolTableRecord
100
AcDbBlockTableRecord
  2
*D5
  0
BLOCK_RECORD
  5
457
330
1
100
AcDbSymbolTableRecord
100
AcDbBlockTableRecord
  2
*D6
  0
BLOCK_RECORD
  5
463
330
1
100
AcDbSymbolTableRecord
100
AcDbBlockTableRecord
  2
*D7
  0
BLOCK_RECORD
  5
46F
330
1
100
AcDbSymbolTableRecord
100
AcDbBlockTableRecord
  2
*D8
  0
BLOCK_RECORD
  5
47D
330
1
100
AcDbSymbolTableRecord
100
AcDbBlockTableRecord
  2
MASBT40
  0
BLOCK_RECORD
  5
516
330
1
100
AcDbSymbolTableRecord
100
AcDbBlockTableRecord
  2
*D10
  0
BLOCK_RECORD
  5
522
330
1
100
AcDbSymbolTableRecord
100
AcDbBlockTableRecord
  2
*D11
  0
BLOCK_RECORD
  5
52E
330
1
100
AcDbSymbolTableRecord
100
AcDbBlockTableRecord
  2
*D12
  0
BLOCK_RECORD
  5
53A
330
1
100
AcDbSymbolTableRecord
100
AcDbBlockTableRecord
  2
*D13
  0
BLOCK_RECORD
  5
546
330
1
100
AcDbSymbolTableRecord
100
AcDbBlockTableRecord
  2
*D14
  0
ENDTAB
  0
ENDSEC
  0
SECTION
  2
BLOCKS
  0
BLOCK
  5
32
330
18
100
AcDbEntity
  8
0
100
AcDbBlockBegin
  2
*MODEL_SPACE
 70
     0
 10
0.0
 20
0.0
 30
0.0
  3
*MODEL_SPACE
  1

  0
ENDBLK
  5
33
330
18
100
AcDbEntity
  8
0
100
AcDbBlockEnd
  0
BLOCK
  5
339
330
338
100
AcDbEntity
 67
     1
  8
0
100
AcDbBlockBegin
  2
*PAPER_SPACE
 70
     0
 10
0.0
 20
0.0
 30
0.0
  3
*PAPER_SPACE
  1

  0
ENDBLK
  5
33A
330
338
100
AcDbEntity
 67
     1
  8
0
100
AcDbBlockEnd
  0
BLOCK
  5
34F
330
345
100
AcDbEntity
  8
0
100
AcDbBlockBegin
  2
*D0
 70
     1
 10
0.0
 20
0.0
 30
0.0
  3
*D0
  1

  0
LINE
  5
41A
330
345
100
AcDbEntity
  8
2
 62
     0
100
AcDbLine
 10
0.0000000000000071
 20
26.717
 30
0.0
 11
0.0000000000000104
 21
80.0
 31
0.0
  0
LINE
  5
41B
330
345
100
AcDbEntity
  8
2
 62
     0
100
AcDbLine
 10
160.0
 20
17.99999999999999
 30
0.0
 11
160.0
 21
80.0
 31
0.0
  0
LINE
  5
41C
330
345
100
AcDbEntity
  8
2
 62
     0
100
AcDbLine
 10
4.57000000000001
 20
75.0
 30
0.0
 11
155.43
 21
75.0
 31
0.0
  0
SOLID
  5
41D
330
345
100
AcDbEntity
  8
2
 62
     0
100
AcDbTrace
 10
4.57000000000001
 20
75.76166666666667
 30
0.0
 11
4.57000000000001
 21
74.23833333333333
 31
0.0
 12
0.0000000000000101
 22
75.0
 32
0.0
 13
0.0000000000000101
 23
75.0
 33
0.0
  0
SOLID
  5
41E
330
345
100
AcDbEntity
  8
2
 62
     0
100
AcDbTrace
 10
155.43
 20
75.76166666666667
 30
0.0
 11
155.43
 21
74.23833333333333
 31
0.0
 12
160.0
 22
75.0
 32
0.0
 13
160.0
 23
75.0
 33
0.0
  0
MTEXT
  5
41F
330
345
100
AcDbEntity
  8
2
 62
     0
100
AcDbMText
 10
80.00000000000001
 20
79.58499999999999
 30
0.0
 40
4.57
 41
0.0
 71
     5
 72
     1
  1
\A1;160
  7
SIMPLEX
1001
ACAD
1000
MTEXTBEGIN
1070
    73
1070
     1
1070
    44
1040
1.0
1070
    74
1070
     0
1000
MTEXTEND
  0
POINT
  5
420
330
345
100
AcDbEntity
  8
DEFPOINTS
 62
     0
100
AcDbPoint
 10
0.0000000000000071
 20
26.717
 30
0.0
  0
POINT
  5
421
330
345
100
AcDbEntity
  8
DEFPOINTS
 62
     0
100
AcDbPoint
 10
160.0
 20
17.99999999999999
 30
0.0
  0
POINT
  5
422
330
345
100
AcDbEntity
  8
DEFPOINTS
 62
     0
100
AcDbPoint
 10
160.0
 20
75.0
 30
0.0
  0
ENDBLK
  5
350
330
345
100
AcDbEntity
  8
0
100
AcDbBlockEnd
  0
BLOCK
  5
35B
330
351
100
AcDbEntity
  8
0
100
AcDbBlockBegin
  2
*D1
 70
     1
 10
0.0
 20
0.0
 30
0.0
  3
*D1
  1

  0
LINE
  5
423
330
351
100
AcDbEntity
  8
SK2
 62
     0
100
AcDbLine
 10
-68.4
 20
11.45313
 30
0.0
 11
-68.4
 21
80.0
 31
0.0
  0
LINE
  5
424
330
351
100
AcDbEntity
  8
SK2
 62
     0
100
AcDbLine
 10
0.0
 20
22.225
 30
0.0
 11
0.0000000000000035
 21
80.0
 31
0.0
  0
LINE
  5
425
330
351
100
AcDbEntity
  8
SK2
 62
     0
100
AcDbLine
 10
-63.83
 20
75.0
 30
0.0
 11
-4.569999999999996
 21
75.0
 31
0.0
  0
SOLID
  5
426
330
351
100
AcDbEntity
  8
SK2
 62
     0
100
AcDbTrace
 10
-63.83
 20
75.76166666666667
 30
0.0
 11
-63.83
 21
74.23833333333333
 31
0.0
 12
-68.4
 22
75.0
 32
0.0
 13
-68.4
 23
75.0
 33
0.0
  0
SOLID
  5
427
330
351
100
AcDbEntity
  8
SK2
 62
     0
100
AcDbTrace
 10
-4.569999999999996
 20
75.76166666666667
 30
0.0
 11
-4.569999999999996
 21
74.23833333333333
 31
0.0
 12
0.0000000000000032
 22
75.0
 32
0.0
 13
0.0000000000000032
 23
75.0
 33
0.0
  0
MTEXT
  5
428
330
351
100
AcDbEntity
  8
SK2
 62
     0
100
AcDbMText
 10
-34.2
 20
79.58499999999999
 30
0.0
 40
4.57
 41
0.0
 71
     5
 72
     1
  1
\A1;68.4
  7
SIMPLEX
1001
ACAD
1000
MTEXTBEGIN
1070
    73
1070
     1
1070
    44
1040
1.0
1070
    74
1070
     0
1000
MTEXTEND
  0
POINT
  5
429
330
351
100
AcDbEntity
  8
DEFPOINTS
 62
     0
100
AcDbPoint
 10
-68.4
 20
11.45313
 30
0.0
  0
POINT
  5
42A
330
351
100
AcDbEntity
  8
DEFPOINTS
 62
     0
100
AcDbPoint
 10
0.0
 20
22.225
 30
0.0
  0
POINT
  5
42B
330
351
100
AcDbEntity
  8
DEFPOINTS
 62
     0
100
AcDbPoint
 10
0.0000000000000032
 20
75.0
 30
0.0
  0
ENDBLK
  5
35C
330
351
100
AcDbEntity
  8
0
100
AcDbBlockEnd
  0
BLOCK
  5
368
330
35D
100
AcDbEntity
  8
0
100
AcDbBlockBegin
  2
*D2
 70
     1
 10
0.0
 20
0.0
 30
0.0
  3
*D2
  1

  0
LINE
  5
42C
330
35D
100
AcDbEntity
  8
SK2
 62
     0
100
AcDbLine
 10
-59.51133
 20
-7.999999999999999
 30
0.0
 11
-88.95000000000001
 21
-7.999999999999991
 31
0.0
  0
LINE
  5
42D
330
35D
100
AcDbEntity
  8
SK2
 62
     0
100
AcDbLine
 10
-59.51133
 20
8.0
 30
0.0
 11
-88.95000000000001
 21
8.000000000000008
 31
0.0
  0
LINE
  5
42E
330
35D
100
AcDbEntity
  8
SK2
 62
     0
100
AcDbLine
 10
-83.95000000000001
 20
-3.429999999999991
 30
0.0
 11
-83.95000000000001
 21
3.430000000000006
 31
0.0
  0
LINE
  5
42F
330
35D
100
AcDbEntity
  8
SK2
 62
     0
100
AcDbLine
 10
-83.95000000000001
 20
8.000000000000007
 30
0.0
 11
-83.95000000000001
 21
28.70380952380953
 31
0.0
  0
SOLID
  5
430
330
35D
100
AcDbEntity
  8
SK2
 62
     0
100
AcDbTrace
 10
-84.71166666666666
 20
-3.429999999999991
 30
0.0
 11
-83.18833333333333
 21
-3.429999999999991
 31
0.0
 12
-83.95000000000001
 22
-7.999999999999992
 32
0.0
 13
-83.95000000000001
 23
-7.999999999999992
 33
0.0
  0
SOLID
  5
431
330
35D
100
AcDbEntity
  8
SK2
 62
     0
100
AcDbTrace
 10
-84.71166666666666
 20
3.430000000000006
 30
0.0
 11
-83.18833333333333
 21
3.430000000000006
 31
0.0
 12
-83.95000000000001
 22
8.000000000000007
 32
0.0
 13
-83.95000000000001
 23
8.000000000000007
 33
0.0
  0
MTEXT
  5
432
330
35D
100
AcDbEntity
  8
SK2
 62
     0
100
AcDbMText
 10
-88.535
 20
20.63690476190476
 30
0.0
 40
4.57
 41
0.0
 71
     5
 72
     1
  1
\A1;M16
  7
SIMPLEX
 11
0.0000000000000001
 21
1.0
 31
0.0
1001
ACAD
1000
MTEXTBEGIN
1070
    73
1070
     1
1070
    44
1040
1.0
1070
    74
1070
     0
1000
MTEXTEND
  0
POINT
  5
433
330
35D
100
AcDbEntity
  8
DEFPOINTS
 62
     0
100
AcDbPoint
 10
-59.51133
 20
-7.999999999999999
 30
0.0
  0
POINT
  5
434
330
35D
100
AcDbEntity
  8
DEFPOINTS
 62
     0
100
AcDbPoint
 10
-59.51133
 20
8.0
 30
0.0
  0
POINT
  5
435
330
35D
100
AcDbEntity
  8
DEFPOINTS
 62
     0
100
AcDbPoint
 10
-83.95000000000001
 20
8.000000000000007
 30
0.0
  0
ENDBLK
  5
369
330
35D
100
AcDbEntity
  8
0
100
AcDbBlockEnd
  0
BLOCK
  5
374
330
36A
100
AcDbEntity
  8
0
100
AcDbBlockBegin
  2
*D3
 70
     1
 10
0.0
 20
0.0
 30
0.0
  3
*D3
  1

  0
LINE
  5
436
330
36A
100
AcDbEntity
  8
SK2
 62
     0
100
AcDbLine
 10
0.0
 20
22.225
 30
0.0
 11
-10.94999999999999
 21
22.225
 31
0.0
  0
LINE
  5
437
330
36A
100
AcDbEntity
  8
SK2
 62
     0
100
AcDbLine
 10
0.0
 20
-22.225
 30
0.0
 11
-10.95
 21
-22.22499999999999
 31
0.0
  0
LINE
  5
438
330
36A
100
AcDbEntity
  8
SK2
 62
     0
100
AcDbLine
 10
-5.949999999999993
 20
17.655
 30
0.0
 11
-5.950000000000001
 21
-17.655
 31
0.0
  0
SOLID
  5
439
330
36A
100
AcDbEntity
  8
SK2
 62
     0
100
AcDbTrace
 10
-6.71166666666666
 20
17.655
 30
0.0
 11
-5.188333333333327
 21
17.655
 31
0.0
 12
-5.949999999999992
 22
22.225
 32
0.0
 13
-5.949999999999992
 23
22.225
 33
0.0
  0
SOLID
  5
43A
330
36A
100
AcDbEntity
  8
SK2
 62
     0
100
AcDbTrace
 10
-6.711666666666667
 20
-17.655
 30
0.0
 11
-5.188333333333334
 21
-17.655
 31
0.0
 12
-5.950000000000002
 22
-22.225
 32
0.0
 13
-5.950000000000002
 23
-22.225
 33
0.0
  0
MTEXT
  5
43B
330
36A
100
AcDbEntity
  8
SK2
 62
     0
100
AcDbMText
 10
-10.53499999999999
 20
0.0000000000000009
 30
0.0
 40
4.57
 41
0.0
 71
     5
 72
     1
  1
\A1;%%C44.45
  7
SIMPLEX
 11
0.0000000000000001
 21
1.0
 31
0.0
1001
ACAD
1000
MTEXTBEGIN
1070
    73
1070
     1
1070
    44
1040
1.0
1070
    74
1070
     0
1000
MTEXTEND
  0
POINT
  5
43C
330
36A
100
AcDbEntity
  8
DEFPOINTS
 62
     0
100
AcDbPoint
 10
0.0
 20
22.225
 30
0.0
  0
POINT
  5
43D
330
36A
100
AcDbEntity
  8
DEFPOINTS
 62
     0
100
AcDbPoint
 10
0.0
 20
-22.225
 30
0.0
  0
POINT
  5
43E
330
36A
100
AcDbEntity
  8
DEFPOINTS
 62
     0
100
AcDbPoint
 10
-5.950000000000002
 20
-22.225
 30
0.0
  0
ENDBLK
  5
375
330
36A
100
AcDbEntity
  8
0
100
AcDbBlockEnd
  0
BLOCK
  5
449
330
43F
100
AcDbEntity
  8
0
100
AcDbBlockBegin
  2
*D4
 70
     1
 10
0.0
 20
0.0
 30
0.0
  3
*D4
  1

  0
LINE
  5
440
330
43F
100
AcDbEntity
  8
0
  6
BYBLOCK
 62
     0
100
AcDbLine
 10
0.0
 20
22.225
 30
0.0
 11
0.0
 21
80.0
 31
0.0
  0
LINE
  5
441
330
43F
100
AcDbEntity
  8
0
  6
BYBLOCK
 62
     0
100
AcDbLine
 10
27.0
 20
30.88853
 30
0.0
 11
27.0
 21
80.0
 31
0.0
  0
LINE
  5
442
330
43F
100
AcDbEntity
  8
0
  6
BYBLOCK
 62
     0
100
AcDbLine
 10
4.57
 20
75.0
 30
0.0
 11
22.42999999999999
 21
75.0
 31
0.0
  0
SOLID
  5
443
330
43F
100
AcDbEntity
  8
0
  6
BYBLOCK
 62
     0
100
AcDbTrace
 10
4.57
 20
75.76166666666667
 30
0.0
 11
4.57
 21
74.23833333333333
 31
0.0
 12
0.0
 22
75.0
 32
0.0
 13
0.0
 23
75.0
 33
0.0
  0
SOLID
  5
444
330
43F
100
AcDbEntity
  8
0
  6
BYBLOCK
 62
     0
100
AcDbTrace
 10
22.42999999999999
 20
75.76166666666667
 30
0.0
 11
22.42999999999999
 21
74.23833333333333
 31
0.0
 12
27.0
 22
75.0
 32
0.0
 13
27.0
 23
75.0
 33
0.0
  0
TEXT
  5
445
330
43F
100
AcDbEntity
  8
0
  6
BYBLOCK
 62
     0
100
AcDbText
 10
9.800476190476189
 20
77.285
 30
0.0
 40
4.57
  1
27
  7
SIMPLEX
 72
     1
 11
13.5
 21
79.56999999999999
 31
0.0
100
AcDbText
 73
     2
  0
POINT
  5
446
330
43F
100
AcDbEntity
  8
DEFPOINTS
  6
BYBLOCK
 62
     0
100
AcDbPoint
 10
0.0
 20
22.225
 30
0.0
  0
POINT
  5
447
330
43F
100
AcDbEntity
  8
DEFPOINTS
  6
BYBLOCK
 62
     0
100
AcDbPoint
 10
27.0
 20
30.88853
 30
0.0
  0
POINT
  5
448
330
43F
100
AcDbEntity
  8
DEFPOINTS
  6
BYBLOCK
 62
     0
100
AcDbPoint
 10
27.0
 20
75.0
 30
0.0
  0
ENDBLK
  5
44A
330
43F
100
AcDbEntity
  8
0
100
AcDbBlockEnd
  0
BLOCK
  5
455
330
44B
100
AcDbEntity
  8
0
100
AcDbBlockBegin
  2
*D5
 70
     1
 10
0.0
 20
0.0
 30
0.0
  3
*D5
  1

  0
LINE
  5
44C
330
44B
100
AcDbEntity
  8
0
  6
BYBLOCK
 62
     0
100
AcDbLine
 10
-65.4
 20
11.82259999958979
 30
0.0
 11
-65.4
 21
80.00000000000001
 31
0.0
  0
LINE
  5
44D
330
44B
100
AcDbEntity
  8
0
  6
BYBLOCK
 62
     0
100
AcDbLine
 10
0.0
 20
22.225
 30
0.0
 11
0.0
 21
80.0
 31
0.0
  0
LINE
  5
44E
330
44B
100
AcDbEntity
  8
0
  6
BYBLOCK
 62
     0
100
AcDbLine
 10
-60.83000000000001
 20
75.0
 30
0.0
 11
-4.57
 21
75.0
 31
0.0
  0
SOLID
  5
44F
330
44B
100
AcDbEntity
  8
0
  6
BYBLOCK
 62
     0
100
AcDbTrace
 10
-60.83000000000001
 20
75.76166666666667
 30
0.0
 11
-60.83000000000001
 21
74.23833333333333
 31
0.0
 12
-65.4
 22
75.0
 32
0.0
 13
-65.4
 23
75.0
 33
0.0
  0
SOLID
  5
450
330
44B
100
AcDbEntity
  8
0
  6
BYBLOCK
 62
     0
100
AcDbTrace
 10
-4.57
 20
75.76166666666667
 30
0.0
 11
-4.57
 21
74.23833333333333
 31
0.0
 12
0.0
 22
75.0
 32
0.0
 13
0.0
 23
75.0
 33
0.0
  0
TEXT
  5
451
330
44B
100
AcDbEntity
  8
0
  6
BYBLOCK
 62
     0
100
AcDbText
 10
-39.77261904761905
 20
77.285
 30
0.0
 40
4.57
  1
65.4
  7
SIMPLEX
 72
     1
 11
-32.7
 21
79.56999999999999
 31
0.0
100
AcDbText
 73
     2
  0
POINT
  5
452
330
44B
100
AcDbEntity
  8
DEFPOINTS
  6
BYBLOCK
 62
     0
100
AcDbPoint
 10
-65.4
 20
11.82259999958979
 30
0.0
  0
POINT
  5
453
330
44B
100
AcDbEntity
  8
DEFPOINTS
  6
BYBLOCK
 62
     0
100
AcDbPoint
 10
0.0
 20
22.225
 30
0.0
  0
POINT
  5
454
330
44B
100
AcDbEntity
  8
DEFPOINTS
  6
BYBLOCK
 62
     0
100
AcDbPoint
 10
0.0
 20
75.0
 30
0.0
  0
ENDBLK
  5
456
330
44B
100
AcDbEntity
  8
0
100
AcDbBlockEnd
  0
BLOCK
  5
461
330
457
100
AcDbEntity
  8
0
100
AcDbBlockBegin
  2
*D6
 70
     1
 10
0.0
 20
0.0
 30
0.0
  3
*D6
  1

  0
LINE
  5
458
330
457
100
AcDbEntity
  8
0
  6
BYBLOCK
 62
     0
100
AcDbLine
 10
0.0
 20
22.225
 30
0.0
 11
-10.0
 21
22.225
 31
0.0
  0
LINE
  5
459
330
457
100
AcDbEntity
  8
0
  6
BYBLOCK
 62
     0
100
AcDbLine
 10
0.0
 20
-22.225
 30
0.0
 11
-10.0
 21
-22.225
 31
0.0
  0
LINE
  5
45A
330
457
100
AcDbEntity
  8
0
  6
BYBLOCK
 62
     0
100
AcDbLine
 10
-5.0
 20
17.655
 30
0.0
 11
-5.0
 21
-17.655
 31
0.0
  0
SOLID
  5
45B
330
457
100
AcDbEntity
  8
0
  6
BYBLOCK
 62
     0
100
AcDbTrace
 10
-5.761666666666666
 20
17.655
 30
0.0
 11
-4.238333333333333
 21
17.655
 31
0.0
 12
-5.0
 22
22.225
 32
0.0
 13
-5.0
 23
22.225
 33
0.0
  0
SOLID
  5
45C
330
457
100
AcDbEntity
  8
0
  6
BYBLOCK
 62
     0
100
AcDbTrace
 10
-5.761666666666666
 20
-17.655
 30
0.0
 11
-4.238333333333333
 21
-17.655
 31
0.0
 12
-5.0
 22
-22.225
 32
0.0
 13
-5.0
 23
-22.225
 33
0.0
  0
TEXT
  5
45D
330
457
100
AcDbEntity
  8
0
  6
BYBLOCK
 62
     0
100
AcDbText
 10
-7.285
 20
-11.20738095238095
 30
0.0
 40
4.57
  1
%%C44.45
 50
90.0
  7
SIMPLEX
 72
     1
 11
-9.57
 21
0.0
 31
0.0
100
AcDbText
 73
     2
  0
POINT
  5
45E
330
457
100
AcDbEntity
  8
DEFPOINTS
  6
BYBLOCK
 62
     0
100
AcDbPoint
 10
0.0
 20
22.225
 30
0.0
  0
POINT
  5
45F
330
457
100
AcDbEntity
  8
DEFPOINTS
  6
BYBLOCK
 62
     0
100
AcDbPoint
 10
0.0
 20
-22.225
 30
0.0
  0
POINT
  5
460
330
457
100
AcDbEntity
  8
DEFPOINTS
  6
BYBLOCK
 62
     0
100
AcDbPoint
 10
-5.0
 20
-22.225
 30
0.0
  0
ENDBLK
  5
462
330
457
100
AcDbEntity
  8
0
100
AcDbBlockEnd
  0
BLOCK
  5
46D
330
463
100
AcDbEntity
  8
0
100
AcDbBlockBegin
  2
*D7
 70
     1
 10
0.0
 20
0.0
 30
0.0
  3
*D7
  1

  0
LINE
  5
464
330
463
100
AcDbEntity
  8
0
  6
BYBLOCK
 62
     0
100
AcDbLine
 10
2.599999999999994
 20
-31.48846999999999
 30
0.0
 11
-100.0
 21
-31.48846999999999
 31
0.0
  0
LINE
  5
465
330
463
100
AcDbEntity
  8
0
  6
BYBLOCK
 62
     0
100
AcDbLine
 10
2.599999999999994
 20
31.48852999999999
 30
0.0
 11
-100.0
 21
31.48852999999999
 31
0.0
  0
LINE
  5
466
330
463
100
AcDbEntity
  8
0
  6
BYBLOCK
 62
     0
100
AcDbLine
 10
-95.0
 20
-26.91847
 30
0.0
 11
-95.0
 21
26.91853
 31
0.0
  0
SOLID
  5
467
330
463
100
AcDbEntity
  8
0
  6
BYBLOCK
 62
     0
100
AcDbTrace
 10
-95.76166666666667
 20
-26.91847
 30
0.0
 11
-94.23833333333332
 21
-26.91847
 31
0.0
 12
-95.0
 22
-31.48846999999999
 32
0.0
 13
-95.0
 23
-31.48846999999999
 33
0.0
  0
SOLID
  5
468
330
463
100
AcDbEntity
  8
0
  6
BYBLOCK
 62
     0
100
AcDbTrace
 10
-95.76166666666667
 20
26.91853
 30
0.0
 11
-94.23833333333332
 21
26.91853
 31
0.0
 12
-95.0
 22
31.48852999999999
 32
0.0
 13
-95.0
 23
31.48852999999999
 33
0.0
  0
TEXT
  5
469
330
463
100
AcDbEntity
  8
0
  6
BYBLOCK
 62
     0
100
AcDbText
 10
-97.285
 20
-11.20735095238095
 30
0.0
 40
4.57
  1
%%C62.98
 50
90.0
  7
SIMPLEX
 72
     1
 11
-99.57
 21
0.0000299999999989
 31
0.0
100
AcDbText
 73
     2
  0
POINT
  5
46A
330
463
100
AcDbEntity
  8
DEFPOINTS
  6
BYBLOCK
 62
     0
100
AcDbPoint
 10
2.599999999999994
 20
-31.48846999999999
 30
0.0
  0
POINT
  5
46B
330
463
100
AcDbEntity
  8
DEFPOINTS
  6
BYBLOCK
 62
     0
100
AcDbPoint
 10
2.599999999999994
 20
31.48852999999999
 30
0.0
  0
POINT
  5
46C
330
463
100
AcDbEntity
  8
DEFPOINTS
  6
BYBLOCK
 62
     0
100
AcDbPoint
 10
-95.0
 20
31.48852999999999
 30
0.0
  0
ENDBLK
  5
46E
330
463
100
AcDbEntity
  8
0
100
AcDbBlockEnd
  0
BLOCK
  5
47B
330
46F
100
AcDbEntity
  8
0
100
AcDbBlockBegin
  2
*D8
 70
     1
 10
0.0
 20
0.0
 30
0.0
  3
*D8
  1

  0
LINE
  5
470
330
46F
100
AcDbEntity
  8
0
  6
BYBLOCK
 62
     0
100
AcDbLine
 10
-55.85746999999999
 20
8.0
 30
0.0
 11
-85.0
 21
8.0
 31
0.0
  0
LINE
  5
471
330
46F
100
AcDbEntity
  8
0
  6
BYBLOCK
 62
     0
100
AcDbLine
 10
-55.85746999999999
 20
-8.0
 30
0.0
 11
-85.0
 21
-8.0
 31
0.0
  0
LINE
  5
472
330
46F
100
AcDbEntity
  8
0
  6
BYBLOCK
 62
     0
100
AcDbLine
 10
-80.0
 20
12.57
 30
0.0
 11
-80.0
 21
17.14
 31
0.0
  0
LINE
  5
473
330
46F
100
AcDbEntity
  8
0
  6
BYBLOCK
 62
     0
100
AcDbLine
 10
-80.0
 20
-12.57
 30
0.0
 11
-80.0
 21
-17.14
 31
0.0
  0
LINE
  5
474
330
46F
100
AcDbEntity
  8
0
  6
BYBLOCK
 62
     0
100
AcDbLine
 10
-80.0
 20
-17.14
 30
0.0
 11
-80.0
 21
-28.76380952380952
 31
0.0
  0
SOLID
  5
475
330
46F
100
AcDbEntity
  8
0
  6
BYBLOCK
 62
     0
100
AcDbTrace
 10
-80.76166666666667
 20
12.57
 30
0.0
 11
-79.23833333333333
 21
12.57
 31
0.0
 12
-80.0
 22
8.0
 32
0.0
 13
-80.0
 23
8.0
 33
0.0
  0
SOLID
  5
476
330
46F
100
AcDbEntity
  8
0
  6
BYBLOCK
 62
     0
100
AcDbTrace
 10
-80.76166666666667
 20
-12.57
 30
0.0
 11
-79.23833333333333
 21
-12.57
 31
0.0
 12
-80.0
 22
-8.0
 32
0.0
 13
-80.0
 23
-8.0
 33
0.0
  0
TEXT
  5
477
330
46F
100
AcDbEntity
  8
0
  6
BYBLOCK
 62
     0
100
AcDbText
 10
-82.285
 20
-28.76380952380952
 30
0.0
 40
4.57
  1
M16
 50
90.0
  7
SIMPLEX
 72
     1
 11
-84.56999999999998
 21
-22.99690476190476
 31
0.0
100
AcDbText
 73
     2
  0
POINT
  5
478
330
46F
100
AcDbEntity
  8
DEFPOINTS
  6
BYBLOCK
 62
     0
100
AcDbPoint
 10
-55.85746999999999
 20
8.0
 30
0.0
  0
POINT
  5
479
330
46F
100
AcDbEntity
  8
DEFPOINTS
  6
BYBLOCK
 62
     0
100
AcDbPoint
 10
-55.85746999999999
 20
-8.0
 30
0.0
  0
POINT
  5
47A
330
46F
100
AcDbEntity
  8
DEFPOINTS
  6
BYBLOCK
 62
     0
100
AcDbPoint
 10
-80.0
 20
-8.0
 30
0.0
  0
ENDBLK
  5
47C
330
46F
100
AcDbEntity
  8
0
100
AcDbBlockEnd
  0
BLOCK
  5
4C8
330
47D
100
AcDbEntity
  8
0
100
AcDbBlockBegin
  2
MASBT40
 70
     0
 10
0.0
 20
0.0
 30
0.0
  3
MASBT40
  1

  0
DIMENSION
  5
47E
330
47D
100
AcDbEntity
  8
SK2
100
AcDbDimension
  2
*D4
 10
27.0
 20
75.0
 30
0.0
 11
13.5
 21
79.56999999999999
 31
0.0
  3
STANDARD
100
AcDbAlignedDimension
 13
0.0
 23
22.225
 33
0.0
 14
27.0
 24
30.88853
 34
0.0
100
AcDbRotatedDimension
  0
DIMENSION
  5
47F
330
47D
100
AcDbEntity
  8
SK2
100
AcDbDimension
  2
*D5
 10
0.0
 20
75.0
 30
0.0
 11
-32.7
 21
79.56999999999999
 31
0.0
  3
STANDARD
100
AcDbAlignedDimension
 13
-65.4
 23
11.82259999958979
 33
0.0
 14
0.0
 24
22.225
 34
0.0
100
AcDbRotatedDimension
  0
LINE
  5
480
330
47D
100
AcDbEntity
  8
SK4
100
AcDbLine
 10
-2.0
 20
0.0
 30
0.0
 11
27.0
 21
0.0
 31
0.0
  0
DIMENSION
  5
481
330
47D
100
AcDbEntity
  8
SK2
100
AcDbDimension
  2
*D6
 10
-5.0
 20
-22.225
 30
0.0
 11
-9.57
 21
0.0
 31
0.0
  1
%%C44.45
  3
STANDARD
100
AcDbAlignedDimension
 13
0.0
 23
22.225
 33
0.0
 14
0.0
 24
-22.225
 34
0.0
 50
90.0
100
AcDbRotatedDimension
  0
DIMENSION
  5
482
330
47D
100
AcDbEntity
  8
SK2
100
AcDbDimension
  2
*D7
 10
-95.0
 20
31.48852999999999
 30
0.0
 11
-99.57
 21
0.0000299999999989
 31
0.0
  1
%%C62.98
  3
STANDARD
100
AcDbAlignedDimension
 13
2.599999999999994
 23
-31.48846999999999
 33
0.0
 14
2.599999999999994
 24
31.48852999999999
 34
0.0
 50
90.0
100
AcDbRotatedDimension
  0
DIMENSION
  5
483
330
47D
100
AcDbEntity
  8
SK2
100
AcDbDimension
  2
*D8
 10
-80.0
 20
-8.0
 30
0.0
 11
-84.56999999999998
 21
-22.99690476190476
 31
0.0
  1
M16
  3
STANDARD
100
AcDbAlignedDimension
 13
-55.85746999999999
 23
8.0
 33
0.0
 14
-55.85746999999999
 24
-8.0
 34
0.0
 50
90.0
100
AcDbRotatedDimension
  0
TEXT
  5
484
330
47D
100
AcDbEntity
  8
6
100
AcDbText
 10
-46.0
 20
10.0
 30
0.0
 40
3.0
  1
SK40 MAS-BT
  7
SIMPLEX
100
AcDbText
  0
ARC
  5
485
330
47D
100
AcDbEntity
  8
1
  6
CONTINUOUS
 62
     4
100
AcDbCircle
 10
15.0
 20
-0.0500000000000008
 30
0.0
 40
8.0
100
AcDbArc
 50
270.0
 51
0.0000000000000057
  0
LINE
  5
486
330
47D
100
AcDbEntity
  8
1
  6
CONTINUOUS
 62
     4
100
AcDbLine
 10
14.09999999999999
 20
-27.1582
 30
0.0
 11
11.59993
 21
-31.48846999999999
 31
0.0
  0
LINE
  5
487
330
47D
100
AcDbEntity
  8
1
  6
CONTINUOUS
 62
     4
100
AcDbLine
 10
19.09999999999999
 20
-27.1582
 30
0.0
 11
21.60007
 21
-31.48846999999999
 31
0.0
  0
LINE
  5
488
330
47D
100
AcDbEntity
  8
1
  6
CONTINUOUS
 62
     4
100
AcDbLine
 10
23.0
 20
0.0
 30
0.0
 11
23.0
 21
-0.0499999999999972
 31
0.0
  0
LINE
  5
489
330
47D
100
AcDbEntity
  8
1
  6
CONTINUOUS
 62
     4
100
AcDbLine
 10
21.60007
 20
-31.48846999999999
 30
0.0
 11
26.4
 21
-31.48846999999999
 31
0.0
  0
LINE
  5
48A
330
47D
100
AcDbEntity
  8
1
  6
CONTINUOUS
 62
     4
100
AcDbLine
 10
14.09999999999999
 20
-26.5
 30
0.0
 11
19.09999999999999
 21
-26.5
 31
0.0
  0
LINE
  5
48B
330
47D
100
AcDbEntity
  8
1
  6
CONTINUOUS
 62
     4
100
AcDbLine
 10
2.0
 20
-8.05
 30
0.0
 11
15.0
 21
-8.05
 31
0.0
  0
LINE
  5
48C
330
47D
100
AcDbEntity
  8
1
  6
CONTINUOUS
 62
     4
100
AcDbLine
 10
27.0
 20
0.0
 30
0.0
 11
27.0
 21
-30.88853
 31
0.0
  0
LINE
  5
48D
330
47D
100
AcDbEntity
  8
1
  6
CONTINUOUS
 62
     4
100
AcDbLine
 10
-64.54433
 20
-12.81213
 30
0.0
 11
0.0
 21
-22.225
 31
0.0
  0
LINE
  5
48E
330
47D
100
AcDbEntity
  8
1
  6
CONTINUOUS
 62
     4
100
AcDbLine
 10
0.3799999999999954
 20
-21.94999999999999
 30
0.0
 11
1.599999999999994
 21
-21.94999999999999
 31
0.0
  0
ARC
  5
48F
330
47D
100
AcDbEntity
  8
1
  6
CONTINUOUS
 62
     4
100
AcDbCircle
 10
-64.39999980755004
 20
-11.8226002225565
 30
0.0
 40
1.000000192449984
100
AcDbArc
 50
179.9999872484539
 51
261.7015075593027
  0
LINE
  5
490
330
47D
100
AcDbEntity
  8
1
  6
CONTINUOUS
 62
     4
100
AcDbLine
 10
0.0
 20
0.0
 30
0.0
 11
0.0
 21
-22.225
 31
0.0
  0
LINE
  5
491
330
47D
100
AcDbEntity
  8
1
  6
CONTINUOUS
 62
     4
100
AcDbLine
 10
-65.4
 20
0.0
 30
0.0
 11
-65.4
 21
-11.8226
 31
0.0
  0
LINE
  5
492
330
47D
100
AcDbEntity
  8
SK3
100
AcDbLine
 10
-18.3586
 20
0.0
 30
0.0
 11
-22.39999999999999
 21
7.0
 31
0.0
  0
ARC
  5
493
330
47D
100
AcDbEntity
  8
1
  6
CONTINUOUS
 62
     4
100
AcDbCircle
 10
15.0
 20
0.0500000000000004
 30
0.0
 40
8.0
100
AcDbArc
 50
0.0000000235031032
 51
90.00000002350311
  0
LINE
  5
494
330
47D
100
AcDbEntity
  8
1
  6
CONTINUOUS
 62
     4
100
AcDbLine
 10
-64.54433
 20
12.81212999999999
 30
0.0
 11
0.0
 21
22.225
 31
0.0
  0
LINE
  5
495
330
47D
100
AcDbEntity
  8
SK3
100
AcDbLine
 10
-55.28006999999999
 20
7.0
 30
0.0
 11
-22.39999999999999
 21
7.0
 31
0.0
  0
LINE
  5
496
330
47D
100
AcDbEntity
  8
SK3
100
AcDbLine
 10
-63.67952999999999
 20
8.506799999999998
 30
0.0
 11
-65.4
 21
9.5
 31
0.0
  0
LINE
  5
497
330
47D
100
AcDbEntity
  8
SK3
100
AcDbLine
 10
-22.39999999999999
 20
0.0
 30
0.0
 11
-22.39999999999999
 21
7.0
 31
0.0
  0
LINE
  5
498
330
47D
100
AcDbEntity
  8
SK3
100
AcDbLine
 10
-35.4
 20
0.0
 30
0.0
 11
-35.4
 21
8.0
 31
0.0
  0
LINE
  5
499
330
47D
100
AcDbEntity
  8
SK3
100
AcDbLine
 10
-56.15000000000001
 20
0.0
 30
0.0
 11
-56.15000000000001
 21
8.506799999999998
 31
0.0
  0
LINE
  5
49A
330
47D
100
AcDbEntity
  8
SK3
100
AcDbLine
 10
-55.28006999999999
 20
7.0
 30
0.0
 11
-56.15000000000001
 21
8.506730000000004
 31
0.0
  0
LINE
  5
49B
330
47D
100
AcDbEntity
  8
1
  6
CONTINUOUS
 62
     4
100
AcDbLine
 10
11.59993
 20
31.48852999999999
 30
0.0
 11
11.59993
 21
8.049999999999997
 31
0.0
  0
LINE
  5
49C
330
47D
100
AcDbEntity
  8
1
  6
CONTINUOUS
 62
     4
100
AcDbLine
 10
14.09999999999999
 20
27.15827
 30
0.0
 11
11.59993
 21
31.48852999999999
 31
0.0
  0
LINE
  5
49D
330
47D
100
AcDbEntity
  8
1
  6
CONTINUOUS
 62
     4
100
AcDbLine
 10
19.09999999999999
 20
27.15827
 30
0.0
 11
21.60007
 21
31.48852999999999
 31
0.0
  0
LINE
  5
49E
330
47D
100
AcDbEntity
  8
1
  6
CONTINUOUS
 62
     4
100
AcDbLine
 10
23.0
 20
0.0
 30
0.0
 11
23.0
 21
0.0499999999999972
 31
0.0
  0
LINE
  5
49F
330
47D
100
AcDbEntity
  8
1
  6
CONTINUOUS
 62
     4
100
AcDbLine
 10
21.60007
 20
31.48852999999999
 30
0.0
 11
26.4
 21
31.48852999999999
 31
0.0
  0
LINE
  5
4A0
330
47D
100
AcDbEntity
  8
1
  6
CONTINUOUS
 62
     4
100
AcDbLine
 10
2.599999999999994
 20
31.48852999999999
 30
0.0
 11
11.59993
 21
31.48852999999999
 31
0.0
  0
LINE
  5
4A1
330
47D
100
AcDbEntity
  8
1
  6
CONTINUOUS
 62
     4
100
AcDbLine
 10
2.0
 20
8.049999999999997
 30
0.0
 11
15.0
 21
8.049999999999997
 31
0.0
  0
LINE
  5
4A2
330
47D
100
AcDbEntity
  8
1
  6
CONTINUOUS
 62
     4
100
AcDbLine
 10
27.0
 20
0.0
 30
0.0
 11
27.0
 21
30.88853
 31
0.0
  0
ARC
  5
4A3
330
47D
100
AcDbEntity
  8
1
  6
CONTINUOUS
 62
     4
100
AcDbCircle
 10
-64.39999980755004
 20
11.8226002225565
 30
0.0
 40
1.000000192449984
100
AcDbArc
 50
98.29849246420042
 51
180.0000127750492
  0
LINE
  5
4A4
330
47D
100
AcDbEntity
  8
1
  6
CONTINUOUS
 62
     4
100
AcDbLine
 10
2.0
 20
0.0
 30
0.0
 11
2.0
 21
30.88853
 31
0.0
  0
LINE
  5
4A5
330
47D
100
AcDbEntity
  8
1
  6
CONTINUOUS
 62
     4
100
AcDbLine
 10
0.0
 20
0.0
 30
0.0
 11
0.0
 21
22.225
 31
0.0
  0
LINE
  5
4A6
330
47D
100
AcDbEntity
  8
1
  6
CONTINUOUS
 62
     4
100
AcDbLine
 10
14.09999999999999
 20
-8.05
 30
0.0
 11
14.09999999999999
 21
-27.1582
 31
0.0
  0
LINE
  5
4A7
330
47D
100
AcDbEntity
  8
1
  6
CONTINUOUS
 62
     4
100
AcDbLine
 10
19.09999999999999
 20
-6.919469999999996
 30
0.0
 11
19.09999999999999
 21
-27.1582
 31
0.0
  0
LINE
  5
4A8
330
47D
100
AcDbEntity
  8
1
  6
CONTINUOUS
 62
     4
100
AcDbLine
 10
14.09999999999999
 20
8.049999999999997
 30
0.0
 11
14.09999999999999
 21
27.15827
 31
0.0
  0
LINE
  5
4A9
330
47D
100
AcDbEntity
  8
1
  6
CONTINUOUS
 62
     4
100
AcDbLine
 10
19.09999999999999
 20
6.919469999999996
 30
0.0
 11
19.09999999999999
 21
27.15827
 31
0.0
  0
LINE
  5
4AA
330
47D
100
AcDbEntity
  8
1
  6
CONTINUOUS
 62
     4
100
AcDbLine
 10
-65.4
 20
0.0
 30
0.0
 11
-65.4
 21
11.8226
 31
0.0
  0
LINE
  5
4AB
330
47D
100
AcDbEntity
  8
1
  6
CONTINUOUS
 62
     4
100
AcDbLine
 10
2.599999999999994
 20
-31.48846999999999
 30
0.0
 11
11.59993
 21
-31.48846999999999
 31
0.0
  0
LINE
  5
4AC
330
47D
100
AcDbEntity
  8
1
  6
CONTINUOUS
 62
     4
100
AcDbLine
 10
14.09999999999999
 20
26.5
 30
0.0
 11
19.09999999999999
 21
26.5
 31
0.0
  0
LINE
  5
4AD
330
47D
100
AcDbEntity
  8
1
  6
CONTINUOUS
 62
     4
100
AcDbLine
 10
21.60007
 20
31.48852999999999
 30
0.0
 11
21.60007
 21
4.570930000000004
 31
0.0
  0
LINE
  5
4AE
330
47D
100
AcDbEntity
  8
1
  6
CONTINUOUS
 62
     4
100
AcDbLine
 10
0.3799999999999954
 20
21.95
 30
0.0
 11
1.599999999999994
 21
21.95
 31
0.0
  0
LINE
  5
4AF
330
47D
100
AcDbEntity
  8
1
  6
CONTINUOUS
 62
     4
100
AcDbLine
 10
2.0
 20
0.0
 30
0.0
 11
2.0
 21
-30.88853
 31
0.0
  0
LINE
  5
4B0
330
47D
100
AcDbEntity
  8
SK3
100
AcDbLine
 10
-63.67952999999999
 20
8.506799999999998
 30
0.0
 11
-56.15000000000001
 21
8.506799999999998
 31
0.0
  0
LINE
  5
4B1
330
47D
100
AcDbEntity
  8
SK3
100
AcDbLine
 10
-63.67952999999999
 20
8.506799999999998
 30
0.0
 11
-63.67952999999999
 21
-8.506799999999998
 31
0.0
  0
LINE
  5
4B2
330
47D
100
AcDbEntity
  8
SK3
100
AcDbLine
 10
-18.3586
 20
0.0
 30
0.0
 11
-22.39999999999999
 21
-7.0
 31
0.0
  0
LINE
  5
4B3
330
47D
100
AcDbEntity
  8
SK3
100
AcDbLine
 10
-55.28006999999999
 20
-7.0
 30
0.0
 11
-22.39999999999999
 21
-7.0
 31
0.0
  0
LINE
  5
4B4
330
47D
100
AcDbEntity
  8
SK3
100
AcDbLine
 10
-63.67967
 20
-8.506799999999998
 30
0.0
 11
-65.4
 21
-9.5
 31
0.0
  0
LINE
  5
4B5
330
47D
100
AcDbEntity
  8
SK3
100
AcDbLine
 10
-63.67967
 20
-8.506799999999998
 30
0.0
 11
-56.15000000000001
 21
-8.506799999999998
 31
0.0
  0
LINE
  5
4B6
330
47D
100
AcDbEntity
  8
SK3
100
AcDbLine
 10
-55.28006999999999
 20
7.0
 30
0.0
 11
-55.28006999999999
 21
-7.0
 31
0.0
  0
LINE
  5
4B7
330
47D
100
AcDbEntity
  8
SK3
100
AcDbLine
 10
-22.39999999999999
 20
0.0
 30
0.0
 11
-22.39999999999999
 21
-7.0
 31
0.0
  0
LINE
  5
4B8
330
47D
100
AcDbEntity
  8
SK3
100
AcDbLine
 10
-35.4
 20
0.0
 30
0.0
 11
-35.4
 21
-8.0
 31
0.0
  0
LINE
  5
4B9
330
47D
100
AcDbEntity
  8
SK3
100
AcDbLine
 10
-56.15000000000001
 20
0.0
 30
0.0
 11
-56.15000000000001
 21
-8.506799999999998
 31
0.0
  0
ARC
  5
4BA
330
47D
100
AcDbEntity
  8
1
  6
CONTINUOUS
 62
     4
100
AcDbCircle
 10
2.599999999999994
 20
30.88852999999999
 30
0.0
 40
0.6000000000000015
100
AcDbArc
 50
90.00000002350311
 51
180.0000000235027
  0
ARC
  5
4BB
330
47D
100
AcDbEntity
  8
1
  6
CONTINUOUS
 62
     4
100
AcDbCircle
 10
26.4
 20
30.88853
 30
0.0
 40
0.5999999999999979
100
AcDbArc
 50
0.0000000235031287
 51
90.00000002350322
  0
LINE
  5
4BC
330
47D
100
AcDbEntity
  8
SK3
100
AcDbLine
 10
-55.28006999999999
 20
-7.0
 30
0.0
 11
-56.15000000000001
 21
-8.506730000000001
 31
0.0
  0
LINE
  5
4BD
330
47D
100
AcDbEntity
  8
1
  6
CONTINUOUS
 62
     4
100
AcDbLine
 10
11.59993
 20
-31.48846999999999
 30
0.0
 11
11.59993
 21
-8.05
 31
0.0
  0
LINE
  5
4BE
330
47D
100
AcDbEntity
  8
1
  6
CONTINUOUS
 62
     4
100
AcDbLine
 10
21.60007
 20
-31.48846999999999
 30
0.0
 11
21.60007
 21
-4.570930000000004
 31
0.0
  0
ARC
  5
4BF
330
47D
100
AcDbEntity
  8
1
  6
CONTINUOUS
 62
     4
100
AcDbCircle
 10
26.4
 20
-30.88853
 30
0.0
 40
0.599999999999999
100
AcDbArc
 50
270.000000023503
 51
0.0000000235031287
  0
ARC
  5
4C0
330
47D
100
AcDbEntity
  8
1
  6
CONTINUOUS
 62
     4
100
AcDbCircle
 10
2.599999999999994
 20
-30.88852999999999
 30
0.0
 40
0.6000000000000015
100
AcDbArc
 50
180.0000000000003
 51
270.0
  0
ARC
  5
4C1
330
47D
100
AcDbEntity
  8
1
  6
CONTINUOUS
 62
     4
100
AcDbCircle
 10
0.3799447920405896
 20
-22.34998201534535
 30
0.0
 40
0.3999872532314359
100
AcDbArc
 50
89.99295415898592
 51
161.7908437522229
  0
ARC
  5
4C2
330
47D
100
AcDbEntity
  8
1
  6
CONTINUOUS
 62
     4
100
AcDbCircle
 10
1.599999999999994
 20
-22.35
 30
0.0
 40
0.3999999999999986
100
AcDbArc
 50
0.0
 51
90.0
  0
ARC
  5
4C3
330
47D
100
AcDbEntity
  8
1
  6
CONTINUOUS
 62
     4
100
AcDbCircle
 10
0.3799447920405896
 20
22.34998201534535
 30
0.0
 40
0.3999872532314359
100
AcDbArc
 50
198.2091562712802
 51
270.0070458645171
  0
ARC
  5
4C4
330
47D
100
AcDbEntity
  8
1
  6
CONTINUOUS
 62
     4
100
AcDbCircle
 10
1.599999999999994
 20
22.35
 30
0.0
 40
0.3999999999999986
100
AcDbArc
 50
270.0000000235031
 51
0.0000000235031287
  0
LINE
  5
4C5
330
47D
100
AcDbEntity
  8
SK4
100
AcDbLine
 10
-68.08759999999999
 20
0.0
 30
0.0
 11
-15.0
 21
0.0
 31
0.0
  0
LINE
  5
4C6
330
47D
100
AcDbEntity
  8
SK3
100
AcDbLine
 10
-55.85746999999999
 20
-8.0
 30
0.0
 11
-35.4
 21
-8.0
 31
0.0
  0
LINE
  5
4C7
330
47D
100
AcDbEntity
  8
SK3
100
AcDbLine
 10
-55.85746999999999
 20
8.0
 30
0.0
 11
-35.4
 21
8.0
 31
0.0
  0
ENDBLK
  5
4C9
330
47D
100
AcDbEntity
  8
0
100
AcDbBlockEnd
  0
BLOCK
  5
520
330
516
100
AcDbEntity
  8
0
100
AcDbBlockBegin
  2
*D10
 70
     1
 10
0.0
 20
0.0
 30
0.0
  3
*D10
  1

  0
LINE
  5
587
330
516
100
AcDbEntity
  8
SK2
 62
     0
100
AcDbLine
 10
0.0
 20
22.225
 30
0.0
 11
0.0000000000000026
 21
65.0
 31
0.0
  0
LINE
  5
588
330
516
100
AcDbEntity
  8
SK2
 62
     0
100
AcDbLine
 10
27.0
 20
30.88853
 30
0.0
 11
27.0
 21
65.0
 31
0.0
  0
LINE
  5
589
330
516
100
AcDbEntity
  8
SK2
 62
     0
100
AcDbLine
 10
4.570000000000002
 20
60.0
 30
0.0
 11
22.43
 21
60.0
 31
0.0
  0
SOLID
  5
58A
330
516
100
AcDbEntity
  8
SK2
 62
     0
100
AcDbTrace
 10
4.570000000000002
 20
60.76166666666667
 30
0.0
 11
4.570000000000002
 21
59.23833333333333
 31
0.0
 12
0.0000000000000023
 22
60.0
 32
0.0
 13
0.0000000000000023
 23
60.0
 33
0.0
  0
SOLID
  5
58B
330
516
100
AcDbEntity
  8
SK2
 62
     0
100
AcDbTrace
 10
22.43
 20
60.76166666666667
 30
0.0
 11
22.43
 21
59.23833333333333
 31
0.0
 12
27.0
 22
60.0
 32
0.0
 13
27.0
 23
60.0
 33
0.0
  0
MTEXT
  5
58C
330
516
100
AcDbEntity
  8
SK2
 62
     0
100
AcDbMText
 10
13.5
 20
64.58499999999999
 30
0.0
 40
4.57
 41
0.0
 71
     5
 72
     1
  1
\A1;27
  7
SIMPLEX
1001
ACAD
1000
MTEXTBEGIN
1070
    73
1070
     1
1070
    44
1040
1.0
1070
    74
1070
     0
1000
MTEXTEND
  0
POINT
  5
58D
330
516
100
AcDbEntity
  8
DEFPOINTS
 62
     0
100
AcDbPoint
 10
0.0
 20
22.225
 30
0.0
  0
POINT
  5
58E
330
516
100
AcDbEntity
  8
DEFPOINTS
 62
     0
100
AcDbPoint
 10
27.0
 20
30.88853
 30
0.0
  0
POINT
  5
58F
330
516
100
AcDbEntity
  8
DEFPOINTS
 62
     0
100
AcDbPoint
 10
27.0
 20
60.0
 30
0.0
  0
ENDBLK
  5
521
330
516
100
AcDbEntity
  8
0
100
AcDbBlockEnd
  0
BLOCK
  5
52C
330
522
100
AcDbEntity
  8
0
100
AcDbBlockBegin
  2
*D11
 70
     1
 10
0.0
 20
0.0
 30
0.0
  3
*D11
  1

  0
LINE
  5
55C
330
522
100
AcDbEntity
  8
SK2
 62
     0
100
AcDbLine
 10
-65.4
 20
11.82259999958979
 30
0.0
 11
-65.4
 21
80.00000000000001
 31
0.0
  0
LINE
  5
55D
330
522
100
AcDbEntity
  8
SK2
 62
     0
100
AcDbLine
 10
0.0
 20
22.225
 30
0.0
 11
0.0000000000000035
 21
80.0
 31
0.0
  0
LINE
  5
55E
330
522
100
AcDbEntity
  8
SK2
 62
     0
100
AcDbLine
 10
-60.83000000000001
 20
75.0
 30
0.0
 11
-4.569999999999996
 21
75.0
 31
0.0
  0
SOLID
  5
55F
330
522
100
AcDbEntity
  8
SK2
 62
     0
100
AcDbTrace
 10
-60.83000000000001
 20
75.76166666666667
 30
0.0
 11
-60.83000000000001
 21
74.23833333333333
 31
0.0
 12
-65.4
 22
75.0
 32
0.0
 13
-65.4
 23
75.0
 33
0.0
  0
SOLID
  5
560
330
522
100
AcDbEntity
  8
SK2
 62
     0
100
AcDbTrace
 10
-4.569999999999996
 20
75.76166666666667
 30
0.0
 11
-4.569999999999996
 21
74.23833333333333
 31
0.0
 12
0.0000000000000032
 22
75.0
 32
0.0
 13
0.0000000000000032
 23
75.0
 33
0.0
  0
MTEXT
  5
561
330
522
100
AcDbEntity
  8
SK2
 62
     0
100
AcDbMText
 10
-32.7
 20
79.58499999999999
 30
0.0
 40
4.57
 41
0.0
 71
     5
 72
     1
  1
\A1;65.4
  7
SIMPLEX
1001
ACAD
1000
MTEXTBEGIN
1070
    73
1070
     1
1070
    44
1040
1.0
1070
    74
1070
     0
1000
MTEXTEND
  0
POINT
  5
562
330
522
100
AcDbEntity
  8
DEFPOINTS
 62
     0
100
AcDbPoint
 10
-65.4
 20
11.82259999958979
 30
0.0
  0
POINT
  5
563
330
522
100
AcDbEntity
  8
DEFPOINTS
 62
     0
100
AcDbPoint
 10
0.0
 20
22.225
 30
0.0
  0
POINT
  5
564
330
522
100
AcDbEntity
  8
DEFPOINTS
 62
     0
100
AcDbPoint
 10
0.0000000000000032
 20
75.0
 30
0.0
  0
ENDBLK
  5
52D
330
522
100
AcDbEntity
  8
0
100
AcDbBlockEnd
  0
BLOCK
  5
538
330
52E
100
AcDbEntity
  8
0
100
AcDbBlockBegin
  2
*D12
 70
     1
 10
0.0
 20
0.0
 30
0.0
  3
*D12
  1

  0
LINE
  5
565
330
52E
100
AcDbEntity
  8
SK2
 62
     0
100
AcDbLine
 10
0.0
 20
22.225
 30
0.0
 11
-9.999999999999989
 21
22.225
 31
0.0
  0
LINE
  5
566
330
52E
100
AcDbEntity
  8
SK2
 62
     0
100
AcDbLine
 10
0.0
 20
-22.225
 30
0.0
 11
-10.0
 21
-22.22499999999999
 31
0.0
  0
LINE
  5
567
330
52E
100
AcDbEntity
  8
SK2
 62
     0
100
AcDbLine
 10
-4.999999999999991
 20
17.655
 30
0.0
 11
-4.999999999999998
 21
-17.655
 31
0.0
  0
SOLID
  5
568
330
52E
100
AcDbEntity
  8
SK2
 62
     0
100
AcDbTrace
 10
-5.761666666666657
 20
17.655
 30
0.0
 11
-4.238333333333324
 21
17.655
 31
0.0
 12
-4.999999999999989
 22
22.225
 32
0.0
 13
-4.999999999999989
 23
22.225
 33
0.0
  0
SOLID
  5
569
330
52E
100
AcDbEntity
  8
SK2
 62
     0
100
AcDbTrace
 10
-5.761666666666664
 20
-17.655
 30
0.0
 11
-4.238333333333331
 21
-17.655
 31
0.0
 12
-5.0
 22
-22.225
 32
0.0
 13
-5.0
 23
-22.225
 33
0.0
  0
MTEXT
  5
56A
330
52E
100
AcDbEntity
  8
SK2
 62
     0
100
AcDbMText
 10
-9.584999999999995
 20
0.0000000000000009
 30
0.0
 40
4.57
 41
0.0
 71
     5
 72
     1
  1
\A1;%%C44.45
  7
SIMPLEX
 11
0.0000000000000001
 21
1.0
 31
0.0
1001
ACAD
1000
MTEXTBEGIN
1070
    73
1070
     1
1070
    44
1040
1.0
1070
    74
1070
     0
1000
MTEXTEND
  0
POINT
  5
56B
330
52E
100
AcDbEntity
  8
DEFPOINTS
 62
     0
100
AcDbPoint
 10
0.0
 20
22.225
 30
0.0
  0
POINT
  5
56C
330
52E
100
AcDbEntity
  8
DEFPOINTS
 62
     0
100
AcDbPoint
 10
0.0
 20
-22.225
 30
0.0
  0
POINT
  5
56D
330
52E
100
AcDbEntity
  8
DEFPOINTS
 62
     0
100
AcDbPoint
 10
-5.0
 20
-22.225
 30
0.0
  0
ENDBLK
  5
539
330
52E
100
AcDbEntity
  8
0
100
AcDbBlockEnd
  0
BLOCK
  5
544
330
53A
100
AcDbEntity
  8
0
100
AcDbBlockBegin
  2
*D13
 70
     1
 10
0.0
 20
0.0
 30
0.0
  3
*D13
  1

  0
LINE
  5
56E
330
53A
100
AcDbEntity
  8
SK2
 62
     0
100
AcDbLine
 10
2.599999999999994
 20
-31.48846999999999
 30
0.0
 11
-100.0
 21
-31.48846999999997
 31
0.0
  0
LINE
  5
56F
330
53A
100
AcDbEntity
  8
SK2
 62
     0
100
AcDbLine
 10
2.599999999999994
 20
31.48852999999999
 30
0.0
 11
-100.0
 21
31.48853000000002
 31
0.0
  0
LINE
  5
570
330
53A
100
AcDbEntity
  8
SK2
 62
     0
100
AcDbLine
 10
-95.0
 20
-26.91846999999997
 30
0.0
 11
-95.0
 21
26.91853000000002
 31
0.0
  0
SOLID
  5
571
330
53A
100
AcDbEntity
  8
SK2
 62
     0
100
AcDbTrace
 10
-95.76166666666667
 20
-26.91846999999997
 30
0.0
 11
-94.23833333333332
 21
-26.91846999999997
 31
0.0
 12
-95.0
 22
-31.48846999999997
 32
0.0
 13
-95.0
 23
-31.48846999999997
 33
0.0
  0
SOLID
  5
572
330
53A
100
AcDbEntity
  8
SK2
 62
     0
100
AcDbTrace
 10
-95.76166666666667
 20
26.91853000000002
 30
0.0
 11
-94.23833333333332
 21
26.91853000000002
 31
0.0
 12
-95.0
 22
31.48853000000002
 32
0.0
 13
-95.0
 23
31.48853000000002
 33
0.0
  0
MTEXT
  5
573
330
53A
100
AcDbEntity
  8
SK2
 62
     0
100
AcDbMText
 10
-99.585
 20
0.0000300000000123
 30
0.0
 40
4.57
 41
0.0
 71
     5
 72
     1
  1
\A1;%%C62.98
  7
SIMPLEX
 11
0.0000000000000001
 21
1.0
 31
0.0
1001
ACAD
1000
MTEXTBEGIN
1070
    73
1070
     1
1070
    44
1040
1.0
1070
    74
1070
     0
1000
MTEXTEND
  0
POINT
  5
574
330
53A
100
AcDbEntity
  8
DEFPOINTS
 62
     0
100
AcDbPoint
 10
2.599999999999994
 20
-31.48846999999999
 30
0.0
  0
POINT
  5
575
330
53A
100
AcDbEntity
  8
DEFPOINTS
 62
     0
100
AcDbPoint
 10
2.599999999999994
 20
31.48852999999999
 30
0.0
  0
POINT
  5
576
330
53A
100
AcDbEntity
  8
DEFPOINTS
 62
     0
100
AcDbPoint
 10
-95.0
 20
31.48853000000002
 30
0.0
  0
ENDBLK
  5
545
330
53A
100
AcDbEntity
  8
0
100
AcDbBlockEnd
  0
BLOCK
  5
551
330
546
100
AcDbEntity
  8
0
100
AcDbBlockBegin
  2
*D14
 70
     1
 10
0.0
 20
0.0
 30
0.0
  3
*D14
  1

  0
LINE
  5
577
330
546
100
AcDbEntity
  8
SK2
 62
     0
100
AcDbLine
 10
-55.85746999999999
 20
8.0
 30
0.0
 11
-85.0
 21
8.000000000000008
 31
0.0
  0
LINE
  5
578
330
546
100
AcDbEntity
  8
SK2
 62
     0
100
AcDbLine
 10
-55.85746999999999
 20
-8.0
 30
0.0
 11
-85.0
 21
-7.999999999999992
 31
0.0
  0
LINE
  5
579
330
546
100
AcDbEntity
  8
SK2
 62
     0
100
AcDbLine
 10
-80.0
 20
3.430000000000006
 30
0.0
 11
-80.0
 21
-3.429999999999992
 31
0.0
  0
LINE
  5
57A
330
546
100
AcDbEntity
  8
SK2
 62
     0
100
AcDbLine
 10
-80.0
 20
-7.999999999999992
 30
0.0
 11
-80.0
 21
-28.70380952380951
 31
0.0
  0
SOLID
  5
57B
330
546
100
AcDbEntity
  8
SK2
 62
     0
100
AcDbTrace
 10
-80.76166666666667
 20
3.430000000000006
 30
0.0
 11
-79.23833333333333
 21
3.430000000000006
 31
0.0
 12
-80.0
 22
8.000000000000007
 32
0.0
 13
-80.0
 23
8.000000000000007
 33
0.0
  0
SOLID
  5
57C
330
546
100
AcDbEntity
  8
SK2
 62
     0
100
AcDbTrace
 10
-80.76166666666667
 20
-3.429999999999992
 30
0.0
 11
-79.23833333333333
 21
-3.429999999999992
 31
0.0
 12
-80.0
 22
-7.999999999999992
 32
0.0
 13
-80.0
 23
-7.999999999999992
 33
0.0
  0
MTEXT
  5
57D
330
546
100
AcDbEntity
  8
SK2
 62
     0
100
AcDbMText
 10
-84.58499999999999
 20
-20.63690476190477
 30
0.0
 40
4.57
 41
0.0
 71
     5
 72
     1
  1
\A1;M16
  7
SIMPLEX
 11
0.0000000000000001
 21
1.0
 31
0.0
1001
ACAD
1000
MTEXTBEGIN
1070
    73
1070
     1
1070
    44
1040
1.0
1070
    74
1070
     0
1000
MTEXTEND
  0
POINT
  5
57E
330
546
100
AcDbEntity
  8
DEFPOINTS
 62
     0
100
AcDbPoint
 10
-55.85746999999999
 20
8.0
 30
0.0
  0
POINT
  5
57F
330
546
100
AcDbEntity
  8
DEFPOINTS
 62
     0
100
AcDbPoint
 10
-55.85746999999999
 20
-8.0
 30
0.0
  0
POINT
  5
580
330
546
100
AcDbEntity
  8
DEFPOINTS
 62
     0
100
AcDbPoint
 10
-80.0
 20
-7.999999999999992
 30
0.0
  0
ENDBLK
  5
552
330
546
100
AcDbEntity
  8
0
100
AcDbBlockEnd
  0
ENDSEC
  0
SECTION
  2
ENTITIES
  0
ARC
  5
377
330
18
100
AcDbEntity
  8
1
100
AcDbCircle
 10
150.055
 20
-45.216
 30
0.0
 40
24.82
100
AcDbArc
 50
90.126953
 51
116.449409
  0
LINE
  5
378
330
18
100
AcDbEntity
  8
1
100
AcDbLine
 10
150.0
 20
-20.396
 30
0.0
 11
157.691
 21
-20.396
 31
0.0
  0
LINE
  5
379
330
18
100
AcDbEntity
  8
1
100
AcDbLine
 10
150.0
 20
20.39599999999999
 30
0.0
 11
157.691
 21
20.39599999999999
 31
0.0
  0
ARC
  5
37A
330
18
100
AcDbEntity
  8
1
100
AcDbCircle
 10
150.055
 20
45.21600000000001
 30
0.0
 40
24.82
100
AcDbArc
 50
243.550583
 51
269.873047
  0
ARC
  5
37B
330
18
100
AcDbEntity
  8
1
100
AcDbCircle
 10
138.5
 20
-23.5
 30
0.0
 40
1.5
100
AcDbArc
 50
179.999985
 51
269.999969
  0
ARC
  5
37C
330
18
100
AcDbEntity
  8
1
100
AcDbCircle
 10
138.5
 20
23.49999999999999
 30
0.0
 40
1.5
100
AcDbArc
 50
90.0
 51
180.0
  0
POINT
  5
383
330
18
100
AcDbEntity
  8
1__1
 62
     7
100
AcDbPoint
 10
0.0000000000000071
 20
0.0
 30
0.0
  0
ARC
  5
389
330
18
100
AcDbEntity
  8
1
100
AcDbCircle
 10
27.99999999999998
 20
25.0
 30
0.0
 40
1.0
100
AcDbArc
 50
180.0
 51
269.999969
  0
LINE
  5
38A
330
18
100
AcDbEntity
  8
1
100
AcDbLine
 10
27.99999999999998
 20
23.99999999999999
 30
0.0
 11
123.357
 21
23.99999999999999
 31
0.0
  0
ARC
  5
38B
330
18
100
AcDbEntity
  8
1
100
AcDbCircle
 10
123.357
 20
20.99999999999999
 30
0.0
 40
3.0
100
AcDbArc
 50
44.98655699999999
 51
90.000023
  0
LINE
  5
38C
330
18
100
AcDbEntity
  8
1
100
AcDbLine
 10
125.479
 20
23.121
 30
0.0
 11
128.307
 21
20.29299999999999
 31
0.0
  0
ARC
  5
38D
330
18
100
AcDbEntity
  8
1
100
AcDbCircle
 10
129.014
 20
20.99999999999999
 30
0.0
 40
1.0
100
AcDbArc
 50
224.9914249999999
 51
269.987885
  0
ARC
  5
38E
330
18
100
AcDbEntity
  8
1
100
AcDbCircle
 10
129.014
 20
-21.0
 30
0.0
 40
1.0
100
AcDbArc
 50
90.0
 51
134.999985
  0
LINE
  5
38F
330
18
100
AcDbEntity
  8
1
100
AcDbLine
 10
128.307
 20
-20.293
 30
0.0
 11
125.479
 21
-23.121
 31
0.0
  0
ARC
  5
390
330
18
100
AcDbEntity
  8
1
100
AcDbCircle
 10
123.357
 20
-21.0
 30
0.0
 40
3.0
100
AcDbArc
 50
269.993134
 51
315.008667
  0
LINE
  5
391
330
18
100
AcDbEntity
  8
1
100
AcDbLine
 10
123.357
 20
-24.0
 30
0.0
 11
27.99999999999998
 21
-24.0
 31
0.0
  0
ARC
  5
392
330
18
100
AcDbEntity
  8
1
100
AcDbCircle
 10
27.99999999999998
 20
-25.0
 30
0.0
 40
1.0
100
AcDbArc
 50
90.0
 51
180.000015
  0
LINE
  5
39A
330
18
100
AcDbEntity
  8
1
100
AcDbLine
 10
131.1
 20
19.99999999999999
 30
0.0
 11
131.1
 21
-20.0
 31
0.0
  0
LINE
  5
39B
330
18
100
AcDbEntity
  8
1
100
AcDbLine
 10
137.0
 20
-18.8
 30
0.0
 11
131.1
 21
-18.8
 31
0.0
  0
LINE
  5
39C
330
18
100
AcDbEntity
  8
1
100
AcDbLine
 10
137.0
 20
18.79999999999999
 30
0.0
 11
131.1
 21
18.79999999999999
 31
0.0
  0
LINE
  5
39F
330
18
100
AcDbEntity
  8
4
100
AcDbLine
 10
-65.39999999999999
 20
0.0
 30
0.0
 11
160.0
 21
0.0
 31
0.0
  0
LINE
  5
3A0
330
18
100
AcDbEntity
  8
1
100
AcDbLine
 10
128.6
 20
19.34999999999999
 30
0.0
 11
128.6
 21
-19.79
 31
0.0
  0
LINE
  5
3A1
330
18
100
AcDbEntity
  8
1
100
AcDbLine
 10
124.6
 20
23.02999999999999
 30
0.0
 11
124.6
 21
-23.046
 31
0.0
  0
LINE
  5
3A3
330
18
100
AcDbEntity
  8
1
100
AcDbLine
 10
137.0
 20
-20.0
 30
0.0
 11
129.014
 21
-20.0
 31
0.0
  0
LINE
  5
3A4
330
18
100
AcDbEntity
  8
1
100
AcDbLine
 10
129.014
 20
19.99999999999999
 30
0.0
 11
137.0
 21
19.99999999999999
 31
0.0
  0
LINE
  5
3CE
330
18
100
AcDbEntity
  8
1
100
AcDbLine
 10
137.0
 20
23.49999999999999
 30
0.0
 11
137.0
 21
-23.5
 31
0.0
  0
LINE
  5
3CF
330
18
100
AcDbEntity
  8
1
100
AcDbLine
 10
138.5
 20
-25.0
 30
0.0
 11
155.959
 21
-25.0
 31
0.0
  0
LINE
  5
3D0
330
18
100
AcDbEntity
  8
1
100
AcDbLine
 10
155.959
 20
-25.0
 30
0.0
 11
160.0
 21
-18.0
 31
0.0
  0
LINE
  5
3D1
330
18
100
AcDbEntity
  8
1
100
AcDbLine
 10
160.0
 20
-18.0
 30
0.0
 11
160.0
 21
17.99999999999999
 31
0.0
  0
LINE
  5
3D2
330
18
100
AcDbEntity
  8
1
100
AcDbLine
 10
160.0
 20
17.99999999999999
 30
0.0
 11
155.959
 21
25.0
 31
0.0
  0
LINE
  5
3D3
330
18
100
AcDbEntity
  8
1
100
AcDbLine
 10
155.959
 20
25.0
 30
0.0
 11
138.5
 21
25.0
 31
0.0
  0
LINE
  5
3D4
330
18
100
AcDbEntity
  8
1
100
AcDbLine
 10
155.959
 20
-22.99399999999999
 30
0.0
 11
155.959
 21
-25.0
 31
0.0
  0
LINE
  5
3D5
330
18
100
AcDbEntity
  8
1
100
AcDbLine
 10
155.959
 20
-3.0
 30
0.0
 11
155.959
 21
-19.99399999999999
 31
0.0
  0
LINE
  5
3D6
330
18
100
AcDbEntity
  8
1
100
AcDbLine
 10
155.959
 20
19.994
 30
0.0
 11
155.959
 21
2.999999999999996
 31
0.0
  0
LINE
  5
3D7
330
18
100
AcDbEntity
  8
1
100
AcDbLine
 10
155.959
 20
25.0
 30
0.0
 11
155.959
 21
22.994
 31
0.0
  0
LINE
  5
3D8
330
18
100
AcDbEntity
  8
1
100
AcDbLine
 10
139.0
 20
-3.0
 30
0.0
 11
157.691
 21
-3.0
 31
0.0
  0
LINE
  5
3D9
330
18
100
AcDbEntity
  8
1
100
AcDbLine
 10
157.691
 20
-3.0
 30
0.0
 11
157.691
 21
2.999999999999996
 31
0.0
  0
LINE
  5
3DA
330
18
100
AcDbEntity
  8
1
100
AcDbLine
 10
157.691
 20
2.999999999999996
 30
0.0
 11
139.0
 21
2.999999999999996
 31
0.0
  0
LINE
  5
3DB
330
18
100
AcDbEntity
  8
1
100
AcDbLine
 10
139.0
 20
2.999999999999996
 30
0.0
 11
139.0
 21
-3.0
 31
0.0
  0
LINE
  5
3DC
330
18
100
AcDbEntity
  8
1
100
AcDbLine
 10
157.117
 20
22.994
 30
0.0
 11
139.0
 21
22.994
 31
0.0
  0
LINE
  5
3DD
330
18
100
AcDbEntity
  8
1
100
AcDbLine
 10
139.0
 20
22.994
 30
0.0
 11
139.0
 21
19.994
 31
0.0
  0
LINE
  5
3DE
330
18
100
AcDbEntity
  8
1
100
AcDbLine
 10
139.0
 20
19.994
 30
0.0
 11
157.691
 21
19.994
 31
0.0
  0
LINE
  5
3DF
330
18
100
AcDbEntity
  8
1
100
AcDbLine
 10
157.691
 20
19.994
 30
0.0
 11
157.691
 21
21.99999999999999
 31
0.0
  0
LINE
  5
3E0
330
18
100
AcDbEntity
  8
1
100
AcDbLine
 10
157.117
 20
-22.99399999999999
 30
0.0
 11
139.0
 21
-22.99399999999999
 31
0.0
  0
LINE
  5
3E1
330
18
100
AcDbEntity
  8
1
100
AcDbLine
 10
139.0
 20
-22.99399999999999
 30
0.0
 11
139.0
 21
-19.99399999999999
 31
0.0
  0
LINE
  5
3E2
330
18
100
AcDbEntity
  8
1
100
AcDbLine
 10
139.0
 20
-19.99399999999999
 30
0.0
 11
157.691
 21
-19.99399999999999
 31
0.0
  0
LINE
  5
3E3
330
18
100
AcDbEntity
  8
1
100
AcDbLine
 10
157.691
 20
-19.99399999999999
 30
0.0
 11
157.691
 21
-22.0
 31
0.0
  0
LINE
  5
3E4
330
18
100
AcDbEntity
  8
SK4
100
AcDbLine
 10
-68.61719360053166
 20
0.0
 30
0.0
 11
163.9119999999999
 21
0.0
 31
0.0
  0
LINE
  5
3E6
330
18
100
AcDbEntity
  8
SK2
100
AcDbLine
 10
155.959
 20
25.0
 30
0.0
 11
180.0
 21
24.99999999999999
 31
0.0
  0
LINE
  5
3E7
330
18
100
AcDbEntity
  8
SK2
100
AcDbLine
 10
155.959
 20
-25.0
 30
0.0
 11
180.0
 21
-25.0
 31
0.0
  0
LINE
  5
3E8
330
18
100
AcDbEntity
  8
SK2
100
AcDbLine
 10
175.0
 20
20.42999999999999
 30
0.0
 11
175.0
 21
-20.43
 31
0.0
  0
SOLID
  5
3E9
330
18
100
AcDbEntity
  8
SK2
100
AcDbTrace
 10
174.2383333333333
 20
20.42999999999999
 30
0.0
 11
175.7616666666666
 21
20.42999999999999
 31
0.0
 12
175.0
 22
24.99999999999999
 32
0.0
 13
175.0
 23
24.99999999999999
 33
0.0
  0
SOLID
  5
3EA
330
18
100
AcDbEntity
  8
SK2
100
AcDbTrace
 10
174.2383333333333
 20
-20.43
 30
0.0
 11
175.7616666666666
 21
-20.43
 31
0.0
 12
175.0
 22
-25.0
 32
0.0
 13
175.0
 23
-25.0
 33
0.0
  0
LINE
  5
3ED
330
18
100
AcDbEntity
  8
SK2
100
AcDbLine
 10
0.0
 20
22.225
 30
0.0
 11
0.0000000000000035
 21
80.0
 31
0.0
  0
LINE
  5
40B
330
18
100
AcDbEntity
  8
SK3
100
AcDbLine
 10
148.0
 20
24.99999999998999
 30
0.0
 11
148.0
 21
-24.99999999998999
 31
0.0
  0
LINE
  5
40C
330
18
100
AcDbEntity
  8
SK3
100
AcDbLine
 10
114.6666666666799
 20
12.49999999999499
 30
0.0
 11
114.6666666666799
 21
-11.54166666666205
 31
0.0
  0
LINE
  5
40D
330
18
100
AcDbEntity
  8
SK3
100
AcDbLine
 10
106.3333333333499
 20
12.49999999999499
 30
0.0
 11
106.3333333333499
 21
-12.49999999999499
 31
0.0
  0
LINE
  5
40E
330
18
100
AcDbEntity
  8
SK3
100
AcDbLine
 10
148.0
 20
-13.70833333332782
 30
0.0
 11
114.6666666666799
 21
-12.04166666666185
 31
0.0
  0
LINE
  5
40F
330
18
100
AcDbEntity
  8
SK3
100
AcDbLine
 10
107.1666666666829
 20
-13.333333333328
 30
0.0
 11
113.8333333333469
 21
-13.333333333328
 31
0.0
  0
ARC
  5
410
330
18
100
AcDbEntity
  8
SK3
100
AcDbCircle
 10
107.1666666666829
 20
-12.49999999999499
 30
0.0
 40
0.8333333333329999
100
AcDbArc
 50
180.0
 51
270.0
  0
LINE
  5
411
330
18
100
AcDbEntity
  8
SK3
100
AcDbLine
 10
114.6666666666799
 20
-12.49999999999499
 30
0.0
 11
114.6666666666799
 21
-11.54166666666205
 31
0.0
  0
ARC
  5
412
330
18
100
AcDbEntity
  8
SK3
100
AcDbCircle
 10
113.8333333333469
 20
-12.49999999999499
 30
0.0
 40
0.8333333333329999
100
AcDbArc
 50
270.0
 51
0.0
  0
LINE
  5
413
330
18
100
AcDbEntity
  8
SK3
100
AcDbLine
 10
148.0
 20
13.70833333332782
 30
0.0
 11
114.6666666666799
 21
12.04166666666185
 31
0.0
  0
LINE
  5
414
330
18
100
AcDbEntity
  8
SK3
100
AcDbLine
 10
113.8333333333469
 20
13.333333333328
 30
0.0
 11
107.1666666666829
 21
13.333333333328
 31
0.0
  0
ARC
  5
415
330
18
100
AcDbEntity
  8
SK3
100
AcDbCircle
 10
107.1666666666829
 20
12.49999999999499
 30
0.0
 40
0.8333333333329999
100
AcDbArc
 50
90.0
 51
180.0
  0
LINE
  5
416
330
18
100
AcDbEntity
  8
SK3
100
AcDbLine
 10
114.6666666666799
 20
11.54166666666205
 30
0.0
 11
114.6666666666799
 21
12.49999999999499
 31
0.0
  0
ARC
  5
417
330
18
100
AcDbEntity
  8
SK3
100
AcDbCircle
 10
113.8333333333469
 20
12.49999999999499
 30
0.0
 40
0.8333333333329999
100
AcDbArc
 50
0.0
 51
90.0
  0
LINE
  5
418
330
18
100
AcDbEntity
  8
SK3
100
AcDbLine
 10
-22.39999999999999
 20
7.0
 30
0.0
 11
106.3333333333499
 21
7.0
 31
0.0
  0
LINE
  5
419
330
18
100
AcDbEntity
  8
SK3
100
AcDbLine
 10
-22.39999999999999
 20
-7.0
 30
0.0
 11
106.3333333333499
 21
-7.0
 31
0.0
  0
TEXT
  5
4D2
330
18
100
AcDbEntity
  8
6
100
AcDbText
 10
-46.0
 20
10.0
 30
0.0
 40
3.0
  1
SK40 MAS-BT
  7
SIMPLEX
100
AcDbText
  0
ARC
  5
4D3
330
18
100
AcDbEntity
  8
1
  6
CONTINUOUS
 62
     4
100
AcDbCircle
 10
15.0
 20
-0.0500000000000008
 30
0.0
 40
8.0
100
AcDbArc
 50
270.0
 51
0.0000000000000057
  0
LINE
  5
4D4
330
18
100
AcDbEntity
  8
1
  6
CONTINUOUS
 62
     4
100
AcDbLine
 10
14.09999999999999
 20
-27.1582
 30
0.0
 11
11.59993
 21
-31.48846999999999
 31
0.0
  0
LINE
  5
4D5
330
18
100
AcDbEntity
  8
1
  6
CONTINUOUS
 62
     4
100
AcDbLine
 10
19.09999999999999
 20
-27.1582
 30
0.0
 11
21.60007
 21
-31.48846999999999
 31
0.0
  0
LINE
  5
4D6
330
18
100
AcDbEntity
  8
1
  6
CONTINUOUS
 62
     4
100
AcDbLine
 10
23.0
 20
0.0
 30
0.0
 11
23.0
 21
-0.0499999999999972
 31
0.0
  0
LINE
  5
4D7
330
18
100
AcDbEntity
  8
1
  6
CONTINUOUS
 62
     4
100
AcDbLine
 10
21.60007
 20
-31.48846999999999
 30
0.0
 11
26.4
 21
-31.48846999999999
 31
0.0
  0
LINE
  5
4D8
330
18
100
AcDbEntity
  8
1
  6
CONTINUOUS
 62
     4
100
AcDbLine
 10
14.09999999999999
 20
-26.5
 30
0.0
 11
19.09999999999999
 21
-26.5
 31
0.0
  0
LINE
  5
4D9
330
18
100
AcDbEntity
  8
1
  6
CONTINUOUS
 62
     4
100
AcDbLine
 10
2.0
 20
-8.05
 30
0.0
 11
15.0
 21
-8.05
 31
0.0
  0
LINE
  5
4DA
330
18
100
AcDbEntity
  8
1
  6
CONTINUOUS
 62
     4
100
AcDbLine
 10
27.0
 20
0.0
 30
0.0
 11
27.0
 21
-30.88853
 31
0.0
  0
LINE
  5
4DB
330
18
100
AcDbEntity
  8
1
  6
CONTINUOUS
 62
     4
100
AcDbLine
 10
-64.54433
 20
-12.81213
 30
0.0
 11
0.0
 21
-22.225
 31
0.0
  0
LINE
  5
4DC
330
18
100
AcDbEntity
  8
1
  6
CONTINUOUS
 62
     4
100
AcDbLine
 10
0.3799999999999954
 20
-21.94999999999999
 30
0.0
 11
1.599999999999994
 21
-21.94999999999999
 31
0.0
  0
ARC
  5
4DD
330
18
100
AcDbEntity
  8
1
  6
CONTINUOUS
 62
     4
100
AcDbCircle
 10
-64.39999980755004
 20
-11.8226002225565
 30
0.0
 40
1.000000192449984
100
AcDbArc
 50
179.9999872484539
 51
261.7015075593027
  0
LINE
  5
4DE
330
18
100
AcDbEntity
  8
1
  6
CONTINUOUS
 62
     4
100
AcDbLine
 10
0.0
 20
0.0
 30
0.0
 11
0.0
 21
-22.225
 31
0.0
  0
LINE
  5
4DF
330
18
100
AcDbEntity
  8
1
  6
CONTINUOUS
 62
     4
100
AcDbLine
 10
-65.4
 20
0.0
 30
0.0
 11
-65.4
 21
-11.8226
 31
0.0
  0
ARC
  5
4E1
330
18
100
AcDbEntity
  8
1
  6
CONTINUOUS
 62
     4
100
AcDbCircle
 10
15.0
 20
0.0500000000000004
 30
0.0
 40
8.0
100
AcDbArc
 50
0.0000000235031032
 51
90.0000000235031
  0
LINE
  5
4E2
330
18
100
AcDbEntity
  8
1
  6
CONTINUOUS
 62
     4
100
AcDbLine
 10
-64.54433
 20
12.81212999999999
 30
0.0
 11
0.0
 21
22.225
 31
0.0
  0
LINE
  5
4E3
330
18
100
AcDbEntity
  8
SK3
100
AcDbLine
 10
-55.28006999999999
 20
7.0
 30
0.0
 11
-22.39999999999999
 21
7.0
 31
0.0
  0
LINE
  5
4E4
330
18
100
AcDbEntity
  8
SK3
100
AcDbLine
 10
-63.67952999999999
 20
8.506799999999998
 30
0.0
 11
-65.4
 21
9.5
 31
0.0
  0
LINE
  5
4E5
330
18
100
AcDbEntity
  8
SK3
100
AcDbLine
 10
-22.39999999999999
 20
0.0
 30
0.0
 11
-22.39999999999999
 21
7.0
 31
0.0
  0
LINE
  5
4E6
330
18
100
AcDbEntity
  8
SK3
100
AcDbLine
 10
-35.4
 20
0.0
 30
0.0
 11
-35.4
 21
8.0
 31
0.0
  0
LINE
  5
4E7
330
18
100
AcDbEntity
  8
SK3
100
AcDbLine
 10
-56.15000000000001
 20
0.0
 30
0.0
 11
-56.15000000000001
 21
8.506799999999998
 31
0.0
  0
LINE
  5
4E8
330
18
100
AcDbEntity
  8
SK3
100
AcDbLine
 10
-55.28006999999999
 20
7.0
 30
0.0
 11
-56.15000000000001
 21
8.506730000000004
 31
0.0
  0
LINE
  5
4E9
330
18
100
AcDbEntity
  8
1
  6
CONTINUOUS
 62
     4
100
AcDbLine
 10
11.59993
 20
31.48852999999999
 30
0.0
 11
11.59993
 21
8.049999999999997
 31
0.0
  0
LINE
  5
4EA
330
18
100
AcDbEntity
  8
1
  6
CONTINUOUS
 62
     4
100
AcDbLine
 10
14.09999999999999
 20
27.15827
 30
0.0
 11
11.59993
 21
31.48852999999999
 31
0.0
  0
LINE
  5
4EB
330
18
100
AcDbEntity
  8
1
  6
CONTINUOUS
 62
     4
100
AcDbLine
 10
19.09999999999999
 20
27.15827
 30
0.0
 11
21.60007
 21
31.48852999999999
 31
0.0
  0
LINE
  5
4EC
330
18
100
AcDbEntity
  8
1
  6
CONTINUOUS
 62
     4
100
AcDbLine
 10
23.0
 20
0.0
 30
0.0
 11
23.0
 21
0.0499999999999972
 31
0.0
  0
LINE
  5
4ED
330
18
100
AcDbEntity
  8
1
  6
CONTINUOUS
 62
     4
100
AcDbLine
 10
21.60007
 20
31.48852999999999
 30
0.0
 11
26.4
 21
31.48852999999999
 31
0.0
  0
LINE
  5
4EE
330
18
100
AcDbEntity
  8
1
  6
CONTINUOUS
 62
     4
100
AcDbLine
 10
2.599999999999994
 20
31.48852999999999
 30
0.0
 11
11.59993
 21
31.48852999999999
 31
0.0
  0
LINE
  5
4EF
330
18
100
AcDbEntity
  8
1
  6
CONTINUOUS
 62
     4
100
AcDbLine
 10
2.0
 20
8.049999999999997
 30
0.0
 11
15.0
 21
8.049999999999997
 31
0.0
  0
LINE
  5
4F0
330
18
100
AcDbEntity
  8
1
  6
CONTINUOUS
 62
     4
100
AcDbLine
 10
27.0
 20
0.0
 30
0.0
 11
27.0
 21
30.88853
 31
0.0
  0
ARC
  5
4F1
330
18
100
AcDbEntity
  8
1
  6
CONTINUOUS
 62
     4
100
AcDbCircle
 10
-64.39999980755004
 20
11.8226002225565
 30
0.0
 40
1.000000192449984
100
AcDbArc
 50
98.29849246420039
 51
180.0000127750492
  0
LINE
  5
4F2
330
18
100
AcDbEntity
  8
1
  6
CONTINUOUS
 62
     4
100
AcDbLine
 10
2.0
 20
0.0
 30
0.0
 11
2.0
 21
30.88853
 31
0.0
  0
LINE
  5
4F3
330
18
100
AcDbEntity
  8
1
  6
CONTINUOUS
 62
     4
100
AcDbLine
 10
0.0
 20
0.0
 30
0.0
 11
0.0
 21
22.225
 31
0.0
  0
LINE
  5
4F4
330
18
100
AcDbEntity
  8
1
  6
CONTINUOUS
 62
     4
100
AcDbLine
 10
14.09999999999999
 20
-8.05
 30
0.0
 11
14.09999999999999
 21
-27.1582
 31
0.0
  0
LINE
  5
4F5
330
18
100
AcDbEntity
  8
1
  6
CONTINUOUS
 62
     4
100
AcDbLine
 10
19.09999999999999
 20
-6.919469999999996
 30
0.0
 11
19.09999999999999
 21
-27.1582
 31
0.0
  0
LINE
  5
4F6
330
18
100
AcDbEntity
  8
1
  6
CONTINUOUS
 62
     4
100
AcDbLine
 10
14.09999999999999
 20
8.049999999999997
 30
0.0
 11
14.09999999999999
 21
27.15827
 31
0.0
  0
LINE
  5
4F7
330
18
100
AcDbEntity
  8
1
  6
CONTINUOUS
 62
     4
100
AcDbLine
 10
19.09999999999999
 20
6.919469999999996
 30
0.0
 11
19.09999999999999
 21
27.15827
 31
0.0
  0
LINE
  5
4F8
330
18
100
AcDbEntity
  8
1
  6
CONTINUOUS
 62
     4
100
AcDbLine
 10
-65.4
 20
0.0
 30
0.0
 11
-65.4
 21
11.8226
 31
0.0
  0
LINE
  5
4F9
330
18
100
AcDbEntity
  8
1
  6
CONTINUOUS
 62
     4
100
AcDbLine
 10
2.599999999999994
 20
-31.48846999999999
 30
0.0
 11
11.59993
 21
-31.48846999999999
 31
0.0
  0
LINE
  5
4FA
330
18
100
AcDbEntity
  8
1
  6
CONTINUOUS
 62
     4
100
AcDbLine
 10
14.09999999999999
 20
26.5
 30
0.0
 11
19.09999999999999
 21
26.5
 31
0.0
  0
LINE
  5
4FB
330
18
100
AcDbEntity
  8
1
  6
CONTINUOUS
 62
     4
100
AcDbLine
 10
21.60007
 20
31.48852999999999
 30
0.0
 11
21.60007
 21
4.570930000000004
 31
0.0
  0
LINE
  5
4FC
330
18
100
AcDbEntity
  8
1
  6
CONTINUOUS
 62
     4
100
AcDbLine
 10
0.3799999999999954
 20
21.95
 30
0.0
 11
1.599999999999994
 21
21.95
 31
0.0
  0
LINE
  5
4FD
330
18
100
AcDbEntity
  8
1
  6
CONTINUOUS
 62
     4
100
AcDbLine
 10
2.0
 20
0.0
 30
0.0
 11
2.0
 21
-30.88853
 31
0.0
  0
LINE
  5
4FE
330
18
100
AcDbEntity
  8
SK3
100
AcDbLine
 10
-63.67952999999999
 20
8.506799999999998
 30
0.0
 11
-56.15000000000001
 21
8.506799999999998
 31
0.0
  0
LINE
  5
4FF
330
18
100
AcDbEntity
  8
SK3
100
AcDbLine
 10
-63.67952999999999
 20
8.506799999999998
 30
0.0
 11
-63.67952999999999
 21
-8.506799999999998
 31
0.0
  0
LINE
  5
501
330
18
100
AcDbEntity
  8
SK3
100
AcDbLine
 10
-55.28006999999999
 20
-7.0
 30
0.0
 11
-22.39999999999999
 21
-7.0
 31
0.0
  0
LINE
  5
502
330
18
100
AcDbEntity
  8
SK3
100
AcDbLine
 10
-63.67967
 20
-8.506799999999998
 30
0.0
 11
-65.4
 21
-9.5
 31
0.0
  0
LINE
  5
503
330
18
100
AcDbEntity
  8
SK3
100
AcDbLine
 10
-63.67967
 20
-8.506799999999998
 30
0.0
 11
-56.15000000000001
 21
-8.506799999999998
 31
0.0
  0
LINE
  5
504
330
18
100
AcDbEntity
  8
SK3
100
AcDbLine
 10
-55.28006999999999
 20
7.0
 30
0.0
 11
-55.28006999999999
 21
-7.0
 31
0.0
  0
LINE
  5
505
330
18
100
AcDbEntity
  8
SK3
100
AcDbLine
 10
-22.39999999999999
 20
0.0
 30
0.0
 11
-22.39999999999999
 21
-7.0
 31
0.0
  0
LINE
  5
506
330
18
100
AcDbEntity
  8
SK3
100
AcDbLine
 10
-35.4
 20
0.0
 30
0.0
 11
-35.4
 21
-8.0
 31
0.0
  0
LINE
  5
507
330
18
100
AcDbEntity
  8
SK3
100
AcDbLine
 10
-56.15000000000001
 20
0.0
 30
0.0
 11
-56.15000000000001
 21
-8.506799999999998
 31
0.0
  0
ARC
  5
508
330
18
100
AcDbEntity
  8
1
  6
CONTINUOUS
 62
     4
100
AcDbCircle
 10
2.599999999999994
 20
30.88852999999999
 30
0.0
 40
0.6000000000000015
100
AcDbArc
 50
90.0000000235031
 51
180.0000000235027
  0
ARC
  5
509
330
18
100
AcDbEntity
  8
1
  6
CONTINUOUS
 62
     4
100
AcDbCircle
 10
26.4
 20
30.88853
 30
0.0
 40
0.5999999999999979
100
AcDbArc
 50
0.0000000235031287
 51
90.0000000235032
  0
LINE
  5
50A
330
18
100
AcDbEntity
  8
SK3
100
AcDbLine
 10
-55.28006999999999
 20
-7.0
 30
0.0
 11
-56.15000000000001
 21
-8.506730000000001
 31
0.0
  0
LINE
  5
50B
330
18
100
AcDbEntity
  8
1
  6
CONTINUOUS
 62
     4
100
AcDbLine
 10
11.59993
 20
-31.48846999999999
 30
0.0
 11
11.59993
 21
-8.05
 31
0.0
  0
LINE
  5
50C
330
18
100
AcDbEntity
  8
1
  6
CONTINUOUS
 62
     4
100
AcDbLine
 10
21.60007
 20
-31.48846999999999
 30
0.0
 11
21.60007
 21
-4.570930000000004
 31
0.0
  0
ARC
  5
50D
330
18
100
AcDbEntity
  8
1
  6
CONTINUOUS
 62
     4
100
AcDbCircle
 10
26.4
 20
-30.88853
 30
0.0
 40
0.599999999999999
100
AcDbArc
 50
270.000000023503
 51
0.0000000235031287
  0
ARC
  5
50E
330
18
100
AcDbEntity
  8
1
  6
CONTINUOUS
 62
     4
100
AcDbCircle
 10
2.599999999999994
 20
-30.88852999999999
 30
0.0
 40
0.6000000000000015
100
AcDbArc
 50
180.0000000000003
 51
270.0
  0
ARC
  5
50F
330
18
100
AcDbEntity
  8
1
  6
CONTINUOUS
 62
     4
100
AcDbCircle
 10
0.3799447920405896
 20
-22.34998201534535
 30
0.0
 40
0.3999872532314359
100
AcDbArc
 50
89.99295415898592
 51
161.7908437522229
  0
ARC
  5
510
330
18
100
AcDbEntity
  8
1
  6
CONTINUOUS
 62
     4
100
AcDbCircle
 10
1.599999999999994
 20
-22.35
 30
0.0
 40
0.3999999999999986
100
AcDbArc
 50
0.0
 51
90.0
  0
ARC
  5
511
330
18
100
AcDbEntity
  8
1
  6
CONTINUOUS
 62
     4
100
AcDbCircle
 10
0.3799447920405896
 20
22.34998201534535
 30
0.0
 40
0.3999872532314359
100
AcDbArc
 50
198.2091562712802
 51
270.0070458645171
  0
ARC
  5
512
330
18
100
AcDbEntity
  8
1
  6
CONTINUOUS
 62
     4
100
AcDbCircle
 10
1.599999999999994
 20
22.35
 30
0.0
 40
0.3999999999999986
100
AcDbArc
 50
270.0000000235031
 51
0.0000000235031287
  0
LINE
  5
514
330
18
100
AcDbEntity
  8
SK3
100
AcDbLine
 10
-55.85746999999999
 20
-8.0
 30
0.0
 11
-35.4
 21
-8.0
 31
0.0
  0
LINE
  5
515
330
18
100
AcDbEntity
  8
SK3
100
AcDbLine
 10
-55.85746999999999
 20
8.0
 30
0.0
 11
-35.4
 21
8.0
 31
0.0
  0
LINE
  5
581
330
18
100
AcDbEntity
  8
SK2
100
AcDbLine
 10
2.599999999999994
 20
-31.48846999999999
 30
0.0
 11
-100.0
 21
-31.48846999999997
 31
0.0
  0
LINE
  5
582
330
18
100
AcDbEntity
  8
SK2
100
AcDbLine
 10
2.599999999999994
 20
31.48852999999999
 30
0.0
 11
-100.0
 21
31.48853000000002
 31
0.0
  0
LINE
  5
583
330
18
100
AcDbEntity
  8
SK2
100
AcDbLine
 10
-95.0
 20
-26.91846999999997
 30
0.0
 11
-95.0
 21
26.91853000000002
 31
0.0
  0
SOLID
  5
584
330
18
100
AcDbEntity
  8
SK2
100
AcDbTrace
 10
-95.76166666666667
 20
-26.91846999999997
 30
0.0
 11
-94.23833333333332
 21
-26.91846999999997
 31
0.0
 12
-95.0
 22
-31.48846999999997
 32
0.0
 13
-95.0
 23
-31.48846999999997
 33
0.0
  0
SOLID
  5
585
330
18
100
AcDbEntity
  8
SK2
100
AcDbTrace
 10
-95.76166666666667
 20
26.91853000000002
 30
0.0
 11
-94.23833333333332
 21
26.91853000000002
 31
0.0
 12
-95.0
 22
31.48853000000002
 32
0.0
 13
-95.0
 23
31.48853000000002
 33
0.0
  0
LINE
  5
591
330
18
100
AcDbEntity
  8
SK2
100
AcDbLine
 10
-55.85746999999999
 20
8.0
 30
0.0
 11
-85.0
 21
8.000000000000008
 31
0.0
  0
LINE
  5
592
330
18
100
AcDbEntity
  8
SK2
100
AcDbLine
 10
-55.85746999999999
 20
-8.0
 30
0.0
 11
-85.0
 21
-7.999999999999992
 31
0.0
  0
LINE
  5
593
330
18
100
AcDbEntity
  8
SK2
100
AcDbLine
 10
-80.0
 20
3.430000000000006
 30
0.0
 11
-80.0
 21
-3.429999999999992
 31
0.0
  0
LINE
  5
594
330
18
100
AcDbEntity
  8
SK2
100
AcDbLine
 10
-80.0
 20
-7.999999999999992
 30
0.0
 11
-80.0
 21
-28.70380952380951
 31
0.0
  0
SOLID
  5
595
330
18
100
AcDbEntity
  8
SK2
100
AcDbTrace
 10
-80.76166666666667
 20
3.430000000000006
 30
0.0
 11
-79.23833333333333
 21
3.430000000000006
 31
0.0
 12
-80.0
 22
8.000000000000007
 32
0.0
 13
-80.0
 23
8.000000000000007
 33
0.0
  0
SOLID
  5
596
330
18
100
AcDbEntity
  8
SK2
100
AcDbTrace
 10
-80.76166666666667
 20
-3.429999999999992
 30
0.0
 11
-79.23833333333333
 21
-3.429999999999992
 31
0.0
 12
-80.0
 22
-7.999999999999992
 32
0.0
 13
-80.0
 23
-7.999999999999992
 33
0.0
  0
LINE
  5
598
330
18
100
AcDbEntity
  8
SK2
100
AcDbLine
 10
0.0
 20
22.225
 30
0.0
 11
-9.999999999999989
 21
22.225
 31
0.0
  0
LINE
  5
599
330
18
100
AcDbEntity
  8
SK2
100
AcDbLine
 10
0.0
 20
-22.225
 30
0.0
 11
-10.0
 21
-22.22499999999999
 31
0.0
  0
LINE
  5
59A
330
18
100
AcDbEntity
  8
SK2
100
AcDbLine
 10
-4.999999999999991
 20
17.655
 30
0.0
 11
-4.999999999999998
 21
-17.655
 31
0.0
  0
SOLID
  5
59B
330
18
100
AcDbEntity
  8
SK2
100
AcDbTrace
 10
-5.761666666666657
 20
17.655
 30
0.0
 11
-4.238333333333324
 21
17.655
 31
0.0
 12
-4.999999999999989
 22
22.225
 32
0.0
 13
-4.999999999999989
 23
22.225
 33
0.0
  0
SOLID
  5
59C
330
18
100
AcDbEntity
  8
SK2
100
AcDbTrace
 10
-5.761666666666664
 20
-17.655
 30
0.0
 11
-4.238333333333331
 21
-17.655
 31
0.0
 12
-5.0
 22
-22.225
 32
0.0
 13
-5.0
 23
-22.225
 33
0.0
  0
LINE
  5
59E
330
18
100
AcDbEntity
  8
SK2
100
AcDbLine
 10
-65.4
 20
11.82259999958979
 30
0.0
 11
-65.4
 21
80.00000000000001
 31
0.0
  0
LINE
  5
59F
330
18
100
AcDbEntity
  8
SK2
100
AcDbLine
 10
0.0
 20
22.225
 30
0.0
 11
0.0000000000000035
 21
80.0
 31
0.0
  0
LINE
  5
5A0
330
18
100
AcDbEntity
  8
SK2
100
AcDbLine
 10
-60.83000000000001
 20
75.0
 30
0.0
 11
-4.569999999999996
 21
75.0
 31
0.0
  0
SOLID
  5
5A1
330
18
100
AcDbEntity
  8
SK2
100
AcDbTrace
 10
-60.83000000000001
 20
75.76166666666667
 30
0.0
 11
-60.83000000000001
 21
74.23833333333333
 31
0.0
 12
-65.4
 22
75.0
 32
0.0
 13
-65.4
 23
75.0
 33
0.0
  0
SOLID
  5
5A2
330
18
100
AcDbEntity
  8
SK2
100
AcDbTrace
 10
-4.569999999999996
 20
75.76166666666667
 30
0.0
 11
-4.569999999999996
 21
74.23833333333333
 31
0.0
 12
0.0000000000000032
 22
75.0
 32
0.0
 13
0.0000000000000032
 23
75.0
 33
0.0
  0
LINE
  5
5A4
330
18
100
AcDbEntity
  8
SK2
100
AcDbLine
 10
0.0
 20
22.225
 30
0.0
 11
0.0000000000000026
 21
65.0
 31
0.0
  0
LINE
  5
5A5
330
18
100
AcDbEntity
  8
SK2
100
AcDbLine
 10
27.0
 20
30.88853
 30
0.0
 11
27.0
 21
65.0
 31
0.0
  0
LINE
  5
5A6
330
18
100
AcDbEntity
  8
SK2
100
AcDbLine
 10
4.570000000000002
 20
60.0
 30
0.0
 11
22.43
 21
60.0
 31
0.0
  0
SOLID
  5
5A7
330
18
100
AcDbEntity
  8
SK2
100
AcDbTrace
 10
4.570000000000002
 20
60.76166666666667
 30
0.0
 11
4.570000000000002
 21
59.23833333333333
 31
0.0
 12
0.0000000000000023
 22
60.0
 32
0.0
 13
0.0000000000000023
 23
60.0
 33
0.0
  0
SOLID
  5
5A8
330
18
100
AcDbEntity
  8
SK2
100
AcDbTrace
 10
22.43
 20
60.76166666666667
 30
0.0
 11
22.43
 21
59.23833333333333
 31
0.0
 12
27.0
 22
60.0
 32
0.0
 13
27.0
 23
60.0
 33
0.0
  0
LINE
  5
5AA
330
18
100
AcDbEntity
  8
2
100
AcDbLine
 10
0.0000000000000071
 20
26.717
 30
0.0
 11
0.0000000000000104
 21
80.0
 31
0.0
  0
LINE
  5
5AB
330
18
100
AcDbEntity
  8
2
100
AcDbLine
 10
160.0
 20
17.99999999999999
 30
0.0
 11
160.0
 21
80.0
 31
0.0
  0
LINE
  5
5AC
330
18
100
AcDbEntity
  8
2
100
AcDbLine
 10
4.57000000000001
 20
75.0
 30
0.0
 11
155.43
 21
75.0
 31
0.0
  0
SOLID
  5
5AD
330
18
100
AcDbEntity
  8
2
100
AcDbTrace
 10
4.57000000000001
 20
75.76166666666667
 30
0.0
 11
4.57000000000001
 21
74.23833333333333
 31
0.0
 12
0.0000000000000101
 22
75.0
 32
0.0
 13
0.0000000000000101
 23
75.0
 33
0.0
  0
SOLID
  5
5AE
330
18
100
AcDbEntity
  8
2
100
AcDbTrace
 10
155.43
 20
75.76166666666667
 30
0.0
 11
155.43
 21
74.23833333333333
 31
0.0
 12
160.0
 22
75.0
 32
0.0
 13
160.0
 23
75.0
 33
0.0
  0
TEXT
  5
5B0
330
18
100
AcDbEntity
  8
2
100
AcDbText
 10
74.55952380952382
 20
77.3
 30
0.0
 40
4.57
  1
160
  7
SIMPLEX
100
AcDbText
  0
TEXT
  5
5B1
330
18
100
AcDbEntity
  8
SK2
100
AcDbText
 10
9.800476190476194
 20
62.3
 30
0.0
 40
4.57
  1
27
  7
SIMPLEX
100
AcDbText
  0
TEXT
  5
5B2
330
18
100
AcDbEntity
  8
SK2
100
AcDbText
 10
-39.77261904761905
 20
77.3
 30
0.0
 40
4.57
  1
65.4
  7
SIMPLEX
100
AcDbText
  0
TEXT
  5
5B3
330
18
100
AcDbEntity
  8
SK2
100
AcDbText
 10
-7.299999999999997
 20
-11.20738095238095
 30
0.0
 40
4.57
  1
%%c
 50
90.0
  7
SIMPLEX
100
AcDbText
  0
TEXT
  5
5B4
330
18
100
AcDbEntity
  8
SK2
100
AcDbText
 10
-7.299999999999997
 20
-7.072619047619046
 30
0.0
 40
4.57
  1
44.45
 50
90.0
  7
SIMPLEX
100
AcDbText
  0
TEXT
  5
5B5
330
18
100
AcDbEntity
  8
SK2
100
AcDbText
 10
-82.3
 20
-26.40380952380953
 30
0.0
 40
4.57
  1
M16
 50
90.0
  7
SIMPLEX
100
AcDbText
  0
TEXT
  5
5B6
330
18
100
AcDbEntity
  8
SK2
100
AcDbText
 10
-97.30000000000002
 20
-5.76687476190475
 30
0.0
 40
4.57
  1
%%c
 50
90.0
  7
SIMPLEX
100
AcDbText
  0
TEXT
  5
5B7
330
18
100
AcDbEntity
  8
SK2
100
AcDbText
 10
-97.30000000000002
 20
-1.632112857142845
 30
0.0
 40
4.57
  1
63
 50
90.0
  7
SIMPLEX
100
AcDbText
  0
TEXT
  5
5B8
330
18
100
AcDbEntity
  8
SK2
100
AcDbText
 10
172.6999999999999
 20
-5.766904761904736
 30
0.0
 40
4.57
  1
%%c
 50
90.0
  7
SIMPLEX
100
AcDbText
  0
TEXT
  5
5B9
330
18
100
AcDbEntity
  8
SK2
100
AcDbText
 10
172.6999999999999
 20
-1.632142857142832
 30
0.0
 40
4.57
  1
50
 50
90.0
  7
SIMPLEX
100
AcDbText
  0
ENDSEC
  0
SECTION
  2
OBJECTS
  0
DICTIONARY
  5
C
330
0
100
AcDbDictionary
  3
ACAD_GROUP
350
D
  3
ACAD_LAYOUT
350
301
  3
ACAD_MLINESTYLE
350
E
  3
ACAD_PLOTSETTINGS
350
302
1001
ACAD
1000
TREAT_AS_HARD
1070
     0
  0
DICTIONARY
  5
5BB
330
18
100
AcDbDictionary
  3
ACAD_LAYOUTSELFREF
350
5BC
  0
DICTIONARY
  5
5BD
330
338
100
AcDbDictionary
  3
ACAD_LAYOUTSELFREF
350
5BE
  0
DICTIONARY
  5
D
102
{ACAD_REACTORS
330
C
102
}
330
C
100
AcDbDictionary
1001
ACAD
1000
TREAT_AS_HARD
1070
     0
  0
DICTIONARY
  5
301
102
{ACAD_REACTORS
330
C
102
}
330
C
100
AcDbDictionary
1001
ACAD
1000
TREAT_AS_HARD
1070
     0
  0
DICTIONARY
  5
E
102
{ACAD_REACTORS
330
C
102
}
330
C
100
AcDbDictionary
  3
STANDARD
350
1B
1001
ACAD
1000
TREAT_AS_HARD
1070
     0
  0
DICTIONARY
  5
302
102
{ACAD_REACTORS
330
C
102
}
330
C
100
AcDbDictionary
1001
ACAD
1000
TREAT_AS_HARD
1070
     0
  0
XRECORD
  5
5BC
102
{ACAD_REACTORS
330
5BB
102
}
330
5BB
100
AcDbXrecord
340
18
  0
XRECORD
  5
5BE
102
{ACAD_REACTORS
330
5BD
102
}
330
5BD
100
AcDbXrecord
340
338
  0
MLINESTYLE
  5
1B
102
{ACAD_REACTORS
330
E
102
}
330
E
100
AcDbMlineStyle
  2
STANDARD
 70
     0
  3

 62
     0
 51
90.0
 52
90.0
 71
     2
 49
0.5
 62
   256
  6
BYLAYER
 49
-0.5
 62
   256
  6
BYLAYER
  0
ENDSEC
  0
EOF
