  0
SECTION
  2
HEADER
  9
$ACADVER
  1
AC1012
  9
$DWGCODEPAGE
  3
ANSI_1252
  9
$INSBASE
 10
0.0
 20
0.0
 30
0.0
  9
$EXTMIN
 10
-138.9016402052968
 20
-50.13854866397855
 30
-0.0015258207003583
  9
$EXTMAX
 10
120.04107779991
 20
81.8743904422438
 30
0.0000000349246037
  9
$LIMMIN
 10
-170.0
 20
-170.0
  9
$LIMMAX
 10
519.0
 20
260.0
  9
$ORTHOMODE
 70
     1
  9
$REGENMODE
 70
     1
  9
$FILLMODE
 70
     1
  9
$QTEXTMODE
 70
     0
  9
$MIRRTEXT
 70
     0
  9
$DRAGMODE
 70
     2
  9
$LTSCALE
 40
15.0
  9
$OSMODE
 70
     0
  9
$ATTMODE
 70
     1
  9
$TEXTSIZE
 40
4.57
  9
$TRACEWID
 40
0.05
  9
$TEXTSTYLE
  7
SIMPLEX
  9
$CLAYER
  8
SK2
  9
$CELTYPE
  6
BYLAYER
  9
$CECOLOR
 62
   256
  9
$CELTSCALE
 40
1.0
  9
$DELOBJ
 70
     1
  9
$DISPSILH
 70
     0
  9
$DIMSCALE
 40
0.0
  9
$DIMASZ
 40
4.57
  9
$DIMEXO
 40
0.0
  9
$DIMDLI
 40
0.38
  9
$DIMRND
 40
0.0
  9
$DIMDLE
 40
0.0
  9
$DIMEXE
 40
5.0
  9
$DIMTP
 40
0.0
  9
$DIMTM
 40
0.0
  9
$DIMTXT
 40
4.57
  9
$DIMCEN
 40
0.09
  9
$DIMTSZ
 40
0.0
  9
$DIMTOL
 70
     0
  9
$DIMLIM
 70
     0
  9
$DIMTIH
 70
     0
  9
$DIMTOH
 70
     0
  9
$DIMSE1
 70
     0
  9
$DIMSE2
 70
     0
  9
$DIMTAD
 70
     1
  9
$DIMZIN
 70
     8
  9
$DIMBLK
  1

  9
$DIMASO
 70
     1
  9
$DIMSHO
 70
     1
  9
$DIMPOST
  1

  9
$DIMAPOST
  1

  9
$DIMALT
 70
     0
  9
$DIMALTD
 70
     2
  9
$DIMALTF
 40
25.4
  9
$DIMLFAC
 40
1.0
  9
$DIMTOFL
 70
     0
  9
$DIMTVP
 40
0.0
  9
$DIMTIX
 70
     0
  9
$DIMSOXD
 70
     0
  9
$DIMSAH
 70
     0
  9
$DIMBLK1
  1

  9
$DIMBLK2
  1

  9
$DIMSTYLE
  2
STANDARD
  9
$DIMCLRD
 70
     0
  9
$DIMCLRE
 70
     0
  9
$DIMCLRT
 70
     0
  9
$DIMTFAC
 40
1.0
  9
$DIMGAP
 40
2.299999999999999
  9
$DIMJUST
 70
     0
  9
$DIMSD1
 70
     0
  9
$DIMSD2
 70
     0
  9
$DIMTOLJ
 70
     1
  9
$DIMTZIN
 70
     0
  9
$DIMALTZ
 70
     0
  9
$DIMALTTZ
 70
     0
  9
$DIMFIT
 70
     3
  9
$DIMUPT
 70
     0
  9
$DIMUNIT
 70
     2
  9
$DIMDEC
 70
     2
  9
$DIMTDEC
 70
     4
  9
$DIMALTU
 70
     2
  9
$DIMALTTD
 70
     2
  9
$DIMTXSTY
  7
SIMPLEX
  9
$DIMAUNIT
 70
     0
  9
$LUNITS
 70
     2
  9
$LUPREC
 70
     2
  9
$SKETCHINC
 40
0.1
  9
$FILLETRAD
 40
0.0
  9
$AUNITS
 70
     0
  9
$AUPREC
 70
     0
  9
$MENU
  1
c:\tdm21\cad\caduti13\tdm13
  9
$ELEVATION
 40
0.0
  9
$PELEVATION
 40
0.0
  9
$THICKNESS
 40
0.0
  9
$LIMCHECK
 70
     0
  9
$BLIPMODE
 70
     0
  9
$CHAMFERA
 40
0.0
  9
$CHAMFERB
 40
0.0
  9
$CHAMFERC
 40
0.0
  9
$CHAMFERD
 40
0.0
  9
$SKPOLY
 70
     0
  9
$TDCREATE
 40
2452449.926577777
  9
$TDUPDATE
 40
2452449.926577777
  9
$TDINDWG
 40
0.0028994213
  9
$TDUSRTIMER
 40
0.0028994213
  9
$USRTIMER
 70
     1
  9
$ANGBASE
 50
0.0
  9
$ANGDIR
 70
     0
  9
$PDMODE
 70
     1
  9
$PDSIZE
 40
0.0
  9
$PLINEWID
 40
0.0
  9
$COORDS
 70
     1
  9
$SPLFRAME
 70
     0
  9
$SPLINETYPE
 70
     6
  9
$SPLINESEGS
 70
     8
  9
$ATTDIA
 70
     0
  9
$ATTREQ
 70
     1
  9
$HANDLING
 70
  4097
  9
$HANDSEED
  5
5C9
  9
$SURFTAB1
 70
     6
  9
$SURFTAB2
 70
     6
  9
$SURFTYPE
 70
     6
  9
$SURFU
 70
     6
  9
$SURFV
 70
     6
  9
$UCSNAME
  2

  9
$UCSORG
 10
0.0
 20
0.0
 30
0.0
  9
$UCSXDIR
 10
1.0
 20
0.0
 30
0.0
  9
$UCSYDIR
 10
0.0
 20
1.0
 30
0.0
  9
$PUCSNAME
  2

  9
$PUCSORG
 10
0.0
 20
0.0
 30
0.0
  9
$PUCSXDIR
 10
1.0
 20
0.0
 30
0.0
  9
$PUCSYDIR
 10
0.0
 20
1.0
 30
0.0
  9
$USERI1
 70
     0
  9
$USERI2
 70
     0
  9
$USERI3
 70
     0
  9
$USERI4
 70
     0
  9
$USERI5
 70
     0
  9
$USERR1
 40
0.0
  9
$USERR2
 40
0.0
  9
$USERR3
 40
0.0
  9
$USERR4
 40
0.0
  9
$USERR5
 40
0.0
  9
$WORLDVIEW
 70
     1
  9
$SHADEDGE
 70
     3
  9
$SHADEDIF
 70
    70
  9
$TILEMODE
 70
     1
  9
$MAXACTVP
 70
    16
  9
$PINSBASE
 10
0.0
 20
0.0
 30
0.0
  9
$PLIMCHECK
 70
     0
  9
$PEXTMIN
 10
0.0
 20
0.0
 30
0.0
  9
$PEXTMAX
 10
0.0
 20
0.0
 30
0.0
  9
$PLIMMIN
 10
0.0
 20
0.0
  9
$PLIMMAX
 10
12.0
 20
9.0
  9
$UNITMODE
 70
     0
  9
$VISRETAIN
 70
     0
  9
$PLINEGEN
 70
     0
  9
$PSLTSCALE
 70
     1
  9
$TREEDEPTH
 70
  3020
  9
$PICKSTYLE
 70
     1
  9
$CMLSTYLE
  2
STANDARD
  9
$CMLJUST
 70
     0
  9
$CMLSCALE
 40
1.0
  9
$SAVEIMAGES
 70
     1
  0
ENDSEC
  0
SECTION
  2
CLASSES
  0
CLASS
  1
ACDBDICTIONARYWDFLT
  2
AcDbDictionaryWithDefault
  3
AutoCAD 2000
 90
    32768
280
     0
281
     0
  0
CLASS
  1
ACDBPLACEHOLDER
  2
AcDbPlaceHolder
  3
AutoCAD 2000
 90
    32768
280
     0
281
     0
  0
CLASS
  1
LAYOUT
  2
AcDbLayout
  3
AutoCAD 2000
 90
    32768
280
     0
281
     0
  0
CLASS
  1
LONG_TRANSACTION
  2
AcDbLongTransaction
  3
AutoCAD 2000
 90
    32768
280
     0
281
     0
  0
CLASS
  1
LWPOLYLINE
  2
AcDbPolyline
  3
AutoCAD 2000
 90
    32768
280
     0
281
     1
  0
CLASS
  1
HATCH
  2
AcDbHatch
  3
AutoCAD 2000
 90
    32768
280
     0
281
     1
  0
CLASS
  1
XRECORD
  2
AcDbXrecord
  3
AutoCAD 2000
 90
    32768
280
     0
281
     0
  0
ENDSEC
  0
SECTION
  2
TABLES
  0
TABLE
  2
VPORT
  5
8
330
0
100
AcDbSymbolTable
 70
     3
  0
VPORT
  5
5C4
330
8
100
AcDbSymbolTableRecord
100
AcDbViewportTableRecord
  2
*ACTIVE
 70
     0
 10
0.0
 20
0.0
 11
1.0
 21
1.0
 12
-9.430281202693418
 22
15.86792088913262
 13
0.0
 23
0.0
 14
5.0
 24
5.0
 15
5.0
 25
5.0
 16
0.0
 26
0.0
 36
1.0
 17
0.0
 27
0.0
 37
0.0
 40
142.0129391062223
 41
2.130434782608695
 42
50.0
 43
0.0
 44
0.0
 50
0.0
 51
0.0
 71
     0
 72
   100
 73
     1
 74
     1
 75
     0
 76
     0
 77
     0
 78
     0
  0
ENDTAB
  0
TABLE
  2
LTYPE
  5
5
330
0
100
AcDbSymbolTable
 70
     3
  0
LTYPE
  5
12
330
5
100
AcDbSymbolTableRecord
100
AcDbLinetypeTableRecord
  2
BYBLOCK
 70
     0
  3

 72
    65
 73
     0
 40
0.0
  0
LTYPE
  5
13
330
5
100
AcDbSymbolTableRecord
100
AcDbLinetypeTableRecord
  2
BYLAYER
 70
     0
  3

 72
    65
 73
     0
 40
0.0
  0
LTYPE
  5
14
330
5
100
AcDbSymbolTableRecord
100
AcDbLinetypeTableRecord
  2
CONTINUOUS
 70
     0
  3
Solid line
 72
    65
 73
     0
 40
0.0
  0
LTYPE
  5
1F
330
5
100
AcDbSymbolTableRecord
100
AcDbLinetypeTableRecord
  2
CENTER
 70
     0
  3
____ . ____ . ____
 72
    65
 73
     4
 40
1.5
 49
1.0
 74
     0
 49
-0.25
 74
     0
 49
0.0
 74
     0
 49
-0.25
 74
     0
  0
LTYPE
  5
20
330
5
100
AcDbSymbolTableRecord
100
AcDbLinetypeTableRecord
  2
HIDDEN
 70
     0
  3
_ _ _ _ _ _ _ _ _ _ _ _ _ _ _ _ _ _ _ _ _ _ _
 72
    65
 73
     2
 40
0.375
 49
0.25
 74
     0
 49
-0.125
 74
     0
  0
ENDTAB
  0
TABLE
  2
LAYER
  5
2
330
0
100
AcDbSymbolTable
 70
    15
  0
LAYER
  5
F
330
2
100
AcDbSymbolTableRecord
100
AcDbLayerTableRecord
  2
0
 70
     0
 62
    -7
  6
CONTINUOUS
  0
LAYER
  5
23
330
2
100
AcDbSymbolTableRecord
100
AcDbLayerTableRecord
  2
1
 70
     0
 62
     4
  6
CONTINUOUS
  0
LAYER
  5
24
330
2
100
AcDbSymbolTableRecord
100
AcDbLayerTableRecord
  2
SK1
 70
     0
 62
     4
  6
CONTINUOUS
  0
LAYER
  5
25
330
2
100
AcDbSymbolTableRecord
100
AcDbLayerTableRecord
  2
2
 70
     0
 62
     7
  6
CONTINUOUS
  0
LAYER
  5
26
330
2
100
AcDbSymbolTableRecord
100
AcDbLayerTableRecord
  2
2L
 70
     0
 62
     7
  6
CONTINUOUS
  0
LAYER
  5
27
330
2
100
AcDbSymbolTableRecord
100
AcDbLayerTableRecord
  2
SK2
 70
     0
 62
     7
  6
CONTINUOUS
  0
LAYER
  5
28
330
2
100
AcDbSymbolTableRecord
100
AcDbLayerTableRecord
  2
3
 70
     0
 62
     1
  6
HIDDEN
  0
LAYER
  5
29
330
2
100
AcDbSymbolTableRecord
100
AcDbLayerTableRecord
  2
SK3
 70
     0
 62
     1
  6
HIDDEN
  0
LAYER
  5
2A
330
2
100
AcDbSymbolTableRecord
100
AcDbLayerTableRecord
  2
4
 70
     0
 62
    -2
  6
CENTER
  0
LAYER
  5
2B
330
2
100
AcDbSymbolTableRecord
100
AcDbLayerTableRecord
  2
SK4
 70
     0
 62
     2
  6
CENTER
  0
LAYER
  5
2C
330
2
100
AcDbSymbolTableRecord
100
AcDbLayerTableRecord
  2
5
 70
     0
 62
    -7
  6
CONTINUOUS
  0
LAYER
  5
2D
330
2
100
AcDbSymbolTableRecord
100
AcDbLayerTableRecord
  2
6
 70
     0
 62
     5
  6
CONTINUOUS
  0
LAYER
  5
2E
330
2
100
AcDbSymbolTableRecord
100
AcDbLayerTableRecord
  2
SK6
 70
     0
 62
     5
  6
CONTINUOUS
  0
LAYER
  5
2F
330
2
100
AcDbSymbolTableRecord
100
AcDbLayerTableRecord
  2
DEFPOINTS
 70
     0
 62
    -7
  6
CONTINUOUS
  0
LAYER
  5
381
330
2
100
AcDbSymbolTableRecord
100
AcDbLayerTableRecord
  2
1__1
 70
     0
 62
    -1
  6
CONTINUOUS
  0
ENDTAB
  0
TABLE
  2
STYLE
  5
3
330
0
100
AcDbSymbolTable
 70
     3
  0
STYLE
  5
10
330
3
100
AcDbSymbolTableRecord
100
AcDbTextStyleTableRecord
  2
STANDARD
 70
     0
 40
0.0
 41
1.0
 50
0.0
 71
     0
 42
5.0
  3
txt
  4

  0
STYLE
  5
1D
330
3
100
AcDbSymbolTableRecord
100
AcDbTextStyleTableRecord
  2
TXT
 70
     0
 40
8.0
 41
1.0
 50
0.0
 71
     0
 42
8.0
  3
txt
  4

  0
STYLE
  5
1E
330
3
100
AcDbSymbolTableRecord
100
AcDbTextStyleTableRecord
  2
SIMPLEX
 70
     0
 40
0.0
 41
1.0
 50
0.0
 71
     0
 42
4.57
  3
simplex
  4

  0
ENDTAB
  0
TABLE
  2
VIEW
  5
6
330
0
100
AcDbSymbolTable
 70
     0
  0
ENDTAB
  0
TABLE
  2
UCS
  5
7
330
0
100
AcDbSymbolTable
 70
     0
  0
ENDTAB
  0
TABLE
  2
APPID
  5
9
330
0
100
AcDbSymbolTable
 70
     1
  0
APPID
  5
11
330
9
100
AcDbSymbolTableRecord
100
AcDbRegAppTableRecord
  2
ACAD
 70
     0
  0
ENDTAB
  0
TABLE
  2
DIMSTYLE
  5
A
330
0
100
AcDbSymbolTable
 70
     1
  0
DIMSTYLE
105
3F
102
{ACAD_REACTORS
330
3F3
330
3F9
330
403
330
3F2
330
485
330
486
330
488
330
489
330
48A
330
4DA
330
4DB
330
4D9
330
4D7
330
4D6
330
3EB
102
}
330
A
100
AcDbSymbolTableRecord
100
AcDbDimStyleTableRecord
  2
STANDARD
 70
     0
  3

  4

  5

  6

  7

 40
0.0
 41
4.57
 42
0.0
 43
0.38
 44
5.0
 45
0.0
 46
0.0
 47
0.0
 48
0.0
140
4.57
141
0.09
142
0.0
143
25.4
144
1.0
145
0.0
146
1.0
147
2.299999999999999
 71
     0
 72
     0
 73
     0
 74
     0
 75
     0
 76
     0
 77
     1
 78
     8
170
     0
171
     2
172
     0
173
     0
174
     0
175
     0
176
     0
177
     0
178
     0
270
     2
271
     2
272
     4
273
     2
274
     2
340
1E
275
     0
280
     0
281
     0
282
     0
283
     1
284
     0
285
     0
286
     0
287
     3
288
     0
  0
ENDTAB
  0
TABLE
  2
BLOCK_RECORD
  5
1
330
0
100
AcDbSymbolTable
 70
    16
  0
BLOCK_RECORD
  5
18
102
{ACAD_XDICTIONARY
360
5C5
102
}
330
1
100
AcDbSymbolTableRecord
100
AcDbBlockTableRecord
  2
*MODEL_SPACE
  0
BLOCK_RECORD
  5
338
102
{ACAD_XDICTIONARY
360
5C7
102
}
330
1
100
AcDbSymbolTableRecord
100
AcDbBlockTableRecord
  2
*PAPER_SPACE
  0
BLOCK_RECORD
  5
345
330
1
100
AcDbSymbolTableRecord
100
AcDbBlockTableRecord
  2
*D0
  0
BLOCK_RECORD
  5
351
330
1
100
AcDbSymbolTableRecord
100
AcDbBlockTableRecord
  2
*D1
  0
BLOCK_RECORD
  5
35D
330
1
100
AcDbSymbolTableRecord
100
AcDbBlockTableRecord
  2
*D2
  0
BLOCK_RECORD
  5
369
330
1
100
AcDbSymbolTableRecord
100
AcDbBlockTableRecord
  2
*D3
  0
BLOCK_RECORD
  5
375
330
1
100
AcDbSymbolTableRecord
100
AcDbBlockTableRecord
  2
*D4
  0
BLOCK_RECORD
  5
448
330
1
100
AcDbSymbolTableRecord
100
AcDbBlockTableRecord
  2
*D5
  0
BLOCK_RECORD
  5
454
330
1
100
AcDbSymbolTableRecord
100
AcDbBlockTableRecord
  2
*D6
  0
BLOCK_RECORD
  5
460
330
1
100
AcDbSymbolTableRecord
100
AcDbBlockTableRecord
  2
*D7
  0
BLOCK_RECORD
  5
46C
330
1
100
AcDbSymbolTableRecord
100
AcDbBlockTableRecord
  2
*D8
  0
BLOCK_RECORD
  5
478
330
1
100
AcDbSymbolTableRecord
100
AcDbBlockTableRecord
  2
*D9
  0
BLOCK_RECORD
  5
484
330
1
100
AcDbSymbolTableRecord
100
AcDbBlockTableRecord
  2
MASBT50
  0
BLOCK_RECORD
  5
523
330
1
100
AcDbSymbolTableRecord
100
AcDbBlockTableRecord
  2
*D11
  0
BLOCK_RECORD
  5
52F
330
1
100
AcDbSymbolTableRecord
100
AcDbBlockTableRecord
  2
*D12
  0
BLOCK_RECORD
  5
53B
330
1
100
AcDbSymbolTableRecord
100
AcDbBlockTableRecord
  2
*D13
  0
BLOCK_RECORD
  5
547
330
1
100
AcDbSymbolTableRecord
100
AcDbBlockTableRecord
  2
*D14
  0
BLOCK_RECORD
  5
553
330
1
100
AcDbSymbolTableRecord
100
AcDbBlockTableRecord
  2
*D15
  0
ENDTAB
  0
ENDSEC
  0
SECTION
  2
BLOCKS
  0
BLOCK
  5
32
330
18
100
AcDbEntity
  8
0
100
AcDbBlockBegin
  2
*MODEL_SPACE
 70
     0
 10
0.0
 20
0.0
 30
0.0
  3
*MODEL_SPACE
  1

  0
ENDBLK
  5
33
330
18
100
AcDbEntity
  8
0
100
AcDbBlockEnd
  0
BLOCK
  5
339
330
338
100
AcDbEntity
 67
     1
  8
0
100
AcDbBlockBegin
  2
*PAPER_SPACE
 70
     0
 10
0.0
 20
0.0
 30
0.0
  3
*PAPER_SPACE
  1

  0
ENDBLK
  5
33A
330
338
100
AcDbEntity
 67
     1
  8
0
100
AcDbBlockEnd
  0
BLOCK
  5
34F
330
345
100
AcDbEntity
  8
0
100
AcDbBlockBegin
  2
*D0
 70
     1
 10
0.0
 20
0.0
 30
0.0
  3
*D0
  1

  0
LINE
  5
41B
330
345
100
AcDbEntity
  8
2
 62
     0
100
AcDbLine
 10
0.0
 20
39.76700000000001
 30
0.0
 11
0.0000000000000025
 21
80.0
 31
0.0
  0
LINE
  5
41C
330
345
100
AcDbEntity
  8
2
 62
     0
100
AcDbLine
 10
100.0
 20
24.49999999999999
 30
0.0
 11
100.0
 21
80.0
 31
0.0
  0
LINE
  5
41D
330
345
100
AcDbEntity
  8
2
 62
     0
100
AcDbLine
 10
4.570000000000002
 20
75.0
 30
0.0
 11
95.43000000000001
 21
75.0
 31
0.0
  0
SOLID
  5
41E
330
345
100
AcDbEntity
  8
2
 62
     0
100
AcDbTrace
 10
4.570000000000002
 20
75.76166666666667
 30
0.0
 11
4.570000000000002
 21
74.23833333333333
 31
0.0
 12
0.0000000000000022
 22
75.0
 32
0.0
 13
0.0000000000000022
 23
75.0
 33
0.0
  0
SOLID
  5
41F
330
345
100
AcDbEntity
  8
2
 62
     0
100
AcDbTrace
 10
95.43000000000001
 20
75.76166666666667
 30
0.0
 11
95.43000000000001
 21
74.23833333333333
 31
0.0
 12
100.0
 22
75.0
 32
0.0
 13
100.0
 23
75.0
 33
0.0
  0
MTEXT
  5
420
330
345
100
AcDbEntity
  8
2
 62
     0
100
AcDbMText
 10
50.0
 20
79.58499999999999
 30
0.0
 40
4.57
 41
0.0
 71
     5
 72
     1
  1
\A1;100
  7
SIMPLEX
1001
ACAD
1000
MTEXTBEGIN
1070
    73
1070
     1
1070
    44
1040
1.0
1070
    74
1070
     0
1000
MTEXTEND
  0
POINT
  5
421
330
345
100
AcDbEntity
  8
DEFPOINTS
 62
     0
100
AcDbPoint
 10
0.0
 20
39.76700000000001
 30
0.0
  0
POINT
  5
422
330
345
100
AcDbEntity
  8
DEFPOINTS
 62
     0
100
AcDbPoint
 10
100.0
 20
24.49999999999999
 30
0.0
  0
POINT
  5
423
330
345
100
AcDbEntity
  8
DEFPOINTS
 62
     0
100
AcDbPoint
 10
100.0
 20
75.0
 30
0.0
  0
ENDBLK
  5
350
330
345
100
AcDbEntity
  8
0
100
AcDbBlockEnd
  0
BLOCK
  5
35B
330
351
100
AcDbEntity
  8
0
100
AcDbBlockBegin
  2
*D1
 70
     1
 10
0.0
 20
0.0
 30
0.0
  3
*D1
  1

  0
LINE
  5
424
330
351
100
AcDbEntity
  8
SK2
 62
     0
100
AcDbLine
 10
0.0
 20
34.92499999999999
 30
0.0
 11
0.0000000000000028
 21
80.0
 31
0.0
  0
LINE
  5
425
330
351
100
AcDbEntity
  8
SK2
 62
     0
100
AcDbLine
 10
-101.5999951748075
 20
18.16264950710383
 30
0.0
 11
-101.5999951748075
 21
80.0
 31
0.0
  0
LINE
  5
426
330
351
100
AcDbEntity
  8
SK2
 62
     0
100
AcDbLine
 10
-4.569999999999997
 20
75.0
 30
0.0
 11
-97.02999517480751
 21
75.0
 31
0.0
  0
SOLID
  5
427
330
351
100
AcDbEntity
  8
SK2
 62
     0
100
AcDbTrace
 10
-4.569999999999997
 20
75.76166666666667
 30
0.0
 11
-4.569999999999997
 21
74.23833333333333
 31
0.0
 12
0.0000000000000025
 22
75.0
 32
0.0
 13
0.0000000000000025
 23
75.0
 33
0.0
  0
SOLID
  5
428
330
351
100
AcDbEntity
  8
SK2
 62
     0
100
AcDbTrace
 10
-97.02999517480751
 20
75.76166666666667
 30
0.0
 11
-97.02999517480751
 21
74.23833333333333
 31
0.0
 12
-101.5999951748075
 22
75.0
 32
0.0
 13
-101.5999951748075
 23
75.0
 33
0.0
  0
MTEXT
  5
429
330
351
100
AcDbEntity
  8
SK2
 62
     0
100
AcDbMText
 10
-50.79999758740375
 20
79.58499999999999
 30
0.0
 40
4.57
 41
0.0
 71
     5
 72
     1
  1
\A1;101.6
  7
SIMPLEX
1001
ACAD
1000
MTEXTBEGIN
1070
    73
1070
     1
1070
    44
1040
1.0
1070
    74
1070
     0
1000
MTEXTEND
  0
POINT
  5
42A
330
351
100
AcDbEntity
  8
DEFPOINTS
 62
     0
100
AcDbPoint
 10
0.0
 20
34.92499999999999
 30
0.0
  0
POINT
  5
42B
330
351
100
AcDbEntity
  8
DEFPOINTS
 62
     0
100
AcDbPoint
 10
-101.5999951748075
 20
18.16264950710383
 30
0.0
  0
POINT
  5
42C
330
351
100
AcDbEntity
  8
DEFPOINTS
 62
     0
100
AcDbPoint
 10
-101.5999951748075
 20
75.0
 30
0.0
  0
ENDBLK
  5
35C
330
351
100
AcDbEntity
  8
0
100
AcDbBlockEnd
  0
BLOCK
  5
367
330
35D
100
AcDbEntity
  8
0
100
AcDbBlockBegin
  2
*D2
 70
     1
 10
0.0
 20
0.0
 30
0.0
  3
*D2
  1

  0
LINE
  5
42D
330
35D
100
AcDbEntity
  8
SK2
 62
     0
100
AcDbLine
 10
4.0
 20
-48.725
 30
0.0
 11
-136.9499999999999
 21
-48.72499999999996
 31
0.0
  0
LINE
  5
42E
330
35D
100
AcDbEntity
  8
SK2
 62
     0
100
AcDbLine
 10
4.0
 20
48.72499999999999
 30
0.0
 11
-136.9499999999999
 21
48.72500000000003
 31
0.0
  0
LINE
  5
42F
330
35D
100
AcDbEntity
  8
SK2
 62
     0
100
AcDbLine
 10
-131.9499999999999
 20
-44.15499999999997
 30
0.0
 11
-131.9499999999999
 21
44.15500000000003
 31
0.0
  0
SOLID
  5
430
330
35D
100
AcDbEntity
  8
SK2
 62
     0
100
AcDbTrace
 10
-132.7116666666666
 20
-44.15499999999997
 30
0.0
 11
-131.1883333333333
 21
-44.15499999999997
 31
0.0
 12
-131.9499999999999
 22
-48.72499999999996
 32
0.0
 13
-131.9499999999999
 23
-48.72499999999996
 33
0.0
  0
SOLID
  5
431
330
35D
100
AcDbEntity
  8
SK2
 62
     0
100
AcDbTrace
 10
-132.7116666666666
 20
44.15500000000003
 30
0.0
 11
-131.1883333333333
 21
44.15500000000003
 31
0.0
 12
-131.9499999999999
 22
48.72500000000003
 32
0.0
 13
-131.9499999999999
 23
48.72500000000003
 33
0.0
  0
MTEXT
  5
432
330
35D
100
AcDbEntity
  8
SK2
 62
     0
100
AcDbMText
 10
-136.535
 20
0.0000000000000122
 30
0.0
 40
4.57
 41
0.0
 71
     5
 72
     1
  1
\A1;%%C97.45
  7
SIMPLEX
 11
0.0000000000000001
 21
1.0
 31
0.0
1001
ACAD
1000
MTEXTBEGIN
1070
    73
1070
     1
1070
    44
1040
1.0
1070
    74
1070
     0
1000
MTEXTEND
  0
POINT
  5
433
330
35D
100
AcDbEntity
  8
DEFPOINTS
 62
     0
100
AcDbPoint
 10
4.0
 20
-48.725
 30
0.0
  0
POINT
  5
434
330
35D
100
AcDbEntity
  8
DEFPOINTS
 62
     0
100
AcDbPoint
 10
4.0
 20
48.72499999999999
 30
0.0
  0
POINT
  5
435
330
35D
100
AcDbEntity
  8
DEFPOINTS
 62
     0
100
AcDbPoint
 10
-131.9499999999999
 20
48.72500000000003
 30
0.0
  0
ENDBLK
  5
368
330
35D
100
AcDbEntity
  8
0
100
AcDbBlockEnd
  0
BLOCK
  5
373
330
369
100
AcDbEntity
  8
0
100
AcDbBlockBegin
  2
*D3
 70
     1
 10
0.0
 20
0.0
 30
0.0
  3
*D3
  1

  0
LINE
  5
436
330
369
100
AcDbEntity
  8
SK2
 62
     0
100
AcDbLine
 10
-89.56127
 20
-12.0
 30
0.0
 11
-121.95
 21
-11.99999999999999
 31
0.0
  0
LINE
  5
437
330
369
100
AcDbEntity
  8
SK2
 62
     0
100
AcDbLine
 10
-89.56127
 20
12.0
 30
0.0
 11
-121.95
 21
12.00000000000001
 31
0.0
  0
LINE
  5
438
330
369
100
AcDbEntity
  8
SK2
 62
     0
100
AcDbLine
 10
-116.9499999999999
 20
-7.429999999999991
 30
0.0
 11
-116.9499999999999
 21
7.430000000000007
 31
0.0
  0
SOLID
  5
439
330
369
100
AcDbEntity
  8
SK2
 62
     0
100
AcDbTrace
 10
-117.7116666666666
 20
-7.429999999999991
 30
0.0
 11
-116.1883333333333
 21
-7.429999999999991
 31
0.0
 12
-116.9499999999999
 22
-11.99999999999999
 32
0.0
 13
-116.9499999999999
 23
-11.99999999999999
 33
0.0
  0
SOLID
  5
43A
330
369
100
AcDbEntity
  8
SK2
 62
     0
100
AcDbTrace
 10
-117.7116666666666
 20
7.430000000000007
 30
0.0
 11
-116.1883333333333
 21
7.430000000000007
 31
0.0
 12
-116.9499999999999
 22
12.00000000000001
 32
0.0
 13
-116.9499999999999
 23
12.00000000000001
 33
0.0
  0
MTEXT
  5
43B
330
369
100
AcDbEntity
  8
SK2
 62
     0
100
AcDbMText
 10
-121.5349999999999
 20
-0.00000000000001
 30
0.0
 40
4.57
 41
0.0
 71
     5
 72
     1
  1
\A1;M24
  7
SIMPLEX
 11
0.0000000000000001
 21
1.0
 31
0.0
1001
ACAD
1000
MTEXTBEGIN
1070
    73
1070
     1
1070
    44
1040
1.0
1070
    74
1070
     0
1000
MTEXTEND
  0
POINT
  5
43C
330
369
100
AcDbEntity
  8
DEFPOINTS
 62
     0
100
AcDbPoint
 10
-89.56127
 20
-12.0
 30
0.0
  0
POINT
  5
43D
330
369
100
AcDbEntity
  8
DEFPOINTS
 62
     0
100
AcDbPoint
 10
-89.56127
 20
12.0
 30
0.0
  0
POINT
  5
43E
330
369
100
AcDbEntity
  8
DEFPOINTS
 62
     0
100
AcDbPoint
 10
-116.9499999999999
 20
12.00000000000001
 30
0.0
  0
ENDBLK
  5
374
330
369
100
AcDbEntity
  8
0
100
AcDbBlockEnd
  0
BLOCK
  5
37F
330
375
100
AcDbEntity
  8
0
100
AcDbBlockBegin
  2
*D4
 70
     1
 10
0.0
 20
0.0
 30
0.0
  3
*D4
  1

  0
LINE
  5
43F
330
375
100
AcDbEntity
  8
SK2
 62
     0
100
AcDbLine
 10
0.0
 20
-34.92499999999999
 30
0.0
 11
-14.95000000000001
 21
-34.92499999999999
 31
0.0
  0
LINE
  5
440
330
375
100
AcDbEntity
  8
SK2
 62
     0
100
AcDbLine
 10
0.0
 20
34.92499999999999
 30
0.0
 11
-14.95
 21
34.92499999999999
 31
0.0
  0
LINE
  5
441
330
375
100
AcDbEntity
  8
SK2
 62
     0
100
AcDbLine
 10
-9.950000000000017
 20
-30.35499999999999
 30
0.0
 11
-9.950000000000002
 21
30.355
 31
0.0
  0
SOLID
  5
442
330
375
100
AcDbEntity
  8
SK2
 62
     0
100
AcDbTrace
 10
-10.71166666666668
 20
-30.35499999999999
 30
0.0
 11
-9.18833333333335
 21
-30.35499999999999
 31
0.0
 12
-9.950000000000017
 22
-34.92499999999999
 32
0.0
 13
-9.950000000000017
 23
-34.92499999999999
 33
0.0
  0
SOLID
  5
443
330
375
100
AcDbEntity
  8
SK2
 62
     0
100
AcDbTrace
 10
-10.71166666666667
 20
30.355
 30
0.0
 11
-9.188333333333336
 21
30.355
 31
0.0
 12
-9.950000000000002
 22
34.92499999999999
 32
0.0
 13
-9.950000000000002
 23
34.92499999999999
 33
0.0
  0
MTEXT
  5
444
330
375
100
AcDbEntity
  8
SK2
 62
     0
100
AcDbMText
 10
-14.53500000000001
 20
0.0000000000000012
 30
0.0
 40
4.57
 41
0.0
 71
     5
 72
     1
  1
\A1;%%C69.85
  7
SIMPLEX
 11
0.0000000000000001
 21
1.0
 31
0.0
1001
ACAD
1000
MTEXTBEGIN
1070
    73
1070
     1
1070
    44
1040
1.0
1070
    74
1070
     0
1000
MTEXTEND
  0
POINT
  5
445
330
375
100
AcDbEntity
  8
DEFPOINTS
 62
     0
100
AcDbPoint
 10
0.0
 20
-34.92499999999999
 30
0.0
  0
POINT
  5
446
330
375
100
AcDbEntity
  8
DEFPOINTS
 62
     0
100
AcDbPoint
 10
0.0
 20
34.92499999999999
 30
0.0
  0
POINT
  5
447
330
375
100
AcDbEntity
  8
DEFPOINTS
 62
     0
100
AcDbPoint
 10
-9.950000000000002
 20
34.92499999999999
 30
0.0
  0
ENDBLK
  5
380
330
375
100
AcDbEntity
  8
0
100
AcDbBlockEnd
  0
BLOCK
  5
452
330
448
100
AcDbEntity
  8
0
100
AcDbBlockBegin
  2
*D5
 70
     1
 10
0.0
 20
0.0
 30
0.0
  3
*D5
  1

  0
LINE
  5
449
330
448
100
AcDbEntity
  8
0
  6
BYBLOCK
 62
     0
100
AcDbLine
 10
0.0
 20
34.92499999999999
 30
0.0
 11
0.0
 21
80.0
 31
0.0
  0
LINE
  5
44A
330
448
100
AcDbEntity
  8
0
  6
BYBLOCK
 62
     0
100
AcDbLine
 10
38.0
 20
49.38652999999999
 30
0.0
 11
38.0
 21
80.0
 31
0.0
  0
LINE
  5
44B
330
448
100
AcDbEntity
  8
0
  6
BYBLOCK
 62
     0
100
AcDbLine
 10
4.57
 20
75.0
 30
0.0
 11
33.42999999999999
 21
75.0
 31
0.0
  0
SOLID
  5
44C
330
448
100
AcDbEntity
  8
0
  6
BYBLOCK
 62
     0
100
AcDbTrace
 10
4.57
 20
75.76166666666667
 30
0.0
 11
4.57
 21
74.23833333333333
 31
0.0
 12
0.0
 22
75.0
 32
0.0
 13
0.0
 23
75.0
 33
0.0
  0
SOLID
  5
44D
330
448
100
AcDbEntity
  8
0
  6
BYBLOCK
 62
     0
100
AcDbTrace
 10
33.42999999999999
 20
75.76166666666667
 30
0.0
 11
33.42999999999999
 21
74.23833333333333
 31
0.0
 12
38.0
 22
75.0
 32
0.0
 13
38.0
 23
75.0
 33
0.0
  0
TEXT
  5
44E
330
448
100
AcDbEntity
  8
0
  6
BYBLOCK
 62
     0
100
AcDbText
 10
15.30047619047619
 20
77.285
 30
0.0
 40
4.57
  1
38
  7
SIMPLEX
 72
     1
 11
19.0
 21
79.56999999999999
 31
0.0
100
AcDbText
 73
     2
  0
POINT
  5
44F
330
448
100
AcDbEntity
  8
DEFPOINTS
  6
BYBLOCK
 62
     0
100
AcDbPoint
 10
0.0
 20
34.92499999999999
 30
0.0
  0
POINT
  5
450
330
448
100
AcDbEntity
  8
DEFPOINTS
  6
BYBLOCK
 62
     0
100
AcDbPoint
 10
38.0
 20
49.38652999999999
 30
0.0
  0
POINT
  5
451
330
448
100
AcDbEntity
  8
DEFPOINTS
  6
BYBLOCK
 62
     0
100
AcDbPoint
 10
38.0
 20
75.0
 30
0.0
  0
ENDBLK
  5
453
330
448
100
AcDbEntity
  8
0
100
AcDbBlockEnd
  0
BLOCK
  5
45E
330
454
100
AcDbEntity
  8
0
100
AcDbBlockBegin
  2
*D6
 70
     1
 10
0.0
 20
0.0
 30
0.0
  3
*D6
  1

  0
LINE
  5
455
330
454
100
AcDbEntity
  8
0
  6
BYBLOCK
 62
     0
100
AcDbLine
 10
-101.8
 20
19.21432999958978
 30
0.0
 11
-101.8
 21
80.0
 31
0.0
  0
LINE
  5
456
330
454
100
AcDbEntity
  8
0
  6
BYBLOCK
 62
     0
100
AcDbLine
 10
0.0
 20
34.92499999999999
 30
0.0
 11
0.0
 21
80.0
 31
0.0
  0
LINE
  5
457
330
454
100
AcDbEntity
  8
0
  6
BYBLOCK
 62
     0
100
AcDbLine
 10
-97.23000000000002
 20
75.0
 30
0.0
 11
-4.57
 21
75.0
 31
0.0
  0
SOLID
  5
458
330
454
100
AcDbEntity
  8
0
  6
BYBLOCK
 62
     0
100
AcDbTrace
 10
-97.23000000000002
 20
75.76166666666667
 30
0.0
 11
-97.23000000000002
 21
74.23833333333333
 31
0.0
 12
-101.8
 22
75.0
 32
0.0
 13
-101.8
 23
75.0
 33
0.0
  0
SOLID
  5
459
330
454
100
AcDbEntity
  8
0
  6
BYBLOCK
 62
     0
100
AcDbTrace
 10
-4.57
 20
75.76166666666667
 30
0.0
 11
-4.57
 21
74.23833333333333
 31
0.0
 12
0.0
 22
75.0
 32
0.0
 13
0.0
 23
75.0
 33
0.0
  0
TEXT
  5
45A
330
454
100
AcDbEntity
  8
0
  6
BYBLOCK
 62
     0
100
AcDbText
 10
-59.16952380952381
 20
77.285
 30
0.0
 40
4.57
  1
101.8
  7
SIMPLEX
 72
     1
 11
-50.9
 21
79.56999999999999
 31
0.0
100
AcDbText
 73
     2
  0
POINT
  5
45B
330
454
100
AcDbEntity
  8
DEFPOINTS
  6
BYBLOCK
 62
     0
100
AcDbPoint
 10
-101.8
 20
19.21432999958978
 30
0.0
  0
POINT
  5
45C
330
454
100
AcDbEntity
  8
DEFPOINTS
  6
BYBLOCK
 62
     0
100
AcDbPoint
 10
0.0
 20
34.92499999999999
 30
0.0
  0
POINT
  5
45D
330
454
100
AcDbEntity
  8
DEFPOINTS
  6
BYBLOCK
 62
     0
100
AcDbPoint
 10
0.0
 20
75.0
 30
0.0
  0
ENDBLK
  5
45F
330
454
100
AcDbEntity
  8
0
100
AcDbBlockEnd
  0
BLOCK
  5
46A
330
460
100
AcDbEntity
  8
0
100
AcDbBlockBegin
  2
*D7
 70
     1
 10
0.0
 20
0.0
 30
0.0
  3
*D7
  1

  0
LINE
  5
461
330
460
100
AcDbEntity
  8
0
  6
BYBLOCK
 62
     0
100
AcDbLine
 10
0.0
 20
34.92499999999999
 30
0.0
 11
-18.0
 21
34.92499999999999
 31
0.0
  0
LINE
  5
462
330
460
100
AcDbEntity
  8
0
  6
BYBLOCK
 62
     0
100
AcDbLine
 10
0.0
 20
-34.92499999999999
 30
0.0
 11
-18.0
 21
-34.92499999999999
 31
0.0
  0
LINE
  5
463
330
460
100
AcDbEntity
  8
0
  6
BYBLOCK
 62
     0
100
AcDbLine
 10
-13.0
 20
30.35499999999999
 30
0.0
 11
-13.0
 21
-30.35499999999999
 31
0.0
  0
SOLID
  5
464
330
460
100
AcDbEntity
  8
0
  6
BYBLOCK
 62
     0
100
AcDbTrace
 10
-13.76166666666666
 20
30.35499999999999
 30
0.0
 11
-12.23833333333333
 21
30.35499999999999
 31
0.0
 12
-13.0
 22
34.92499999999999
 32
0.0
 13
-13.0
 23
34.92499999999999
 33
0.0
  0
SOLID
  5
465
330
460
100
AcDbEntity
  8
0
  6
BYBLOCK
 62
     0
100
AcDbTrace
 10
-13.76166666666666
 20
-30.35499999999999
 30
0.0
 11
-12.23833333333333
 21
-30.35499999999999
 31
0.0
 12
-13.0
 22
-34.92499999999999
 32
0.0
 13
-13.0
 23
-34.92499999999999
 33
0.0
  0
TEXT
  5
466
330
460
100
AcDbEntity
  8
0
  6
BYBLOCK
 62
     0
100
AcDbText
 10
-15.285
 20
-11.20738095238095
 30
0.0
 40
4.57
  1
%%C69.85
 50
90.0
  7
SIMPLEX
 72
     1
 11
-17.57
 21
0.0
 31
0.0
100
AcDbText
 73
     2
  0
POINT
  5
467
330
460
100
AcDbEntity
  8
DEFPOINTS
  6
BYBLOCK
 62
     0
100
AcDbPoint
 10
0.0
 20
34.92499999999999
 30
0.0
  0
POINT
  5
468
330
460
100
AcDbEntity
  8
DEFPOINTS
  6
BYBLOCK
 62
     0
100
AcDbPoint
 10
0.0
 20
-34.92499999999999
 30
0.0
  0
POINT
  5
469
330
460
100
AcDbEntity
  8
DEFPOINTS
  6
BYBLOCK
 62
     0
100
AcDbPoint
 10
-13.0
 20
-34.92499999999999
 30
0.0
  0
ENDBLK
  5
46B
330
460
100
AcDbEntity
  8
0
100
AcDbBlockEnd
  0
BLOCK
  5
476
330
46C
100
AcDbEntity
  8
0
100
AcDbBlockBegin
  2
*D8
 70
     1
 10
0.0
 20
0.0
 30
0.0
  3
*D8
  1

  0
LINE
  5
46D
330
46C
100
AcDbEntity
  8
0
  6
BYBLOCK
 62
     0
100
AcDbLine
 10
3.599999999999994
 20
-49.98653
 30
0.0
 11
-137.0
 21
-49.98653
 31
0.0
  0
LINE
  5
46E
330
46C
100
AcDbEntity
  8
0
  6
BYBLOCK
 62
     0
100
AcDbLine
 10
3.599999999999994
 20
49.98653
 30
0.0
 11
-137.0
 21
49.98653
 31
0.0
  0
LINE
  5
46F
330
46C
100
AcDbEntity
  8
0
  6
BYBLOCK
 62
     0
100
AcDbLine
 10
-132.0
 20
-45.41653
 30
0.0
 11
-132.0
 21
45.41653
 31
0.0
  0
SOLID
  5
470
330
46C
100
AcDbEntity
  8
0
  6
BYBLOCK
 62
     0
100
AcDbTrace
 10
-132.7616666666666
 20
-45.41653
 30
0.0
 11
-131.2383333333333
 21
-45.41653
 31
0.0
 12
-132.0
 22
-49.98653
 32
0.0
 13
-132.0
 23
-49.98653
 33
0.0
  0
SOLID
  5
471
330
46C
100
AcDbEntity
  8
0
  6
BYBLOCK
 62
     0
100
AcDbTrace
 10
-132.7616666666666
 20
45.41653
 30
0.0
 11
-131.2383333333333
 21
45.41653
 31
0.0
 12
-132.0
 22
49.98653
 32
0.0
 13
-132.0
 23
49.98653
 33
0.0
  0
TEXT
  5
472
330
46C
100
AcDbEntity
  8
0
  6
BYBLOCK
 62
     0
100
AcDbText
 10
-134.285
 20
-11.20738095238095
 30
0.0
 40
4.57
  1
%%C99.97
 50
90.0
  7
SIMPLEX
 72
     1
 11
-136.5699999999999
 21
0.0
 31
0.0
100
AcDbText
 73
     2
  0
POINT
  5
473
330
46C
100
AcDbEntity
  8
DEFPOINTS
  6
BYBLOCK
 62
     0
100
AcDbPoint
 10
3.599999999999994
 20
-49.98653
 30
0.0
  0
POINT
  5
474
330
46C
100
AcDbEntity
  8
DEFPOINTS
  6
BYBLOCK
 62
     0
100
AcDbPoint
 10
3.599999999999994
 20
49.98653
 30
0.0
  0
POINT
  5
475
330
46C
100
AcDbEntity
  8
DEFPOINTS
  6
BYBLOCK
 62
     0
100
AcDbPoint
 10
-132.0
 20
49.98653
 30
0.0
  0
ENDBLK
  5
477
330
46C
100
AcDbEntity
  8
0
100
AcDbBlockEnd
  0
BLOCK
  5
482
330
478
100
AcDbEntity
  8
0
100
AcDbBlockBegin
  2
*D9
 70
     1
 10
0.0
 20
0.0
 30
0.0
  3
*D9
  1

  0
LINE
  5
479
330
478
100
AcDbEntity
  8
0
  6
BYBLOCK
 62
     0
100
AcDbLine
 10
-88.26133
 20
12.0
 30
0.0
 11
-122.0
 21
12.0
 31
0.0
  0
LINE
  5
47A
330
478
100
AcDbEntity
  8
0
  6
BYBLOCK
 62
     0
100
AcDbLine
 10
-88.26133
 20
-12.0
 30
0.0
 11
-122.0
 21
-12.0
 31
0.0
  0
LINE
  5
47B
330
478
100
AcDbEntity
  8
0
  6
BYBLOCK
 62
     0
100
AcDbLine
 10
-117.0
 20
7.429999999999999
 30
0.0
 11
-117.0
 21
-7.429999999999999
 31
0.0
  0
SOLID
  5
47C
330
478
100
AcDbEntity
  8
0
  6
BYBLOCK
 62
     0
100
AcDbTrace
 10
-117.7616666666666
 20
7.429999999999999
 30
0.0
 11
-116.2383333333333
 21
7.429999999999999
 31
0.0
 12
-117.0
 22
12.0
 32
0.0
 13
-117.0
 23
12.0
 33
0.0
  0
SOLID
  5
47D
330
478
100
AcDbEntity
  8
0
  6
BYBLOCK
 62
     0
100
AcDbTrace
 10
-117.7616666666666
 20
-7.429999999999999
 30
0.0
 11
-116.2383333333333
 21
-7.429999999999999
 31
0.0
 12
-117.0
 22
-12.0
 32
0.0
 13
-117.0
 23
-12.0
 33
0.0
  0
TEXT
  5
47E
330
478
100
AcDbEntity
  8
0
  6
BYBLOCK
 62
     0
100
AcDbText
 10
-119.2849999999999
 20
-6.419761904761904
 30
0.0
 40
4.57
  1
M24
 50
90.0
  7
SIMPLEX
 72
     1
 11
-121.57
 21
0.0
 31
0.0
100
AcDbText
 73
     2
  0
POINT
  5
47F
330
478
100
AcDbEntity
  8
DEFPOINTS
  6
BYBLOCK
 62
     0
100
AcDbPoint
 10
-88.26133
 20
12.0
 30
0.0
  0
POINT
  5
480
330
478
100
AcDbEntity
  8
DEFPOINTS
  6
BYBLOCK
 62
     0
100
AcDbPoint
 10
-88.26133
 20
-12.0
 30
0.0
  0
POINT
  5
481
330
478
100
AcDbEntity
  8
DEFPOINTS
  6
BYBLOCK
 62
     0
100
AcDbPoint
 10
-117.0
 20
-12.0
 30
0.0
  0
ENDBLK
  5
483
330
478
100
AcDbEntity
  8
0
100
AcDbBlockEnd
  0
BLOCK
  5
4D2
330
484
100
AcDbEntity
  8
0
100
AcDbBlockBegin
  2
MASBT50
 70
     0
 10
0.0
 20
0.0
 30
0.0
  3
MASBT50
  1

  0
DIMENSION
  5
485
330
484
100
AcDbEntity
  8
SK2
100
AcDbDimension
  2
*D5
 10
38.0
 20
75.0
 30
0.0
 11
19.0
 21
79.56999999999999
 31
0.0
  3
STANDARD
100
AcDbAlignedDimension
 13
0.0
 23
34.92499999999999
 33
0.0
 14
38.0
 24
49.38652999999999
 34
0.0
100
AcDbRotatedDimension
  0
DIMENSION
  5
486
330
484
100
AcDbEntity
  8
SK2
100
AcDbDimension
  2
*D6
 10
0.0
 20
75.0
 30
0.0
 11
-50.9
 21
79.56999999999999
 31
0.0
  3
STANDARD
100
AcDbAlignedDimension
 13
-101.8
 23
19.21432999958978
 33
0.0
 14
0.0
 24
34.92499999999999
 34
0.0
100
AcDbRotatedDimension
  0
LINE
  5
487
330
484
100
AcDbEntity
  8
SK4
100
AcDbLine
 10
-9.0
 20
0.0
 30
0.0
 11
38.0
 21
0.0
 31
0.0
  0
DIMENSION
  5
488
330
484
100
AcDbEntity
  8
SK2
100
AcDbDimension
  2
*D7
 10
-13.0
 20
-34.92499999999999
 30
0.0
 11
-17.57
 21
0.0
 31
0.0
  1
%%C69.85
  3
STANDARD
100
AcDbAlignedDimension
 13
0.0
 23
34.92499999999999
 33
0.0
 14
0.0
 24
-34.92499999999999
 34
0.0
 50
90.0
100
AcDbRotatedDimension
  0
DIMENSION
  5
489
330
484
100
AcDbEntity
  8
SK2
100
AcDbDimension
  2
*D8
 10
-132.0
 20
49.98653
 30
0.0
 11
-136.5699999999999
 21
0.0
 31
0.0
  1
%%C99.97
  3
STANDARD
100
AcDbAlignedDimension
 13
3.599999999999994
 23
-49.98653
 33
0.0
 14
3.599999999999994
 24
49.98653
 34
0.0
 50
90.0
100
AcDbRotatedDimension
  0
DIMENSION
  5
48A
330
484
100
AcDbEntity
  8
SK2
100
AcDbDimension
  2
*D9
 10
-117.0
 20
-12.0
 30
0.0
 11
-121.57
 21
0.0
 31
0.0
  1
M24
  3
STANDARD
100
AcDbAlignedDimension
 13
-88.26133
 23
12.0
 33
0.0
 14
-88.26133
 24
-12.0
 34
0.0
 50
90.0
100
AcDbRotatedDimension
  0
TEXT
  5
48B
330
484
100
AcDbEntity
  8
6
100
AcDbText
 10
-70.0
 20
17.0
 30
0.0
 40
3.5
  1
SK50 MAS-BT
  7
SIMPLEX
100
AcDbText
  0
ARC
  5
48C
330
484
100
AcDbEntity
  8
1
  6
CONTINUOUS
 62
     4
100
AcDbCircle
 10
-100.7999948599014
 20
19.21433594419816
 30
0.0
 40
1.000005140116246
100
AcDbArc
 50
98.29873759425453
 51
180.0003405992197
  0
LINE
  5
48D
330
484
100
AcDbEntity
  8
1
  6
CONTINUOUS
 62
     4
100
AcDbLine
 10
0.6036700000000011
 20
34.65
 30
0.0
 11
2.200000000000002
 21
34.65
 31
0.0
  0
LINE
  5
48E
330
484
100
AcDbEntity
  8
1
  6
CONTINUOUS
 62
     4
100
AcDbLine
 10
3.599999999999994
 20
-49.98653
 30
0.0
 11
15.70019999999999
 21
-49.98653
 31
0.0
  0
LINE
  5
48F
330
484
100
AcDbEntity
  8
1
  6
CONTINUOUS
 62
     4
100
AcDbLine
 10
30.69979999999999
 20
-49.98653
 30
0.0
 11
37.4
 21
-49.98653
 31
0.0
  0
LINE
  5
490
330
484
100
AcDbEntity
  8
1
  6
CONTINUOUS
 62
     4
100
AcDbLine
 10
30.69979999999999
 20
-9.115200000000001
 30
0.0
 11
30.69979999999999
 21
-49.98653
 31
0.0
  0
LINE
  5
491
330
484
100
AcDbEntity
  8
1
  6
CONTINUOUS
 62
     4
100
AcDbLine
 10
15.70019999999999
 20
-12.85
 30
0.0
 11
15.70019999999999
 21
-49.98653
 31
0.0
  0
LINE
  5
492
330
484
100
AcDbEntity
  8
1
  6
CONTINUOUS
 62
     4
100
AcDbLine
 10
19.7
 20
-12.85
 30
0.0
 11
19.7
 21
-43.05867
 31
0.0
  0
LINE
  5
493
330
484
100
AcDbEntity
  8
1
  6
CONTINUOUS
 62
     4
100
AcDbLine
 10
0.0
 20
34.92499999999999
 30
0.0
 11
0.0
 21
0.0
 31
0.0
  0
LINE
  5
494
330
484
100
AcDbEntity
  8
1
  6
CONTINUOUS
 62
     4
100
AcDbLine
 10
15.70019999999999
 20
-49.98653
 30
0.0
 11
19.7
 21
-43.05867
 31
0.0
  0
LINE
  5
495
330
484
100
AcDbEntity
  8
1
  6
CONTINUOUS
 62
     4
100
AcDbLine
 10
19.7
 20
-42.5
 30
0.0
 11
26.7
 21
-42.5
 31
0.0
  0
LINE
  5
496
330
484
100
AcDbEntity
  8
1
  6
CONTINUOUS
 62
     4
100
AcDbLine
 10
26.7
 20
11.89126999999999
 30
0.0
 11
26.7
 21
43.05867
 31
0.0
  0
LINE
  5
497
330
484
100
AcDbEntity
  8
1
  6
CONTINUOUS
 62
     4
100
AcDbLine
 10
19.7
 20
12.85
 30
0.0
 11
19.7
 21
43.05867
 31
0.0
  0
ARC
  5
498
330
484
100
AcDbEntity
  8
1
  6
CONTINUOUS
 62
     4
100
AcDbCircle
 10
-100.7999948599014
 20
-19.21433594419816
 30
0.0
 40
1.000005140116246
100
AcDbArc
 50
179.9996594242833
 51
261.7012624292486
  0
LINE
  5
499
330
484
100
AcDbEntity
  8
1
  6
CONTINUOUS
 62
     4
100
AcDbLine
 10
0.0
 20
-34.92499999999999
 30
0.0
 11
-100.94433
 21
-20.20387
 31
0.0
  0
LINE
  5
49A
330
484
100
AcDbEntity
  8
1
  6
CONTINUOUS
 62
     4
100
AcDbLine
 10
0.6036700000000011
 20
-34.64999999999999
 30
0.0
 11
2.200000000000002
 21
-34.64999999999999
 31
0.0
  0
LINE
  5
49B
330
484
100
AcDbEntity
  8
1
  6
CONTINUOUS
 62
     4
100
AcDbLine
 10
0.0
 20
-34.92499999999999
 30
0.0
 11
0.0
 21
0.0
 31
0.0
  0
LINE
  5
49C
330
484
100
AcDbEntity
  8
1
  6
CONTINUOUS
 62
     4
100
AcDbLine
 10
-101.8
 20
0.0
 30
0.0
 11
-101.8
 21
-19.21433
 31
0.0
  0
LINE
  5
49D
330
484
100
AcDbEntity
  8
SK3
100
AcDbLine
 10
-100.0822
 20
-12.50826999999999
 30
0.0
 11
-101.8
 21
-13.5
 31
0.0
  0
LINE
  5
49E
330
484
100
AcDbEntity
  8
1
  6
CONTINUOUS
 62
     4
100
AcDbLine
 10
0.0
 20
34.92499999999999
 30
0.0
 11
-100.94433
 21
20.20386999999999
 31
0.0
  0
ARC
  5
49F
330
484
100
AcDbEntity
  8
1
  6
CONTINUOUS
 62
     4
100
AcDbCircle
 10
22.0
 20
0.8499999999999998
 30
0.0
 40
12.0
100
AcDbArc
 50
0.0000000235031287
 51
90.00000002350311
  0
LINE
  5
4A0
330
484
100
AcDbEntity
  8
SK3
100
AcDbLine
 10
-101.8
 20
10.0
 30
0.0
 11
-101.8
 21
10.0
 31
0.0
  0
LINE
  5
4A1
330
484
100
AcDbEntity
  8
1
  6
CONTINUOUS
 62
     4
100
AcDbLine
 10
34.0
 20
0.0
 30
0.0
 11
34.0
 21
0.8500000000000014
 31
0.0
  0
LINE
  5
4A2
330
484
100
AcDbEntity
  8
1
  6
CONTINUOUS
 62
     4
100
AcDbLine
 10
-101.8
 20
0.0
 30
0.0
 11
-101.8
 21
19.21433
 31
0.0
  0
LINE
  5
4A3
330
484
100
AcDbEntity
  8
1
  6
CONTINUOUS
 62
     4
100
AcDbLine
 10
38.0
 20
0.0
 30
0.0
 11
38.0
 21
49.38652999999999
 31
0.0
  0
LINE
  5
4A4
330
484
100
AcDbEntity
  8
1
  6
CONTINUOUS
 62
     4
100
AcDbLine
 10
30.69979999999999
 20
49.98653
 30
0.0
 11
26.7
 21
43.05867
 31
0.0
  0
LINE
  5
4A5
330
484
100
AcDbEntity
  8
1
  6
CONTINUOUS
 62
     4
100
AcDbLine
 10
15.70019999999999
 20
49.98653
 30
0.0
 11
19.7
 21
43.05867
 31
0.0
  0
LINE
  5
4A6
330
484
100
AcDbEntity
  8
SK3
100
AcDbLine
 10
-88.55
 20
0.0
 30
0.0
 11
-88.55
 21
12.50826999999999
 31
0.0
  0
LINE
  5
4A7
330
484
100
AcDbEntity
  8
SK3
100
AcDbLine
 10
-100.08227
 20
12.50826999999999
 30
0.0
 11
-101.8
 21
13.5
 31
0.0
  0
LINE
  5
4A8
330
484
100
AcDbEntity
  8
SK3
100
AcDbLine
 10
-100.0822
 20
-12.50826999999999
 30
0.0
 11
-88.55
 21
-12.50826999999999
 31
0.0
  0
LINE
  5
4A9
330
484
100
AcDbEntity
  8
SK3
100
AcDbLine
 10
-100.08227
 20
12.50826999999999
 30
0.0
 11
-88.55
 21
12.50826999999999
 31
0.0
  0
LINE
  5
4AA
330
484
100
AcDbEntity
  8
SK3
100
AcDbLine
 10
-87.39053
 20
-10.5
 30
0.0
 11
-39.8
 21
-10.5
 31
0.0
  0
LINE
  5
4AB
330
484
100
AcDbEntity
  8
SK3
100
AcDbLine
 10
-87.39053
 20
10.5
 30
0.0
 11
-39.8
 21
10.5
 31
0.0
  0
LINE
  5
4AC
330
484
100
AcDbEntity
  8
1
  6
CONTINUOUS
 62
     4
100
AcDbLine
 10
3.599999999999994
 20
49.98653
 30
0.0
 11
15.70019999999999
 21
49.98653
 31
0.0
  0
LINE
  5
4AD
330
484
100
AcDbEntity
  8
1
  6
CONTINUOUS
 62
     4
100
AcDbLine
 10
26.7
 20
42.5
 30
0.0
 11
19.7
 21
42.5
 31
0.0
  0
LINE
  5
4AE
330
484
100
AcDbEntity
  8
1
  6
CONTINUOUS
 62
     4
100
AcDbLine
 10
3.0
 20
12.85
 30
0.0
 11
22.0
 21
12.85
 31
0.0
  0
LINE
  5
4AF
330
484
100
AcDbEntity
  8
1
  6
CONTINUOUS
 62
     4
100
AcDbLine
 10
30.69979999999999
 20
9.115200000000001
 30
0.0
 11
30.69979999999999
 21
49.98653
 31
0.0
  0
LINE
  5
4B0
330
484
100
AcDbEntity
  8
1
  6
CONTINUOUS
 62
     4
100
AcDbLine
 10
15.70019999999999
 20
12.85
 30
0.0
 11
15.70019999999999
 21
49.98653
 31
0.0
  0
LINE
  5
4B1
330
484
100
AcDbEntity
  8
SK3
100
AcDbLine
 10
-33.73779999999999
 20
0.0
 30
0.0
 11
-39.8
 21
10.5
 31
0.0
  0
LINE
  5
4B2
330
484
100
AcDbEntity
  8
SK3
100
AcDbLine
 10
-87.39053
 20
10.5
 30
0.0
 11
-87.39053
 21
-10.5
 31
0.0
  0
LINE
  5
4B3
330
484
100
AcDbEntity
  8
SK3
100
AcDbLine
 10
-39.8
 20
0.0
 30
0.0
 11
-39.8
 21
10.5
 31
0.0
  0
LINE
  5
4B4
330
484
100
AcDbEntity
  8
SK3
100
AcDbLine
 10
-56.79999999999999
 20
0.0
 30
0.0
 11
-56.79999999999999
 21
12.0
 31
0.0
  0
LINE
  5
4B5
330
484
100
AcDbEntity
  8
1
  6
CONTINUOUS
 62
     4
100
AcDbLine
 10
30.69979999999999
 20
49.98653
 30
0.0
 11
37.4
 21
49.98653
 31
0.0
  0
LINE
  5
4B6
330
484
100
AcDbEntity
  8
1
  6
CONTINUOUS
 62
     4
100
AcDbLine
 10
26.7
 20
-43.05867
 30
0.0
 11
30.69979999999999
 21
-49.98653
 31
0.0
  0
ARC
  5
4B7
330
484
100
AcDbEntity
  8
1
  6
CONTINUOUS
 62
     4
100
AcDbCircle
 10
37.4
 20
49.38653
 30
0.0
 40
0.6000000000000007
100
AcDbArc
 50
0.0
 51
89.99999999999992
  0
LINE
  5
4B8
330
484
100
AcDbEntity
  8
1
  6
CONTINUOUS
 62
     4
100
AcDbLine
 10
38.0
 20
0.0
 30
0.0
 11
38.0
 21
-49.38653
 31
0.0
  0
LINE
  5
4B9
330
484
100
AcDbEntity
  8
1
  6
CONTINUOUS
 62
     4
100
AcDbLine
 10
34.0
 20
0.0
 30
0.0
 11
34.0
 21
-0.8500000000000014
 31
0.0
  0
LINE
  5
4BA
330
484
100
AcDbEntity
  8
1
  6
CONTINUOUS
 62
     4
100
AcDbLine
 10
26.7
 20
-11.89126999999999
 30
0.0
 11
26.7
 21
-43.05867
 31
0.0
  0
ARC
  5
4BB
330
484
100
AcDbEntity
  8
1
  6
CONTINUOUS
 62
     4
100
AcDbCircle
 10
3.599999999999994
 20
-49.38653
 30
0.0
 40
0.6000000000000015
100
AcDbArc
 50
180.0
 51
270.0
  0
ARC
  5
4BC
330
484
100
AcDbEntity
  8
1
  6
CONTINUOUS
 62
     4
100
AcDbCircle
 10
37.4
 20
-49.38653
 30
0.0
 40
0.6000000000000015
100
AcDbArc
 50
270.0000000000001
 51
0.0
  0
LINE
  5
4BD
330
484
100
AcDbEntity
  8
SK3
100
AcDbLine
 10
-100.08227
 20
12.50826999999999
 30
0.0
 11
-100.0822
 21
-12.50826999999999
 31
0.0
  0
ARC
  5
4BE
330
484
100
AcDbEntity
  8
1
  6
CONTINUOUS
 62
     4
100
AcDbCircle
 10
0.6036392431483791
 20
35.45000177144554
 30
0.0
 40
0.7999855478990882
100
AcDbArc
 50
221.014037850304
 51
270.0024836043007
  0
ARC
  5
4BF
330
484
100
AcDbEntity
  8
1
  6
CONTINUOUS
 62
     4
100
AcDbCircle
 10
2.200000000000002
 20
35.45
 30
0.0
 40
0.7999999999999972
100
AcDbArc
 50
270.0000000235031
 51
0.0000000235031287
  0
LINE
  5
4C0
330
484
100
AcDbEntity
  8
SK3
100
AcDbLine
 10
-39.8
 20
0.0
 30
0.0
 11
-39.8
 21
-10.5
 31
0.0
  0
LINE
  5
4C1
330
484
100
AcDbEntity
  8
SK3
100
AcDbLine
 10
-56.79999999999999
 20
0.0
 30
0.0
 11
-56.79999999999999
 21
-12.0
 31
0.0
  0
LINE
  5
4C2
330
484
100
AcDbEntity
  8
SK3
100
AcDbLine
 10
-88.55
 20
-12.50826999999999
 30
0.0
 11
-87.39053
 21
-10.5
 31
0.0
  0
ARC
  5
4C3
330
484
100
AcDbEntity
  8
1
  6
CONTINUOUS
 62
     4
100
AcDbCircle
 10
0.6036392431483791
 20
-35.45000177144554
 30
0.0
 40
0.7999855478990882
100
AcDbArc
 50
89.99751641920235
 51
138.985962173199
  0
LINE
  5
4C4
330
484
100
AcDbEntity
  8
SK3
100
AcDbLine
 10
-87.39053
 20
10.5
 30
0.0
 11
-88.55
 21
12.50826999999999
 31
0.0
  0
ARC
  5
4C5
330
484
100
AcDbEntity
  8
1
  6
CONTINUOUS
 62
     4
100
AcDbCircle
 10
22.0
 20
-0.8500000000000005
 30
0.0
 40
12.0
100
AcDbArc
 50
270.0
 51
0.0000000000000027
  0
LINE
  5
4C6
330
484
100
AcDbEntity
  8
1
  6
CONTINUOUS
 62
     4
100
AcDbLine
 10
3.0
 20
-12.85
 30
0.0
 11
22.0
 21
-12.85
 31
0.0
  0
LINE
  5
4C7
330
484
100
AcDbEntity
  8
SK3
100
AcDbLine
 10
-33.73779999999999
 20
0.0
 30
0.0
 11
-39.8
 21
-10.5
 31
0.0
  0
LINE
  5
4C8
330
484
100
AcDbEntity
  8
SK3
100
AcDbLine
 10
-101.8
 20
-10.0
 30
0.0
 11
-101.8
 21
-10.0
 31
0.0
  0
ARC
  5
4C9
330
484
100
AcDbEntity
  8
1
  6
CONTINUOUS
 62
     4
100
AcDbCircle
 10
2.200000000000002
 20
-35.45
 30
0.0
 40
0.7999999999999972
100
AcDbArc
 50
0.0
 51
90.0
  0
LINE
  5
4CA
330
484
100
AcDbEntity
  8
SK3
100
AcDbLine
 10
-88.55
 20
0.0
 30
0.0
 11
-88.55
 21
-12.50826999999999
 31
0.0
  0
ARC
  5
4CB
330
484
100
AcDbEntity
  8
1
  6
CONTINUOUS
 62
     4
100
AcDbCircle
 10
3.599999999999994
 20
49.38653
 30
0.0
 40
0.6000000000000015
100
AcDbArc
 50
90.00000002350311
 51
180.0000000235031
  0
LINE
  5
4CC
330
484
100
AcDbEntity
  8
SK4
100
AcDbLine
 10
-104.3358699999999
 20
0.0
 30
0.0
 11
-25.0
 21
0.0
 31
0.0
  0
LINE
  5
4CD
330
484
100
AcDbEntity
  8
SK3
100
AcDbLine
 10
-88.26133
 20
12.0
 30
0.0
 11
-56.79999999999999
 21
12.0
 31
0.0
  0
LINE
  5
4CE
330
484
100
AcDbEntity
  8
SK3
100
AcDbLine
 10
-88.26133
 20
-12.0
 30
0.0
 11
-56.79999999999999
 21
-12.0
 31
0.0
  0
LINE
  5
4CF
330
484
100
AcDbEntity
  8
1
  6
CONTINUOUS
 62
     4
100
AcDbLine
 10
3.0
 20
-49.38653
 30
0.0
 11
3.0
 21
0.1919299999999993
 31
0.0
  0
LINE
  5
4D0
330
484
100
AcDbEntity
  8
1
  6
CONTINUOUS
 62
     4
100
AcDbLine
 10
3.0
 20
0.1919299999999993
 30
0.0
 11
3.0
 21
0.1921999999999997
 31
0.0
  0
LINE
  5
4D1
330
484
100
AcDbEntity
  8
1
  6
CONTINUOUS
 62
     4
100
AcDbLine
 10
3.0
 20
0.1921999999999997
 30
0.0
 11
3.0
 21
49.38652999999999
 31
0.0
  0
ENDBLK
  5
4D3
330
484
100
AcDbEntity
  8
0
100
AcDbBlockEnd
  0
BLOCK
  5
52D
330
523
100
AcDbEntity
  8
0
100
AcDbBlockBegin
  2
*D11
 70
     1
 10
0.0
 20
0.0
 30
0.0
  3
*D11
  1

  0
LINE
  5
592
330
523
100
AcDbEntity
  8
SK2
 62
     0
100
AcDbLine
 10
0.0
 20
34.92499999999999
 30
0.0
 11
0.0000000000000018
 21
65.0
 31
0.0
  0
LINE
  5
593
330
523
100
AcDbEntity
  8
SK2
 62
     0
100
AcDbLine
 10
38.0
 20
49.38652999999999
 30
0.0
 11
38.0
 21
65.0
 31
0.0
  0
LINE
  5
594
330
523
100
AcDbEntity
  8
SK2
 62
     0
100
AcDbLine
 10
4.570000000000002
 20
60.0
 30
0.0
 11
33.42999999999999
 21
60.0
 31
0.0
  0
SOLID
  5
595
330
523
100
AcDbEntity
  8
SK2
 62
     0
100
AcDbTrace
 10
4.570000000000002
 20
60.76166666666667
 30
0.0
 11
4.570000000000002
 21
59.23833333333333
 31
0.0
 12
0.0000000000000015
 22
60.0
 32
0.0
 13
0.0000000000000015
 23
60.0
 33
0.0
  0
SOLID
  5
596
330
523
100
AcDbEntity
  8
SK2
 62
     0
100
AcDbTrace
 10
33.42999999999999
 20
60.76166666666667
 30
0.0
 11
33.42999999999999
 21
59.23833333333333
 31
0.0
 12
38.0
 22
60.0
 32
0.0
 13
38.0
 23
60.0
 33
0.0
  0
MTEXT
  5
597
330
523
100
AcDbEntity
  8
SK2
 62
     0
100
AcDbMText
 10
19.0
 20
64.58499999999999
 30
0.0
 40
4.57
 41
0.0
 71
     5
 72
     1
  1
\A1;38
  7
SIMPLEX
1001
ACAD
1000
MTEXTBEGIN
1070
    73
1070
     1
1070
    44
1040
1.0
1070
    74
1070
     0
1000
MTEXTEND
  0
POINT
  5
598
330
523
100
AcDbEntity
  8
DEFPOINTS
 62
     0
100
AcDbPoint
 10
0.0
 20
34.92499999999999
 30
0.0
  0
POINT
  5
599
330
523
100
AcDbEntity
  8
DEFPOINTS
 62
     0
100
AcDbPoint
 10
38.0
 20
49.38652999999999
 30
0.0
  0
POINT
  5
59A
330
523
100
AcDbEntity
  8
DEFPOINTS
 62
     0
100
AcDbPoint
 10
38.0
 20
60.0
 30
0.0
  0
ENDBLK
  5
52E
330
523
100
AcDbEntity
  8
0
100
AcDbBlockEnd
  0
BLOCK
  5
539
330
52F
100
AcDbEntity
  8
0
100
AcDbBlockBegin
  2
*D12
 70
     1
 10
0.0
 20
0.0
 30
0.0
  3
*D12
  1

  0
LINE
  5
568
330
52F
100
AcDbEntity
  8
SK2
 62
     0
100
AcDbLine
 10
-101.8
 20
19.21432999958978
 30
0.0
 11
-101.8
 21
80.0
 31
0.0
  0
LINE
  5
569
330
52F
100
AcDbEntity
  8
SK2
 62
     0
100
AcDbLine
 10
0.0
 20
34.92499999999999
 30
0.0
 11
0.0000000000000028
 21
80.0
 31
0.0
  0
LINE
  5
56A
330
52F
100
AcDbEntity
  8
SK2
 62
     0
100
AcDbLine
 10
-97.23000000000002
 20
75.0
 30
0.0
 11
-4.569999999999997
 21
75.0
 31
0.0
  0
SOLID
  5
56B
330
52F
100
AcDbEntity
  8
SK2
 62
     0
100
AcDbTrace
 10
-97.23000000000002
 20
75.76166666666667
 30
0.0
 11
-97.23000000000002
 21
74.23833333333333
 31
0.0
 12
-101.8
 22
75.0
 32
0.0
 13
-101.8
 23
75.0
 33
0.0
  0
SOLID
  5
56C
330
52F
100
AcDbEntity
  8
SK2
 62
     0
100
AcDbTrace
 10
-4.569999999999997
 20
75.76166666666667
 30
0.0
 11
-4.569999999999997
 21
74.23833333333333
 31
0.0
 12
0.0000000000000025
 22
75.0
 32
0.0
 13
0.0000000000000025
 23
75.0
 33
0.0
  0
MTEXT
  5
56D
330
52F
100
AcDbEntity
  8
SK2
 62
     0
100
AcDbMText
 10
-50.9
 20
79.58499999999999
 30
0.0
 40
4.57
 41
0.0
 71
     5
 72
     1
  1
\A1;101.8
  7
SIMPLEX
1001
ACAD
1000
MTEXTBEGIN
1070
    73
1070
     1
1070
    44
1040
1.0
1070
    74
1070
     0
1000
MTEXTEND
  0
POINT
  5
56E
330
52F
100
AcDbEntity
  8
DEFPOINTS
 62
     0
100
AcDbPoint
 10
-101.8
 20
19.21432999958978
 30
0.0
  0
POINT
  5
56F
330
52F
100
AcDbEntity
  8
DEFPOINTS
 62
     0
100
AcDbPoint
 10
0.0
 20
34.92499999999999
 30
0.0
  0
POINT
  5
570
330
52F
100
AcDbEntity
  8
DEFPOINTS
 62
     0
100
AcDbPoint
 10
0.0000000000000025
 20
75.0
 30
0.0
  0
ENDBLK
  5
53A
330
52F
100
AcDbEntity
  8
0
100
AcDbBlockEnd
  0
BLOCK
  5
545
330
53B
100
AcDbEntity
  8
0
100
AcDbBlockBegin
  2
*D13
 70
     1
 10
0.0
 20
0.0
 30
0.0
  3
*D13
  1

  0
LINE
  5
571
330
53B
100
AcDbEntity
  8
SK2
 62
     0
100
AcDbLine
 10
0.0
 20
34.92499999999999
 30
0.0
 11
-17.99999999999998
 21
34.925
 31
0.0
  0
LINE
  5
572
330
53B
100
AcDbEntity
  8
SK2
 62
     0
100
AcDbLine
 10
0.0
 20
-34.92499999999999
 30
0.0
 11
-18.0
 21
-34.92499999999999
 31
0.0
  0
LINE
  5
573
330
53B
100
AcDbEntity
  8
SK2
 62
     0
100
AcDbLine
 10
-12.99999999999998
 20
30.355
 30
0.0
 11
-13.0
 21
-30.35499999999999
 31
0.0
  0
SOLID
  5
574
330
53B
100
AcDbEntity
  8
SK2
 62
     0
100
AcDbTrace
 10
-13.76166666666665
 20
30.355
 30
0.0
 11
-12.23833333333331
 21
30.355
 31
0.0
 12
-12.99999999999998
 22
34.92499999999999
 32
0.0
 13
-12.99999999999998
 23
34.92499999999999
 33
0.0
  0
SOLID
  5
575
330
53B
100
AcDbEntity
  8
SK2
 62
     0
100
AcDbTrace
 10
-13.76166666666666
 20
-30.35499999999999
 30
0.0
 11
-12.23833333333333
 21
-30.35499999999999
 31
0.0
 12
-13.0
 22
-34.92499999999999
 32
0.0
 13
-13.0
 23
-34.92499999999999
 33
0.0
  0
MTEXT
  5
576
330
53B
100
AcDbEntity
  8
SK2
 62
     0
100
AcDbMText
 10
-17.58499999999999
 20
0.0000000000000014
 30
0.0
 40
4.57
 41
0.0
 71
     5
 72
     1
  1
\A1;%%C69.85
  7
SIMPLEX
 11
0.0000000000000001
 21
1.0
 31
0.0
1001
ACAD
1000
MTEXTBEGIN
1070
    73
1070
     1
1070
    44
1040
1.0
1070
    74
1070
     0
1000
MTEXTEND
  0
POINT
  5
577
330
53B
100
AcDbEntity
  8
DEFPOINTS
 62
     0
100
AcDbPoint
 10
0.0
 20
34.92499999999999
 30
0.0
  0
POINT
  5
578
330
53B
100
AcDbEntity
  8
DEFPOINTS
 62
     0
100
AcDbPoint
 10
0.0
 20
-34.92499999999999
 30
0.0
  0
POINT
  5
579
330
53B
100
AcDbEntity
  8
DEFPOINTS
 62
     0
100
AcDbPoint
 10
-13.0
 20
-34.92499999999999
 30
0.0
  0
ENDBLK
  5
546
330
53B
100
AcDbEntity
  8
0
100
AcDbBlockEnd
  0
BLOCK
  5
551
330
547
100
AcDbEntity
  8
0
100
AcDbBlockBegin
  2
*D14
 70
     1
 10
0.0
 20
0.0
 30
0.0
  3
*D14
  1

  0
LINE
  5
57A
330
547
100
AcDbEntity
  8
SK2
 62
     0
100
AcDbLine
 10
3.599999999999994
 20
-49.98653
 30
0.0
 11
-137.0
 21
-49.98652999999997
 31
0.0
  0
LINE
  5
57B
330
547
100
AcDbEntity
  8
SK2
 62
     0
100
AcDbLine
 10
3.599999999999994
 20
49.98653
 30
0.0
 11
-137.0
 21
49.98653000000004
 31
0.0
  0
LINE
  5
57C
330
547
100
AcDbEntity
  8
SK2
 62
     0
100
AcDbLine
 10
-132.0
 20
-45.41652999999996
 30
0.0
 11
-132.0
 21
45.41653000000003
 31
0.0
  0
SOLID
  5
57D
330
547
100
AcDbEntity
  8
SK2
 62
     0
100
AcDbTrace
 10
-132.7616666666666
 20
-45.41652999999996
 30
0.0
 11
-131.2383333333333
 21
-45.41652999999996
 31
0.0
 12
-132.0
 22
-49.98652999999997
 32
0.0
 13
-132.0
 23
-49.98652999999997
 33
0.0
  0
SOLID
  5
57E
330
547
100
AcDbEntity
  8
SK2
 62
     0
100
AcDbTrace
 10
-132.7616666666666
 20
45.41653000000003
 30
0.0
 11
-131.2383333333333
 21
45.41653000000003
 31
0.0
 12
-132.0
 22
49.98653000000004
 32
0.0
 13
-132.0
 23
49.98653000000004
 33
0.0
  0
MTEXT
  5
57F
330
547
100
AcDbEntity
  8
SK2
 62
     0
100
AcDbMText
 10
-136.585
 20
0.0000000000000157
 30
0.0
 40
4.57
 41
0.0
 71
     5
 72
     1
  1
\A1;%%C99.97
  7
SIMPLEX
 11
0.0000000000000001
 21
1.0
 31
0.0
1001
ACAD
1000
MTEXTBEGIN
1070
    73
1070
     1
1070
    44
1040
1.0
1070
    74
1070
     0
1000
MTEXTEND
  0
POINT
  5
580
330
547
100
AcDbEntity
  8
DEFPOINTS
 62
     0
100
AcDbPoint
 10
3.599999999999994
 20
-49.98653
 30
0.0
  0
POINT
  5
581
330
547
100
AcDbEntity
  8
DEFPOINTS
 62
     0
100
AcDbPoint
 10
3.599999999999994
 20
49.98653
 30
0.0
  0
POINT
  5
582
330
547
100
AcDbEntity
  8
DEFPOINTS
 62
     0
100
AcDbPoint
 10
-132.0
 20
49.98653000000004
 30
0.0
  0
ENDBLK
  5
552
330
547
100
AcDbEntity
  8
0
100
AcDbBlockEnd
  0
BLOCK
  5
55D
330
553
100
AcDbEntity
  8
0
100
AcDbBlockBegin
  2
*D15
 70
     1
 10
0.0
 20
0.0
 30
0.0
  3
*D15
  1

  0
LINE
  5
583
330
553
100
AcDbEntity
  8
SK2
 62
     0
100
AcDbLine
 10
-88.26133
 20
12.0
 30
0.0
 11
-122.0
 21
12.00000000000001
 31
0.0
  0
LINE
  5
584
330
553
100
AcDbEntity
  8
SK2
 62
     0
100
AcDbLine
 10
-88.26133
 20
-12.0
 30
0.0
 11
-122.0
 21
-11.99999999999999
 31
0.0
  0
LINE
  5
585
330
553
100
AcDbEntity
  8
SK2
 62
     0
100
AcDbLine
 10
-117.0
 20
7.430000000000007
 30
0.0
 11
-117.0
 21
-7.429999999999991
 31
0.0
  0
SOLID
  5
586
330
553
100
AcDbEntity
  8
SK2
 62
     0
100
AcDbTrace
 10
-117.7616666666666
 20
7.430000000000007
 30
0.0
 11
-116.2383333333333
 21
7.430000000000007
 31
0.0
 12
-117.0
 22
12.00000000000001
 32
0.0
 13
-117.0
 23
12.00000000000001
 33
0.0
  0
SOLID
  5
587
330
553
100
AcDbEntity
  8
SK2
 62
     0
100
AcDbTrace
 10
-117.7616666666666
 20
-7.429999999999991
 30
0.0
 11
-116.2383333333333
 21
-7.429999999999991
 31
0.0
 12
-117.0
 22
-11.99999999999999
 32
0.0
 13
-117.0
 23
-11.99999999999999
 33
0.0
  0
MTEXT
  5
588
330
553
100
AcDbEntity
  8
SK2
 62
     0
100
AcDbMText
 10
-121.5849999999999
 20
-0.00000000000001
 30
0.0
 40
4.57
 41
0.0
 71
     5
 72
     1
  1
\A1;M24
  7
SIMPLEX
 11
0.0000000000000001
 21
1.0
 31
0.0
1001
ACAD
1000
MTEXTBEGIN
1070
    73
1070
     1
1070
    44
1040
1.0
1070
    74
1070
     0
1000
MTEXTEND
  0
POINT
  5
589
330
553
100
AcDbEntity
  8
DEFPOINTS
 62
     0
100
AcDbPoint
 10
-88.26133
 20
12.0
 30
0.0
  0
POINT
  5
58A
330
553
100
AcDbEntity
  8
DEFPOINTS
 62
     0
100
AcDbPoint
 10
-88.26133
 20
-12.0
 30
0.0
  0
POINT
  5
58B
330
553
100
AcDbEntity
  8
DEFPOINTS
 62
     0
100
AcDbPoint
 10
-117.0
 20
-11.99999999999999
 30
0.0
  0
ENDBLK
  5
55E
330
553
100
AcDbEntity
  8
0
100
AcDbBlockEnd
  0
ENDSEC
  0
SECTION
  2
ENTITIES
  0
LINE
  5
382
330
18
100
AcDbEntity
  8
1
100
AcDbLine
 10
56.49999999999999
 20
-30.394
 30
0.0
 11
56.49999999999999
 21
30.274
 31
0.0
  0
LINE
  5
384
330
18
100
AcDbEntity
  8
1
100
AcDbLine
 10
68.09999999999999
 20
25.0
 30
0.0
 11
68.09999999999999
 21
-25.0
 31
0.0
  0
LINE
  5
385
330
18
100
AcDbEntity
  8
1
100
AcDbLine
 10
75.0
 20
23.79999999999999
 30
0.0
 11
68.09999999999999
 21
23.79999999999999
 31
0.0
  0
POINT
  5
386
330
18
100
AcDbEntity
  8
1__1
 62
     7
100
AcDbPoint
 10
11.14999999999999
 20
8.083000000000001
 30
0.0
  0
LINE
  5
387
330
18
100
AcDbEntity
  8
4
100
AcDbLine
 10
-101.75
 20
0.0
 30
0.0
 11
100.0
 21
0.0
 31
0.0
  0
POINT
  5
388
330
18
100
AcDbEntity
  8
1__1
 62
     7
100
AcDbPoint
 10
11.14999999999999
 20
-8.083000000000001
 30
0.0
  0
LINE
  5
389
330
18
100
AcDbEntity
  8
1
100
AcDbLine
 10
75.0
 20
-23.8
 30
0.0
 11
68.09999999999999
 21
-23.8
 31
0.0
  0
LINE
  5
38C
330
18
100
AcDbEntity
  8
1
100
AcDbLine
 10
62.99999999999999
 20
24.21499999999999
 30
0.0
 11
62.99999999999999
 21
-24.407
 31
0.0
  0
ARC
  5
38D
330
18
100
AcDbEntity
  8
1
100
AcDbCircle
 10
76.5
 20
30.0
 30
0.0
 40
1.5
100
AcDbArc
 50
90.0
 51
180.0
  0
ARC
  5
38E
330
18
100
AcDbEntity
  8
1
100
AcDbCircle
 10
76.5
 20
-30.0
 30
0.0
 40
1.5
100
AcDbArc
 50
179.999985
 51
269.999969
  0
ARC
  5
38F
330
18
100
AcDbEntity
  8
1
100
AcDbCircle
 10
88.71100000000001
 20
49.42
 30
0.0
 40
23.364
100
AcDbArc
 50
242.713287
 51
270.7087399999999
  0
LINE
  5
390
330
18
100
AcDbEntity
  8
1
100
AcDbLine
 10
89.0
 20
26.05799999999999
 30
0.0
 11
97.69100000000001
 21
26.05799999999999
 31
0.0
  0
ARC
  5
391
330
18
100
AcDbEntity
  8
1
100
AcDbCircle
 10
42.99999999999983
 20
36.5
 30
0.0
 40
5.0
100
AcDbArc
 50
180.000015
 51
270.0
  0
LINE
  5
392
330
18
100
AcDbEntity
  8
1
100
AcDbLine
 10
42.99999999999983
 20
31.49999999999999
 30
0.0
 11
55.257
 21
31.49999999999999
 31
0.0
  0
LINE
  5
393
330
18
100
AcDbEntity
  8
1
100
AcDbLine
 10
62.707
 20
25.29299999999999
 30
0.0
 11
57.37900000000001
 21
30.621
 31
0.0
  0
ARC
  5
394
330
18
100
AcDbEntity
  8
1
100
AcDbCircle
 10
55.257
 20
28.49999999999999
 30
0.0
 40
3.0
100
AcDbArc
 50
44.986454
 51
89.99999200000001
  0
ARC
  5
395
330
18
100
AcDbEntity
  8
1
100
AcDbCircle
 10
63.41400000000001
 20
25.99999999999999
 30
0.0
 40
1.0
100
AcDbArc
 50
225.0
 51
270.0
  0
POINT
  5
3A0
330
18
100
AcDbEntity
  8
1__1
 62
     7
100
AcDbPoint
 10
0.0
 20
0.0
 30
0.0
  0
ARC
  5
3A7
330
18
100
AcDbEntity
  8
1
100
AcDbCircle
 10
63.41400000000001
 20
-26.0
 30
0.0
 40
1.0
100
AcDbArc
 50
90.0
 51
135.0
  0
ARC
  5
3A8
330
18
100
AcDbEntity
  8
1
100
AcDbCircle
 10
55.257
 20
-28.5
 30
0.0
 40
3.0
100
AcDbArc
 50
270.0
 51
315.01355
  0
LINE
  5
3A9
330
18
100
AcDbEntity
  8
1
100
AcDbLine
 10
62.707
 20
-25.293
 30
0.0
 11
57.37900000000001
 21
-30.621
 31
0.0
  0
LINE
  5
3AA
330
18
100
AcDbEntity
  8
1
100
AcDbLine
 10
42.99999999999983
 20
-31.5
 30
0.0
 11
55.257
 21
-31.5
 31
0.0
  0
ARC
  5
3AB
330
18
100
AcDbEntity
  8
1
100
AcDbCircle
 10
42.99999999999983
 20
-36.5
 30
0.0
 40
5.0
100
AcDbArc
 50
89.99999200000001
 51
179.999985
  0
ARC
  5
3AC
330
18
100
AcDbEntity
  8
1
100
AcDbCircle
 10
88.71100000000001
 20
-49.42
 30
0.0
 40
23.364
100
AcDbArc
 50
89.29126
 51
117.2867129999999
  0
LINE
  5
3AD
330
18
100
AcDbEntity
  8
1
100
AcDbLine
 10
89.0
 20
-26.058
 30
0.0
 11
97.69100000000001
 21
-26.058
 31
0.0
  0
LINE
  5
3AE
330
18
100
AcDbEntity
  8
1
100
AcDbLine
 10
97.60100000000001
 20
-28.656
 30
0.0
 11
78.0
 21
-28.656
 31
0.0
  0
LINE
  5
3AF
330
18
100
AcDbEntity
  8
1
100
AcDbLine
 10
78.0
 20
-28.656
 30
0.0
 11
78.0
 21
-25.65599999999999
 31
0.0
  0
LINE
  5
3B0
330
18
100
AcDbEntity
  8
1
100
AcDbLine
 10
78.0
 20
-25.65599999999999
 30
0.0
 11
97.69100000000001
 21
-25.65599999999999
 31
0.0
  0
LINE
  5
3B1
330
18
100
AcDbEntity
  8
1
100
AcDbLine
 10
97.69100000000001
 20
-25.65599999999999
 30
0.0
 11
97.69100000000001
 21
-28.5
 31
0.0
  0
LINE
  5
3D6
330
18
100
AcDbEntity
  8
1
100
AcDbLine
 10
97.60100000000001
 20
28.656
 30
0.0
 11
78.0
 21
28.656
 31
0.0
  0
LINE
  5
3D7
330
18
100
AcDbEntity
  8
1
100
AcDbLine
 10
78.0
 20
28.656
 30
0.0
 11
78.0
 21
25.656
 31
0.0
  0
LINE
  5
3D8
330
18
100
AcDbEntity
  8
1
100
AcDbLine
 10
78.0
 20
25.656
 30
0.0
 11
97.69100000000001
 21
25.656
 31
0.0
  0
LINE
  5
3D9
330
18
100
AcDbEntity
  8
1
100
AcDbLine
 10
97.69100000000001
 20
25.656
 30
0.0
 11
97.69100000000001
 21
28.49999999999999
 31
0.0
  0
LINE
  5
3DA
330
18
100
AcDbEntity
  8
1
100
AcDbLine
 10
78.0
 20
-3.0
 30
0.0
 11
97.69100000000001
 21
-3.0
 31
0.0
  0
LINE
  5
3DB
330
18
100
AcDbEntity
  8
1
100
AcDbLine
 10
97.69100000000001
 20
-3.0
 30
0.0
 11
97.69100000000001
 21
3.000000000000003
 31
0.0
  0
LINE
  5
3DC
330
18
100
AcDbEntity
  8
1
100
AcDbLine
 10
97.69100000000001
 20
3.000000000000003
 30
0.0
 11
78.0
 21
3.000000000000003
 31
0.0
  0
LINE
  5
3DD
330
18
100
AcDbEntity
  8
1
100
AcDbLine
 10
78.0
 20
3.000000000000003
 30
0.0
 11
78.0
 21
-3.0
 31
0.0
  0
LINE
  5
3DE
330
18
100
AcDbEntity
  8
1
100
AcDbLine
 10
95.959
 20
-28.656
 30
0.0
 11
95.959
 21
-31.5
 31
0.0
  0
LINE
  5
3DF
330
18
100
AcDbEntity
  8
1
100
AcDbLine
 10
95.959
 20
-3.0
 30
0.0
 11
95.959
 21
-25.65599999999999
 31
0.0
  0
LINE
  5
3E0
330
18
100
AcDbEntity
  8
1
100
AcDbLine
 10
95.959
 20
25.656
 30
0.0
 11
95.959
 21
3.000000000000003
 31
0.0
  0
LINE
  5
3E1
330
18
100
AcDbEntity
  8
1
100
AcDbLine
 10
95.959
 20
31.49999999999999
 30
0.0
 11
95.959
 21
28.656
 31
0.0
  0
LINE
  5
3E2
330
18
100
AcDbEntity
  8
1
100
AcDbLine
 10
75.0
 20
30.0
 30
0.0
 11
75.0
 21
-30.0
 31
0.0
  0
LINE
  5
3E3
330
18
100
AcDbEntity
  8
1
100
AcDbLine
 10
76.5
 20
-31.5
 30
0.0
 11
95.959
 21
-31.5
 31
0.0
  0
LINE
  5
3E4
330
18
100
AcDbEntity
  8
1
100
AcDbLine
 10
95.959
 20
-31.5
 30
0.0
 11
100.0
 21
-24.5
 31
0.0
  0
LINE
  5
3E5
330
18
100
AcDbEntity
  8
1
100
AcDbLine
 10
100.0
 20
-24.5
 30
0.0
 11
100.0
 21
24.49999999999999
 31
0.0
  0
LINE
  5
3E6
330
18
100
AcDbEntity
  8
1
100
AcDbLine
 10
100.0
 20
24.49999999999999
 30
0.0
 11
95.959
 21
31.49999999999999
 31
0.0
  0
LINE
  5
3E7
330
18
100
AcDbEntity
  8
1
100
AcDbLine
 10
95.959
 20
31.49999999999999
 30
0.0
 11
76.5
 21
31.49999999999999
 31
0.0
  0
LINE
  5
3E8
330
18
100
AcDbEntity
  8
1
100
AcDbLine
 10
75.0
 20
-25.0
 30
0.0
 11
63.41400000000001
 21
-25.0
 31
0.0
  0
LINE
  5
3E9
330
18
100
AcDbEntity
  8
1
100
AcDbLine
 10
75.0
 20
25.0
 30
0.0
 11
63.41400000000001
 21
25.0
 31
0.0
  0
LINE
  5
3EA
330
18
100
AcDbEntity
  8
SK4
100
AcDbLine
 10
-104.5549563767926
 20
0.0
 30
0.0
 11
102.437
 21
0.0
 31
0.0
  0
LINE
  5
3EC
330
18
100
AcDbEntity
  8
SK2
100
AcDbLine
 10
95.959
 20
31.49999999999999
 30
0.0
 11
120.0
 21
31.49999999999999
 31
0.0
  0
LINE
  5
3ED
330
18
100
AcDbEntity
  8
SK2
100
AcDbLine
 10
95.959
 20
-31.5
 30
0.0
 11
120.0
 21
-31.5
 31
0.0
  0
LINE
  5
3EE
330
18
100
AcDbEntity
  8
SK2
100
AcDbLine
 10
115.0
 20
26.92999999999999
 30
0.0
 11
115.0
 21
-26.93
 31
0.0
  0
SOLID
  5
3EF
330
18
100
AcDbEntity
  8
SK2
100
AcDbTrace
 10
114.2383333333333
 20
26.92999999999999
 30
0.0
 11
115.7616666666666
 21
26.92999999999999
 31
0.0
 12
115.0
 22
31.49999999999999
 32
0.0
 13
115.0
 23
31.49999999999999
 33
0.0
  0
SOLID
  5
3F0
330
18
100
AcDbEntity
  8
SK2
100
AcDbTrace
 10
114.2383333333333
 20
-26.93
 30
0.0
 11
115.7616666666666
 21
-26.93
 31
0.0
 12
115.0
 22
-31.5
 32
0.0
 13
115.0
 23
-31.5
 33
0.0
  0
LINE
  5
405
330
18
100
AcDbEntity
  8
SK3
100
AcDbLine
 10
88.0
 20
30.0
 30
0.0
 11
88.0
 21
-30.0
 31
0.0
  0
LINE
  5
406
330
18
100
AcDbEntity
  8
SK3
100
AcDbLine
 10
47.0
 20
16.0
 30
0.0
 11
39.0
 21
16.0
 31
0.0
  0
LINE
  5
407
330
18
100
AcDbEntity
  8
SK3
100
AcDbLine
 10
39.0
 20
-16.0
 30
0.0
 11
47.0
 21
-16.0
 31
0.0
  0
LINE
  5
408
330
18
100
AcDbEntity
  8
SK3
100
AcDbLine
 10
38.0
 20
15.0
 30
0.0
 11
38.0
 21
-15.0
 31
0.0
  0
ARC
  5
409
330
18
100
AcDbEntity
  8
SK3
100
AcDbCircle
 10
39.0
 20
-15.0
 30
0.0
 40
1.0
100
AcDbArc
 50
180.0
 51
270.0
  0
ARC
  5
40A
330
18
100
AcDbEntity
  8
SK3
100
AcDbCircle
 10
39.0
 20
15.0
 30
0.0
 40
1.0
100
AcDbArc
 50
90.0
 51
180.0
  0
LINE
  5
40B
330
18
100
AcDbEntity
  8
SK3
100
AcDbLine
 10
48.0
 20
15.0
 30
0.0
 11
48.0
 21
-13.84999999999999
 31
0.0
  0
LINE
  5
40C
330
18
100
AcDbEntity
  8
SK3
100
AcDbLine
 10
88.0
 20
-16.44999999999998
 30
0.0
 11
48.0
 21
-14.44999999999998
 31
0.0
  0
LINE
  5
40D
330
18
100
AcDbEntity
  8
SK3
100
AcDbLine
 10
48.0
 20
-15.0
 30
0.0
 11
48.0
 21
-13.84999999999999
 31
0.0
  0
ARC
  5
40E
330
18
100
AcDbEntity
  8
SK3
100
AcDbCircle
 10
47.0
 20
-15.0
 30
0.0
 40
1.0
100
AcDbArc
 50
270.0
 51
0.0
  0
LINE
  5
40F
330
18
100
AcDbEntity
  8
SK3
100
AcDbLine
 10
88.0
 20
16.44999999999998
 30
0.0
 11
48.0
 21
14.44999999999998
 31
0.0
  0
LINE
  5
410
330
18
100
AcDbEntity
  8
SK3
100
AcDbLine
 10
48.0
 20
13.84999999999999
 30
0.0
 11
48.0
 21
15.0
 31
0.0
  0
ARC
  5
411
330
18
100
AcDbEntity
  8
SK3
100
AcDbCircle
 10
47.0
 20
15.0
 30
0.0
 40
1.0
100
AcDbArc
 50
0.0
 51
90.0
  0
LINE
  5
412
330
18
100
AcDbEntity
  8
SK3
100
AcDbLine
 10
-39.8
 20
10.5
 30
0.0
 11
38.0
 21
10.49999999999999
 31
0.0
  0
LINE
  5
413
330
18
100
AcDbEntity
  8
SK3
100
AcDbLine
 10
-39.8
 20
-10.5
 30
0.0
 11
37.99999999999999
 21
-10.5
 31
0.0
  0
TEXT
  5
4DC
330
18
100
AcDbEntity
  8
6
100
AcDbText
 10
-70.0
 20
17.0
 30
0.0
 40
3.5
  1
SK50 MAS-BT
  7
SIMPLEX
100
AcDbText
  0
ARC
  5
4DD
330
18
100
AcDbEntity
  8
1
  6
CONTINUOUS
 62
     4
100
AcDbCircle
 10
-100.7999948599014
 20
19.21433594419816
 30
0.0
 40
1.000005140116246
100
AcDbArc
 50
98.29873759425451
 51
180.0003405992197
  0
LINE
  5
4DE
330
18
100
AcDbEntity
  8
1
  6
CONTINUOUS
 62
     4
100
AcDbLine
 10
0.6036700000000011
 20
34.65
 30
0.0
 11
2.200000000000002
 21
34.65
 31
0.0
  0
LINE
  5
4DF
330
18
100
AcDbEntity
  8
1
  6
CONTINUOUS
 62
     4
100
AcDbLine
 10
3.599999999999994
 20
-49.98653
 30
0.0
 11
15.70019999999999
 21
-49.98653
 31
0.0
  0
LINE
  5
4E0
330
18
100
AcDbEntity
  8
1
  6
CONTINUOUS
 62
     4
100
AcDbLine
 10
30.69979999999999
 20
-49.98653
 30
0.0
 11
37.4
 21
-49.98653
 31
0.0
  0
LINE
  5
4E1
330
18
100
AcDbEntity
  8
1
  6
CONTINUOUS
 62
     4
100
AcDbLine
 10
30.69979999999999
 20
-9.115200000000001
 30
0.0
 11
30.69979999999999
 21
-49.98653
 31
0.0
  0
LINE
  5
4E2
330
18
100
AcDbEntity
  8
1
  6
CONTINUOUS
 62
     4
100
AcDbLine
 10
15.70019999999999
 20
-12.85
 30
0.0
 11
15.70019999999999
 21
-49.98653
 31
0.0
  0
LINE
  5
4E3
330
18
100
AcDbEntity
  8
1
  6
CONTINUOUS
 62
     4
100
AcDbLine
 10
19.7
 20
-12.85
 30
0.0
 11
19.7
 21
-43.05867
 31
0.0
  0
LINE
  5
4E4
330
18
100
AcDbEntity
  8
1
  6
CONTINUOUS
 62
     4
100
AcDbLine
 10
0.0
 20
34.92499999999999
 30
0.0
 11
0.0
 21
0.0
 31
0.0
  0
LINE
  5
4E5
330
18
100
AcDbEntity
  8
1
  6
CONTINUOUS
 62
     4
100
AcDbLine
 10
15.70019999999999
 20
-49.98653
 30
0.0
 11
19.7
 21
-43.05867
 31
0.0
  0
LINE
  5
4E6
330
18
100
AcDbEntity
  8
1
  6
CONTINUOUS
 62
     4
100
AcDbLine
 10
19.7
 20
-42.5
 30
0.0
 11
26.7
 21
-42.5
 31
0.0
  0
LINE
  5
4E7
330
18
100
AcDbEntity
  8
1
  6
CONTINUOUS
 62
     4
100
AcDbLine
 10
26.7
 20
11.89126999999999
 30
0.0
 11
26.7
 21
43.05867
 31
0.0
  0
LINE
  5
4E8
330
18
100
AcDbEntity
  8
1
  6
CONTINUOUS
 62
     4
100
AcDbLine
 10
19.7
 20
12.85
 30
0.0
 11
19.7
 21
43.05867
 31
0.0
  0
ARC
  5
4E9
330
18
100
AcDbEntity
  8
1
  6
CONTINUOUS
 62
     4
100
AcDbCircle
 10
-100.7999948599014
 20
-19.21433594419816
 30
0.0
 40
1.000005140116246
100
AcDbArc
 50
179.9996594242833
 51
261.7012624292486
  0
LINE
  5
4EA
330
18
100
AcDbEntity
  8
1
  6
CONTINUOUS
 62
     4
100
AcDbLine
 10
0.0
 20
-34.92499999999999
 30
0.0
 11
-100.94433
 21
-20.20387
 31
0.0
  0
LINE
  5
4EB
330
18
100
AcDbEntity
  8
1
  6
CONTINUOUS
 62
     4
100
AcDbLine
 10
0.6036700000000011
 20
-34.64999999999999
 30
0.0
 11
2.200000000000002
 21
-34.64999999999999
 31
0.0
  0
LINE
  5
4EC
330
18
100
AcDbEntity
  8
1
  6
CONTINUOUS
 62
     4
100
AcDbLine
 10
0.0
 20
-34.92499999999999
 30
0.0
 11
0.0
 21
0.0
 31
0.0
  0
LINE
  5
4ED
330
18
100
AcDbEntity
  8
1
  6
CONTINUOUS
 62
     4
100
AcDbLine
 10
-101.8
 20
0.0
 30
0.0
 11
-101.8
 21
-19.21433
 31
0.0
  0
LINE
  5
4EE
330
18
100
AcDbEntity
  8
SK3
100
AcDbLine
 10
-100.0822
 20
-12.50826999999999
 30
0.0
 11
-101.8
 21
-13.5
 31
0.0
  0
LINE
  5
4EF
330
18
100
AcDbEntity
  8
1
  6
CONTINUOUS
 62
     4
100
AcDbLine
 10
0.0
 20
34.92499999999999
 30
0.0
 11
-100.94433
 21
20.20386999999999
 31
0.0
  0
ARC
  5
4F0
330
18
100
AcDbEntity
  8
1
  6
CONTINUOUS
 62
     4
100
AcDbCircle
 10
22.0
 20
0.8499999999999998
 30
0.0
 40
12.0
100
AcDbArc
 50
0.0000000235031287
 51
90.0000000235031
  0
LINE
  5
4F1
330
18
100
AcDbEntity
  8
SK3
100
AcDbLine
 10
-101.8
 20
10.0
 30
0.0
 11
-101.8
 21
10.0
 31
0.0
  0
LINE
  5
4F2
330
18
100
AcDbEntity
  8
1
  6
CONTINUOUS
 62
     4
100
AcDbLine
 10
34.0
 20
0.0
 30
0.0
 11
34.0
 21
0.8500000000000014
 31
0.0
  0
LINE
  5
4F3
330
18
100
AcDbEntity
  8
1
  6
CONTINUOUS
 62
     4
100
AcDbLine
 10
-101.8
 20
0.0
 30
0.0
 11
-101.8
 21
19.21433
 31
0.0
  0
LINE
  5
4F4
330
18
100
AcDbEntity
  8
1
  6
CONTINUOUS
 62
     4
100
AcDbLine
 10
38.0
 20
0.0
 30
0.0
 11
38.0
 21
49.38652999999999
 31
0.0
  0
LINE
  5
4F5
330
18
100
AcDbEntity
  8
1
  6
CONTINUOUS
 62
     4
100
AcDbLine
 10
30.69979999999999
 20
49.98653
 30
0.0
 11
26.7
 21
43.05867
 31
0.0
  0
LINE
  5
4F6
330
18
100
AcDbEntity
  8
1
  6
CONTINUOUS
 62
     4
100
AcDbLine
 10
15.70019999999999
 20
49.98653
 30
0.0
 11
19.7
 21
43.05867
 31
0.0
  0
LINE
  5
4F7
330
18
100
AcDbEntity
  8
SK3
100
AcDbLine
 10
-88.55
 20
0.0
 30
0.0
 11
-88.55
 21
12.50826999999999
 31
0.0
  0
LINE
  5
4F8
330
18
100
AcDbEntity
  8
SK3
100
AcDbLine
 10
-100.08227
 20
12.50826999999999
 30
0.0
 11
-101.8
 21
13.5
 31
0.0
  0
LINE
  5
4F9
330
18
100
AcDbEntity
  8
SK3
100
AcDbLine
 10
-100.0822
 20
-12.50826999999999
 30
0.0
 11
-88.55
 21
-12.50826999999999
 31
0.0
  0
LINE
  5
4FA
330
18
100
AcDbEntity
  8
SK3
100
AcDbLine
 10
-100.08227
 20
12.50826999999999
 30
0.0
 11
-88.55
 21
12.50826999999999
 31
0.0
  0
LINE
  5
4FB
330
18
100
AcDbEntity
  8
SK3
100
AcDbLine
 10
-87.39053
 20
-10.5
 30
0.0
 11
-39.8
 21
-10.5
 31
0.0
  0
LINE
  5
4FC
330
18
100
AcDbEntity
  8
SK3
100
AcDbLine
 10
-87.39053
 20
10.5
 30
0.0
 11
-39.8
 21
10.5
 31
0.0
  0
LINE
  5
4FD
330
18
100
AcDbEntity
  8
1
  6
CONTINUOUS
 62
     4
100
AcDbLine
 10
3.599999999999994
 20
49.98653
 30
0.0
 11
15.70019999999999
 21
49.98653
 31
0.0
  0
LINE
  5
4FE
330
18
100
AcDbEntity
  8
1
  6
CONTINUOUS
 62
     4
100
AcDbLine
 10
26.7
 20
42.5
 30
0.0
 11
19.7
 21
42.5
 31
0.0
  0
LINE
  5
4FF
330
18
100
AcDbEntity
  8
1
  6
CONTINUOUS
 62
     4
100
AcDbLine
 10
3.0
 20
12.85
 30
0.0
 11
22.0
 21
12.85
 31
0.0
  0
LINE
  5
500
330
18
100
AcDbEntity
  8
1
  6
CONTINUOUS
 62
     4
100
AcDbLine
 10
30.69979999999999
 20
9.115200000000001
 30
0.0
 11
30.69979999999999
 21
49.98653
 31
0.0
  0
LINE
  5
501
330
18
100
AcDbEntity
  8
1
  6
CONTINUOUS
 62
     4
100
AcDbLine
 10
15.70019999999999
 20
12.85
 30
0.0
 11
15.70019999999999
 21
49.98653
 31
0.0
  0
LINE
  5
503
330
18
100
AcDbEntity
  8
SK3
100
AcDbLine
 10
-87.39053
 20
10.5
 30
0.0
 11
-87.39053
 21
-10.5
 31
0.0
  0
LINE
  5
504
330
18
100
AcDbEntity
  8
SK3
100
AcDbLine
 10
-39.8
 20
0.0
 30
0.0
 11
-39.8
 21
10.5
 31
0.0
  0
LINE
  5
505
330
18
100
AcDbEntity
  8
SK3
100
AcDbLine
 10
-56.79999999999999
 20
0.0
 30
0.0
 11
-56.79999999999999
 21
12.0
 31
0.0
  0
LINE
  5
506
330
18
100
AcDbEntity
  8
1
  6
CONTINUOUS
 62
     4
100
AcDbLine
 10
30.69979999999999
 20
49.98653
 30
0.0
 11
37.4
 21
49.98653
 31
0.0
  0
LINE
  5
507
330
18
100
AcDbEntity
  8
1
  6
CONTINUOUS
 62
     4
100
AcDbLine
 10
26.7
 20
-43.05867
 30
0.0
 11
30.69979999999999
 21
-49.98653
 31
0.0
  0
ARC
  5
508
330
18
100
AcDbEntity
  8
1
  6
CONTINUOUS
 62
     4
100
AcDbCircle
 10
37.4
 20
49.38653
 30
0.0
 40
0.6000000000000007
100
AcDbArc
 50
0.0
 51
89.99999999999992
  0
LINE
  5
509
330
18
100
AcDbEntity
  8
1
  6
CONTINUOUS
 62
     4
100
AcDbLine
 10
38.0
 20
0.0
 30
0.0
 11
38.0
 21
-49.38653
 31
0.0
  0
LINE
  5
50A
330
18
100
AcDbEntity
  8
1
  6
CONTINUOUS
 62
     4
100
AcDbLine
 10
34.0
 20
0.0
 30
0.0
 11
34.0
 21
-0.8500000000000014
 31
0.0
  0
LINE
  5
50B
330
18
100
AcDbEntity
  8
1
  6
CONTINUOUS
 62
     4
100
AcDbLine
 10
26.7
 20
-11.89126999999999
 30
0.0
 11
26.7
 21
-43.05867
 31
0.0
  0
ARC
  5
50C
330
18
100
AcDbEntity
  8
1
  6
CONTINUOUS
 62
     4
100
AcDbCircle
 10
3.599999999999994
 20
-49.38653
 30
0.0
 40
0.6000000000000015
100
AcDbArc
 50
180.0
 51
270.0
  0
ARC
  5
50D
330
18
100
AcDbEntity
  8
1
  6
CONTINUOUS
 62
     4
100
AcDbCircle
 10
37.4
 20
-49.38653
 30
0.0
 40
0.6000000000000015
100
AcDbArc
 50
270.0000000000001
 51
0.0
  0
LINE
  5
50E
330
18
100
AcDbEntity
  8
SK3
100
AcDbLine
 10
-100.08227
 20
12.50826999999999
 30
0.0
 11
-100.0822
 21
-12.50826999999999
 31
0.0
  0
ARC
  5
50F
330
18
100
AcDbEntity
  8
1
  6
CONTINUOUS
 62
     4
100
AcDbCircle
 10
0.6036392431483791
 20
35.45000177144554
 30
0.0
 40
0.7999855478990882
100
AcDbArc
 50
221.014037850304
 51
270.0024836043007
  0
ARC
  5
510
330
18
100
AcDbEntity
  8
1
  6
CONTINUOUS
 62
     4
100
AcDbCircle
 10
2.200000000000002
 20
35.45
 30
0.0
 40
0.7999999999999972
100
AcDbArc
 50
270.0000000235031
 51
0.0000000235031287
  0
LINE
  5
511
330
18
100
AcDbEntity
  8
SK3
100
AcDbLine
 10
-39.8
 20
0.0
 30
0.0
 11
-39.8
 21
-10.5
 31
0.0
  0
LINE
  5
512
330
18
100
AcDbEntity
  8
SK3
100
AcDbLine
 10
-56.79999999999999
 20
0.0
 30
0.0
 11
-56.79999999999999
 21
-12.0
 31
0.0
  0
LINE
  5
513
330
18
100
AcDbEntity
  8
SK3
100
AcDbLine
 10
-88.55
 20
-12.50826999999999
 30
0.0
 11
-87.39053
 21
-10.5
 31
0.0
  0
ARC
  5
514
330
18
100
AcDbEntity
  8
1
  6
CONTINUOUS
 62
     4
100
AcDbCircle
 10
0.6036392431483791
 20
-35.45000177144554
 30
0.0
 40
0.7999855478990882
100
AcDbArc
 50
89.99751641920235
 51
138.985962173199
  0
LINE
  5
515
330
18
100
AcDbEntity
  8
SK3
100
AcDbLine
 10
-87.39053
 20
10.5
 30
0.0
 11
-88.55
 21
12.50826999999999
 31
0.0
  0
ARC
  5
516
330
18
100
AcDbEntity
  8
1
  6
CONTINUOUS
 62
     4
100
AcDbCircle
 10
22.0
 20
-0.8500000000000005
 30
0.0
 40
12.0
100
AcDbArc
 50
270.0
 51
0.0000000000000027
  0
LINE
  5
517
330
18
100
AcDbEntity
  8
1
  6
CONTINUOUS
 62
     4
100
AcDbLine
 10
3.0
 20
-12.85
 30
0.0
 11
22.0
 21
-12.85
 31
0.0
  0
LINE
  5
519
330
18
100
AcDbEntity
  8
SK3
100
AcDbLine
 10
-101.8
 20
-10.0
 30
0.0
 11
-101.8
 21
-10.0
 31
0.0
  0
ARC
  5
51A
330
18
100
AcDbEntity
  8
1
  6
CONTINUOUS
 62
     4
100
AcDbCircle
 10
2.200000000000002
 20
-35.45
 30
0.0
 40
0.7999999999999972
100
AcDbArc
 50
0.0
 51
90.0
  0
LINE
  5
51B
330
18
100
AcDbEntity
  8
SK3
100
AcDbLine
 10
-88.55
 20
0.0
 30
0.0
 11
-88.55
 21
-12.50826999999999
 31
0.0
  0
ARC
  5
51C
330
18
100
AcDbEntity
  8
1
  6
CONTINUOUS
 62
     4
100
AcDbCircle
 10
3.599999999999994
 20
49.38653
 30
0.0
 40
0.6000000000000015
100
AcDbArc
 50
90.0000000235031
 51
180.0000000235031
  0
LINE
  5
51E
330
18
100
AcDbEntity
  8
SK3
100
AcDbLine
 10
-88.26133
 20
12.0
 30
0.0
 11
-56.79999999999999
 21
12.0
 31
0.0
  0
LINE
  5
51F
330
18
100
AcDbEntity
  8
SK3
100
AcDbLine
 10
-88.26133
 20
-12.0
 30
0.0
 11
-56.79999999999999
 21
-12.0
 31
0.0
  0
LINE
  5
520
330
18
100
AcDbEntity
  8
1
  6
CONTINUOUS
 62
     4
100
AcDbLine
 10
3.0
 20
-49.38653
 30
0.0
 11
3.0
 21
0.1919299999999993
 31
0.0
  0
LINE
  5
521
330
18
100
AcDbEntity
  8
1
  6
CONTINUOUS
 62
     4
100
AcDbLine
 10
3.0
 20
0.1919299999999993
 30
0.0
 11
3.0
 21
0.1921999999999997
 31
0.0
  0
LINE
  5
522
330
18
100
AcDbEntity
  8
1
  6
CONTINUOUS
 62
     4
100
AcDbLine
 10
3.0
 20
0.1921999999999997
 30
0.0
 11
3.0
 21
49.38652999999999
 31
0.0
  0
LINE
  5
58C
330
18
100
AcDbEntity
  8
SK2
100
AcDbLine
 10
3.599999999999994
 20
-49.98653
 30
0.0
 11
-137.0
 21
-49.98652999999997
 31
0.0
  0
LINE
  5
58D
330
18
100
AcDbEntity
  8
SK2
100
AcDbLine
 10
3.599999999999994
 20
49.98653
 30
0.0
 11
-137.0
 21
49.98653000000004
 31
0.0
  0
LINE
  5
58E
330
18
100
AcDbEntity
  8
SK2
100
AcDbLine
 10
-132.0
 20
-45.41652999999996
 30
0.0
 11
-132.0
 21
45.41653000000003
 31
0.0
  0
SOLID
  5
58F
330
18
100
AcDbEntity
  8
SK2
100
AcDbTrace
 10
-132.7616666666666
 20
-45.41652999999996
 30
0.0
 11
-131.2383333333333
 21
-45.41652999999996
 31
0.0
 12
-132.0
 22
-49.98652999999997
 32
0.0
 13
-132.0
 23
-49.98652999999997
 33
0.0
  0
SOLID
  5
590
330
18
100
AcDbEntity
  8
SK2
100
AcDbTrace
 10
-132.7616666666666
 20
45.41653000000003
 30
0.0
 11
-131.2383333333333
 21
45.41653000000003
 31
0.0
 12
-132.0
 22
49.98653000000004
 32
0.0
 13
-132.0
 23
49.98653000000004
 33
0.0
  0
LINE
  5
59C
330
18
100
AcDbEntity
  8
SK2
100
AcDbLine
 10
-88.26133
 20
12.0
 30
0.0
 11
-122.0
 21
12.00000000000001
 31
0.0
  0
LINE
  5
59D
330
18
100
AcDbEntity
  8
SK2
100
AcDbLine
 10
-88.26133
 20
-12.0
 30
0.0
 11
-122.0
 21
-11.99999999999999
 31
0.0
  0
LINE
  5
59E
330
18
100
AcDbEntity
  8
SK2
100
AcDbLine
 10
-117.0
 20
7.430000000000007
 30
0.0
 11
-117.0
 21
-7.429999999999991
 31
0.0
  0
SOLID
  5
59F
330
18
100
AcDbEntity
  8
SK2
100
AcDbTrace
 10
-117.7616666666666
 20
7.430000000000007
 30
0.0
 11
-116.2383333333333
 21
7.430000000000007
 31
0.0
 12
-117.0
 22
12.00000000000001
 32
0.0
 13
-117.0
 23
12.00000000000001
 33
0.0
  0
SOLID
  5
5A0
330
18
100
AcDbEntity
  8
SK2
100
AcDbTrace
 10
-117.7616666666666
 20
-7.429999999999991
 30
0.0
 11
-116.2383333333333
 21
-7.429999999999991
 31
0.0
 12
-117.0
 22
-11.99999999999999
 32
0.0
 13
-117.0
 23
-11.99999999999999
 33
0.0
  0
LINE
  5
5A2
330
18
100
AcDbEntity
  8
SK2
100
AcDbLine
 10
0.0
 20
34.92499999999999
 30
0.0
 11
-17.99999999999998
 21
34.925
 31
0.0
  0
LINE
  5
5A3
330
18
100
AcDbEntity
  8
SK2
100
AcDbLine
 10
0.0
 20
-34.92499999999999
 30
0.0
 11
-18.0
 21
-34.92499999999999
 31
0.0
  0
LINE
  5
5A4
330
18
100
AcDbEntity
  8
SK2
100
AcDbLine
 10
-12.99999999999998
 20
30.355
 30
0.0
 11
-13.0
 21
-30.35499999999999
 31
0.0
  0
SOLID
  5
5A5
330
18
100
AcDbEntity
  8
SK2
100
AcDbTrace
 10
-13.76166666666665
 20
30.355
 30
0.0
 11
-12.23833333333331
 21
30.355
 31
0.0
 12
-12.99999999999998
 22
34.92499999999999
 32
0.0
 13
-12.99999999999998
 23
34.92499999999999
 33
0.0
  0
SOLID
  5
5A6
330
18
100
AcDbEntity
  8
SK2
100
AcDbTrace
 10
-13.76166666666666
 20
-30.35499999999999
 30
0.0
 11
-12.23833333333333
 21
-30.35499999999999
 31
0.0
 12
-13.0
 22
-34.92499999999999
 32
0.0
 13
-13.0
 23
-34.92499999999999
 33
0.0
  0
LINE
  5
5A8
330
18
100
AcDbEntity
  8
SK2
100
AcDbLine
 10
-101.8
 20
19.21432999958978
 30
0.0
 11
-101.8
 21
80.0
 31
0.0
  0
LINE
  5
5A9
330
18
100
AcDbEntity
  8
SK2
100
AcDbLine
 10
0.0
 20
34.92499999999999
 30
0.0
 11
0.0000000000000028
 21
80.0
 31
0.0
  0
LINE
  5
5AA
330
18
100
AcDbEntity
  8
SK2
100
AcDbLine
 10
-97.23000000000002
 20
75.0
 30
0.0
 11
-4.569999999999997
 21
75.0
 31
0.0
  0
SOLID
  5
5AB
330
18
100
AcDbEntity
  8
SK2
100
AcDbTrace
 10
-97.23000000000002
 20
75.76166666666667
 30
0.0
 11
-97.23000000000002
 21
74.23833333333333
 31
0.0
 12
-101.8
 22
75.0
 32
0.0
 13
-101.8
 23
75.0
 33
0.0
  0
SOLID
  5
5AC
330
18
100
AcDbEntity
  8
SK2
100
AcDbTrace
 10
-4.569999999999997
 20
75.76166666666667
 30
0.0
 11
-4.569999999999997
 21
74.23833333333333
 31
0.0
 12
0.0000000000000025
 22
75.0
 32
0.0
 13
0.0000000000000025
 23
75.0
 33
0.0
  0
LINE
  5
5AE
330
18
100
AcDbEntity
  8
SK2
100
AcDbLine
 10
0.0
 20
34.92499999999999
 30
0.0
 11
0.0000000000000018
 21
65.0
 31
0.0
  0
LINE
  5
5AF
330
18
100
AcDbEntity
  8
SK2
100
AcDbLine
 10
38.0
 20
49.38652999999999
 30
0.0
 11
38.0
 21
65.0
 31
0.0
  0
LINE
  5
5B0
330
18
100
AcDbEntity
  8
SK2
100
AcDbLine
 10
4.570000000000002
 20
60.0
 30
0.0
 11
33.42999999999999
 21
60.0
 31
0.0
  0
SOLID
  5
5B1
330
18
100
AcDbEntity
  8
SK2
100
AcDbTrace
 10
4.570000000000002
 20
60.76166666666667
 30
0.0
 11
4.570000000000002
 21
59.23833333333333
 31
0.0
 12
0.0000000000000015
 22
60.0
 32
0.0
 13
0.0000000000000015
 23
60.0
 33
0.0
  0
SOLID
  5
5B2
330
18
100
AcDbEntity
  8
SK2
100
AcDbTrace
 10
33.42999999999999
 20
60.76166666666667
 30
0.0
 11
33.42999999999999
 21
59.23833333333333
 31
0.0
 12
38.0
 22
60.0
 32
0.0
 13
38.0
 23
60.0
 33
0.0
  0
LINE
  5
5B4
330
18
100
AcDbEntity
  8
2
100
AcDbLine
 10
0.0
 20
39.76700000000001
 30
0.0
 11
0.0000000000000025
 21
80.0
 31
0.0
  0
LINE
  5
5B5
330
18
100
AcDbEntity
  8
2
100
AcDbLine
 10
100.0
 20
24.49999999999999
 30
0.0
 11
100.0
 21
80.0
 31
0.0
  0
LINE
  5
5B6
330
18
100
AcDbEntity
  8
2
100
AcDbLine
 10
4.570000000000002
 20
75.0
 30
0.0
 11
95.43000000000001
 21
75.0
 31
0.0
  0
SOLID
  5
5B7
330
18
100
AcDbEntity
  8
2
100
AcDbTrace
 10
4.570000000000002
 20
75.76166666666667
 30
0.0
 11
4.570000000000002
 21
74.23833333333333
 31
0.0
 12
0.0000000000000022
 22
75.0
 32
0.0
 13
0.0000000000000022
 23
75.0
 33
0.0
  0
SOLID
  5
5B8
330
18
100
AcDbEntity
  8
2
100
AcDbTrace
 10
95.43000000000001
 20
75.76166666666667
 30
0.0
 11
95.43000000000001
 21
74.23833333333333
 31
0.0
 12
100.0
 22
75.0
 32
0.0
 13
100.0
 23
75.0
 33
0.0
  0
TEXT
  5
5BA
330
18
100
AcDbEntity
  8
2
100
AcDbText
 10
44.55952380952381
 20
77.3
 30
0.0
 40
4.57
  1
100
  7
SIMPLEX
100
AcDbText
  0
TEXT
  5
5BB
330
18
100
AcDbEntity
  8
SK2
100
AcDbText
 10
15.30047619047619
 20
62.3
 30
0.0
 40
4.57
  1
38
  7
SIMPLEX
100
AcDbText
  0
TEXT
  5
5BC
330
18
100
AcDbEntity
  8
SK2
100
AcDbText
 10
-59.16952380952381
 20
77.3
 30
0.0
 40
4.57
  1
101.8
  7
SIMPLEX
100
AcDbText
  0
TEXT
  5
5BD
330
18
100
AcDbEntity
  8
SK2
100
AcDbText
 10
-15.29999999999999
 20
-11.20738095238095
 30
0.0
 40
4.57
  1
%%c
 50
90.0
  7
SIMPLEX
100
AcDbText
  0
TEXT
  5
5BE
330
18
100
AcDbEntity
  8
SK2
100
AcDbText
 10
-15.29999999999999
 20
-7.072619047619046
 30
0.0
 40
4.57
  1
69.85
 50
90.0
  7
SIMPLEX
100
AcDbText
  0
TEXT
  5
5BF
330
18
100
AcDbEntity
  8
SK2
100
AcDbText
 10
-119.3
 20
-6.419761904761915
 30
0.0
 40
4.57
  1
M24
 50
90.0
  7
SIMPLEX
100
AcDbText
  0
TEXT
  5
5C0
330
18
100
AcDbEntity
  8
SK2
100
AcDbText
 10
-134.3
 20
-7.507857142857125
 30
0.0
 40
4.57
  1
%%c
 50
90.0
  7
SIMPLEX
100
AcDbText
  0
TEXT
  5
5C1
330
18
100
AcDbEntity
  8
SK2
100
AcDbText
 10
-134.3
 20
-3.373095238095221
 30
0.0
 40
4.57
  1
100
 50
90.0
  7
SIMPLEX
100
AcDbText
  0
TEXT
  5
5C2
330
18
100
AcDbEntity
  8
SK2
100
AcDbText
 10
112.7
 20
-5.766904761904749
 30
0.0
 40
4.57
  1
%%c
 50
90.0
  7
SIMPLEX
100
AcDbText
  0
TEXT
  5
5C3
330
18
100
AcDbEntity
  8
SK2
100
AcDbText
 10
112.7
 20
-1.632142857142844
 30
0.0
 40
4.57
  1
63
 50
90.0
  7
SIMPLEX
100
AcDbText
  0
ENDSEC
  0
SECTION
  2
OBJECTS
  0
DICTIONARY
  5
C
330
0
100
AcDbDictionary
  3
ACAD_GROUP
350
D
  3
ACAD_LAYOUT
350
301
  3
ACAD_MLINESTYLE
350
E
  3
ACAD_PLOTSETTINGS
350
302
1001
ACAD
1000
TREAT_AS_HARD
1070
     0
  0
DICTIONARY
  5
5C5
330
18
100
AcDbDictionary
  3
ACAD_LAYOUTSELFREF
350
5C6
  0
DICTIONARY
  5
5C7
330
338
100
AcDbDictionary
  3
ACAD_LAYOUTSELFREF
350
5C8
  0
DICTIONARY
  5
D
102
{ACAD_REACTORS
330
C
102
}
330
C
100
AcDbDictionary
1001
ACAD
1000
TREAT_AS_HARD
1070
     0
  0
DICTIONARY
  5
301
102
{ACAD_REACTORS
330
C
102
}
330
C
100
AcDbDictionary
1001
ACAD
1000
TREAT_AS_HARD
1070
     0
  0
DICTIONARY
  5
E
102
{ACAD_REACTORS
330
C
102
}
330
C
100
AcDbDictionary
  3
STANDARD
350
1B
1001
ACAD
1000
TREAT_AS_HARD
1070
     0
  0
DICTIONARY
  5
302
102
{ACAD_REACTORS
330
C
102
}
330
C
100
AcDbDictionary
1001
ACAD
1000
TREAT_AS_HARD
1070
     0
  0
XRECORD
  5
5C6
102
{ACAD_REACTORS
330
5C5
102
}
330
5C5
100
AcDbXrecord
340
18
  0
XRECORD
  5
5C8
102
{ACAD_REACTORS
330
5C7
102
}
330
5C7
100
AcDbXrecord
340
338
  0
MLINESTYLE
  5
1B
102
{ACAD_REACTORS
330
E
102
}
330
E
100
AcDbMlineStyle
  2
STANDARD
 70
     0
  3

 62
     0
 51
90.0
 52
90.0
 71
     2
 49
0.5
 62
   256
  6
BYLAYER
 49
-0.5
 62
   256
  6
BYLAYER
  0
ENDSEC
  0
EOF
