  0
SECTION
  2
HEADER
  9
$ACADVER
  1
AC1015
  9
$ACADMAINTVER
 70
     6
  9
$DWGCODEPAGE
  3
ANSI_1252
  9
$INSBASE
 10
0.0
 20
0.0
 30
0.0
  9
$EXTMIN
 10
-1.7524284913424
 20
254.2055056257
 30
0.0
  9
$EXTMAX
 10
248.827111262401
 20
395.833081372365
 30
0.0
  9
$LIMMIN
 10
0.0
 20
0.0
  9
$LIMMAX
 10
12.0
 20
9.0
  9
$ORTHOMODE
 70
     0
  9
$REGENMODE
 70
     1
  9
$FILLMODE
 70
     1
  9
$QTEXTMODE
 70
     0
  9
$MIRRTEXT
 70
     1
  9
$LTSCALE
 40
1.0
  9
$ATTMODE
 70
     1
  9
$TEXTSIZE
 40
0.2
  9
$TRACEWID
 40
0.05
  9
$TEXTSTYLE
  7
Standard
  9
$CLAYER
  8
0
  9
$CELTYPE
  6
ByLayer
  9
$CECOLOR
 62
   256
  9
$CELTSCALE
 40
1.0
  9
$DISPSILH
 70
     0
  9
$DIMSCALE
 40
1.0
  9
$DIMASZ
 40
0.18
  9
$DIMEXO
 40
0.0625
  9
$DIMDLI
 40
0.38
  9
$DIMRND
 40
0.0
  9
$DIMDLE
 40
0.0
  9
$DIMEXE
 40
0.18
  9
$DIMTP
 40
0.0
  9
$DIMTM
 40
0.0
  9
$DIMTXT
 40
0.18
  9
$DIMCEN
 40
0.09
  9
$DIMTSZ
 40
0.0
  9
$DIMTOL
 70
     0
  9
$DIMLIM
 70
     0
  9
$DIMTIH
 70
     1
  9
$DIMTOH
 70
     1
  9
$DIMSE1
 70
     0
  9
$DIMSE2
 70
     0
  9
$DIMTAD
 70
     0
  9
$DIMZIN
 70
     0
  9
$DIMBLK
  1

  9
$DIMASO
 70
     1
  9
$DIMSHO
 70
     1
  9
$DIMPOST
  1

  9
$DIMAPOST
  1

  9
$DIMALT
 70
     0
  9
$DIMALTD
 70
     2
  9
$DIMALTF
 40
25.4
  9
$DIMLFAC
 40
1.0
  9
$DIMTOFL
 70
     0
  9
$DIMTVP
 40
0.0
  9
$DIMTIX
 70
     0
  9
$DIMSOXD
 70
     0
  9
$DIMSAH
 70
     0
  9
$DIMBLK1
  1

  9
$DIMBLK2
  1

  9
$DIMSTYLE
  2
Standard
  9
$DIMCLRD
 70
     0
  9
$DIMCLRE
 70
     0
  9
$DIMCLRT
 70
     0
  9
$DIMTFAC
 40
1.0
  9
$DIMGAP
 40
0.09
  9
$DIMJUST
 70
     0
  9
$DIMSD1
 70
     0
  9
$DIMSD2
 70
     0
  9
$DIMTOLJ
 70
     1
  9
$DIMTZIN
 70
     0
  9
$DIMALTZ
 70
     0
  9
$DIMALTTZ
 70
     0
  9
$DIMUPT
 70
     0
  9
$DIMDEC
 70
     4
  9
$DIMTDEC
 70
     4
  9
$DIMALTU
 70
     2
  9
$DIMALTTD
 70
     2
  9
$DIMTXSTY
  7
Standard
  9
$DIMAUNIT
 70
     0
  9
$DIMADEC
 70
     0
  9
$DIMALTRND
 40
0.0
  9
$DIMAZIN
 70
     0
  9
$DIMDSEP
 70
    46
  9
$DIMATFIT
 70
     3
  9
$DIMFRAC
 70
     0
  9
$DIMLDRBLK
  1

  9
$DIMLUNIT
 70
     2
  9
$DIMLWD
 70
    -2
  9
$DIMLWE
 70
    -2
  9
$DIMTMOVE
 70
     0
  9
$LUNITS
 70
     2
  9
$LUPREC
 70
     4
  9
$SKETCHINC
 40
0.1
  9
$FILLETRAD
 40
0.5
  9
$AUNITS
 70
     0
  9
$AUPREC
 70
     0
  9
$MENU
  1
.
  9
$ELEVATION
 40
0.0
  9
$PELEVATION
 40
0.0
  9
$THICKNESS
 40
0.0
  9
$LIMCHECK
 70
     0
  9
$CHAMFERA
 40
0.5
  9
$CHAMFERB
 40
0.5
  9
$CHAMFERC
 40
1.0
  9
$CHAMFERD
 40
0.0
  9
$SKPOLY
 70
     0
  9
$TDCREATE
 40
2456637.620527662
  9
$TDUCREATE
 40
2456637.578860995
  9
$TDUPDATE
 40
2456637.620527674
  9
$TDUUPDATE
 40
2456637.578861007
  9
$TDINDWG
 40
0.0000000116
  9
$TDUSRTIMER
 40
0.0000000116
  9
$USRTIMER
 70
     1
  9
$ANGBASE
 50
0.0
  9
$ANGDIR
 70
     0
  9
$PDMODE
 70
     0
  9
$PDSIZE
 40
0.0
  9
$PLINEWID
 40
0.0
  9
$SPLFRAME
 70
     0
  9
$SPLINETYPE
 70
     6
  9
$SPLINESEGS
 70
     8
  9
$HANDSEED
  5
165
  9
$SURFTAB1
 70
     6
  9
$SURFTAB2
 70
     6
  9
$SURFTYPE
 70
     6
  9
$SURFU
 70
     6
  9
$SURFV
 70
     6
  9
$UCSBASE
  2

  9
$UCSNAME
  2

  9
$UCSORG
 10
0.0
 20
0.0
 30
0.0
  9
$UCSXDIR
 10
1.0
 20
0.0
 30
0.0
  9
$UCSYDIR
 10
0.0
 20
1.0
 30
0.0
  9
$UCSORTHOREF
  2

  9
$UCSORTHOVIEW
 70
     0
  9
$UCSORGTOP
 10
0.0
 20
0.0
 30
0.0
  9
$UCSORGBOTTOM
 10
0.0
 20
0.0
 30
0.0
  9
$UCSORGLEFT
 10
0.0
 20
0.0
 30
0.0
  9
$UCSORGRIGHT
 10
0.0
 20
0.0
 30
0.0
  9
$UCSORGFRONT
 10
0.0
 20
0.0
 30
0.0
  9
$UCSORGBACK
 10
0.0
 20
0.0
 30
0.0
  9
$PUCSBASE
  2

  9
$PUCSNAME
  2

  9
$PUCSORG
 10
0.0
 20
0.0
 30
0.0
  9
$PUCSXDIR
 10
1.0
 20
0.0
 30
0.0
  9
$PUCSYDIR
 10
0.0
 20
1.0
 30
0.0
  9
$PUCSORTHOREF
  2

  9
$PUCSORTHOVIEW
 70
     0
  9
$PUCSORGTOP
 10
0.0
 20
0.0
 30
0.0
  9
$PUCSORGBOTTOM
 10
0.0
 20
0.0
 30
0.0
  9
$PUCSORGLEFT
 10
0.0
 20
0.0
 30
0.0
  9
$PUCSORGRIGHT
 10
0.0
 20
0.0
 30
0.0
  9
$PUCSORGFRONT
 10
0.0
 20
0.0
 30
0.0
  9
$PUCSORGBACK
 10
0.0
 20
0.0
 30
0.0
  9
$USERI1
 70
     0
  9
$USERI2
 70
     0
  9
$USERI3
 70
     0
  9
$USERI4
 70
     0
  9
$USERI5
 70
     0
  9
$USERR1
 40
16.5
  9
$USERR2
 40
0.0
  9
$USERR3
 40
0.0
  9
$USERR4
 40
0.0
  9
$USERR5
 40
0.0
  9
$WORLDVIEW
 70
     1
  9
$SHADEDGE
 70
     3
  9
$SHADEDIF
 70
    70
  9
$TILEMODE
 70
     1
  9
$MAXACTVP
 70
    64
  9
$PINSBASE
 10
0.0
 20
0.0
 30
0.0
  9
$PLIMCHECK
 70
     0
  9
$PEXTMIN
 10
1.00000000000000E+20
 20
1.00000000000000E+20
 30
1.00000000000000E+20
  9
$PEXTMAX
 10
-1.00000000000000E+20
 20
-1.00000000000000E+20
 30
-1.00000000000000E+20
  9
$PLIMMIN
 10
0.0
 20
0.0
  9
$PLIMMAX
 10
12.0
 20
9.0
  9
$UNITMODE
 70
     0
  9
$VISRETAIN
 70
     1
  9
$PLINEGEN
 70
     0
  9
$PSLTSCALE
 70
     1
  9
$TREEDEPTH
 70
  3020
  9
$CMLSTYLE
  2
Standard
  9
$CMLJUST
 70
     0
  9
$CMLSCALE
 40
1.0
  9
$PROXYGRAPHICS
 70
     1
  9
$MEASUREMENT
 70
     1
  9
$CELWEIGHT
370
    -1
  9
$ENDCAPS
280
     0
  9
$JOINSTYLE
280
     0
  9
$LWDISPLAY
290
     0
  9
$INSUNITS
 70
     1
  9
$HYPERLINKBASE
  1

  9
$STYLESHEET
  1

  9
$XEDIT
290
     1
  9
$CEPSNTYPE
380
     0
  9
$PSTYLEMODE
290
     1
  9
$FINGERPRINTGUID
  2
{3328656D-9E73-40F6-A24F-828EA948BF82}
  9
$VERSIONGUID
  2
{FAEB1C32-E019-11D5-929B-00C0DF256EC4}
  9
$EXTNAMES
290
     1
  9
$PSVPSCALE
 40
0.0
  9
$OLESTARTUP
290
     0
  0
ENDSEC
  0
SECTION
  2
CLASSES
  0
CLASS
  1
ACDBDICTIONARYWDFLT
  2
AcDbDictionaryWithDefault
  3
ObjectDBX Classes
 90
        0
280
     0
281
     0
  0
CLASS
  1
VISUALSTYLE
  2
AcDbVisualStyle
  3
ObjectDBX Classes
 90
     4095
280
     0
281
     0
  0
CLASS
  1
SCALE
  2
AcDbScale
  3
ObjectDBX Classes
 90
     1153
280
     0
281
     0
  0
CLASS
  1

  2
exOdDbPolyline
  3

 90
        0
280
     0
281
     1
  0
CLASS
  1

  2
exOdDbSpline
  3

 90
        0
280
     0
281
     1
  0
CLASS
  1
DICTIONARYVAR
  2
AcDbDictionaryVar
  3
ObjectDBX Classes
 90
        0
280
     0
281
     0
  0
CLASS
  1
ACDBPLACEHOLDER
  2
AcDbPlaceHolder
  3
ObjectDBX Classes
 90
        0
280
     0
281
     0
  0
CLASS
  1
LAYOUT
  2
AcDbLayout
  3
ObjectDBX Classes
 90
        0
280
     0
281
     0
  0
ENDSEC
  0
SECTION
  2
TABLES
  0
TABLE
  2
VPORT
  5
8
330
0
100
AcDbSymbolTable
 70
     1
  0
VPORT
  5
29
330
8
100
AcDbSymbolTableRecord
100
AcDbViewportTableRecord
  2
*Active
 70
     0
 10
0.0
 20
0.0
 11
1.0
 21
1.0
 12
123.5373413855293
 22
325.0192934990325
 13
0.0
 23
0.0
 14
0.5
 24
0.5
 15
0.5
 25
0.5
 16
0.0
 26
0.0
 36
1.0
 17
0.0
 27
0.0
 37
0.0
 40
171.9855114075833
 41
1.60267857142857
 42
50.0
 43
0.0
 44
0.0
 50
0.0
 51
0.0
 71
     0
 72
   100
 73
     1
 74
     3
 75
     0
 76
     0
 77
     0
 78
     0
281
     0
 65
     1
110
0.0
120
0.0
130
0.0
111
1.0
121
0.0
131
0.0
112
0.0
122
1.0
132
0.0
 79
     0
146
0.0
  0
ENDTAB
  0
TABLE
  2
LTYPE
  5
5
330
0
100
AcDbSymbolTable
 70
     8
  0
LTYPE
  5
14
330
5
100
AcDbSymbolTableRecord
100
AcDbLinetypeTableRecord
  2
ByBlock
 70
     0
  3

 72
    65
 73
     0
 40
0.0
  0
LTYPE
  5
15
330
5
100
AcDbSymbolTableRecord
100
AcDbLinetypeTableRecord
  2
ByLayer
 70
     0
  3

 72
    65
 73
     0
 40
0.0
  0
LTYPE
  5
16
330
5
100
AcDbSymbolTableRecord
100
AcDbLinetypeTableRecord
  2
Continuous
 70
     0
  3
Solid line
 72
    65
 73
     0
 40
0.0
  0
LTYPE
  5
3B
330
5
100
AcDbSymbolTableRecord
100
AcDbLinetypeTableRecord
  2
DASHED
 70
     0
  3
Dashed
 72
    65
 73
     2
 40
15.0
 49
7.0
 74
     0
 49
-8.0
 74
     0
  0
LTYPE
  5
3C
330
5
100
AcDbSymbolTableRecord
100
AcDbLinetypeTableRecord
  2
DOTTED
 70
     0
  3
Dotted
 72
    65
 73
     2
 40
1.0
 49
0.0
 74
     0
 49
-1.0
 74
     0
  0
LTYPE
  5
3D
330
5
100
AcDbSymbolTableRecord
100
AcDbLinetypeTableRecord
  2
DOT_CENTER
 70
     0
  3
Dot_Center
 72
    65
 73
     4
 40
14.0
 49
12.0
 74
     0
 49
-1.0
 74
     0
 49
0.0
 74
     0
 49
-1.0
 74
     0
  0
LTYPE
  5
3E
330
5
100
AcDbSymbolTableRecord
100
AcDbLinetypeTableRecord
  2
LONG_DASHED
 70
     0
  3
Long_Dashed
 72
    65
 73
     2
 40
15.0
 49
10.0
 74
     0
 49
-5.0
 74
     0
  0
LTYPE
  5
3F
330
5
100
AcDbSymbolTableRecord
100
AcDbLinetypeTableRecord
  2
DASH_CENTER
 70
     0
  3
Dash_Center
 72
    65
 73
     4
 40
14.0
 49
11.0
 74
     0
 49
-1.0
 74
     0
 49
1.0
 74
     0
 49
-1.0
 74
     0
  0
LTYPE
  5
40
330
5
100
AcDbSymbolTableRecord
100
AcDbLinetypeTableRecord
  2
PHANTOM
 70
     0
  3
Phantom
 72
    65
 73
     6
 40
13.0
 49
10.0
 74
     0
 49
-1.0
 74
     0
 49
0.0
 74
     0
 49
-1.0
 74
     0
 49
0.0
 74
     0
 49
-1.0
 74
     0
  0
LTYPE
  5
41
330
5
100
AcDbSymbolTableRecord
100
AcDbLinetypeTableRecord
  2
CENTER_DASH_DASH
 70
     0
  3
Center_Dash_Dash
 72
    65
 73
     6
 40
14.0
 49
9.0
 74
     0
 49
-1.0
 74
     0
 49
1.0
 74
     0
 49
-1.0
 74
     0
 49
1.0
 74
     0
 49
-1.0
 74
     0
  0
ENDTAB
  0
TABLE
  2
LAYER
  5
2
330
0
100
AcDbSymbolTable
 70
     6
  0
LAYER
  5
10
330
2
100
AcDbSymbolTableRecord
100
AcDbLayerTableRecord
  2
0
 70
     0
 62
     7
  6
Continuous
370
    -3
390
F
  0
LAYER
  5
42
330
2
100
AcDbSymbolTableRecord
100
AcDbLayerTableRecord
  2
1
 70
     0
 62
     7
  6
Continuous
370
    -3
390
F
  0
LAYER
  5
43
330
2
100
AcDbSymbolTableRecord
100
AcDbLayerTableRecord
  2
BG_STARTBEZUEGE
 70
     0
 62
     7
  6
Continuous
370
    -3
390
F
  0
LAYER
  5
44
330
2
100
AcDbSymbolTableRecord
100
AcDbLayerTableRecord
  2
DEFAULT_2
 70
     0
 62
     7
  6
Continuous
370
    -3
390
F
  0
LAYER
  5
45
330
2
100
AcDbSymbolTableRecord
100
AcDbLayerTableRecord
  2
FASEN
 70
     0
 62
     7
  6
Continuous
370
    -3
390
F
  0
LAYER
  5
46
330
2
100
AcDbSymbolTableRecord
100
AcDbLayerTableRecord
  2
RUNDUNGEN
 70
     0
 62
     7
  6
Continuous
370
    -3
390
F
  0
ENDTAB
  0
TABLE
  2
STYLE
  5
3
330
0
100
AcDbSymbolTable
 70
     2
  0
STYLE
  5
11
330
3
100
AcDbSymbolTableRecord
100
AcDbTextStyleTableRecord
  2
Standard
 70
     0
 40
0.0
 41
1.0
 50
0.0
 71
     0
 42
0.2
  3
txt
  4

  0
STYLE
  5
6D
330
3
100
AcDbSymbolTableRecord
100
AcDbTextStyleTableRecord
  2
CONVERTER_11
 70
     0
 40
0.0
 41
0.72
 50
0.0
 71
     0
 42
0.2
  3
txt.shx
  4

  0
ENDTAB
  0
TABLE
  2
VIEW
  5
6
330
0
100
AcDbSymbolTable
 70
     0
  0
ENDTAB
  0
TABLE
  2
UCS
  5
7
330
0
100
AcDbSymbolTable
 70
     0
  0
ENDTAB
  0
TABLE
  2
APPID
  5
9
330
0
100
AcDbSymbolTable
 70
     1
  0
APPID
  5
12
330
9
100
AcDbSymbolTableRecord
100
AcDbRegAppTableRecord
  2
ACAD
 70
     0
  0
ENDTAB
  0
TABLE
  2
DIMSTYLE
  5
A
330
0
100
AcDbSymbolTable
 70
     8
100
AcDbDimStyleTable
  0
DIMSTYLE
105
27
330
A
100
AcDbSymbolTableRecord
100
AcDbDimStyleTableRecord
  2
Standard
 70
     0
340
11
  0
DIMSTYLE
105
11D
102
{ACAD_REACTORS
330
11E
102
}
330
A
100
AcDbSymbolTableRecord
100
AcDbDimStyleTableRecord
  2
ME10_DIM_10
 70
     0
  3
<>
 41
3.5
 42
2.0
 44
2.0
 71
     1
 73
     0
 74
     0
 77
     1
 78
     8
140
3.5
146
0.7
147
2.0
172
     1
173
     1
176
     2
177
     2
178
     3
271
     2
272
     0
340
6D
  0
DIMSTYLE
105
128
102
{ACAD_REACTORS
330
129
102
}
330
A
100
AcDbSymbolTableRecord
100
AcDbDimStyleTableRecord
  2
ME10_DIM_11
 70
     0
  3
<>
 41
3.5
 42
2.0
 44
2.0
 71
     1
 73
     0
 74
     0
 77
     1
 78
     8
140
3.5
146
0.7
147
2.0
172
     1
173
     1
176
     2
177
     2
178
     3
271
     2
272
     0
340
6D
  0
DIMSTYLE
105
133
102
{ACAD_REACTORS
330
134
102
}
330
A
100
AcDbSymbolTableRecord
100
AcDbDimStyleTableRecord
  2
ME10_DIM_12
 70
     0
  3
<>
 41
3.5
 42
2.0
 44
2.0
 71
     1
 73
     0
 74
     0
 77
     1
 78
     8
140
3.5
146
0.7
147
2.0
172
     1
173
     1
176
     2
177
     2
178
     3
271
     2
272
     0
340
6D
  0
DIMSTYLE
105
13E
102
{ACAD_REACTORS
330
13F
102
}
330
A
100
AcDbSymbolTableRecord
100
AcDbDimStyleTableRecord
  2
ME10_DIM_13
 70
     0
  3
<>
 41
3.5
 42
2.0
 44
2.0
 71
     1
 73
     0
 74
     0
 77
     1
 78
     8
140
3.5
146
0.7
147
2.0
172
     1
173
     1
176
     2
177
     2
178
     3
271
     2
272
     0
340
6D
  0
DIMSTYLE
105
149
102
{ACAD_REACTORS
330
14A
102
}
330
A
100
AcDbSymbolTableRecord
100
AcDbDimStyleTableRecord
  2
ME10_DIM_14
 70
     0
  3
<>
 41
3.5
 42
2.0
 44
2.0
 71
     1
 73
     0
 74
     0
 77
     1
 78
     8
140
3.5
146
0.7
147
2.0
172
     1
173
     1
176
     2
177
     2
178
     3
271
     2
272
     0
340
6D
  0
DIMSTYLE
105
154
102
{ACAD_REACTORS
330
155
102
}
330
A
100
AcDbSymbolTableRecord
100
AcDbDimStyleTableRecord
  2
ME10_DIM_15
 70
     0
  3
\U+2300<>
 41
3.5
 42
2.0
 44
2.0
 71
     1
 73
     0
 74
     0
 77
     1
 78
     8
140
3.5
146
0.7
147
2.0
172
     1
173
     1
176
     2
177
     2
178
     3
271
     2
272
     0
340
6D
  0
DIMSTYLE
105
15F
102
{ACAD_REACTORS
330
160
102
}
330
A
100
AcDbSymbolTableRecord
100
AcDbDimStyleTableRecord
  2
ME10_DIM_16
 70
     0
  3
\U+2300<>
 41
3.5
 42
2.0
 44
2.0
 71
     1
 73
     0
 74
     0
 77
     1
 78
     8
140
3.5
146
0.7
147
2.0
172
     1
173
     1
176
     2
177
     2
178
     3
271
     2
272
     0
340
6D
  0
ENDTAB
  0
TABLE
  2
BLOCK_RECORD
  5
1
330
0
100
AcDbSymbolTable
 70
     9
  0
BLOCK_RECORD
  5
1F
330
1
100
AcDbSymbolTableRecord
100
AcDbBlockTableRecord
  2
*Model_Space
340
22
  0
BLOCK_RECORD
  5
1B
330
1
100
AcDbSymbolTableRecord
100
AcDbBlockTableRecord
  2
*Paper_Space
340
1E
  0
BLOCK_RECORD
  5
23
330
1
100
AcDbSymbolTableRecord
100
AcDbBlockTableRecord
  2
*Paper_Space0
340
26
  0
BLOCK_RECORD
  5
47
330
1
100
AcDbSymbolTableRecord
100
AcDbBlockTableRecord
  2
Urheberrecht_DE-EN
340
0
102
{BLKREFS
331
6C
102
}
  0
BLOCK_RECORD
  5
114
330
1
100
AcDbSymbolTableRecord
100
AcDbBlockTableRecord
  2
*D2
340
0
  0
BLOCK_RECORD
  5
11F
330
1
100
AcDbSymbolTableRecord
100
AcDbBlockTableRecord
  2
*D3
340
0
  0
BLOCK_RECORD
  5
12A
330
1
100
AcDbSymbolTableRecord
100
AcDbBlockTableRecord
  2
*D4
340
0
  0
BLOCK_RECORD
  5
135
330
1
100
AcDbSymbolTableRecord
100
AcDbBlockTableRecord
  2
*D5
340
0
  0
BLOCK_RECORD
  5
140
330
1
100
AcDbSymbolTableRecord
100
AcDbBlockTableRecord
  2
*D6
340
0
  0
BLOCK_RECORD
  5
14B
330
1
100
AcDbSymbolTableRecord
100
AcDbBlockTableRecord
  2
*D7
340
0
  0
BLOCK_RECORD
  5
156
330
1
100
AcDbSymbolTableRecord
100
AcDbBlockTableRecord
  2
*D8
340
0
  0
ENDTAB
  0
ENDSEC
  0
SECTION
  2
BLOCKS
  0
BLOCK
  5
20
330
1F
100
AcDbEntity
  8
0
100
AcDbBlockBegin
  2
*Model_Space
 70
     0
 10
0.0
 20
0.0
 30
0.0
  3
*Model_Space
  1

  0
ENDBLK
  5
21
330
1F
100
AcDbEntity
  8
0
100
AcDbBlockEnd
  0
BLOCK
  5
1C
330
1B
100
AcDbEntity
 67
     1
  8
0
100
AcDbBlockBegin
  2
*Paper_Space
 70
     0
 10
0.0
 20
0.0
 30
0.0
  3
*Paper_Space
  1

  0
ENDBLK
  5
1D
330
1B
100
AcDbEntity
 67
     1
  8
0
100
AcDbBlockEnd
  0
BLOCK
  5
24
330
23
100
AcDbEntity
  8
0
100
AcDbBlockBegin
  2
*Paper_Space0
 70
     0
 10
0.0
 20
0.0
 30
0.0
  3
*Paper_Space0
  1

  0
ENDBLK
  5
25
330
23
100
AcDbEntity
  8
0
100
AcDbBlockEnd
  0
BLOCK
  5
48
330
47
100
AcDbEntity
  8
0
100
AcDbBlockBegin
  2
Urheberrecht_DE-EN
 70
     0
 10
12.2475715086576
 20
329.043263665859
 30
0.0
  3
Urheberrecht_DE-EN
  1

  0
MTEXT
  5
6E
330
47
100
AcDbEntity
  8
1
 62
     1
100
AcDbMText
 10
12.2475715086576
 20
329.043263665859
 30
0.0
 40
2.0
 41
0.0
 71
     7
 72
     1
  1
We own the copyright of this document. It \Pdetermined and may neither be copied or \Pmade accessible to outsiders without our\Ppermission.
  7
CONVERTER_11
 11
0.0
 21
1.0
 31
0.0
 73
     1
 44
0.90036014405762
  0
MTEXT
  5
6F
330
47
100
AcDbEntity
  8
1
 62
     1
100
AcDbMText
 10
12.2475715086576
 20
272.7538767485528
 30
0.0
 40
2.0
 41
0.0
 71
     7
 72
     1
  1
F\U+00fcr diese Unterlage behalten wir das Ur-\Pheberrecht. Sie darf nur f\U+00fcr den von uns \Pbestimmten Zweck benutzt und ohne unsere \PZustimmung weder vervielf\U+00e4ltigt noch\PDritten zug\U+00e4nglich gemacht werden.
  7
CONVERTER_11
 11
0.0
 21
1.0
 31
0.0
 73
     1
 44
0.90036014405762
  0
ENDBLK
  5
49
330
47
100
AcDbEntity
  8
0
100
AcDbBlockEnd
  0
BLOCK
  5
11B
330
114
100
AcDbEntity
  8
0
100
AcDbBlockBegin
  2
*D2
 70
     1
 10
0.0
 20
0.0
 30
0.0
  3
*D2
  1

  0
LINE
  5
115
330
114
100
AcDbEntity
  8
1
  6
Continuous
 62
     2
100
AcDbLine
 10
214.716170738
 20
364.50562896828
 30
0.0
 11
164.216170738
 21
364.50562896828
 31
0.0
  0
LINE
  5
116
330
114
100
AcDbEntity
  8
1
  6
Continuous
 62
     2
100
AcDbLine
 10
214.716170738
 20
321.8180056257
 30
0.0
 11
214.716170738
 21
366.50562896828
 31
0.0
  0
LINE
  5
117
330
114
100
AcDbEntity
  8
1
  6
Continuous
 62
     2
100
AcDbLine
 10
164.216170738
 20
358.3055056257
 30
0.0
 11
164.216170738
 21
366.50562896828
 31
0.0
  0
SOLID
  5
118
330
114
100
AcDbEntity
  8
1
 62
     2
100
AcDbTrace
 10
211.216170738
 20
364.0448452267241
 30
0.0
 11
211.216170738
 21
364.9664127098359
 31
0.0
 12
214.716170738
 22
364.50562896828
 32
0.0
 13
214.716170738
 23
364.50562896828
 33
0.0
  0
SOLID
  5
119
330
114
100
AcDbEntity
  8
1
 62
     2
100
AcDbTrace
 10
167.716170738
 20
364.9664127098359
 30
0.0
 11
167.716170738
 21
364.0448452267241
 31
0.0
 12
164.216170738
 22
364.50562896828
 32
0.0
 13
164.216170738
 23
364.50562896828
 33
0.0
  0
MTEXT
  5
11A
330
114
100
AcDbEntity
  8
1
 62
     3
100
AcDbMText
 10
185.224081362675
 20
366.50562896828
 30
0.0
 40
3.5
 41
0.0
 71
     7
 72
     1
  1
\C3;\C3;\C3;50.5\C2;\H2.45;\S^ ;\C3;
  7
CONVERTER_11
 11
0.9999999999970619
 21
2.424068405545306E-6
 31
0.0
 73
     1
 44
0.60024009603842
  0
ENDBLK
  5
11C
330
114
100
AcDbEntity
  8
0
100
AcDbBlockEnd
  0
BLOCK
  5
126
330
11F
100
AcDbEntity
  8
0
100
AcDbBlockBegin
  2
*D3
 70
     1
 10
0.0
 20
0.0
 30
0.0
  3
*D3
  1

  0
LINE
  5
120
330
11F
100
AcDbEntity
  8
1
  6
Continuous
 62
     2
100
AcDbLine
 10
214.716170738
 20
372.851997242608
 30
0.0
 11
126.216170738
 21
372.851997242608
 31
0.0
  0
LINE
  5
121
330
11F
100
AcDbEntity
  8
1
  6
Continuous
 62
     2
100
AcDbLine
 10
214.716170738
 20
321.8180056257
 30
0.0
 11
214.716170738
 21
374.851997242608
 31
0.0
  0
LINE
  5
122
330
11F
100
AcDbEntity
  8
1
  6
Continuous
 62
     2
100
AcDbLine
 10
126.216170738
 20
362.3055056257
 30
0.0
 11
126.216170738
 21
374.851997242608
 31
0.0
  0
SOLID
  5
123
330
11F
100
AcDbEntity
  8
1
 62
     2
100
AcDbTrace
 10
211.216170738
 20
372.3912135010521
 30
0.0
 11
211.216170738
 21
373.3127809841639
 31
0.0
 12
214.716170738
 22
372.851997242608
 32
0.0
 13
214.716170738
 23
372.851997242608
 33
0.0
  0
SOLID
  5
124
330
11F
100
AcDbEntity
  8
1
 62
     2
100
AcDbTrace
 10
129.716170738
 20
373.3127809841639
 30
0.0
 11
129.716170738
 21
372.3912135010521
 31
0.0
 12
126.216170738
 22
372.851997242608
 32
0.0
 13
126.216170738
 23
372.851997242608
 33
0.0
  0
MTEXT
  5
125
330
11F
100
AcDbEntity
  8
1
 62
     3
100
AcDbMText
 10
167.319775225808
 20
374.851997242608
 30
0.0
 40
3.5
 41
0.0
 71
     7
 72
     1
  1
\C3;\C3;\C3;88.5\C2;\H2.45;\S^ ;\C3;
  7
CONVERTER_11
 11
0.9999999999970619
 21
2.424068405545306E-6
 31
0.0
 73
     1
 44
0.60024009603842
  0
ENDBLK
  5
127
330
11F
100
AcDbEntity
  8
0
100
AcDbBlockEnd
  0
BLOCK
  5
131
330
12A
100
AcDbEntity
  8
0
100
AcDbBlockBegin
  2
*D4
 70
     1
 10
0.0
 20
0.0
 30
0.0
  3
*D4
  1

  0
LINE
  5
12B
330
12A
100
AcDbEntity
  8
1
  6
Continuous
 62
     2
100
AcDbLine
 10
226.216170738
 20
382.006078575743
 30
0.0
 11
126.216170738
 21
382.006078575743
 31
0.0
  0
LINE
  5
12C
330
12A
100
AcDbEntity
  8
1
  6
Continuous
 62
     2
100
AcDbLine
 10
226.216170738
 20
323.3180056257
 30
0.0
 11
226.216170738
 21
384.006078575743
 31
0.0
  0
LINE
  5
12D
330
12A
100
AcDbEntity
  8
1
  6
Continuous
 62
     2
100
AcDbLine
 10
126.216170738
 20
362.3055056257
 30
0.0
 11
126.216170738
 21
384.006078575743
 31
0.0
  0
SOLID
  5
12E
330
12A
100
AcDbEntity
  8
1
 62
     2
100
AcDbTrace
 10
222.716170738
 20
381.5452948341871
 30
0.0
 11
222.716170738
 21
382.4668623172989
 31
0.0
 12
226.216170738
 22
382.006078575743
 32
0.0
 13
226.216170738
 23
382.006078575743
 33
0.0
  0
SOLID
  5
12F
330
12A
100
AcDbEntity
  8
1
 62
     2
100
AcDbTrace
 10
129.716170738
 20
382.4668623172989
 30
0.0
 11
129.716170738
 21
381.5452948341871
 31
0.0
 12
126.216170738
 22
382.006078575743
 32
0.0
 13
126.216170738
 23
382.006078575743
 33
0.0
  0
MTEXT
  5
130
330
12A
100
AcDbEntity
  8
1
 62
     3
100
AcDbMText
 10
175.868049284465
 20
384.006078575743
 30
0.0
 40
3.5
 41
0.0
 71
     7
 72
     1
  1
\C3;\C3;\C3;100\C2;\H2.45;\S^ ;\C3;
  7
CONVERTER_11
 11
0.9999999999970619
 21
2.424068405545306E-6
 31
0.0
 73
     1
 44
0.60024009603842
  0
ENDBLK
  5
132
330
12A
100
AcDbEntity
  8
0
100
AcDbBlockEnd
  0
BLOCK
  5
13C
330
135
100
AcDbEntity
  8
0
100
AcDbBlockBegin
  2
*D5
 70
     1
 10
0.0
 20
0.0
 30
0.0
  3
*D5
  1

  0
LINE
  5
136
330
135
100
AcDbEntity
  8
1
  6
Continuous
 62
     2
100
AcDbLine
 10
214.716170738
 20
390.333081372365
 30
0.0
 11
24.41617073799999
 21
390.333081372365
 31
0.0
  0
LINE
  5
137
330
135
100
AcDbEntity
  8
1
  6
Continuous
 62
     2
100
AcDbLine
 10
214.716170738
 20
321.8180056257
 30
0.0
 11
214.716170738
 21
392.333081372365
 31
0.0
  0
LINE
  5
138
330
135
100
AcDbEntity
  8
1
  6
Continuous
 62
     2
100
AcDbLine
 10
24.41617073799999
 20
328.5312010333
 30
0.0
 11
24.41617073799999
 21
392.333081372365
 31
0.0
  0
SOLID
  5
139
330
135
100
AcDbEntity
  8
1
 62
     2
100
AcDbTrace
 10
211.216170738
 20
389.8722976308091
 30
0.0
 11
211.216170738
 21
390.7938651139208
 31
0.0
 12
214.716170738
 22
390.333081372365
 32
0.0
 13
214.716170738
 23
390.333081372365
 33
0.0
  0
SOLID
  5
13A
330
135
100
AcDbEntity
  8
1
 62
     2
100
AcDbTrace
 10
27.91617073799999
 20
390.7938651139208
 30
0.0
 11
27.91617073799999
 21
389.8722976308091
 31
0.0
 12
24.41617073799999
 22
390.333081372365
 32
0.0
 13
24.41617073799999
 23
390.333081372365
 33
0.0
  0
MTEXT
  5
13B
330
135
100
AcDbEntity
  8
1
 62
     3
100
AcDbMText
 10
125.054117901373
 20
392.333081372365
 30
0.0
 40
3.5
 41
0.0
 71
     7
 72
     1
  1
\C3;\C3;\C3;190.3\C2;\H2.45;\S^ ;\C3;
  7
CONVERTER_11
 11
0.9999999999970619
 21
2.424068405545306E-6
 31
0.0
 73
     1
 44
0.60024009603842
  0
ENDBLK
  5
13D
330
135
100
AcDbEntity
  8
0
100
AcDbBlockEnd
  0
BLOCK
  5
147
330
140
100
AcDbEntity
  8
0
100
AcDbBlockBegin
  2
*D6
 70
     1
 10
0.0
 20
0.0
 30
0.0
  3
*D6
  1

  0
LINE
  5
141
330
140
100
AcDbEntity
  8
1
  6
Continuous
 62
     2
100
AcDbLine
 10
184.716170738
 20
267.567034140529
 30
0.0
 11
214.716170738
 21
267.567034140529
 31
0.0
  0
LINE
  5
142
330
140
100
AcDbEntity
  8
1
  6
Continuous
 62
     2
100
AcDbLine
 10
184.716170738
 20
298.5680056257
 30
0.0
 11
184.716170738
 21
265.567034140529
 31
0.0
  0
LINE
  5
143
330
140
100
AcDbEntity
  8
1
  6
Continuous
 62
     2
100
AcDbLine
 10
214.716170738
 20
292.8180056257
 30
0.0
 11
214.716170738
 21
265.567034140529
 31
0.0
  0
SOLID
  5
144
330
140
100
AcDbEntity
  8
1
 62
     2
100
AcDbTrace
 10
188.216170738
 20
268.0278178820849
 30
0.0
 11
188.216170738
 21
267.1062503989731
 31
0.0
 12
184.716170738
 22
267.567034140529
 32
0.0
 13
184.716170738
 23
267.567034140529
 33
0.0
  0
SOLID
  5
145
330
140
100
AcDbEntity
  8
1
 62
     2
100
AcDbTrace
 10
211.216170738
 20
267.1062503989731
 30
0.0
 11
211.216170738
 21
268.0278178820849
 31
0.0
 12
214.716170738
 22
267.567034140529
 32
0.0
 13
214.716170738
 23
267.567034140529
 33
0.0
  0
MTEXT
  5
146
330
140
100
AcDbEntity
  8
1
 62
     3
100
AcDbMText
 10
197.645532606528
 20
269.567034140529
 30
0.0
 40
3.5
 41
0.0
 71
     7
 72
     1
  1
\C3;\C3;\C3;30\C2;\H2.45;\S^ ;\C3;
  7
CONVERTER_11
 11
0.9999999999970619
 21
2.424068405545306E-6
 31
0.0
 73
     1
 44
0.60024009603842
  0
ENDBLK
  5
148
330
140
100
AcDbEntity
  8
0
100
AcDbBlockEnd
  0
BLOCK
  5
152
330
14B
100
AcDbEntity
  8
0
100
AcDbBlockBegin
  2
*D7
 70
     1
 10
0.0
 20
0.0
 30
0.0
  3
*D7
  1

  0
LINE
  5
14C
330
14B
100
AcDbEntity
  8
1
  6
Continuous
 62
     2
100
AcDbLine
 10
238.1362901622
 20
317.3180056257
 30
0.0
 11
238.1362901622
 21
297.3180056257
 31
0.0
  0
LINE
  5
14D
330
14B
100
AcDbEntity
  8
1
  6
Continuous
 62
     2
100
AcDbLine
 10
216.716170738
 20
317.3180056257
 30
0.0
 11
240.1362901622
 21
317.3180056257
 31
0.0
  0
LINE
  5
14E
330
14B
100
AcDbEntity
  8
1
  6
Continuous
 62
     2
100
AcDbLine
 10
216.716170738
 20
297.3180056257
 30
0.0
 11
240.1362901622
 21
297.3180056257
 31
0.0
  0
SOLID
  5
14F
330
14B
100
AcDbEntity
  8
1
 62
     2
100
AcDbTrace
 10
238.5970739037559
 20
313.8180056257
 30
0.0
 11
237.6755064206441
 21
313.8180056257
 31
0.0
 12
238.1362901622
 22
317.3180056257
 32
0.0
 13
238.1362901622
 23
317.3180056257
 33
0.0
  0
SOLID
  5
150
330
14B
100
AcDbEntity
  8
1
 62
     2
100
AcDbTrace
 10
237.6755064206441
 20
300.8180056257
 30
0.0
 11
238.5970739037559
 21
300.8180056257
 31
0.0
 12
238.1362901622
 22
297.3180056257
 32
0.0
 13
238.1362901622
 23
297.3180056257
 33
0.0
  0
MTEXT
  5
151
330
14B
100
AcDbEntity
  8
1
 62
     3
100
AcDbMText
 10
236.1362901622
 20
298.840955916241
 30
0.0
 40
3.5
 41
0.0
 71
     7
 72
     1
  1
\C3;%%c\C3;\C3;20\C2;\H2.45;\S^ ;\C3;
  7
CONVERTER_11
 11
0.0
 21
1.0
 31
0.0
 73
     1
 44
0.60024009603842
  0
ENDBLK
  5
153
330
14B
100
AcDbEntity
  8
0
100
AcDbBlockEnd
  0
BLOCK
  5
15D
330
156
100
AcDbEntity
  8
0
100
AcDbBlockBegin
  2
*D8
 70
     1
 10
0.0
 20
0.0
 30
0.0
  3
*D8
  1

  0
LINE
  5
157
330
156
100
AcDbEntity
  8
1
  6
Continuous
 62
     2
100
AcDbLine
 10
246.827111262401
 20
324.3180056257
 30
0.0
 11
246.827111262401
 21
290.3180056257
 31
0.0
  0
LINE
  5
158
330
156
100
AcDbEntity
  8
1
  6
Continuous
 62
     2
100
AcDbLine
 10
196.3019571757
 20
324.3180056257
 30
0.0
 11
248.827111262401
 21
324.3180056257
 31
0.0
  0
LINE
  5
159
330
156
100
AcDbEntity
  8
1
  6
Continuous
 62
     2
100
AcDbLine
 10
196.3019571757
 20
290.3180056257
 30
0.0
 11
248.827111262401
 21
290.3180056257
 31
0.0
  0
SOLID
  5
15A
330
156
100
AcDbEntity
  8
1
 62
     2
100
AcDbTrace
 10
247.2878950039569
 20
320.8180056257
 30
0.0
 11
246.3663275208451
 21
320.8180056257
 31
0.0
 12
246.827111262401
 22
324.3180056257
 32
0.0
 13
246.827111262401
 23
324.3180056257
 33
0.0
  0
SOLID
  5
15B
330
156
100
AcDbEntity
  8
1
 62
     2
100
AcDbTrace
 10
246.3663275208451
 20
293.8180056257
 30
0.0
 11
247.2878950039569
 21
293.8180056257
 31
0.0
 12
246.827111262401
 22
290.3180056257
 32
0.0
 13
246.827111262401
 23
290.3180056257
 33
0.0
  0
MTEXT
  5
15C
330
156
100
AcDbEntity
  8
1
 62
     3
100
AcDbMText
 10
244.827111262401
 20
298.765383558848
 30
0.0
 40
3.5
 41
0.0
 71
     7
 72
     1
  1
\C3;%%c\C3;\C3;34\C2;\H2.45;\S^ ;\C3;
  7
CONVERTER_11
 11
0.0
 21
1.0
 31
0.0
 73
     1
 44
0.60024009603842
  0
ENDBLK
  5
15E
330
156
100
AcDbEntity
  8
0
100
AcDbBlockEnd
  0
ENDSEC
  0
SECTION
  2
ENTITIES
  0
INSERT
  5
6C
330
1F
100
AcDbEntity
  8
0
100
AcDbBlockReference
  2
Urheberrecht_DE-EN
 10
12.2475715086576
 20
329.043263665859
 30
0.0
  0
LINE
  5
70
330
1F
100
AcDbEntity
  8
0
  6
Continuous
 62
     7
100
AcDbLine
 10
24.416170738
 20
326.5312010333
 30
0.0
 11
24.416170738
 21
288.104810218
 31
0.0
  0
LINE
  5
71
330
1F
100
AcDbEntity
  8
0
  6
Continuous
 62
     9
100
AcDbLine
 10
25.2718520689
 20
287.1152789544
 30
0.0
 11
25.2718520689
 21
327.520732297
 31
0.0
  0
LINE
  5
72
330
1F
100
AcDbEntity
  8
0
  6
Continuous
 62
     7
100
AcDbLine
 10
163.216170738
 20
257.3305056257
 30
0.0
 11
156.9468389742
 21
257.3305056257
 31
0.0
  0
LINE
  5
73
330
1F
100
AcDbEntity
  8
0
  6
Continuous
 62
     7
100
AcDbLine
 10
130.216170738
 20
257.3305056257
 30
0.0
 11
141.8855025019
 21
257.3305056257
 31
0.0
  0
LINE
  5
74
330
1F
100
AcDbEntity
  8
0
  6
Continuous
 62
     7
100
AcDbLine
 10
146.128670738
 20
264.9430056257
 30
0.0
 11
152.703670738
 21
264.9430056257
 31
0.0
  0
LINE
  5
75
330
1F
100
AcDbEntity
  8
0
  6
Continuous
 62
     7
100
AcDbLine
 10
126.566170738
 20
272.7430056257
 30
0.0
 11
125.5969801218
 21
272.4833117827
 31
0.0
  0
LINE
  5
76
330
1F
100
AcDbEntity
  8
0
  6
Continuous
 62
     7
100
AcDbLine
 10
128.216170738
 20
272.7430056257
 30
0.0
 11
126.566170738
 21
272.7430056257
 31
0.0
  0
LINE
  5
77
330
1F
100
AcDbEntity
  8
0
  6
Continuous
 62
     7
100
AcDbLine
 10
25.2718520689
 20
287.1152789544
 30
0.0
 11
125.5969801218
 21
272.4833117827
 31
0.0
  0
LINE
  5
78
330
1F
100
AcDbEntity
  8
RUNDUNGEN
  6
Continuous
 62
     7
100
AcDbLine
 10
223.762432094
 20
290.3180056257
 30
0.0
 11
208.466170738
 21
290.3180056257
 31
0.0
  0
LINE
  5
79
330
1F
100
AcDbEntity
  8
RUNDUNGEN
  6
Continuous
 62
     7
100
AcDbLine
 10
194.3019571757
 20
290.3180056257
 30
0.0
 11
179.216170738
 21
290.3180056257
 31
0.0
  0
LINE
  5
7A
330
1F
100
AcDbEntity
  8
0
  6
Continuous
 62
     7
100
AcDbLine
 10
179.216170738
 20
290.3180056257
 30
0.0
 11
194.3019571757
 21
290.3180056257
 31
0.0
  0
LINE
  5
7B
330
1F
100
AcDbEntity
  8
0
  6
Continuous
 62
     7
100
AcDbLine
 10
208.466170738
 20
290.3180056257
 30
0.0
 11
223.762432094
 21
290.3180056257
 31
0.0
  0
LINE
  5
7C
330
1F
100
AcDbEntity
  8
FASEN
  6
Continuous
 62
     7
100
AcDbLine
 10
223.762432094
 20
290.3276245689
 30
0.0
 11
213.2262648961
 21
290.3276245689
 31
0.0
  0
LINE
  5
7D
330
1F
100
AcDbEntity
  8
0
  6
Continuous
 62
     7
100
AcDbLine
 10
141.8855025019
 20
293.4547322869
 30
0.0
 11
130.216170738
 21
293.4547322869
 31
0.0
  0
LINE
  5
7E
330
1F
100
AcDbEntity
  8
FASEN
  6
Continuous
 62
     7
100
AcDbLine
 10
130.216170738
 20
294.4155056257
 30
0.0
 11
130.0878294361
 21
294.4155056257
 31
0.0
  0
LINE
  5
7F
330
1F
100
AcDbEntity
  8
0
  6
Continuous
 62
     7
100
AcDbLine
 10
130.216170738
 20
294.4155056257
 30
0.0
 11
147.563670738
 21
294.4155056257
 31
0.0
  0
LINE
  5
80
330
1F
100
AcDbEntity
  8
RUNDUNGEN
  6
Continuous
 62
     7
100
AcDbLine
 10
207.216170738
 20
294.8180056257
 30
0.0
 11
199.6303843004
 21
294.8180056257
 31
0.0
  0
LINE
  5
81
330
1F
100
AcDbEntity
  8
0
  6
Continuous
 62
     7
100
AcDbLine
 10
199.6303843004
 20
294.8180056257
 30
0.0
 11
207.216170738
 21
294.8180056257
 31
0.0
  0
LWPOLYLINE
  5
82
330
1F
100
AcDbEntity
  8
DEFAULT_2
  6
DASHED
 62
     8
100
AcDbPolyline
 90
        2
 70
     0
 43
0.35
 10
207.216170738
 20
294.8180056257
 10
214.716170738
 20
294.8180056257
  0
LINE
  5
83
330
1F
100
AcDbEntity
  8
FASEN
  6
Continuous
 62
     7
100
AcDbLine
 10
213.2261223294
 20
298.3276245689
 30
0.0
 11
223.762432094
 21
298.3276245689
 31
0.0
  0
LINE
  5
84
330
1F
100
AcDbEntity
  8
FASEN
  6
Continuous
 62
     7
100
AcDbLine
 10
223.762432094
 20
299.3180056257
 30
0.0
 11
213.2262423233
 21
299.3180056257
 31
0.0
  0
LWPOLYLINE
  5
85
330
1F
100
AcDbEntity
  8
DEFAULT_2
  6
DASHED
 62
     8
100
AcDbPolyline
 90
        2
 70
     0
 43
0.35
 10
191.5912191403
 20
300.5680056257
 10
184.716170738
 20
300.5680056257
  0
LINE
  5
86
330
1F
100
AcDbEntity
  8
0
  6
Continuous
 62
     7
100
AcDbLine
 10
125.5969801218
 20
272.4833117827
 30
0.0
 11
125.5969801218
 21
342.1526994686
 31
0.0
  0
LWPOLYLINE
  5
87
330
1F
100
AcDbEntity
  8
BG_STARTBEZUEGE
  6
DOT_CENTER
 62
     7
100
AcDbPolyline
 90
        2
 70
     0
 43
0.25
 10
126.216170738
 20
254.3305056257
 10
126.216170738
 20
360.3055056257
  0
LWPOLYLINE
  5
88
330
1F
100
AcDbEntity
  8
DEFAULT_2
  6
DASHED
 62
     8
100
AcDbPolyline
 90
        2
 70
     0
 43
0.35
 10
214.716170738
 20
317.3180056257
 10
191.5912191403
 20
314.0680056257
  0
LWPOLYLINE
  5
89
330
1F
100
AcDbEntity
  8
BG_STARTBEZUEGE
  6
DOT_CENTER
 62
     7
100
AcDbPolyline
 90
        2
 70
     0
 43
0.25
 10
229.216170738
 20
307.3180056257
 10
21.416170738
 20
307.3180056257
  0
LINE
  5
8A
330
1F
100
AcDbEntity
  8
0
  6
Continuous
 62
     7
100
AcDbLine
 10
126.566170738
 20
272.7430056257
 30
0.0
 11
126.566170738
 21
341.8930056257
 31
0.0
  0
LINE
  5
8B
330
1F
100
AcDbEntity
  8
0
  6
Continuous
 62
     9
100
AcDbLine
 10
128.216170738
 20
272.7430056257
 30
0.0
 11
128.216170738
 21
341.8930056257
 31
0.0
  0
LINE
  5
8C
330
1F
100
AcDbEntity
  8
0
  6
Continuous
 62
     7
100
AcDbLine
 10
129.216170738
 20
356.2969340069
 30
0.0
 11
129.216170738
 21
321.2205056257
 31
0.0
  0
LINE
  5
8D
330
1F
100
AcDbEntity
  8
0
  6
Continuous
 62
     7
100
AcDbLine
 10
129.216170738
 20
293.4155056257
 30
0.0
 11
129.216170738
 21
258.3736092832
 31
0.0
  0
LINE
  5
8E
330
1F
100
AcDbEntity
  8
FASEN
  6
Continuous
 62
     7
100
AcDbLine
 10
129.216170738
 20
258.3306330663
 30
0.0
 11
129.216170738
 21
302.1662462175
 31
0.0
  0
LINE
  5
8F
330
1F
100
AcDbEntity
  8
FASEN
  6
Continuous
 62
     7
100
AcDbLine
 10
129.216170738
 20
312.4697650339
 30
0.0
 11
129.216170738
 21
356.3053782439
 31
0.0
  0
LINE
  5
90
330
1F
100
AcDbEntity
  8
FASEN
  6
Continuous
 62
     9
100
AcDbLine
 10
130.216170738
 20
321.1812789644
 30
0.0
 11
130.216170738
 21
320.2205056257
 31
0.0
  0
LINE
  5
91
330
1F
100
AcDbEntity
  8
0
  6
Continuous
 62
     9
100
AcDbLine
 10
130.216170738
 20
257.3305056257
 30
0.0
 11
130.216170738
 21
293.4547322869
 31
0.0
  0
LINE
  5
92
330
1F
100
AcDbEntity
  8
FASEN
  6
Continuous
 62
     9
100
AcDbLine
 10
130.216170738
 20
293.4547322869
 30
0.0
 11
130.216170738
 21
294.4155056257
 31
0.0
  0
LINE
  5
93
330
1F
100
AcDbEntity
  8
0
  6
Continuous
 62
     9
100
AcDbLine
 10
130.216170738
 20
321.1812789644
 30
0.0
 11
130.216170738
 21
357.3055056257
 31
0.0
  0
LINE
  5
94
330
1F
100
AcDbEntity
  8
0
  6
Continuous
 62
     7
100
AcDbLine
 10
152.953670738
 20
350.3891353575
 30
0.0
 11
156.9468389742
 21
357.3055056257
 31
0.0
  0
LWPOLYLINE
  5
95
330
1F
100
AcDbEntity
  8
DEFAULT_2
  6
DASHED
 62
     8
100
AcDbPolyline
 90
        2
 70
     0
 43
0.35
 10
191.5912191403
 20
314.0680056257
 10
184.716170738
 20
314.0680056257
  0
LINE
  5
96
330
1F
100
AcDbEntity
  8
FASEN
  6
Continuous
 62
     7
100
AcDbLine
 10
213.2262432047
 20
315.3180056257
 30
0.0
 11
223.762432094
 21
315.3180056257
 31
0.0
  0
LWPOLYLINE
  5
97
330
1F
100
AcDbEntity
  8
DEFAULT_2
  6
DASHED
 62
     8
100
AcDbPolyline
 90
        2
 70
     0
 43
0.35
 10
214.716170738
 20
297.3180056257
 10
191.5912191403
 20
300.5680056257
  0
LINE
  5
98
330
1F
100
AcDbEntity
  8
0
  6
Continuous
 62
     7
100
AcDbLine
 10
152.953670738
 20
264.2468758939
 30
0.0
 11
156.9468389742
 21
257.3305056257
 31
0.0
  0
LINE
  5
99
330
1F
100
AcDbEntity
  8
FASEN
  6
Continuous
 62
     7
100
AcDbLine
 10
129.2228132709
 20
293.4222023785
 30
0.0
 11
130.216170738
 21
294.4155056257
 31
0.0
  0
LINE
  5
9A
330
1F
100
AcDbEntity
  8
FASEN
  6
Continuous
 62
     7
100
AcDbLine
 10
223.762432094
 20
316.3083866825
 30
0.0
 11
213.2261465693
 21
316.3083866825
 31
0.0
  0
LINE
  5
9B
330
1F
100
AcDbEntity
  8
RUNDUNGEN
  6
Continuous
 62
     7
100
AcDbLine
 10
207.216170738
 20
319.8180056257
 30
0.0
 11
199.6303843004
 21
319.8180056257
 31
0.0
  0
LINE
  5
9C
330
1F
100
AcDbEntity
  8
0
  6
Continuous
 62
     7
100
AcDbLine
 10
199.6303843004
 20
319.8180056257
 30
0.0
 11
207.216170738
 21
319.8180056257
 31
0.0
  0
LWPOLYLINE
  5
9D
330
1F
100
AcDbEntity
  8
DEFAULT_2
  6
DASHED
 62
     8
100
AcDbPolyline
 90
        2
 70
     0
 43
0.35
 10
207.216170738
 20
319.8180056257
 10
214.716170738
 20
319.8180056257
  0
LINE
  5
9E
330
1F
100
AcDbEntity
  8
FASEN
  6
Continuous
 62
     7
100
AcDbLine
 10
130.0878296681
 20
320.2205056257
 30
0.0
 11
130.216170738
 21
320.2205056257
 31
0.0
  0
LINE
  5
9F
330
1F
100
AcDbEntity
  8
0
  6
Continuous
 62
     7
100
AcDbLine
 10
130.216170738
 20
320.2205056257
 30
0.0
 11
147.563670738
 21
320.2205056257
 31
0.0
  0
LINE
  5
A0
330
1F
100
AcDbEntity
  8
0
  6
Continuous
 62
     7
100
AcDbLine
 10
130.216170738
 20
321.1812789644
 30
0.0
 11
141.8855025019
 21
321.1812789644
 31
0.0
  0
LINE
  5
A1
330
1F
100
AcDbEntity
  8
FASEN
  6
Continuous
 62
     7
100
AcDbLine
 10
129.2199572925
 20
321.2167190712
 30
0.0
 11
130.2161707319
 21
320.2205056319
 31
0.0
  0
LINE
  5
A2
330
1F
100
AcDbEntity
  8
0
  6
Continuous
 62
     7
100
AcDbLine
 10
141.8855025019
 20
357.3055056257
 30
0.0
 11
141.8855025019
 21
321.1812789644
 31
0.0
  0
LINE
  5
A3
330
1F
100
AcDbEntity
  8
0
  6
Continuous
 62
     7
100
AcDbLine
 10
141.8855025019
 20
293.4547322869
 30
0.0
 11
141.8855025019
 21
257.3305056257
 31
0.0
  0
LINE
  5
A4
330
1F
100
AcDbEntity
  8
0
  6
Continuous
 62
     7
100
AcDbLine
 10
145.878670738
 20
350.3889869476
 30
0.0
 11
145.878670738
 21
320.2205056257
 31
0.0
  0
LINE
  5
A5
330
1F
100
AcDbEntity
  8
0
  6
Continuous
 62
     7
100
AcDbLine
 10
145.878670738
 20
294.4155056257
 30
0.0
 11
145.878670738
 21
264.2470243037
 31
0.0
  0
LINE
  5
A6
330
1F
100
AcDbEntity
  8
0
  6
Continuous
 62
     9
100
AcDbLine
 10
146.128670738
 20
264.9430056257
 30
0.0
 11
146.128670738
 21
294.4155056257
 31
0.0
  0
LINE
  5
A7
330
1F
100
AcDbEntity
  8
0
  6
Continuous
 62
     9
100
AcDbLine
 10
146.128670738
 20
320.2205056257
 30
0.0
 11
146.128670738
 21
349.6930056257
 31
0.0
  0
LINE
  5
A8
330
1F
100
AcDbEntity
  8
FASEN
  6
Continuous
 62
     7
100
AcDbLine
 10
213.2261949757
 20
324.3083866825
 30
0.0
 11
223.762432094
 21
324.3083866825
 31
0.0
  0
LINE
  5
A9
330
1F
100
AcDbEntity
  8
0
  6
Continuous
 62
     7
100
AcDbLine
 10
179.216170738
 20
324.3180056257
 30
0.0
 11
194.3019571757
 21
324.3180056257
 31
0.0
  0
LINE
  5
AA
330
1F
100
AcDbEntity
  8
0
  6
Continuous
 62
     7
100
AcDbLine
 10
208.466170738
 20
324.3180056257
 30
0.0
 11
223.762432094
 21
324.3180056257
 31
0.0
  0
LINE
  5
AB
330
1F
100
AcDbEntity
  8
0
  6
Continuous
 62
     9
100
AcDbLine
 10
152.703670738
 20
264.9430056257
 30
0.0
 11
152.703670738
 21
295.4835260744
 31
0.0
  0
LINE
  5
AC
330
1F
100
AcDbEntity
  8
0
  6
Continuous
 62
     9
100
AcDbLine
 10
152.703670738
 20
319.152485177
 30
0.0
 11
152.703670738
 21
349.6930056257
 31
0.0
  0
LINE
  5
AD
330
1F
100
AcDbEntity
  8
0
  6
Continuous
 62
     7
100
AcDbLine
 10
152.953670738
 20
264.2468758939
 30
0.0
 11
152.953670738
 21
295.5952753017
 31
0.0
  0
LINE
  5
AE
330
1F
100
AcDbEntity
  8
0
  6
Continuous
 62
     7
100
AcDbLine
 10
152.953670738
 20
319.0407359497
 30
0.0
 11
152.953670738
 21
350.3891353575
 31
0.0
  0
LINE
  5
AF
330
1F
100
AcDbEntity
  8
0
  6
Continuous
 62
     7
100
AcDbLine
 10
156.9468389742
 20
357.3055056257
 30
0.0
 11
156.9468389742
 21
317.5616345876
 31
0.0
  0
LINE
  5
B0
330
1F
100
AcDbEntity
  8
0
  6
Continuous
 62
     7
100
AcDbLine
 10
156.9468389742
 20
297.0743755729
 30
0.0
 11
156.9468389742
 21
257.3305056257
 31
0.0
  0
LINE
  5
B1
330
1F
100
AcDbEntity
  8
0
  6
Continuous
 62
     9
100
AcDbLine
 10
163.216170738
 20
257.3305056257
 30
0.0
 11
163.216170738
 21
357.3055056257
 31
0.0
  0
LINE
  5
B2
330
1F
100
AcDbEntity
  8
0
  6
Continuous
 62
     7
100
AcDbLine
 10
125.5969801218
 20
342.1526994686
 30
0.0
 11
25.2718520689
 21
327.520732297
 31
0.0
  0
LINE
  5
B3
330
1F
100
AcDbEntity
  8
0
  6
Continuous
 62
     7
100
AcDbLine
 10
128.216170738
 20
341.8930056257
 30
0.0
 11
126.566170738
 21
341.8930056257
 31
0.0
  0
LINE
  5
B4
330
1F
100
AcDbEntity
  8
0
  6
Continuous
 62
     7
100
AcDbLine
 10
126.566170738
 20
341.8930056257
 30
0.0
 11
125.5969801218
 21
342.1526994686
 31
0.0
  0
LINE
  5
B5
330
1F
100
AcDbEntity
  8
0
  6
Continuous
 62
     7
100
AcDbLine
 10
164.216170738
 20
258.3305056257
 30
0.0
 11
164.216170738
 21
356.3055056257
 31
0.0
  0
LINE
  5
B6
330
1F
100
AcDbEntity
  8
0
  6
Continuous
 62
     7
100
AcDbLine
 10
141.8855025019
 20
257.3305056257
 30
0.0
 11
145.878670738
 21
264.2468758939
 31
0.0
  0
LINE
  5
B7
330
1F
100
AcDbEntity
  8
0
  6
Continuous
 62
     7
100
AcDbLine
 10
146.128670738
 20
349.6930056257
 30
0.0
 11
152.703670738
 21
349.6930056257
 31
0.0
  0
LINE
  5
B8
330
1F
100
AcDbEntity
  8
0
  6
Continuous
 62
     7
100
AcDbLine
 10
141.8855025019
 20
357.3055056257
 30
0.0
 11
145.878670738
 21
350.3891353575
 31
0.0
  0
LINE
  5
B9
330
1F
100
AcDbEntity
  8
0
  6
Continuous
 62
     7
100
AcDbLine
 10
163.216170738
 20
357.3055056257
 30
0.0
 11
156.9468389742
 21
357.3055056257
 31
0.0
  0
LINE
  5
BA
330
1F
100
AcDbEntity
  8
0
  6
Continuous
 62
     7
100
AcDbLine
 10
130.216170738
 20
357.3055056257
 30
0.0
 11
141.8855025019
 21
357.3055056257
 31
0.0
  0
LINE
  5
BB
330
1F
100
AcDbEntity
  8
RUNDUNGEN
  6
Continuous
 62
     9
100
AcDbLine
 10
179.216170738
 20
324.3180056257
 30
0.0
 11
179.216170738
 21
290.3180056257
 31
0.0
  0
LWPOLYLINE
  5
BC
330
1F
100
AcDbEntity
  8
DEFAULT_2
  6
DASHED
 62
     8
100
AcDbPolyline
 90
        2
 70
     0
 43
0.35
 10
184.716170738
 20
300.5680056257
 10
184.716170738
 20
314.0680056257
  0
LWPOLYLINE
  5
BD
330
1F
100
AcDbEntity
  8
DEFAULT_2
  6
DASHED
 62
     8
100
AcDbPolyline
 90
        2
 70
     0
 43
0.35
 10
191.5912191403
 20
300.5680056257
 10
191.5912191403
 20
314.0680056257
  0
LINE
  5
BE
330
1F
100
AcDbEntity
  8
RUNDUNGEN
  6
Continuous
 62
     7
100
AcDbLine
 10
198.9232775192
 20
294.5251124069
 30
0.0
 11
195.0090639569
 21
290.6108988445
 31
0.0
  0
LINE
  5
BF
330
1F
100
AcDbEntity
  8
0
  6
Continuous
 62
     7
100
AcDbLine
 10
195.0090639569
 20
290.6108988445
 30
0.0
 11
198.9232775192
 21
294.5251124069
 31
0.0
  0
LINE
  5
C0
330
1F
100
AcDbEntity
  8
0
  6
Continuous
 62
     7
100
AcDbLine
 10
195.0090639569
 20
324.0251124069
 30
0.0
 11
198.9232775192
 21
320.1108988445
 31
0.0
  0
LINE
  5
C1
330
1F
100
AcDbEntity
  8
RUNDUNGEN
  6
Continuous
 62
     9
100
AcDbLine
 10
194.3019571757
 20
290.3180056257
 30
0.0
 11
194.3019571757
 21
324.3180056257
 31
0.0
  0
LINE
  5
C2
330
1F
100
AcDbEntity
  8
RUNDUNGEN
  6
Continuous
 62
     9
100
AcDbLine
 10
195.0090639569
 20
290.6108988445
 30
0.0
 11
195.0090639569
 21
324.0251124069
 31
0.0
  0
LINE
  5
C3
330
1F
100
AcDbEntity
  8
RUNDUNGEN
  6
Continuous
 62
     9
100
AcDbLine
 10
198.9232775192
 20
320.1108988445
 30
0.0
 11
198.9232775192
 21
294.5251124069
 31
0.0
  0
LINE
  5
C4
330
1F
100
AcDbEntity
  8
RUNDUNGEN
  6
Continuous
 62
     9
100
AcDbLine
 10
199.6303843004
 20
319.8180056257
 30
0.0
 11
199.6303843004
 21
294.8180056257
 31
0.0
  0
LINE
  5
C5
330
1F
100
AcDbEntity
  8
RUNDUNGEN
  6
Continuous
 62
     7
100
AcDbLine
 10
207.216170738
 20
323.0680056257
 30
0.0
 11
207.216170738
 21
291.5680056257
 31
0.0
  0
LINE
  5
C6
330
1F
100
AcDbEntity
  8
RUNDUNGEN
  6
Continuous
 62
     9
100
AcDbLine
 10
208.466170738
 20
290.3180056257
 30
0.0
 11
208.466170738
 21
324.3180056257
 31
0.0
  0
LINE
  5
C7
330
1F
100
AcDbEntity
  8
FASEN
  6
Continuous
 62
     7
100
AcDbLine
 10
213.2262648961
 20
290.3276245689
 30
0.0
 11
213.2261223294
 21
298.3276245689
 31
0.0
  0
LINE
  5
C8
330
1F
100
AcDbEntity
  8
FASEN
  6
Continuous
 62
     7
100
AcDbLine
 10
213.2261465693
 20
316.3083866825
 30
0.0
 11
213.2261949757
 21
324.3083866825
 31
0.0
  0
LINE
  5
C9
330
1F
100
AcDbEntity
  8
FASEN
  6
Continuous
 62
     7
100
AcDbLine
 10
213.2262423233
 20
299.3180056257
 30
0.0
 11
213.2262432047
 21
315.3180056257
 31
0.0
  0
LWPOLYLINE
  5
CA
330
1F
100
AcDbEntity
  8
DEFAULT_2
  6
DASHED
 62
     8
100
AcDbPolyline
 90
        2
 70
     0
 43
0.35
 10
214.716170738
 20
294.8180056257
 10
214.716170738
 20
319.8180056257
  0
LINE
  5
CB
330
1F
100
AcDbEntity
  8
0
  6
Continuous
 62
     9
100
AcDbLine
 10
223.762432094
 20
290.3180056257
 30
0.0
 11
223.762432094
 21
290.3276245689
 31
0.0
  0
LINE
  5
CC
330
1F
100
AcDbEntity
  8
0
  6
Continuous
 62
     9
100
AcDbLine
 10
223.762432094
 20
298.3276245689
 30
0.0
 11
223.762432094
 21
299.3180056257
 31
0.0
  0
LINE
  5
CD
330
1F
100
AcDbEntity
  8
0
  6
Continuous
 62
     9
100
AcDbLine
 10
223.762432094
 20
315.3180056257
 30
0.0
 11
223.762432094
 21
316.3083866825
 31
0.0
  0
LINE
  5
CE
330
1F
100
AcDbEntity
  8
0
  6
Continuous
 62
     9
100
AcDbLine
 10
223.762432094
 20
324.3083866825
 30
0.0
 11
223.762432094
 21
324.3180056257
 31
0.0
  0
LINE
  5
CF
330
1F
100
AcDbEntity
  8
RUNDUNGEN
  6
Continuous
 62
     7
100
AcDbLine
 10
226.216170738
 20
293.3180056257
 30
0.0
 11
224.8449638487
 21
290.9430056257
 31
0.0
  0
LINE
  5
D0
330
1F
100
AcDbEntity
  8
0
  6
Continuous
 62
     7
100
AcDbLine
 10
224.8449638487
 20
290.9430056257
 30
0.0
 11
226.216170738
 21
293.3180056257
 31
0.0
  0
LINE
  5
D1
330
1F
100
AcDbEntity
  8
0
  6
Continuous
 62
     7
100
AcDbLine
 10
224.8449638487
 20
323.6930056257
 30
0.0
 11
226.216170738
 21
321.3180056257
 31
0.0
  0
LINE
  5
D2
330
1F
100
AcDbEntity
  8
RUNDUNGEN
  6
Continuous
 62
     7
100
AcDbLine
 10
226.216170738
 20
321.3180056257
 30
0.0
 11
224.8449638487
 21
323.6930056257
 31
0.0
  0
LINE
  5
D3
330
1F
100
AcDbEntity
  8
0
  6
Continuous
 62
     9
100
AcDbLine
 10
224.8449638487
 20
290.9430056257
 30
0.0
 11
224.8449638487
 21
291.0435484051
 31
0.0
  0
LINE
  5
D4
330
1F
100
AcDbEntity
  8
0
  6
Continuous
 62
     9
100
AcDbLine
 10
224.8449638487
 20
297.6117007328
 30
0.0
 11
224.8449638487
 21
300.749853298
 31
0.0
  0
LINE
  5
D5
330
1F
100
AcDbEntity
  8
0
  6
Continuous
 62
     9
100
AcDbLine
 10
224.8449638487
 20
313.8861579534
 30
0.0
 11
224.8449638487
 21
317.0243105186
 31
0.0
  0
LINE
  5
D6
330
1F
100
AcDbEntity
  8
0
  6
Continuous
 62
     9
100
AcDbLine
 10
224.8449638487
 20
323.5924628463
 30
0.0
 11
224.8449638487
 21
323.6930056257
 31
0.0
  0
LINE
  5
D7
330
1F
100
AcDbEntity
  8
0
  6
Continuous
 62
     7
100
AcDbLine
 10
226.216170738
 20
293.3180056257
 30
0.0
 11
226.216170738
 21
321.3180056257
 31
0.0
  0
ARC
  5
E6
330
1F
100
AcDbEntity
  8
0
  6
Continuous
 62
     7
100
AcDbCircle
 10
-55.4895079835
 20
207.2197001758
 30
0.0
 40
227.9125626288998
100
AcDbArc
 50
29.72302567190012
 51
30.00153778614885
  0
ARC
  5
E7
330
1F
100
AcDbEntity
  8
0
  6
Continuous
 62
     7
100
AcDbCircle
 10
25.416170738
 20
288.104810218
 30
0.0
 40
1.0
100
AcDbArc
 50
180.0
 51
261.7021731754276
  0
ARC
  5
E8
330
1F
100
AcDbEntity
  8
0
  6
Continuous
 62
     7
100
AcDbCircle
 10
-55.4895079835
 20
407.4163110755
 30
0.0
 40
227.9125626289653
100
AcDbArc
 50
329.9984622138511
 51
330.2769743280999
  0
ARC
  5
E9
330
1F
100
AcDbEntity
  8
0
  6
Continuous
 62
     7
100
AcDbCircle
 10
25.416170738
 20
326.5312010333
 30
0.0
 40
1.000000000045231
100
AcDbArc
 50
98.29782682374565
 51
180.0
  0
ARC
  5
EA
330
1F
100
AcDbEntity
  8
0
  6
Continuous
 62
     7
100
AcDbCircle
 10
284.7412393228
 20
228.502805433
 30
0.0
 40
155.7654769544474
100
AcDbArc
 50
145.1276879466596
 51
145.4951656709
  0
ARC
  5
EB
330
1F
100
AcDbEntity
  8
RUNDUNGEN
  6
Continuous
 62
     7
100
AcDbCircle
 10
179.216170738
 20
275.3180056257
 30
0.0
 40
15.0
100
AcDbArc
 50
90.0
 51
180.0
  0
ARC
  5
EC
330
1F
100
AcDbEntity
  8
FASEN
  6
Continuous
 62
     7
100
AcDbCircle
 10
130.2158618849
 20
280.6696717968
 30
0.0
 40
12.78506049383056
100
AcDbArc
 50
89.9986158861642
 51
93.72583986079869
  0
ARC
  5
ED
330
1F
100
AcDbEntity
  8
RUNDUNGEN
  6
Continuous
 62
     7
100
AcDbCircle
 10
223.762432094
 20
291.5680056257
 30
0.0
 40
1.25
100
AcDbArc
 50
270.0
 51
329.9999999992999
  0
ARC
  5
EE
330
1F
100
AcDbEntity
  8
RUNDUNGEN
  6
Continuous
 62
     7
100
AcDbCircle
 10
208.466170738
 20
291.5680056257
 30
0.0
 40
1.25
100
AcDbArc
 50
180.0
 51
270.0
  0
ARC
  5
EF
330
1F
100
AcDbEntity
  8
RUNDUNGEN
  6
Continuous
 62
     7
100
AcDbCircle
 10
194.3019571757
 20
291.3180056257
 30
0.0
 40
1.0
100
AcDbArc
 50
270.0
 51
315.0000000000011
  0
ARC
  5
F0
330
1F
100
AcDbEntity
  8
RUNDUNGEN
  6
Continuous
 62
     7
100
AcDbCircle
 10
199.6303843004
 20
293.8180056257
 30
0.0
 40
1.0
100
AcDbArc
 50
90.0
 51
134.9999999999989
  0
ARC
  5
F1
330
1F
100
AcDbEntity
  8
0
  6
Continuous
 62
     7
100
AcDbCircle
 10
128.216170738
 20
271.7430056257
 30
0.0
 40
1.0
100
AcDbArc
 50
0.0
 51
90.0
  0
ARC
  5
F2
330
1F
100
AcDbEntity
  8
0
  6
Continuous
 62
     7
100
AcDbCircle
 10
130.216170738
 20
258.3305056257
 30
0.0
 40
1.0
100
AcDbArc
 50
180.0
 51
270.0
  0
ARC
  5
F3
330
1F
100
AcDbEntity
  8
0
  6
Continuous
 62
     7
100
AcDbCircle
 10
163.216170738
 20
258.3305056257
 30
0.0
 40
1.0
100
AcDbArc
 50
270.0
 51
0.0
  0
ARC
  5
F4
330
1F
100
AcDbEntity
  8
0
  6
Continuous
 62
     7
100
AcDbCircle
 10
152.703670738
 20
264.6930056257
 30
0.0
 40
0.25
100
AcDbArc
 50
0.0
 51
90.0
  0
ARC
  5
F5
330
1F
100
AcDbEntity
  8
0
  6
Continuous
 62
     7
100
AcDbCircle
 10
146.128670738
 20
264.6930056257
 30
0.0
 40
0.25
100
AcDbArc
 50
90.0
 51
180.0
  0
ARC
  5
F6
330
1F
100
AcDbEntity
  8
0
  6
Continuous
 62
     7
100
AcDbCircle
 10
284.7444085634
 20
386.1354744385
 30
0.0
 40
155.7693747950999
100
AcDbArc
 50
214.5048616867
 51
214.8723304899597
  0
ARC
  5
F7
330
1F
100
AcDbEntity
  8
RUNDUNGEN
  6
Continuous
 62
     7
100
AcDbCircle
 10
179.216170738
 20
339.3180056257
 30
0.0
 40
15.0
100
AcDbArc
 50
180.0
 51
270.0
  0
ARC
  5
F8
330
1F
100
AcDbEntity
  8
0
  6
Continuous
 62
     7
100
AcDbCircle
 10
147.563670738
 20
307.3180056257
 30
0.0
 40
12.90249999999997
100
AcDbArc
 50
270.0
 51
90.0
  0
ARC
  5
F9
330
1F
100
AcDbEntity
  8
RUNDUNGEN
  6
Continuous
 62
     7
100
AcDbCircle
 10
223.762432094
 20
323.0680056257
 30
0.0
 40
1.249999999973544
100
AcDbArc
 50
30.00000000070012
 51
90.0
  0
ARC
  5
FA
330
1F
100
AcDbEntity
  8
RUNDUNGEN
  6
Continuous
 62
     7
100
AcDbCircle
 10
208.466170738
 20
323.0680056257
 30
0.0
 40
1.25
100
AcDbArc
 50
90.0
 51
180.0
  0
ARC
  5
FB
330
1F
100
AcDbEntity
  8
RUNDUNGEN
  6
Continuous
 62
     7
100
AcDbCircle
 10
194.3019571757
 20
323.3180056257
 30
0.0
 40
1.00000000001904
100
AcDbArc
 50
45.00000000000115
 51
90.0
  0
ARC
  5
FC
330
1F
100
AcDbEntity
  8
RUNDUNGEN
  6
Continuous
 62
     7
100
AcDbCircle
 10
199.6303843004
 20
320.8180056257
 30
0.0
 40
1.000000000019
100
AcDbArc
 50
224.9999999999988
 51
270.0
  0
ARC
  5
FD
330
1F
100
AcDbEntity
  8
0
  6
Continuous
 62
     7
100
AcDbCircle
 10
163.216170738
 20
356.3055056257
 30
0.0
 40
1.0
100
AcDbArc
 50
0.0
 51
90.0
  0
ARC
  5
FE
330
1F
100
AcDbEntity
  8
0
  6
Continuous
 62
     7
100
AcDbCircle
 10
128.216170738
 20
342.8930056257
 30
0.0
 40
1.0
100
AcDbArc
 50
270.0
 51
0.0
  0
ARC
  5
FF
330
1F
100
AcDbEntity
  8
0
  6
Continuous
 62
     7
100
AcDbCircle
 10
130.216170738
 20
356.3055056257
 30
0.0
 40
1.0
100
AcDbArc
 50
90.0
 51
180.0
  0
ARC
  5
100
330
1F
100
AcDbEntity
  8
0
  6
Continuous
 62
     7
100
AcDbCircle
 10
152.703670738
 20
349.9430056257
 30
0.0
 40
0.25
100
AcDbArc
 50
270.0
 51
0.0
  0
ARC
  5
101
330
1F
100
AcDbEntity
  8
0
  6
Continuous
 62
     7
100
AcDbCircle
 10
146.128670738
 20
349.9430056257
 30
0.0
 40
0.25
100
AcDbArc
 50
180.0
 51
270.0
  0
SPLINE
  5
102
330
1F
100
AcDbEntity
  8
0
  6
Continuous
 62
     7
100
AcDbSpline
210
0.0
220
0.0
230
1.0
 70
     8
 71
     3
 72
    19
 73
    15
 74
    13
 42
0.0000000001
 43
0.0000000001
 44
0.00000001
 40
0.0
 40
0.0
 40
0.0
 40
0.0
 40
0.8674104657133422
 40
1.734712629252697
 40
2.154732381995629
 40
2.574629081137968
 40
2.989801489395233
 40
3.405010620594469
 40
3.820219765808297
 40
4.235392186106173
 40
4.655288785709766
 40
5.075308443183178
 40
5.94261046914613
 40
6.810020787559041
 40
6.810020787559041
 40
6.810020787559041
 40
6.810020787559041
 10
224.8449638487
 20
323.5924628463
 30
0.0
 10
224.9607072322167
 20
323.3273223935144
 30
0.0
 10
225.192179547891
 20
322.7970745925556
 30
0.0
 10
225.4022769753841
 20
322.1082119822754
 30
0.0
 10
225.5247561978122
 20
321.5522918729432
 30
0.0
 10
225.5902410212838
 20
321.13879185029
 30
0.0
 10
225.6298241233241
 20
320.7236528780155
 30
0.0
 10
225.6431567697609
 20
320.3083864430764
 30
0.0
 10
225.6298241902688
 20
319.8931200015116
 30
0.0
 10
225.5902411063104
 20
319.4779810502273
 30
0.0
 10
225.5247562073341
 20
319.0644810996814
 30
0.0
 10
225.4022768690419
 20
318.5085611304219
 30
0.0
 10
225.1921794646446
 20
317.8196986518954
 30
0.0
 10
224.960707204035
 20
317.2894509302454
 30
0.0
 10
224.8449638487
 20
317.0243105186
 30
0.0
 11
224.8449638487
 21
323.5924628463
 31
0.0
 11
225.1766098129579
 21
322.7909568448125
 31
0.0
 11
225.4308352739362
 21
321.9617509247478
 31
0.0
 11
225.5206552615425
 21
321.5514474242501
 31
0.0
 11
225.5861558421369
 21
321.1366909753642
 31
0.0
 11
225.6254730679249
 21
320.7233844494849
 31
0.0
 11
225.6387124344103
 21
320.3083864473134
 31
0.0
 11
225.6254731261297
 21
319.8933884292634
 31
0.0
 11
225.5861559062951
 21
319.4800818907227
 31
0.0
 11
225.5206552693349
 21
319.0653255515108
 31
0.0
 11
225.4308352124514
 21
318.6550221637042
 31
0.0
 11
225.1766097382222
 21
317.8258163915992
 31
0.0
 11
224.8449638487
 21
317.0243105186
 31
0.0
  0
SPLINE
  5
103
330
1F
100
AcDbEntity
  8
0
  6
Continuous
 62
     7
100
AcDbSpline
210
0.0
220
0.0
230
1.0
 70
     8
 71
     3
 72
    19
 73
    15
 74
    13
 42
0.0000000001
 43
0.0000000001
 44
0.00000001
 40
0.0
 40
0.0
 40
0.0
 40
0.0
 40
0.867410465747063
 40
1.73471262933696
 40
2.154732382086889
 40
2.574629081215921
 40
2.989801489442175
 40
3.405010620622662
 40
3.820219765853649
 40
4.235392186172123
 40
4.655288785765442
 40
5.075308443213199
 40
5.942610469147402
 40
6.81002078755632
 40
6.81002078755632
 40
6.81002078755632
 40
6.81002078755632
 10
224.8449638487
 20
297.6117007328
 30
0.0
 10
224.9607072322173
 20
297.3465602800023
 30
0.0
 10
225.1921795478953
 20
296.8163124790143
 30
0.0
 10
225.4022769753802
 20
296.1274498686998
 30
0.0
 10
225.5247561978103
 20
295.5715297593532
 30
0.0
 10
225.5902410212826
 20
295.1580297367126
 30
0.0
 10
225.6298241233249
 20
294.7428907644596
 30
0.0
 10
225.6431567697608
 20
294.3276243295311
 30
0.0
 10
225.6298241902683
 20
293.9123578879602
 30
0.0
 10
225.5902411063125
 20
293.4972189366664
 30
0.0
 10
225.5247562073357
 20
293.0837189861256
 30
0.0
 10
225.4022768690394
 20
292.527799016889
 30
0.0
 10
225.1921794646399
 20
291.838936538384
 30
0.0
 10
224.9607072040345
 20
291.3086888167441
 30
0.0
 10
224.8449638487
 20
291.0435484051
 30
0.0
 11
224.8449638487
 21
297.6117007328
 31
0.0
 11
225.1766098129579
 21
296.810194731276
 31
0.0
 11
225.4308352739362
 21
295.9809888111584
 31
0.0
 11
225.5206552615425
 21
295.5706853106536
 31
0.0
 11
225.5861558421369
 21
295.1559288617811
 31
0.0
 11
225.6254730679249
 21
294.7426223359329
 31
0.0
 11
225.6387124344103
 21
294.3276243337802
 31
0.0
 11
225.6254731261297
 21
293.9126263157131
 31
0.0
 11
225.5861559062951
 21
293.4993197771517
 31
0.0
 11
225.5206552693349
 21
293.0845634379502
 31
0.0
 11
225.4308352124514
 21
292.6742600501699
 31
0.0
 11
225.1766097382222
 21
291.8450542780949
 31
0.0
 11
224.8449638487
 21
291.0435484051
 31
0.0
  0
SPLINE
  5
104
330
1F
100
AcDbEntity
  8
0
  6
Continuous
 62
     7
100
AcDbSpline
210
0.0
220
0.0
230
1.0
 70
     8
 71
     3
 72
    19
 73
    15
 74
    13
 42
0.0000000001
 43
0.0000000001
 44
0.00000001
 40
0.0
 40
0.0
 40
0.0
 40
0.0
 40
1.657339992849123
 40
3.314743746916653
 40
4.143587698891894
 40
4.972346966107592
 40
5.801157119741013
 40
6.629996620554986
 40
7.458836150121914
 40
8.287646331481426
 40
9.11640538230351
 40
9.94524912004703
 40
11.60265259772811
 40
13.25999230943404
 40
13.25999230943404
 40
13.25999230943404
 40
13.25999230943404
 10
224.8449638487
 20
313.8861579534
 30
0.0
 10
224.9625330477003
 20
313.3462596733883
 30
0.0
 10
225.1976759688258
 20
312.2664423423871
 30
0.0
 10
225.4043242836807
 20
310.8997010660468
 30
0.0
 10
225.5252121273422
 20
309.8012501415824
 30
0.0
 10
225.5904571732508
 20
308.974866114477
 30
0.0
 10
225.6298999747426
 20
308.1468705340421
 30
0.0
 10
225.6431187251525
 20
307.3180051462604
 30
0.0
 10
225.6299000431601
 20
306.4891397479007
 30
0.0
 10
225.5904572591935
 20
305.6611442190185
 30
0.0
 10
225.5252121363231
 20
304.8347603319509
 30
0.0
 10
225.4043241774688
 20
303.7363096577915
 30
0.0
 10
225.1976758833923
 20
302.3695686416338
 30
0.0
 10
224.9625330191101
 20
301.2897514883688
 30
0.0
 10
224.8449638487
 20
300.749853298
 30
0.0
 11
224.8449638487
 21
313.8861579534
 31
0.0
 11
225.1802144739002
 21
312.263079745118
 31
0.0
 11
225.4308352738637
 21
310.6247341104539
 31
0.0
 11
225.5209770297754
 21
309.8008064676557
 31
0.0
 11
225.586155842146
 21
308.974614210724
 31
0.0
 11
225.6255288024198
 21
308.1467397994966
 31
0.0
 11
225.6387124344125
 21
307.3180051556225
 31
0.0
 11
225.6255288617486
 21
306.4892704820481
 31
0.0
 11
225.5861559063515
 21
305.6613960428313
 31
0.0
 11
225.5209770368942
 21
304.8352040074692
 31
0.0
 11
225.4308352123742
 21
304.0112765876871
 31
0.0
 11
225.1802143989809
 21
302.3729312346789
 31
0.0
 11
224.8449638487
 21
300.749853298
 31
0.0
  0
SPLINE
  5
105
330
1F
100
AcDbEntity
  8
0
  6
Continuous
 62
     7
100
AcDbSpline
210
0.0
220
0.0
230
1.0
 70
     8
 71
     3
 72
    15
 73
    11
 74
     9
 42
0.0000000001
 43
0.0000000001
 44
0.00000001
 40
0.0
 40
0.0
 40
0.0
 40
0.0
 40
0.2248406628464886
 40
0.4503699537572524
 40
0.6293048161963839
 40
0.8079118170858823
 40
0.9565149576209998
 40
1.105137812078274
 40
1.238482396041679
 40
1.371701548747353
 40
1.371701548747353
 40
1.371701548747353
 40
1.371701548747353
 10
223.762432094
 20
298.3276245689
 30
0.0
 10
223.8374791906074
 20
298.323395819857
 30
0.0
 10
223.9878032334243
 20
298.31492537022
 30
0.0
 10
224.1903079835075
 20
298.25282300637
 30
0.0
 10
224.3647931407797
 20
298.1660047701503
 30
0.0
 10
224.502811852562
 20
298.0676584129995
 30
0.0
 10
224.6181723580861
 20
297.9582169110104
 30
0.0
 10
224.7094673317207
 20
297.8470749069809
 30
0.0
 10
224.7857489470437
 20
297.7311951491897
 30
0.0
 10
224.8252317410088
 20
297.6515197078677
 30
0.0
 10
224.8449638487
 20
297.6117007328
 30
0.0
 11
223.762432094
 21
298.3276245689
 31
0.0
 11
223.9862277691673
 21
298.3059723300863
 31
0.0
 11
224.2024672285512
 21
298.2419101941239
 31
0.0
 11
224.3625123004366
 21
298.1618898219596
 31
0.0
 11
224.5080446351594
 21
298.0583485243201
 31
0.0
 11
224.6159084761485
 21
297.9561316706022
 31
0.0
 11
224.7104895426313
 21
297.8414879846443
 31
0.0
 11
224.7833966171598
 21
297.7298397130228
 31
0.0
 11
224.8449638487
 21
297.6117007328
 31
0.0
  0
SPLINE
  5
106
330
1F
100
AcDbEntity
  8
0
  6
Continuous
 62
     7
100
AcDbSpline
210
0.0
220
0.0
230
1.0
 70
     8
 71
     3
 72
    19
 73
    15
 74
    13
 42
0.0000000001
 43
0.0000000001
 44
0.00000001
 40
0.0
 40
0.0
 40
0.0
 40
0.0
 40
0.2394580419618818
 40
0.4790742862590959
 40
0.7188251529757607
 40
0.9582722545925887
 40
1.078205600910762
 40
1.198136908594406
 40
1.318147395678188
 40
1.438165295096645
 40
1.558324307939107
 40
1.678528937286362
 40
1.799146467729243
 40
1.919239120023459
 40
1.919239120023459
 40
1.919239120023459
 40
1.919239120023459
 10
224.8449638487
 20
300.749853298
 30
0.0
 10
224.8258389792009
 20
300.6723373088033
 30
0.0
 10
224.7875766050077
 20
300.5172541180538
 30
0.0
 10
224.7130366403776
 20
300.2892899804373
 30
0.0
 10
224.623111548369
 20
300.0669601433477
 30
0.0
 10
224.5305824205333
 20
299.8894771920855
 30
0.0
 10
224.444274984954
 20
299.7549020078773
 30
0.0
 10
224.3723531322248
 20
299.658745953937
 30
0.0
 10
224.2925711818775
 20
299.5688915817022
 30
0.0
 10
224.2039500399543
 20
299.4875586543235
 30
0.0
 10
224.1060682230122
 20
299.4172125439004
 30
0.0
 10
223.9985248160658
 20
299.3624235851362
 30
0.0
 10
223.8828527890439
 20
299.3255439168191
 30
0.0
 10
223.8025139316543
 20
299.3205147339618
 30
0.0
 10
223.762432094
 20
299.3180056257
 30
0.0
 11
224.8449638487
 21
300.749853298
 31
0.0
 11
224.7847370846992
 21
300.51809288128
 31
0.0
 11
224.7104868203799
 21
300.2902709271588
 31
0.0
 11
224.6195545539323
 21
300.0684335970944
 31
0.0
 11
224.5080364471757
 21
299.8565406374706
 31
0.0
 11
224.4430880534403
 21
299.755715473398
 31
0.0
 11
224.3710627896604
 21
299.6598203226335
 31
0.0
 11
224.2911087170146
 21
299.5703224831209
 31
0.0
 11
224.2024515732829
 21
299.4894262097447
 31
0.0
 11
224.1045000025971
 21
299.4198296712715
 31
0.0
 11
223.9972932212647
 21
299.3654618595364
 31
0.0
 11
223.881883077258
 21
299.3304035180114
 31
0.0
 11
223.762432094
 21
299.3180056257
 31
0.0
  0
SPLINE
  5
107
330
1F
100
AcDbEntity
  8
0
  6
Continuous
 62
     7
100
AcDbSpline
210
0.0
220
0.0
230
1.0
 70
     8
 71
     3
 72
    15
 73
    11
 74
     9
 42
0.0000000001
 43
0.0000000001
 44
0.00000001
 40
0.0
 40
0.0
 40
0.0
 40
0.0
 40
0.133221499157955
 40
0.2665685124226961
 40
0.4151950717917517
 40
0.5638016771243837
 40
0.7424105293804744
 40
0.9213476885033254
 40
1.146869002764735
 40
1.371701238822234
 40
1.371701238822234
 40
1.371701238822234
 40
1.371701238822234
 10
224.8449638487
 20
317.0243105186
 30
0.0
 10
224.8252313467925
 20
316.984490863322
 30
0.0
 10
224.785747752079
 20
316.9048140368359
 30
0.0
 10
224.7094643141758
 20
316.7889320996012
 30
0.0
 10
224.6181675593434
 20
316.6777874210824
 30
0.0
 10
224.5028043277052
 20
316.5683442647159
 30
0.0
 10
224.3647811371003
 20
316.4699995708048
 30
0.0
 10
224.190294996686
 20
316.3831864391351
 30
0.0
 10
223.987794925783
 20
316.3210860462684
 30
0.0
 10
223.8374763713181
 20
316.3126154835355
 30
0.0
 10
223.762432094
 20
316.3083866825
 30
0.0
 11
224.8449638487
 21
317.0243105186
 31
0.0
 11
224.7833953743848
 21
316.9061695400684
 31
0.0
 11
224.7104868203586
 21
316.794519333188
 31
0.0
 11
224.615903440304
 21
316.6798727529192
 31
0.0
 11
224.508036447159
 21
316.5776541883708
 31
0.0
 11
224.3625004959189
 21
316.4741147804099
 31
0.0
 11
224.202451573259
 21
316.3940969744517
 31
0.0
 11
223.9862193415235
 21
316.3300385234492
 31
0.0
 11
223.762432094
 21
316.3083866825
 31
0.0
  0
SPLINE
  5
108
330
1F
100
AcDbEntity
  8
0
  6
Continuous
 62
     7
100
AcDbSpline
210
0.0
220
0.0
230
1.0
 70
     8
 71
     3
 72
    19
 73
    15
 74
    13
 42
0.0000000001
 43
0.0000000001
 44
0.00000001
 40
0.0
 40
0.0
 40
0.0
 40
0.0
 40
0.1200969132181273
 40
0.2407196450262241
 40
0.3609280950498309
 40
0.4810898635616239
 40
0.6011102696411663
 40
0.7211238716651069
 40
0.8410535339639846
 40
0.960984993345705
 40
1.200426723613253
 40
1.440172207018867
 40
1.679784266057037
 40
1.919238178765634
 40
1.919238178765634
 40
1.919238178765634
 40
1.919238178765634
 10
223.762432094
 20
315.3180056257
 30
0.0
 10
223.8025153504104
 20
315.3154955988066
 30
0.0
 10
223.8828573591769
 20
315.3104645554052
 30
0.0
 10
223.9985318541815
 20
315.2735783690737
 30
0.0
 10
224.1060798120134
 20
315.2187905042878
 30
0.0
 10
224.2039663248094
 20
315.1484453380361
 30
0.0
 10
224.2925877932574
 20
315.0671083523897
 30
0.0
 10
224.3723668788875
 20
314.9772496737265
 30
0.0
 10
224.4442858289181
 20
314.8810916834994
 30
0.0
 10
224.5305892018225
 20
314.7465174577975
 30
0.0
 10
224.6231156145079
 20
314.5690379879682
 30
0.0
 10
224.7130396374804
 20
314.3467130831497
 30
0.0
 10
224.7875778477838
 20
314.1187531615739
 30
0.0
 10
224.8258393919502
 20
313.9636726247118
 30
0.0
 10
224.8449638487
 20
313.8861579534
 30
0.0
 11
223.762432094
 21
315.3180056257
 31
0.0
 11
223.8818870130376
 21
315.3056043805107
 31
0.0
 11
223.9973011071822
 21
315.2705411476076
 31
0.0
 11
224.1045120499969
 21
315.2161730945078
 31
0.0
 11
224.2024672285275
 21
315.1465768761412
 31
0.0
 11
224.2911248163124
 21
315.0656773705577
 31
0.0
 11
224.3710776850755
 21
314.9761742787267
 31
0.0
 11
224.4430991228486
 21
314.8802783121785
 31
0.0
 11
224.5080446351012
 21
314.7794535365146
 31
0.0
 11
224.6195589864958
 21
314.5675646702979
 31
0.0
 11
224.7104895426352
 21
314.3457324571873
 31
0.0
 11
224.784738385946
 21
314.1179144418691
 31
0.0
 11
224.8449638487
 21
313.8861579534
 31
0.0
  0
SPLINE
  5
109
330
1F
100
AcDbEntity
  8
0
  6
Continuous
 62
     7
100
AcDbSpline
210
0.0
220
0.0
230
1.0
 70
     8
 71
     3
 72
    15
 73
    11
 74
     9
 42
0.0000000001
 43
0.0000000001
 44
0.00000001
 40
0.0
 40
0.0
 40
0.0
 40
0.0
 40
0.2248406628467568
 40
0.4503699537631719
 40
0.6293048162162339
 40
0.8079118171131469
 40
0.9565149576349704
 40
1.105137812087728
 40
1.238482396079167
 40
1.371701548807071
 40
1.371701548807071
 40
1.371701548807071
 40
1.371701548807071
 10
223.762432094
 20
324.3083866825
 30
0.0
 10
223.8374791906076
 20
324.3041579334569
 30
0.0
 10
223.9878032334267
 20
324.29568748382
 30
0.0
 10
224.1903079835134
 20
324.2335851199517
 30
0.0
 10
224.3647931407771
 20
324.1467668836943
 30
0.0
 10
224.5028118525523
 20
324.0484205265325
 30
0.0
 10
224.6181723580892
 20
323.9389790245627
 30
0.0
 10
224.7094673317326
 20
323.8278370205343
 30
0.0
 10
224.7857489470408
 20
323.7119572627149
 30
0.0
 10
224.8252317410082
 20
323.6322818213755
 30
0.0
 10
224.8449638487
 20
323.5924628463
 30
0.0
 11
223.762432094
 21
324.3083866825
 31
0.0
 11
223.9862277691673
 21
324.2867344436835
 31
0.0
 11
224.2024672285512
 21
324.2226723077012
 31
0.0
 11
224.3625123004366
 21
324.1426519355057
 31
0.0
 11
224.5080446351594
 21
324.0391106378535
 31
0.0
 11
224.6159084761485
 21
323.9368937841549
 31
0.0
 11
224.7104895426313
 21
323.8222500982029
 31
0.0
 11
224.7833966171598
 21
323.7106018265479
 31
0.0
 11
224.8449638487
 21
323.5924628463
 31
0.0
  0
SPLINE
  5
10A
330
1F
100
AcDbEntity
  8
FASEN
  6
Continuous
 62
     7
100
AcDbSpline
210
0.0
220
0.0
230
1.0
 70
     8
 71
     3
 72
    23
 73
    19
 74
    17
 42
0.0000000001
 43
0.0000000001
 44
0.00000001
 40
0.0
 40
0.0
 40
0.0
 40
0.0
 40
1.039210187368753
 40
2.078564715181793
 40
3.11784028485553
 40
4.157069800602492
 40
5.196284531762402
 40
6.235486327236218
 40
7.274626791167854
 40
8.31374690714669
 40
9.352867019762096
 40
10.39200748702823
 40
11.43120929805821
 40
12.47042402289589
 40
13.50965350618103
 40
14.54892907898417
 40
15.58828362606341
 40
16.62749380380505
 40
16.62749380380505
 40
16.62749380380505
 40
16.62749380380505
 10
213.2262423233
 20
299.3180056257
 30
0.0
 10
213.3705672895723
 20
299.63295703098
 30
0.0
 10
213.659237268042
 20
300.2629035865172
 30
0.0
 10
214.0450934989722
 20
301.2283710783322
 30
0.0
 10
214.3894447184479
 20
302.2093094616946
 30
0.0
 10
214.683026763253
 20
303.2067623158322
 30
0.0
 10
214.9201638140485
 20
304.2191630118347
 30
0.0
 10
215.0950273724595
 20
305.24425135134
 30
0.0
 10
215.2018572179148
 20
306.2786833399177
 30
0.0
 10
215.2382818877587
 20
307.3180053906021
 30
0.0
 10
215.2018571173662
 20
308.3573274385703
 30
0.0
 10
215.0950272154294
 20
309.3917594243982
 30
0.0
 10
214.9201636960061
 20
310.4168477741615
 30
0.0
 10
214.6830265611746
 20
311.4292484489457
 30
0.0
 10
214.3894441019481
 20
312.4267011719338
 30
0.0
 10
214.0450928060369
 20
313.4076395063832
 30
0.0
 10
213.6592376158451
 20
314.3731074147271
 30
0.0
 10
213.3705679917773
 20
315.0030541399574
 30
0.0
 10
213.2262432047
 20
315.3180056257
 30
0.0
 11
213.2262423233
 21
299.3180056257
 31
0.0
 11
213.6513603306462
 21
300.2662843259569
 31
0.0
 11
214.038184654689
 21
301.2309732793581
 31
0.0
 11
214.3809903715989
 21
302.2120838491588
 31
0.0
 11
214.67362161913
 21
303.2092623383813
 31
0.0
 11
214.9097866566247
 21
304.2212867118649
 31
0.0
 11
215.083691890151
 21
305.2458340955754
 31
0.0
 11
215.1901239177127
 21
306.2795096381366
 31
0.0
 11
215.2261403936502
 21
307.3180053910855
 31
0.0
 11
215.1901238247456
 21
308.3565011374448
 31
0.0
 11
215.0836917495105
 21
309.3901766784494
 31
0.0
 11
214.9097865161747
 21
310.414724077971
 31
0.0
 11
214.6736213596754
 21
311.4267484171917
 31
0.0
 11
214.3809898155698
 21
312.4239267855509
 31
0.0
 11
214.038184150207
 21
313.4050373766773
 31
0.0
 11
213.6513605898701
 21
314.369726657069
 31
0.0
 11
213.2262432047
 21
315.3180056257
 31
0.0
  0
SPLINE
  5
10B
330
1F
100
AcDbEntity
  8
FASEN
  6
Continuous
 62
     7
100
AcDbSpline
210
0.0
220
0.0
230
1.0
 70
     8
 71
     3
 72
    27
 73
    23
 74
    21
 42
0.0000000001
 43
0.0000000001
 44
0.00000001
 40
0.0
 40
0.0
 40
0.0
 40
0.0
 40
0.6274899661346403
 40
1.255111011356228
 40
1.84336864232124
 40
2.431710185871195
 40
2.981763588035395
 40
3.531098869199524
 40
3.795111491159132
 40
4.059086507653848
 40
4.319482075441638
 40
4.579883087996229
 40
4.840284126479541
 40
5.100679792516356
 40
5.364655171428977
 40
5.628667845599051
 40
6.178002510535112
 40
6.728057459132669
 40
7.316399593164288
 40
7.904654039683937
 40
8.532307421769882
 40
9.15983287244925
 40
9.15983287244925
 40
9.15983287244925
 40
9.15983287244925
 10
213.2262648961
 20
290.3276245689
 30
0.0
 10
213.3677155185141
 20
290.4817649792612
 30
0.0
 10
213.6506463115732
 20
290.790077999039
 30
0.0
 10
214.0352962226723
 20
291.2698857893319
 30
0.0
 10
214.3822311371757
 20
291.761658615663
 30
0.0
 10
214.6755138977763
 20
292.2578008149592
 30
0.0
 10
214.9156824071625
 20
292.7674815312117
 30
0.0
 10
215.0640652317808
 20
293.1983198224994
 30
0.0
 10
215.1481832986303
 20
293.5476552943136
 30
0.0
 10
215.1930240185189
 20
293.8068004958798
 30
0.0
 10
215.2200730685268
 20
294.067189867422
 30
0.0
 10
215.2291952510838
 20
294.327639513626
 30
0.0
 10
215.2200715954731
 20
294.5880891397942
 30
0.0
 10
215.1930212406436
 20
294.8484785299989
 30
0.0
 10
215.1481796489646
 20
295.1076237485335
 30
0.0
 10
215.0640596446994
 20
295.4569587437306
 30
0.0
 10
214.9156695731552
 20
295.8877950024082
 30
0.0
 10
214.6754998086881
 20
296.397474871788
 30
0.0
 10
214.3822389548791
 20
296.8936291352115
 30
0.0
 10
214.0352997984958
 20
297.3854133700956
 30
0.0
 10
213.6505653605839
 20
297.865181682758
 30
0.0
 10
213.367593726036
 20
298.1734874146525
 30
0.0
 10
213.2261223294
 20
298.3276245689
 30
0.0
 11
213.2262648961
 21
290.3276245689
 31
0.0
 11
213.6453601756173
 21
290.7946393484156
 31
0.0
 11
214.0382047102634
 21
291.2841098255679
 31
0.0
 11
214.3756168351549
 21
291.7659812797595
 31
0.0
 11
214.6736392996321
 21
292.2732567301153
 31
0.0
 11
214.9065734869987
 21
292.7715542412352
 31
0.0
 11
215.0837079933988
 21
293.2915471428926
 31
0.0
 11
215.1453869953627
 21
293.5482539119321
 31
0.0
 11
215.1902496563339
 21
293.8083887826895
 31
0.0
 11
215.2171056730657
 21
294.0673957441574
 31
0.0
 11
215.2261542570018
 21
294.3276394961827
 31
0.0
 11
215.217104232584
 21
294.5878832240634
 31
0.0
 11
215.1902469678291
 21
294.8468901548985
 31
0.0
 11
215.1453832243912
 21
295.1070252067404
 31
0.0
 11
215.0837025751104
 21
295.3637316336696
 31
0.0
 11
214.9065621890527
 21
295.8837218813933
 31
0.0
 11
214.6736285788601
 21
296.3820213693714
 31
0.0
 11
214.3756205236269
 21
296.889305969663
 31
0.0
 11
214.0382040460873
 21
297.3711704885217
 31
0.0
 11
213.6452853242072
 21
297.8606228825705
 31
0.0
 11
213.2261223294
 21
298.3276245689
 31
0.0
  0
SPLINE
  5
10C
330
1F
100
AcDbEntity
  8
0
  6
Continuous
 62
     7
100
AcDbSpline
210
0.0
220
0.0
230
1.0
 70
     8
 71
     3
 72
    15
 73
    11
 74
     9
 42
0.0000000001
 43
0.0000000001
 44
0.00000001
 40
0.0
 40
0.0
 40
0.0
 40
0.0
 40
0.1332214992340723
 40
0.2665685124992418
 40
0.4151950718438305
 40
0.563801677153472
 40
0.7424105294002372
 40
0.9213476885295957
 40
1.146869002805036
 40
1.371701238865519
 40
1.371701238865519
 40
1.371701238865519
 40
1.371701238865519
 10
224.8449638487
 20
291.0435484051
 30
0.0
 10
224.8252313467959
 20
291.0037287497917
 30
0.0
 10
224.7857477521006
 20
290.9240519232675
 30
0.0
 10
224.7094643141817
 20
290.8081699860201
 30
0.0
 10
224.6181675593431
 20
290.6970253075267
 30
0.0
 10
224.5028043276982
 20
290.587582151195
 30
0.0
 10
224.3647811370934
 20
290.4892374573006
 30
0.0
 10
224.1902949966834
 20
290.4024243256192
 30
0.0
 10
223.9877949257895
 20
290.3403239326938
 30
0.0
 10
223.837476371319
 20
290.3318533699438
 30
0.0
 10
223.762432094
 20
290.3276245689
 30
0.0
 11
224.8449638487
 21
291.0435484051
 31
0.0
 11
224.7833953743848
 21
290.9254074264826
 31
0.0
 11
224.7104868203586
 21
290.8137572196017
 31
0.0
 11
224.615903440304
 21
290.6991106393646
 31
0.0
 11
224.508036447159
 21
290.5968920748496
 31
0.0
 11
224.3625004959189
 21
290.4933526669049
 31
0.0
 11
224.202451573259
 21
290.4133348609321
 31
0.0
 11
223.9862193415235
 21
290.3492764098801
 31
0.0
 11
223.762432094
 21
290.3276245689
 31
0.0
  0
SPLINE
  5
10D
330
1F
100
AcDbEntity
  8
FASEN
  6
Continuous
 62
     7
100
AcDbSpline
210
0.0
220
0.0
230
1.0
 70
     8
 71
     3
 72
    27
 73
    23
 74
    21
 42
0.0000000001
 43
0.0000000001
 44
0.00000001
 40
0.0
 40
0.0
 40
0.0
 40
0.0
 40
0.6275009887422135
 40
1.255133049960999
 40
1.843399309249438
 40
2.431749522554163
 40
2.981807644853528
 40
3.531147521372178
 40
3.795160952183631
 40
4.059136764128175
 40
4.319532492683064
 40
4.579933709423855
 40
4.840334925755847
 40
5.100730626862297
 40
5.364706353025924
 40
5.628719813603619
 40
6.178060051136843
 40
6.728117728218717
 40
7.316467808243958
 40
7.904735338886309
 40
8.532355341795204
 40
9.159843099856714
 40
9.159843099856714
 40
9.159843099856714
 40
9.159843099856714
 10
213.2261465693
 20
316.3083866825
 30
0.0
 10
213.3676045341898
 20
316.4625253392589
 30
0.0
 10
213.650550011725
 20
316.7708348492766
 30
0.0
 10
214.0352222633917
 20
317.2506378117023
 30
0.0
 10
214.3821793792474
 20
317.7424065322144
 30
0.0
 10
214.6754824496136
 20
318.2385452923564
 30
0.0
 10
214.9156695299832
 20
318.7482239469745
 30
0.0
 10
215.0640649429524
 20
319.1790616268342
 30
0.0
 10
215.1481906932314
 20
319.5283974046004
 30
0.0
 10
215.1930356968511
 20
319.7875424928162
 30
0.0
 10
215.2200876125389
 20
320.0479319871345
 30
0.0
 10
215.2292112763024
 20
320.3083817935457
 30
0.0
 10
215.2200877398272
 20
320.5688315957038
 30
0.0
 10
215.1930358878012
 20
320.8292210618417
 30
0.0
 10
215.1481907863727
 20
321.0883661069314
 30
0.0
 10
215.0640651923283
 20
321.4377020045554
 30
0.0
 10
214.9156718209225
 20
321.8685403215633
 30
0.0
 10
214.6754845144082
 20
322.3782190895132
 30
0.0
 10
214.3821727243802
 20
322.8743531366751
 30
0.0
 10
214.0352167601047
 20
323.3661173676904
 30
0.0
 10
213.6505756870473
 20
323.8459348092061
 30
0.0
 10
213.3676452757967
 20
324.154246886537
 30
0.0
 10
213.2261949757
 20
324.3083866825
 30
0.0
 11
213.2261465693
 21
316.3083866825
 31
0.0
 11
213.6452640682353
 21
316.7753963322489
 31
0.0
 11
214.0381316963301
 21
317.2648623995763
 31
0.0
 11
214.3755650627962
 21
317.7467295130138
 31
0.0
 11
214.6736087081624
 21
318.2540025745424
 31
0.0
 11
214.9065602620363
 21
318.7522971776189
 31
0.0
 11
215.0837097590017
 21
319.2722898272385
 31
0.0
 11
215.1453942009105
 21
319.528996121036
 31
0.0
 11
215.1902611505925
 21
319.7891310593238
 31
0.0
 11
215.2171199909916
 21
320.0481378896238
 31
0.0
 11
215.2261700548445
 21
320.3083817944984
 31
0.0
 11
215.2171201065661
 21
320.568625702983
 31
0.0
 11
215.1902613125792
 21
320.8276325105002
 31
0.0
 11
215.1453943413767
 21
321.0877673580288
 31
0.0
 11
215.0837101008593
 21
321.3444737308325
 31
0.0
 11
214.9065619997327
 21
321.8644672373691
 31
0.0
 11
214.6736095477477
 21
322.3627609291121
 31
0.0
 11
214.3755599664768
 21
322.870030348425
 31
0.0
 11
214.0381277786429
 21
323.351899839285
 31
0.0
 11
213.6452874837304
 21
323.8413723826869
 31
0.0
 11
213.2261949757
 21
324.3083866825
 31
0.0
  0
SPLINE
  5
10E
330
1F
100
AcDbEntity
  8
FASEN
  6
Continuous
 62
     7
100
AcDbSpline
210
0.0
220
0.0
230
1.0
 70
     8
 71
     3
 72
    37
 73
    33
 74
    31
 42
0.0000000001
 43
0.0000000001
 44
0.00000001
 40
0.0
 40
0.0
 40
0.0
 40
0.0
 40
0.000424773904852
 40
0.0012453341788681
 40
0.0032507149142087
 40
0.0047693482680826
 40
0.0075477612483038
 40
0.0105927561630979
 40
0.0147115929007714
 40
0.0187156639904208
 40
0.0238974074027073
 40
0.029123259975227
 40
0.0354655610279365
 40
0.0417908735392396
 40
0.0577879913241744
 40
0.0738002669217768
 40
0.0941596669698515
 40
0.1145133449276013
 40
0.1390678101716346
 40
0.1636242879741708
 40
0.1922088497530878
 40
0.2207927333493156
 40
0.2531909705432147
 40
0.2855894755101734
 40
0.3608267555701336
 40
0.4360639993283898
 40
0.5230788237773878
 40
0.6100938715508297
 40
0.70560834777694
 40
0.8011227712538849
 40
0.9011283892861423
 40
1.001133618392862
 40
1.001133618392862
 40
1.001133618392862
 40
1.001133618392862
 10
129.216170738
 20
321.2205056257
 30
0.0
 10
129.2162960594283
 20
321.220587425388
 30
0.0
 10
129.2166634714943
 20
321.2208272422555
 30
0.0
 10
129.217723171911
 20
321.2201860656091
 30
0.0
 10
129.2191441092808
 20
321.220042986261
 30
0.0
 10
129.2212479999374
 20
321.2202642824562
 30
0.0
 10
129.2236967784047
 20
321.2200995306542
 30
0.0
 10
129.2269790090398
 20
321.2196465454259
 30
0.0
 10
129.2306893265612
 20
321.2193210876878
 30
0.0
 10
129.2351154527692
 20
321.2190469180493
 30
0.0
 10
129.2399051034149
 20
321.2186736586258
 30
0.0
 10
129.2454687978775
 20
321.2182069281307
 30
0.0
 10
129.2514151851267
 20
321.2177419090578
 30
0.0
 10
129.2609432875825
 20
321.2170268120286
 30
0.0
 10
129.2736855757445
 20
321.2160689243847
 30
0.0
 10
129.2910938329639
 20
321.2147751369784
 30
0.0
 10
129.3099532288567
 20
321.2134137387713
 30
0.0
 10
129.3316556392042
 20
321.2118897032699
 30
0.0
 10
129.3547563361863
 20
321.2103064799024
 30
0.0
 10
129.3805975019014
 20
321.2085838934628
 30
0.0
 10
129.4077825029141
 20
321.2068277638167
 30
0.0
 10
129.4375801934517
 20
321.2049693904098
 30
0.0
 10
129.4686512858683
 20
321.2031060954193
 30
0.0
 10
129.5152526187013
 20
321.200431078823
 30
0.0
 10
129.5761249196527
 20
321.1971983039351
 30
0.0
 10
129.6552009135283
 20
321.1934756531697
 30
0.0
 10
129.738222416046
 20
321.1901091560424
 30
0.0
 10
129.8280198790713
 20
321.1870747192033
 30
0.0
 10
129.920668279797
 20
321.1845716451202
 30
0.0
 10
130.0176622614358
 20
321.1826885035587
 30
0.0
 10
130.1161651918395
 20
321.1815120111168
 30
0.0
 10
130.1828355991606
 20
321.1813566465382
 30
0.0
 10
130.216170738
 20
321.1812789644
 30
0.0
 11
129.216170738
 21
321.2205056257
 31
0.0
 11
129.2165511878529
 21
321.2206945457351
 31
0.0
 11
129.2173371873397
 21
321.220458910487
 31
0.0
 11
129.2193110217743
 21
321.2201046090356
 31
0.0
 11
129.220827299621
 21
321.2201891593454
 31
0.0
 11
129.2236033606286
 21
321.2200748616164
 31
0.0
 11
129.2266272208416
 21
321.2197167227557
 31
0.0
 11
129.2307283838368
 21
321.2193355690358
 31
0.0
 11
129.2347230949852
 21
321.2190619486191
 31
0.0
 11
129.2398899732334
 21
321.2186697318951
 31
0.0
 11
129.2450983300033
 21
321.218242467495
 31
0.0
 11
129.2514210733837
 21
321.2177447740273
 31
0.0
 11
129.2577283933456
 21
321.2172680211935
 31
0.0
 11
129.2736807052667
 21
321.2160715589939
 31
0.0
 11
129.2896491426127
 21
321.2148875072465
 31
0.0
 11
129.3099556000355
 21
321.2134202113474
 31
0.0
 11
129.3302591743115
 21
321.2119929489235
 31
0.0
 11
129.3547561820506
 21
321.210314147193
 31
0.0
 11
129.3792582892885
 21
321.2086809469695
 31
0.0
 11
129.4077833994334
 21
321.2068383229396
 31
0.0
 11
129.4363118598304
 21
321.2050591802203
 31
0.0
 11
129.4686520039383
 21
321.2031198885053
 31
0.0
 11
129.5009972699091
 21
321.2012633074082
 31
0.0
 11
129.576128693934
 21
321.1972736414047
 31
0.0
 11
129.6512827198997
 21
321.1937359543811
 31
0.0
 11
129.7382259535386
 21
321.1902069604305
 31
0.0
 11
129.8251912181241
 21
321.1872639526845
 31
0.0
 11
129.9206710752793
 21
321.1846925627168
 31
0.0
 11
130.0161674092945
 21
321.182833723888
 31
0.0
 11
130.1161662821486
 21
321.1816722309152
 31
0.0
 11
130.216170738
 21
321.1812789644
 31
0.0
  0
SPLINE
  5
10F
330
1F
100
AcDbEntity
  8
0
  6
Continuous
 62
     7
100
AcDbSpline
210
0.0
220
0.0
230
1.0
 70
     8
 71
     3
 72
    19
 73
    15
 74
    13
 42
0.0000000001
 43
0.0000000001
 44
0.00000001
 40
0.0
 40
0.0
 40
0.0
 40
0.0
 40
1.288046120701058
 40
2.576183163062069
 40
3.220235598639241
 40
3.864273041928836
 40
4.508318825042227
 40
5.152368395199484
 40
5.796417964840349
 40
6.440463747458079
 40
7.084501190789595
 40
7.728553626391713
 40
9.016690669246785
 40
10.30473679047385
 40
10.30473679047385
 40
10.30473679047385
 40
10.30473679047385
 10
129.216170738
 20
302.1662462175
 30
0.0
 10
129.2130387732571
 20
302.5955922198059
 30
0.0
 10
129.2067746226896
 20
303.4543145314468
 30
0.0
 10
129.1799449051695
 20
304.5274222171918
 30
0.0
 10
129.1625117522626
 20
305.3859854740617
 30
0.0
 10
129.15176021703
 20
306.0299441459206
 30
0.0
 10
129.1448945725432
 20
306.6739561799112
 30
0.0
 10
129.1424089763719
 20
307.3180056254573
 30
0.0
 10
129.1448945762946
 20
307.9620550708221
 30
0.0
 10
129.1517602227738
 20
308.6060671044612
 30
0.0
 10
129.1625117564943
 20
309.2500257761977
 30
0.0
 10
129.1799449059034
 20
310.1085890333283
 30
0.0
 10
129.2067746223437
 20
311.181696719444
 30
0.0
 10
129.2130387731418
 20
312.0404190314208
 30
0.0
 10
129.216170738
 20
312.4697650339
 30
0.0
 11
129.216170738
 21
302.1662462175
 31
0.0
 11
129.2029752171975
 21
303.4542247449933
 31
0.0
 11
129.1759223322546
 21
304.7420776796558
 31
0.0
 11
129.1628988422868
 21
305.3859984267062
 31
0.0
 11
129.1524078981843
 21
306.0299504190556
 31
0.0
 11
129.1456245962265
 21
306.673960479195
 31
0.0
 11
129.1432375106781
 21
307.3180056256268
 31
0.0
 11
129.1456245996846
 21
307.9620507715293
 31
0.0
 11
129.1524079033411
 21
308.6060608311551
 31
0.0
 11
129.1628988463326
 21
309.2500128235646
 31
0.0
 11
129.17592233408
 21
309.8939335706849
 31
0.0
 11
129.2029752171246
 21
311.1817865058814
 31
0.0
 11
129.216170738
 21
312.4697650339
 31
0.0
  0
SPLINE
  5
110
330
1F
100
AcDbEntity
  8
FASEN
  6
Continuous
 62
     7
100
AcDbSpline
210
0.0
220
0.0
230
1.0
 70
     8
 71
     3
 72
    27
 73
    23
 74
    21
 42
0.0000000001
 43
0.0000000001
 44
0.00000001
 40
0.0
 40
0.0
 40
0.0
 40
0.0
 40
0.0194604820426395
 40
0.0389213108452019
 40
0.0559673062991596
 40
0.0730118696045229
 40
0.0875674359015851
 40
0.1021273328954786
 40
0.1141391770488254
 40
0.1261387534328681
 40
0.1355273363763635
 40
0.1449482190644816
 40
0.1517431362350447
 40
0.1584624945169516
 40
0.1607999498539339
 40
0.1632102691776686
 40
0.1649886825301798
 40
0.1666109500810235
 40
0.1674970220351964
 40
0.1686657003901912
 40
0.1691420215699554
 40
0.1693916942723177
 40
0.1693916942723177
 40
0.1693916942723177
 40
0.1693916942723177
 10
129.385058579868
 20
293.427709957153
 30
0.0
 10
129.3785856846483
 20
293.4272850199445
 30
0.0
 10
129.3656397788705
 20
293.4264351379555
 30
0.0
 10
129.3470264356975
 20
293.425177523219
 30
0.0
 10
129.3292182886292
 20
293.4239490845708
 30
0.0
 10
129.3130428764002
 20
293.4228112866831
 30
0.0
 10
129.2976953685912
 20
293.4217140727459
 30
0.0
 10
129.2840226555049
 20
293.4207157424088
 30
0.0
 10
129.2712013841612
 20
293.4197564792317
 30
0.0
 10
129.2600994052333
 20
293.4189214020482
 30
0.0
 10
129.2498581044195
 20
293.4181587160414
 30
0.0
 10
129.241349509399
 20
293.4174888958256
 30
0.0
 10
129.2337329301372
 20
293.4168306997208
 30
0.0
 10
129.2284650091079
 20
293.4164151491755
 30
0.0
 10
129.2246504853433
 20
293.4161725971849
 30
0.0
 10
129.2224827708347
 20
293.4159789171733
 30
0.0
 10
129.2205635381512
 20
293.4157195046716
 30
0.0
 10
129.2191340854495
 20
293.4156258587641
 30
0.0
 10
129.2179061185865
 20
293.415749645938
 30
0.0
 10
129.2170794024955
 20
293.4156748187041
 30
0.0
 10
129.2164556205983
 20
293.4153131440245
 30
0.0
 10
129.2162436393469
 20
293.4154563697136
 30
0.0
 10
129.216170738
 20
293.4155056257
 30
0.0
 11
129.385058579868
 21
293.427709957153
 31
0.0
 11
129.365640304077
 21
293.4264289705658
 31
0.0
 11
129.346223655233
 21
293.4251183961299
 31
0.0
 11
129.3292180792947
 21
293.4239452175326
 31
0.0
 11
129.3122155038551
 21
293.422749572647
 31
0.0
 11
129.2976970724699
 21
293.4217105055936
 31
0.0
 11
129.2831759120722
 21
293.420649137996
 31
0.0
 11
129.2711973648539
 21
293.4197553782396
 31
0.0
 11
129.2592314065313
 21
293.4188577843339
 31
0.0
 11
129.2498693196154
 21
293.4181529309694
 31
0.0
 11
129.2404780690327
 21
293.4174063098367
 31
0.0
 11
129.2337070422889
 21
293.4168370153701
 31
0.0
 11
129.2270071806541
 21
293.4163255177688
 31
0.0
 11
129.2246752897645
 21
293.4161643274119
 31
0.0
 11
129.2222754875
 21
293.4159394089075
 31
0.0
 11
129.2205090072591
 21
293.4157337353529
 31
0.0
 11
129.2188880713476
 21
293.4156680179476
 31
0.0
 11
129.2180032979896
 21
293.4157159722269
 31
0.0
 11
129.2168510991779
 21
293.4155204038354
 31
0.0
 11
129.2163926397558
 21
293.4153911876422
 31
0.0
 11
129.216170738
 21
293.4155056257
 31
0.0
  0
SPLINE
  5
111
330
1F
100
AcDbEntity
  8
0
  6
Continuous
 62
     7
100
AcDbSpline
210
0.0
220
0.0
230
1.0
 70
     8
 71
     3
 72
    31
 73
    27
 74
    25
 42
0.0000000001
 43
0.0000000001
 44
0.00000001
 40
0.0
 40
0.0
 40
0.0
 40
0.0
 40
0.7319043646379522
 40
1.464016053426954
 40
2.192393416022577
 40
2.920730906994301
 40
3.6449351263202
 40
4.369097667059222
 40
5.089389921385882
 40
5.809876309476401
 40
7.241053347785134
 40
8.673024103008023
 40
10.09806076018236
 40
11.52284889934465
 40
12.94782160678387
 40
14.37304298927745
 40
15.80505587041318
 40
17.23627509458383
 40
17.95673515868843
 40
18.6770009897361
 40
19.4011301618267
 40
20.12530093980988
 40
20.85361765926653
 40
21.58197477292139
 40
22.3141099793011
 40
23.0460370696862
 40
23.0460370696862
 40
23.0460370696862
 40
23.0460370696862
 10
156.9468280426
 20
317.5616192585
 30
0.0
 10
157.1247515560726
 20
317.3946124560137
 30
0.0
 10
157.4806489828285
 20
317.0605515435714
 30
0.0
 10
157.9791566812084
 20
316.5254657828212
 30
0.0
 10
158.4497048370028
 20
315.9675235997595
 30
0.0
 10
158.8880214436823
 20
315.3870918615344
 30
0.0
 10
159.294570363984
 20
314.7857307218351
 30
0.0
 10
159.6676920593699
 20
314.16619741731
 30
0.0
 10
160.0073828338972
 20
313.5291131157326
 30
0.0
 10
160.4132995714875
 20
312.6617142264663
 30
0.0
 10
160.8346440198629
 20
311.5414779415548
 30
0.0
 10
161.1984821713519
 20
310.1566004480088
 30
0.0
 10
161.4173356236596
 20
308.7436577593044
 30
0.0
 10
161.4905700420739
 20
307.3181137643472
 30
0.0
 10
161.4173584805478
 20
305.8925060832635
 30
0.0
 10
161.1984901672339
 20
304.4794259162272
 30
0.0
 10
160.8346212020504
 20
303.0944634734517
 30
0.0
 10
160.4132619781236
 20
301.9742120949165
 30
0.0
 10
160.007343690173
 20
301.1068178884148
 30
0.0
 10
159.6676645349999
 20
300.4697599031709
 30
0.0
 10
159.294555054343
 20
299.8502555045137
 30
0.0
 10
158.8880190822793
 20
299.2489209189613
 30
0.0
 10
158.4497162836976
 20
298.6685098952016
 30
0.0
 10
157.9791753920791
 20
298.1105696450991
 30
0.0
 10
157.4806745450642
 20
297.5754652096063
 30
0.0
 10
157.1247603361905
 20
297.2413993886851
 30
0.0
 10
156.9468285283
 20
297.0743902219
 30
0.0
 11
156.9468280426
 21
317.5616192585
 31
0.0
 11
157.4748480621942
 21
317.0547870792889
 31
0.0
 11
157.9754539130122
 21
316.5205761593442
 31
0.0
 11
158.4446148352848
 21
315.9634212335344
 31
0.0
 11
158.8836643163691
 21
315.3822921137042
 31
0.0
 11
159.2892475290917
 21
314.7823137733893
 31
0.0
 11
159.6628589939874
 21
314.1619704340134
 31
0.0
 11
160.0017466544321
 21
313.5263793034575
 31
0.0
 11
160.3071188436454
 21
312.873808647146
 31
0.0
 11
160.8111374385042
 21
311.5343188297085
 31
0.0
 11
161.174858746024
 21
310.1493108679012
 31
0.0
 11
161.3931342206792
 21
308.7410902561167
 31
0.0
 11
161.4661637973651
 21
307.318174966148
 31
0.0
 11
161.3931506338116
 21
305.8950740228223
 31
0.0
 11
161.1748527829585
 21
304.4866699481939
 31
0.0
 11
160.8111136789527
 21
303.1016231056807
 31
0.0
 11
160.3070715553577
 21
301.7620970681296
 31
0.0
 11
160.001707767741
 21
301.1095515439077
 31
0.0
 11
159.6628302374744
 21
300.4739849566368
 31
0.0
 11
159.2892325240214
 21
299.8536722883998
 31
0.0
 11
158.8836649841099
 21
299.253723718725
 31
0.0
 11
158.444627309986
 21
298.6726117118451
 31
0.0
 11
157.9754838205548
 21
298.1154685782286
 31
0.0
 11
157.4748697409864
 21
297.58123313972
 31
0.0
 11
156.9468285283
 21
297.0743902219
 31
0.0
  0
LWPOLYLINE
  5
112
330
1F
100
AcDbEntity
  8
FASEN
  6
Continuous
 62
     7
100
AcDbPolyline
 90
        8
 70
     0
 43
0.0
 10
130.0877771098
 20
294.4155056257
 10
130.0171988119
 20
294.307369472
 10
129.9237012296
 20
294.181199722
 10
129.819373105
 20
294.0536076639
 10
129.7015390747
 20
293.9195544092
 10
129.565998307
 20
293.7733030111
 10
129.4170439987
 20
293.6185416088
 10
129.2575603548
 20
293.4570080788
  0
LWPOLYLINE
  5
113
330
1F
100
AcDbEntity
  8
FASEN
  6
Continuous
 62
     7
100
AcDbPolyline
 90
        8
 70
     0
 43
0.0
 10
129.2684948679
 20
321.1680259436
 10
129.432827291
 20
321.0012843233
 10
129.5789646964
 20
320.8489839092
 10
129.7098320223
 20
320.7072738619
 10
129.8270937483
 20
320.5733012619
 10
129.9305373727
 20
320.4460446306
 10
130.0209388715
 20
320.3232538419
 10
130.087777079
 20
320.2205056257
  0
DIMENSION
  5
11E
330
1F
100
AcDbEntity
  8
1
100
AcDbDimension
  2
*D2
 10
214.716170738
 20
364.50562896828
 30
0.0
 11
189.039081362675
 21
368.25562896828
 31
0.0
 70
    32
  1
<>
 71
     5
 42
-1.0
 53
0.00013888888889
  3
ME10_DIM_10
100
AcDbAlignedDimension
 13
164.216170738
 23
356.3055056257
 33
0.0
 14
214.716170738
 24
319.8180056257
 34
0.0
100
AcDbRotatedDimension
  0
DIMENSION
  5
129
330
1F
100
AcDbEntity
  8
1
100
AcDbDimension
  2
*D3
 10
214.716170738
 20
372.851997242608
 30
0.0
 11
171.134775225808
 21
376.601997242608
 31
0.0
 70
    32
  1
<>
 71
     5
 42
-1.0
 53
0.00013888888889
  3
ME10_DIM_11
100
AcDbAlignedDimension
 13
126.216170738
 23
360.3055056257
 33
0.0
 14
214.716170738
 24
319.8180056257
 34
0.0
100
AcDbRotatedDimension
  0
DIMENSION
  5
134
330
1F
100
AcDbEntity
  8
1
100
AcDbDimension
  2
*D4
 10
226.216170738
 20
382.006078575743
 30
0.0
 11
178.808049284465
 21
385.756078575743
 31
0.0
 70
    32
  1
<>
 71
     5
 42
-1.0
 53
0.00013888888889
  3
ME10_DIM_12
100
AcDbAlignedDimension
 13
126.216170738
 23
360.3055056257
 33
0.0
 14
226.216170738
 24
321.3180056257
 34
0.0
100
AcDbRotatedDimension
  0
DIMENSION
  5
13F
330
1F
100
AcDbEntity
  8
1
100
AcDbDimension
  2
*D5
 10
214.716170738
 20
390.333081372365
 30
0.0
 11
129.709117901373
 21
394.083081372365
 31
0.0
 70
    32
  1
<>
 71
     5
 42
-1.0
 53
0.00013888888889
  3
ME10_DIM_13
100
AcDbAlignedDimension
 13
24.416170738
 23
326.5312010333
 33
0.0
 14
214.716170738
 24
319.8180056257
 34
0.0
100
AcDbRotatedDimension
  0
DIMENSION
  5
14A
330
1F
100
AcDbEntity
  8
1
100
AcDbDimension
  2
*D6
 10
184.716170738
 20
267.567034140529
 30
0.0
 11
199.745532606528
 21
271.317034140529
 31
0.0
 70
    32
  1
<>
 71
     5
 42
-1.0
 53
0.00013888888889
  3
ME10_DIM_14
100
AcDbAlignedDimension
 13
214.716170738
 23
294.8180056257
 33
0.0
 14
184.716170738
 24
300.5680056257
 34
0.0
100
AcDbRotatedDimension
  0
DIMENSION
  5
155
330
1F
100
AcDbEntity
  8
1
100
AcDbDimension
  2
*D7
 10
238.1362901622
 20
317.3180056257
 30
0.0
 11
234.3862901622
 21
307.695955916241
 31
0.0
 70
    32
  1
<>
 71
     5
 42
-1.0
 53
90.0
  3
ME10_DIM_15
100
AcDbAlignedDimension
 13
214.716170738
 23
297.3180056257
 33
0.0
 14
214.716170738
 24
317.3180056257
 34
0.0
 50
90.0
100
AcDbRotatedDimension
  0
DIMENSION
  5
160
330
1F
100
AcDbEntity
  8
1
100
AcDbDimension
  2
*D8
 10
246.827111262401
 20
324.3180056257
 30
0.0
 11
243.077111262401
 21
307.620383558848
 31
0.0
 70
    32
  1
<>
 71
     5
 42
-1.0
 53
90.0
  3
ME10_DIM_16
100
AcDbAlignedDimension
 13
194.3019571757
 23
290.3180056257
 33
0.0
 14
194.3019571757
 24
324.3180056257
 34
0.0
 50
90.0
100
AcDbRotatedDimension
  0
ENDSEC
  0
SECTION
  2
OBJECTS
  0
DICTIONARY
  5
C
330
0
100
AcDbDictionary
281
     1
  3
ACAD_GROUP
350
D
  3
ACAD_LAYOUT
350
1A
  3
ACAD_MLEADERSTYLE
350
163
  3
ACAD_MLINESTYLE
350
17
  3
ACAD_PLOTSETTINGS
350
19
  3
ACAD_PLOTSTYLENAME
350
E
  3
ACAD_SCALELIST
350
4A
  3
ACAD_VISUALSTYLE
350
2A
  3
AcDbVariableDictionary
350
161
  0
DICTIONARY
  5
D
102
{ACAD_REACTORS
330
C
102
}
330
C
100
AcDbDictionary
281
     1
  0
DICTIONARY
  5
1A
102
{ACAD_REACTORS
330
C
102
}
330
C
100
AcDbDictionary
281
     1
  3
Layout1
350
1E
  3
Layout2
350
26
  3
Model
350
22
  0
DICTIONARY
  5
163
102
{ACAD_REACTORS
330
C
102
}
330
C
100
AcDbDictionary
281
     1
  0
DICTIONARY
  5
17
102
{ACAD_REACTORS
330
C
102
}
330
C
100
AcDbDictionary
281
     1
  3
Standard
350
18
  0
DICTIONARY
  5
19
102
{ACAD_REACTORS
330
C
102
}
330
C
100
AcDbDictionary
281
     1
  0
ACDBDICTIONARYWDFLT
  5
E
102
{ACAD_REACTORS
330
C
102
}
330
C
100
AcDbDictionary
281
     1
  3
Normal
350
F
100
AcDbDictionaryWithDefault
340
F
  0
DICTIONARY
  5
4A
102
{ACAD_REACTORS
330
C
102
}
330
C
100
AcDbDictionary
281
     1
  3
A0
350
4B
  3
A1
350
4C
  3
A2
350
4D
  3
A3
350
4E
  3
A4
350
4F
  3
A5
350
50
  3
A6
350
51
  3
A7
350
52
  3
A8
350
53
  3
A9
350
54
  3
B0
350
55
  3
B1
350
56
  3
B2
350
57
  3
B3
350
58
  3
B4
350
59
  3
B5
350
5A
  3
B6
350
5B
  3
B7
350
5C
  3
B8
350
5D
  3
B9
350
5E
  3
C0
350
5F
  3
C1
350
60
  3
C2
350
61
  3
C3
350
62
  3
C4
350
63
  3
C5
350
64
  3
C6
350
65
  3
C7
350
66
  3
C8
350
67
  3
C9
350
68
  3
D0
350
69
  3
D1
350
6A
  3
D2
350
6B
  0
DICTIONARY
  5
2A
102
{ACAD_REACTORS
330
C
102
}
330
C
100
AcDbDictionary
281
     1
  3
2dWireframe
350
2F
  3
3D Hidden
350
31
  3
3dWireframe
350
30
  3
Basic
350
32
  3
Brighten
350
36
  3
ColorChange
350
3A
  3
Conceptual
350
34
  3
Dim
350
35
  3
Facepattern
350
39
  3
Flat
350
2B
  3
FlatWithEdges
350
2C
  3
Gouraud
350
2D
  3
GouraudWithEdges
350
2E
  3
Linepattern
350
38
  3
Realistic
350
33
  3
Thicken
350
37
  0
DICTIONARY
  5
161
102
{ACAD_REACTORS
330
C
102
}
330
C
100
AcDbDictionary
281
     1
  3
CANNOSCALE
350
164
  0
LAYOUT
  5
1E
102
{ACAD_REACTORS
330
1A
102
}
330
1A
100
AcDbPlotSettings
  1

  2
none_device
  4

  6

 40
0.0
 41
0.0
 42
0.0
 43
0.0
 44
0.0
 45
0.0
 46
0.0
 47
0.0
 48
0.0
 49
0.0
140
0.0
141
0.0
142
1.0
143
1.0
 70
   688
 72
     0
 73
     0
 74
     5
  7

 75
    16
147
1.0
148
0.0
149
0.0
100
AcDbLayout
  1
Layout1
 70
     1
 71
     1
 10
0.0
 20
0.0
 11
12.0
 21
9.0
 12
0.0
 22
0.0
 32
0.0
 14
1.00000000000000E+20
 24
1.00000000000000E+20
 34
1.00000000000000E+20
 15
-1.00000000000000E+20
 25
-1.00000000000000E+20
 35
-1.00000000000000E+20
146
0.0
 13
0.0
 23
0.0
 33
0.0
 16
1.0
 26
0.0
 36
0.0
 17
0.0
 27
1.0
 37
0.0
 76
     0
330
1B
  0
LAYOUT
  5
26
102
{ACAD_REACTORS
330
1A
102
}
330
1A
100
AcDbPlotSettings
  1

  2
none_device
  4

  6

 40
0.0
 41
0.0
 42
0.0
 43
0.0
 44
0.0
 45
0.0
 46
0.0
 47
0.0
 48
0.0
 49
0.0
140
0.0
141
0.0
142
1.0
143
1.0
 70
   688
 72
     0
 73
     0
 74
     5
  7

 75
    16
147
1.0
148
0.0
149
0.0
100
AcDbLayout
  1
Layout2
 70
     1
 71
     2
 10
0.0
 20
0.0
 11
0.0
 21
0.0
 12
0.0
 22
0.0
 32
0.0
 14
0.0
 24
0.0
 34
0.0
 15
0.0
 25
0.0
 35
0.0
146
0.0
 13
0.0
 23
0.0
 33
0.0
 16
1.0
 26
0.0
 36
0.0
 17
0.0
 27
1.0
 37
0.0
 76
     0
330
23
  0
LAYOUT
  5
22
102
{ACAD_REACTORS
330
1A
102
}
330
1A
100
AcDbPlotSettings
  1

  2
none_device
  4

  6

 40
0.0
 41
0.0
 42
0.0
 43
0.0
 44
0.0
 45
0.0
 46
0.0
 47
0.0
 48
0.0
 49
0.0
140
0.0
141
0.0
142
1.0
143
1.0
 70
  1712
 72
     0
 73
     0
 74
     0
  7

 75
     0
147
1.0
148
0.0
149
0.0
100
AcDbLayout
  1
Model
 70
     1
 71
     0
 10
0.0
 20
0.0
 11
12.0
 21
9.0
 12
0.0
 22
0.0
 32
0.0
 14
-1.7524284913424
 24
254.2055056257
 34
0.0
 15
248.827111262401
 25
395.833081372365
 35
0.0
146
0.0
 13
0.0
 23
0.0
 33
0.0
 16
1.0
 26
0.0
 36
0.0
 17
0.0
 27
1.0
 37
0.0
 76
     0
330
1F
331
29
  0
MLINESTYLE
  5
18
102
{ACAD_REACTORS
330
17
102
}
330
17
100
AcDbMlineStyle
  2
Standard
 70
     0
  3

 62
   256
 51
90.0
 52
90.0
 71
     2
 49
0.5
 62
   256
  6
BYLAYER
 49
-0.5
 62
   256
  6
BYLAYER
  0
ACDBPLACEHOLDER
  5
F
102
{ACAD_REACTORS
330
E
102
}
330
E
  0
SCALE
  5
4B
102
{ACAD_REACTORS
330
4A
102
}
330
4A
100
AcDbScale
 70
     0
300
1:1
140
1.0
141
1.0
290
     1
  0
SCALE
  5
4C
102
{ACAD_REACTORS
330
4A
102
}
330
4A
100
AcDbScale
 70
     0
300
1:2
140
1.0
141
2.0
290
     0
  0
SCALE
  5
4D
102
{ACAD_REACTORS
330
4A
102
}
330
4A
100
AcDbScale
 70
     0
300
1:4
140
1.0
141
4.0
290
     0
  0
SCALE
  5
4E
102
{ACAD_REACTORS
330
4A
102
}
330
4A
100
AcDbScale
 70
     0
300
1:5
140
1.0
141
5.0
290
     0
  0
SCALE
  5
4F
102
{ACAD_REACTORS
330
4A
102
}
330
4A
100
AcDbScale
 70
     0
300
1:8
140
1.0
141
8.0
290
     0
  0
SCALE
  5
50
102
{ACAD_REACTORS
330
4A
102
}
330
4A
100
AcDbScale
 70
     0
300
1:10
140
1.0
141
10.0
290
     0
  0
SCALE
  5
51
102
{ACAD_REACTORS
330
4A
102
}
330
4A
100
AcDbScale
 70
     0
300
1:16
140
1.0
141
16.0
290
     0
  0
SCALE
  5
52
102
{ACAD_REACTORS
330
4A
102
}
330
4A
100
AcDbScale
 70
     0
300
1:20
140
1.0
141
20.0
290
     0
  0
SCALE
  5
53
102
{ACAD_REACTORS
330
4A
102
}
330
4A
100
AcDbScale
 70
     0
300
1:30
140
1.0
141
30.0
290
     0
  0
SCALE
  5
54
102
{ACAD_REACTORS
330
4A
102
}
330
4A
100
AcDbScale
 70
     0
300
1:40
140
1.0
141
40.0
290
     0
  0
SCALE
  5
55
102
{ACAD_REACTORS
330
4A
102
}
330
4A
100
AcDbScale
 70
     0
300
1:50
140
1.0
141
50.0
290
     0
  0
SCALE
  5
56
102
{ACAD_REACTORS
330
4A
102
}
330
4A
100
AcDbScale
 70
     0
300
1:100
140
1.0
141
100.0
290
     0
  0
SCALE
  5
57
102
{ACAD_REACTORS
330
4A
102
}
330
4A
100
AcDbScale
 70
     0
300
2:1
140
2.0
141
1.0
290
     0
  0
SCALE
  5
58
102
{ACAD_REACTORS
330
4A
102
}
330
4A
100
AcDbScale
 70
     0
300
4:1
140
4.0
141
1.0
290
     0
  0
SCALE
  5
59
102
{ACAD_REACTORS
330
4A
102
}
330
4A
100
AcDbScale
 70
     0
300
8:1
140
8.0
141
1.0
290
     0
  0
SCALE
  5
5A
102
{ACAD_REACTORS
330
4A
102
}
330
4A
100
AcDbScale
 70
     0
300
10:1
140
10.0
141
1.0
290
     0
  0
SCALE
  5
5B
102
{ACAD_REACTORS
330
4A
102
}
330
4A
100
AcDbScale
 70
     0
300
100:1
140
100.0
141
1.0
290
     0
  0
SCALE
  5
5C
102
{ACAD_REACTORS
330
4A
102
}
330
4A
100
AcDbScale
 70
     0
300
1/128" = 1'-0"
140
0.0078125
141
12.0
290
     0
  0
SCALE
  5
5D
102
{ACAD_REACTORS
330
4A
102
}
330
4A
100
AcDbScale
 70
     0
300
1/64" = 1'-0"
140
0.015625
141
12.0
290
     0
  0
SCALE
  5
5E
102
{ACAD_REACTORS
330
4A
102
}
330
4A
100
AcDbScale
 70
     0
300
1/32" = 1'-0"
140
0.03125
141
12.0
290
     0
  0
SCALE
  5
5F
102
{ACAD_REACTORS
330
4A
102
}
330
4A
100
AcDbScale
 70
     0
300
1/16" = 1'-0"
140
0.0625
141
12.0
290
     0
  0
SCALE
  5
60
102
{ACAD_REACTORS
330
4A
102
}
330
4A
100
AcDbScale
 70
     0
300
3/32" = 1'-0"
140
0.09375
141
12.0
290
     0
  0
SCALE
  5
61
102
{ACAD_REACTORS
330
4A
102
}
330
4A
100
AcDbScale
 70
     0
300
1/8" = 1'-0"
140
0.125
141
12.0
290
     0
  0
SCALE
  5
62
102
{ACAD_REACTORS
330
4A
102
}
330
4A
100
AcDbScale
 70
     0
300
3/16" = 1'-0"
140
0.1875
141
12.0
290
     0
  0
SCALE
  5
63
102
{ACAD_REACTORS
330
4A
102
}
330
4A
100
AcDbScale
 70
     0
300
1/4" = 1'-0"
140
0.25
141
12.0
290
     0
  0
SCALE
  5
64
102
{ACAD_REACTORS
330
4A
102
}
330
4A
100
AcDbScale
 70
     0
300
3/8" = 1'-0"
140
0.375
141
12.0
290
     0
  0
SCALE
  5
65
102
{ACAD_REACTORS
330
4A
102
}
330
4A
100
AcDbScale
 70
     0
300
1/2" = 1'-0"
140
0.5
141
12.0
290
     0
  0
SCALE
  5
66
102
{ACAD_REACTORS
330
4A
102
}
330
4A
100
AcDbScale
 70
     0
300
3/4" = 1'-0"
140
0.75
141
12.0
290
     0
  0
SCALE
  5
67
102
{ACAD_REACTORS
330
4A
102
}
330
4A
100
AcDbScale
 70
     0
300
1" = 1'-0"
140
1.0
141
12.0
290
     0
  0
SCALE
  5
68
102
{ACAD_REACTORS
330
4A
102
}
330
4A
100
AcDbScale
 70
     0
300
1-1/2" = 1'-0"
140
1.5
141
12.0
290
     0
  0
SCALE
  5
69
102
{ACAD_REACTORS
330
4A
102
}
330
4A
100
AcDbScale
 70
     0
300
3" = 1'-0"
140
3.0
141
12.0
290
     0
  0
SCALE
  5
6A
102
{ACAD_REACTORS
330
4A
102
}
330
4A
100
AcDbScale
 70
     0
300
6" = 1'-0"
140
6.0
141
12.0
290
     0
  0
SCALE
  5
6B
102
{ACAD_REACTORS
330
4A
102
}
330
4A
100
AcDbScale
 70
     0
300
1'-0" = 1'-0"
140
12.0
141
12.0
290
     0
  0
VISUALSTYLE
  5
2F
102
{ACAD_REACTORS
330
2A
102
}
330
2A
100
AcDbVisualStyle
  2
2dWireframe
 70
     4
 71
     0
 72
     2
 73
     0
 90
        0
 40
-0.6
 41
-30.0
 62
     5
 63
     7
 74
     1
 91
        4
 64
     7
 65
   257
 75
     1
175
     1
 42
1.0
 92
        0
 66
   257
 43
1.0
 76
     1
 77
     6
 78
     2
 67
     7
 79
     5
170
     0
171
     0
290
     0
174
     0
 93
        1
 44
0.0
173
     0
291
     0
 45
0.0
1001
ACAD
1000
AcDbSavedByObjectVersion
1070
     0
  0
VISUALSTYLE
  5
31
102
{ACAD_REACTORS
330
2A
102
}
330
2A
100
AcDbVisualStyle
  2
3D Hidden
 70
     6
 71
     1
 72
     2
 73
     2
 90
        0
 40
-0.6
 41
-30.0
 62
     5
 63
     7
 74
     2
 91
        2
 64
     7
 65
   257
 75
     2
175
     1
 42
40.0
 92
        0
 66
   257
 43
1.0
 76
     1
 77
     6
 78
     2
 67
     7
 79
     3
170
     0
171
     0
290
     0
174
     0
 93
        1
 44
0.0
173
     0
291
     0
 45
0.0
1001
ACAD
1000
AcDbSavedByObjectVersion
1070
     0
  0
VISUALSTYLE
  5
30
102
{ACAD_REACTORS
330
2A
102
}
330
2A
100
AcDbVisualStyle
  2
3dWireframe
 70
     5
 71
     0
 72
     2
 73
     0
 90
        0
 40
-0.6
 41
-30.0
 62
     5
 63
     7
 74
     1
 91
        4
 64
     7
 65
   257
 75
     1
175
     1
 42
1.0
 92
        0
 66
   257
 43
1.0
 76
     1
 77
     6
 78
     2
 67
     7
 79
     5
170
     0
171
     0
290
     0
174
     0
 93
        1
 44
0.0
173
     0
291
     0
 45
0.0
1001
ACAD
1000
AcDbSavedByObjectVersion
1070
     0
  0
VISUALSTYLE
  5
32
102
{ACAD_REACTORS
330
2A
102
}
330
2A
100
AcDbVisualStyle
  2
Basic
 70
     7
 71
     1
 72
     0
 73
     1
 90
        0
 40
-0.6
 41
-30.0
 62
     5
 63
     7
 74
     0
 91
        4
 64
     7
 65
   257
 75
     1
175
     1
 42
1.0
 92
        8
 66
     7
 43
1.0
 76
     1
 77
     6
 78
     2
 67
     7
 79
     5
170
     0
171
     0
290
     0
174
     0
 93
        1
 44
0.0
173
     0
291
     1
 45
0.0
1001
ACAD
1000
AcDbSavedByObjectVersion
1070
     0
  0
VISUALSTYLE
  5
36
102
{ACAD_REACTORS
330
2A
102
}
330
2A
100
AcDbVisualStyle
  2
Brighten
 70
    12
 71
     2
 72
     2
 73
     0
 90
        0
 40
-0.6
 41
-30.0
 62
     5
 63
     7
 74
     1
 91
        4
 64
     7
 65
   257
 75
     1
175
     1
 42
1.0
 92
        8
 66
     7
 43
1.0
 76
     1
 77
     6
 78
     2
 67
     7
 79
     5
170
     0
171
     0
290
     0
174
     0
 93
        1
 44
50.0
173
     0
291
     1
 45
0.0
1001
ACAD
1000
AcDbSavedByObjectVersion
1070
     0
  0
VISUALSTYLE
  5
3A
102
{ACAD_REACTORS
330
2A
102
}
330
2A
100
AcDbVisualStyle
  2
ColorChange
 70
    16
 71
     2
 72
     2
 73
     3
 90
        0
 40
-0.6
 41
-30.0
 62
     5
 63
     8
 74
     1
 91
        4
 64
     7
 65
   257
 75
     1
175
     1
 42
1.0
 92
        8
 66
     8
 43
1.0
 76
     1
 77
     6
 78
     2
 67
     7
 79
     5
170
     0
171
     0
290
     0
174
     0
 93
        1
 44
0.0
173
     0
291
     1
 45
0.0
1001
ACAD
1000
AcDbSavedByObjectVersion
1070
     0
  0
VISUALSTYLE
  5
34
102
{ACAD_REACTORS
330
2A
102
}
330
2A
100
AcDbVisualStyle
  2
Conceptual
 70
     9
 71
     3
 72
     2
 73
     0
 90
        0
 40
-0.6
 41
-30.0
 62
     5
 63
     7
 74
     2
 91
        2
 64
     7
 65
   257
 75
     1
175
     1
 42
40.0
 92
        8
 66
     7
 43
1.0
 76
     1
 77
     6
 78
     2
 67
     7
 79
     3
170
     0
171
     0
290
     0
174
     0
 93
        1
 44
0.0
173
     0
291
     0
 45
0.0
1001
ACAD
1000
AcDbSavedByObjectVersion
1070
     0
  0
VISUALSTYLE
  5
35
102
{ACAD_REACTORS
330
2A
102
}
330
2A
100
AcDbVisualStyle
  2
Dim
 70
    11
 71
     2
 72
     2
 73
     0
 90
        0
 40
-0.6
 41
-30.0
 62
     5
 63
     7
 74
     1
 91
        4
 64
     7
 65
   257
 75
     1
175
     1
 42
1.0
 92
        8
 66
     7
 43
1.0
 76
     1
 77
     6
 78
     2
 67
     7
 79
     5
170
     0
171
     0
290
     0
174
     0
 93
        1
 44
-50.0
173
     0
291
     1
 45
0.0
1001
ACAD
1000
AcDbSavedByObjectVersion
1070
     0
  0
VISUALSTYLE
  5
39
102
{ACAD_REACTORS
330
2A
102
}
330
2A
100
AcDbVisualStyle
  2
Facepattern
 70
    15
 71
     2
 72
     2
 73
     0
 90
        0
 40
-0.6
 41
-30.0
 62
     5
 63
     7
 74
     1
 91
        4
 64
     7
 65
   257
 75
     1
175
     1
 42
1.0
 92
        8
 66
     7
 43
1.0
 76
     1
 77
     6
 78
     2
 67
     7
 79
     5
170
     0
171
     0
290
     0
174
     0
 93
        1
 44
0.0
173
     0
291
     1
 45
0.0
1001
ACAD
1000
AcDbSavedByObjectVersion
1070
     0
  0
VISUALSTYLE
  5
2B
102
{ACAD_REACTORS
330
2A
102
}
330
2A
100
AcDbVisualStyle
  2
Flat
 70
     0
 71
     2
 72
     1
 73
     1
 90
        2
 40
-0.6
 41
30.0
 62
     5
 63
     7
 74
     0
 91
        4
 64
     7
 65
   257
 75
     1
175
     1
 42
1.0
 92
        8
 66
     7
 43
1.0
 76
     1
 77
     6
 78
     2
 67
     7
 79
     5
170
     0
171
     0
290
     0
174
     0
 93
       13
 44
0.0
173
     0
291
     1
 45
0.0
1001
ACAD
1000
AcDbSavedByObjectVersion
1070
     0
  0
VISUALSTYLE
  5
2C
102
{ACAD_REACTORS
330
2A
102
}
330
2A
100
AcDbVisualStyle
  2
FlatWithEdges
 70
     1
 71
     2
 72
     1
 73
     1
 90
        2
 40
-0.6
 41
30.0
 62
     5
 63
     7
 74
     1
 91
        4
 64
     7
 65
   257
 75
     1
175
     1
 42
1.0
 92
        0
 66
   257
 43
1.0
 76
     1
 77
     6
 78
     2
 67
     7
 79
     5
170
     0
171
     0
290
     0
174
     0
 93
       13
 44
0.0
173
     0
291
     1
 45
0.0
1001
ACAD
1000
AcDbSavedByObjectVersion
1070
     0
  0
VISUALSTYLE
  5
2D
102
{ACAD_REACTORS
330
2A
102
}
330
2A
100
AcDbVisualStyle
  2
Gouraud
 70
     2
 71
     2
 72
     2
 73
     1
 90
        2
 40
-0.6
 41
30.0
 62
     5
 63
     7
 74
     0
 91
        4
 64
     7
 65
   257
 75
     1
175
     1
 42
1.0
 92
        0
 66
     7
 43
1.0
 76
     1
 77
     6
 78
     2
 67
     7
 79
     5
170
     0
171
     0
290
     0
174
     0
 93
       13
 44
0.0
173
     0
291
     1
 45
0.0
1001
ACAD
1000
AcDbSavedByObjectVersion
1070
     0
  0
VISUALSTYLE
  5
2E
102
{ACAD_REACTORS
330
2A
102
}
330
2A
100
AcDbVisualStyle
  2
GouraudWithEdges
 70
     3
 71
     2
 72
     2
 73
     1
 90
        2
 40
-0.6
 41
30.0
 62
     5
 63
     7
 74
     1
 91
        4
 64
     7
 65
   257
 75
     1
175
     1
 42
1.0
 92
        0
 66
   257
 43
1.0
 76
     1
 77
     6
 78
     2
 67
     7
 79
     5
170
     0
171
     0
290
     0
174
     0
 93
       13
 44
0.0
173
     0
291
     1
 45
0.0
1001
ACAD
1000
AcDbSavedByObjectVersion
1070
     0
  0
VISUALSTYLE
  5
38
102
{ACAD_REACTORS
330
2A
102
}
330
2A
100
AcDbVisualStyle
  2
Linepattern
 70
    14
 71
     2
 72
     2
 73
     0
 90
        0
 40
-0.6
 41
-30.0
 62
     5
 63
     7
 74
     1
 91
        4
 64
     7
 65
   257
 75
     7
175
     7
 42
1.0
 92
        8
 66
     7
 43
1.0
 76
     1
 77
     6
 78
     2
 67
     7
 79
     5
170
     0
171
     0
290
     0
174
     0
 93
        1
 44
0.0
173
     0
291
     1
 45
0.0
1001
ACAD
1000
AcDbSavedByObjectVersion
1070
     0
  0
VISUALSTYLE
  5
33
102
{ACAD_REACTORS
330
2A
102
}
330
2A
100
AcDbVisualStyle
  2
Realistic
 70
     8
 71
     2
 72
     2
 73
     0
 90
        0
 40
-0.6
 41
-30.0
 62
     5
 63
     7
 74
     1
 91
        0
 64
     7
 65
   257
 75
     1
175
     1
 42
1.0
 92
        8
 66
     8
 43
1.0
 76
     1
 77
     6
 78
     2
 67
     7
 79
     5
170
     0
171
     0
290
     0
174
     0
 93
       13
 44
0.0
173
     0
291
     0
 45
0.0
1001
ACAD
1000
AcDbSavedByObjectVersion
1070
     0
  0
VISUALSTYLE
  5
37
102
{ACAD_REACTORS
330
2A
102
}
330
2A
100
AcDbVisualStyle
  2
Thicken
 70
    13
 71
     2
 72
     2
 73
     0
 90
        0
 40
-0.6
 41
-30.0
 62
     5
 63
     7
 74
     1
 91
        4
 64
     7
 65
   257
 75
     1
175
     1
 42
1.0
 92
       12
 66
     7
 43
1.0
 76
     1
 77
     6
 78
     2
 67
     7
 79
     5
170
     0
171
     0
290
     0
174
     0
 93
        1
 44
0.0
173
     0
291
     1
 45
0.0
1001
ACAD
1000
AcDbSavedByObjectVersion
1070
     0
  0
DICTIONARYVAR
  5
164
102
{ACAD_REACTORS
330
161
102
}
330
161
100
DictionaryVariables
280
     0
  1
1:1
  0
ENDSEC
  0
EOF
