  0
SECTION
  2
HEADER
  9
$ACADVER
  1
AC1012
  9
$DWGCODEPAGE
  3
ANSI_1252
  9
$INSBASE
 10
0.0
 20
0.0
 30
0.0
  9
$EXTMIN
 10
-101.8948042247152
 20
-31.63574102525092
 30
-0.0015258207003583
  9
$EXTMAX
 10
120.04107779991
 20
81.8743904422438
 30
0.0000000349246037
  9
$LIMMIN
 10
-170.0
 20
-170.0
  9
$LIMMAX
 10
519.0
 20
260.0
  9
$ORTHOMODE
 70
     1
  9
$REGENMODE
 70
     1
  9
$FILLMODE
 70
     1
  9
$QTEXTMODE
 70
     0
  9
$MIRRTEXT
 70
     0
  9
$DRAGMODE
 70
     2
  9
$LTSCALE
 40
15.0
  9
$OSMODE
 70
     0
  9
$ATTMODE
 70
     1
  9
$TEXTSIZE
 40
4.57
  9
$TRACEWID
 40
0.05
  9
$TEXTSTYLE
  7
SIMPLEX
  9
$CLAYER
  8
SK2
  9
$CELTYPE
  6
BYLAYER
  9
$CECOLOR
 62
   256
  9
$CELTSCALE
 40
1.0
  9
$DELOBJ
 70
     1
  9
$DISPSILH
 70
     0
  9
$DIMSCALE
 40
0.0
  9
$DIMASZ
 40
4.57
  9
$DIMEXO
 40
0.0
  9
$DIMDLI
 40
0.38
  9
$DIMRND
 40
0.0
  9
$DIMDLE
 40
0.0
  9
$DIMEXE
 40
5.0
  9
$DIMTP
 40
0.0
  9
$DIMTM
 40
0.0
  9
$DIMTXT
 40
4.57
  9
$DIMCEN
 40
0.09
  9
$DIMTSZ
 40
0.0
  9
$DIMTOL
 70
     0
  9
$DIMLIM
 70
     0
  9
$DIMTIH
 70
     0
  9
$DIMTOH
 70
     0
  9
$DIMSE1
 70
     0
  9
$DIMSE2
 70
     0
  9
$DIMTAD
 70
     1
  9
$DIMZIN
 70
     8
  9
$DIMBLK
  1

  9
$DIMASO
 70
     1
  9
$DIMSHO
 70
     1
  9
$DIMPOST
  1

  9
$DIMAPOST
  1

  9
$DIMALT
 70
     0
  9
$DIMALTD
 70
     2
  9
$DIMALTF
 40
25.4
  9
$DIMLFAC
 40
1.0
  9
$DIMTOFL
 70
     0
  9
$DIMTVP
 40
0.0
  9
$DIMTIX
 70
     0
  9
$DIMSOXD
 70
     0
  9
$DIMSAH
 70
     0
  9
$DIMBLK1
  1

  9
$DIMBLK2
  1

  9
$DIMSTYLE
  2
STANDARD
  9
$DIMCLRD
 70
     0
  9
$DIMCLRE
 70
     0
  9
$DIMCLRT
 70
     0
  9
$DIMTFAC
 40
1.0
  9
$DIMGAP
 40
2.299999999999999
  9
$DIMJUST
 70
     0
  9
$DIMSD1
 70
     0
  9
$DIMSD2
 70
     0
  9
$DIMTOLJ
 70
     1
  9
$DIMTZIN
 70
     0
  9
$DIMALTZ
 70
     0
  9
$DIMALTTZ
 70
     0
  9
$DIMFIT
 70
     3
  9
$DIMUPT
 70
     0
  9
$DIMUNIT
 70
     2
  9
$DIMDEC
 70
     2
  9
$DIMTDEC
 70
     4
  9
$DIMALTU
 70
     2
  9
$DIMALTTD
 70
     2
  9
$DIMTXSTY
  7
SIMPLEX
  9
$DIMAUNIT
 70
     0
  9
$LUNITS
 70
     2
  9
$LUPREC
 70
     2
  9
$SKETCHINC
 40
0.1
  9
$FILLETRAD
 40
0.0
  9
$AUNITS
 70
     0
  9
$AUPREC
 70
     0
  9
$MENU
  1
c:\tdm21\cad\caduti13\tdm13
  9
$ELEVATION
 40
0.0
  9
$PELEVATION
 40
0.0
  9
$THICKNESS
 40
0.0
  9
$LIMCHECK
 70
     0
  9
$BLIPMODE
 70
     0
  9
$CHAMFERA
 40
0.0
  9
$CHAMFERB
 40
0.0
  9
$CHAMFERC
 40
0.0
  9
$CHAMFERD
 40
0.0
  9
$SKPOLY
 70
     0
  9
$TDCREATE
 40
2452448.761873148
  9
$TDUPDATE
 40
2452448.761873148
  9
$TDINDWG
 40
0.0027767361
  9
$TDUSRTIMER
 40
0.0027767361
  9
$USRTIMER
 70
     1
  9
$ANGBASE
 50
0.0
  9
$ANGDIR
 70
     0
  9
$PDMODE
 70
     1
  9
$PDSIZE
 40
0.0
  9
$PLINEWID
 40
0.0
  9
$COORDS
 70
     1
  9
$SPLFRAME
 70
     0
  9
$SPLINETYPE
 70
     6
  9
$SPLINESEGS
 70
     8
  9
$ATTDIA
 70
     0
  9
$ATTREQ
 70
     1
  9
$HANDLING
 70
  4097
  9
$HANDSEED
  5
78D
  9
$SURFTAB1
 70
     6
  9
$SURFTAB2
 70
     6
  9
$SURFTYPE
 70
     6
  9
$SURFU
 70
     6
  9
$SURFV
 70
     6
  9
$UCSNAME
  2

  9
$UCSORG
 10
0.0
 20
0.0
 30
0.0
  9
$UCSXDIR
 10
1.0
 20
0.0
 30
0.0
  9
$UCSYDIR
 10
0.0
 20
1.0
 30
0.0
  9
$PUCSNAME
  2

  9
$PUCSORG
 10
0.0
 20
0.0
 30
0.0
  9
$PUCSXDIR
 10
1.0
 20
0.0
 30
0.0
  9
$PUCSYDIR
 10
0.0
 20
1.0
 30
0.0
  9
$USERI1
 70
     0
  9
$USERI2
 70
     0
  9
$USERI3
 70
     0
  9
$USERI4
 70
     0
  9
$USERI5
 70
     0
  9
$USERR1
 40
0.0
  9
$USERR2
 40
0.0
  9
$USERR3
 40
0.0
  9
$USERR4
 40
0.0
  9
$USERR5
 40
0.0
  9
$WORLDVIEW
 70
     1
  9
$SHADEDGE
 70
     3
  9
$SHADEDIF
 70
    70
  9
$TILEMODE
 70
     1
  9
$MAXACTVP
 70
    16
  9
$PINSBASE
 10
0.0
 20
0.0
 30
0.0
  9
$PLIMCHECK
 70
     0
  9
$PEXTMIN
 10
0.0
 20
0.0
 30
0.0
  9
$PEXTMAX
 10
0.0
 20
0.0
 30
0.0
  9
$PLIMMIN
 10
0.0
 20
0.0
  9
$PLIMMAX
 10
12.0
 20
9.0
  9
$UNITMODE
 70
     0
  9
$VISRETAIN
 70
     0
  9
$PLINEGEN
 70
     0
  9
$PSLTSCALE
 70
     1
  9
$TREEDEPTH
 70
  3020
  9
$PICKSTYLE
 70
     1
  9
$CMLSTYLE
  2
STANDARD
  9
$CMLJUST
 70
     0
  9
$CMLSCALE
 40
1.0
  9
$SAVEIMAGES
 70
     1
  0
ENDSEC
  0
SECTION
  2
CLASSES
  0
CLASS
  1
ACDBDICTIONARYWDFLT
  2
AcDbDictionaryWithDefault
  3
AutoCAD 2000
 90
    32768
280
     0
281
     0
  0
CLASS
  1
ACDBPLACEHOLDER
  2
AcDbPlaceHolder
  3
AutoCAD 2000
 90
    32768
280
     0
281
     0
  0
CLASS
  1
LAYOUT
  2
AcDbLayout
  3
AutoCAD 2000
 90
    32768
280
     0
281
     0
  0
CLASS
  1
LONG_TRANSACTION
  2
AcDbLongTransaction
  3
AutoCAD 2000
 90
    32768
280
     0
281
     0
  0
CLASS
  1
LWPOLYLINE
  2
AcDbPolyline
  3
AutoCAD 2000
 90
    32768
280
     0
281
     1
  0
CLASS
  1
HATCH
  2
AcDbHatch
  3
AutoCAD 2000
 90
    32768
280
     0
281
     1
  0
CLASS
  1
XRECORD
  2
AcDbXrecord
  3
AutoCAD 2000
 90
    32768
280
     0
281
     0
  0
ENDSEC
  0
SECTION
  2
TABLES
  0
TABLE
  2
VPORT
  5
8
330
0
100
AcDbSymbolTable
 70
     4
  0
VPORT
  5
6D0
330
8
100
AcDbSymbolTableRecord
100
AcDbViewportTableRecord
  2
*ACTIVE
 70
     0
 10
0.0
 20
0.0
 11
1.0
 21
1.0
 12
9.073136787597382
 22
25.11932470849643
 13
0.0
 23
0.0
 14
5.0
 24
5.0
 15
5.0
 25
5.0
 16
0.0
 26
0.0
 36
1.0
 17
0.0
 27
0.0
 37
0.0
 40
123.5101314674947
 41
2.130434782608695
 42
50.0
 43
0.0
 44
0.0
 50
0.0
 51
0.0
 71
     0
 72
   100
 73
     1
 74
     1
 75
     0
 76
     0
 77
     0
 78
     0
  0
ENDTAB
  0
TABLE
  2
LTYPE
  5
5
330
0
100
AcDbSymbolTable
 70
     9
  0
LTYPE
  5
12
330
5
100
AcDbSymbolTableRecord
100
AcDbLinetypeTableRecord
  2
BYBLOCK
 70
     0
  3

 72
    65
 73
     0
 40
0.0
  0
LTYPE
  5
13
330
5
100
AcDbSymbolTableRecord
100
AcDbLinetypeTableRecord
  2
BYLAYER
 70
     0
  3

 72
    65
 73
     0
 40
0.0
  0
LTYPE
  5
14
330
5
100
AcDbSymbolTableRecord
100
AcDbLinetypeTableRecord
  2
CONTINUOUS
 70
     0
  3
Solid line
 72
    65
 73
     0
 40
0.0
  0
LTYPE
  5
1F
330
5
100
AcDbSymbolTableRecord
100
AcDbLinetypeTableRecord
  2
CENTER
 70
     0
  3
____ . ____ . ____
 72
    65
 73
     4
 40
1.5
 49
1.0
 74
     0
 49
-0.25
 74
     0
 49
0.0
 74
     0
 49
-0.25
 74
     0
  0
LTYPE
  5
20
330
5
100
AcDbSymbolTableRecord
100
AcDbLinetypeTableRecord
  2
HIDDEN
 70
     0
  3
_ _ _ _ _ _ _ _ _ _ _ _ _ _ _ _ _ _ _ _ _ _ _
 72
    65
 73
     2
 40
0.375
 49
0.25
 74
     0
 49
-0.125
 74
     0
  0
LTYPE
  5
4E0
330
5
100
AcDbSymbolTableRecord
100
AcDbLinetypeTableRecord
  2
STRICHPUNKT
 70
     0
  3
__ . __ . __ . __ . __ . __ . __ . __ . __ . __ . __ . __ . _
 72
    65
 73
     4
 40
1.0
 49
0.5
 74
     0
 49
-0.25
 74
     0
 49
0.0
 74
     0
 49
-0.25
 74
     0
  0
LTYPE
  5
4E1
330
5
100
AcDbSymbolTableRecord
100
AcDbLinetypeTableRecord
  2
GESTRICHELT
 70
     0
  3
__ __ __ __ __ __ __ __ __ __ __ __ __ __ __ __ __ __ __ __ __
 72
    65
 73
     2
 40
0.75
 49
0.5
 74
     0
 49
-0.25
 74
     0
  0
LTYPE
  5
4E2
330
5
100
AcDbSymbolTableRecord
100
AcDbLinetypeTableRecord
  2
VERDECKT
 70
     0
  3
__ __ __ __ __ __ __ __ __ __ __ __ __ __ __ __ __ __ __ __ __ 
 72
    65
 73
     2
 40
0.375
 49
0.25
 74
     0
 49
-0.125
 74
     0
  0
LTYPE
  5
4E3
330
5
100
AcDbSymbolTableRecord
100
AcDbLinetypeTableRecord
  2
PHANTOM
 70
     0
  3
______  __  __  ______  __  __  ______  __  __  ______  __  __
 72
    65
 73
     6
 40
2.5
 49
1.25
 74
     0
 49
-0.25
 74
     0
 49
0.25
 74
     0
 49
-0.25
 74
     0
 49
0.25
 74
     0
 49
-0.25
 74
     0
  0
LTYPE
  5
4E4
330
5
100
AcDbSymbolTableRecord
100
AcDbLinetypeTableRecord
  2
DASHED
 70
     0
  3
__ __ __ __ __ __ __ __ __ __ __ __ __ __ __
 72
    65
 73
     2
 40
0.75
 49
0.5
 74
     0
 49
-0.25
 74
     0
  0
LTYPE
  5
4E5
330
5
100
AcDbSymbolTableRecord
100
AcDbLinetypeTableRecord
  2
BORDER
 70
     0
  3
__ __ . __ __ . __ __ . __ __ . __ __ . __ __
 72
    65
 73
     6
 40
1.75
 49
0.5
 74
     0
 49
-0.25
 74
     0
 49
0.5
 74
     0
 49
-0.25
 74
     0
 49
0.0
 74
     0
 49
-0.25
 74
     0
  0
ENDTAB
  0
TABLE
  2
LAYER
  5
2
330
0
100
AcDbSymbolTable
 70
    16
  0
LAYER
  5
F
330
2
100
AcDbSymbolTableRecord
100
AcDbLayerTableRecord
  2
0
 70
     0
 62
    -7
  6
CONTINUOUS
  0
LAYER
  5
23
330
2
100
AcDbSymbolTableRecord
100
AcDbLayerTableRecord
  2
1
 70
     0
 62
     4
  6
CONTINUOUS
  0
LAYER
  5
24
330
2
100
AcDbSymbolTableRecord
100
AcDbLayerTableRecord
  2
SK1
 70
     0
 62
     4
  6
CONTINUOUS
  0
LAYER
  5
25
330
2
100
AcDbSymbolTableRecord
100
AcDbLayerTableRecord
  2
2
 70
     0
 62
     7
  6
CONTINUOUS
  0
LAYER
  5
26
330
2
100
AcDbSymbolTableRecord
100
AcDbLayerTableRecord
  2
2L
 70
     0
 62
     7
  6
CONTINUOUS
  0
LAYER
  5
27
330
2
100
AcDbSymbolTableRecord
100
AcDbLayerTableRecord
  2
SK2
 70
     0
 62
     7
  6
CONTINUOUS
  0
LAYER
  5
28
330
2
100
AcDbSymbolTableRecord
100
AcDbLayerTableRecord
  2
3
 70
     0
 62
     1
  6
HIDDEN
  0
LAYER
  5
29
330
2
100
AcDbSymbolTableRecord
100
AcDbLayerTableRecord
  2
SK3
 70
     0
 62
     1
  6
HIDDEN
  0
LAYER
  5
2A
330
2
100
AcDbSymbolTableRecord
100
AcDbLayerTableRecord
  2
4
 70
     0
 62
    -2
  6
CENTER
  0
LAYER
  5
2B
330
2
100
AcDbSymbolTableRecord
100
AcDbLayerTableRecord
  2
SK4
 70
     0
 62
     2
  6
CENTER
  0
LAYER
  5
2C
330
2
100
AcDbSymbolTableRecord
100
AcDbLayerTableRecord
  2
5
 70
     0
 62
    -7
  6
CONTINUOUS
  0
LAYER
  5
2D
330
2
100
AcDbSymbolTableRecord
100
AcDbLayerTableRecord
  2
6
 70
     0
 62
     5
  6
CONTINUOUS
  0
LAYER
  5
2E
330
2
100
AcDbSymbolTableRecord
100
AcDbLayerTableRecord
  2
SK6
 70
     0
 62
     5
  6
CONTINUOUS
  0
LAYER
  5
2F
330
2
100
AcDbSymbolTableRecord
100
AcDbLayerTableRecord
  2
DEFPOINTS
 70
     0
 62
    -7
  6
CONTINUOUS
  0
LAYER
  5
4E6
330
2
100
AcDbSymbolTableRecord
100
AcDbLayerTableRecord
  2
1__1
 70
     0
 62
    -1
  6
CONTINUOUS
  0
LAYER
  5
4E7
330
2
100
AcDbSymbolTableRecord
100
AcDbLayerTableRecord
  2
BEMASS
 70
     0
 62
    -1
  6
CONTINUOUS
  0
ENDTAB
  0
TABLE
  2
STYLE
  5
3
330
0
100
AcDbSymbolTable
 70
     4
  0
STYLE
  5
10
330
3
100
AcDbSymbolTableRecord
100
AcDbTextStyleTableRecord
  2
STANDARD
 70
     0
 40
0.0
 41
1.0
 50
0.0
 71
     0
 42
5.0
  3
txt
  4

  0
STYLE
  5
1D
330
3
100
AcDbSymbolTableRecord
100
AcDbTextStyleTableRecord
  2
TXT
 70
     0
 40
8.0
 41
1.0
 50
0.0
 71
     0
 42
8.0
  3
txt
  4

  0
STYLE
  5
1E
330
3
100
AcDbSymbolTableRecord
100
AcDbTextStyleTableRecord
  2
SIMPLEX
 70
     0
 40
0.0
 41
1.0
 50
0.0
 71
     0
 42
4.57
  3
simplex
  4

  0
STYLE
  5
4E8
330
3
100
AcDbSymbolTableRecord
100
AcDbTextStyleTableRecord
  2
COMPLEX
 70
     0
 40
0.0
 41
1.0
 50
0.0
 71
     0
 42
1.0
  3
TXT
  4

  0
ENDTAB
  0
TABLE
  2
VIEW
  5
6
330
0
100
AcDbSymbolTable
 70
     0
  0
ENDTAB
  0
TABLE
  2
UCS
  5
7
330
0
100
AcDbSymbolTable
 70
     0
  0
ENDTAB
  0
TABLE
  2
APPID
  5
9
330
0
100
AcDbSymbolTable
 70
     1
  0
APPID
  5
11
330
9
100
AcDbSymbolTableRecord
100
AcDbRegAppTableRecord
  2
ACAD
 70
     0
  0
ENDTAB
  0
TABLE
  2
DIMSTYLE
  5
A
330
0
100
AcDbSymbolTable
 70
     1
  0
DIMSTYLE
105
3F
102
{ACAD_REACTORS
330
554
330
5A7
330
506
330
505
330
504
330
503
102
}
330
A
100
AcDbSymbolTableRecord
100
AcDbDimStyleTableRecord
  2
STANDARD
 70
     0
  3

  4

  5

  6

  7

 40
0.0
 41
4.57
 42
0.0
 43
0.38
 44
5.0
 45
0.0
 46
0.0
 47
0.0
 48
0.0
140
4.57
141
0.09
142
0.0
143
25.4
144
1.0
145
0.0
146
1.0
147
2.299999999999999
 71
     0
 72
     0
 73
     0
 74
     0
 75
     0
 76
     0
 77
     1
 78
     8
170
     0
171
     2
172
     0
173
     0
174
     0
175
     0
176
     0
177
     0
178
     0
270
     2
271
     2
272
     4
273
     2
274
     2
340
1E
275
     0
280
     0
281
     0
282
     0
283
     1
284
     0
285
     0
286
     0
287
     3
288
     0
  0
ENDTAB
  0
TABLE
  2
BLOCK_RECORD
  5
1
330
0
100
AcDbSymbolTable
 70
    16
  0
BLOCK_RECORD
  5
18
102
{ACAD_XDICTIONARY
360
6D1
102
}
330
1
100
AcDbSymbolTableRecord
100
AcDbBlockTableRecord
  2
*MODEL_SPACE
  0
BLOCK_RECORD
  5
338
102
{ACAD_XDICTIONARY
360
6D3
102
}
330
1
100
AcDbSymbolTableRecord
100
AcDbBlockTableRecord
  2
*PAPER_SPACE
  0
BLOCK_RECORD
  5
345
330
1
100
AcDbSymbolTableRecord
100
AcDbBlockTableRecord
  2
G_F5F0
  0
BLOCK_RECORD
  5
362
330
1
100
AcDbSymbolTableRecord
100
AcDbBlockTableRecord
  2
A$C627A39D6
  0
BLOCK_RECORD
  5
39E
330
1
100
AcDbSymbolTableRecord
100
AcDbBlockTableRecord
  2
*D2
  0
BLOCK_RECORD
  5
3AA
330
1
100
AcDbSymbolTableRecord
100
AcDbBlockTableRecord
  2
*D3
  0
BLOCK_RECORD
  5
3B6
330
1
100
AcDbSymbolTableRecord
100
AcDbBlockTableRecord
  2
*D4
  0
BLOCK_RECORD
  5
3C2
330
1
100
AcDbSymbolTableRecord
100
AcDbBlockTableRecord
  2
*D5
  0
BLOCK_RECORD
  5
3CE
330
1
100
AcDbSymbolTableRecord
100
AcDbBlockTableRecord
  2
*D6
  0
BLOCK_RECORD
  5
3DC
330
1
100
AcDbSymbolTableRecord
100
AcDbBlockTableRecord
  2
MASBT40
  0
BLOCK_RECORD
  5
429
330
1
100
AcDbSymbolTableRecord
100
AcDbBlockTableRecord
  2
*D8
  0
BLOCK_RECORD
  5
435
330
1
100
AcDbSymbolTableRecord
100
AcDbBlockTableRecord
  2
*D9
  0
BLOCK_RECORD
  5
441
330
1
100
AcDbSymbolTableRecord
100
AcDbBlockTableRecord
  2
*D10
  0
BLOCK_RECORD
  5
44D
330
1
100
AcDbSymbolTableRecord
100
AcDbBlockTableRecord
  2
*D11
  0
BLOCK_RECORD
  5
45A
330
1
100
AcDbSymbolTableRecord
100
AcDbBlockTableRecord
  2
*D12
  0
BLOCK_RECORD
  5
466
330
1
100
AcDbSymbolTableRecord
100
AcDbBlockTableRecord
  2
A300M-43
  0
BLOCK_RECORD
  5
4A3
330
1
100
AcDbSymbolTableRecord
100
AcDbBlockTableRecord
  2
A305-28
  0
BLOCK_RECORD
  5
5A8
330
1
100
AcDbSymbolTableRecord
100
AcDbBlockTableRecord
  2
*D15
  0
ENDTAB
  0
ENDSEC
  0
SECTION
  2
BLOCKS
  0
BLOCK
  5
32
330
18
100
AcDbEntity
  8
0
100
AcDbBlockBegin
  2
*MODEL_SPACE
 70
     0
 10
0.0
 20
0.0
 30
0.0
  3
*MODEL_SPACE
  1

  0
ENDBLK
  5
33
330
18
100
AcDbEntity
  8
0
100
AcDbBlockEnd
  0
BLOCK
  5
339
330
338
100
AcDbEntity
 67
     1
  8
0
100
AcDbBlockBegin
  2
*PAPER_SPACE
 70
     0
 10
0.0
 20
0.0
 30
0.0
  3
*PAPER_SPACE
  1

  0
ENDBLK
  5
33A
330
338
100
AcDbEntity
 67
     1
  8
0
100
AcDbBlockEnd
  0
BLOCK
  5
360
330
345
100
AcDbEntity
  8
1__1
 62
     3
100
AcDbBlockBegin
  2
G_F5F0
 70
     0
 10
0.0
 20
0.0
 30
0.0
  3
G_F5F0
  1

  0
LINE
  5
346
330
345
100
AcDbEntity
  8
1__1
  6
CONTINUOUS
 62
     3
100
AcDbLine
 10
0.0
 20
0.0
 30
0.0
 11
5.75
 21
0.0
 31
0.0
  0
ARC
  5
347
330
345
100
AcDbEntity
  8
1__1
  6
CONTINUOUS
 62
     3
100
AcDbCircle
 10
5.75
 20
-1.0
 30
0.0
 40
1.0
100
AcDbArc
 50
44.999996
 51
89.99977900000001
  0
LINE
  5
348
330
345
100
AcDbEntity
  8
1__1
  6
CONTINUOUS
 62
     3
100
AcDbLine
 10
6.459999999999999
 20
-0.29
 30
0.0
 11
10.36999999999999
 21
-4.209999999999999
 31
0.0
  0
ARC
  5
349
330
345
100
AcDbEntity
  8
1__1
  6
CONTINUOUS
 62
     3
100
AcDbCircle
 10
11.06999999999999
 20
-3.5
 30
0.0
 40
1.0
100
AcDbArc
 50
224.82988
 51
269.758698
  0
LINE
  5
34A
330
345
100
AcDbEntity
  8
1__1
  6
CONTINUOUS
 62
     3
100
AcDbLine
 10
11.08
 20
-4.5
 30
0.0
 11
25.3
 21
-4.5
 31
0.0
  0
LINE
  5
34B
330
345
100
AcDbEntity
  8
1__1
  6
CONTINUOUS
 62
     3
100
AcDbLine
 10
25.28999999999999
 20
-4.5
 30
0.0
 11
26.16
 21
-6.0
 31
0.0
  0
LINE
  5
34C
330
345
100
AcDbEntity
  8
1__1
  6
CONTINUOUS
 62
     3
100
AcDbLine
 10
26.17
 20
-6.0
 30
0.0
 11
26.17
 21
-6.419999999999999
 31
0.0
  0
LINE
  5
34D
330
345
100
AcDbEntity
  8
1__1
  6
CONTINUOUS
 62
     3
100
AcDbLine
 10
26.16
 20
-6.419999999999999
 30
0.0
 11
25.25
 21
-7.129999999999999
 31
0.0
  0
LINE
  5
34E
330
345
100
AcDbEntity
  8
1__1
  6
CONTINUOUS
 62
     3
100
AcDbLine
 10
25.25
 20
-7.129999999999999
 30
0.0
 11
3.029999999999999
 21
-10.25
 31
0.0
  0
LINE
  5
34F
330
345
100
AcDbEntity
  8
1__1
  6
CONTINUOUS
 62
     3
100
AcDbLine
 10
3.04
 20
-10.25
 30
0.0
 11
-0.84
 21
-10.25
 31
0.0
  0
LINE
  5
350
330
345
100
AcDbEntity
  8
1__1
  6
CONTINUOUS
 62
     3
100
AcDbLine
 10
-0.84
 20
-10.25
 30
0.0
 11
-0.7700000000000001
 21
-8.259999999999999
 31
0.0
  0
LINE
  5
351
330
345
100
AcDbEntity
  8
1__1
  6
CONTINUOUS
 62
     3
100
AcDbLine
 10
-0.7700000000000001
 20
-8.259999999999999
 30
0.0
 11
-0.9099999999999999
 21
-5.87
 31
0.0
  0
LINE
  5
352
330
345
100
AcDbEntity
  8
1__1
  6
CONTINUOUS
 62
     3
100
AcDbLine
 10
-0.9099999999999999
 20
-5.87
 30
0.0
 11
-0.5600000000000001
 21
-2.91
 31
0.0
  0
LINE
  5
353
330
345
100
AcDbEntity
  8
1__1
  6
CONTINUOUS
 62
     3
100
AcDbLine
 10
-0.5600000000000001
 20
-2.91
 30
0.0
 11
0.0
 21
0.0
 31
0.0
  0
LINE
  5
354
330
345
100
AcDbEntity
  8
1__1
  6
CONTINUOUS
 62
     3
100
AcDbLine
 10
0.21
 20
-34.0
 30
0.0
 11
5.74
 21
-34.0
 31
0.0
  0
ARC
  5
355
330
345
100
AcDbEntity
  8
1__1
  6
CONTINUOUS
 62
     3
100
AcDbCircle
 10
5.75
 20
-33.0
 30
0.0
 40
1.0
100
AcDbArc
 50
270.003052
 51
315.004028
  0
LINE
  5
356
330
345
100
AcDbEntity
  8
1__1
  6
CONTINUOUS
 62
     3
100
AcDbLine
 10
6.45
 20
-33.71
 30
0.0
 11
10.36
 21
-29.79
 31
0.0
  0
ARC
  5
357
330
345
100
AcDbEntity
  8
1__1
  6
CONTINUOUS
 62
     3
100
AcDbCircle
 10
11.06
 20
-30.5
 30
0.0
 40
1.0
100
AcDbArc
 50
89.668869
 51
134.7655179999999
  0
LINE
  5
358
330
345
100
AcDbEntity
  8
1__1
  6
CONTINUOUS
 62
     3
100
AcDbLine
 10
11.06999999999999
 20
-29.5
 30
0.0
 11
25.28999999999999
 21
-29.5
 31
0.0
  0
LINE
  5
359
330
345
100
AcDbEntity
  8
1__1
  6
CONTINUOUS
 62
     3
100
AcDbLine
 10
25.28999999999999
 20
-29.5
 30
0.0
 11
26.16
 21
-28.0
 31
0.0
  0
LINE
  5
35A
330
345
100
AcDbEntity
  8
1__1
  6
CONTINUOUS
 62
     3
100
AcDbLine
 10
26.16
 20
-28.01
 30
0.0
 11
26.16
 21
-27.59
 31
0.0
  0
LINE
  5
35B
330
345
100
AcDbEntity
  8
1__1
  6
CONTINUOUS
 62
     3
100
AcDbLine
 10
26.16
 20
-27.58
 30
0.0
 11
25.25
 21
-26.87
 31
0.0
  0
LINE
  5
35C
330
345
100
AcDbEntity
  8
1__1
  6
CONTINUOUS
 62
     3
100
AcDbLine
 10
25.25
 20
-26.87
 30
0.0
 11
3.029999999999999
 21
-23.75
 31
0.0
  0
LINE
  5
35D
330
345
100
AcDbEntity
  8
1__1
  6
CONTINUOUS
 62
     3
100
AcDbLine
 10
3.04
 20
-23.75
 30
0.0
 11
-1.62
 21
-23.75
 31
0.0
  0
LINE
  5
35E
330
345
100
AcDbEntity
  8
1__1
  6
CONTINUOUS
 62
     3
100
AcDbLine
 10
-1.62
 20
-23.75
 30
0.0
 11
-0.21
 21
-29.82
 31
0.0
  0
LINE
  5
35F
330
345
100
AcDbEntity
  8
1__1
  6
CONTINUOUS
 62
     3
100
AcDbLine
 10
-0.21
 20
-29.82
 30
0.0
 11
0.21
 21
-34.0
 31
0.0
  0
ENDBLK
  5
361
330
345
100
AcDbEntity
  8
0
100
AcDbBlockEnd
  0
BLOCK
  5
39C
330
362
100
AcDbEntity
  8
0
100
AcDbBlockBegin
  2
A$C627A39D6
 70
     0
 10
0.0
 20
0.0
 30
0.0
  3
A$C627A39D6
  1

  0
POLYLINE
  5
363
330
362
100
AcDbEntity
  8
1__1
  6
CONTINUOUS
 62
     7
100
AcDb2dPolyline
 66
     1
 10
0.0
 20
0.0
 30
0.0
  0
VERTEX
  5
6D5
330
363
100
AcDbEntity
  8
1__1
  6
CONTINUOUS
 62
     7
100
AcDbVertex
100
AcDb2dVertex
 10
-26.58
 20
12.5
 30
0.0
  0
VERTEX
  5
6D6
330
363
100
AcDbEntity
  8
1__1
  6
CONTINUOUS
 62
     7
100
AcDbVertex
100
AcDb2dVertex
 10
-12.36
 20
12.5
 30
0.0
  0
SEQEND
  5
6D7
330
363
100
AcDbEntity
  8
1__1
  6
CONTINUOUS
 62
     7
  0
POLYLINE
  5
364
330
362
100
AcDbEntity
  8
1__1
  6
CONTINUOUS
 62
     7
100
AcDb2dPolyline
 66
     1
 10
0.0
 20
0.0
 30
0.0
  0
VERTEX
  5
6D8
330
364
100
AcDbEntity
  8
1__1
  6
CONTINUOUS
 62
     7
100
AcDbVertex
100
AcDb2dVertex
 10
-26.59000000000001
 20
-12.5
 30
0.0
  0
VERTEX
  5
6D9
330
364
100
AcDbEntity
  8
1__1
  6
CONTINUOUS
 62
     7
100
AcDbVertex
100
AcDb2dVertex
 10
-12.37
 20
-12.5
 30
0.0
  0
SEQEND
  5
6DA
330
364
100
AcDbEntity
  8
1__1
  6
CONTINUOUS
 62
     7
  0
POLYLINE
  5
365
330
362
100
AcDbEntity
  8
1__1
  6
CONTINUOUS
 62
     3
100
AcDb2dPolyline
 66
     1
 10
0.0
 20
0.0
 30
0.0
  0
VERTEX
  5
6DB
330
365
100
AcDbEntity
  8
1__1
  6
CONTINUOUS
 62
     3
100
AcDbVertex
100
AcDb2dVertex
 10
-11.90000000000001
 20
11.7
 30
0.0
  0
VERTEX
  5
6DC
330
365
100
AcDbEntity
  8
1__1
  6
CONTINUOUS
 62
     3
100
AcDbVertex
100
AcDb2dVertex
 10
-25.5
 20
11.7
 30
0.0
  0
VERTEX
  5
6DD
330
365
100
AcDbEntity
  8
1__1
  6
CONTINUOUS
 62
     3
100
AcDbVertex
100
AcDb2dVertex
 10
-25.5
 20
12.5
 30
0.0
  0
SEQEND
  5
6DE
330
365
100
AcDbEntity
  8
1__1
  6
CONTINUOUS
 62
     3
  0
POLYLINE
  5
366
330
362
100
AcDbEntity
  8
1__1
  6
CONTINUOUS
 62
     7
100
AcDb2dPolyline
 66
     1
 10
0.0
 20
0.0
 30
0.0
  0
VERTEX
  5
6DF
330
366
100
AcDbEntity
  8
1__1
  6
CONTINUOUS
 62
     7
100
AcDbVertex
100
AcDb2dVertex
 10
-12.41
 20
9.869999999999997
 30
0.0
  0
VERTEX
  5
6E0
330
366
100
AcDbEntity
  8
1__1
  6
CONTINUOUS
 62
     7
100
AcDbVertex
100
AcDb2dVertex
 10
-34.63
 20
6.75
 30
0.0
  0
SEQEND
  5
6E1
330
366
100
AcDbEntity
  8
1__1
  6
CONTINUOUS
 62
     7
  0
POLYLINE
  5
367
330
362
100
AcDbEntity
  8
1__1
  6
CONTINUOUS
 62
     7
100
AcDb2dPolyline
 66
     1
 10
0.0
 20
0.0
 30
0.0
  0
VERTEX
  5
6E2
330
367
100
AcDbEntity
  8
1__1
  6
CONTINUOUS
 62
     7
100
AcDbVertex
100
AcDb2dVertex
 10
-12.41
 20
-9.87
 30
0.0
  0
VERTEX
  5
6E3
330
367
100
AcDbEntity
  8
1__1
  6
CONTINUOUS
 62
     7
100
AcDbVertex
100
AcDb2dVertex
 10
-34.63
 20
-6.75
 30
0.0
  0
SEQEND
  5
6E4
330
367
100
AcDbEntity
  8
1__1
  6
CONTINUOUS
 62
     7
  0
POLYLINE
  5
368
330
362
100
AcDbEntity
  8
1__1
  6
CONTINUOUS
 62
     3
100
AcDb2dPolyline
 66
     1
 10
0.0
 20
0.0
 30
0.0
  0
VERTEX
  5
6E5
330
368
100
AcDbEntity
  8
1__1
  6
CONTINUOUS
 62
     3
100
AcDbVertex
100
AcDb2dVertex
 10
-11.90000000000001
 20
-11.69999999999999
 30
0.0
  0
VERTEX
  5
6E6
330
368
100
AcDbEntity
  8
1__1
  6
CONTINUOUS
 62
     3
100
AcDbVertex
100
AcDb2dVertex
 10
-25.5
 20
-11.69999999999999
 30
0.0
  0
VERTEX
  5
6E7
330
368
100
AcDbEntity
  8
1__1
  6
CONTINUOUS
 62
     3
100
AcDbVertex
100
AcDb2dVertex
 10
-25.5
 20
-12.5
 30
0.0
  0
SEQEND
  5
6E8
330
368
100
AcDbEntity
  8
1__1
  6
CONTINUOUS
 62
     3
  0
POLYLINE
  5
369
330
362
100
AcDbEntity
  8
1__1
  6
STRICHPUNKT
 62
     3
100
AcDb2dPolyline
 66
     1
 10
0.0
 20
0.0
 30
0.0
  0
VERTEX
  5
6E9
330
369
100
AcDbEntity
  8
1__1
  6
STRICHPUNKT
 62
     3
100
AcDbVertex
100
AcDb2dVertex
 10
-19.0
 20
12.5
 30
0.0
  0
VERTEX
  5
6EA
330
369
100
AcDbEntity
  8
1__1
  6
STRICHPUNKT
 62
     3
100
AcDbVertex
100
AcDb2dVertex
 10
-19.0
 20
17.0
 30
0.0
  0
VERTEX
  5
6EB
330
369
100
AcDbEntity
  8
1__1
  6
STRICHPUNKT
 62
     3
100
AcDbVertex
100
AcDb2dVertex
 10
-0.0000000000000071
 20
17.0
 30
0.0
  0
VERTEX
  5
6EC
330
369
100
AcDbEntity
  8
1__1
  6
STRICHPUNKT
 62
     3
100
AcDbVertex
100
AcDb2dVertex
 10
-0.0000000000000071
 20
-17.0
 30
0.0
  0
VERTEX
  5
6ED
330
369
100
AcDbEntity
  8
1__1
  6
STRICHPUNKT
 62
     3
100
AcDbVertex
100
AcDb2dVertex
 10
-19.0
 20
-17.0
 30
0.0
  0
VERTEX
  5
6EE
330
369
100
AcDbEntity
  8
1__1
  6
STRICHPUNKT
 62
     3
100
AcDbVertex
100
AcDb2dVertex
 10
-19.0
 20
-12.5
 30
0.0
  0
VERTEX
  5
6EF
330
369
100
AcDbEntity
  8
1__1
  6
STRICHPUNKT
 62
     3
100
AcDbVertex
100
AcDb2dVertex
 10
-11.87
 20
-12.5
 30
0.0
  0
VERTEX
  5
6F0
330
369
100
AcDbEntity
  8
1__1
  6
STRICHPUNKT
 62
     3
100
AcDbVertex
100
AcDb2dVertex
 10
-11.40000000000001
 20
-11.69999999999999
 30
0.0
  0
VERTEX
  5
6F1
330
369
100
AcDbEntity
  8
1__1
  6
STRICHPUNKT
 62
     3
100
AcDbVertex
100
AcDb2dVertex
 10
-6.030000000000008
 20
-11.69999999999999
 30
0.0
  0
VERTEX
  5
6F2
330
369
100
AcDbEntity
  8
1__1
  6
STRICHPUNKT
 62
     3
100
AcDbVertex
100
AcDb2dVertex
 10
-6.030000000000008
 20
11.7
 30
0.0
  0
VERTEX
  5
6F3
330
369
100
AcDbEntity
  8
1__1
  6
STRICHPUNKT
 62
     3
100
AcDbVertex
100
AcDb2dVertex
 10
-11.40000000000001
 20
11.7
 30
0.0
  0
VERTEX
  5
6F4
330
369
100
AcDbEntity
  8
1__1
  6
STRICHPUNKT
 62
     3
100
AcDbVertex
100
AcDb2dVertex
 10
-11.87
 20
12.5
 30
0.0
  0
VERTEX
  5
6F5
330
369
100
AcDbEntity
  8
1__1
  6
STRICHPUNKT
 62
     3
100
AcDbVertex
100
AcDb2dVertex
 10
-19.0
 20
12.5
 30
0.0
  0
SEQEND
  5
6F6
330
369
100
AcDbEntity
  8
1__1
  6
STRICHPUNKT
 62
     3
  0
INSERT
  5
36A
330
362
100
AcDbEntity
  8
1__1
 62
     3
100
AcDbBlockReference
  2
G_F5F0
 10
-37.66000000000001
 20
17.0
 30
0.0
  0
POLYLINE
  5
36B
330
362
100
AcDbEntity
  8
1__1
  6
CONTINUOUS
 62
     3
100
AcDb2dPolyline
 66
     1
 10
0.0
 20
0.0
 30
0.0
  0
VERTEX
  5
6F7
330
36B
100
AcDbEntity
  8
1__1
  6
CONTINUOUS
 62
     3
100
AcDbVertex
100
AcDb2dVertex
 10
-18.79
 20
-12.5
 30
0.0
  0
VERTEX
  5
6F8
330
36B
100
AcDbEntity
  8
1__1
  6
CONTINUOUS
 62
     3
100
AcDbVertex
100
AcDb2dVertex
 10
-15.7
 20
-9.41
 30
0.0
  0
SEQEND
  5
6F9
330
36B
100
AcDbEntity
  8
1__1
  6
CONTINUOUS
 62
     3
  0
POLYLINE
  5
36C
330
362
100
AcDbEntity
  8
1__1
  6
CONTINUOUS
 62
     3
100
AcDb2dPolyline
 66
     1
 10
0.0
 20
0.0
 30
0.0
  0
VERTEX
  5
6FA
330
36C
100
AcDbEntity
  8
1__1
  6
CONTINUOUS
 62
     3
100
AcDbVertex
100
AcDb2dVertex
 10
-38.33
 20
-10.82999999999999
 30
0.0
  0
VERTEX
  5
6FB
330
36C
100
AcDbEntity
  8
1__1
  6
CONTINUOUS
 62
     3
100
AcDbVertex
100
AcDb2dVertex
 10
-34.30000000000001
 20
-6.799999999999997
 30
0.0
  0
SEQEND
  5
6FC
330
36C
100
AcDbEntity
  8
1__1
  6
CONTINUOUS
 62
     3
  0
POLYLINE
  5
36D
330
362
100
AcDbEntity
  8
1__1
  6
CONTINUOUS
 62
     3
100
AcDb2dPolyline
 66
     1
 10
0.0
 20
0.0
 30
0.0
  0
VERTEX
  5
6FD
330
36D
100
AcDbEntity
  8
1__1
  6
CONTINUOUS
 62
     3
100
AcDbVertex
100
AcDb2dVertex
 10
-37.71
 20
-14.44
 30
0.0
  0
VERTEX
  5
6FE
330
36D
100
AcDbEntity
  8
1__1
  6
CONTINUOUS
 62
     3
100
AcDbVertex
100
AcDb2dVertex
 10
-30.58
 20
-7.32
 30
0.0
  0
SEQEND
  5
6FF
330
36D
100
AcDbEntity
  8
1__1
  6
CONTINUOUS
 62
     3
  0
POLYLINE
  5
36E
330
362
100
AcDbEntity
  8
1__1
  6
CONTINUOUS
 62
     3
100
AcDb2dPolyline
 66
     1
 10
0.0
 20
0.0
 30
0.0
  0
VERTEX
  5
700
330
36E
100
AcDbEntity
  8
1__1
  6
CONTINUOUS
 62
     3
100
AcDbVertex
100
AcDb2dVertex
 10
-36.02000000000001
 20
-17.0
 30
0.0
  0
VERTEX
  5
701
330
36E
100
AcDbEntity
  8
1__1
  6
CONTINUOUS
 62
     3
100
AcDbVertex
100
AcDb2dVertex
 10
-26.86
 20
-7.839999999999999
 30
0.0
  0
SEQEND
  5
702
330
36E
100
AcDbEntity
  8
1__1
  6
CONTINUOUS
 62
     3
  0
POLYLINE
  5
36F
330
362
100
AcDbEntity
  8
1__1
  6
CONTINUOUS
 62
     3
100
AcDb2dPolyline
 66
     1
 10
0.0
 20
0.0
 30
0.0
  0
VERTEX
  5
703
330
36F
100
AcDbEntity
  8
1__1
  6
CONTINUOUS
 62
     3
100
AcDbVertex
100
AcDb2dVertex
 10
-31.77000000000001
 20
-16.98999999999999
 30
0.0
  0
VERTEX
  5
704
330
36F
100
AcDbEntity
  8
1__1
  6
CONTINUOUS
 62
     3
100
AcDbVertex
100
AcDb2dVertex
 10
-23.14
 20
-8.359999999999999
 30
0.0
  0
SEQEND
  5
705
330
36F
100
AcDbEntity
  8
1__1
  6
CONTINUOUS
 62
     3
  0
POLYLINE
  5
370
330
362
100
AcDbEntity
  8
1__1
  6
CONTINUOUS
 62
     3
100
AcDb2dPolyline
 66
     1
 10
0.0
 20
0.0
 30
0.0
  0
VERTEX
  5
706
330
370
100
AcDbEntity
  8
1__1
  6
CONTINUOUS
 62
     3
100
AcDbVertex
100
AcDb2dVertex
 10
-39.28
 20
-6.75
 30
0.0
  0
VERTEX
  5
707
330
370
100
AcDbEntity
  8
1__1
  6
CONTINUOUS
 62
     3
100
AcDbVertex
100
AcDb2dVertex
 10
-37.87
 20
-12.82
 30
0.0
  0
VERTEX
  5
708
330
370
100
AcDbEntity
  8
1__1
  6
CONTINUOUS
 62
     3
100
AcDbVertex
100
AcDb2dVertex
 10
-37.45
 20
-17.0
 30
0.0
  0
SEQEND
  5
709
330
370
100
AcDbEntity
  8
1__1
  6
CONTINUOUS
 62
     3
  0
POLYLINE
  5
371
330
362
100
AcDbEntity
  8
1__1
  6
CONTINUOUS
 62
     7
100
AcDb2dPolyline
 66
     1
 10
0.0
 20
0.0
 30
0.0
  0
VERTEX
  5
70A
330
371
100
AcDbEntity
  8
1__1
  6
CONTINUOUS
 62
     7
100
AcDbVertex
100
AcDb2dVertex
 10
-37.45
 20
-17.0
 30
0.0
  0
VERTEX
  5
70B
330
371
100
AcDbEntity
  8
1__1
  6
CONTINUOUS
 62
     7
100
AcDbVertex
100
AcDb2dVertex
 10
-31.92000000000001
 20
-17.0
 30
0.0
  0
SEQEND
  5
70C
330
371
100
AcDbEntity
  8
1__1
  6
CONTINUOUS
 62
     7
  0
ARC
  5
372
330
362
100
AcDbEntity
  8
1__1
  6
CONTINUOUS
 62
     7
100
AcDbCircle
 10
-40.0
 20
-20.0
 30
0.0
 40
3.0
100
AcDbArc
 50
90.00000800000002
 51
180.0
  0
POLYLINE
  5
373
330
362
100
AcDbEntity
  8
1__1
  6
CONTINUOUS
 62
     7
100
AcDb2dPolyline
 66
     1
 10
0.0
 20
0.0
 30
0.0
  0
VERTEX
  5
70D
330
373
100
AcDbEntity
  8
1__1
  6
CONTINUOUS
 62
     7
100
AcDbVertex
100
AcDb2dVertex
 10
-40.0
 20
-17.0
 30
0.0
  0
VERTEX
  5
70E
330
373
100
AcDbEntity
  8
1__1
  6
CONTINUOUS
 62
     7
100
AcDbVertex
100
AcDb2dVertex
 10
-37.45
 20
-17.0
 30
0.0
  0
SEQEND
  5
70F
330
373
100
AcDbEntity
  8
1__1
  6
CONTINUOUS
 62
     7
  0
POLYLINE
  5
374
330
362
100
AcDbEntity
  8
1__1
  6
CONTINUOUS
 62
     7
100
AcDb2dPolyline
 66
     1
 10
0.0
 20
0.0
 30
0.0
  0
VERTEX
  5
710
330
374
100
AcDbEntity
  8
1__1
  6
CONTINUOUS
 62
     7
100
AcDbVertex
100
AcDb2dVertex
 10
-31.21
 20
-16.71
 30
0.0
  0
VERTEX
  5
711
330
374
100
AcDbEntity
  8
1__1
  6
CONTINUOUS
 62
     7
100
AcDbVertex
100
AcDb2dVertex
 10
-27.30000000000001
 20
-12.78999999999999
 30
0.0
  0
SEQEND
  5
712
330
374
100
AcDbEntity
  8
1__1
  6
CONTINUOUS
 62
     7
  0
ARC
  5
375
330
362
100
AcDbEntity
  8
1__1
  6
CONTINUOUS
 62
     7
100
AcDbCircle
 10
-31.91000000000001
 20
-16.0
 30
0.0
 40
1.0
100
AcDbArc
 50
270.0
 51
314.9999390000002
  0
ARC
  5
376
330
362
100
AcDbEntity
  8
1__1
  6
CONTINUOUS
 62
     7
100
AcDbCircle
 10
-26.59000000000001
 20
-13.5
 30
0.0
 40
1.0
100
AcDbArc
 50
90.0
 51
134.999969
  0
POLYLINE
  5
377
330
362
100
AcDbEntity
  8
1__1
  6
CONTINUOUS
 62
     3
100
AcDb2dPolyline
 66
     1
 10
0.0
 20
0.0
 30
0.0
  0
VERTEX
  5
713
330
377
100
AcDbEntity
  8
1__1
  6
CONTINUOUS
 62
     3
100
AcDbVertex
100
AcDb2dVertex
 10
-23.04
 20
-12.5
 30
0.0
  0
VERTEX
  5
714
330
377
100
AcDbEntity
  8
1__1
  6
CONTINUOUS
 62
     3
100
AcDbVertex
100
AcDb2dVertex
 10
-19.42000000000001
 20
-8.89
 30
0.0
  0
SEQEND
  5
715
330
377
100
AcDbEntity
  8
1__1
  6
CONTINUOUS
 62
     3
  0
POLYLINE
  5
378
330
362
100
AcDbEntity
  8
1__1
  6
CONTINUOUS
 62
     7
100
AcDb2dPolyline
 66
     1
 10
0.0
 20
0.0
 30
0.0
  0
VERTEX
  5
716
330
378
100
AcDbEntity
  8
1__1
  6
CONTINUOUS
 62
     7
100
AcDbVertex
100
AcDb2dVertex
 10
-37.66000000000001
 20
17.0
 30
0.0
  0
VERTEX
  5
717
330
378
100
AcDbEntity
  8
1__1
  6
CONTINUOUS
 62
     7
100
AcDbVertex
100
AcDb2dVertex
 10
-31.91000000000001
 20
17.0
 30
0.0
  0
SEQEND
  5
718
330
378
100
AcDbEntity
  8
1__1
  6
CONTINUOUS
 62
     7
  0
POLYLINE
  5
379
330
362
100
AcDbEntity
  8
1__1
  6
CONTINUOUS
 62
     3
100
AcDb2dPolyline
 66
     1
 10
0.0
 20
0.0
 30
0.0
  0
VERTEX
  5
719
330
379
100
AcDbEntity
  8
1__1
  6
CONTINUOUS
 62
     3
100
AcDbVertex
100
AcDb2dVertex
 10
-38.52000000000001
 20
10.2
 30
0.0
  0
VERTEX
  5
71A
330
379
100
AcDbEntity
  8
1__1
  6
CONTINUOUS
 62
     3
100
AcDbVertex
100
AcDb2dVertex
 10
-31.73000000000001
 20
16.97999999999999
 30
0.0
  0
SEQEND
  5
71B
330
379
100
AcDbEntity
  8
1__1
  6
CONTINUOUS
 62
     3
  0
POLYLINE
  5
37A
330
362
100
AcDbEntity
  8
1__1
  6
CONTINUOUS
 62
     3
100
AcDb2dPolyline
 66
     1
 10
0.0
 20
0.0
 30
0.0
  0
VERTEX
  5
71C
330
37A
100
AcDbEntity
  8
1__1
  6
CONTINUOUS
 62
     3
100
AcDbVertex
100
AcDb2dVertex
 10
-37.73000000000001
 20
6.75
 30
0.0
  0
VERTEX
  5
71D
330
37A
100
AcDbEntity
  8
1__1
  6
CONTINUOUS
 62
     3
100
AcDbVertex
100
AcDb2dVertex
 10
-29.49000000000001
 20
14.99
 30
0.0
  0
SEQEND
  5
71E
330
37A
100
AcDbEntity
  8
1__1
  6
CONTINUOUS
 62
     3
  0
POLYLINE
  5
37B
330
362
100
AcDbEntity
  8
1__1
  6
CONTINUOUS
 62
     3
100
AcDb2dPolyline
 66
     1
 10
0.0
 20
0.0
 30
0.0
  0
VERTEX
  5
71F
330
37B
100
AcDbEntity
  8
1__1
  6
CONTINUOUS
 62
     3
100
AcDbVertex
100
AcDb2dVertex
 10
-37.66000000000001
 20
17.0
 30
0.0
  0
VERTEX
  5
720
330
37B
100
AcDbEntity
  8
1__1
  6
CONTINUOUS
 62
     3
100
AcDbVertex
100
AcDb2dVertex
 10
-38.22
 20
14.09
 30
0.0
  0
VERTEX
  5
721
330
37B
100
AcDbEntity
  8
1__1
  6
CONTINUOUS
 62
     3
100
AcDbVertex
100
AcDb2dVertex
 10
-38.57000000000001
 20
11.13
 30
0.0
  0
VERTEX
  5
722
330
37B
100
AcDbEntity
  8
1__1
  6
CONTINUOUS
 62
     3
100
AcDbVertex
100
AcDb2dVertex
 10
-38.43
 20
8.740000000000001
 30
0.0
  0
VERTEX
  5
723
330
37B
100
AcDbEntity
  8
1__1
  6
CONTINUOUS
 62
     3
100
AcDbVertex
100
AcDb2dVertex
 10
-38.50000000000001
 20
6.75
 30
0.0
  0
SEQEND
  5
724
330
37B
100
AcDbEntity
  8
1__1
  6
CONTINUOUS
 62
     3
  0
LINE
  5
37C
330
362
100
AcDbEntity
  8
1__1
  6
CONTINUOUS
 62
     7
100
AcDbLine
 10
-34.62
 20
6.75
 30
0.0
 11
-34.62
 21
-6.75
 31
0.0
  0
POLYLINE
  5
37D
330
362
100
AcDbEntity
  8
1__1
  6
CONTINUOUS
 62
     3
100
AcDb2dPolyline
 66
     1
 10
0.0
 20
0.0
 30
0.0
  0
VERTEX
  5
725
330
37D
100
AcDbEntity
  8
1__1
  6
CONTINUOUS
 62
     3
100
AcDbVertex
100
AcDb2dVertex
 10
-38.50000000000001
 20
6.75
 30
0.0
  0
VERTEX
  5
726
330
37D
100
AcDbEntity
  8
1__1
  6
CONTINUOUS
 62
     3
100
AcDbVertex
100
AcDb2dVertex
 10
-38.86000000000001
 20
4.090000000000003
 30
0.0
  0
VERTEX
  5
727
330
37D
100
AcDbEntity
  8
1__1
  6
CONTINUOUS
 62
     3
100
AcDbVertex
100
AcDb2dVertex
 10
-39.77000000000001
 20
-2.530000000000001
 30
0.0
  0
VERTEX
  5
728
330
37D
100
AcDbEntity
  8
1__1
  6
CONTINUOUS
 62
     3
100
AcDbVertex
100
AcDb2dVertex
 10
-39.28
 20
-6.75
 30
0.0
  0
SEQEND
  5
729
330
37D
100
AcDbEntity
  8
1__1
  6
CONTINUOUS
 62
     3
  0
LINE
  5
37E
330
362
100
AcDbEntity
  8
1__1
  6
CONTINUOUS
 62
     7
100
AcDbLine
 10
-34.62
 20
-6.75
 30
0.0
 11
-39.28
 21
-6.75
 31
0.0
  0
POLYLINE
  5
37F
330
362
100
AcDbEntity
  8
1__1
  6
CONTINUOUS
 62
     3
100
AcDb2dPolyline
 66
     1
 10
0.0
 20
0.0
 30
0.0
  0
VERTEX
  5
72A
330
37F
100
AcDbEntity
  8
1__1
  6
CONTINUOUS
 62
     3
100
AcDbVertex
100
AcDb2dVertex
 10
-39.13000000000001
 20
-7.380000000000002
 30
0.0
  0
VERTEX
  5
72B
330
37F
100
AcDbEntity
  8
1__1
  6
CONTINUOUS
 62
     3
100
AcDbVertex
100
AcDb2dVertex
 10
-38.50000000000001
 20
-6.75
 30
0.0
  0
SEQEND
  5
72C
330
37F
100
AcDbEntity
  8
1__1
  6
CONTINUOUS
 62
     3
  0
LINE
  5
380
330
362
100
AcDbEntity
  8
1__1
  6
CONTINUOUS
 62
     7
100
AcDbLine
 10
-34.62
 20
6.75
 30
0.0
 11
-38.50000000000001
 21
6.75
 31
0.0
  0
ARC
  5
381
330
362
100
AcDbEntity
  8
1__1
  6
CONTINUOUS
 62
     7
100
AcDbCircle
 10
-40.0
 20
20.0
 30
0.0
 40
3.0
100
AcDbArc
 50
180.0000149999998
 51
270.0
  0
POLYLINE
  5
382
330
362
100
AcDbEntity
  8
1__1
  6
CONTINUOUS
 62
     3
100
AcDb2dPolyline
 66
     1
 10
0.0
 20
0.0
 30
0.0
  0
VERTEX
  5
72D
330
382
100
AcDbEntity
  8
1__1
  6
CONTINUOUS
 62
     3
100
AcDbVertex
100
AcDb2dVertex
 10
-38.06
 20
14.9
 30
0.0
  0
VERTEX
  5
72E
330
382
100
AcDbEntity
  8
1__1
  6
CONTINUOUS
 62
     3
100
AcDbVertex
100
AcDb2dVertex
 10
-35.96
 20
17.0
 30
0.0
  0
SEQEND
  5
72F
330
382
100
AcDbEntity
  8
1__1
  6
CONTINUOUS
 62
     3
  0
POLYLINE
  5
383
330
362
100
AcDbEntity
  8
1__1
  6
CONTINUOUS
 62
     7
100
AcDb2dPolyline
 66
     1
 10
0.0
 20
0.0
 30
0.0
  0
VERTEX
  5
730
330
383
100
AcDbEntity
  8
1__1
  6
CONTINUOUS
 62
     7
100
AcDbVertex
100
AcDb2dVertex
 10
-39.99
 20
17.0
 30
0.0
  0
VERTEX
  5
731
330
383
100
AcDbEntity
  8
1__1
  6
CONTINUOUS
 62
     7
100
AcDbVertex
100
AcDb2dVertex
 10
-37.66000000000001
 20
17.0
 30
0.0
  0
SEQEND
  5
732
330
383
100
AcDbEntity
  8
1__1
  6
CONTINUOUS
 62
     7
  0
POLYLINE
  5
384
330
362
100
AcDbEntity
  8
1__1
  6
CONTINUOUS
 62
     3
100
AcDb2dPolyline
 66
     1
 10
0.0
 20
0.0
 30
0.0
  0
VERTEX
  5
733
330
384
100
AcDbEntity
  8
1__1
  6
CONTINUOUS
 62
     3
100
AcDbVertex
100
AcDb2dVertex
 10
-33.30000000000001
 20
6.939999999999997
 30
0.0
  0
VERTEX
  5
734
330
384
100
AcDbEntity
  8
1__1
  6
CONTINUOUS
 62
     3
100
AcDbVertex
100
AcDb2dVertex
 10
-27.37
 20
12.86999999999999
 30
0.0
  0
SEQEND
  5
735
330
384
100
AcDbEntity
  8
1__1
  6
CONTINUOUS
 62
     3
  0
POLYLINE
  5
385
330
362
100
AcDbEntity
  8
1__1
  6
CONTINUOUS
 62
     3
100
AcDb2dPolyline
 66
     1
 10
0.0
 20
0.0
 30
0.0
  0
VERTEX
  5
736
330
385
100
AcDbEntity
  8
1__1
  6
CONTINUOUS
 62
     3
100
AcDbVertex
100
AcDb2dVertex
 10
-28.36
 20
7.630000000000002
 30
0.0
  0
VERTEX
  5
737
330
385
100
AcDbEntity
  8
1__1
  6
CONTINUOUS
 62
     3
100
AcDbVertex
100
AcDb2dVertex
 10
-23.49000000000001
 20
12.5
 30
0.0
  0
SEQEND
  5
738
330
385
100
AcDbEntity
  8
1__1
  6
CONTINUOUS
 62
     3
  0
POLYLINE
  5
386
330
362
100
AcDbEntity
  8
1__1
  6
CONTINUOUS
 62
     7
100
AcDb2dPolyline
 66
     1
 10
0.0
 20
0.0
 30
0.0
  0
VERTEX
  5
739
330
386
100
AcDbEntity
  8
1__1
  6
CONTINUOUS
 62
     7
100
AcDbVertex
100
AcDb2dVertex
 10
-31.2
 20
16.71
 30
0.0
  0
VERTEX
  5
73A
330
386
100
AcDbEntity
  8
1__1
  6
CONTINUOUS
 62
     7
100
AcDbVertex
100
AcDb2dVertex
 10
-27.29
 20
12.78999999999999
 30
0.0
  0
SEQEND
  5
73B
330
386
100
AcDbEntity
  8
1__1
  6
CONTINUOUS
 62
     7
  0
ARC
  5
387
330
362
100
AcDbEntity
  8
1__1
  6
CONTINUOUS
 62
     7
100
AcDbCircle
 10
-26.59000000000001
 20
13.5
 30
0.0
 40
1.0
100
AcDbArc
 50
225.0000309999999
 51
270.0
  0
ARC
  5
388
330
362
100
AcDbEntity
  8
1__1
  6
CONTINUOUS
 62
     7
100
AcDbCircle
 10
-31.91000000000001
 20
16.0
 30
0.0
 40
1.0
100
AcDbArc
 50
45.00005000000014
 51
90.0
  0
POLYLINE
  5
389
330
362
100
AcDbEntity
  8
1__1
  6
CONTINUOUS
 62
     3
100
AcDb2dPolyline
 66
     1
 10
0.0
 20
0.0
 30
0.0
  0
VERTEX
  5
73C
330
389
100
AcDbEntity
  8
1__1
  6
CONTINUOUS
 62
     3
100
AcDbVertex
100
AcDb2dVertex
 10
-23.43
 20
8.32
 30
0.0
  0
VERTEX
  5
73D
330
389
100
AcDbEntity
  8
1__1
  6
CONTINUOUS
 62
     3
100
AcDbVertex
100
AcDb2dVertex
 10
-19.25
 20
12.5
 30
0.0
  0
SEQEND
  5
73E
330
389
100
AcDbEntity
  8
1__1
  6
CONTINUOUS
 62
     3
  0
LINE
  5
38A
330
362
100
AcDbEntity
  8
1__1
  6
CONTINUOUS
 62
     7
100
AcDbLine
 10
-12.41
 20
9.869999999999997
 30
0.0
 11
-12.41
 21
-9.87
 31
0.0
  0
LINE
  5
38B
330
362
100
AcDbEntity
  8
1__1
  6
CONTINUOUS
 62
     7
100
AcDbLine
 10
-11.5
 20
10.57999999999999
 30
0.0
 11
-11.5
 21
-10.58999999999999
 31
0.0
  0
POLYLINE
  5
38C
330
362
100
AcDbEntity
  8
1__1
  6
STRICHPUNKT
 62
     3
100
AcDb2dPolyline
 66
     1
 10
0.0
 20
0.0
 30
0.0
  0
VERTEX
  5
73F
330
38C
100
AcDbEntity
  8
1__1
  6
STRICHPUNKT
 62
     3
100
AcDbVertex
100
AcDb2dVertex
 10
-6.030000000000008
 20
-10.7
 30
0.0
  0
VERTEX
  5
740
330
38C
100
AcDbEntity
  8
1__1
  6
STRICHPUNKT
 62
     3
100
AcDbVertex
100
AcDb2dVertex
 10
-0.0000000000000071
 20
-10.7
 30
0.0
  0
SEQEND
  5
741
330
38C
100
AcDbEntity
  8
1__1
  6
STRICHPUNKT
 62
     3
  0
POLYLINE
  5
38D
330
362
100
AcDbEntity
  8
1__1
  6
CONTINUOUS
 62
     7
100
AcDb2dPolyline
 66
     1
 10
0.0
 20
0.0
 30
0.0
  0
VERTEX
  5
742
330
38D
100
AcDbEntity
  8
1__1
  6
CONTINUOUS
 62
     7
100
AcDbVertex
100
AcDb2dVertex
 10
-11.5
 20
-11.00999999999999
 30
0.0
  0
VERTEX
  5
743
330
38D
100
AcDbEntity
  8
1__1
  6
CONTINUOUS
 62
     7
100
AcDbVertex
100
AcDb2dVertex
 10
-11.5
 20
-10.58999999999999
 30
0.0
  0
SEQEND
  5
744
330
38D
100
AcDbEntity
  8
1__1
  6
CONTINUOUS
 62
     7
  0
POLYLINE
  5
38E
330
362
100
AcDbEntity
  8
1__1
  6
CONTINUOUS
 62
     7
100
AcDb2dPolyline
 66
     1
 10
0.0
 20
0.0
 30
0.0
  0
VERTEX
  5
745
330
38E
100
AcDbEntity
  8
1__1
  6
CONTINUOUS
 62
     7
100
AcDbVertex
100
AcDb2dVertex
 10
-12.41
 20
-9.87
 30
0.0
  0
VERTEX
  5
746
330
38E
100
AcDbEntity
  8
1__1
  6
CONTINUOUS
 62
     7
100
AcDbVertex
100
AcDb2dVertex
 10
-11.5
 20
-10.57999999999999
 30
0.0
  0
SEQEND
  5
747
330
38E
100
AcDbEntity
  8
1__1
  6
CONTINUOUS
 62
     7
  0
LINE
  5
38F
330
362
100
AcDbEntity
  8
1__1
  6
CONTINUOUS
 62
     7
100
AcDbLine
 10
-12.37
 20
-12.5
 30
0.0
 11
-11.5
 21
-11.0
 31
0.0
  0
POLYLINE
  5
390
330
362
100
AcDbEntity
  8
1__1
  6
CONTINUOUS
 62
     3
100
AcDb2dPolyline
 66
     1
 10
0.0
 20
0.0
 30
0.0
  0
VERTEX
  5
748
330
390
100
AcDbEntity
  8
1__1
  6
CONTINUOUS
 62
     3
100
AcDbVertex
100
AcDb2dVertex
 10
-14.55
 20
-12.5
 30
0.0
  0
VERTEX
  5
749
330
390
100
AcDbEntity
  8
1__1
  6
CONTINUOUS
 62
     3
100
AcDbVertex
100
AcDb2dVertex
 10
-12.13
 20
-10.07999999999999
 30
0.0
  0
SEQEND
  5
74A
330
390
100
AcDbEntity
  8
1__1
  6
CONTINUOUS
 62
     3
  0
POLYLINE
  5
391
330
362
100
AcDbEntity
  8
BEMASS
  6
CONTINUOUS
 62
     3
100
AcDb2dPolyline
 66
     1
 10
0.0
 20
0.0
 30
0.0
  0
VERTEX
  5
74B
330
391
100
AcDbEntity
  8
BEMASS
  6
CONTINUOUS
 62
     3
100
AcDbVertex
100
AcDb2dVertex
 10
-0.0000000000000071
 20
-17.0
 30
0.0
  0
VERTEX
  5
74C
330
391
100
AcDbEntity
  8
BEMASS
  6
CONTINUOUS
 62
     3
100
AcDbVertex
100
AcDb2dVertex
 10
-0.0000000000000071
 20
-17.00999999999999
 30
0.0
  0
SEQEND
  5
74D
330
391
100
AcDbEntity
  8
BEMASS
  6
CONTINUOUS
 62
     3
  0
POLYLINE
  5
392
330
362
100
AcDbEntity
  8
BEMASS
  6
CONTINUOUS
 62
     3
100
AcDb2dPolyline
 66
     1
 10
0.0
 20
0.0
 30
0.0
  0
VERTEX
  5
74E
330
392
100
AcDbEntity
  8
BEMASS
  6
CONTINUOUS
 62
     3
100
AcDbVertex
100
AcDb2dVertex
 10
-0.0000000000000071
 20
-17.0
 30
0.0
  0
VERTEX
  5
74F
330
392
100
AcDbEntity
  8
BEMASS
  6
CONTINUOUS
 62
     3
100
AcDbVertex
100
AcDb2dVertex
 10
0.0099999999999927
 20
-17.0
 30
0.0
  0
SEQEND
  5
750
330
392
100
AcDbEntity
  8
BEMASS
  6
CONTINUOUS
 62
     3
  0
POLYLINE
  5
393
330
362
100
AcDbEntity
  8
1__1
  6
STRICHPUNKT
 62
     3
100
AcDb2dPolyline
 66
     1
 10
0.0
 20
0.0
 30
0.0
  0
VERTEX
  5
751
330
393
100
AcDbEntity
  8
1__1
  6
STRICHPUNKT
 62
     3
100
AcDbVertex
100
AcDb2dVertex
 10
-6.030000000000008
 20
10.75999999999999
 30
0.0
  0
VERTEX
  5
752
330
393
100
AcDbEntity
  8
1__1
  6
STRICHPUNKT
 62
     3
100
AcDbVertex
100
AcDb2dVertex
 10
-0.0000000000000071
 20
10.75999999999999
 30
0.0
  0
SEQEND
  5
753
330
393
100
AcDbEntity
  8
1__1
  6
STRICHPUNKT
 62
     3
  0
POLYLINE
  5
394
330
362
100
AcDbEntity
  8
1__1
  6
CONTINUOUS
 62
     3
100
AcDb2dPolyline
 66
     1
 10
0.0
 20
0.0
 30
0.0
  0
VERTEX
  5
754
330
394
100
AcDbEntity
  8
1__1
  6
CONTINUOUS
 62
     3
100
AcDbVertex
100
AcDb2dVertex
 10
-18.49000000000001
 20
9.020000000000003
 30
0.0
  0
VERTEX
  5
755
330
394
100
AcDbEntity
  8
1__1
  6
CONTINUOUS
 62
     3
100
AcDbVertex
100
AcDb2dVertex
 10
-15.01000000000001
 20
12.5
 30
0.0
  0
SEQEND
  5
756
330
394
100
AcDbEntity
  8
1__1
  6
CONTINUOUS
 62
     3
  0
POLYLINE
  5
395
330
362
100
AcDbEntity
  8
1__1
  6
CONTINUOUS
 62
     7
100
AcDb2dPolyline
 66
     1
 10
0.0
 20
0.0
 30
0.0
  0
VERTEX
  5
757
330
395
100
AcDbEntity
  8
1__1
  6
CONTINUOUS
 62
     7
100
AcDbVertex
100
AcDb2dVertex
 10
-11.49
 20
11.0
 30
0.0
  0
VERTEX
  5
758
330
395
100
AcDbEntity
  8
1__1
  6
CONTINUOUS
 62
     7
100
AcDbVertex
100
AcDb2dVertex
 10
-11.49
 20
10.57999999999999
 30
0.0
  0
SEQEND
  5
759
330
395
100
AcDbEntity
  8
1__1
  6
CONTINUOUS
 62
     7
  0
POLYLINE
  5
396
330
362
100
AcDbEntity
  8
1__1
  6
CONTINUOUS
 62
     7
100
AcDb2dPolyline
 66
     1
 10
0.0
 20
0.0
 30
0.0
  0
VERTEX
  5
75A
330
396
100
AcDbEntity
  8
1__1
  6
CONTINUOUS
 62
     7
100
AcDbVertex
100
AcDb2dVertex
 10
-12.41
 20
9.869999999999997
 30
0.0
  0
VERTEX
  5
75B
330
396
100
AcDbEntity
  8
1__1
  6
CONTINUOUS
 62
     7
100
AcDbVertex
100
AcDb2dVertex
 10
-11.5
 20
10.57999999999999
 30
0.0
  0
SEQEND
  5
75C
330
396
100
AcDbEntity
  8
1__1
  6
CONTINUOUS
 62
     7
  0
LINE
  5
397
330
362
100
AcDbEntity
  8
1__1
  6
CONTINUOUS
 62
     7
100
AcDbLine
 10
-12.37
 20
12.5
 30
0.0
 11
-11.5
 21
11.0
 31
0.0
  0
POLYLINE
  5
398
330
362
100
AcDbEntity
  8
1__1
  6
CONTINUOUS
 62
     3
100
AcDb2dPolyline
 66
     1
 10
0.0
 20
0.0
 30
0.0
  0
VERTEX
  5
75D
330
398
100
AcDbEntity
  8
1__1
  6
CONTINUOUS
 62
     3
100
AcDbVertex
100
AcDb2dVertex
 10
-13.55
 20
9.71
 30
0.0
  0
VERTEX
  5
75E
330
398
100
AcDbEntity
  8
1__1
  6
CONTINUOUS
 62
     3
100
AcDbVertex
100
AcDb2dVertex
 10
-11.78
 20
11.47999999999999
 30
0.0
  0
SEQEND
  5
75F
330
398
100
AcDbEntity
  8
1__1
  6
CONTINUOUS
 62
     3
  0
POLYLINE
  5
399
330
362
100
AcDbEntity
  8
BEMASS
  6
CONTINUOUS
 62
     3
100
AcDb2dPolyline
 66
     1
 10
0.0
 20
0.0
 30
0.0
  0
VERTEX
  5
760
330
399
100
AcDbEntity
  8
BEMASS
  6
CONTINUOUS
 62
     3
100
AcDbVertex
100
AcDb2dVertex
 10
3.309999999999991
 20
0.0
 30
0.0
  0
VERTEX
  5
761
330
399
100
AcDbEntity
  8
BEMASS
  6
CONTINUOUS
 62
     3
100
AcDbVertex
100
AcDb2dVertex
 10
3.319999999999991
 20
0.0
 30
0.0
  0
SEQEND
  5
762
330
399
100
AcDbEntity
  8
BEMASS
  6
CONTINUOUS
 62
     3
  0
POLYLINE
  5
39A
330
362
100
AcDbEntity
  8
BEMASS
  6
CONTINUOUS
 62
     3
100
AcDb2dPolyline
 66
     1
 10
0.0
 20
0.0
 30
0.0
  0
VERTEX
  5
763
330
39A
100
AcDbEntity
  8
BEMASS
  6
CONTINUOUS
 62
     3
100
AcDbVertex
100
AcDb2dVertex
 10
2.419999999999992
 20
0.0
 30
0.0
  0
VERTEX
  5
764
330
39A
100
AcDbEntity
  8
BEMASS
  6
CONTINUOUS
 62
     3
100
AcDbVertex
100
AcDb2dVertex
 10
2.429999999999992
 20
0.0
 30
0.0
  0
SEQEND
  5
765
330
39A
100
AcDbEntity
  8
BEMASS
  6
CONTINUOUS
 62
     3
  0
POLYLINE
  5
39B
330
362
100
AcDbEntity
  8
BEMASS
  6
CONTINUOUS
 62
     3
100
AcDb2dPolyline
 66
     1
 10
0.0
 20
0.0
 30
0.0
  0
VERTEX
  5
766
330
39B
100
AcDbEntity
  8
BEMASS
  6
CONTINUOUS
 62
     3
100
AcDbVertex
100
AcDb2dVertex
 10
-0.0000000000000071
 20
17.0
 30
0.0
  0
VERTEX
  5
767
330
39B
100
AcDbEntity
  8
BEMASS
  6
CONTINUOUS
 62
     3
100
AcDbVertex
100
AcDb2dVertex
 10
0.0099999999999927
 20
17.0
 30
0.0
  0
SEQEND
  5
768
330
39B
100
AcDbEntity
  8
BEMASS
  6
CONTINUOUS
 62
     3
  0
ENDBLK
  5
39D
330
362
100
AcDbEntity
  8
0
100
AcDbBlockEnd
  0
BLOCK
  5
3A8
330
39E
100
AcDbEntity
  8
0
100
AcDbBlockBegin
  2
*D2
 70
     1
 10
0.0
 20
0.0
 30
0.0
  3
*D2
  1

  0
LINE
  5
39F
330
39E
100
AcDbEntity
  8
0
  6
BYBLOCK
 62
     0
100
AcDbLine
 10
0.0
 20
22.225
 30
0.0
 11
0.0
 21
80.0
 31
0.0
  0
LINE
  5
3A0
330
39E
100
AcDbEntity
  8
0
  6
BYBLOCK
 62
     0
100
AcDbLine
 10
27.0
 20
30.88853
 30
0.0
 11
27.0
 21
80.0
 31
0.0
  0
LINE
  5
3A1
330
39E
100
AcDbEntity
  8
0
  6
BYBLOCK
 62
     0
100
AcDbLine
 10
4.57
 20
75.0
 30
0.0
 11
22.42999999999999
 21
75.0
 31
0.0
  0
SOLID
  5
3A2
330
39E
100
AcDbEntity
  8
0
  6
BYBLOCK
 62
     0
100
AcDbTrace
 10
4.57
 20
75.76166666666667
 30
0.0
 11
4.57
 21
74.23833333333333
 31
0.0
 12
0.0
 22
75.0
 32
0.0
 13
0.0
 23
75.0
 33
0.0
  0
SOLID
  5
3A3
330
39E
100
AcDbEntity
  8
0
  6
BYBLOCK
 62
     0
100
AcDbTrace
 10
22.42999999999999
 20
75.76166666666667
 30
0.0
 11
22.42999999999999
 21
74.23833333333333
 31
0.0
 12
27.0
 22
75.0
 32
0.0
 13
27.0
 23
75.0
 33
0.0
  0
TEXT
  5
3A4
330
39E
100
AcDbEntity
  8
0
  6
BYBLOCK
 62
     0
100
AcDbText
 10
9.800476190476189
 20
77.285
 30
0.0
 40
4.57
  1
27
  7
SIMPLEX
 72
     1
 11
13.5
 21
79.56999999999999
 31
0.0
100
AcDbText
 73
     2
  0
POINT
  5
3A5
330
39E
100
AcDbEntity
  8
DEFPOINTS
  6
BYBLOCK
 62
     0
100
AcDbPoint
 10
0.0
 20
22.225
 30
0.0
  0
POINT
  5
3A6
330
39E
100
AcDbEntity
  8
DEFPOINTS
  6
BYBLOCK
 62
     0
100
AcDbPoint
 10
27.0
 20
30.88853
 30
0.0
  0
POINT
  5
3A7
330
39E
100
AcDbEntity
  8
DEFPOINTS
  6
BYBLOCK
 62
     0
100
AcDbPoint
 10
27.0
 20
75.0
 30
0.0
  0
ENDBLK
  5
3A9
330
39E
100
AcDbEntity
  8
0
100
AcDbBlockEnd
  0
BLOCK
  5
3B4
330
3AA
100
AcDbEntity
  8
0
100
AcDbBlockBegin
  2
*D3
 70
     1
 10
0.0
 20
0.0
 30
0.0
  3
*D3
  1

  0
LINE
  5
3AB
330
3AA
100
AcDbEntity
  8
0
  6
BYBLOCK
 62
     0
100
AcDbLine
 10
-65.4
 20
11.82259999958979
 30
0.0
 11
-65.4
 21
80.00000000000001
 31
0.0
  0
LINE
  5
3AC
330
3AA
100
AcDbEntity
  8
0
  6
BYBLOCK
 62
     0
100
AcDbLine
 10
0.0
 20
22.225
 30
0.0
 11
0.0
 21
80.0
 31
0.0
  0
LINE
  5
3AD
330
3AA
100
AcDbEntity
  8
0
  6
BYBLOCK
 62
     0
100
AcDbLine
 10
-60.83000000000001
 20
75.0
 30
0.0
 11
-4.57
 21
75.0
 31
0.0
  0
SOLID
  5
3AE
330
3AA
100
AcDbEntity
  8
0
  6
BYBLOCK
 62
     0
100
AcDbTrace
 10
-60.83000000000001
 20
75.76166666666667
 30
0.0
 11
-60.83000000000001
 21
74.23833333333333
 31
0.0
 12
-65.4
 22
75.0
 32
0.0
 13
-65.4
 23
75.0
 33
0.0
  0
SOLID
  5
3AF
330
3AA
100
AcDbEntity
  8
0
  6
BYBLOCK
 62
     0
100
AcDbTrace
 10
-4.57
 20
75.76166666666667
 30
0.0
 11
-4.57
 21
74.23833333333333
 31
0.0
 12
0.0
 22
75.0
 32
0.0
 13
0.0
 23
75.0
 33
0.0
  0
TEXT
  5
3B0
330
3AA
100
AcDbEntity
  8
0
  6
BYBLOCK
 62
     0
100
AcDbText
 10
-39.77261904761905
 20
77.285
 30
0.0
 40
4.57
  1
65.4
  7
SIMPLEX
 72
     1
 11
-32.7
 21
79.56999999999999
 31
0.0
100
AcDbText
 73
     2
  0
POINT
  5
3B1
330
3AA
100
AcDbEntity
  8
DEFPOINTS
  6
BYBLOCK
 62
     0
100
AcDbPoint
 10
-65.4
 20
11.82259999958979
 30
0.0
  0
POINT
  5
3B2
330
3AA
100
AcDbEntity
  8
DEFPOINTS
  6
BYBLOCK
 62
     0
100
AcDbPoint
 10
0.0
 20
22.225
 30
0.0
  0
POINT
  5
3B3
330
3AA
100
AcDbEntity
  8
DEFPOINTS
  6
BYBLOCK
 62
     0
100
AcDbPoint
 10
0.0
 20
75.0
 30
0.0
  0
ENDBLK
  5
3B5
330
3AA
100
AcDbEntity
  8
0
100
AcDbBlockEnd
  0
BLOCK
  5
3C0
330
3B6
100
AcDbEntity
  8
0
100
AcDbBlockBegin
  2
*D4
 70
     1
 10
0.0
 20
0.0
 30
0.0
  3
*D4
  1

  0
LINE
  5
3B7
330
3B6
100
AcDbEntity
  8
0
  6
BYBLOCK
 62
     0
100
AcDbLine
 10
0.0
 20
22.225
 30
0.0
 11
-10.0
 21
22.225
 31
0.0
  0
LINE
  5
3B8
330
3B6
100
AcDbEntity
  8
0
  6
BYBLOCK
 62
     0
100
AcDbLine
 10
0.0
 20
-22.225
 30
0.0
 11
-10.0
 21
-22.225
 31
0.0
  0
LINE
  5
3B9
330
3B6
100
AcDbEntity
  8
0
  6
BYBLOCK
 62
     0
100
AcDbLine
 10
-5.0
 20
17.655
 30
0.0
 11
-5.0
 21
-17.655
 31
0.0
  0
SOLID
  5
3BA
330
3B6
100
AcDbEntity
  8
0
  6
BYBLOCK
 62
     0
100
AcDbTrace
 10
-5.761666666666666
 20
17.655
 30
0.0
 11
-4.238333333333333
 21
17.655
 31
0.0
 12
-5.0
 22
22.225
 32
0.0
 13
-5.0
 23
22.225
 33
0.0
  0
SOLID
  5
3BB
330
3B6
100
AcDbEntity
  8
0
  6
BYBLOCK
 62
     0
100
AcDbTrace
 10
-5.761666666666666
 20
-17.655
 30
0.0
 11
-4.238333333333333
 21
-17.655
 31
0.0
 12
-5.0
 22
-22.225
 32
0.0
 13
-5.0
 23
-22.225
 33
0.0
  0
TEXT
  5
3BC
330
3B6
100
AcDbEntity
  8
0
  6
BYBLOCK
 62
     0
100
AcDbText
 10
-7.285
 20
-11.20738095238095
 30
0.0
 40
4.57
  1
%%C44.45
 50
90.0
  7
SIMPLEX
 72
     1
 11
-9.57
 21
0.0
 31
0.0
100
AcDbText
 73
     2
  0
POINT
  5
3BD
330
3B6
100
AcDbEntity
  8
DEFPOINTS
  6
BYBLOCK
 62
     0
100
AcDbPoint
 10
0.0
 20
22.225
 30
0.0
  0
POINT
  5
3BE
330
3B6
100
AcDbEntity
  8
DEFPOINTS
  6
BYBLOCK
 62
     0
100
AcDbPoint
 10
0.0
 20
-22.225
 30
0.0
  0
POINT
  5
3BF
330
3B6
100
AcDbEntity
  8
DEFPOINTS
  6
BYBLOCK
 62
     0
100
AcDbPoint
 10
-5.0
 20
-22.225
 30
0.0
  0
ENDBLK
  5
3C1
330
3B6
100
AcDbEntity
  8
0
100
AcDbBlockEnd
  0
BLOCK
  5
3CC
330
3C2
100
AcDbEntity
  8
0
100
AcDbBlockBegin
  2
*D5
 70
     1
 10
0.0
 20
0.0
 30
0.0
  3
*D5
  1

  0
LINE
  5
3C3
330
3C2
100
AcDbEntity
  8
0
  6
BYBLOCK
 62
     0
100
AcDbLine
 10
2.599999999999994
 20
-31.48846999999999
 30
0.0
 11
-100.0
 21
-31.48846999999999
 31
0.0
  0
LINE
  5
3C4
330
3C2
100
AcDbEntity
  8
0
  6
BYBLOCK
 62
     0
100
AcDbLine
 10
2.599999999999994
 20
31.48852999999999
 30
0.0
 11
-100.0
 21
31.48852999999999
 31
0.0
  0
LINE
  5
3C5
330
3C2
100
AcDbEntity
  8
0
  6
BYBLOCK
 62
     0
100
AcDbLine
 10
-95.0
 20
-26.91847
 30
0.0
 11
-95.0
 21
26.91853
 31
0.0
  0
SOLID
  5
3C6
330
3C2
100
AcDbEntity
  8
0
  6
BYBLOCK
 62
     0
100
AcDbTrace
 10
-95.76166666666667
 20
-26.91847
 30
0.0
 11
-94.23833333333332
 21
-26.91847
 31
0.0
 12
-95.0
 22
-31.48846999999999
 32
0.0
 13
-95.0
 23
-31.48846999999999
 33
0.0
  0
SOLID
  5
3C7
330
3C2
100
AcDbEntity
  8
0
  6
BYBLOCK
 62
     0
100
AcDbTrace
 10
-95.76166666666667
 20
26.91853
 30
0.0
 11
-94.23833333333332
 21
26.91853
 31
0.0
 12
-95.0
 22
31.48852999999999
 32
0.0
 13
-95.0
 23
31.48852999999999
 33
0.0
  0
TEXT
  5
3C8
330
3C2
100
AcDbEntity
  8
0
  6
BYBLOCK
 62
     0
100
AcDbText
 10
-97.285
 20
-11.20735095238095
 30
0.0
 40
4.57
  1
%%C62.98
 50
90.0
  7
SIMPLEX
 72
     1
 11
-99.57
 21
0.0000299999999989
 31
0.0
100
AcDbText
 73
     2
  0
POINT
  5
3C9
330
3C2
100
AcDbEntity
  8
DEFPOINTS
  6
BYBLOCK
 62
     0
100
AcDbPoint
 10
2.599999999999994
 20
-31.48846999999999
 30
0.0
  0
POINT
  5
3CA
330
3C2
100
AcDbEntity
  8
DEFPOINTS
  6
BYBLOCK
 62
     0
100
AcDbPoint
 10
2.599999999999994
 20
31.48852999999999
 30
0.0
  0
POINT
  5
3CB
330
3C2
100
AcDbEntity
  8
DEFPOINTS
  6
BYBLOCK
 62
     0
100
AcDbPoint
 10
-95.0
 20
31.48852999999999
 30
0.0
  0
ENDBLK
  5
3CD
330
3C2
100
AcDbEntity
  8
0
100
AcDbBlockEnd
  0
BLOCK
  5
3DA
330
3CE
100
AcDbEntity
  8
0
100
AcDbBlockBegin
  2
*D6
 70
     1
 10
0.0
 20
0.0
 30
0.0
  3
*D6
  1

  0
LINE
  5
3CF
330
3CE
100
AcDbEntity
  8
0
  6
BYBLOCK
 62
     0
100
AcDbLine
 10
-55.85746999999999
 20
8.0
 30
0.0
 11
-85.0
 21
8.0
 31
0.0
  0
LINE
  5
3D0
330
3CE
100
AcDbEntity
  8
0
  6
BYBLOCK
 62
     0
100
AcDbLine
 10
-55.85746999999999
 20
-8.0
 30
0.0
 11
-85.0
 21
-8.0
 31
0.0
  0
LINE
  5
3D1
330
3CE
100
AcDbEntity
  8
0
  6
BYBLOCK
 62
     0
100
AcDbLine
 10
-80.0
 20
12.57
 30
0.0
 11
-80.0
 21
17.14
 31
0.0
  0
LINE
  5
3D2
330
3CE
100
AcDbEntity
  8
0
  6
BYBLOCK
 62
     0
100
AcDbLine
 10
-80.0
 20
-12.57
 30
0.0
 11
-80.0
 21
-17.14
 31
0.0
  0
LINE
  5
3D3
330
3CE
100
AcDbEntity
  8
0
  6
BYBLOCK
 62
     0
100
AcDbLine
 10
-80.0
 20
-17.14
 30
0.0
 11
-80.0
 21
-28.76380952380952
 31
0.0
  0
SOLID
  5
3D4
330
3CE
100
AcDbEntity
  8
0
  6
BYBLOCK
 62
     0
100
AcDbTrace
 10
-80.76166666666667
 20
12.57
 30
0.0
 11
-79.23833333333333
 21
12.57
 31
0.0
 12
-80.0
 22
8.0
 32
0.0
 13
-80.0
 23
8.0
 33
0.0
  0
SOLID
  5
3D5
330
3CE
100
AcDbEntity
  8
0
  6
BYBLOCK
 62
     0
100
AcDbTrace
 10
-80.76166666666667
 20
-12.57
 30
0.0
 11
-79.23833333333333
 21
-12.57
 31
0.0
 12
-80.0
 22
-8.0
 32
0.0
 13
-80.0
 23
-8.0
 33
0.0
  0
TEXT
  5
3D6
330
3CE
100
AcDbEntity
  8
0
  6
BYBLOCK
 62
     0
100
AcDbText
 10
-82.285
 20
-28.76380952380952
 30
0.0
 40
4.57
  1
M16
 50
90.0
  7
SIMPLEX
 72
     1
 11
-84.56999999999998
 21
-22.99690476190476
 31
0.0
100
AcDbText
 73
     2
  0
POINT
  5
3D7
330
3CE
100
AcDbEntity
  8
DEFPOINTS
  6
BYBLOCK
 62
     0
100
AcDbPoint
 10
-55.85746999999999
 20
8.0
 30
0.0
  0
POINT
  5
3D8
330
3CE
100
AcDbEntity
  8
DEFPOINTS
  6
BYBLOCK
 62
     0
100
AcDbPoint
 10
-55.85746999999999
 20
-8.0
 30
0.0
  0
POINT
  5
3D9
330
3CE
100
AcDbEntity
  8
DEFPOINTS
  6
BYBLOCK
 62
     0
100
AcDbPoint
 10
-80.0
 20
-8.0
 30
0.0
  0
ENDBLK
  5
3DB
330
3CE
100
AcDbEntity
  8
0
100
AcDbBlockEnd
  0
BLOCK
  5
427
330
3DC
100
AcDbEntity
  8
0
100
AcDbBlockBegin
  2
MASBT40
 70
     0
 10
0.0
 20
0.0
 30
0.0
  3
MASBT40
  1

  0
DIMENSION
  5
3DD
330
3DC
100
AcDbEntity
  8
SK2
100
AcDbDimension
  2
*D2
 10
27.0
 20
75.0
 30
0.0
 11
13.5
 21
79.56999999999999
 31
0.0
  3
STANDARD
100
AcDbAlignedDimension
 13
0.0
 23
22.225
 33
0.0
 14
27.0
 24
30.88853
 34
0.0
100
AcDbRotatedDimension
  0
DIMENSION
  5
3DE
330
3DC
100
AcDbEntity
  8
SK2
100
AcDbDimension
  2
*D3
 10
0.0
 20
75.0
 30
0.0
 11
-32.7
 21
79.56999999999999
 31
0.0
  3
STANDARD
100
AcDbAlignedDimension
 13
-65.4
 23
11.82259999958979
 33
0.0
 14
0.0
 24
22.225
 34
0.0
100
AcDbRotatedDimension
  0
LINE
  5
3DF
330
3DC
100
AcDbEntity
  8
SK4
100
AcDbLine
 10
-2.0
 20
0.0
 30
0.0
 11
27.0
 21
0.0
 31
0.0
  0
DIMENSION
  5
3E0
330
3DC
100
AcDbEntity
  8
SK2
100
AcDbDimension
  2
*D4
 10
-5.0
 20
-22.225
 30
0.0
 11
-9.57
 21
0.0
 31
0.0
  1
%%C44.45
  3
STANDARD
100
AcDbAlignedDimension
 13
0.0
 23
22.225
 33
0.0
 14
0.0
 24
-22.225
 34
0.0
 50
90.0
100
AcDbRotatedDimension
  0
DIMENSION
  5
3E1
330
3DC
100
AcDbEntity
  8
SK2
100
AcDbDimension
  2
*D5
 10
-95.0
 20
31.48852999999999
 30
0.0
 11
-99.57
 21
0.0000299999999989
 31
0.0
  1
%%C62.98
  3
STANDARD
100
AcDbAlignedDimension
 13
2.599999999999994
 23
-31.48846999999999
 33
0.0
 14
2.599999999999994
 24
31.48852999999999
 34
0.0
 50
90.0
100
AcDbRotatedDimension
  0
DIMENSION
  5
3E2
330
3DC
100
AcDbEntity
  8
SK2
100
AcDbDimension
  2
*D6
 10
-80.0
 20
-8.0
 30
0.0
 11
-84.56999999999998
 21
-22.99690476190476
 31
0.0
  1
M16
  3
STANDARD
100
AcDbAlignedDimension
 13
-55.85746999999999
 23
8.0
 33
0.0
 14
-55.85746999999999
 24
-8.0
 34
0.0
 50
90.0
100
AcDbRotatedDimension
  0
TEXT
  5
3E3
330
3DC
100
AcDbEntity
  8
6
100
AcDbText
 10
-46.0
 20
10.0
 30
0.0
 40
3.0
  1
SK40 MAS-BT
  7
SIMPLEX
100
AcDbText
  0
ARC
  5
3E4
330
3DC
100
AcDbEntity
  8
1
  6
CONTINUOUS
 62
     4
100
AcDbCircle
 10
15.0
 20
-0.0500000000000008
 30
0.0
 40
8.0
100
AcDbArc
 50
270.0
 51
0.0000000000000057
  0
LINE
  5
3E5
330
3DC
100
AcDbEntity
  8
1
  6
CONTINUOUS
 62
     4
100
AcDbLine
 10
14.09999999999999
 20
-27.1582
 30
0.0
 11
11.59993
 21
-31.48846999999999
 31
0.0
  0
LINE
  5
3E6
330
3DC
100
AcDbEntity
  8
1
  6
CONTINUOUS
 62
     4
100
AcDbLine
 10
19.09999999999999
 20
-27.1582
 30
0.0
 11
21.60007
 21
-31.48846999999999
 31
0.0
  0
LINE
  5
3E7
330
3DC
100
AcDbEntity
  8
1
  6
CONTINUOUS
 62
     4
100
AcDbLine
 10
23.0
 20
0.0
 30
0.0
 11
23.0
 21
-0.0499999999999972
 31
0.0
  0
LINE
  5
3E8
330
3DC
100
AcDbEntity
  8
1
  6
CONTINUOUS
 62
     4
100
AcDbLine
 10
21.60007
 20
-31.48846999999999
 30
0.0
 11
26.4
 21
-31.48846999999999
 31
0.0
  0
LINE
  5
3E9
330
3DC
100
AcDbEntity
  8
1
  6
CONTINUOUS
 62
     4
100
AcDbLine
 10
14.09999999999999
 20
-26.5
 30
0.0
 11
19.09999999999999
 21
-26.5
 31
0.0
  0
LINE
  5
3EA
330
3DC
100
AcDbEntity
  8
1
  6
CONTINUOUS
 62
     4
100
AcDbLine
 10
2.0
 20
-8.05
 30
0.0
 11
15.0
 21
-8.05
 31
0.0
  0
LINE
  5
3EB
330
3DC
100
AcDbEntity
  8
1
  6
CONTINUOUS
 62
     4
100
AcDbLine
 10
27.0
 20
0.0
 30
0.0
 11
27.0
 21
-30.88853
 31
0.0
  0
LINE
  5
3EC
330
3DC
100
AcDbEntity
  8
1
  6
CONTINUOUS
 62
     4
100
AcDbLine
 10
-64.54433
 20
-12.81213
 30
0.0
 11
0.0
 21
-22.225
 31
0.0
  0
LINE
  5
3ED
330
3DC
100
AcDbEntity
  8
1
  6
CONTINUOUS
 62
     4
100
AcDbLine
 10
0.3799999999999954
 20
-21.94999999999999
 30
0.0
 11
1.599999999999994
 21
-21.94999999999999
 31
0.0
  0
ARC
  5
3EE
330
3DC
100
AcDbEntity
  8
1
  6
CONTINUOUS
 62
     4
100
AcDbCircle
 10
-64.39999980755004
 20
-11.8226002225565
 30
0.0
 40
1.000000192449984
100
AcDbArc
 50
179.9999872484539
 51
261.7015075593027
  0
LINE
  5
3EF
330
3DC
100
AcDbEntity
  8
1
  6
CONTINUOUS
 62
     4
100
AcDbLine
 10
0.0
 20
0.0
 30
0.0
 11
0.0
 21
-22.225
 31
0.0
  0
LINE
  5
3F0
330
3DC
100
AcDbEntity
  8
1
  6
CONTINUOUS
 62
     4
100
AcDbLine
 10
-65.4
 20
0.0
 30
0.0
 11
-65.4
 21
-11.8226
 31
0.0
  0
LINE
  5
3F1
330
3DC
100
AcDbEntity
  8
SK3
100
AcDbLine
 10
-18.3586
 20
0.0
 30
0.0
 11
-22.39999999999999
 21
7.0
 31
0.0
  0
ARC
  5
3F2
330
3DC
100
AcDbEntity
  8
1
  6
CONTINUOUS
 62
     4
100
AcDbCircle
 10
15.0
 20
0.0500000000000004
 30
0.0
 40
8.0
100
AcDbArc
 50
0.0000000235031032
 51
90.00000002350311
  0
LINE
  5
3F3
330
3DC
100
AcDbEntity
  8
1
  6
CONTINUOUS
 62
     4
100
AcDbLine
 10
-64.54433
 20
12.81212999999999
 30
0.0
 11
0.0
 21
22.225
 31
0.0
  0
LINE
  5
3F4
330
3DC
100
AcDbEntity
  8
SK3
100
AcDbLine
 10
-55.28006999999999
 20
7.0
 30
0.0
 11
-22.39999999999999
 21
7.0
 31
0.0
  0
LINE
  5
3F5
330
3DC
100
AcDbEntity
  8
SK3
100
AcDbLine
 10
-63.67952999999999
 20
8.506799999999998
 30
0.0
 11
-65.4
 21
9.5
 31
0.0
  0
LINE
  5
3F6
330
3DC
100
AcDbEntity
  8
SK3
100
AcDbLine
 10
-22.39999999999999
 20
0.0
 30
0.0
 11
-22.39999999999999
 21
7.0
 31
0.0
  0
LINE
  5
3F7
330
3DC
100
AcDbEntity
  8
SK3
100
AcDbLine
 10
-35.4
 20
0.0
 30
0.0
 11
-35.4
 21
8.0
 31
0.0
  0
LINE
  5
3F8
330
3DC
100
AcDbEntity
  8
SK3
100
AcDbLine
 10
-56.15000000000001
 20
0.0
 30
0.0
 11
-56.15000000000001
 21
8.506799999999998
 31
0.0
  0
LINE
  5
3F9
330
3DC
100
AcDbEntity
  8
SK3
100
AcDbLine
 10
-55.28006999999999
 20
7.0
 30
0.0
 11
-56.15000000000001
 21
8.506730000000004
 31
0.0
  0
LINE
  5
3FA
330
3DC
100
AcDbEntity
  8
1
  6
CONTINUOUS
 62
     4
100
AcDbLine
 10
11.59993
 20
31.48852999999999
 30
0.0
 11
11.59993
 21
8.049999999999997
 31
0.0
  0
LINE
  5
3FB
330
3DC
100
AcDbEntity
  8
1
  6
CONTINUOUS
 62
     4
100
AcDbLine
 10
14.09999999999999
 20
27.15827
 30
0.0
 11
11.59993
 21
31.48852999999999
 31
0.0
  0
LINE
  5
3FC
330
3DC
100
AcDbEntity
  8
1
  6
CONTINUOUS
 62
     4
100
AcDbLine
 10
19.09999999999999
 20
27.15827
 30
0.0
 11
21.60007
 21
31.48852999999999
 31
0.0
  0
LINE
  5
3FD
330
3DC
100
AcDbEntity
  8
1
  6
CONTINUOUS
 62
     4
100
AcDbLine
 10
23.0
 20
0.0
 30
0.0
 11
23.0
 21
0.0499999999999972
 31
0.0
  0
LINE
  5
3FE
330
3DC
100
AcDbEntity
  8
1
  6
CONTINUOUS
 62
     4
100
AcDbLine
 10
21.60007
 20
31.48852999999999
 30
0.0
 11
26.4
 21
31.48852999999999
 31
0.0
  0
LINE
  5
3FF
330
3DC
100
AcDbEntity
  8
1
  6
CONTINUOUS
 62
     4
100
AcDbLine
 10
2.599999999999994
 20
31.48852999999999
 30
0.0
 11
11.59993
 21
31.48852999999999
 31
0.0
  0
LINE
  5
400
330
3DC
100
AcDbEntity
  8
1
  6
CONTINUOUS
 62
     4
100
AcDbLine
 10
2.0
 20
8.049999999999997
 30
0.0
 11
15.0
 21
8.049999999999997
 31
0.0
  0
LINE
  5
401
330
3DC
100
AcDbEntity
  8
1
  6
CONTINUOUS
 62
     4
100
AcDbLine
 10
27.0
 20
0.0
 30
0.0
 11
27.0
 21
30.88853
 31
0.0
  0
ARC
  5
402
330
3DC
100
AcDbEntity
  8
1
  6
CONTINUOUS
 62
     4
100
AcDbCircle
 10
-64.39999980755004
 20
11.8226002225565
 30
0.0
 40
1.000000192449984
100
AcDbArc
 50
98.29849246420042
 51
180.0000127750492
  0
LINE
  5
403
330
3DC
100
AcDbEntity
  8
1
  6
CONTINUOUS
 62
     4
100
AcDbLine
 10
2.0
 20
0.0
 30
0.0
 11
2.0
 21
30.88853
 31
0.0
  0
LINE
  5
404
330
3DC
100
AcDbEntity
  8
1
  6
CONTINUOUS
 62
     4
100
AcDbLine
 10
0.0
 20
0.0
 30
0.0
 11
0.0
 21
22.225
 31
0.0
  0
LINE
  5
405
330
3DC
100
AcDbEntity
  8
1
  6
CONTINUOUS
 62
     4
100
AcDbLine
 10
14.09999999999999
 20
-8.05
 30
0.0
 11
14.09999999999999
 21
-27.1582
 31
0.0
  0
LINE
  5
406
330
3DC
100
AcDbEntity
  8
1
  6
CONTINUOUS
 62
     4
100
AcDbLine
 10
19.09999999999999
 20
-6.919469999999996
 30
0.0
 11
19.09999999999999
 21
-27.1582
 31
0.0
  0
LINE
  5
407
330
3DC
100
AcDbEntity
  8
1
  6
CONTINUOUS
 62
     4
100
AcDbLine
 10
14.09999999999999
 20
8.049999999999997
 30
0.0
 11
14.09999999999999
 21
27.15827
 31
0.0
  0
LINE
  5
408
330
3DC
100
AcDbEntity
  8
1
  6
CONTINUOUS
 62
     4
100
AcDbLine
 10
19.09999999999999
 20
6.919469999999996
 30
0.0
 11
19.09999999999999
 21
27.15827
 31
0.0
  0
LINE
  5
409
330
3DC
100
AcDbEntity
  8
1
  6
CONTINUOUS
 62
     4
100
AcDbLine
 10
-65.4
 20
0.0
 30
0.0
 11
-65.4
 21
11.8226
 31
0.0
  0
LINE
  5
40A
330
3DC
100
AcDbEntity
  8
1
  6
CONTINUOUS
 62
     4
100
AcDbLine
 10
2.599999999999994
 20
-31.48846999999999
 30
0.0
 11
11.59993
 21
-31.48846999999999
 31
0.0
  0
LINE
  5
40B
330
3DC
100
AcDbEntity
  8
1
  6
CONTINUOUS
 62
     4
100
AcDbLine
 10
14.09999999999999
 20
26.5
 30
0.0
 11
19.09999999999999
 21
26.5
 31
0.0
  0
LINE
  5
40C
330
3DC
100
AcDbEntity
  8
1
  6
CONTINUOUS
 62
     4
100
AcDbLine
 10
21.60007
 20
31.48852999999999
 30
0.0
 11
21.60007
 21
4.570930000000004
 31
0.0
  0
LINE
  5
40D
330
3DC
100
AcDbEntity
  8
1
  6
CONTINUOUS
 62
     4
100
AcDbLine
 10
0.3799999999999954
 20
21.95
 30
0.0
 11
1.599999999999994
 21
21.95
 31
0.0
  0
LINE
  5
40E
330
3DC
100
AcDbEntity
  8
1
  6
CONTINUOUS
 62
     4
100
AcDbLine
 10
2.0
 20
0.0
 30
0.0
 11
2.0
 21
-30.88853
 31
0.0
  0
LINE
  5
40F
330
3DC
100
AcDbEntity
  8
SK3
100
AcDbLine
 10
-63.67952999999999
 20
8.506799999999998
 30
0.0
 11
-56.15000000000001
 21
8.506799999999998
 31
0.0
  0
LINE
  5
410
330
3DC
100
AcDbEntity
  8
SK3
100
AcDbLine
 10
-63.67952999999999
 20
8.506799999999998
 30
0.0
 11
-63.67952999999999
 21
-8.506799999999998
 31
0.0
  0
LINE
  5
411
330
3DC
100
AcDbEntity
  8
SK3
100
AcDbLine
 10
-18.3586
 20
0.0
 30
0.0
 11
-22.39999999999999
 21
-7.0
 31
0.0
  0
LINE
  5
412
330
3DC
100
AcDbEntity
  8
SK3
100
AcDbLine
 10
-55.28006999999999
 20
-7.0
 30
0.0
 11
-22.39999999999999
 21
-7.0
 31
0.0
  0
LINE
  5
413
330
3DC
100
AcDbEntity
  8
SK3
100
AcDbLine
 10
-63.67967
 20
-8.506799999999998
 30
0.0
 11
-65.4
 21
-9.5
 31
0.0
  0
LINE
  5
414
330
3DC
100
AcDbEntity
  8
SK3
100
AcDbLine
 10
-63.67967
 20
-8.506799999999998
 30
0.0
 11
-56.15000000000001
 21
-8.506799999999998
 31
0.0
  0
LINE
  5
415
330
3DC
100
AcDbEntity
  8
SK3
100
AcDbLine
 10
-55.28006999999999
 20
7.0
 30
0.0
 11
-55.28006999999999
 21
-7.0
 31
0.0
  0
LINE
  5
416
330
3DC
100
AcDbEntity
  8
SK3
100
AcDbLine
 10
-22.39999999999999
 20
0.0
 30
0.0
 11
-22.39999999999999
 21
-7.0
 31
0.0
  0
LINE
  5
417
330
3DC
100
AcDbEntity
  8
SK3
100
AcDbLine
 10
-35.4
 20
0.0
 30
0.0
 11
-35.4
 21
-8.0
 31
0.0
  0
LINE
  5
418
330
3DC
100
AcDbEntity
  8
SK3
100
AcDbLine
 10
-56.15000000000001
 20
0.0
 30
0.0
 11
-56.15000000000001
 21
-8.506799999999998
 31
0.0
  0
ARC
  5
419
330
3DC
100
AcDbEntity
  8
1
  6
CONTINUOUS
 62
     4
100
AcDbCircle
 10
2.599999999999994
 20
30.88852999999999
 30
0.0
 40
0.6000000000000015
100
AcDbArc
 50
90.00000002350311
 51
180.0000000235027
  0
ARC
  5
41A
330
3DC
100
AcDbEntity
  8
1
  6
CONTINUOUS
 62
     4
100
AcDbCircle
 10
26.4
 20
30.88853
 30
0.0
 40
0.5999999999999979
100
AcDbArc
 50
0.0000000235031287
 51
90.00000002350322
  0
LINE
  5
41B
330
3DC
100
AcDbEntity
  8
SK3
100
AcDbLine
 10
-55.28006999999999
 20
-7.0
 30
0.0
 11
-56.15000000000001
 21
-8.506730000000001
 31
0.0
  0
LINE
  5
41C
330
3DC
100
AcDbEntity
  8
1
  6
CONTINUOUS
 62
     4
100
AcDbLine
 10
11.59993
 20
-31.48846999999999
 30
0.0
 11
11.59993
 21
-8.05
 31
0.0
  0
LINE
  5
41D
330
3DC
100
AcDbEntity
  8
1
  6
CONTINUOUS
 62
     4
100
AcDbLine
 10
21.60007
 20
-31.48846999999999
 30
0.0
 11
21.60007
 21
-4.570930000000004
 31
0.0
  0
ARC
  5
41E
330
3DC
100
AcDbEntity
  8
1
  6
CONTINUOUS
 62
     4
100
AcDbCircle
 10
26.4
 20
-30.88853
 30
0.0
 40
0.599999999999999
100
AcDbArc
 50
270.000000023503
 51
0.0000000235031287
  0
ARC
  5
41F
330
3DC
100
AcDbEntity
  8
1
  6
CONTINUOUS
 62
     4
100
AcDbCircle
 10
2.599999999999994
 20
-30.88852999999999
 30
0.0
 40
0.6000000000000015
100
AcDbArc
 50
180.0000000000003
 51
270.0
  0
ARC
  5
420
330
3DC
100
AcDbEntity
  8
1
  6
CONTINUOUS
 62
     4
100
AcDbCircle
 10
0.3799447920405896
 20
-22.34998201534535
 30
0.0
 40
0.3999872532314359
100
AcDbArc
 50
89.99295415898592
 51
161.7908437522229
  0
ARC
  5
421
330
3DC
100
AcDbEntity
  8
1
  6
CONTINUOUS
 62
     4
100
AcDbCircle
 10
1.599999999999994
 20
-22.35
 30
0.0
 40
0.3999999999999986
100
AcDbArc
 50
0.0
 51
90.0
  0
ARC
  5
422
330
3DC
100
AcDbEntity
  8
1
  6
CONTINUOUS
 62
     4
100
AcDbCircle
 10
0.3799447920405896
 20
22.34998201534535
 30
0.0
 40
0.3999872532314359
100
AcDbArc
 50
198.2091562712802
 51
270.0070458645171
  0
ARC
  5
423
330
3DC
100
AcDbEntity
  8
1
  6
CONTINUOUS
 62
     4
100
AcDbCircle
 10
1.599999999999994
 20
22.35
 30
0.0
 40
0.3999999999999986
100
AcDbArc
 50
270.0000000235031
 51
0.0000000235031287
  0
LINE
  5
424
330
3DC
100
AcDbEntity
  8
SK4
100
AcDbLine
 10
-68.08759999999999
 20
0.0
 30
0.0
 11
-15.0
 21
0.0
 31
0.0
  0
LINE
  5
425
330
3DC
100
AcDbEntity
  8
SK3
100
AcDbLine
 10
-55.85746999999999
 20
-8.0
 30
0.0
 11
-35.4
 21
-8.0
 31
0.0
  0
LINE
  5
426
330
3DC
100
AcDbEntity
  8
SK3
100
AcDbLine
 10
-55.85746999999999
 20
8.0
 30
0.0
 11
-35.4
 21
8.0
 31
0.0
  0
ENDBLK
  5
428
330
3DC
100
AcDbEntity
  8
0
100
AcDbBlockEnd
  0
BLOCK
  5
433
330
429
100
AcDbEntity
  8
0
100
AcDbBlockBegin
  2
*D8
 70
     1
 10
0.0
 20
0.0
 30
0.0
  3
*D8
  1

  0
LINE
  5
577
330
429
100
AcDbEntity
  8
SK2
 62
     0
100
AcDbLine
 10
0.0
 20
22.225
 30
0.0
 11
0.0000000000000026
 21
65.29868181158736
 31
0.0
  0
LINE
  5
578
330
429
100
AcDbEntity
  8
SK2
 62
     0
100
AcDbLine
 10
27.0
 20
30.88853
 30
0.0
 11
27.0
 21
65.29868181158736
 31
0.0
  0
LINE
  5
579
330
429
100
AcDbEntity
  8
SK2
 62
     0
100
AcDbLine
 10
4.570000000000002
 20
60.29868181158736
 30
0.0
 11
22.43
 21
60.29868181158736
 31
0.0
  0
SOLID
  5
57A
330
429
100
AcDbEntity
  8
SK2
 62
     0
100
AcDbTrace
 10
4.570000000000002
 20
61.06034847825402
 30
0.0
 11
4.570000000000002
 21
59.53701514492069
 31
0.0
 12
0.0000000000000023
 22
60.29868181158736
 32
0.0
 13
0.0000000000000023
 23
60.29868181158736
 33
0.0
  0
SOLID
  5
57B
330
429
100
AcDbEntity
  8
SK2
 62
     0
100
AcDbTrace
 10
22.43
 20
61.06034847825402
 30
0.0
 11
22.43
 21
59.53701514492069
 31
0.0
 12
27.0
 22
60.29868181158736
 32
0.0
 13
27.0
 23
60.29868181158736
 33
0.0
  0
MTEXT
  5
57C
330
429
100
AcDbEntity
  8
SK2
 62
     0
100
AcDbMText
 10
13.5
 20
64.88368181158735
 30
0.0
 40
4.57
 41
0.0
 71
     5
 72
     1
  1
\A1;27
  7
SIMPLEX
1001
ACAD
1000
MTEXTBEGIN
1070
    73
1070
     1
1070
    44
1040
1.0
1070
    74
1070
     0
1000
MTEXTEND
  0
POINT
  5
57D
330
429
100
AcDbEntity
  8
DEFPOINTS
 62
     0
100
AcDbPoint
 10
0.0
 20
22.225
 30
0.0
  0
POINT
  5
57E
330
429
100
AcDbEntity
  8
DEFPOINTS
 62
     0
100
AcDbPoint
 10
27.0
 20
30.88853
 30
0.0
  0
POINT
  5
57F
330
429
100
AcDbEntity
  8
DEFPOINTS
 62
     0
100
AcDbPoint
 10
27.0
 20
60.29868181158736
 30
0.0
  0
ENDBLK
  5
434
330
429
100
AcDbEntity
  8
0
100
AcDbBlockEnd
  0
BLOCK
  5
43F
330
435
100
AcDbEntity
  8
0
100
AcDbBlockBegin
  2
*D9
 70
     1
 10
0.0
 20
0.0
 30
0.0
  3
*D9
  1

  0
LINE
  5
580
330
435
100
AcDbEntity
  8
SK2
 62
     0
100
AcDbLine
 10
-65.4
 20
11.82259999958979
 30
0.0
 11
-65.4
 21
80.00000000000001
 31
0.0
  0
LINE
  5
581
330
435
100
AcDbEntity
  8
SK2
 62
     0
100
AcDbLine
 10
0.0
 20
22.225
 30
0.0
 11
0.0000000000000035
 21
80.0
 31
0.0
  0
LINE
  5
582
330
435
100
AcDbEntity
  8
SK2
 62
     0
100
AcDbLine
 10
-60.83000000000001
 20
75.0
 30
0.0
 11
-4.569999999999996
 21
75.0
 31
0.0
  0
SOLID
  5
583
330
435
100
AcDbEntity
  8
SK2
 62
     0
100
AcDbTrace
 10
-60.83000000000001
 20
75.76166666666667
 30
0.0
 11
-60.83000000000001
 21
74.23833333333333
 31
0.0
 12
-65.4
 22
75.0
 32
0.0
 13
-65.4
 23
75.0
 33
0.0
  0
SOLID
  5
584
330
435
100
AcDbEntity
  8
SK2
 62
     0
100
AcDbTrace
 10
-4.569999999999996
 20
75.76166666666667
 30
0.0
 11
-4.569999999999996
 21
74.23833333333333
 31
0.0
 12
0.0000000000000032
 22
75.0
 32
0.0
 13
0.0000000000000032
 23
75.0
 33
0.0
  0
MTEXT
  5
585
330
435
100
AcDbEntity
  8
SK2
 62
     0
100
AcDbMText
 10
-32.7
 20
79.58499999999999
 30
0.0
 40
4.57
 41
0.0
 71
     5
 72
     1
  1
\A1;65.4
  7
SIMPLEX
1001
ACAD
1000
MTEXTBEGIN
1070
    73
1070
     1
1070
    44
1040
1.0
1070
    74
1070
     0
1000
MTEXTEND
  0
POINT
  5
586
330
435
100
AcDbEntity
  8
DEFPOINTS
 62
     0
100
AcDbPoint
 10
-65.4
 20
11.82259999958979
 30
0.0
  0
POINT
  5
587
330
435
100
AcDbEntity
  8
DEFPOINTS
 62
     0
100
AcDbPoint
 10
0.0
 20
22.225
 30
0.0
  0
POINT
  5
588
330
435
100
AcDbEntity
  8
DEFPOINTS
 62
     0
100
AcDbPoint
 10
0.0000000000000032
 20
75.0
 30
0.0
  0
ENDBLK
  5
440
330
435
100
AcDbEntity
  8
0
100
AcDbBlockEnd
  0
BLOCK
  5
44B
330
441
100
AcDbEntity
  8
0
100
AcDbBlockBegin
  2
*D10
 70
     1
 10
0.0
 20
0.0
 30
0.0
  3
*D10
  1

  0
LINE
  5
589
330
441
100
AcDbEntity
  8
SK2
 62
     0
100
AcDbLine
 10
0.0
 20
22.225
 30
0.0
 11
-9.999999999999989
 21
22.225
 31
0.0
  0
LINE
  5
58A
330
441
100
AcDbEntity
  8
SK2
 62
     0
100
AcDbLine
 10
0.0
 20
-22.225
 30
0.0
 11
-10.0
 21
-22.22499999999999
 31
0.0
  0
LINE
  5
58B
330
441
100
AcDbEntity
  8
SK2
 62
     0
100
AcDbLine
 10
-4.999999999999991
 20
17.655
 30
0.0
 11
-4.999999999999998
 21
-17.655
 31
0.0
  0
SOLID
  5
58C
330
441
100
AcDbEntity
  8
SK2
 62
     0
100
AcDbTrace
 10
-5.761666666666657
 20
17.655
 30
0.0
 11
-4.238333333333324
 21
17.655
 31
0.0
 12
-4.999999999999989
 22
22.225
 32
0.0
 13
-4.999999999999989
 23
22.225
 33
0.0
  0
SOLID
  5
58D
330
441
100
AcDbEntity
  8
SK2
 62
     0
100
AcDbTrace
 10
-5.761666666666664
 20
-17.655
 30
0.0
 11
-4.238333333333331
 21
-17.655
 31
0.0
 12
-5.0
 22
-22.225
 32
0.0
 13
-5.0
 23
-22.225
 33
0.0
  0
MTEXT
  5
58E
330
441
100
AcDbEntity
  8
SK2
 62
     0
100
AcDbMText
 10
-9.584999999999995
 20
0.0000000000000009
 30
0.0
 40
4.57
 41
0.0
 71
     5
 72
     1
  1
\A1;%%C44.45
  7
SIMPLEX
 11
0.0000000000000001
 21
1.0
 31
0.0
1001
ACAD
1000
MTEXTBEGIN
1070
    73
1070
     1
1070
    44
1040
1.0
1070
    74
1070
     0
1000
MTEXTEND
  0
POINT
  5
58F
330
441
100
AcDbEntity
  8
DEFPOINTS
 62
     0
100
AcDbPoint
 10
0.0
 20
22.225
 30
0.0
  0
POINT
  5
590
330
441
100
AcDbEntity
  8
DEFPOINTS
 62
     0
100
AcDbPoint
 10
0.0
 20
-22.225
 30
0.0
  0
POINT
  5
591
330
441
100
AcDbEntity
  8
DEFPOINTS
 62
     0
100
AcDbPoint
 10
-5.0
 20
-22.225
 30
0.0
  0
ENDBLK
  5
44C
330
441
100
AcDbEntity
  8
0
100
AcDbBlockEnd
  0
BLOCK
  5
458
330
44D
100
AcDbEntity
  8
0
100
AcDbBlockBegin
  2
*D11
 70
     1
 10
0.0
 20
0.0
 30
0.0
  3
*D11
  1

  0
LINE
  5
592
330
44D
100
AcDbEntity
  8
SK2
 62
     0
100
AcDbLine
 10
-55.85746999999999
 20
8.0
 30
0.0
 11
-85.0
 21
8.000000000000008
 31
0.0
  0
LINE
  5
593
330
44D
100
AcDbEntity
  8
SK2
 62
     0
100
AcDbLine
 10
-55.85746999999999
 20
-8.0
 30
0.0
 11
-85.0
 21
-7.999999999999992
 31
0.0
  0
LINE
  5
594
330
44D
100
AcDbEntity
  8
SK2
 62
     0
100
AcDbLine
 10
-80.0
 20
3.430000000000006
 30
0.0
 11
-80.0
 21
-3.429999999999992
 31
0.0
  0
LINE
  5
595
330
44D
100
AcDbEntity
  8
SK2
 62
     0
100
AcDbLine
 10
-80.0
 20
-7.999999999999992
 30
0.0
 11
-80.0
 21
-28.70380952380951
 31
0.0
  0
SOLID
  5
596
330
44D
100
AcDbEntity
  8
SK2
 62
     0
100
AcDbTrace
 10
-80.76166666666667
 20
3.430000000000006
 30
0.0
 11
-79.23833333333333
 21
3.430000000000006
 31
0.0
 12
-80.0
 22
8.000000000000007
 32
0.0
 13
-80.0
 23
8.000000000000007
 33
0.0
  0
SOLID
  5
597
330
44D
100
AcDbEntity
  8
SK2
 62
     0
100
AcDbTrace
 10
-80.76166666666667
 20
-3.429999999999992
 30
0.0
 11
-79.23833333333333
 21
-3.429999999999992
 31
0.0
 12
-80.0
 22
-7.999999999999992
 32
0.0
 13
-80.0
 23
-7.999999999999992
 33
0.0
  0
MTEXT
  5
598
330
44D
100
AcDbEntity
  8
SK2
 62
     0
100
AcDbMText
 10
-84.58499999999999
 20
-20.63690476190477
 30
0.0
 40
4.57
 41
0.0
 71
     5
 72
     1
  1
\A1;M16
  7
SIMPLEX
 11
0.0000000000000001
 21
1.0
 31
0.0
1001
ACAD
1000
MTEXTBEGIN
1070
    73
1070
     1
1070
    44
1040
1.0
1070
    74
1070
     0
1000
MTEXTEND
  0
POINT
  5
599
330
44D
100
AcDbEntity
  8
DEFPOINTS
 62
     0
100
AcDbPoint
 10
-55.85746999999999
 20
8.0
 30
0.0
  0
POINT
  5
59A
330
44D
100
AcDbEntity
  8
DEFPOINTS
 62
     0
100
AcDbPoint
 10
-55.85746999999999
 20
-8.0
 30
0.0
  0
POINT
  5
59B
330
44D
100
AcDbEntity
  8
DEFPOINTS
 62
     0
100
AcDbPoint
 10
-80.0
 20
-7.999999999999992
 30
0.0
  0
ENDBLK
  5
459
330
44D
100
AcDbEntity
  8
0
100
AcDbBlockEnd
  0
BLOCK
  5
464
330
45A
100
AcDbEntity
  8
0
100
AcDbBlockBegin
  2
*D12
 70
     1
 10
0.0
 20
0.0
 30
0.0
  3
*D12
  1

  0
LINE
  5
59C
330
45A
100
AcDbEntity
  8
2
 62
     0
100
AcDbLine
 10
0.0
 20
22.225
 30
0.0
 11
0.0000000000000035
 21
80.0
 31
0.0
  0
LINE
  5
59D
330
45A
100
AcDbEntity
  8
2
 62
     0
100
AcDbLine
 10
70.0
 20
17.0
 30
0.0
 11
70.0
 21
80.0
 31
0.0
  0
LINE
  5
59E
330
45A
100
AcDbEntity
  8
2
 62
     0
100
AcDbLine
 10
4.570000000000003
 20
75.0
 30
0.0
 11
65.43000000000001
 21
75.0
 31
0.0
  0
SOLID
  5
59F
330
45A
100
AcDbEntity
  8
2
 62
     0
100
AcDbTrace
 10
4.570000000000003
 20
75.76166666666667
 30
0.0
 11
4.570000000000003
 21
74.23833333333333
 31
0.0
 12
0.0000000000000032
 22
75.0
 32
0.0
 13
0.0000000000000032
 23
75.0
 33
0.0
  0
SOLID
  5
5A0
330
45A
100
AcDbEntity
  8
2
 62
     0
100
AcDbTrace
 10
65.43000000000001
 20
75.76166666666667
 30
0.0
 11
65.43000000000001
 21
74.23833333333333
 31
0.0
 12
70.0
 22
75.0
 32
0.0
 13
70.0
 23
75.0
 33
0.0
  0
MTEXT
  5
5A1
330
45A
100
AcDbEntity
  8
2
 62
     0
100
AcDbMText
 10
35.0
 20
79.58499999999999
 30
0.0
 40
4.57
 41
0.0
 71
     5
 72
     1
  1
\A1;70
  7
SIMPLEX
1001
ACAD
1000
MTEXTBEGIN
1070
    73
1070
     1
1070
    44
1040
1.0
1070
    74
1070
     0
1000
MTEXTEND
  0
POINT
  5
5A2
330
45A
100
AcDbEntity
  8
DEFPOINTS
 62
     0
100
AcDbPoint
 10
0.0
 20
22.225
 30
0.0
  0
POINT
  5
5A3
330
45A
100
AcDbEntity
  8
DEFPOINTS
 62
     0
100
AcDbPoint
 10
70.0
 20
17.0
 30
0.0
  0
POINT
  5
5A4
330
45A
100
AcDbEntity
  8
DEFPOINTS
 62
     0
100
AcDbPoint
 10
70.0
 20
75.0
 30
0.0
  0
ENDBLK
  5
465
330
45A
100
AcDbEntity
  8
0
100
AcDbBlockEnd
  0
BLOCK
  5
4A1
330
466
100
AcDbEntity
  8
0
100
AcDbBlockBegin
  2
A300M-43
 70
     0
 10
0.0
 20
0.0
 30
0.0
  3
A300M-43
  1

  0
LINE
  5
467
330
466
100
AcDbEntity
  8
SK2
100
AcDbLine
 10
19.0
 20
21.5
 30
0.0
 11
34.572
 21
21.49999999999999
 31
0.0
  0
TEXT
  5
468
330
466
100
AcDbEntity
  8
SK2
100
AcDbText
 10
32.286
 20
-5.769428571428572
 30
0.0
 40
4.571999999999999
  1
%%C43
 50
90.0
  7
SIMPLEX
100
AcDbText
  0
SOLID
  5
469
330
466
100
AcDbEntity
  8
SK2
100
AcDbTrace
 10
30.762
 20
16.928
 30
0.0
 11
29.23799999999999
 21
16.928
 31
0.0
 12
30.0
 22
21.49999999999999
 32
0.0
 13
30.0
 23
21.49999999999999
 33
0.0
  0
SOLID
  5
46A
330
466
100
AcDbEntity
  8
SK2
100
AcDbTrace
 10
30.762
 20
-16.928
 30
0.0
 11
29.23799999999999
 21
-16.928
 31
0.0
 12
30.0
 22
-21.49999999999999
 32
0.0
 13
30.0
 23
-21.49999999999999
 33
0.0
  0
LINE
  5
46B
330
466
100
AcDbEntity
  8
SK2
100
AcDbLine
 10
30.0
 20
16.928
 30
0.0
 11
30.0
 21
10.34142857142856
 31
0.0
  0
LINE
  5
46C
330
466
100
AcDbEntity
  8
SK2
100
AcDbLine
 10
30.0
 20
-16.928
 30
0.0
 11
30.0
 21
-10.34142857142857
 31
0.0
  0
LINE
  5
46D
330
466
100
AcDbEntity
  8
SK2
100
AcDbLine
 10
-5.0
 20
21.49999999999999
 30
0.0
 11
10.5
 21
21.5
 31
0.0
  0
LINE
  5
46E
330
466
100
AcDbEntity
  8
SK2
100
AcDbLine
 10
-5.0
 20
-21.49999999999999
 30
0.0
 11
34.572
 21
-21.49999999999999
 31
0.0
  0
TEXT
  5
46F
330
466
100
AcDbEntity
  8
SK2
100
AcDbText
 10
17.286
 20
18.21599999999999
 30
0.0
 40
4.571999999999999
  1
%%C2-16
 50
90.0
  7
SIMPLEX
100
AcDbText
  0
SOLID
  5
470
330
466
100
AcDbEntity
  8
SK2
100
AcDbTrace
 10
15.762
 20
-12.572
 30
0.0
 11
14.23799999999999
 21
-12.572
 31
0.0
 12
15.0
 22
-8.000000000000001
 32
0.0
 13
15.0
 23
-8.000000000000001
 33
0.0
  0
SOLID
  5
471
330
466
100
AcDbEntity
  8
SK2
100
AcDbTrace
 10
15.762
 20
12.572
 30
0.0
 11
14.23799999999999
 21
12.572
 31
0.0
 12
15.0
 22
8.0
 32
0.0
 13
15.0
 23
8.0
 33
0.0
  0
LINE
  5
472
330
466
100
AcDbEntity
  8
SK2
100
AcDbLine
 10
15.0
 20
-12.572
 30
0.0
 11
15.0
 21
-17.14399999999999
 31
0.0
  0
LINE
  5
473
330
466
100
AcDbEntity
  8
SK2
100
AcDbLine
 10
15.0
 20
12.572
 30
0.0
 11
15.0
 21
17.14399999999999
 31
0.0
  0
LINE
  5
474
330
466
100
AcDbEntity
  8
SK2
100
AcDbLine
 10
0.0
 20
8.0
 30
0.0
 11
19.572
 21
7.999999999999999
 31
0.0
  0
LINE
  5
475
330
466
100
AcDbEntity
  8
SK2
100
AcDbLine
 10
0.0
 20
-8.0
 30
0.0
 11
19.572
 21
-8.000000000000001
 31
0.0
  0
ARC
  5
476
330
466
100
AcDbEntity
  8
SK3
100
AcDbCircle
 10
-34.6
 20
-8.399999999999998
 30
0.0
 40
0.6
100
AcDbArc
 50
270.0
 51
0.0
  0
ARC
  5
477
330
466
100
AcDbEntity
  8
SK3
100
AcDbCircle
 10
-39.39999999999999
 20
-8.4
 30
0.0
 40
0.6
100
AcDbArc
 50
180.0
 51
269.9999999999999
  0
ARC
  5
478
330
466
100
AcDbEntity
  8
SK3
100
AcDbCircle
 10
-39.39999999999999
 20
8.4
 30
0.0
 40
0.6
100
AcDbArc
 50
90.0
 51
179.9999999999999
  0
ARC
  5
479
330
466
100
AcDbEntity
  8
SK3
100
AcDbCircle
 10
-34.6
 20
8.4
 30
0.0
 40
0.6
100
AcDbArc
 50
0.0
 51
90.0
  0
LINE
  5
47A
330
466
100
AcDbEntity
  8
SK3
100
AcDbLine
 10
-34.0
 20
-8.399999999999998
 30
0.0
 11
-34.0
 21
-7.174999999999999
 31
0.0
  0
LINE
  5
47B
330
466
100
AcDbEntity
  8
SK3
100
AcDbLine
 10
-39.39999999999999
 20
-9.0
 30
0.0
 11
-34.6
 21
-8.999999999999998
 31
0.0
  0
LINE
  5
47C
330
466
100
AcDbEntity
  8
SK3
100
AcDbLine
 10
-40.0
 20
8.4
 30
0.0
 11
-40.0
 21
-8.4
 31
0.0
  0
LINE
  5
47D
330
466
100
AcDbEntity
  8
SK3
100
AcDbLine
 10
-34.6
 20
9.0
 30
0.0
 11
-39.39999999999999
 21
9.0
 31
0.0
  0
LINE
  5
47E
330
466
100
AcDbEntity
  8
SK3
100
AcDbLine
 10
-34.0
 20
7.174999999999999
 30
0.0
 11
-34.0
 21
8.4
 31
0.0
  0
LINE
  5
47F
330
466
100
AcDbEntity
  8
SK3
100
AcDbLine
 10
-9.5
 20
-8.875
 30
0.0
 11
-34.0
 21
-7.174999999999999
 31
0.0
  0
LINE
  5
480
330
466
100
AcDbEntity
  8
SK3
100
AcDbLine
 10
-9.5
 20
8.875
 30
0.0
 11
-34.0
 21
7.174999999999999
 31
0.0
  0
LINE
  5
481
330
466
100
AcDbEntity
  8
SK3
100
AcDbLine
 10
-34.0
 20
7.174999999999998
 30
0.0
 11
-34.0
 21
-7.175
 31
0.0
  0
LINE
  5
482
330
466
100
AcDbEntity
  8
SK3
100
AcDbLine
 10
-9.5
 20
21.49999999999999
 30
0.0
 11
-9.5
 21
-21.49999999999999
 31
0.0
  0
LINE
  5
483
330
466
100
AcDbEntity
  8
1
100
AcDbLine
 10
-30.0
 20
-16.0
 30
0.0
 11
-26.0
 21
-16.0
 31
0.0
  0
LINE
  5
484
330
466
100
AcDbEntity
  8
1
100
AcDbLine
 10
-30.0
 20
16.0
 30
0.0
 11
-30.0
 21
-16.0
 31
0.0
  0
LINE
  5
485
330
466
100
AcDbEntity
  8
1
100
AcDbLine
 10
-26.0
 20
16.0
 30
0.0
 11
-30.0
 21
16.0
 31
0.0
  0
LINE
  5
486
330
466
100
AcDbEntity
  8
1
100
AcDbLine
 10
-26.0
 20
-17.5
 30
0.0
 11
-24.0
 21
-17.5
 31
0.0
  0
LINE
  5
487
330
466
100
AcDbEntity
  8
1
100
AcDbLine
 10
-26.0
 20
17.5
 30
0.0
 11
-26.0
 21
-17.5
 31
0.0
  0
LINE
  5
488
330
466
100
AcDbEntity
  8
1
100
AcDbLine
 10
-24.0
 20
17.5
 30
0.0
 11
-26.0
 21
17.5
 31
0.0
  0
ARC
  5
489
330
466
100
AcDbEntity
  8
1
100
AcDbCircle
 10
-13.0
 20
-24.93739406749229
 30
0.0
 40
8.485281374238569
100
AcDbArc
 50
45.00000000000001
 51
135.0
  0
ARC
  5
48A
330
466
100
AcDbEntity
  8
1
100
AcDbCircle
 10
-13.0
 20
24.93739406749229
 30
0.0
 40
8.485281374238569
100
AcDbArc
 50
225.0
 51
315.0
  0
LINE
  5
48B
330
466
100
AcDbEntity
  8
1
100
AcDbLine
 10
-7.0
 20
-15.93739406749226
 30
0.0
 11
-7.0
 21
-18.93739406749227
 31
0.0
  0
LINE
  5
48C
330
466
100
AcDbEntity
  8
1
100
AcDbLine
 10
-19.0
 20
-18.93739406749227
 30
0.0
 11
-19.0
 21
-15.93739406749226
 31
0.0
  0
LINE
  5
48D
330
466
100
AcDbEntity
  8
1
100
AcDbLine
 10
-7.0
 20
18.93739406749229
 30
0.0
 11
-7.0
 21
15.93739406749229
 31
0.0
  0
LINE
  5
48E
330
466
100
AcDbEntity
  8
1
100
AcDbLine
 10
-19.0
 20
15.93739406749229
 30
0.0
 11
-19.0
 21
18.93739406749229
 31
0.0
  0
LINE
  5
48F
330
466
100
AcDbEntity
  8
1
100
AcDbLine
 10
-7.0
 20
3.0
 30
0.0
 11
-7.0
 21
-3.0
 31
0.0
  0
LINE
  5
490
330
466
100
AcDbEntity
  8
1
100
AcDbLine
 10
-19.0
 20
3.0
 30
0.0
 11
-19.0
 21
-3.0
 31
0.0
  0
LINE
  5
491
330
466
100
AcDbEntity
  8
1
100
AcDbLine
 10
-7.0
 20
-18.93739406749227
 30
0.0
 11
-19.0
 21
-18.93739406749227
 31
0.0
  0
LINE
  5
492
330
466
100
AcDbEntity
  8
1
100
AcDbLine
 10
-7.0
 20
-15.93739406749226
 30
0.0
 11
-19.0
 21
-15.93739406749226
 31
0.0
  0
LINE
  5
493
330
466
100
AcDbEntity
  8
1
100
AcDbLine
 10
-7.0
 20
15.93739406749229
 30
0.0
 11
-19.0
 21
15.93739406749229
 31
0.0
  0
LINE
  5
494
330
466
100
AcDbEntity
  8
1
100
AcDbLine
 10
-7.0
 20
18.93739406749229
 30
0.0
 11
-19.0
 21
18.93739406749229
 31
0.0
  0
LINE
  5
495
330
466
100
AcDbEntity
  8
1
100
AcDbLine
 10
-19.0
 20
-3.0
 30
0.0
 11
-7.0
 21
-3.0
 31
0.0
  0
LINE
  5
496
330
466
100
AcDbEntity
  8
1
100
AcDbLine
 10
-19.0
 20
3.0
 30
0.0
 11
-7.0
 21
3.0
 31
0.0
  0
LINE
  5
497
330
466
100
AcDbEntity
  8
1
100
AcDbLine
 10
-21.0
 20
-21.49999999999999
 30
0.0
 11
-24.0
 21
-18.5
 31
0.0
  0
LINE
  5
498
330
466
100
AcDbEntity
  8
1
100
AcDbLine
 10
-21.0
 20
21.49999999999999
 30
0.0
 11
-21.0
 21
-21.49999999999999
 31
0.0
  0
LINE
  5
499
330
466
100
AcDbEntity
  8
1
100
AcDbLine
 10
-24.0
 20
18.5
 30
0.0
 11
-21.0
 21
21.49999999999999
 31
0.0
  0
LINE
  5
49A
330
466
100
AcDbEntity
  8
1
100
AcDbLine
 10
-5.0
 20
-21.49999999999999
 30
0.0
 11
0.0
 21
-16.5
 31
0.0
  0
LINE
  5
49B
330
466
100
AcDbEntity
  8
1
100
AcDbLine
 10
-5.0
 20
21.49999999999999
 30
0.0
 11
-5.0
 21
-21.49999999999999
 31
0.0
  0
LINE
  5
49C
330
466
100
AcDbEntity
  8
1
100
AcDbLine
 10
0.0
 20
16.5
 30
0.0
 11
-5.0
 21
21.49999999999999
 31
0.0
  0
LINE
  5
49D
330
466
100
AcDbEntity
  8
1
100
AcDbLine
 10
-21.0
 20
21.49999999999999
 30
0.0
 11
-5.0
 21
21.49999999999999
 31
0.0
  0
LINE
  5
49E
330
466
100
AcDbEntity
  8
1
100
AcDbLine
 10
-24.0
 20
-18.5
 30
0.0
 11
-24.0
 21
18.5
 31
0.0
  0
LINE
  5
49F
330
466
100
AcDbEntity
  8
1
100
AcDbLine
 10
-5.0
 20
-21.49999999999999
 30
0.0
 11
-21.0
 21
-21.49999999999999
 31
0.0
  0
LINE
  5
4A0
330
466
100
AcDbEntity
  8
1
100
AcDbLine
 10
0.0
 20
16.5
 30
0.0
 11
0.0
 21
-16.5
 31
0.0
  0
ENDBLK
  5
4A2
330
466
100
AcDbEntity
  8
0
100
AcDbBlockEnd
  0
BLOCK
  5
4DE
330
4A3
100
AcDbEntity
  8
0
100
AcDbBlockBegin
  2
A305-28
 70
     0
 10
0.0
 20
0.0
 30
0.0
  3
A305-28
  1

  0
LINE
  5
4A4
330
4A3
100
AcDbEntity
  8
SK3
100
AcDbLine
 10
-30.00000000000001
 20
-5.799999999999998
 30
0.0
 11
-30.0
 21
5.799999999999999
 31
0.0
  0
LINE
  5
4A5
330
4A3
100
AcDbEntity
  8
SK3
100
AcDbLine
 10
-35.5
 20
5.8
 30
0.0
 11
-35.5
 21
-5.799999999999999
 31
0.0
  0
TEXT
  5
4A6
330
4A3
100
AcDbEntity
  8
SK2
100
AcDbText
 10
-12.78399999999999
 20
42.71399999999999
 30
0.0
 40
4.571999999999999
  1
17
  7
SIMPLEX
100
AcDbText
  0
SOLID
  5
4A7
330
4A3
100
AcDbEntity
  8
SK2
100
AcDbTrace
 10
-21.572
 20
44.23799999999999
 30
0.0
 11
-21.572
 21
45.762
 31
0.0
 12
-17.0
 22
45.0
 32
0.0
 13
-17.0
 23
45.0
 33
0.0
  0
SOLID
  5
4A8
330
4A3
100
AcDbEntity
  8
SK2
100
AcDbTrace
 10
4.572000000000002
 20
44.23799999999999
 30
0.0
 11
4.572000000000002
 21
45.762
 31
0.0
 12
0.0
 22
45.0
 32
0.0
 13
0.0
 23
45.0
 33
0.0
  0
LINE
  5
4A9
330
4A3
100
AcDbEntity
  8
SK2
100
AcDbLine
 10
-21.572
 20
45.0
 30
0.0
 11
-26.144
 21
45.0
 31
0.0
  0
LINE
  5
4AA
330
4A3
100
AcDbEntity
  8
SK2
100
AcDbLine
 10
4.572000000000002
 20
45.0
 30
0.0
 11
9.144000000000005
 21
45.0
 31
0.0
  0
LINE
  5
4AB
330
4A3
100
AcDbEntity
  8
SK2
100
AcDbLine
 10
0.0
 20
12.94541104713363
 30
0.0
 11
0.0
 21
49.572
 31
0.0
  0
LINE
  5
4AC
330
4A3
100
AcDbEntity
  8
SK2
100
AcDbLine
 10
-17.0
 20
12.5
 30
0.0
 11
-17.0
 21
49.572
 31
0.0
  0
LINE
  5
4AD
330
4A3
100
AcDbEntity
  8
SK2
100
AcDbLine
 10
23.5
 20
-14.0
 30
0.0
 11
39.572
 21
-14.0
 31
0.0
  0
LINE
  5
4AE
330
4A3
100
AcDbEntity
  8
SK2
100
AcDbLine
 10
23.49999999999998
 20
14.0
 30
0.0
 11
39.572
 21
14.0
 31
0.0
  0
TEXT
  5
4AF
330
4A3
100
AcDbEntity
  8
SK2
100
AcDbText
 10
37.286
 20
-4.784000000000002
 30
0.0
 40
4.571999999999999
  1
%%C28
 50
90.0
  7
SIMPLEX
100
AcDbText
  0
SOLID
  5
4B0
330
4A3
100
AcDbEntity
  8
SK2
100
AcDbTrace
 10
35.762
 20
-18.572
 30
0.0
 11
34.23799999999999
 21
-18.572
 31
0.0
 12
35.0
 22
-14.0
 32
0.0
 13
35.0
 23
-14.0
 33
0.0
  0
SOLID
  5
4B1
330
4A3
100
AcDbEntity
  8
SK2
100
AcDbTrace
 10
35.762
 20
18.57199999999999
 30
0.0
 11
34.23799999999999
 21
18.57199999999999
 31
0.0
 12
35.0
 22
14.0
 32
0.0
 13
35.0
 23
14.0
 33
0.0
  0
LINE
  5
4B2
330
4A3
100
AcDbEntity
  8
SK2
100
AcDbLine
 10
35.0
 20
-18.572
 30
0.0
 11
35.0
 21
-23.144
 31
0.0
  0
LINE
  5
4B3
330
4A3
100
AcDbEntity
  8
SK2
100
AcDbLine
 10
35.0
 20
18.572
 30
0.0
 11
35.0
 21
23.144
 31
0.0
  0
LINE
  5
4B4
330
4A3
100
AcDbEntity
  8
SK2
100
AcDbLine
 10
-1.481312833776087
 20
14.0
 30
0.0
 11
16.5
 21
14.0
 31
0.0
  0
LINE
  5
4B5
330
4A3
100
AcDbEntity
  8
SK2
100
AcDbLine
 10
-1.481312833776073
 20
-14.0
 30
0.0
 11
16.50000000000001
 21
-14.0
 31
0.0
  0
TEXT
  5
4B6
330
4A3
100
AcDbEntity
  8
SK2
100
AcDbText
 10
22.286
 20
18.71599999999999
 30
0.0
 40
4.571999999999999
  1
%%C1-10
 50
90.0
  7
SIMPLEX
100
AcDbText
  0
SOLID
  5
4B7
330
4A3
100
AcDbEntity
  8
SK2
100
AcDbTrace
 10
20.762
 20
-9.571999999999999
 30
0.0
 11
19.23799999999999
 21
-9.571999999999999
 31
0.0
 12
20.0
 22
-5.0
 32
0.0
 13
20.0
 23
-5.0
 33
0.0
  0
SOLID
  5
4B8
330
4A3
100
AcDbEntity
  8
SK2
100
AcDbTrace
 10
20.762
 20
9.571999999999999
 30
0.0
 11
19.23799999999999
 21
9.571999999999999
 31
0.0
 12
20.0
 22
4.999999999999999
 32
0.0
 13
20.0
 23
4.999999999999999
 33
0.0
  0
LINE
  5
4B9
330
4A3
100
AcDbEntity
  8
SK2
100
AcDbLine
 10
20.0
 20
-9.571999999999999
 30
0.0
 11
20.0
 21
-14.14399999999999
 31
0.0
  0
LINE
  5
4BA
330
4A3
100
AcDbEntity
  8
SK2
100
AcDbLine
 10
20.0
 20
9.571999999999999
 30
0.0
 11
20.0
 21
14.14399999999999
 31
0.0
  0
LINE
  5
4BB
330
4A3
100
AcDbEntity
  8
SK2
100
AcDbLine
 10
0.0
 20
5.0
 30
0.0
 11
24.572
 21
4.999999999999998
 31
0.0
  0
LINE
  5
4BC
330
4A3
100
AcDbEntity
  8
SK2
100
AcDbLine
 10
0.0
 20
-5.0
 30
0.0
 11
24.572
 21
-5.000000000000001
 31
0.0
  0
ARC
  5
4BD
330
4A3
100
AcDbEntity
  8
SK3
100
AcDbCircle
 10
-30.70000000000002
 20
-5.799999999999998
 30
0.0
 40
0.7
100
AcDbArc
 50
270.0
 51
0.0
  0
ARC
  5
4BE
330
4A3
100
AcDbEntity
  8
SK3
100
AcDbCircle
 10
-34.79999999999999
 20
-5.799999999999999
 30
0.0
 40
0.7
100
AcDbArc
 50
180.0
 51
269.9999999999999
  0
ARC
  5
4BF
330
4A3
100
AcDbEntity
  8
SK3
100
AcDbCircle
 10
-34.79999999999999
 20
5.799999999999999
 30
0.0
 40
0.7
100
AcDbArc
 50
90.0
 51
179.9999999999999
  0
ARC
  5
4C0
330
4A3
100
AcDbEntity
  8
SK3
100
AcDbCircle
 10
-30.7
 20
5.799999999999999
 30
0.0
 40
0.7
100
AcDbArc
 50
0.0
 51
90.0
  0
LINE
  5
4C1
330
4A3
100
AcDbEntity
  8
SK3
100
AcDbLine
 10
-34.79999999999999
 20
-6.5
 30
0.0
 11
-30.70000000000002
 21
-6.499999999999999
 31
0.0
  0
LINE
  5
4C2
330
4A3
100
AcDbEntity
  8
SK3
100
AcDbLine
 10
-30.7
 20
6.5
 30
0.0
 11
-34.79999999999999
 21
6.5
 31
0.0
  0
LINE
  5
4C3
330
4A3
100
AcDbEntity
  8
SK3
100
AcDbLine
 10
-9.0
 20
-7.575000000000001
 30
0.0
 11
-30.0
 21
-4.5
 31
0.0
  0
LINE
  5
4C4
330
4A3
100
AcDbEntity
  8
SK3
100
AcDbLine
 10
-9.0
 20
7.575000000000001
 30
0.0
 11
-30.0
 21
4.5
 31
0.0
  0
LINE
  5
4C5
330
4A3
100
AcDbEntity
  8
SK3
100
AcDbLine
 10
-9.0
 20
14.0
 30
0.0
 11
-9.000000000000014
 21
-13.99999999999999
 31
0.0
  0
LINE
  5
4C6
330
4A3
100
AcDbEntity
  8
1
100
AcDbLine
 10
-15.5
 20
-14.0
 30
0.0
 11
-17.0
 21
-12.5
 31
0.0
  0
LINE
  5
4C7
330
4A3
100
AcDbEntity
  8
1
100
AcDbLine
 10
-15.5
 20
14.0
 30
0.0
 11
-17.0
 21
12.5
 31
0.0
  0
LINE
  5
4C8
330
4A3
100
AcDbEntity
  8
1
100
AcDbLine
 10
-15.5
 20
-14.0
 30
0.0
 11
-15.5
 21
14.0
 31
0.0
  0
LINE
  5
4C9
330
4A3
100
AcDbEntity
  8
1
100
AcDbLine
 10
-1.481312833776087
 20
14.0
 30
0.0
 11
0.0
 21
12.94541104713363
 31
0.0
  0
LINE
  5
4CA
330
4A3
100
AcDbEntity
  8
1
100
AcDbLine
 10
-1.481312833776087
 20
-14.0
 30
0.0
 11
0.0000000000000142
 21
-12.97863487311322
 31
0.0
  0
LINE
  5
4CB
330
4A3
100
AcDbEntity
  8
1
100
AcDbLine
 10
-1.48028468925294
 20
7.028965517241943
 30
0.0
 11
-1.48028468925294
 21
8.869358116530305
 31
0.0
  0
LINE
  5
4CC
330
4A3
100
AcDbEntity
  8
1
100
AcDbLine
 10
-1.418497090944995
 20
-7.028965517241942
 30
0.0
 11
-1.418497090944995
 21
-8.871530874067232
 31
0.0
  0
ARC
  5
4CD
330
4A3
100
AcDbEntity
  8
1
100
AcDbCircle
 10
-17.51505313895781
 20
-0.0706120042237093
 30
0.0
 40
17.53618545234256
100
AcDbArc
 50
336.6217345182881
 51
23.88191652462468
  0
ARC
  5
4CE
330
4A3
100
AcDbEntity
  8
1
100
AcDbCircle
 10
8.627444600072095
 20
-0.0000000000000158
 30
0.0
 40
17.53618545234256
100
AcDbArc
 50
156.3701511212193
 51
203.6298488787805
  0
LINE
  5
4CF
330
4A3
100
AcDbEntity
  8
1
100
AcDbLine
 10
-7.438402529051685
 20
-7.028965517241942
 30
0.0
 11
-7.4384025290517
 21
7.028965517241942
 31
0.0
  0
ARC
  5
4D0
330
4A3
100
AcDbEntity
  8
1
100
AcDbCircle
 10
-2.927546147601958
 20
-11.43438914027153
 30
0.0
 40
2.945157021548391
100
AcDbArc
 50
299.4099301375621
 51
60.59006986243791
  0
ARC
  5
4D1
330
4A3
100
AcDbEntity
  8
1
100
AcDbCircle
 10
-2.927546147601958
 20
11.43438914027153
 30
0.0
 40
2.945157021548391
100
AcDbArc
 50
299.409930137562
 51
60.59006986243787
  0
LINE
  5
4D2
330
4A3
100
AcDbEntity
  8
1
100
AcDbLine
 10
-7.426572877547101
 20
8.868778280543065
 30
0.0
 11
-7.426572877547101
 21
14.0
 31
0.0
  0
ARC
  5
4D3
330
4A3
100
AcDbEntity
  8
1
100
AcDbCircle
 10
-5.980339563721443
 20
11.43438914027153
 30
0.0
 40
2.945157021548391
100
AcDbArc
 50
119.409930137562
 51
240.5900698624379
  0
LINE
  5
4D4
330
4A3
100
AcDbEntity
  8
1
100
AcDbLine
 10
-7.426572877547101
 20
8.868778280543065
 30
0.0
 11
-1.481312833776087
 21
8.868778280543065
 31
0.0
  0
ARC
  5
4D5
330
4A3
100
AcDbEntity
  8
1
100
AcDbCircle
 10
-5.980339563721443
 20
-11.43438914027153
 30
0.0
 40
2.945157021548391
100
AcDbArc
 50
119.409930137562
 51
240.5900698624378
  0
LINE
  5
4D6
330
4A3
100
AcDbEntity
  8
1
100
AcDbLine
 10
-7.426572877547101
 20
-14.0
 30
0.0
 11
-7.426572877547087
 21
-8.868778280543065
 31
0.0
  0
LINE
  5
4D7
330
4A3
100
AcDbEntity
  8
1
100
AcDbLine
 10
-7.4384025290517
 20
7.028965517241942
 30
0.0
 11
-1.480284689252926
 21
7.028965517241942
 31
0.0
  0
LINE
  5
4D8
330
4A3
100
AcDbEntity
  8
1
100
AcDbLine
 10
-7.438402529051685
 20
-7.028965517241942
 30
0.0
 11
-1.418497090944981
 21
-7.028965517241942
 31
0.0
  0
LINE
  5
4D9
330
4A3
100
AcDbEntity
  8
1
100
AcDbLine
 10
-7.426572877547101
 20
-8.868778280543065
 30
0.0
 11
-1.418497090944995
 21
-8.868778280543065
 31
0.0
  0
LINE
  5
4DA
330
4A3
100
AcDbEntity
  8
1
100
AcDbLine
 10
0.0
 20
12.94541104713363
 30
0.0
 11
0.0
 21
-12.97863487311322
 31
0.0
  0
LINE
  5
4DB
330
4A3
100
AcDbEntity
  8
1
100
AcDbLine
 10
-15.5
 20
14.0
 30
0.0
 11
-1.481312833776087
 21
14.0
 31
0.0
  0
LINE
  5
4DC
330
4A3
100
AcDbEntity
  8
1
100
AcDbLine
 10
-17.0
 20
-12.5
 30
0.0
 11
-17.0
 21
12.5
 31
0.0
  0
LINE
  5
4DD
330
4A3
100
AcDbEntity
  8
1
100
AcDbLine
 10
-1.481312833776073
 20
-14.0
 30
0.0
 11
-15.5
 21
-14.0
 31
0.0
  0
ENDBLK
  5
4DF
330
4A3
100
AcDbEntity
  8
0
100
AcDbBlockEnd
  0
BLOCK
  5
5B2
330
5A8
100
AcDbEntity
  8
0
100
AcDbBlockBegin
  2
*D15
 70
     1
 10
0.0
 20
0.0
 30
0.0
  3
*D15
  1

  0
LINE
  5
5B4
330
5A8
100
AcDbEntity
  8
2
 62
     0
100
AcDbLine
 10
-0.0000119499470723
 20
22.22499130782775
 30
0.0
 11
-0.0000119499470688
 21
80.0
 31
0.0
  0
LINE
  5
5B5
330
5A8
100
AcDbEntity
  8
2
 62
     0
100
AcDbLine
 10
100.0
 20
17.0
 30
0.0
 11
100.0
 21
80.0
 31
0.0
  0
LINE
  5
5B6
330
5A8
100
AcDbEntity
  8
2
 62
     0
100
AcDbLine
 10
4.569988050052931
 20
75.0
 30
0.0
 11
95.43000000000001
 21
75.0
 31
0.0
  0
SOLID
  5
5B7
330
5A8
100
AcDbEntity
  8
2
 62
     0
100
AcDbTrace
 10
4.569988050052931
 20
75.76166666666667
 30
0.0
 11
4.569988050052931
 21
74.23833333333333
 31
0.0
 12
-0.0000119499470691
 22
75.0
 32
0.0
 13
-0.0000119499470691
 23
75.0
 33
0.0
  0
SOLID
  5
5B8
330
5A8
100
AcDbEntity
  8
2
 62
     0
100
AcDbTrace
 10
95.43000000000001
 20
75.76166666666667
 30
0.0
 11
95.43000000000001
 21
74.23833333333333
 31
0.0
 12
100.0
 22
75.0
 32
0.0
 13
100.0
 23
75.0
 33
0.0
  0
MTEXT
  5
5B9
330
5A8
100
AcDbEntity
  8
2
 62
     0
100
AcDbMText
 10
49.99999402502647
 20
79.58499999999999
 30
0.0
 40
4.57
 41
0.0
 71
     5
 72
     1
  1
\A1;100
  7
SIMPLEX
1001
ACAD
1000
MTEXTBEGIN
1070
    73
1070
     1
1070
    44
1040
1.0
1070
    74
1070
     0
1000
MTEXTEND
  0
POINT
  5
5BA
330
5A8
100
AcDbEntity
  8
DEFPOINTS
 62
     0
100
AcDbPoint
 10
-0.0000119499470723
 20
22.22499130782775
 30
0.0
  0
POINT
  5
5BB
330
5A8
100
AcDbEntity
  8
DEFPOINTS
 62
     0
100
AcDbPoint
 10
100.0
 20
17.0
 30
0.0
  0
POINT
  5
5BC
330
5A8
100
AcDbEntity
  8
DEFPOINTS
 62
     0
100
AcDbPoint
 10
100.0
 20
75.0
 30
0.0
  0
ENDBLK
  5
5B3
330
5A8
100
AcDbEntity
  8
0
100
AcDbBlockEnd
  0
ENDSEC
  0
SECTION
  2
ENTITIES
  0
LINE
  5
4E9
330
18
100
AcDbEntity
  8
SK3
100
AcDbLine
 10
65.38000000000001
 20
6.75
 30
0.0
 11
65.38000000000001
 21
-6.75
 31
0.0
  0
LINE
  5
4EB
330
18
100
AcDbEntity
  8
SK3
100
AcDbLine
 10
87.63000000000001
 20
-12.5
 30
0.0
 11
88.49999999999999
 21
-11.0
 31
0.0
  0
ARC
  5
4EC
330
18
100
AcDbEntity
  8
1
100
AcDbCircle
 10
68.09000000000001
 20
-16.0
 30
0.0
 40
1.0
100
AcDbArc
 50
270.0
 51
314.999939
  0
ARC
  5
4ED
330
18
100
AcDbEntity
  8
1
100
AcDbCircle
 10
73.41
 20
-13.5
 30
0.0
 40
1.0
100
AcDbArc
 50
90.0
 51
134.9999689999999
  0
POLYLINE
  5
4EE
330
18
100
AcDbEntity
  8
SK3
100
AcDb2dPolyline
 66
     1
 10
0.0
 20
0.0
 30
0.0
  0
VERTEX
  5
769
330
4EE
100
AcDbEntity
  8
SK3
100
AcDbVertex
100
AcDb2dVertex
 10
87.59
 20
-9.87
 30
0.0
  0
VERTEX
  5
76A
330
4EE
100
AcDbEntity
  8
SK3
100
AcDbVertex
100
AcDb2dVertex
 10
88.49999999999999
 20
-10.57999999999999
 30
0.0
  0
SEQEND
  5
76B
330
4EE
100
AcDbEntity
  8
SK3
  0
POLYLINE
  5
4EF
330
18
100
AcDbEntity
  8
SK3
100
AcDb2dPolyline
 66
     1
 10
0.0
 20
0.0
 30
0.0
  0
VERTEX
  5
76C
330
4EF
100
AcDbEntity
  8
SK3
100
AcDbVertex
100
AcDb2dVertex
 10
87.59
 20
-9.87
 30
0.0
  0
VERTEX
  5
76D
330
4EF
100
AcDbEntity
  8
SK3
100
AcDbVertex
100
AcDb2dVertex
 10
65.37
 20
-6.75
 30
0.0
  0
SEQEND
  5
76E
330
4EF
100
AcDbEntity
  8
SK3
  0
LINE
  5
4F0
330
18
100
AcDbEntity
  8
SK3
100
AcDbLine
 10
87.63000000000001
 20
12.5
 30
0.0
 11
88.49999999999999
 21
11.0
 31
0.0
  0
POLYLINE
  5
4F1
330
18
100
AcDbEntity
  8
SK3
100
AcDb2dPolyline
 66
     1
 10
0.0
 20
0.0
 30
0.0
  0
VERTEX
  5
76F
330
4F1
100
AcDbEntity
  8
SK3
100
AcDbVertex
100
AcDb2dVertex
 10
87.59
 20
9.869999999999997
 30
0.0
  0
VERTEX
  5
770
330
4F1
100
AcDbEntity
  8
SK3
100
AcDbVertex
100
AcDb2dVertex
 10
88.49999999999999
 20
10.57999999999999
 30
0.0
  0
SEQEND
  5
771
330
4F1
100
AcDbEntity
  8
SK3
  0
POLYLINE
  5
4F2
330
18
100
AcDbEntity
  8
SK3
100
AcDb2dPolyline
 66
     1
 10
0.0
 20
0.0
 30
0.0
  0
VERTEX
  5
772
330
4F2
100
AcDbEntity
  8
SK3
100
AcDbVertex
100
AcDb2dVertex
 10
87.59
 20
9.869999999999997
 30
0.0
  0
VERTEX
  5
773
330
4F2
100
AcDbEntity
  8
SK3
100
AcDbVertex
100
AcDb2dVertex
 10
65.37
 20
6.75
 30
0.0
  0
SEQEND
  5
774
330
4F2
100
AcDbEntity
  8
SK3
  0
LINE
  5
4F3
330
18
100
AcDbEntity
  8
SK3
100
AcDbLine
 10
88.49999999999999
 20
10.57999999999999
 30
0.0
 11
88.49999999999999
 21
-10.58999999999999
 31
0.0
  0
LINE
  5
4F4
330
18
100
AcDbEntity
  8
SK3
100
AcDbLine
 10
87.59
 20
9.869999999999997
 30
0.0
 11
87.59
 21
-9.87
 31
0.0
  0
ARC
  5
4F5
330
18
100
AcDbEntity
  8
1
100
AcDbCircle
 10
73.41
 20
13.5
 30
0.0
 40
1.0
100
AcDbArc
 50
225.000031
 51
270.0
  0
ARC
  5
4F6
330
18
100
AcDbEntity
  8
1
100
AcDbCircle
 10
30.0
 20
20.0
 30
0.0
 40
3.0
100
AcDbArc
 50
180.000015
 51
270.0
  0
ARC
  5
4F7
330
18
100
AcDbEntity
  8
1
100
AcDbCircle
 10
68.09000000000001
 20
16.0
 30
0.0
 40
1.0
100
AcDbArc
 50
45.00005
 51
90.0
  0
POINT
  5
4F8
330
18
100
AcDbEntity
  8
1__1
 62
     7
100
AcDbPoint
 10
0.0
 20
0.0
 30
0.0
  0
POLYLINE
  5
4FA
330
18
100
AcDbEntity
  8
1
100
AcDb2dPolyline
 66
     1
 10
0.0
 20
0.0
 30
0.0
  0
VERTEX
  5
775
330
4FA
100
AcDbEntity
  8
1
100
AcDbVertex
100
AcDb2dVertex
 10
68.79000000000001
 20
-16.71
 30
0.0
  0
VERTEX
  5
776
330
4FA
100
AcDbEntity
  8
1
100
AcDbVertex
100
AcDb2dVertex
 10
72.7
 20
-12.78999999999999
 30
0.0
  0
SEQEND
  5
777
330
4FA
100
AcDbEntity
  8
1
  0
POLYLINE
  5
4FB
330
18
100
AcDbEntity
  8
1
100
AcDb2dPolyline
 66
     1
 10
0.0
 20
0.0
 30
0.0
  0
VERTEX
  5
778
330
4FB
100
AcDbEntity
  8
1
100
AcDbVertex
100
AcDb2dVertex
 10
73.41
 20
-12.5
 30
0.0
  0
VERTEX
  5
779
330
4FB
100
AcDbEntity
  8
1
100
AcDbVertex
100
AcDb2dVertex
 10
79.33168810811529
 20
-12.5
 30
0.0
  0
SEQEND
  5
77A
330
4FB
100
AcDbEntity
  8
1
  0
POLYLINE
  5
4FC
330
18
100
AcDbEntity
  8
SK3
100
AcDb2dPolyline
 66
     1
 10
0.0
 20
0.0
 30
0.0
  0
VERTEX
  5
77B
330
4FC
100
AcDbEntity
  8
SK3
100
AcDbVertex
100
AcDb2dVertex
 10
88.49999999999999
 20
-11.00999999999999
 30
0.0
  0
VERTEX
  5
77C
330
4FC
100
AcDbEntity
  8
SK3
100
AcDbVertex
100
AcDb2dVertex
 10
88.49999999999999
 20
-10.58999999999999
 30
0.0
  0
SEQEND
  5
77D
330
4FC
100
AcDbEntity
  8
SK3
  0
POLYLINE
  5
4FE
330
18
100
AcDbEntity
  8
1
100
AcDb2dPolyline
 66
     1
 10
0.0
 20
0.0
 30
0.0
  0
VERTEX
  5
77E
330
4FE
100
AcDbEntity
  8
1
100
AcDbVertex
100
AcDb2dVertex
 10
30.0
 20
17.0
 30
0.0
  0
VERTEX
  5
77F
330
4FE
100
AcDbEntity
  8
1
100
AcDbVertex
100
AcDb2dVertex
 10
68.09000000000001
 20
17.0
 30
0.0
  0
SEQEND
  5
780
330
4FE
100
AcDbEntity
  8
1
  0
POLYLINE
  5
4FF
330
18
100
AcDbEntity
  8
1
100
AcDb2dPolyline
 66
     1
 10
0.0
 20
0.0
 30
0.0
  0
VERTEX
  5
781
330
4FF
100
AcDbEntity
  8
1
100
AcDbVertex
100
AcDb2dVertex
 10
68.80000000000001
 20
16.71
 30
0.0
  0
VERTEX
  5
782
330
4FF
100
AcDbEntity
  8
1
100
AcDbVertex
100
AcDb2dVertex
 10
72.71
 20
12.78999999999999
 30
0.0
  0
SEQEND
  5
783
330
4FF
100
AcDbEntity
  8
1
  0
POLYLINE
  5
500
330
18
100
AcDbEntity
  8
1
100
AcDb2dPolyline
 66
     1
 10
0.0
 20
0.0
 30
0.0
  0
VERTEX
  5
784
330
500
100
AcDbEntity
  8
1
100
AcDbVertex
100
AcDb2dVertex
 10
73.42000000000002
 20
12.5
 30
0.0
  0
VERTEX
  5
785
330
500
100
AcDbEntity
  8
1
100
AcDbVertex
100
AcDb2dVertex
 10
79.33168810811529
 20
12.5
 30
0.0
  0
SEQEND
  5
786
330
500
100
AcDbEntity
  8
1
  0
POLYLINE
  5
501
330
18
100
AcDbEntity
  8
SK3
100
AcDb2dPolyline
 66
     1
 10
0.0
 20
0.0
 30
0.0
  0
VERTEX
  5
787
330
501
100
AcDbEntity
  8
SK3
100
AcDbVertex
100
AcDb2dVertex
 10
88.51
 20
11.0
 30
0.0
  0
VERTEX
  5
788
330
501
100
AcDbEntity
  8
SK3
100
AcDbVertex
100
AcDb2dVertex
 10
88.51
 20
10.57999999999999
 30
0.0
  0
SEQEND
  5
789
330
501
100
AcDbEntity
  8
SK3
  0
TEXT
  5
507
330
18
100
AcDbEntity
  8
6
100
AcDbText
 10
-46.0
 20
10.0
 30
0.0
 40
3.0
  1
SK40 MAS-BT
  7
SIMPLEX
100
AcDbText
  0
ARC
  5
508
330
18
100
AcDbEntity
  8
1
  6
CONTINUOUS
 62
     4
100
AcDbCircle
 10
15.0
 20
-0.0500000000000008
 30
0.0
 40
8.0
100
AcDbArc
 50
270.0
 51
0.0000000000000057
  0
LINE
  5
509
330
18
100
AcDbEntity
  8
1
  6
CONTINUOUS
 62
     4
100
AcDbLine
 10
14.09999999999999
 20
-27.1582
 30
0.0
 11
11.59993
 21
-31.48846999999999
 31
0.0
  0
LINE
  5
50A
330
18
100
AcDbEntity
  8
1
  6
CONTINUOUS
 62
     4
100
AcDbLine
 10
19.09999999999999
 20
-27.1582
 30
0.0
 11
21.60007
 21
-31.48846999999999
 31
0.0
  0
LINE
  5
50B
330
18
100
AcDbEntity
  8
1
  6
CONTINUOUS
 62
     4
100
AcDbLine
 10
23.0
 20
0.0
 30
0.0
 11
23.0
 21
-0.0499999999999972
 31
0.0
  0
LINE
  5
50C
330
18
100
AcDbEntity
  8
1
  6
CONTINUOUS
 62
     4
100
AcDbLine
 10
21.60007
 20
-31.48846999999999
 30
0.0
 11
26.4
 21
-31.48846999999999
 31
0.0
  0
LINE
  5
50D
330
18
100
AcDbEntity
  8
1
  6
CONTINUOUS
 62
     4
100
AcDbLine
 10
14.09999999999999
 20
-26.5
 30
0.0
 11
19.09999999999999
 21
-26.5
 31
0.0
  0
LINE
  5
50E
330
18
100
AcDbEntity
  8
1
  6
CONTINUOUS
 62
     4
100
AcDbLine
 10
2.0
 20
-8.05
 30
0.0
 11
15.0
 21
-8.05
 31
0.0
  0
LINE
  5
50F
330
18
100
AcDbEntity
  8
1
  6
CONTINUOUS
 62
     4
100
AcDbLine
 10
27.0
 20
0.0
 30
0.0
 11
27.0
 21
-30.88853
 31
0.0
  0
LINE
  5
510
330
18
100
AcDbEntity
  8
1
  6
CONTINUOUS
 62
     4
100
AcDbLine
 10
-64.54433
 20
-12.81213
 30
0.0
 11
0.0
 21
-22.225
 31
0.0
  0
LINE
  5
511
330
18
100
AcDbEntity
  8
1
  6
CONTINUOUS
 62
     4
100
AcDbLine
 10
0.3799999999999954
 20
-21.94999999999999
 30
0.0
 11
1.599999999999994
 21
-21.94999999999999
 31
0.0
  0
ARC
  5
512
330
18
100
AcDbEntity
  8
1
  6
CONTINUOUS
 62
     4
100
AcDbCircle
 10
-64.39999980755004
 20
-11.8226002225565
 30
0.0
 40
1.000000192449984
100
AcDbArc
 50
179.9999872484539
 51
261.7015075593027
  0
LINE
  5
513
330
18
100
AcDbEntity
  8
1
  6
CONTINUOUS
 62
     4
100
AcDbLine
 10
0.0
 20
0.0
 30
0.0
 11
0.0
 21
-22.225
 31
0.0
  0
LINE
  5
514
330
18
100
AcDbEntity
  8
1
  6
CONTINUOUS
 62
     4
100
AcDbLine
 10
-65.4
 20
0.0
 30
0.0
 11
-65.4
 21
-11.8226
 31
0.0
  0
LINE
  5
515
330
18
100
AcDbEntity
  8
SK3
100
AcDbLine
 10
-22.25566428571429
 20
6.750000000000004
 30
0.0
 11
-22.39999999999999
 21
7.0
 31
0.0
  0
ARC
  5
516
330
18
100
AcDbEntity
  8
1
  6
CONTINUOUS
 62
     4
100
AcDbCircle
 10
15.0
 20
0.0500000000000004
 30
0.0
 40
8.0
100
AcDbArc
 50
0.0000000235031032
 51
90.0000000235031
  0
LINE
  5
517
330
18
100
AcDbEntity
  8
1
  6
CONTINUOUS
 62
     4
100
AcDbLine
 10
-64.54433
 20
12.81212999999999
 30
0.0
 11
0.0
 21
22.225
 31
0.0
  0
LINE
  5
518
330
18
100
AcDbEntity
  8
SK3
100
AcDbLine
 10
-55.28006999999999
 20
7.0
 30
0.0
 11
-22.39999999999999
 21
7.0
 31
0.0
  0
LINE
  5
519
330
18
100
AcDbEntity
  8
SK3
100
AcDbLine
 10
-63.67952999999999
 20
8.506799999999998
 30
0.0
 11
-65.4
 21
9.5
 31
0.0
  0
LINE
  5
51A
330
18
100
AcDbEntity
  8
SK3
100
AcDbLine
 10
-22.39999999999999
 20
0.0
 30
0.0
 11
-22.39999999999999
 21
7.0
 31
0.0
  0
LINE
  5
51B
330
18
100
AcDbEntity
  8
SK3
100
AcDbLine
 10
-35.4
 20
0.0
 30
0.0
 11
-35.4
 21
8.0
 31
0.0
  0
LINE
  5
51C
330
18
100
AcDbEntity
  8
SK3
100
AcDbLine
 10
-56.15000000000001
 20
0.0
 30
0.0
 11
-56.15000000000001
 21
8.506799999999998
 31
0.0
  0
LINE
  5
51D
330
18
100
AcDbEntity
  8
SK3
100
AcDbLine
 10
-55.28006999999999
 20
7.0
 30
0.0
 11
-56.15000000000001
 21
8.506730000000004
 31
0.0
  0
LINE
  5
51E
330
18
100
AcDbEntity
  8
1
  6
CONTINUOUS
 62
     4
100
AcDbLine
 10
11.59993
 20
31.48852999999999
 30
0.0
 11
11.59993
 21
8.049999999999997
 31
0.0
  0
LINE
  5
51F
330
18
100
AcDbEntity
  8
1
  6
CONTINUOUS
 62
     4
100
AcDbLine
 10
14.09999999999999
 20
27.15827
 30
0.0
 11
11.59993
 21
31.48852999999999
 31
0.0
  0
LINE
  5
520
330
18
100
AcDbEntity
  8
1
  6
CONTINUOUS
 62
     4
100
AcDbLine
 10
19.09999999999999
 20
27.15827
 30
0.0
 11
21.60007
 21
31.48852999999999
 31
0.0
  0
LINE
  5
521
330
18
100
AcDbEntity
  8
1
  6
CONTINUOUS
 62
     4
100
AcDbLine
 10
23.0
 20
0.0
 30
0.0
 11
23.0
 21
0.0499999999999972
 31
0.0
  0
LINE
  5
522
330
18
100
AcDbEntity
  8
1
  6
CONTINUOUS
 62
     4
100
AcDbLine
 10
21.60007
 20
31.48852999999999
 30
0.0
 11
26.4
 21
31.48852999999999
 31
0.0
  0
LINE
  5
523
330
18
100
AcDbEntity
  8
1
  6
CONTINUOUS
 62
     4
100
AcDbLine
 10
2.599999999999994
 20
31.48852999999999
 30
0.0
 11
11.59993
 21
31.48852999999999
 31
0.0
  0
LINE
  5
524
330
18
100
AcDbEntity
  8
1
  6
CONTINUOUS
 62
     4
100
AcDbLine
 10
2.0
 20
8.049999999999997
 30
0.0
 11
15.0
 21
8.049999999999997
 31
0.0
  0
LINE
  5
525
330
18
100
AcDbEntity
  8
1
  6
CONTINUOUS
 62
     4
100
AcDbLine
 10
27.0
 20
0.0
 30
0.0
 11
27.0
 21
30.88853
 31
0.0
  0
ARC
  5
526
330
18
100
AcDbEntity
  8
1
  6
CONTINUOUS
 62
     4
100
AcDbCircle
 10
-64.39999980755004
 20
11.8226002225565
 30
0.0
 40
1.000000192449984
100
AcDbArc
 50
98.29849246420039
 51
180.0000127750492
  0
LINE
  5
527
330
18
100
AcDbEntity
  8
1
  6
CONTINUOUS
 62
     4
100
AcDbLine
 10
2.0
 20
0.0
 30
0.0
 11
2.0
 21
30.88853
 31
0.0
  0
LINE
  5
528
330
18
100
AcDbEntity
  8
1
  6
CONTINUOUS
 62
     4
100
AcDbLine
 10
0.0
 20
0.0
 30
0.0
 11
0.0
 21
22.225
 31
0.0
  0
LINE
  5
529
330
18
100
AcDbEntity
  8
1
  6
CONTINUOUS
 62
     4
100
AcDbLine
 10
14.09999999999999
 20
-8.05
 30
0.0
 11
14.09999999999999
 21
-27.1582
 31
0.0
  0
LINE
  5
52A
330
18
100
AcDbEntity
  8
1
  6
CONTINUOUS
 62
     4
100
AcDbLine
 10
19.09999999999999
 20
-6.919469999999996
 30
0.0
 11
19.09999999999999
 21
-27.1582
 31
0.0
  0
LINE
  5
52B
330
18
100
AcDbEntity
  8
1
  6
CONTINUOUS
 62
     4
100
AcDbLine
 10
14.09999999999999
 20
8.049999999999997
 30
0.0
 11
14.09999999999999
 21
27.15827
 31
0.0
  0
LINE
  5
52C
330
18
100
AcDbEntity
  8
1
  6
CONTINUOUS
 62
     4
100
AcDbLine
 10
19.09999999999999
 20
6.919469999999996
 30
0.0
 11
19.09999999999999
 21
27.15827
 31
0.0
  0
LINE
  5
52D
330
18
100
AcDbEntity
  8
1
  6
CONTINUOUS
 62
     4
100
AcDbLine
 10
-65.4
 20
0.0
 30
0.0
 11
-65.4
 21
11.8226
 31
0.0
  0
LINE
  5
52E
330
18
100
AcDbEntity
  8
1
  6
CONTINUOUS
 62
     4
100
AcDbLine
 10
2.599999999999994
 20
-31.48846999999999
 30
0.0
 11
11.59993
 21
-31.48846999999999
 31
0.0
  0
LINE
  5
52F
330
18
100
AcDbEntity
  8
1
  6
CONTINUOUS
 62
     4
100
AcDbLine
 10
14.09999999999999
 20
26.5
 30
0.0
 11
19.09999999999999
 21
26.5
 31
0.0
  0
LINE
  5
530
330
18
100
AcDbEntity
  8
1
  6
CONTINUOUS
 62
     4
100
AcDbLine
 10
21.60007
 20
31.48852999999999
 30
0.0
 11
21.60007
 21
4.570930000000004
 31
0.0
  0
LINE
  5
531
330
18
100
AcDbEntity
  8
1
  6
CONTINUOUS
 62
     4
100
AcDbLine
 10
0.3799999999999954
 20
21.95
 30
0.0
 11
1.599999999999994
 21
21.95
 31
0.0
  0
LINE
  5
532
330
18
100
AcDbEntity
  8
1
  6
CONTINUOUS
 62
     4
100
AcDbLine
 10
2.0
 20
0.0
 30
0.0
 11
2.0
 21
-30.88853
 31
0.0
  0
LINE
  5
533
330
18
100
AcDbEntity
  8
SK3
100
AcDbLine
 10
-63.67952999999999
 20
8.506799999999998
 30
0.0
 11
-56.15000000000001
 21
8.506799999999998
 31
0.0
  0
LINE
  5
534
330
18
100
AcDbEntity
  8
SK3
100
AcDbLine
 10
-63.67952999999999
 20
8.506799999999998
 30
0.0
 11
-63.67952999999999
 21
-8.506799999999998
 31
0.0
  0
LINE
  5
535
330
18
100
AcDbEntity
  8
SK3
100
AcDbLine
 10
-22.25566428571429
 20
-6.749999999999999
 30
0.0
 11
-22.39999999999999
 21
-7.0
 31
0.0
  0
LINE
  5
536
330
18
100
AcDbEntity
  8
SK3
100
AcDbLine
 10
-55.28006999999999
 20
-7.0
 30
0.0
 11
-22.39999999999999
 21
-7.0
 31
0.0
  0
LINE
  5
537
330
18
100
AcDbEntity
  8
SK3
100
AcDbLine
 10
-63.67967
 20
-8.506799999999998
 30
0.0
 11
-65.4
 21
-9.5
 31
0.0
  0
LINE
  5
538
330
18
100
AcDbEntity
  8
SK3
100
AcDbLine
 10
-63.67967
 20
-8.506799999999998
 30
0.0
 11
-56.15000000000001
 21
-8.506799999999998
 31
0.0
  0
LINE
  5
539
330
18
100
AcDbEntity
  8
SK3
100
AcDbLine
 10
-55.28006999999999
 20
7.0
 30
0.0
 11
-55.28006999999999
 21
-7.0
 31
0.0
  0
LINE
  5
53A
330
18
100
AcDbEntity
  8
SK3
100
AcDbLine
 10
-22.39999999999999
 20
0.0
 30
0.0
 11
-22.39999999999999
 21
-7.0
 31
0.0
  0
LINE
  5
53B
330
18
100
AcDbEntity
  8
SK3
100
AcDbLine
 10
-35.4
 20
0.0
 30
0.0
 11
-35.4
 21
-8.0
 31
0.0
  0
LINE
  5
53C
330
18
100
AcDbEntity
  8
SK3
100
AcDbLine
 10
-56.15000000000001
 20
0.0
 30
0.0
 11
-56.15000000000001
 21
-8.506799999999998
 31
0.0
  0
ARC
  5
53D
330
18
100
AcDbEntity
  8
1
  6
CONTINUOUS
 62
     4
100
AcDbCircle
 10
2.599999999999994
 20
30.88852999999999
 30
0.0
 40
0.6000000000000015
100
AcDbArc
 50
90.0000000235031
 51
180.0000000235027
  0
ARC
  5
53E
330
18
100
AcDbEntity
  8
1
  6
CONTINUOUS
 62
     4
100
AcDbCircle
 10
26.4
 20
30.88853
 30
0.0
 40
0.5999999999999979
100
AcDbArc
 50
0.0000000235031287
 51
90.0000000235032
  0
LINE
  5
53F
330
18
100
AcDbEntity
  8
SK3
100
AcDbLine
 10
-55.28006999999999
 20
-7.0
 30
0.0
 11
-56.15000000000001
 21
-8.506730000000001
 31
0.0
  0
LINE
  5
540
330
18
100
AcDbEntity
  8
1
  6
CONTINUOUS
 62
     4
100
AcDbLine
 10
11.59993
 20
-31.48846999999999
 30
0.0
 11
11.59993
 21
-8.05
 31
0.0
  0
LINE
  5
541
330
18
100
AcDbEntity
  8
1
  6
CONTINUOUS
 62
     4
100
AcDbLine
 10
21.60007
 20
-31.48846999999999
 30
0.0
 11
21.60007
 21
-4.570930000000004
 31
0.0
  0
ARC
  5
542
330
18
100
AcDbEntity
  8
1
  6
CONTINUOUS
 62
     4
100
AcDbCircle
 10
26.4
 20
-30.88853
 30
0.0
 40
0.599999999999999
100
AcDbArc
 50
270.000000023503
 51
0.0000000235031287
  0
ARC
  5
543
330
18
100
AcDbEntity
  8
1
  6
CONTINUOUS
 62
     4
100
AcDbCircle
 10
2.599999999999994
 20
-30.88852999999999
 30
0.0
 40
0.6000000000000015
100
AcDbArc
 50
180.0000000000003
 51
270.0
  0
ARC
  5
544
330
18
100
AcDbEntity
  8
1
  6
CONTINUOUS
 62
     4
100
AcDbCircle
 10
0.3799447920405896
 20
-22.34998201534535
 30
0.0
 40
0.3999872532314359
100
AcDbArc
 50
89.99295415898592
 51
161.7908437522229
  0
ARC
  5
545
330
18
100
AcDbEntity
  8
1
  6
CONTINUOUS
 62
     4
100
AcDbCircle
 10
1.599999999999994
 20
-22.35
 30
0.0
 40
0.3999999999999986
100
AcDbArc
 50
0.0
 51
90.0
  0
ARC
  5
546
330
18
100
AcDbEntity
  8
1
  6
CONTINUOUS
 62
     4
100
AcDbCircle
 10
0.3799447920405896
 20
22.34998201534535
 30
0.0
 40
0.3999872532314359
100
AcDbArc
 50
198.2091562712802
 51
270.0070458645171
  0
ARC
  5
547
330
18
100
AcDbEntity
  8
1
  6
CONTINUOUS
 62
     4
100
AcDbCircle
 10
1.599999999999994
 20
22.35
 30
0.0
 40
0.3999999999999986
100
AcDbArc
 50
270.0000000235031
 51
0.0000000235031287
  0
LINE
  5
548
330
18
100
AcDbEntity
  8
SK4
100
AcDbLine
 10
-68.08759999999999
 20
0.0
 30
0.0
 11
101.7624049447408
 21
0.0
 31
0.0
  0
LINE
  5
549
330
18
100
AcDbEntity
  8
SK3
100
AcDbLine
 10
-55.85746999999999
 20
-8.0
 30
0.0
 11
-35.4
 21
-8.0
 31
0.0
  0
LINE
  5
54A
330
18
100
AcDbEntity
  8
SK3
100
AcDbLine
 10
-55.85746999999999
 20
8.0
 30
0.0
 11
-35.4
 21
8.0
 31
0.0
  0
LINE
  5
54B
330
18
100
AcDbEntity
  8
1
100
AcDbLine
 10
79.33168810811529
 20
11.7
 30
0.0
 11
74.5
 21
11.7
 31
0.0
  0
LINE
  5
54C
330
18
100
AcDbEntity
  8
1
100
AcDbLine
 10
79.33168810811529
 20
-11.7
 30
0.0
 11
74.5
 21
-11.69999999999999
 31
0.0
  0
LINE
  5
54D
330
18
100
AcDbEntity
  8
1
100
AcDbLine
 10
74.5
 20
12.5
 30
0.0
 11
74.5
 21
-12.5
 31
0.0
  0
LINE
  5
54E
330
18
100
AcDbEntity
  8
SK2
100
AcDbLine
 10
2.599999999999994
 20
-31.48846999999999
 30
0.0
 11
-100.0
 21
-31.48846999999997
 31
0.0
  0
LINE
  5
54F
330
18
100
AcDbEntity
  8
SK2
100
AcDbLine
 10
2.599999999999994
 20
31.48852999999999
 30
0.0
 11
-100.0
 21
31.48853000000002
 31
0.0
  0
LINE
  5
550
330
18
100
AcDbEntity
  8
SK2
100
AcDbLine
 10
-95.0
 20
-26.91846999999997
 30
0.0
 11
-95.0
 21
26.91853000000002
 31
0.0
  0
SOLID
  5
551
330
18
100
AcDbEntity
  8
SK2
100
AcDbTrace
 10
-95.76166666666667
 20
-26.91846999999997
 30
0.0
 11
-94.23833333333332
 21
-26.91846999999997
 31
0.0
 12
-95.0
 22
-31.48846999999997
 32
0.0
 13
-95.0
 23
-31.48846999999997
 33
0.0
  0
SOLID
  5
552
330
18
100
AcDbEntity
  8
SK2
100
AcDbTrace
 10
-95.76166666666667
 20
26.91853000000002
 30
0.0
 11
-94.23833333333332
 21
26.91853000000002
 31
0.0
 12
-95.0
 22
31.48853000000002
 32
0.0
 13
-95.0
 23
31.48853000000002
 33
0.0
  0
LINE
  5
555
330
18
100
AcDbEntity
  8
SK2
100
AcDbLine
 10
100.0
 20
17.0
 30
0.0
 11
120.0
 21
16.99999999999999
 31
0.0
  0
LINE
  5
556
330
18
100
AcDbEntity
  8
SK2
100
AcDbLine
 10
100.0
 20
-17.0
 30
0.0
 11
120.0
 21
-17.0
 31
0.0
  0
LINE
  5
557
330
18
100
AcDbEntity
  8
SK2
100
AcDbLine
 10
115.0
 20
12.42999999999999
 30
0.0
 11
115.0
 21
-12.43
 31
0.0
  0
SOLID
  5
558
330
18
100
AcDbEntity
  8
SK2
100
AcDbTrace
 10
114.2383333333333
 20
12.42999999999999
 30
0.0
 11
115.7616666666666
 21
12.42999999999999
 31
0.0
 12
115.0
 22
16.99999999999999
 32
0.0
 13
115.0
 23
16.99999999999999
 33
0.0
  0
SOLID
  5
559
330
18
100
AcDbEntity
  8
SK2
100
AcDbTrace
 10
114.2383333333333
 20
-12.43
 30
0.0
 11
115.7616666666666
 21
-12.43
 31
0.0
 12
115.0
 22
-17.0
 32
0.0
 13
115.0
 23
-17.0
 33
0.0
  0
LINE
  5
55B
330
18
100
AcDbEntity
  8
4
100
AcDbLine
 10
-65.4
 20
0.0
 30
0.0
 11
100.0
 21
0.0
 31
0.0
  0
LINE
  5
55C
330
18
100
AcDbEntity
  8
1
100
AcDbLine
 10
81.1531166581153
 20
-17.00784714311967
 30
0.0
 11
79.33168810811529
 21
-15.18641859311967
 31
0.0
  0
LINE
  5
55D
330
18
100
AcDbEntity
  8
1
100
AcDbLine
 10
81.1531166581153
 20
16.99215245688033
 30
0.0
 11
79.33168810811529
 21
15.17072390688033
 31
0.0
  0
LINE
  5
55E
330
18
100
AcDbEntity
  8
1
100
AcDbLine
 10
81.1531166581153
 20
-17.00784714311967
 30
0.0
 11
81.1531166581153
 21
16.99215245688033
 31
0.0
  0
LINE
  5
55F
330
18
100
AcDbEntity
  8
1
100
AcDbLine
 10
98.17580801683451
 20
16.99215245688033
 30
0.0
 11
99.97454500811528
 21
15.71158017203673
 31
0.0
  0
LINE
  5
560
330
18
100
AcDbEntity
  8
1
100
AcDbLine
 10
98.17580801683451
 20
-17.00784714311967
 30
0.0
 11
99.97454500811528
 21
-15.76761807506237
 31
0.0
  0
LINE
  5
561
330
18
100
AcDbEntity
  8
1
100
AcDbLine
 10
98.17705647802652
 20
8.527324970260325
 30
0.0
 11
98.17705647802652
 21
10.76208738596201
 31
0.0
  0
LINE
  5
562
330
18
100
AcDbEntity
  8
1
100
AcDbLine
 10
98.2520842750892
 20
-8.543019656499664
 30
0.0
 11
98.2520842750892
 21
-10.78042042060801
 31
0.0
  0
ARC
  5
563
330
18
100
AcDbEntity
  8
1
100
AcDbCircle
 10
78.70626644673873
 20
-0.0935904900968601
 30
0.0
 40
21.2939392273276
100
AcDbArc
 50
336.621734518288
 51
23.88191652462476
  0
ARC
  5
564
330
18
100
AcDbEntity
  8
1
100
AcDbCircle
 10
110.450727613525
 20
-0.0078473431196911
 30
0.0
 40
21.2939392273276
100
AcDbArc
 50
156.3701511212195
 51
203.6298488787803
  0
LINE
  5
565
330
18
100
AcDbEntity
  8
1
100
AcDbLine
 10
90.94219918624398
 20
-8.543019656499664
 30
0.0
 11
90.94219918624398
 21
8.527324970260325
 31
0.0
  0
ARC
  5
566
330
18
100
AcDbEntity
  8
1
100
AcDbCircle
 10
96.41966758499215
 20
-13.89246256438668
 30
0.0
 40
3.576262055520803
100
AcDbArc
 50
299.4099301375616
 51
60.5900698624384
  0
ARC
  5
567
330
18
100
AcDbEntity
  8
1
100
AcDbCircle
 10
96.41966758499215
 20
13.87676787814734
 30
0.0
 40
3.576262055520803
100
AcDbArc
 50
299.4099301375616
 51
60.59006986243838
  0
LINE
  5
568
330
18
100
AcDbEntity
  8
1
100
AcDbLine
 10
90.95656376290198
 20
10.76138329941435
 30
0.0
 11
90.95656376290198
 21
16.99215245688033
 31
0.0
  0
ARC
  5
569
330
18
100
AcDbEntity
  8
1
100
AcDbCircle
 10
92.71270419474413
 20
13.87676787814734
 30
0.0
 40
3.576262055520803
100
AcDbArc
 50
119.4099301375616
 51
240.5900698624384
  0
LINE
  5
56A
330
18
100
AcDbEntity
  8
1
100
AcDbLine
 10
90.95656376290198
 20
10.76138329941435
 30
0.0
 11
98.17580801683451
 21
10.76138329941435
 31
0.0
  0
ARC
  5
56B
330
18
100
AcDbEntity
  8
1
100
AcDbCircle
 10
92.71270419474413
 20
-13.89246256438668
 30
0.0
 40
3.576262055520803
100
AcDbArc
 50
119.4099301375615
 51
240.5900698624384
  0
LINE
  5
56C
330
18
100
AcDbEntity
  8
1
100
AcDbLine
 10
90.95656376290198
 20
-17.00784714311967
 30
0.0
 11
90.95656376290202
 21
-10.7770779856537
 31
0.0
  0
LINE
  5
56D
330
18
100
AcDbEntity
  8
1
100
AcDbLine
 10
90.94219918624398
 20
8.527324970260325
 30
0.0
 11
98.17705647802652
 21
8.527324970260325
 31
0.0
  0
LINE
  5
56E
330
18
100
AcDbEntity
  8
1
100
AcDbLine
 10
90.94219918624398
 20
-8.543019656499664
 30
0.0
 11
98.2520842750892
 21
-8.543019656499664
 31
0.0
  0
LINE
  5
56F
330
18
100
AcDbEntity
  8
1
100
AcDbLine
 10
90.95656376290198
 20
-10.7770779856537
 30
0.0
 11
98.2520842750892
 21
-10.7770779856537
 31
0.0
  0
LINE
  5
570
330
18
100
AcDbEntity
  8
1
100
AcDbLine
 10
99.97454500811528
 20
15.71158017203672
 30
0.0
 11
99.97454500811528
 21
-15.76761807506238
 31
0.0
  0
LINE
  5
571
330
18
100
AcDbEntity
  8
1
100
AcDbLine
 10
81.1531166581153
 20
16.99215245688033
 30
0.0
 11
98.17580801683451
 21
16.99215245688033
 31
0.0
  0
LINE
  5
572
330
18
100
AcDbEntity
  8
1
100
AcDbLine
 10
79.33168810811529
 20
-15.18641859311967
 30
0.0
 11
79.33168810811529
 21
15.17072390688033
 31
0.0
  0
LINE
  5
573
330
18
100
AcDbEntity
  8
1
100
AcDbLine
 10
98.17580801683451
 20
-17.00784714311967
 30
0.0
 11
81.1531166581153
 21
-17.00784714311967
 31
0.0
  0
LINE
  5
574
330
18
100
AcDbEntity
  8
SK3
100
AcDbLine
 10
65.38000000000001
 20
6.75
 30
0.0
 11
-22.25566428571429
 21
6.75
 31
0.0
  0
LINE
  5
575
330
18
100
AcDbEntity
  8
SK3
100
AcDbLine
 10
65.38000000000001
 20
-6.75
 30
0.0
 11
-22.25566428571428
 21
-6.75
 31
0.0
  0
LINE
  5
576
330
18
100
AcDbEntity
  8
SK3
100
AcDbLine
 10
-22.25566428571429
 20
6.75
 30
0.0
 11
-22.25566428571428
 21
-6.75
 31
0.0
  0
ARC
  5
5A5
330
18
100
AcDbEntity
  8
1
100
AcDbCircle
 10
30.0
 20
-20.0
 30
0.0
 40
3.0
100
AcDbArc
 50
90.00000000000003
 51
179.9999849999999
  0
POLYLINE
  5
5A6
330
18
100
AcDbEntity
  8
1
100
AcDb2dPolyline
 66
     1
 10
0.0
 20
0.0
 30
0.0
  0
VERTEX
  5
78A
330
5A6
100
AcDbEntity
  8
1
100
AcDbVertex
100
AcDb2dVertex
 10
30.0
 20
-17.0
 30
0.0
  0
VERTEX
  5
78B
330
5A6
100
AcDbEntity
  8
1
100
AcDbVertex
100
AcDb2dVertex
 10
68.09000000000001
 20
-17.0
 30
0.0
  0
SEQEND
  5
78C
330
5A6
100
AcDbEntity
  8
1
  0
LINE
  5
6A4
330
18
100
AcDbEntity
  8
1
100
AcDbLine
 10
68.09000000000001
 20
15.46323383008211
 30
0.0
 11
68.09000000000001
 21
-15.57737635478974
 31
0.0
  0
LINE
  5
6A5
330
18
100
AcDbEntity
  8
1
100
AcDbLine
 10
72.70289360139513
 20
11.65122817965311
 30
0.0
 11
72.70289360139513
 21
-11.62922858347747
 31
0.0
  0
LINE
  5
6A7
330
18
100
AcDbEntity
  8
2
100
AcDbLine
 10
-0.0000119499470723
 20
22.22499130782775
 30
0.0
 11
-0.0000119499470688
 21
80.0
 31
0.0
  0
LINE
  5
6A8
330
18
100
AcDbEntity
  8
2
100
AcDbLine
 10
100.0
 20
17.0
 30
0.0
 11
100.0
 21
80.0
 31
0.0
  0
LINE
  5
6A9
330
18
100
AcDbEntity
  8
2
100
AcDbLine
 10
4.569988050052931
 20
75.0
 30
0.0
 11
95.43000000000001
 21
75.0
 31
0.0
  0
SOLID
  5
6AA
330
18
100
AcDbEntity
  8
2
100
AcDbTrace
 10
4.569988050052931
 20
75.76166666666667
 30
0.0
 11
4.569988050052931
 21
74.23833333333333
 31
0.0
 12
-0.0000119499470691
 22
75.0
 32
0.0
 13
-0.0000119499470691
 23
75.0
 33
0.0
  0
SOLID
  5
6AB
330
18
100
AcDbEntity
  8
2
100
AcDbTrace
 10
95.43000000000001
 20
75.76166666666667
 30
0.0
 11
95.43000000000001
 21
74.23833333333333
 31
0.0
 12
100.0
 22
75.0
 32
0.0
 13
100.0
 23
75.0
 33
0.0
  0
LINE
  5
6AD
330
18
100
AcDbEntity
  8
SK2
100
AcDbLine
 10
-55.85746999999999
 20
8.0
 30
0.0
 11
-85.0
 21
8.000000000000008
 31
0.0
  0
LINE
  5
6AE
330
18
100
AcDbEntity
  8
SK2
100
AcDbLine
 10
-55.85746999999999
 20
-8.0
 30
0.0
 11
-85.0
 21
-7.999999999999992
 31
0.0
  0
LINE
  5
6AF
330
18
100
AcDbEntity
  8
SK2
100
AcDbLine
 10
-80.0
 20
3.430000000000006
 30
0.0
 11
-80.0
 21
-3.429999999999992
 31
0.0
  0
LINE
  5
6B0
330
18
100
AcDbEntity
  8
SK2
100
AcDbLine
 10
-80.0
 20
-7.999999999999992
 30
0.0
 11
-80.0
 21
-28.70380952380951
 31
0.0
  0
SOLID
  5
6B1
330
18
100
AcDbEntity
  8
SK2
100
AcDbTrace
 10
-80.76166666666667
 20
3.430000000000006
 30
0.0
 11
-79.23833333333333
 21
3.430000000000006
 31
0.0
 12
-80.0
 22
8.000000000000007
 32
0.0
 13
-80.0
 23
8.000000000000007
 33
0.0
  0
SOLID
  5
6B2
330
18
100
AcDbEntity
  8
SK2
100
AcDbTrace
 10
-80.76166666666667
 20
-3.429999999999992
 30
0.0
 11
-79.23833333333333
 21
-3.429999999999992
 31
0.0
 12
-80.0
 22
-7.999999999999992
 32
0.0
 13
-80.0
 23
-7.999999999999992
 33
0.0
  0
LINE
  5
6B4
330
18
100
AcDbEntity
  8
SK2
100
AcDbLine
 10
0.0
 20
22.225
 30
0.0
 11
-9.999999999999989
 21
22.225
 31
0.0
  0
LINE
  5
6B5
330
18
100
AcDbEntity
  8
SK2
100
AcDbLine
 10
0.0
 20
-22.225
 30
0.0
 11
-10.0
 21
-22.22499999999999
 31
0.0
  0
LINE
  5
6B6
330
18
100
AcDbEntity
  8
SK2
100
AcDbLine
 10
-4.999999999999991
 20
17.655
 30
0.0
 11
-4.999999999999998
 21
-17.655
 31
0.0
  0
SOLID
  5
6B7
330
18
100
AcDbEntity
  8
SK2
100
AcDbTrace
 10
-5.761666666666657
 20
17.655
 30
0.0
 11
-4.238333333333324
 21
17.655
 31
0.0
 12
-4.999999999999989
 22
22.225
 32
0.0
 13
-4.999999999999989
 23
22.225
 33
0.0
  0
SOLID
  5
6B8
330
18
100
AcDbEntity
  8
SK2
100
AcDbTrace
 10
-5.761666666666664
 20
-17.655
 30
0.0
 11
-4.238333333333331
 21
-17.655
 31
0.0
 12
-5.0
 22
-22.225
 32
0.0
 13
-5.0
 23
-22.225
 33
0.0
  0
LINE
  5
6BA
330
18
100
AcDbEntity
  8
SK2
100
AcDbLine
 10
-65.4
 20
11.82259999958979
 30
0.0
 11
-65.4
 21
80.00000000000001
 31
0.0
  0
LINE
  5
6BB
330
18
100
AcDbEntity
  8
SK2
100
AcDbLine
 10
0.0
 20
22.225
 30
0.0
 11
0.0000000000000035
 21
80.0
 31
0.0
  0
LINE
  5
6BC
330
18
100
AcDbEntity
  8
SK2
100
AcDbLine
 10
-60.83000000000001
 20
75.0
 30
0.0
 11
-4.569999999999996
 21
75.0
 31
0.0
  0
SOLID
  5
6BD
330
18
100
AcDbEntity
  8
SK2
100
AcDbTrace
 10
-60.83000000000001
 20
75.76166666666667
 30
0.0
 11
-60.83000000000001
 21
74.23833333333333
 31
0.0
 12
-65.4
 22
75.0
 32
0.0
 13
-65.4
 23
75.0
 33
0.0
  0
SOLID
  5
6BE
330
18
100
AcDbEntity
  8
SK2
100
AcDbTrace
 10
-4.569999999999996
 20
75.76166666666667
 30
0.0
 11
-4.569999999999996
 21
74.23833333333333
 31
0.0
 12
0.0000000000000032
 22
75.0
 32
0.0
 13
0.0000000000000032
 23
75.0
 33
0.0
  0
LINE
  5
6C0
330
18
100
AcDbEntity
  8
SK2
100
AcDbLine
 10
0.0
 20
22.225
 30
0.0
 11
0.0000000000000026
 21
65.29868181158736
 31
0.0
  0
LINE
  5
6C1
330
18
100
AcDbEntity
  8
SK2
100
AcDbLine
 10
27.0
 20
30.88853
 30
0.0
 11
27.0
 21
65.29868181158736
 31
0.0
  0
LINE
  5
6C2
330
18
100
AcDbEntity
  8
SK2
100
AcDbLine
 10
4.570000000000002
 20
60.29868181158736
 30
0.0
 11
22.43
 21
60.29868181158736
 31
0.0
  0
SOLID
  5
6C3
330
18
100
AcDbEntity
  8
SK2
100
AcDbTrace
 10
4.570000000000002
 20
61.06034847825402
 30
0.0
 11
4.570000000000002
 21
59.53701514492069
 31
0.0
 12
0.0000000000000023
 22
60.29868181158736
 32
0.0
 13
0.0000000000000023
 23
60.29868181158736
 33
0.0
  0
SOLID
  5
6C4
330
18
100
AcDbEntity
  8
SK2
100
AcDbTrace
 10
22.43
 20
61.06034847825402
 30
0.0
 11
22.43
 21
59.53701514492069
 31
0.0
 12
27.0
 22
60.29868181158736
 32
0.0
 13
27.0
 23
60.29868181158736
 33
0.0
  0
TEXT
  5
6C6
330
18
100
AcDbEntity
  8
SK2
100
AcDbText
 10
9.800476190476194
 20
62.59868181158736
 30
0.0
 40
4.57
  1
27
  7
SIMPLEX
100
AcDbText
  0
TEXT
  5
6C7
330
18
100
AcDbEntity
  8
SK2
100
AcDbText
 10
-39.77261904761905
 20
77.3
 30
0.0
 40
4.57
  1
65.4
  7
SIMPLEX
100
AcDbText
  0
TEXT
  5
6C8
330
18
100
AcDbEntity
  8
SK2
100
AcDbText
 10
-7.299999999999997
 20
-11.20738095238095
 30
0.0
 40
4.57
  1
%%c
 50
90.0
  7
SIMPLEX
100
AcDbText
  0
TEXT
  5
6C9
330
18
100
AcDbEntity
  8
SK2
100
AcDbText
 10
-7.299999999999997
 20
-7.072619047619046
 30
0.0
 40
4.57
  1
44.45
 50
90.0
  7
SIMPLEX
100
AcDbText
  0
TEXT
  5
6CA
330
18
100
AcDbEntity
  8
SK2
100
AcDbText
 10
-82.3
 20
-26.40380952380953
 30
0.0
 40
4.57
  1
M16
 50
90.0
  7
SIMPLEX
100
AcDbText
  0
TEXT
  5
6CB
330
18
100
AcDbEntity
  8
2
100
AcDbText
 10
44.55951783455027
 20
77.3
 30
0.0
 40
4.57
  1
100
  7
SIMPLEX
100
AcDbText
  0
TEXT
  5
6CC
330
18
100
AcDbEntity
  8
SK2
100
AcDbText
 10
112.7
 20
-5.875714285714275
 30
0.0
 40
4.57
  1
%%c
 50
90.0
  7
SIMPLEX
100
AcDbText
  0
TEXT
  5
6CD
330
18
100
AcDbEntity
  8
SK2
100
AcDbText
 10
112.7
 20
-1.740952380952371
 30
0.0
 40
4.57
  1
34
 50
90.0
  7
SIMPLEX
100
AcDbText
  0
TEXT
  5
6CE
330
18
100
AcDbEntity
  8
SK2
100
AcDbText
 10
-97.30000000000002
 20
-5.76687476190475
 30
0.0
 40
4.57
  1
%%c
 50
90.0
  7
SIMPLEX
100
AcDbText
  0
TEXT
  5
6CF
330
18
100
AcDbEntity
  8
SK2
100
AcDbText
 10
-97.30000000000002
 20
-1.632112857142845
 30
0.0
 40
4.57
  1
63
 50
90.0
  7
SIMPLEX
100
AcDbText
  0
ENDSEC
  0
SECTION
  2
OBJECTS
  0
DICTIONARY
  5
C
330
0
100
AcDbDictionary
  3
ACAD_GROUP
350
D
  3
ACAD_LAYOUT
350
301
  3
ACAD_MLINESTYLE
350
E
  3
ACAD_PLOTSETTINGS
350
302
1001
ACAD
1000
TREAT_AS_HARD
1070
     0
  0
DICTIONARY
  5
6D1
330
18
100
AcDbDictionary
  3
ACAD_LAYOUTSELFREF
350
6D2
  0
DICTIONARY
  5
6D3
330
338
100
AcDbDictionary
  3
ACAD_LAYOUTSELFREF
350
6D4
  0
DICTIONARY
  5
D
102
{ACAD_REACTORS
330
C
102
}
330
C
100
AcDbDictionary
1001
ACAD
1000
TREAT_AS_HARD
1070
     0
  0
DICTIONARY
  5
301
102
{ACAD_REACTORS
330
C
102
}
330
C
100
AcDbDictionary
1001
ACAD
1000
TREAT_AS_HARD
1070
     0
  0
DICTIONARY
  5
E
102
{ACAD_REACTORS
330
C
102
}
330
C
100
AcDbDictionary
  3
STANDARD
350
1B
1001
ACAD
1000
TREAT_AS_HARD
1070
     0
  0
DICTIONARY
  5
302
102
{ACAD_REACTORS
330
C
102
}
330
C
100
AcDbDictionary
1001
ACAD
1000
TREAT_AS_HARD
1070
     0
  0
XRECORD
  5
6D2
102
{ACAD_REACTORS
330
6D1
102
}
330
6D1
100
AcDbXrecord
340
18
  0
XRECORD
  5
6D4
102
{ACAD_REACTORS
330
6D3
102
}
330
6D3
100
AcDbXrecord
340
338
  0
MLINESTYLE
  5
1B
102
{ACAD_REACTORS
330
E
102
}
330
E
100
AcDbMlineStyle
  2
STANDARD
 70
     0
  3

 62
     0
 51
90.0
 52
90.0
 71
     2
 49
0.5
 62
   256
  6
BYLAYER
 49
-0.5
 62
   256
  6
BYLAYER
  0
ENDSEC
  0
EOF
