  0
SECTION
  2
HEADER
  9
$ACADVER
  1
AC1015
  9
$ACADMAINTVER
 70
     6
  9
$DWGCODEPAGE
  3
ANSI_1252
  9
$INSBASE
 10
0.0
 20
0.0
 30
0.0
  9
$EXTMIN
 10
11.9271684963669
 20
254.7235546039
 30
0.0
  9
$EXTMAX
 10
262.603661204998
 20
386.195778171148
 30
0.0
  9
$LIMMIN
 10
0.0
 20
0.0
  9
$LIMMAX
 10
12.0
 20
9.0
  9
$ORTHOMODE
 70
     0
  9
$REGENMODE
 70
     1
  9
$FILLMODE
 70
     1
  9
$QTEXTMODE
 70
     0
  9
$MIRRTEXT
 70
     1
  9
$LTSCALE
 40
1.0
  9
$ATTMODE
 70
     1
  9
$TEXTSIZE
 40
0.2
  9
$TRACEWID
 40
0.05
  9
$TEXTSTYLE
  7
Standard
  9
$CLAYER
  8
0
  9
$CELTYPE
  6
ByLayer
  9
$CECOLOR
 62
   256
  9
$CELTSCALE
 40
1.0
  9
$DISPSILH
 70
     0
  9
$DIMSCALE
 40
1.0
  9
$DIMASZ
 40
0.18
  9
$DIMEXO
 40
0.0625
  9
$DIMDLI
 40
0.38
  9
$DIMRND
 40
0.0
  9
$DIMDLE
 40
0.0
  9
$DIMEXE
 40
0.18
  9
$DIMTP
 40
0.0
  9
$DIMTM
 40
0.0
  9
$DIMTXT
 40
0.18
  9
$DIMCEN
 40
0.09
  9
$DIMTSZ
 40
0.0
  9
$DIMTOL
 70
     0
  9
$DIMLIM
 70
     0
  9
$DIMTIH
 70
     1
  9
$DIMTOH
 70
     1
  9
$DIMSE1
 70
     0
  9
$DIMSE2
 70
     0
  9
$DIMTAD
 70
     0
  9
$DIMZIN
 70
     0
  9
$DIMBLK
  1

  9
$DIMASO
 70
     1
  9
$DIMSHO
 70
     1
  9
$DIMPOST
  1

  9
$DIMAPOST
  1

  9
$DIMALT
 70
     0
  9
$DIMALTD
 70
     2
  9
$DIMALTF
 40
25.4
  9
$DIMLFAC
 40
1.0
  9
$DIMTOFL
 70
     0
  9
$DIMTVP
 40
0.0
  9
$DIMTIX
 70
     0
  9
$DIMSOXD
 70
     0
  9
$DIMSAH
 70
     0
  9
$DIMBLK1
  1

  9
$DIMBLK2
  1

  9
$DIMSTYLE
  2
Standard
  9
$DIMCLRD
 70
     0
  9
$DIMCLRE
 70
     0
  9
$DIMCLRT
 70
     0
  9
$DIMTFAC
 40
1.0
  9
$DIMGAP
 40
0.09
  9
$DIMJUST
 70
     0
  9
$DIMSD1
 70
     0
  9
$DIMSD2
 70
     0
  9
$DIMTOLJ
 70
     1
  9
$DIMTZIN
 70
     0
  9
$DIMALTZ
 70
     0
  9
$DIMALTTZ
 70
     0
  9
$DIMUPT
 70
     0
  9
$DIMDEC
 70
     4
  9
$DIMTDEC
 70
     4
  9
$DIMALTU
 70
     2
  9
$DIMALTTD
 70
     2
  9
$DIMTXSTY
  7
Standard
  9
$DIMAUNIT
 70
     0
  9
$DIMADEC
 70
     0
  9
$DIMALTRND
 40
0.0
  9
$DIMAZIN
 70
     0
  9
$DIMDSEP
 70
    46
  9
$DIMATFIT
 70
     3
  9
$DIMFRAC
 70
     0
  9
$DIMLDRBLK
  1

  9
$DIMLUNIT
 70
     2
  9
$DIMLWD
 70
    -2
  9
$DIMLWE
 70
    -2
  9
$DIMTMOVE
 70
     0
  9
$LUNITS
 70
     2
  9
$LUPREC
 70
     4
  9
$SKETCHINC
 40
0.1
  9
$FILLETRAD
 40
0.5
  9
$AUNITS
 70
     0
  9
$AUPREC
 70
     0
  9
$MENU
  1
.
  9
$ELEVATION
 40
0.0
  9
$PELEVATION
 40
0.0
  9
$THICKNESS
 40
0.0
  9
$LIMCHECK
 70
     0
  9
$CHAMFERA
 40
0.5
  9
$CHAMFERB
 40
0.5
  9
$CHAMFERC
 40
1.0
  9
$CHAMFERD
 40
0.0
  9
$SKPOLY
 70
     0
  9
$TDCREATE
 40
2456645.679918993
  9
$TDUCREATE
 40
2456645.638252326
  9
$TDUPDATE
 40
2456645.679919004
  9
$TDUUPDATE
 40
2456645.638252338
  9
$TDINDWG
 40
0.0000000116
  9
$TDUSRTIMER
 40
0.0000000116
  9
$USRTIMER
 70
     1
  9
$ANGBASE
 50
0.0
  9
$ANGDIR
 70
     0
  9
$PDMODE
 70
     0
  9
$PDSIZE
 40
0.0
  9
$PLINEWID
 40
0.0
  9
$SPLFRAME
 70
     0
  9
$SPLINETYPE
 70
     6
  9
$SPLINESEGS
 70
     8
  9
$HANDSEED
  5
125
  9
$SURFTAB1
 70
     6
  9
$SURFTAB2
 70
     6
  9
$SURFTYPE
 70
     6
  9
$SURFU
 70
     6
  9
$SURFV
 70
     6
  9
$UCSBASE
  2

  9
$UCSNAME
  2

  9
$UCSORG
 10
0.0
 20
0.0
 30
0.0
  9
$UCSXDIR
 10
1.0
 20
0.0
 30
0.0
  9
$UCSYDIR
 10
0.0
 20
1.0
 30
0.0
  9
$UCSORTHOREF
  2

  9
$UCSORTHOVIEW
 70
     0
  9
$UCSORGTOP
 10
0.0
 20
0.0
 30
0.0
  9
$UCSORGBOTTOM
 10
0.0
 20
0.0
 30
0.0
  9
$UCSORGLEFT
 10
0.0
 20
0.0
 30
0.0
  9
$UCSORGRIGHT
 10
0.0
 20
0.0
 30
0.0
  9
$UCSORGFRONT
 10
0.0
 20
0.0
 30
0.0
  9
$UCSORGBACK
 10
0.0
 20
0.0
 30
0.0
  9
$PUCSBASE
  2

  9
$PUCSNAME
  2

  9
$PUCSORG
 10
0.0
 20
0.0
 30
0.0
  9
$PUCSXDIR
 10
1.0
 20
0.0
 30
0.0
  9
$PUCSYDIR
 10
0.0
 20
1.0
 30
0.0
  9
$PUCSORTHOREF
  2

  9
$PUCSORTHOVIEW
 70
     0
  9
$PUCSORGTOP
 10
0.0
 20
0.0
 30
0.0
  9
$PUCSORGBOTTOM
 10
0.0
 20
0.0
 30
0.0
  9
$PUCSORGLEFT
 10
0.0
 20
0.0
 30
0.0
  9
$PUCSORGRIGHT
 10
0.0
 20
0.0
 30
0.0
  9
$PUCSORGFRONT
 10
0.0
 20
0.0
 30
0.0
  9
$PUCSORGBACK
 10
0.0
 20
0.0
 30
0.0
  9
$USERI1
 70
     0
  9
$USERI2
 70
     0
  9
$USERI3
 70
     0
  9
$USERI4
 70
     0
  9
$USERI5
 70
     0
  9
$USERR1
 40
16.5
  9
$USERR2
 40
0.0
  9
$USERR3
 40
0.0
  9
$USERR4
 40
0.0
  9
$USERR5
 40
0.0
  9
$WORLDVIEW
 70
     1
  9
$SHADEDGE
 70
     3
  9
$SHADEDIF
 70
    70
  9
$TILEMODE
 70
     1
  9
$MAXACTVP
 70
    64
  9
$PINSBASE
 10
0.0
 20
0.0
 30
0.0
  9
$PLIMCHECK
 70
     0
  9
$PEXTMIN
 10
1.00000000000000E+20
 20
1.00000000000000E+20
 30
1.00000000000000E+20
  9
$PEXTMAX
 10
-1.00000000000000E+20
 20
-1.00000000000000E+20
 30
-1.00000000000000E+20
  9
$PLIMMIN
 10
0.0
 20
0.0
  9
$PLIMMAX
 10
12.0
 20
9.0
  9
$UNITMODE
 70
     0
  9
$VISRETAIN
 70
     1
  9
$PLINEGEN
 70
     0
  9
$PSLTSCALE
 70
     1
  9
$TREEDEPTH
 70
  3020
  9
$CMLSTYLE
  2
Standard
  9
$CMLJUST
 70
     0
  9
$CMLSCALE
 40
1.0
  9
$PROXYGRAPHICS
 70
     1
  9
$MEASUREMENT
 70
     1
  9
$CELWEIGHT
370
    -1
  9
$ENDCAPS
280
     0
  9
$JOINSTYLE
280
     0
  9
$LWDISPLAY
290
     0
  9
$INSUNITS
 70
     1
  9
$HYPERLINKBASE
  1

  9
$STYLESHEET
  1

  9
$XEDIT
290
     1
  9
$CEPSNTYPE
380
     0
  9
$PSTYLEMODE
290
     1
  9
$FINGERPRINTGUID
  2
{010F690B-F745-4B58-A646-0B2FB2C7F08A}
  9
$VERSIONGUID
  2
{FAEB1C32-E019-11D5-929B-00C0DF256EC4}
  9
$EXTNAMES
290
     1
  9
$PSVPSCALE
 40
0.0
  9
$OLESTARTUP
290
     0
  0
ENDSEC
  0
SECTION
  2
CLASSES
  0
CLASS
  1
ACDBDICTIONARYWDFLT
  2
AcDbDictionaryWithDefault
  3
ObjectDBX Classes
 90
        0
280
     0
281
     0
  0
CLASS
  1
VISUALSTYLE
  2
AcDbVisualStyle
  3
ObjectDBX Classes
 90
     4095
280
     0
281
     0
  0
CLASS
  1
SCALE
  2
AcDbScale
  3
ObjectDBX Classes
 90
     1153
280
     0
281
     0
  0
CLASS
  1

  2
exOdDbPolyline
  3

 90
        0
280
     0
281
     1
  0
CLASS
  1

  2
exOdDbSpline
  3

 90
        0
280
     0
281
     1
  0
CLASS
  1
DICTIONARYVAR
  2
AcDbDictionaryVar
  3
ObjectDBX Classes
 90
        0
280
     0
281
     0
  0
CLASS
  1
ACDBPLACEHOLDER
  2
AcDbPlaceHolder
  3
ObjectDBX Classes
 90
        0
280
     0
281
     0
  0
CLASS
  1
LAYOUT
  2
AcDbLayout
  3
ObjectDBX Classes
 90
        0
280
     0
281
     0
  0
ENDSEC
  0
SECTION
  2
TABLES
  0
TABLE
  2
VPORT
  5
8
330
0
100
AcDbSymbolTable
 70
     1
  0
VPORT
  5
29
330
8
100
AcDbSymbolTableRecord
100
AcDbViewportTableRecord
  2
*Active
 70
     0
 10
0.0
 20
0.0
 11
1.0
 21
1.0
 12
137.2654148506824
 22
320.459666387524
 13
0.0
 23
0.0
 14
0.5
 24
0.5
 15
0.5
 25
0.5
 16
0.0
 26
0.0
 36
1.0
 17
0.0
 27
0.0
 37
0.0
 40
172.0520551626928
 41
1.60267857142857
 42
50.0
 43
0.0
 44
0.0
 50
0.0
 51
0.0
 71
     0
 72
   100
 73
     1
 74
     3
 75
     0
 76
     0
 77
     0
 78
     0
281
     0
 65
     1
110
0.0
120
0.0
130
0.0
111
1.0
121
0.0
131
0.0
112
0.0
122
1.0
132
0.0
 79
     0
146
0.0
  0
ENDTAB
  0
TABLE
  2
LTYPE
  5
5
330
0
100
AcDbSymbolTable
 70
     9
  0
LTYPE
  5
14
330
5
100
AcDbSymbolTableRecord
100
AcDbLinetypeTableRecord
  2
ByBlock
 70
     0
  3

 72
    65
 73
     0
 40
0.0
  0
LTYPE
  5
15
330
5
100
AcDbSymbolTableRecord
100
AcDbLinetypeTableRecord
  2
ByLayer
 70
     0
  3

 72
    65
 73
     0
 40
0.0
  0
LTYPE
  5
16
330
5
100
AcDbSymbolTableRecord
100
AcDbLinetypeTableRecord
  2
Continuous
 70
     0
  3
Solid line
 72
    65
 73
     0
 40
0.0
  0
LTYPE
  5
3B
330
5
100
AcDbSymbolTableRecord
100
AcDbLinetypeTableRecord
  2
DASHED
 70
     0
  3
Dashed
 72
    65
 73
     2
 40
15.0
 49
7.0
 74
     0
 49
-8.0
 74
     0
  0
LTYPE
  5
3C
330
5
100
AcDbSymbolTableRecord
100
AcDbLinetypeTableRecord
  2
DOTTED
 70
     0
  3
Dotted
 72
    65
 73
     2
 40
1.0
 49
0.0
 74
     0
 49
-1.0
 74
     0
  0
LTYPE
  5
3D
330
5
100
AcDbSymbolTableRecord
100
AcDbLinetypeTableRecord
  2
DOT_CENTER
 70
     0
  3
Dot_Center
 72
    65
 73
     4
 40
14.0
 49
12.0
 74
     0
 49
-1.0
 74
     0
 49
0.0
 74
     0
 49
-1.0
 74
     0
  0
LTYPE
  5
3E
330
5
100
AcDbSymbolTableRecord
100
AcDbLinetypeTableRecord
  2
LONG_DASHED
 70
     0
  3
Long_Dashed
 72
    65
 73
     2
 40
15.0
 49
10.0
 74
     0
 49
-5.0
 74
     0
  0
LTYPE
  5
3F
330
5
100
AcDbSymbolTableRecord
100
AcDbLinetypeTableRecord
  2
DASH_CENTER
 70
     0
  3
Dash_Center
 72
    65
 73
     4
 40
14.0
 49
11.0
 74
     0
 49
-1.0
 74
     0
 49
1.0
 74
     0
 49
-1.0
 74
     0
  0
LTYPE
  5
40
330
5
100
AcDbSymbolTableRecord
100
AcDbLinetypeTableRecord
  2
PHANTOM
 70
     0
  3
Phantom
 72
    65
 73
     6
 40
13.0
 49
10.0
 74
     0
 49
-1.0
 74
     0
 49
0.0
 74
     0
 49
-1.0
 74
     0
 49
0.0
 74
     0
 49
-1.0
 74
     0
  0
LTYPE
  5
41
330
5
100
AcDbSymbolTableRecord
100
AcDbLinetypeTableRecord
  2
CENTER_DASH_DASH
 70
     0
  3
Center_Dash_Dash
 72
    65
 73
     6
 40
14.0
 49
9.0
 74
     0
 49
-1.0
 74
     0
 49
1.0
 74
     0
 49
-1.0
 74
     0
 49
1.0
 74
     0
 49
-1.0
 74
     0
  0
LTYPE
  5
42
330
5
100
AcDbSymbolTableRecord
100
AcDbLinetypeTableRecord
  2
HIDDEN
 70
     0
  3
HIDDEN
 72
    65
 73
     2
 40
4.0
 49
2.0
 74
     0
 49
-2.0
 74
     0
  0
ENDTAB
  0
TABLE
  2
LAYER
  5
2
330
0
100
AcDbSymbolTable
 70
     7
  0
LAYER
  5
10
330
2
100
AcDbSymbolTableRecord
100
AcDbLayerTableRecord
  2
0
 70
     0
 62
     7
  6
Continuous
370
    -3
390
F
  0
LAYER
  5
43
330
2
100
AcDbSymbolTableRecord
100
AcDbLayerTableRecord
  2
1
 70
     0
 62
     7
  6
Continuous
370
    -3
390
F
  0
LAYER
  5
44
330
2
100
AcDbSymbolTableRecord
100
AcDbLayerTableRecord
  2
BEZUGSACHSEN
 70
     0
 62
     7
  6
Continuous
370
    -3
390
F
  0
LAYER
  5
45
330
2
100
AcDbSymbolTableRecord
100
AcDbLayerTableRecord
  2
DEFAULT_2
 70
     0
 62
     7
  6
Continuous
370
    -3
390
F
  0
LAYER
  5
46
330
2
100
AcDbSymbolTableRecord
100
AcDbLayerTableRecord
  2
FASEN
 70
     0
 62
     7
  6
Continuous
370
    -3
390
F
  0
LAYER
  5
47
330
2
100
AcDbSymbolTableRecord
100
AcDbLayerTableRecord
  2
RUNDUNGEN
 70
     0
 62
     7
  6
Continuous
370
    -3
390
F
  0
LAYER
  5
48
330
2
100
AcDbSymbolTableRecord
100
AcDbLayerTableRecord
  2
TEIL_STARTBEZUEGE
 70
     0
 62
     7
  6
Continuous
370
    -3
390
F
  0
ENDTAB
  0
TABLE
  2
STYLE
  5
3
330
0
100
AcDbSymbolTable
 70
     2
  0
STYLE
  5
11
330
3
100
AcDbSymbolTableRecord
100
AcDbTextStyleTableRecord
  2
Standard
 70
     0
 40
0.0
 41
1.0
 50
0.0
 71
     0
 42
0.2
  3
txt
  4

  0
STYLE
  5
6F
330
3
100
AcDbSymbolTableRecord
100
AcDbTextStyleTableRecord
  2
CONVERTER_11
 70
     0
 40
0.0
 41
0.72
 50
0.0
 71
     0
 42
0.2
  3
txt.shx
  4

  0
ENDTAB
  0
TABLE
  2
VIEW
  5
6
330
0
100
AcDbSymbolTable
 70
     0
  0
ENDTAB
  0
TABLE
  2
UCS
  5
7
330
0
100
AcDbSymbolTable
 70
     0
  0
ENDTAB
  0
TABLE
  2
APPID
  5
9
330
0
100
AcDbSymbolTable
 70
     1
  0
APPID
  5
12
330
9
100
AcDbSymbolTableRecord
100
AcDbRegAppTableRecord
  2
ACAD
 70
     0
  0
ENDTAB
  0
TABLE
  2
DIMSTYLE
  5
A
330
0
100
AcDbSymbolTable
 70
     6
100
AcDbDimStyleTable
  0
DIMSTYLE
105
27
330
A
100
AcDbSymbolTableRecord
100
AcDbDimStyleTableRecord
  2
Standard
 70
     0
340
11
  0
DIMSTYLE
105
EC
102
{ACAD_REACTORS
330
ED
102
}
330
A
100
AcDbSymbolTableRecord
100
AcDbDimStyleTableRecord
  2
ME10_DIM_10
 70
     0
  3
<>
 41
3.5
 42
2.0
 44
2.0
 71
     1
 73
     0
 74
     0
 77
     1
 78
     8
140
3.5
146
0.7
147
2.0
172
     1
173
     1
176
     2
177
     2
178
     3
271
     2
272
     0
340
6F
  0
DIMSTYLE
105
F7
102
{ACAD_REACTORS
330
F8
102
}
330
A
100
AcDbSymbolTableRecord
100
AcDbDimStyleTableRecord
  2
ME10_DIM_11
 70
     0
  3
<>
 41
3.5
 42
2.0
 44
2.0
 71
     1
 73
     0
 74
     0
 77
     1
 78
     8
140
3.5
146
0.7
147
2.0
172
     1
173
     1
176
     2
177
     2
178
     3
271
     2
272
     0
340
6F
  0
DIMSTYLE
105
102
102
{ACAD_REACTORS
330
103
102
}
330
A
100
AcDbSymbolTableRecord
100
AcDbDimStyleTableRecord
  2
ME10_DIM_12
 70
     0
  3
<>
 41
3.5
 42
2.0
 44
2.0
 71
     1
 73
     0
 74
     0
 77
     1
 78
     8
140
3.5
146
0.7
147
2.0
172
     1
173
     1
176
     2
177
     2
178
     3
271
     2
272
     0
340
6F
  0
DIMSTYLE
105
10D
102
{ACAD_REACTORS
330
10E
102
}
330
A
100
AcDbSymbolTableRecord
100
AcDbDimStyleTableRecord
  2
ME10_DIM_13
 70
     0
  3
\U+2300<>
 41
3.5
 42
2.0
 44
2.0
 71
     1
 73
     0
 74
     0
 77
     1
 78
     8
140
3.5
146
0.7
147
2.0
172
     1
173
     1
176
     2
177
     2
178
     3
271
     2
272
     0
340
6F
  0
DIMSTYLE
105
118
102
{ACAD_REACTORS
330
119
102
}
330
A
100
AcDbSymbolTableRecord
100
AcDbDimStyleTableRecord
  2
ME10_DIM_14
 70
     0
  3
\U+2300<>
 41
3.5
 42
2.0
 44
2.0
 71
     1
 73
     0
 74
     0
 77
     1
 78
     8
140
3.5
146
0.7
147
2.0
172
     1
173
     1
176
     2
177
     2
178
     3
271
     2
272
     0
340
6F
  0
ENDTAB
  0
TABLE
  2
BLOCK_RECORD
  5
1
330
0
100
AcDbSymbolTable
 70
     8
  0
BLOCK_RECORD
  5
1F
330
1
100
AcDbSymbolTableRecord
100
AcDbBlockTableRecord
  2
*Model_Space
340
22
  0
BLOCK_RECORD
  5
1B
330
1
100
AcDbSymbolTableRecord
100
AcDbBlockTableRecord
  2
*Paper_Space
340
1E
  0
BLOCK_RECORD
  5
23
330
1
100
AcDbSymbolTableRecord
100
AcDbBlockTableRecord
  2
*Paper_Space0
340
26
  0
BLOCK_RECORD
  5
49
330
1
100
AcDbSymbolTableRecord
100
AcDbBlockTableRecord
  2
Urheberrecht_DE-EN
340
0
102
{BLKREFS
331
6E
102
}
  0
BLOCK_RECORD
  5
E3
330
1
100
AcDbSymbolTableRecord
100
AcDbBlockTableRecord
  2
*D2
340
0
  0
BLOCK_RECORD
  5
EE
330
1
100
AcDbSymbolTableRecord
100
AcDbBlockTableRecord
  2
*D3
340
0
  0
BLOCK_RECORD
  5
F9
330
1
100
AcDbSymbolTableRecord
100
AcDbBlockTableRecord
  2
*D4
340
0
  0
BLOCK_RECORD
  5
104
330
1
100
AcDbSymbolTableRecord
100
AcDbBlockTableRecord
  2
*D5
340
0
  0
BLOCK_RECORD
  5
10F
330
1
100
AcDbSymbolTableRecord
100
AcDbBlockTableRecord
  2
*D6
340
0
  0
BLOCK_RECORD
  5
11A
330
1
100
AcDbSymbolTableRecord
100
AcDbBlockTableRecord
  2
*D7
340
0
102
{BLKREFS
331
120
102
}
  0
ENDTAB
  0
ENDSEC
  0
SECTION
  2
BLOCKS
  0
BLOCK
  5
20
330
1F
100
AcDbEntity
  8
0
100
AcDbBlockBegin
  2
*Model_Space
 70
     0
 10
0.0
 20
0.0
 30
0.0
  3
*Model_Space
  1

  0
ENDBLK
  5
21
330
1F
100
AcDbEntity
  8
0
100
AcDbBlockEnd
  0
BLOCK
  5
1C
330
1B
100
AcDbEntity
 67
     1
  8
0
100
AcDbBlockBegin
  2
*Paper_Space
 70
     0
 10
0.0
 20
0.0
 30
0.0
  3
*Paper_Space
  1

  0
ENDBLK
  5
1D
330
1B
100
AcDbEntity
 67
     1
  8
0
100
AcDbBlockEnd
  0
BLOCK
  5
24
330
23
100
AcDbEntity
  8
0
100
AcDbBlockBegin
  2
*Paper_Space0
 70
     0
 10
0.0
 20
0.0
 30
0.0
  3
*Paper_Space0
  1

  0
ENDBLK
  5
25
330
23
100
AcDbEntity
  8
0
100
AcDbBlockEnd
  0
BLOCK
  5
4A
330
49
100
AcDbEntity
  8
0
100
AcDbBlockBegin
  2
Urheberrecht_DE-EN
 70
     0
 10
25.9271684963669
 20
322.632688081919
 30
0.0
  3
Urheberrecht_DE-EN
  1

  0
MTEXT
  5
70
330
49
100
AcDbEntity
  8
1
 62
     1
100
AcDbMText
 10
25.9271684963669
 20
266.3433011646128
 30
0.0
 40
2.0
 41
0.0
 71
     7
 72
     1
  1
F\U+00fcr diese Unterlage behalten wir das Ur-\Pheberrecht. Sie darf nur f\U+00fcr den von uns \Pbestimmten Zweck benutzt und ohne unsere \PZustimmung weder vervielf\U+00e4ltigt noch\PDritten zug\U+00e4nglich gemacht werden.
  7
CONVERTER_11
 11
0.0
 21
1.0
 31
0.0
 73
     1
 44
0.90036014405762
  0
MTEXT
  5
71
330
49
100
AcDbEntity
  8
1
 62
     1
100
AcDbMText
 10
25.9271684963669
 20
322.632688081919
 30
0.0
 40
2.0
 41
0.0
 71
     7
 72
     1
  1
We own the copyright of this document. It \Pdetermined and may neither be copied or \Pmade accessible to outsiders without our\Ppermission.
  7
CONVERTER_11
 11
0.0
 21
1.0
 31
0.0
 73
     1
 44
0.90036014405762
  0
ENDBLK
  5
4B
330
49
100
AcDbEntity
  8
0
100
AcDbBlockEnd
  0
BLOCK
  5
EA
330
E3
100
AcDbEntity
  8
0
100
AcDbBlockBegin
  2
*D2
 70
     1
 10
0.0
 20
0.0
 30
0.0
  3
*D2
  1

  0
LINE
  5
E4
330
E3
100
AcDbEntity
  8
1
  6
Continuous
 62
     2
100
AcDbLine
 10
240.3630286403
 20
380.695778171148
 30
0.0
 11
33.56302864029999
 21
380.695778171148
 31
0.0
  0
LINE
  5
E5
330
E3
100
AcDbEntity
  8
1
  6
Continuous
 62
     2
100
AcDbLine
 10
33.56302864029999
 20
329.0492500115
 30
0.0
 11
33.56302864029999
 21
382.695778171148
 31
0.0
  0
LINE
  5
E6
330
E3
100
AcDbEntity
  8
1
  6
Continuous
 62
     2
100
AcDbLine
 10
240.3630286403
 20
338.3305011044
 30
0.0
 11
240.3630286403
 21
382.695778171148
 31
0.0
  0
SOLID
  5
E7
330
E3
100
AcDbEntity
  8
1
 62
     2
100
AcDbTrace
 10
236.8630286403
 20
380.2349944295921
 30
0.0
 11
236.8630286403
 21
381.1565619127039
 31
0.0
 12
240.3630286403
 22
380.695778171148
 32
0.0
 13
240.3630286403
 23
380.695778171148
 33
0.0
  0
SOLID
  5
E8
330
E3
100
AcDbEntity
  8
1
 62
     2
100
AcDbTrace
 10
37.06302864029999
 20
381.1565619127039
 30
0.0
 11
37.06302864029999
 21
380.2349944295921
 31
0.0
 12
33.56302864029999
 22
380.695778171148
 32
0.0
 13
33.56302864029999
 23
380.695778171148
 33
0.0
  0
MTEXT
  5
E9
330
E3
100
AcDbEntity
  8
1
 62
     3
100
AcDbMText
 10
137.968060437708
 20
382.695778171148
 30
0.0
 40
3.5
 41
0.0
 71
     7
 72
     1
  1
\C3;\C3;\C3;206.8\C2;\H2.45;\S^ ;\C3;
  7
CONVERTER_11
 11
0.9999999999970619
 21
2.424068405545306E-6
 31
0.0
 73
     1
 44
0.60024009603842
  0
ENDBLK
  5
EB
330
E3
100
AcDbEntity
  8
0
100
AcDbBlockEnd
  0
BLOCK
  5
F5
330
EE
100
AcDbEntity
  8
0
100
AcDbBlockBegin
  2
*D3
 70
     1
 10
0.0
 20
0.0
 30
0.0
  3
*D3
  1

  0
LINE
  5
EF
330
EE
100
AcDbEntity
  8
1
  6
Continuous
 62
     2
100
AcDbLine
 10
240.3630286403
 20
371.953324265667
 30
0.0
 11
135.3630286403
 21
371.953324265667
 31
0.0
  0
LINE
  5
F0
330
EE
100
AcDbEntity
  8
1
  6
Continuous
 62
     2
100
AcDbLine
 10
135.3630286403
 20
362.8235546039
 30
0.0
 11
135.3630286403
 21
373.953324265667
 31
0.0
  0
LINE
  5
F1
330
EE
100
AcDbEntity
  8
1
  6
Continuous
 62
     2
100
AcDbLine
 10
240.3630286403
 20
338.3305011044
 30
0.0
 11
240.3630286403
 21
373.953324265667
 31
0.0
  0
SOLID
  5
F2
330
EE
100
AcDbEntity
  8
1
 62
     2
100
AcDbTrace
 10
236.8630286403
 20
371.4925405241111
 30
0.0
 11
236.8630286403
 21
372.4141080072229
 31
0.0
 12
240.3630286403
 22
371.953324265667
 32
0.0
 13
240.3630286403
 23
371.953324265667
 33
0.0
  0
SOLID
  5
F3
330
EE
100
AcDbEntity
  8
1
 62
     2
100
AcDbTrace
 10
138.8630286403
 20
372.4141080072229
 30
0.0
 11
138.8630286403
 21
371.4925405241111
 31
0.0
 12
135.3630286403
 22
371.953324265667
 32
0.0
 13
135.3630286403
 23
371.953324265667
 33
0.0
  0
MTEXT
  5
F4
330
EE
100
AcDbEntity
  8
1
 62
     3
100
AcDbMText
 10
184.310185846552
 20
373.953324265667
 30
0.0
 40
3.5
 41
0.0
 71
     7
 72
     1
  1
\C3;\C3;\C3;105\C2;\H2.45;\S^ ;\C3;
  7
CONVERTER_11
 11
0.9999999999970619
 21
2.424068405545306E-6
 31
0.0
 73
     1
 44
0.60024009603842
  0
ENDBLK
  5
F6
330
EE
100
AcDbEntity
  8
0
100
AcDbBlockEnd
  0
BLOCK
  5
100
330
F9
100
AcDbEntity
  8
0
100
AcDbBlockBegin
  2
*D4
 70
     1
 10
0.0
 20
0.0
 30
0.0
  3
*D4
  1

  0
LINE
  5
FA
330
F9
100
AcDbEntity
  8
1
  6
Continuous
 62
     2
100
AcDbLine
 10
240.3630286403
 20
364.695438004514
 30
0.0
 11
173.3630286403
 21
364.695438004514
 31
0.0
  0
LINE
  5
FB
330
F9
100
AcDbEntity
  8
1
  6
Continuous
 62
     2
100
AcDbLine
 10
173.3630286403
 20
358.8235546039
 30
0.0
 11
173.3630286403
 21
366.695438004514
 31
0.0
  0
LINE
  5
FC
330
F9
100
AcDbEntity
  8
1
  6
Continuous
 62
     2
100
AcDbLine
 10
240.3630286403
 20
338.3305011044
 30
0.0
 11
240.3630286403
 21
366.695438004514
 31
0.0
  0
SOLID
  5
FD
330
F9
100
AcDbEntity
  8
1
 62
     2
100
AcDbTrace
 10
236.8630286403
 20
364.2346542629581
 30
0.0
 11
236.8630286403
 21
365.1562217460699
 31
0.0
 12
240.3630286403
 22
364.695438004514
 32
0.0
 13
240.3630286403
 23
364.695438004514
 33
0.0
  0
SOLID
  5
FE
330
F9
100
AcDbEntity
  8
1
 62
     2
100
AcDbTrace
 10
176.8630286403
 20
365.1562217460699
 30
0.0
 11
176.8630286403
 21
364.2346542629581
 31
0.0
 12
173.3630286403
 22
364.695438004514
 32
0.0
 13
173.3630286403
 23
364.695438004514
 33
0.0
  0
MTEXT
  5
FF
330
F9
100
AcDbEntity
  8
1
 62
     3
100
AcDbMText
 10
203.459853459917
 20
366.695438004514
 30
0.0
 40
3.5
 41
0.0
 71
     7
 72
     1
  1
\C3;\C3;\C3;67\C2;\H2.45;\S^ ;\C3;
  7
CONVERTER_11
 11
0.9999999999970619
 21
2.424068405545306E-6
 31
0.0
 73
     1
 44
0.60024009603842
  0
ENDBLK
  5
101
330
F9
100
AcDbEntity
  8
0
100
AcDbBlockEnd
  0
BLOCK
  5
10B
330
104
100
AcDbEntity
  8
0
100
AcDbBlockBegin
  2
*D5
 70
     1
 10
0.0
 20
0.0
 30
0.0
  3
*D5
  1

  0
LINE
  5
105
330
104
100
AcDbEntity
  8
1
  6
Continuous
 62
     2
100
AcDbLine
 10
260.603661204998
 20
343.8360546039
 30
0.0
 11
260.603661204998
 21
271.8360546039
 31
0.0
  0
LINE
  5
106
330
104
100
AcDbEntity
  8
1
  6
Continuous
 62
     2
100
AcDbLine
 10
230.0950794478
 20
271.8360546039
 30
0.0
 11
262.603661204998
 21
271.8360546039
 31
0.0
  0
LINE
  5
107
330
104
100
AcDbEntity
  8
1
  6
Continuous
 62
     2
100
AcDbLine
 10
230.0950794478
 20
343.8360546039
 30
0.0
 11
262.603661204998
 21
343.8360546039
 31
0.0
  0
SOLID
  5
108
330
104
100
AcDbEntity
  8
1
 62
     2
100
AcDbTrace
 10
261.0644449465539
 20
340.3360546039
 30
0.0
 11
260.1428774634421
 21
340.3360546039
 31
0.0
 12
260.603661204998
 22
343.8360546039
 32
0.0
 13
260.603661204998
 23
343.8360546039
 33
0.0
  0
SOLID
  5
109
330
104
100
AcDbEntity
  8
1
 62
     2
100
AcDbTrace
 10
260.1428774634421
 20
275.3360546039
 30
0.0
 11
261.0644449465539
 21
275.3360546039
 31
0.0
 12
260.603661204998
 22
271.8360546039
 32
0.0
 13
260.603661204998
 23
271.8360546039
 33
0.0
  0
MTEXT
  5
10A
330
104
100
AcDbEntity
  8
1
 62
     3
100
AcDbMText
 10
258.603661204998
 20
298.734154831723
 30
0.0
 40
3.5
 41
0.0
 71
     7
 72
     1
  1
\C3;%%c\C3;\C3;72\C2;\H2.45;\S^ ;\C3;
  7
CONVERTER_11
 11
0.0
 21
1.0
 31
0.0
 73
     1
 44
0.60024009603842
  0
ENDBLK
  5
10C
330
104
100
AcDbEntity
  8
0
100
AcDbBlockEnd
  0
BLOCK
  5
116
330
10F
100
AcDbEntity
  8
0
100
AcDbBlockBegin
  2
*D6
 70
     1
 10
0.0
 20
0.0
 30
0.0
  3
*D6
  1

  0
LINE
  5
110
330
10F
100
AcDbEntity
  8
1
  6
Continuous
 62
     2
100
AcDbLine
 10
252.068935560379
 20
323.8360546039
 30
0.0
 11
252.068935560379
 21
291.8360546039
 31
0.0
  0
LINE
  5
111
330
10F
100
AcDbEntity
  8
1
  6
Continuous
 62
     2
100
AcDbLine
 10
242.3630286403
 20
291.8360546039
 30
0.0
 11
254.068935560379
 21
291.8360546039
 31
0.0
  0
LINE
  5
112
330
10F
100
AcDbEntity
  8
1
  6
Continuous
 62
     2
100
AcDbLine
 10
242.3630286403
 20
323.8360546039
 30
0.0
 11
254.068935560379
 21
323.8360546039
 31
0.0
  0
SOLID
  5
113
330
10F
100
AcDbEntity
  8
1
 62
     2
100
AcDbTrace
 10
252.5297193019349
 20
320.3360546039
 30
0.0
 11
251.6081518188231
 21
320.3360546039
 31
0.0
 12
252.068935560379
 22
323.8360546039
 32
0.0
 13
252.068935560379
 23
323.8360546039
 33
0.0
  0
SOLID
  5
114
330
10F
100
AcDbEntity
  8
1
 62
     2
100
AcDbTrace
 10
251.6081518188231
 20
295.3360546039
 30
0.0
 11
252.5297193019349
 21
295.3360546039
 31
0.0
 12
252.068935560379
 22
291.8360546039
 32
0.0
 13
252.068935560379
 23
291.8360546039
 33
0.0
  0
MTEXT
  5
115
330
10F
100
AcDbEntity
  8
1
 62
     3
100
AcDbMText
 10
250.068935560379
 20
298.405896153085
 30
0.0
 40
3.5
 41
0.0
 71
     7
 72
     1
  1
\C3;%%c\C3;\C3;32\C2;\H2.45;\S^ ;\C3;
  7
CONVERTER_11
 11
0.0
 21
1.0
 31
0.0
 73
     1
 44
0.60024009603842
  0
ENDBLK
  5
117
330
10F
100
AcDbEntity
  8
0
100
AcDbBlockEnd
  0
BLOCK
  5
11E
330
11A
100
AcDbEntity
  8
0
100
AcDbBlockBegin
  2
*D7
 70
     1
 10
0.0
 20
0.0
 30
0.0
  3
*D7
  1

  0
LINE
  5
11B
330
11A
100
AcDbEntity
  8
1
  6
Continuous
 62
     2
100
AcDbLine
 10
182.9909890621848
 20
352.3160624353453
 30
0.0
 11
173.6074454151639
 21
344.1810019419765
 31
0.0
  0
SOLID
  5
11C
330
11A
100
AcDbEntity
  8
1
 62
     2
100
AcDbTrace
 10
175.9501490866628
 20
346.8218467242437
 30
0.0
 11
176.5538243196173
 21
346.1255257931737
 31
0.0
 12
173.6074454151639
 22
344.1810019419765
 32
0.0
 13
173.6074454151639
 23
344.1810019419765
 33
0.0
  0
MTEXT
  5
11D
330
11A
100
AcDbEntity
  8
1
 62
     3
100
AcDbMText
 10
176.7091461169428
 20
349.5169823701607
 30
0.0
 40
3.5
 41
0.0
 71
     7
 72
     1
  1
\C3; R\C3;\C3;1\C2;\H2.45;\S^ ;\C3;
  7
CONVERTER_11
 11
0.7555832251360234
 21
0.6550526619234864
 31
0.0
 73
     1
 44
0.60024009603842
  0
ENDBLK
  5
11F
330
11A
100
AcDbEntity
  8
0
100
AcDbBlockEnd
  0
ENDSEC
  0
SECTION
  2
ENTITIES
  0
INSERT
  5
6E
330
1F
100
AcDbEntity
  8
0
100
AcDbBlockReference
  2
Urheberrecht_DE-EN
 10
25.9271684963669
 20
322.632688081919
 30
0.0
  0
LINE
  5
72
330
1F
100
AcDbEntity
  8
BEZUGSACHSEN
  6
HIDDEN
 62
     8
100
AcDbLine
 10
178.3630286403
 20
323.8360546039
 30
0.0
 11
178.3630286403
 21
343.8360546039
 31
0.0
  0
LINE
  5
73
330
1F
100
AcDbEntity
  8
BEZUGSACHSEN
  6
HIDDEN
 62
     8
100
AcDbLine
 10
206.3630286403
 20
323.8360546039
 30
0.0
 11
206.3630286403
 21
343.8360546039
 31
0.0
  0
LINE
  5
74
330
1F
100
AcDbEntity
  8
BEZUGSACHSEN
  6
HIDDEN
 62
     8
100
AcDbLine
 10
198.3630286403
 20
323.8360546039
 30
0.0
 11
198.3630286403
 21
343.8360546039
 31
0.0
  0
LINE
  5
75
330
1F
100
AcDbEntity
  8
BEZUGSACHSEN
  6
HIDDEN
 62
     8
100
AcDbLine
 10
226.3630286403
 20
323.8360546039
 30
0.0
 11
226.3630286403
 21
343.8360546039
 31
0.0
  0
LINE
  5
76
330
1F
100
AcDbEntity
  8
RUNDUNGEN
  6
Continuous
 62
     7
100
AcDbLine
 10
240.3630286403
 20
279.3416081033
 30
0.0
 11
240.3630286403
 21
336.3305011044
 31
0.0
  0
LINE
  5
77
330
1F
100
AcDbEntity
  8
RUNDUNGEN
  6
Continuous
 62
     9
100
AcDbLine
 10
239.8630286403
 20
278.4755826995
 30
0.0
 11
239.8630286403
 21
337.1965265082
 31
0.0
  0
LINE
  5
78
330
1F
100
AcDbEntity
  8
RUNDUNGEN
  6
Continuous
 62
     9
100
AcDbLine
 10
228.5950794478
 20
271.9700292001
 30
0.0
 11
228.5950794478
 21
343.7020800076
 31
0.0
  0
LINE
  5
79
330
1F
100
AcDbEntity
  8
RUNDUNGEN
  6
Continuous
 62
     9
100
AcDbLine
 10
228.0950794478
 20
271.8360546039
 30
0.0
 11
228.0950794478
 21
343.8360546039
 31
0.0
  0
LINE
  5
7A
330
1F
100
AcDbEntity
  8
BEZUGSACHSEN
  6
HIDDEN
 62
     8
100
AcDbLine
 10
225.1130286403
 20
323.8360546039
 30
0.0
 11
225.1130286403
 21
343.8360546039
 31
0.0
  0
LWPOLYLINE
  5
7B
330
1F
100
AcDbEntity
  8
BEZUGSACHSEN
  6
DOT_CENTER
 62
     7
100
AcDbPolyline
 90
        2
 70
     0
 43
0.25
 10
216.3630286403
 20
346.8360546039
 10
216.3630286403
 20
318.2314829418
  0
LINE
  5
7C
330
1F
100
AcDbEntity
  8
0
  6
Continuous
 62
     7
100
AcDbLine
 10
228.5950794478
 20
343.7020800076
 30
0.0
 11
239.8630286403
 21
337.1965265082
 31
0.0
  0
LINE
  5
7D
330
1F
100
AcDbEntity
  8
RUNDUNGEN
  6
Continuous
 62
     7
100
AcDbLine
 10
239.8630286403
 20
337.1965265082
 30
0.0
 11
228.5950794478
 21
343.7020800076
 31
0.0
  0
LINE
  5
7E
330
1F
100
AcDbEntity
  8
0
  6
Continuous
 62
     7
100
AcDbLine
 10
228.5950794478
 20
271.9700292001
 30
0.0
 11
239.8630286403
 21
278.4755826995
 31
0.0
  0
LINE
  5
7F
330
1F
100
AcDbEntity
  8
RUNDUNGEN
  6
Continuous
 62
     7
100
AcDbLine
 10
239.8630286403
 20
278.4755826995
 30
0.0
 11
228.5950794478
 21
271.9700292001
 31
0.0
  0
LINE
  5
80
330
1F
100
AcDbEntity
  8
BEZUGSACHSEN
  6
HIDDEN
 62
     8
100
AcDbLine
 10
207.6130286403
 20
323.8360546039
 30
0.0
 11
207.6130286403
 21
343.8360546039
 31
0.0
  0
LINE
  5
81
330
1F
100
AcDbEntity
  8
BEZUGSACHSEN
  6
HIDDEN
 62
     8
100
AcDbLine
 10
197.1130286403
 20
323.8360546039
 30
0.0
 11
197.1130286403
 21
343.8360546039
 31
0.0
  0
LINE
  5
82
330
1F
100
AcDbEntity
  8
0
  6
Continuous
 62
     7
100
AcDbLine
 10
139.3630286403
 20
357.8235546039
 30
0.0
 11
151.0323604041
 21
357.8235546039
 31
0.0
  0
LINE
  5
83
330
1F
100
AcDbEntity
  8
0
  6
Continuous
 62
     7
100
AcDbLine
 10
172.3630286403
 20
357.8235546039
 30
0.0
 11
166.0936968764
 21
357.8235546039
 31
0.0
  0
LWPOLYLINE
  5
84
330
1F
100
AcDbEntity
  8
BEZUGSACHSEN
  6
DOT_CENTER
 62
     7
100
AcDbPolyline
 90
        2
 70
     0
 43
0.25
 10
188.3630286403
 20
346.8360546039
 10
188.3630286403
 20
318.2314829418
  0
LINE
  5
85
330
1F
100
AcDbEntity
  8
0
  6
Continuous
 62
     7
100
AcDbLine
 10
155.2755286403
 20
350.2110546039
 30
0.0
 11
161.8505286403
 21
350.2110546039
 31
0.0
  0
LINE
  5
86
330
1F
100
AcDbEntity
  8
BEZUGSACHSEN
  6
HIDDEN
 62
     8
100
AcDbLine
 10
179.6130286403
 20
323.8360546039
 30
0.0
 11
179.6130286403
 21
343.8360546039
 31
0.0
  0
LINE
  5
87
330
1F
100
AcDbEntity
  8
0
  6
Continuous
 62
     7
100
AcDbLine
 10
151.0323604041
 20
357.8235546039
 30
0.0
 11
155.0255286403
 21
350.9071843356
 31
0.0
  0
LINE
  5
88
330
1F
100
AcDbEntity
  8
0
  6
Continuous
 62
     7
100
AcDbLine
 10
135.7130286403
 20
342.4110546039
 30
0.0
 11
134.743838024
 21
342.6707484468
 31
0.0
  0
LINE
  5
89
330
1F
100
AcDbEntity
  8
0
  6
Continuous
 62
     7
100
AcDbLine
 10
225.1130286403
 20
343.8360546039
 30
0.0
 11
228.0950794478
 21
343.8360546039
 31
0.0
  0
LINE
  5
8A
330
1F
100
AcDbEntity
  8
0
  6
Continuous
 62
     7
100
AcDbLine
 10
197.1130286403
 20
343.8360546039
 30
0.0
 11
207.6130286403
 21
343.8360546039
 31
0.0
  0
LINE
  5
8B
330
1F
100
AcDbEntity
  8
0
  6
Continuous
 62
     7
100
AcDbLine
 10
174.3630286403
 20
343.8360546039
 30
0.0
 11
179.6130286403
 21
343.8360546039
 31
0.0
  0
LINE
  5
8C
330
1F
100
AcDbEntity
  8
BEZUGSACHSEN
  6
Continuous
 62
     7
100
AcDbLine
 10
179.6130286403
 20
343.8360546039
 30
0.0
 11
174.3630286403
 21
343.8360546039
 31
0.0
  0
LINE
  5
8D
330
1F
100
AcDbEntity
  8
BEZUGSACHSEN
  6
Continuous
 62
     7
100
AcDbLine
 10
207.6130286403
 20
343.8360546039
 30
0.0
 11
197.1130286403
 21
343.8360546039
 31
0.0
  0
LINE
  5
8E
330
1F
100
AcDbEntity
  8
BEZUGSACHSEN
  6
Continuous
 62
     7
100
AcDbLine
 10
228.0950794478
 20
343.8360546039
 30
0.0
 11
225.1130286403
 21
343.8360546039
 31
0.0
  0
LINE
  5
8F
330
1F
100
AcDbEntity
  8
0
  6
Continuous
 62
     7
100
AcDbLine
 10
137.3630286403
 20
342.4110546039
 30
0.0
 11
135.7130286403
 21
342.4110546039
 31
0.0
  0
LINE
  5
90
330
1F
100
AcDbEntity
  8
0
  6
Continuous
 62
     7
100
AcDbLine
 10
134.743838024
 20
342.6707484468
 30
0.0
 11
34.4187099711
 21
328.0387812752
 31
0.0
  0
LINE
  5
91
330
1F
100
AcDbEntity
  8
0
  6
Continuous
 62
     7
100
AcDbLine
 10
151.0323604041
 20
257.8485546039
 30
0.0
 11
155.0255286403
 21
264.7649248721
 31
0.0
  0
LINE
  5
92
330
1F
100
AcDbEntity
  8
DEFAULT_2
  6
HIDDEN
 62
     8
100
AcDbLine
 10
175.2630286403
 20
323.8360546039
 30
0.0
 11
175.2630286403
 21
291.8360546039
 31
0.0
  0
LINE
  5
93
330
1F
100
AcDbEntity
  8
RUNDUNGEN
  6
Continuous
 62
     9
100
AcDbLine
 10
174.3630286403
 20
343.8360546039
 30
0.0
 11
174.3630286403
 21
271.8360546039
 31
0.0
  0
LINE
  5
94
330
1F
100
AcDbEntity
  8
0
  6
Continuous
 62
     7
100
AcDbLine
 10
173.3630286403
 20
356.8235546039
 30
0.0
 11
173.3630286403
 21
258.8485546039
 31
0.0
  0
LINE
  5
95
330
1F
100
AcDbEntity
  8
0
  6
Continuous
 62
     9
100
AcDbLine
 10
172.3630286403
 20
357.8235546039
 30
0.0
 11
172.3630286403
 21
257.8485546039
 31
0.0
  0
LINE
  5
96
330
1F
100
AcDbEntity
  8
0
  6
Continuous
 62
     7
100
AcDbLine
 10
166.0936968764
 20
297.3684142969
 30
0.0
 11
166.0936968764
 21
257.8485546039
 31
0.0
  0
LINE
  5
97
330
1F
100
AcDbEntity
  8
0
  6
Continuous
 62
     7
100
AcDbLine
 10
166.0936968764
 20
357.8235546039
 30
0.0
 11
166.0936968764
 21
318.3037047822
 31
0.0
  0
LINE
  5
98
330
1F
100
AcDbEntity
  8
0
  6
Continuous
 62
     7
100
AcDbLine
 10
162.1005286403
 20
319.5587849279
 30
0.0
 11
162.1005286403
 21
350.9071843356
 31
0.0
  0
LINE
  5
99
330
1F
100
AcDbEntity
  8
0
  6
Continuous
 62
     7
100
AcDbLine
 10
162.1005286403
 20
264.7649248721
 30
0.0
 11
162.1005286403
 21
296.1133242798
 31
0.0
  0
LINE
  5
9A
330
1F
100
AcDbEntity
  8
0
  6
Continuous
 62
     9
100
AcDbLine
 10
161.8505286403
 20
319.6705341551
 30
0.0
 11
161.8505286403
 21
350.2110546039
 31
0.0
  0
LINE
  5
9B
330
1F
100
AcDbEntity
  8
0
  6
Continuous
 62
     9
100
AcDbLine
 10
161.8505286403
 20
265.4610546039
 30
0.0
 11
161.8505286403
 21
296.0015750526
 31
0.0
  0
LINE
  5
9C
330
1F
100
AcDbEntity
  8
0
  6
Continuous
 62
     9
100
AcDbLine
 10
155.2755286403
 20
320.7385546039
 30
0.0
 11
155.2755286403
 21
350.2110546039
 31
0.0
  0
LINE
  5
9D
330
1F
100
AcDbEntity
  8
0
  6
Continuous
 62
     9
100
AcDbLine
 10
155.2755286403
 20
265.4610546039
 30
0.0
 11
155.2755286403
 21
294.9335546039
 31
0.0
  0
LINE
  5
9E
330
1F
100
AcDbEntity
  8
0
  6
Continuous
 62
     7
100
AcDbLine
 10
155.0255286403
 20
294.9335546039
 30
0.0
 11
155.0255286403
 21
264.7650732819
 31
0.0
  0
LINE
  5
9F
330
1F
100
AcDbEntity
  8
0
  6
Continuous
 62
     7
100
AcDbLine
 10
155.0255286403
 20
350.9070359258
 30
0.0
 11
155.0255286403
 21
320.7385546039
 31
0.0
  0
LINE
  5
A0
330
1F
100
AcDbEntity
  8
FASEN
  6
Continuous
 62
     7
100
AcDbLine
 10
138.3630286403
 20
321.7385546039
 30
0.0
 11
139.3630286403
 21
320.7385546039
 31
0.0
  0
LINE
  5
A1
330
1F
100
AcDbEntity
  8
DEFAULT_2
  6
HIDDEN
 62
     8
100
AcDbLine
 10
207.6130286403
 20
323.8360546039
 30
0.0
 11
240.3630286403
 21
323.8360546039
 31
0.0
  0
LINE
  5
A2
330
1F
100
AcDbEntity
  8
DEFAULT_2
  6
HIDDEN
 62
     8
100
AcDbLine
 10
179.6130286403
 20
323.8360546039
 30
0.0
 11
207.6130286403
 21
323.8360546039
 31
0.0
  0
LINE
  5
A3
330
1F
100
AcDbEntity
  8
DEFAULT_2
  6
HIDDEN
 62
     8
100
AcDbLine
 10
175.2630286403
 20
323.8360546039
 30
0.0
 11
179.6130286403
 21
323.8360546039
 31
0.0
  0
LINE
  5
A4
330
1F
100
AcDbEntity
  8
0
  6
Continuous
 62
     7
100
AcDbLine
 10
139.3630286403
 20
322.0223514908
 30
0.0
 11
151.0323604041
 21
322.0223514908
 31
0.0
  0
LINE
  5
A5
330
1F
100
AcDbEntity
  8
0
  6
Continuous
 62
     7
100
AcDbLine
 10
139.3630286403
 20
320.7385546039
 30
0.0
 11
156.7105286403
 21
320.7385546039
 31
0.0
  0
LINE
  5
A6
330
1F
100
AcDbEntity
  8
FASEN
  6
Continuous
 62
     7
100
AcDbLine
 10
138.3630286403
 20
293.9335546039
 30
0.0
 11
139.3630286403
 21
294.9335546039
 31
0.0
  0
LINE
  5
A7
330
1F
100
AcDbEntity
  8
0
  6
Continuous
 62
     7
100
AcDbLine
 10
151.0323604041
 20
293.6497577169
 30
0.0
 11
151.0323604041
 21
257.8485546039
 31
0.0
  0
LINE
  5
A8
330
1F
100
AcDbEntity
  8
0
  6
Continuous
 62
     7
100
AcDbLine
 10
151.0323604041
 20
357.8235546039
 30
0.0
 11
151.0323604041
 21
322.0223514908
 31
0.0
  0
LINE
  5
A9
330
1F
100
AcDbEntity
  8
0
  6
Continuous
 62
     9
100
AcDbLine
 10
139.3630286403
 20
322.0223514908
 30
0.0
 11
139.3630286403
 21
357.8235546039
 31
0.0
  0
LINE
  5
AA
330
1F
100
AcDbEntity
  8
FASEN
  6
Continuous
 62
     9
100
AcDbLine
 10
139.3630286403
 20
293.6497577169
 30
0.0
 11
139.3630286403
 21
294.9335546039
 31
0.0
  0
LINE
  5
AB
330
1F
100
AcDbEntity
  8
0
  6
Continuous
 62
     9
100
AcDbLine
 10
139.3630286403
 20
257.8485546039
 30
0.0
 11
139.3630286403
 21
293.6497577169
 31
0.0
  0
LINE
  5
AC
330
1F
100
AcDbEntity
  8
FASEN
  6
Continuous
 62
     9
100
AcDbLine
 10
139.3630286403
 20
322.0223514908
 30
0.0
 11
139.3630286403
 21
320.7385546039
 31
0.0
  0
LINE
  5
AD
330
1F
100
AcDbEntity
  8
FASEN
  6
Continuous
 62
     7
100
AcDbLine
 10
138.3630286403
 20
312.9878140121
 30
0.0
 11
138.3630286403
 21
356.8234271633
 31
0.0
  0
LINE
  5
AE
330
1F
100
AcDbEntity
  8
FASEN
  6
Continuous
 62
     7
100
AcDbLine
 10
138.3630286403
 20
258.8486819857
 30
0.0
 11
138.3630286403
 21
302.6842951957
 31
0.0
  0
LINE
  5
AF
330
1F
100
AcDbEntity
  8
0
  6
Continuous
 62
     7
100
AcDbLine
 10
138.3630286403
 20
293.9335546039
 30
0.0
 11
138.3630286403
 21
258.8488966161
 31
0.0
  0
LINE
  5
B0
330
1F
100
AcDbEntity
  8
0
  6
Continuous
 62
     7
100
AcDbLine
 10
138.3630286403
 20
356.7994680063
 30
0.0
 11
138.3630286403
 21
321.7385546039
 31
0.0
  0
LINE
  5
B1
330
1F
100
AcDbEntity
  8
0
  6
Continuous
 62
     7
100
AcDbLine
 10
162.1005286403
 20
264.7649248721
 30
0.0
 11
166.0936968764
 21
257.8485546039
 31
0.0
  0
LWPOLYLINE
  5
B2
330
1F
100
AcDbEntity
  8
TEIL_STARTBEZUEGE
  6
DOT_CENTER
 62
     7
100
AcDbPolyline
 90
        2
 70
     0
 43
0.25
 10
243.3630286403
 20
307.8360546039
 10
30.5630286403
 20
307.8360546039
  0
LINE
  5
B3
330
1F
100
AcDbEntity
  8
0
  6
Continuous
 62
     7
100
AcDbLine
 10
162.1005286403
 20
350.9071843356
 30
0.0
 11
166.0936968764
 21
357.8235546039
 31
0.0
  0
LINE
  5
B4
330
1F
100
AcDbEntity
  8
0
  6
Continuous
 62
     9
100
AcDbLine
 10
137.3630286403
 20
342.4110546039
 30
0.0
 11
137.3630286403
 21
273.2610546039
 31
0.0
  0
LINE
  5
B5
330
1F
100
AcDbEntity
  8
0
  6
Continuous
 62
     7
100
AcDbLine
 10
135.7130286403
 20
342.4110546039
 30
0.0
 11
135.7130286403
 21
273.2610546039
 31
0.0
  0
LWPOLYLINE
  5
B6
330
1F
100
AcDbEntity
  8
TEIL_STARTBEZUEGE
  6
DOT_CENTER
 62
     7
100
AcDbPolyline
 90
        2
 70
     0
 43
0.25
 10
135.3630286403
 20
254.8485546039
 10
135.3630286403
 20
360.8235546039
  0
LINE
  5
B7
330
1F
100
AcDbEntity
  8
0
  6
Continuous
 62
     7
100
AcDbLine
 10
134.743838024
 20
342.6707484468
 30
0.0
 11
134.743838024
 21
273.0013607609
 31
0.0
  0
LINE
  5
B8
330
1F
100
AcDbEntity
  8
0
  6
Continuous
 62
     7
100
AcDbLine
 10
139.3630286403
 20
294.9335546039
 30
0.0
 11
156.7105286403
 21
294.9335546039
 31
0.0
  0
LINE
  5
B9
330
1F
100
AcDbEntity
  8
0
  6
Continuous
 62
     7
100
AcDbLine
 10
151.0323604041
 20
293.6497577169
 30
0.0
 11
139.3630286403
 21
293.6497577169
 31
0.0
  0
LINE
  5
BA
330
1F
100
AcDbEntity
  8
DEFAULT_2
  6
HIDDEN
 62
     8
100
AcDbLine
 10
240.3630286403
 20
291.8360546039
 30
0.0
 11
175.2630286403
 21
291.8360546039
 31
0.0
  0
LINE
  5
BB
330
1F
100
AcDbEntity
  8
0
  6
Continuous
 62
     7
100
AcDbLine
 10
34.4187099711
 20
287.6333279326
 30
0.0
 11
134.743838024
 21
273.0013607609
 31
0.0
  0
LINE
  5
BC
330
1F
100
AcDbEntity
  8
0
  6
Continuous
 62
     7
100
AcDbLine
 10
137.3630286403
 20
273.2610546039
 30
0.0
 11
135.7130286403
 21
273.2610546039
 31
0.0
  0
LINE
  5
BD
330
1F
100
AcDbEntity
  8
0
  6
Continuous
 62
     7
100
AcDbLine
 10
174.3630286403
 20
271.8360546039
 30
0.0
 11
228.0950794478
 21
271.8360546039
 31
0.0
  0
LINE
  5
BE
330
1F
100
AcDbEntity
  8
0
  6
Continuous
 62
     7
100
AcDbLine
 10
135.7130286403
 20
273.2610546039
 30
0.0
 11
134.743838024
 21
273.0013607609
 31
0.0
  0
LINE
  5
BF
330
1F
100
AcDbEntity
  8
0
  6
Continuous
 62
     7
100
AcDbLine
 10
155.2755286403
 20
265.4610546039
 30
0.0
 11
161.8505286403
 21
265.4610546039
 31
0.0
  0
LINE
  5
C0
330
1F
100
AcDbEntity
  8
0
  6
Continuous
 62
     7
100
AcDbLine
 10
139.3630286403
 20
257.8485546039
 30
0.0
 11
151.0323604041
 21
257.8485546039
 31
0.0
  0
LINE
  5
C1
330
1F
100
AcDbEntity
  8
0
  6
Continuous
 62
     7
100
AcDbLine
 10
172.3630286403
 20
257.8485546039
 30
0.0
 11
166.0936968764
 21
257.8485546039
 31
0.0
  0
LINE
  5
C2
330
1F
100
AcDbEntity
  8
0
  6
Continuous
 62
     9
100
AcDbLine
 10
34.4187099711
 20
328.0387812752
 30
0.0
 11
34.4187099711
 21
287.6333279326
 31
0.0
  0
LINE
  5
C3
330
1F
100
AcDbEntity
  8
0
  6
Continuous
 62
     7
100
AcDbLine
 10
33.5630286403
 20
327.0492500115
 30
0.0
 11
33.5630286403
 21
288.6228591962
 31
0.0
  0
ARC
  5
C4
330
1F
100
AcDbEntity
  8
0
  6
Continuous
 62
     7
100
AcDbCircle
 10
155.2755286403
 20
350.4610546039
 30
0.0
 40
0.25
100
AcDbArc
 50
180.0
 51
270.0
  0
ARC
  5
C5
330
1F
100
AcDbEntity
  8
0
  6
Continuous
 62
     7
100
AcDbCircle
 10
161.8505286403
 20
350.4610546039
 30
0.0
 40
0.25
100
AcDbArc
 50
270.0
 51
0.0
  0
ARC
  5
C6
330
1F
100
AcDbEntity
  8
0
  6
Continuous
 62
     7
100
AcDbCircle
 10
172.3630286403
 20
356.8235546039
 30
0.0
 40
1.0
100
AcDbArc
 50
0.0
 51
90.0
  0
ARC
  5
C7
330
1F
100
AcDbEntity
  8
0
  6
Continuous
 62
     7
100
AcDbCircle
 10
139.3630286403
 20
356.8235546039
 30
0.0
 40
1.0
100
AcDbArc
 50
90.0
 51
180.0
  0
ARC
  5
C8
330
1F
100
AcDbEntity
  8
0
  6
Continuous
 62
     7
100
AcDbCircle
 10
137.3630286403
 20
343.4110546039
 30
0.0
 40
1.0
100
AcDbArc
 50
270.0
 51
0.0
  0
ARC
  5
C9
330
1F
100
AcDbEntity
  8
RUNDUNGEN
  6
Continuous
 62
     7
100
AcDbCircle
 10
174.3630286403
 20
344.8360546039
 30
0.0
 40
1.0
100
AcDbArc
 50
180.0
 51
270.0
  0
ARC
  5
CA
330
1F
100
AcDbEntity
  8
RUNDUNGEN
  6
Continuous
 62
     7
100
AcDbCircle
 10
228.0950794478
 20
342.8360546039
 30
0.0
 40
0.9999999999268803
100
AcDbArc
 50
59.99999999758122
 51
90.0
  0
ARC
  5
CB
330
1F
100
AcDbEntity
  8
RUNDUNGEN
  6
Continuous
 62
     7
100
AcDbCircle
 10
239.3630286403
 20
336.3305011044
 30
0.0
 40
1.0
100
AcDbArc
 50
0.0
 51
60.00000000044565
  0
ARC
  5
CC
330
1F
100
AcDbEntity
  8
0
  6
Continuous
 62
     7
100
AcDbCircle
 10
156.7105286403
 20
307.8360546039
 30
0.0
 40
12.90249999999997
100
AcDbArc
 50
270.0
 51
90.0
  0
ARC
  5
CD
330
1F
100
AcDbEntity
  8
0
  6
Continuous
 62
     7
100
AcDbCircle
 10
293.1139238886
 20
386.0281017955
 30
0.0
 40
154.9021570462001
100
AcDbArc
 50
214.4839903095001
 51
214.914910117448
  0
ARC
  5
CE
330
1F
100
AcDbEntity
  8
0
  6
Continuous
 62
     7
100
AcDbCircle
 10
155.2755286403
 20
265.2110546039
 30
0.0
 40
0.25
100
AcDbArc
 50
90.0
 51
180.0
  0
ARC
  5
CF
330
1F
100
AcDbEntity
  8
0
  6
Continuous
 62
     7
100
AcDbCircle
 10
161.8505286403
 20
265.2110546039
 30
0.0
 40
0.25
100
AcDbArc
 50
0.0
 51
90.0
  0
ARC
  5
D0
330
1F
100
AcDbEntity
  8
0
  6
Continuous
 62
     7
100
AcDbCircle
 10
139.3630286403
 20
258.8485546039
 30
0.0
 40
1.0
100
AcDbArc
 50
180.0
 51
270.0
  0
ARC
  5
D1
330
1F
100
AcDbEntity
  8
0
  6
Continuous
 62
     7
100
AcDbCircle
 10
137.3630286403
 20
272.2610546039
 30
0.0
 40
1.0
100
AcDbArc
 50
0.0
 51
90.0
  0
ARC
  5
D2
330
1F
100
AcDbEntity
  8
0
  6
Continuous
 62
     7
100
AcDbCircle
 10
172.3630286403
 20
258.8485546039
 30
0.0
 40
1.0
100
AcDbArc
 50
270.0
 51
0.0
  0
ARC
  5
D3
330
1F
100
AcDbEntity
  8
RUNDUNGEN
  6
Continuous
 62
     7
100
AcDbCircle
 10
174.3630286403
 20
270.8360546039
 30
0.0
 40
1.0
100
AcDbArc
 50
90.0
 51
180.0
  0
ARC
  5
D4
330
1F
100
AcDbEntity
  8
RUNDUNGEN
  6
Continuous
 62
     7
100
AcDbCircle
 10
228.0950794478
 20
272.8360546039
 30
0.0
 40
1.0
100
AcDbArc
 50
270.0
 51
299.9999999995543
  0
ARC
  5
D5
330
1F
100
AcDbEntity
  8
RUNDUNGEN
  6
Continuous
 62
     7
100
AcDbCircle
 10
239.3630286403
 20
279.3416081033
 30
0.0
 40
1.000000000013472
100
AcDbArc
 50
299.9999999995543
 51
0.0
  0
ARC
  5
D6
330
1F
100
AcDbEntity
  8
0
  6
Continuous
 62
     7
100
AcDbCircle
 10
293.1171041853
 20
229.6418094442
 30
0.0
 40
154.9060285763248
100
AcDbArc
 50
145.0850935211912
 51
145.5160052752001
  0
ARC
  5
D7
330
1F
100
AcDbEntity
  8
0
  6
Continuous
 62
     7
100
AcDbCircle
 10
34.5630286403
 20
327.0492500115
 30
0.0
 40
1.000000000059662
100
AcDbArc
 50
98.29782682941496
 51
180.0
  0
ARC
  5
D8
330
1F
100
AcDbEntity
  8
0
  6
Continuous
 62
     7
100
AcDbCircle
 10
-46.8916909318
 20
407.9338744427
 30
0.0
 40
228.5493151007289
100
AcDbArc
 50
329.9972617610197
 51
330.36820922
  0
ARC
  5
D9
330
1F
100
AcDbEntity
  8
0
  6
Continuous
 62
     7
100
AcDbCircle
 10
34.5630286403
 20
288.6228591962
 30
0.0
 40
1.0
100
AcDbArc
 50
180.0
 51
261.7021731697583
  0
ARC
  5
DA
330
1F
100
AcDbEntity
  8
0
  6
Continuous
 62
     7
100
AcDbCircle
 10
-46.8916909355
 20
207.7382347629
 30
0.0
 40
228.5493151048996
100
AcDbArc
 50
29.63179077999996
 51
30.00273823897237
  0
SPLINE
  5
DB
330
1F
100
AcDbEntity
  8
0
  6
Continuous
 62
     7
100
AcDbSpline
210
0.0
220
0.0
230
1.0
 70
     8
 71
     3
 72
    19
 73
    15
 74
    13
 42
0.0000000001
 43
0.0000000001
 44
0.00000001
 40
0.0
 40
0.0
 40
0.0
 40
0.0
 40
1.288046120701484
 40
2.576183163063548
 40
3.220235598640917
 40
3.864273041930534
 40
4.508318825041822
 40
5.152368395184469
 40
5.796417964792138
 40
6.440463747376503
 40
7.0845011906948
 40
7.728553626304731
 40
9.016690669213705
 40
10.30473679047724
 40
10.30473679047724
 40
10.30473679047724
 40
10.30473679047724
 10
138.3630286403
 20
302.6842951957
 30
0.0
 10
138.3598966755476
 20
303.113641198006
 30
0.0
 10
138.3536325249609
 20
303.9723635096473
 30
0.0
 10
138.3268028073801
 20
305.0454711953915
 30
0.0
 10
138.3093696544626
 20
305.9040344522614
 30
0.0
 10
138.2986181192301
 20
306.54799312412
 30
0.0
 10
138.2917524747432
 20
307.1920051581048
 30
0.0
 10
138.2892668785719
 20
307.8360546036344
 30
0.0
 10
138.2917524784946
 20
308.4801040489722
 30
0.0
 10
138.2986181249738
 20
309.1241160825846
 30
0.0
 10
138.3093696586946
 20
309.7680747543081
 30
0.0
 10
138.3268028081144
 20
310.6266380114549
 30
0.0
 10
138.3536325246147
 20
311.6997456976018
 30
0.0
 10
138.3598966754321
 20
312.5584680096086
 30
0.0
 10
138.3630286403
 20
312.9878140121
 30
0.0
 11
138.3630286403
 21
302.6842951957
 31
0.0
 11
138.3498331194614
 21
303.9722737231933
 31
0.0
 11
138.3227802344657
 21
305.2601266578558
 31
0.0
 11
138.3097567444882
 21
305.9040474049062
 31
0.0
 11
138.2992658003843
 21
306.5479993972556
 31
0.0
 11
138.2924824984265
 21
307.1920094573929
 31
0.0
 11
138.2900954128781
 21
307.8360546038101
 31
0.0
 11
138.2924825018846
 21
308.4800997496794
 31
0.0
 11
138.2992658055411
 21
309.1241098092718
 31
0.0
 11
138.309756748534
 21
309.7680618016681
 31
0.0
 11
138.3227802362911
 21
310.4119825487959
 31
0.0
 11
138.3498331193885
 21
311.6998354840453
 31
0.0
 11
138.3630286403
 21
312.9878140121
 31
0.0
  0
SPLINE
  5
DC
330
1F
100
AcDbEntity
  8
FASEN
  6
Continuous
 62
     7
100
AcDbSpline
210
0.0
220
0.0
230
1.0
 70
     8
 71
     3
 72
    25
 73
    21
 74
    19
 42
0.0000000001
 43
0.0000000001
 44
0.00000001
 40
0.0
 40
0.0
 40
0.0
 40
0.0
 40
0.097556609427788
 40
0.195122276704693
 40
0.2893247602613853
 40
0.3835227316102526
 40
0.4709468132109382
 40
0.5583764927178348
 40
0.6362056179788481
 40
0.7140176370174509
 40
0.7798226970360489
 40
0.8456700525121519
 40
0.898083292704415
 40
0.9504116609793606
 40
0.9715430471557456
 40
0.9926350698842366
 40
1.010621976083403
 40
1.028726681075974
 40
1.058610548376426
 40
1.088017426550077
 40
1.088017426550077
 40
1.088017426550077
 40
1.088017426550077
 10
139.3630286403
 20
293.6497577169
 30
0.0
 10
139.3305085024952
 20
293.6500010643076
 30
0.0
 10
139.2654652074849
 20
293.6504877817168
 30
0.0
 10
139.1690950605112
 20
293.654683951429
 30
0.0
 10
139.073995993204
 20
293.6613507942761
 30
0.0
 10
138.9825057052914
 20
293.6706122860432
 30
0.0
 10
138.8935907875295
 20
293.6824473270001
 30
0.0
 10
138.8105209310091
 20
293.6964828993739
 30
0.0
 10
138.7311709049454
 20
293.7129665055238
 30
0.0
 10
138.6596119647976
 20
293.7312007960639
 30
0.0
 10
138.5928682033403
 20
293.7518097154999
 30
0.0
 10
138.5354285407707
 20
293.7735183398839
 30
0.0
 10
138.4837149374592
 20
293.7972824065794
 30
0.0
 10
138.447449895652
 20
293.8186190813047
 30
0.0
 10
138.4219828403192
 20
293.8372242955865
 30
0.0
 10
138.4066731901022
 20
293.8502261029709
 30
0.0
 10
138.393172162103
 20
293.8637455805773
 30
0.0
 10
138.3795537567304
 20
293.8809941368069
 30
0.0
 10
138.3665820885041
 20
293.9039429783691
 30
0.0
 10
138.364206753243
 20
293.9237371428599
 30
0.0
 10
138.3630286403
 20
293.9335546039
 30
0.0
 11
139.3630286403
 21
293.6497577169
 31
0.0
 11
139.265480904585
 21
293.6510735056108
 31
0.0
 11
139.1680012770665
 21
293.655170046839
 31
0.0
 11
139.0740348212686
 21
293.6618343617353
 31
0.0
 11
138.9803185373036
 21
293.6713483475475
 31
0.0
 11
138.8936679840414
 21
293.682952297869
 31
0.0
 11
138.8074712703851
 21
293.6975836140617
 31
0.0
 11
138.7312939278567
 21
293.7135330724917
 31
0.0
 11
138.6559218582045
 21
293.7328659828573
 31
0.0
 11
138.5930980877105
 21
293.752448622745
 31
0.0
 11
138.531563076288
 21
293.7758861267169
 31
0.0
 11
138.484083655113
 21
293.7980864040201
 31
0.0
 11
138.4391611965384
 21
293.8249235208908
 31
0.0
 11
138.4221316697266
 21
293.8374347437847
 31
0.0
 11
138.4060905007989
 21
293.8511297911454
 31
0.0
 11
138.3934660587911
 21
293.8639419829411
 31
0.0
 11
138.3822502787272
 21
293.8781541826451
 31
0.0
 11
138.3684231688416
 21
293.904646758153
 31
0.0
 11
138.3630286403
 21
293.9335546039
 31
0.0
  0
SPLINE
  5
DD
330
1F
100
AcDbEntity
  8
FASEN
  6
Continuous
 62
     7
100
AcDbSpline
210
0.0
220
0.0
230
1.0
 70
     8
 71
     3
 72
    25
 73
    21
 74
    19
 42
0.0000000001
 43
0.0000000001
 44
0.00000001
 40
0.0
 40
0.0
 40
0.0
 40
0.0
 40
0.0294068780875927
 40
0.0592907453769711
 40
0.077395450369498
 40
0.0953823565687254
 40
0.1164743792972903
 40
0.1376057654735971
 40
0.1899341337485766
 40
0.2423473739408156
 40
0.3081947294169515
 40
0.3739997894354512
 40
0.4518118084741507
 40
0.5296409337351362
 40
0.6170706132420328
 40
0.7044946948427391
 40
0.7986926661915613
 40
0.8928951497482497
 40
0.9904608170251831
 40
1.088017426452972
 40
1.088017426452972
 40
1.088017426452972
 40
1.088017426452972
 10
138.3630286403
 20
321.7385546039
 30
0.0
 10
138.3642067532463
 20
321.7483720649103
 30
0.0
 10
138.3665820885172
 20
321.7681662293664
 30
0.0
 10
138.3795537567334
 20
321.7911150708956
 30
0.0
 10
138.3931721621029
 20
321.8083636271228
 30
0.0
 10
138.4066731901021
 20
321.8218831047291
 30
0.0
 10
138.4219828403191
 20
321.8348849121137
 30
0.0
 10
138.4474498956521
 20
321.8534901263951
 30
0.0
 10
138.4837149374592
 20
321.8748268011209
 30
0.0
 10
138.5354285407706
 20
321.8985908678161
 30
0.0
 10
138.5928682033404
 20
321.9202994922
 30
0.0
 10
138.6596119647976
 20
321.940908411636
 30
0.0
 10
138.7311709049455
 20
321.9591427021761
 30
0.0
 10
138.810520931009
 20
321.9756263083261
 30
0.0
 10
138.8935907875295
 20
321.9896618806999
 30
0.0
 10
138.9825057052915
 20
322.0014969216567
 30
0.0
 10
139.073995993204
 20
322.010758413424
 30
0.0
 10
139.1690950605113
 20
322.0174252562709
 30
0.0
 10
139.2654652074849
 20
322.0216214259831
 30
0.0
 10
139.3305085024952
 20
322.0221081433924
 30
0.0
 10
139.3630286403
 20
322.0223514908
 30
0.0
 11
138.3630286403
 21
321.7385546039
 31
0.0
 11
138.3684231688416
 21
321.7674624495595
 31
0.0
 11
138.3822502787272
 21
321.7939550250549
 31
0.0
 11
138.3934660587911
 21
321.8081672247588
 31
0.0
 11
138.4060905007988
 21
321.8209794165547
 31
0.0
 11
138.4221316697266
 21
321.8346744639154
 31
0.0
 11
138.4391611965384
 21
321.8471856868092
 31
0.0
 11
138.484083655113
 21
321.87402280368
 31
0.0
 11
138.531563076288
 21
321.8962230809831
 31
0.0
 11
138.5930980877105
 21
321.919660584955
 31
0.0
 11
138.6559218582044
 21
321.9392432248426
 31
0.0
 11
138.7312939278567
 21
321.9585761352083
 31
0.0
 11
138.8074712703851
 21
321.9745255936382
 31
0.0
 11
138.8936679840414
 21
321.989156909831
 31
0.0
 11
138.9803185373037
 21
322.0007608601525
 31
0.0
 11
139.0740348212686
 21
322.0102748459648
 31
0.0
 11
139.1680012770665
 21
322.0169391608609
 31
0.0
 11
139.265480904585
 21
322.0210357020892
 31
0.0
 11
139.3630286403
 21
322.0223514908
 31
0.0
  0
SPLINE
  5
DE
330
1F
100
AcDbEntity
  8
0
  6
Continuous
 62
     7
100
AcDbSpline
210
0.0
220
0.0
230
1.0
 70
     8
 71
     3
 72
    31
 73
    27
 74
    25
 42
0.0000000001
 43
0.0000000001
 44
0.00000001
 40
0.0
 40
0.0
 40
0.0
 40
0.0
 40
0.7376437760187852
 40
1.47549832693801
 40
2.213122477551597
 40
2.950705019415735
 40
3.686177655978762
 40
4.42161165224343
 40
5.154930002610682
 40
5.888438802522783
 40
7.349257460209059
 40
8.810872241659405
 40
10.26734972643202
 40
11.72357900846296
 40
13.17967656774983
 40
14.63602209579409
 40
16.09756845528005
 40
17.55831898093325
 40
18.29183757330053
 40
19.02516554602141
 40
19.76065888273402
 40
20.49619142771252
 40
21.23383484430865
 40
21.97151871256066
 40
22.70940763855726
 40
23.44708703445663
 40
23.44708703445663
 40
23.44708703445663
 40
23.44708703445663
 10
166.0936885153
 20
318.3036932514
 30
0.0
 10
166.2709253480113
 20
318.1331868315152
 30
0.0
 10
166.6254496572229
 20
317.7921252711097
 30
0.0
 10
167.1222504148116
 20
317.2460835877397
 30
0.0
 10
167.5916857608522
 20
316.6767005327749
 30
0.0
 10
168.0297697461913
 20
316.0837187361623
 30
0.0
 10
168.4362250800556
 20
315.4695523828555
 30
0.0
 10
168.8096915724629
 20
314.8364284003534
 30
0.0
 10
169.14979444149
 20
314.1854996544662
 30
0.0
 10
169.5568774309127
 20
313.2981878496115
 30
0.0
 10
169.979469716095
 20
312.1527236055707
 30
0.0
 10
170.3444633671722
 20
310.7369365440251
 30
0.0
 10
170.5640558525045
 20
309.292939138784
 30
0.0
 10
170.6375077500758
 20
307.8360663886138
 30
0.0
 10
170.5640580027982
 20
306.379238163023
 30
0.0
 10
170.3444956447932
 20
304.9353488318612
 30
0.0
 10
169.9795486448983
 20
303.5196425705807
 30
0.0
 10
169.5569954594001
 20
302.374209198797
 30
0.0
 10
169.1499387117998
 20
301.4869031925683
 30
0.0
 10
168.8098370073285
 20
300.83594418343
 30
0.0
 10
168.4363595682875
 20
300.2027767138493
 30
0.0
 10
168.0298822936913
 20
299.5885529323674
 30
0.0
 10
167.5917772579123
 20
298.9955119158771
 30
0.0
 10
167.1223149653114
 20
298.4260833525777
 30
0.0
 10
166.6254679429878
 20
297.880025493404
 30
0.0
 10
166.2709308346879
 20
297.5389438815849
 30
0.0
 10
166.0936874526
 20
297.3684272924
 30
0.0
 11
166.0936885153
 21
318.3036932514
 31
0.0
 11
166.6195744039815
 21
317.7864289356146
 31
0.0
 11
167.1177417771169
 21
317.2421325029094
 31
0.0
 11
167.5865483235485
 21
316.6726504491173
 31
0.0
 11
168.0249712680414
 21
316.0795119089727
 31
0.0
 11
168.4308593688639
 21
315.4661809634435
 31
0.0
 11
168.8045268375322
 21
314.8327492104339
 31
0.0
 11
169.1441244938486
 21
314.1828036474751
 31
0.0
 11
169.449994927321
 21
313.5161114865223
 31
0.0
 11
169.9558372314223
 21
312.1456682319416
 31
0.0
 11
170.3206210070944
 21
310.730305887395
 31
0.0
 11
170.5397521416541
 21
309.2904072070997
 31
0.0
 11
170.6130255328903
 21
307.8360225495964
 31
0.0
 11
170.5397587358987
 21
306.3817694496788
 31
0.0
 11
170.320660963088
 21
304.9419991683478
 31
0.0
 11
169.9559181305439
 21
303.5266969295895
 31
0.0
 11
169.4501283112749
 21
302.1563069278309
 31
0.0
 11
169.144268446269
 21
301.4895991445202
 31
0.0
 11
168.804679644082
 21
300.8396380987612
 31
0.0
 11
168.430993571674
 21
300.2061484243095
 31
0.0
 11
168.0250841440415
 21
299.5927597536597
 31
0.0
 11
167.5866376943057
 21
298.999562888562
 31
0.0
 11
167.1177966596002
 21
298.4300318765394
 31
0.0
 11
166.6195965647699
 21
297.8857187932688
 31
0.0
 11
166.0936874526
 21
297.3684272924
 31
0.0
  0
SPLINE
  5
DF
330
1F
100
AcDbEntity
  8
BEZUGSACHSEN
  6
Continuous
 62
     7
100
AcDbSpline
210
0.0
220
0.0
230
1.0
 70
     8
 71
     3
 72
    23
 73
    19
 74
    17
 42
0.0000000001
 43
0.0000000001
 44
0.00000001
 40
0.0
 40
0.0
 40
0.0
 40
0.0
 40
0.3437009002062522
 40
0.6874126615819363
 40
1.653109614518236
 40
2.618861730156148
 40
4.047436338946023
 40
5.476097026307042
 40
7.156495682134774
 40
8.836933880657657
 40
10.51737209851046
 40
12.19777077386219
 40
13.62643168146406
 40
15.0550065103867
 40
16.02075883997932
 40
16.98645600691321
 40
17.33016791942979
 40
17.67386897064576
 40
17.67386897064576
 40
17.67386897064576
 40
17.67386897064576
 10
225.1130286403
 20
343.8360546039
 30
0.0
 10
225.0016381471618
 20
343.8092605022941
 30
0.0
 10
224.7788536408743
 20
343.7556714523716
 30
0.0
 10
224.2417679713358
 20
343.6324326152157
 30
0.0
 10
223.4999708225614
 20
343.4742896575109
 30
0.0
 10
222.3990343160322
 20
343.267918254606
 30
0.0
 10
221.1394681096353
 20
343.0723705920422
 30
0.0
 10
219.6366015215279
 20
342.8982604615414
 30
0.0
 10
218.043608186492
 20
342.7836226339389
 30
0.0
 10
216.3630292395322
 20
342.7429568414803
 30
0.0
 10
214.6824502849393
 20
342.7836225871583
 30
0.0
 10
213.0894568603769
 20
342.8982603724843
 30
0.0
 10
211.586590114191
 20
343.0723704713528
 30
0.0
 10
210.3270236866501
 20
343.2679181323787
 30
0.0
 10
209.2260869636956
 20
343.4742895537548
 30
0.0
 10
208.4842896243065
 20
343.6324325434868
 30
0.0
 10
207.9472037864784
 20
343.7556714165653
 30
0.0
 10
207.7244191823416
 20
343.8092604903621
 30
0.0
 10
207.6130286403
 20
343.8360546039
 30
0.0
 11
225.1130286403
 21
343.8360546039
 31
0.0
 11
224.7787192009691
 21
343.7562579399546
 31
0.0
 11
224.4437438045311
 21
343.6792562601728
 31
0.0
 11
223.499208675393
 21
343.4781990674775
 31
0.0
 11
222.5499747612406
 21
343.300344843232
 31
0.0
 11
221.1382616629403
 21
343.0815034829578
 31
0.0
 11
219.7190576089633
 21
342.9173961620184
 31
0.0
 11
218.0429806783577
 21
342.7969562799222
 31
0.0
 11
216.3630292457887
 21
342.7565122041607
 31
0.0
 11
214.6830777927451
 21
342.7969562326109
 31
0.0
 11
213.0070008389382
 21
342.9173960642322
 31
0.0
 11
211.5877965609081
 21
343.0815033648958
 31
0.0
 11
210.1760832391353
 21
343.3003447205864
 31
0.0
 11
209.2268491112532
 21
343.4781989659041
 31
0.0
 11
208.2823137705665
 21
343.679256192628
 31
0.0
 11
207.9473382264825
 21
343.7562579047612
 31
0.0
 11
207.6130286403
 21
343.8360546039
 31
0.0
  0
SPLINE
  5
E0
330
1F
100
AcDbEntity
  8
BEZUGSACHSEN
  6
Continuous
 62
     7
100
AcDbSpline
210
0.0
220
0.0
230
1.0
 70
     8
 71
     3
 72
    23
 73
    19
 74
    17
 42
0.0000000001
 43
0.0000000001
 44
0.00000001
 40
0.0
 40
0.0
 40
0.0
 40
0.0
 40
0.3437009002062246
 40
0.6874126615819363
 40
1.653109614518264
 40
2.618861730156147
 40
4.047436338946023
 40
5.476097026307042
 40
7.156495682134802
 40
8.836933880657657
 40
10.51737209851043
 40
12.19777077386219
 40
13.62643168146411
 40
15.0550065103867
 40
16.02075883997932
 40
16.98645600691324
 40
17.33016791942982
 40
17.67386897064576
 40
17.67386897064576
 40
17.67386897064576
 40
17.67386897064576
 10
197.1130286403
 20
343.8360546039
 30
0.0
 10
197.0016381471618
 20
343.8092605022941
 30
0.0
 10
196.7788536408743
 20
343.7556714523717
 30
0.0
 10
196.2417679713358
 20
343.6324326152155
 30
0.0
 10
195.4999708225614
 20
343.474289657511
 30
0.0
 10
194.3990343160322
 20
343.2679182546059
 30
0.0
 10
193.1394681096353
 20
343.0723705920423
 30
0.0
 10
191.636601521528
 20
342.8982604615414
 30
0.0
 10
190.0436081864919
 20
342.783622633939
 30
0.0
 10
188.3630292395322
 20
342.7429568414803
 30
0.0
 10
186.6824502849393
 20
342.7836225871583
 30
0.0
 10
185.089456860377
 20
342.8982603724844
 30
0.0
 10
183.5865901141909
 20
343.0723704713528
 30
0.0
 10
182.3270236866502
 20
343.2679181323787
 30
0.0
 10
181.2260869636956
 20
343.4742895537548
 30
0.0
 10
180.4842896243066
 20
343.6324325434869
 30
0.0
 10
179.9472037864784
 20
343.7556714165653
 30
0.0
 10
179.7244191823416
 20
343.8092604903621
 30
0.0
 10
179.6130286403
 20
343.8360546039
 30
0.0
 11
197.1130286403
 21
343.8360546039
 31
0.0
 11
196.7787192009691
 21
343.7562579399546
 31
0.0
 11
196.4437438045311
 21
343.6792562601728
 31
0.0
 11
195.499208675393
 21
343.4781990674775
 31
0.0
 11
194.5499747612406
 21
343.300344843232
 31
0.0
 11
193.1382616629403
 21
343.0815034829578
 31
0.0
 11
191.7190576089633
 21
342.9173961620184
 31
0.0
 11
190.0429806783576
 21
342.7969562799222
 31
0.0
 11
188.3630292457887
 21
342.7565122041607
 31
0.0
 11
186.6830777927452
 21
342.7969562326109
 31
0.0
 11
185.0070008389382
 21
342.9173960642322
 31
0.0
 11
183.5877965609081
 21
343.0815033648958
 31
0.0
 11
182.1760832391353
 21
343.3003447205864
 31
0.0
 11
181.2268491112532
 21
343.4781989659041
 31
0.0
 11
180.2823137705665
 21
343.679256192628
 31
0.0
 11
179.9473382264825
 21
343.7562579047612
 31
0.0
 11
179.6130286403
 21
343.8360546039
 31
0.0
  0
SPLINE
  5
E1
330
1F
100
AcDbEntity
  8
0
  6
Continuous
 62
     2
100
AcDbSpline
210
0.0
220
0.0
230
1.0
 70
     8
 71
     3
 72
    51
 73
    47
 74
    45
 42
0.0000000001
 43
0.0000000001
 44
0.00000001
 40
0.0
 40
0.0
 40
0.0
 40
0.0
 40
0.0256444034273019
 40
0.1028942252548044
 40
0.2319662701498557
 40
0.4120444556935429
 40
0.6422189096809101
 40
0.9222314644601468
 40
1.251487347959173
 40
1.627370894871358
 40
2.047204339677673
 40
2.51004195649771
 40
3.014422067973208
 40
3.555014532654469
 40
4.126397290912535
 40
4.726561002501005
 40
5.353469492462284
 40
6.001462928287283
 40
6.664906353186065
 40
7.341790481742311
 40
8.030494344238553
 40
8.72725457438296
 40
9.428190983078348
 40
10.13104073791116
 40
10.83392880533795
 40
11.53491079396826
 40
12.23165158224165
 40
12.92032555761024
 40
13.59723036704875
 40
14.26070519068212
 40
14.9086939846614
 40
15.53558799165329
 40
16.13576053784318
 40
16.70716372675814
 40
17.24776916449423
 40
17.7521510984507
 40
18.21498257156397
 40
18.63481736888675
 40
19.01072148080166
 40
19.3400015456472
 40
19.62002558086363
 40
19.85020692603603
 40
20.03029750717908
 40
20.15938105863132
 40
20.23663400680494
 40
20.26227775801846
 40
20.26227775801846
 40
20.26227775801846
 40
20.26227775801846
 10
206.3630286403
 20
343.836095323
 30
0.0
 10
206.3712629589643
 20
343.833800410922
 30
0.0
 10
206.4043018963632
 20
343.8245924291116
 30
0.0
 10
206.478837585765
 20
343.8040217855236
 30
0.0
 10
206.6030632462713
 20
343.7700001667807
 30
0.0
 10
206.7766413142085
 20
343.7232041282667
 30
0.0
 10
206.9990629484127
 20
343.6642993254399
 30
0.0
 10
207.2699981398523
 20
343.5943610158011
 30
0.0
 10
207.5885401142034
 20
343.5145535382534
 30
0.0
 10
207.9530553651565
 20
343.4265154769076
 30
0.0
 10
208.361784035684
 20
343.3319496770844
 30
0.0
 10
208.8133780258356
 20
343.2327499194721
 30
0.0
 10
209.3055702566703
 20
343.1309141832803
 30
0.0
 10
209.8345931709319
 20
343.0287242645776
 30
0.0
 10
210.3964824358672
 20
342.9286314807607
 30
0.0
 10
210.9882745892749
 20
342.8327371668744
 30
0.0
 10
211.6068530448953
 20
342.7430147483205
 30
0.0
 10
212.2478088426009
 20
342.6612575195495
 30
0.0
 10
212.9067179878685
 20
342.5894343182619
 30
0.0
 10
213.5803834700212
 20
342.528838165366
 30
0.0
 10
214.266179275019
 20
342.4805594546364
 30
0.0
 10
214.960800220325
 20
342.4453435785289
 30
0.0
 10
215.66070666748
 20
342.4240522815907
 30
0.0
 10
216.3629432608268
 20
342.4169021730425
 30
0.0
 10
217.0651950392691
 20
342.4240512775153
 30
0.0
 10
217.7651231059153
 20
342.4453379786183
 30
0.0
 10
218.4597430487445
 20
342.4805493768422
 30
0.0
 10
219.1455293882739
 20
342.5288267156482
 30
0.0
 10
219.8192023522724
 20
342.5894220829286
 30
0.0
 10
220.4781276430226
 20
342.6612430472297
 30
0.0
 10
221.11908787758
 20
342.7429979296967
 30
0.0
 10
221.7376630790029
 20
342.8327189080812
 30
0.0
 10
222.3294603414003
 20
342.9286124579639
 30
0.0
 10
222.8913638641197
 20
343.0287054936105
 30
0.0
 10
223.4203985625402
 20
343.1308963417491
 30
0.0
 10
223.9125938022426
 20
343.2327317645738
 30
0.0
 10
224.3641870842625
 20
343.3319301310206
 30
0.0
 10
224.7729210659556
 20
343.4264963078251
 30
0.0
 10
225.1374513736782
 20
343.5145374804189
 30
0.0
 10
225.4560116806014
 20
343.5943489054268
 30
0.0
 10
225.7269607025887
 20
343.6642903901936
 30
0.0
 10
225.9493922612868
 20
343.7231977800845
 30
0.0
 10
226.1229802459502
 20
343.7699964674525
 30
0.0
 10
226.2472146162839
 20
343.8040203916431
 30
0.0
 10
226.3217548069728
 20
343.8245922427518
 30
0.0
 10
226.3547945326045
 20
343.833800468239
 30
0.0
 10
226.3630286403
 20
343.8360953275
 30
0.0
 11
206.3630286403
 21
343.836095323
 31
0.0
 11
206.3877330350587
 21
343.8292157658376
 31
0.0
 11
206.462191028761
 21
343.8086356262315
 31
0.0
 11
206.5866838061586
 21
343.7745601049704
 31
0.0
 11
206.7605484362077
 21
343.7276640142316
 31
0.0
 11
206.9830587957024
 21
343.6687622384862
 31
0.0
 11
207.2541801064112
 21
343.5987603405581
 31
0.0
 11
207.5735676841922
 21
343.5187540159462
 31
0.0
 11
207.9389458784265
 21
343.4305088120121
 31
0.0
 11
208.3479813476256
 21
343.3359038104797
 31
0.0
 11
208.8000409512787
 21
343.2366023790264
 31
0.0
 11
209.2939601434325
 21
343.1344107527835
 31
0.0
 11
209.8247485572811
 21
343.031922350541
 31
0.0
 11
210.3872812706904
 21
342.9317464912784
 31
0.0
 11
210.979720959442
 21
342.8357689110859
 31
0.0
 11
211.6001359896515
 21
342.7457719940517
 31
0.0
 11
212.2429298921701
 21
342.6638482993277
 31
0.0
 11
212.9024686666086
 21
342.5919749172347
 31
0.0
 11
213.5766330218991
 21
342.5313568873499
 31
0.0
 11
214.263635977882
 21
342.482983871236
 31
0.0
 11
214.9595050893574
 21
342.4477560696382
 31
0.0
 11
215.6601170393371
 21
342.4264313285989
 31
0.0
 11
216.3629304883333
 21
342.4192875355903
 31
0.0
 11
217.0657822681505
 21
342.426429729851
 31
0.0
 11
217.766439909076
 21
342.4477515167549
 31
0.0
 11
218.462289796245
 21
342.4829745287027
 31
0.0
 11
219.1492630448843
 21
342.5313439405666
 31
0.0
 11
219.823448165008
 21
342.5919619646576
 31
0.0
 11
220.4830185160801
 21
342.6638354199944
 31
0.0
 11
221.1258081513652
 21
342.7457558807642
 31
0.0
 11
221.7462090492414
 21
342.8357493356193
 31
0.0
 11
222.3386577228075
 21
342.9317266995638
 31
0.0
 11
222.9012108999189
 21
343.031904178191
 31
0.0
 11
223.4320123129717
 21
343.1343936860001
 31
0.0
 11
223.9259334964546
 21
343.2365846827098
 31
0.0
 11
224.377987335041
 21
343.335883723609
 31
0.0
 11
224.7870243136736
 21
343.4304882010622
 31
0.0
 11
225.1524226402245
 21
343.5187376447338
 31
0.0
 11
225.4718338121222
 21
343.598749296208
 31
0.0
 11
225.7429663231831
 21
343.6687537371008
 31
0.0
 11
225.9654833652423
 21
343.7276571975982
 31
0.0
 11
226.1393599748914
 21
343.7745564730017
 31
0.0
 11
226.263863867589
 21
343.8086349700149
 31
0.0
 11
226.3383248779226
 21
343.8292159306731
 31
0.0
 11
226.3630286403
 21
343.8360953275
 31
0.0
  0
SPLINE
  5
E2
330
1F
100
AcDbEntity
  8
0
  6
Continuous
 62
     2
100
AcDbSpline
210
0.0
220
0.0
230
1.0
 70
     8
 71
     3
 72
    51
 73
    47
 74
    45
 42
0.0000000001
 43
0.0000000001
 44
0.00000001
 40
0.0
 40
0.0
 40
0.0
 40
0.0
 40
0.0256444034272745
 40
0.1028942252548044
 40
0.2319662701498557
 40
0.4120444556935154
 40
0.64221890968091
 40
0.9222314644601193
 40
1.251487347959173
 40
1.627370894871358
 40
2.047204339677673
 40
2.51004195649771
 40
3.014422067973208
 40
3.555014532654497
 40
4.126397290912535
 40
4.726561002501005
 40
5.353469492462312
 40
6.001462928287255
 40
6.664906353186122
 40
7.341790481742284
 40
8.030494344238555
 40
8.727254574382961
 40
9.428190983078379
 40
10.13104073791116
 40
10.83392880533793
 40
11.53491079396826
 40
12.23165158224166
 40
12.92032555761025
 40
13.59723036704879
 40
14.2607051906821
 40
14.9086939846614
 40
15.53558799165332
 40
16.13576053784315
 40
16.70716372675815
 40
17.2477691644942
 40
17.75215109845071
 40
18.21498257156398
 40
18.63481736888676
 40
19.01072148080164
 40
19.3400015456472
 40
19.62002558086363
 40
19.85020692603607
 40
20.03029750717909
 40
20.15938105863135
 40
20.23663400680492
 40
20.26227775801847
 40
20.26227775801847
 40
20.26227775801847
 40
20.26227775801847
 10
178.3630286403
 20
343.836095323
 30
0.0
 10
178.3712629589643
 20
343.833800410922
 30
0.0
 10
178.4043018963631
 20
343.8245924291117
 30
0.0
 10
178.4788375857651
 20
343.8040217855237
 30
0.0
 10
178.6030632462713
 20
343.7700001667807
 30
0.0
 10
178.7766413142086
 20
343.7232041282668
 30
0.0
 10
178.9990629484127
 20
343.6642993254398
 30
0.0
 10
179.2699981398523
 20
343.5943610158012
 30
0.0
 10
179.5885401142033
 20
343.5145535382533
 30
0.0
 10
179.9530553651565
 20
343.4265154769077
 30
0.0
 10
180.361784035684
 20
343.3319496770843
 30
0.0
 10
180.8133780258355
 20
343.2327499194721
 30
0.0
 10
181.3055702566703
 20
343.1309141832802
 30
0.0
 10
181.834593170932
 20
343.0287242645777
 30
0.0
 10
182.3964824358672
 20
342.9286314807607
 30
0.0
 10
182.9882745892748
 20
342.8327371668743
 30
0.0
 10
183.6068530448954
 20
342.7430147483206
 30
0.0
 10
184.2478088426008
 20
342.6612575195493
 30
0.0
 10
184.9067179878685
 20
342.589434318262
 30
0.0
 10
185.5803834700212
 20
342.528838165366
 30
0.0
 10
186.2661792750189
 20
342.4805594546364
 30
0.0
 10
186.960800220325
 20
342.4453435785288
 30
0.0
 10
187.66070666748
 20
342.4240522815906
 30
0.0
 10
188.3629432608268
 20
342.4169021730426
 30
0.0
 10
189.065195039269
 20
342.4240512775152
 30
0.0
 10
189.7651231059153
 20
342.4453379786183
 30
0.0
 10
190.4597430487444
 20
342.4805493768421
 30
0.0
 10
191.145529388274
 20
342.5288267156483
 30
0.0
 10
191.8192023522723
 20
342.5894220829285
 30
0.0
 10
192.4781276430226
 20
342.6612430472298
 30
0.0
 10
193.11908787758
 20
342.7429979296966
 30
0.0
 10
193.737663079003
 20
342.8327189080813
 30
0.0
 10
194.3294603414003
 20
342.9286124579638
 30
0.0
 10
194.8913638641196
 20
343.0287054936105
 30
0.0
 10
195.4203985625403
 20
343.130896341749
 30
0.0
 10
195.9125938022426
 20
343.2327317645738
 30
0.0
 10
196.3641870842624
 20
343.3319301310206
 30
0.0
 10
196.7729210659556
 20
343.4264963078252
 30
0.0
 10
197.1374513736781
 20
343.5145374804188
 30
0.0
 10
197.4560116806014
 20
343.5943489054269
 30
0.0
 10
197.7269607025887
 20
343.6642903901936
 30
0.0
 10
197.9493922612868
 20
343.7231977800847
 30
0.0
 10
198.1229802459502
 20
343.7699964674525
 30
0.0
 10
198.2472146162839
 20
343.8040203916431
 30
0.0
 10
198.3217548069726
 20
343.8245922427517
 30
0.0
 10
198.3547945326045
 20
343.833800468239
 30
0.0
 10
198.3630286403
 20
343.8360953275
 30
0.0
 11
178.3630286403
 21
343.836095323
 31
0.0
 11
178.3877330350586
 21
343.8292157658376
 31
0.0
 11
178.462191028761
 21
343.8086356262315
 31
0.0
 11
178.5866838061586
 21
343.7745601049704
 31
0.0
 11
178.7605484362077
 21
343.7276640142316
 31
0.0
 11
178.9830587957024
 21
343.6687622384862
 31
0.0
 11
179.2541801064111
 21
343.5987603405581
 31
0.0
 11
179.5735676841922
 21
343.5187540159462
 31
0.0
 11
179.9389458784265
 21
343.4305088120121
 31
0.0
 11
180.3479813476256
 21
343.3359038104797
 31
0.0
 11
180.8000409512787
 21
343.2366023790264
 31
0.0
 11
181.2939601434325
 21
343.1344107527835
 31
0.0
 11
181.8247485572812
 21
343.031922350541
 31
0.0
 11
182.3872812706904
 21
342.9317464912784
 31
0.0
 11
182.979720959442
 21
342.8357689110859
 31
0.0
 11
183.6001359896515
 21
342.7457719940517
 31
0.0
 11
184.24292989217
 21
342.6638482993277
 31
0.0
 11
184.9024686666087
 21
342.5919749172347
 31
0.0
 11
185.5766330218991
 21
342.5313568873499
 31
0.0
 11
186.263635977882
 21
342.482983871236
 31
0.0
 11
186.9595050893574
 21
342.4477560696382
 31
0.0
 11
187.6601170393371
 21
342.4264313285989
 31
0.0
 11
188.3629304883333
 21
342.4192875355903
 31
0.0
 11
189.0657822681505
 21
342.426429729851
 31
0.0
 11
189.766439909076
 21
342.4477515167549
 31
0.0
 11
190.462289796245
 21
342.4829745287027
 31
0.0
 11
191.1492630448843
 21
342.5313439405666
 31
0.0
 11
191.823448165008
 21
342.5919619646576
 31
0.0
 11
192.48301851608
 21
342.6638354199944
 31
0.0
 11
193.1258081513652
 21
342.7457558807642
 31
0.0
 11
193.7462090492414
 21
342.8357493356193
 31
0.0
 11
194.3386577228075
 21
342.9317266995638
 31
0.0
 11
194.9012108999189
 21
343.031904178191
 31
0.0
 11
195.4320123129717
 21
343.1343936860001
 31
0.0
 11
195.9259334964546
 21
343.2365846827098
 31
0.0
 11
196.377987335041
 21
343.335883723609
 31
0.0
 11
196.7870243136736
 21
343.4304882010622
 31
0.0
 11
197.1524226402245
 21
343.5187376447338
 31
0.0
 11
197.4718338121222
 21
343.598749296208
 31
0.0
 11
197.7429663231831
 21
343.6687537371008
 31
0.0
 11
197.9654833652424
 21
343.7276571975982
 31
0.0
 11
198.1393599748914
 21
343.7745564730017
 31
0.0
 11
198.263863867589
 21
343.8086349700149
 31
0.0
 11
198.3383248779226
 21
343.8292159306731
 31
0.0
 11
198.3630286403
 21
343.8360953275
 31
0.0
  0
DIMENSION
  5
ED
330
1F
100
AcDbEntity
  8
1
100
AcDbDimension
  2
*D2
 10
240.3630286403
 20
380.695778171148
 30
0.0
 11
143.043060437708
 21
384.445778171148
 31
0.0
 70
    32
  1
<>
 71
     5
 42
-1.0
 53
0.00013888888889
  3
ME10_DIM_10
100
AcDbAlignedDimension
 13
33.5630286403
 23
327.0492500115
 33
0.0
 14
240.3630286403
 24
336.3305011044
 34
0.0
100
AcDbRotatedDimension
  0
DIMENSION
  5
F8
330
1F
100
AcDbEntity
  8
1
100
AcDbDimension
  2
*D3
 10
240.3630286403
 20
371.953324265667
 30
0.0
 11
187.250185846552
 21
375.703324265667
 31
0.0
 70
    32
  1
<>
 71
     5
 42
-1.0
 53
0.00013888888889
  3
ME10_DIM_11
100
AcDbAlignedDimension
 13
135.3630286403
 23
360.8235546039
 33
0.0
 14
240.3630286403
 24
336.3305011044
 34
0.0
100
AcDbRotatedDimension
  0
DIMENSION
  5
103
330
1F
100
AcDbEntity
  8
1
100
AcDbDimension
  2
*D4
 10
240.3630286403
 20
364.695438004514
 30
0.0
 11
205.559853459917
 21
368.445438004514
 31
0.0
 70
    32
  1
<>
 71
     5
 42
-1.0
 53
0.00013888888889
  3
ME10_DIM_12
100
AcDbAlignedDimension
 13
173.3630286403
 23
356.8235546039
 33
0.0
 14
240.3630286403
 24
336.3305011044
 34
0.0
100
AcDbRotatedDimension
  0
DIMENSION
  5
10E
330
1F
100
AcDbEntity
  8
1
100
AcDbDimension
  2
*D5
 10
260.603661204998
 20
343.8360546039
 30
0.0
 11
256.853661204998
 21
307.589154831723
 31
0.0
 70
    32
  1
<>
 71
     5
 42
-1.0
 53
90.0
  3
ME10_DIM_13
100
AcDbAlignedDimension
 13
228.0950794478
 23
271.8360546039
 33
0.0
 14
228.0950794478
 24
343.8360546039
 34
0.0
 50
90.0
100
AcDbRotatedDimension
  0
DIMENSION
  5
119
330
1F
100
AcDbEntity
  8
1
100
AcDbDimension
  2
*D6
 10
252.068935560379
 20
323.8360546039
 30
0.0
 11
248.318935560379
 21
307.260896153085
 31
0.0
 70
    32
  1
<>
 71
     5
 42
-1.0
 53
90.0
  3
ME10_DIM_14
100
AcDbAlignedDimension
 13
240.3630286403
 23
291.8360546039
 33
0.0
 14
240.3630286403
 24
323.8360546039
 34
0.0
 50
90.0
100
AcDbRotatedDimension
  0
INSERT
  5
120
330
1F
100
AcDbEntity
  8
1
100
AcDbBlockReference
  2
*D7
 10
0.0
 20
0.0
 30
0.0
  0
ENDSEC
  0
SECTION
  2
OBJECTS
  0
DICTIONARY
  5
C
330
0
100
AcDbDictionary
281
     1
  3
ACAD_GROUP
350
D
  3
ACAD_LAYOUT
350
1A
  3
ACAD_MLEADERSTYLE
350
123
  3
ACAD_MLINESTYLE
350
17
  3
ACAD_PLOTSETTINGS
350
19
  3
ACAD_PLOTSTYLENAME
350
E
  3
ACAD_SCALELIST
350
4C
  3
ACAD_VISUALSTYLE
350
2A
  3
AcDbVariableDictionary
350
121
  0
DICTIONARY
  5
D
102
{ACAD_REACTORS
330
C
102
}
330
C
100
AcDbDictionary
281
     1
  0
DICTIONARY
  5
1A
102
{ACAD_REACTORS
330
C
102
}
330
C
100
AcDbDictionary
281
     1
  3
Layout1
350
1E
  3
Layout2
350
26
  3
Model
350
22
  0
DICTIONARY
  5
123
102
{ACAD_REACTORS
330
C
102
}
330
C
100
AcDbDictionary
281
     1
  0
DICTIONARY
  5
17
102
{ACAD_REACTORS
330
C
102
}
330
C
100
AcDbDictionary
281
     1
  3
Standard
350
18
  0
DICTIONARY
  5
19
102
{ACAD_REACTORS
330
C
102
}
330
C
100
AcDbDictionary
281
     1
  0
ACDBDICTIONARYWDFLT
  5
E
102
{ACAD_REACTORS
330
C
102
}
330
C
100
AcDbDictionary
281
     1
  3
Normal
350
F
100
AcDbDictionaryWithDefault
340
F
  0
DICTIONARY
  5
4C
102
{ACAD_REACTORS
330
C
102
}
330
C
100
AcDbDictionary
281
     1
  3
A0
350
4D
  3
A1
350
4E
  3
A2
350
4F
  3
A3
350
50
  3
A4
350
51
  3
A5
350
52
  3
A6
350
53
  3
A7
350
54
  3
A8
350
55
  3
A9
350
56
  3
B0
350
57
  3
B1
350
58
  3
B2
350
59
  3
B3
350
5A
  3
B4
350
5B
  3
B5
350
5C
  3
B6
350
5D
  3
B7
350
5E
  3
B8
350
5F
  3
B9
350
60
  3
C0
350
61
  3
C1
350
62
  3
C2
350
63
  3
C3
350
64
  3
C4
350
65
  3
C5
350
66
  3
C6
350
67
  3
C7
350
68
  3
C8
350
69
  3
C9
350
6A
  3
D0
350
6B
  3
D1
350
6C
  3
D2
350
6D
  0
DICTIONARY
  5
2A
102
{ACAD_REACTORS
330
C
102
}
330
C
100
AcDbDictionary
281
     1
  3
2dWireframe
350
2F
  3
3D Hidden
350
31
  3
3dWireframe
350
30
  3
Basic
350
32
  3
Brighten
350
36
  3
ColorChange
350
3A
  3
Conceptual
350
34
  3
Dim
350
35
  3
Facepattern
350
39
  3
Flat
350
2B
  3
FlatWithEdges
350
2C
  3
Gouraud
350
2D
  3
GouraudWithEdges
350
2E
  3
Linepattern
350
38
  3
Realistic
350
33
  3
Thicken
350
37
  0
DICTIONARY
  5
121
102
{ACAD_REACTORS
330
C
102
}
330
C
100
AcDbDictionary
281
     1
  3
CANNOSCALE
350
124
  0
LAYOUT
  5
1E
102
{ACAD_REACTORS
330
1A
102
}
330
1A
100
AcDbPlotSettings
  1

  2
none_device
  4

  6

 40
0.0
 41
0.0
 42
0.0
 43
0.0
 44
0.0
 45
0.0
 46
0.0
 47
0.0
 48
0.0
 49
0.0
140
0.0
141
0.0
142
1.0
143
1.0
 70
   688
 72
     0
 73
     0
 74
     5
  7

 75
    16
147
1.0
148
0.0
149
0.0
100
AcDbLayout
  1
Layout1
 70
     1
 71
     1
 10
0.0
 20
0.0
 11
12.0
 21
9.0
 12
0.0
 22
0.0
 32
0.0
 14
1.00000000000000E+20
 24
1.00000000000000E+20
 34
1.00000000000000E+20
 15
-1.00000000000000E+20
 25
-1.00000000000000E+20
 35
-1.00000000000000E+20
146
0.0
 13
0.0
 23
0.0
 33
0.0
 16
1.0
 26
0.0
 36
0.0
 17
0.0
 27
1.0
 37
0.0
 76
     0
330
1B
  0
LAYOUT
  5
26
102
{ACAD_REACTORS
330
1A
102
}
330
1A
100
AcDbPlotSettings
  1

  2
none_device
  4

  6

 40
0.0
 41
0.0
 42
0.0
 43
0.0
 44
0.0
 45
0.0
 46
0.0
 47
0.0
 48
0.0
 49
0.0
140
0.0
141
0.0
142
1.0
143
1.0
 70
   688
 72
     0
 73
     0
 74
     5
  7

 75
    16
147
1.0
148
0.0
149
0.0
100
AcDbLayout
  1
Layout2
 70
     1
 71
     2
 10
0.0
 20
0.0
 11
0.0
 21
0.0
 12
0.0
 22
0.0
 32
0.0
 14
0.0
 24
0.0
 34
0.0
 15
0.0
 25
0.0
 35
0.0
146
0.0
 13
0.0
 23
0.0
 33
0.0
 16
1.0
 26
0.0
 36
0.0
 17
0.0
 27
1.0
 37
0.0
 76
     0
330
23
  0
LAYOUT
  5
22
102
{ACAD_REACTORS
330
1A
102
}
330
1A
100
AcDbPlotSettings
  1

  2
none_device
  4

  6

 40
0.0
 41
0.0
 42
0.0
 43
0.0
 44
0.0
 45
0.0
 46
0.0
 47
0.0
 48
0.0
 49
0.0
140
0.0
141
0.0
142
1.0
143
1.0
 70
  1712
 72
     0
 73
     0
 74
     0
  7

 75
     0
147
1.0
148
0.0
149
0.0
100
AcDbLayout
  1
Model
 70
     1
 71
     0
 10
0.0
 20
0.0
 11
12.0
 21
9.0
 12
0.0
 22
0.0
 32
0.0
 14
11.9271684963669
 24
254.7235546039
 34
0.0
 15
262.603661204998
 25
386.195778171148
 35
0.0
146
0.0
 13
0.0
 23
0.0
 33
0.0
 16
1.0
 26
0.0
 36
0.0
 17
0.0
 27
1.0
 37
0.0
 76
     0
330
1F
331
29
  0
MLINESTYLE
  5
18
102
{ACAD_REACTORS
330
17
102
}
330
17
100
AcDbMlineStyle
  2
Standard
 70
     0
  3

 62
   256
 51
90.0
 52
90.0
 71
     2
 49
0.5
 62
   256
  6
BYLAYER
 49
-0.5
 62
   256
  6
BYLAYER
  0
ACDBPLACEHOLDER
  5
F
102
{ACAD_REACTORS
330
E
102
}
330
E
  0
SCALE
  5
4D
102
{ACAD_REACTORS
330
4C
102
}
330
4C
100
AcDbScale
 70
     0
300
1:1
140
1.0
141
1.0
290
     1
  0
SCALE
  5
4E
102
{ACAD_REACTORS
330
4C
102
}
330
4C
100
AcDbScale
 70
     0
300
1:2
140
1.0
141
2.0
290
     0
  0
SCALE
  5
4F
102
{ACAD_REACTORS
330
4C
102
}
330
4C
100
AcDbScale
 70
     0
300
1:4
140
1.0
141
4.0
290
     0
  0
SCALE
  5
50
102
{ACAD_REACTORS
330
4C
102
}
330
4C
100
AcDbScale
 70
     0
300
1:5
140
1.0
141
5.0
290
     0
  0
SCALE
  5
51
102
{ACAD_REACTORS
330
4C
102
}
330
4C
100
AcDbScale
 70
     0
300
1:8
140
1.0
141
8.0
290
     0
  0
SCALE
  5
52
102
{ACAD_REACTORS
330
4C
102
}
330
4C
100
AcDbScale
 70
     0
300
1:10
140
1.0
141
10.0
290
     0
  0
SCALE
  5
53
102
{ACAD_REACTORS
330
4C
102
}
330
4C
100
AcDbScale
 70
     0
300
1:16
140
1.0
141
16.0
290
     0
  0
SCALE
  5
54
102
{ACAD_REACTORS
330
4C
102
}
330
4C
100
AcDbScale
 70
     0
300
1:20
140
1.0
141
20.0
290
     0
  0
SCALE
  5
55
102
{ACAD_REACTORS
330
4C
102
}
330
4C
100
AcDbScale
 70
     0
300
1:30
140
1.0
141
30.0
290
     0
  0
SCALE
  5
56
102
{ACAD_REACTORS
330
4C
102
}
330
4C
100
AcDbScale
 70
     0
300
1:40
140
1.0
141
40.0
290
     0
  0
SCALE
  5
57
102
{ACAD_REACTORS
330
4C
102
}
330
4C
100
AcDbScale
 70
     0
300
1:50
140
1.0
141
50.0
290
     0
  0
SCALE
  5
58
102
{ACAD_REACTORS
330
4C
102
}
330
4C
100
AcDbScale
 70
     0
300
1:100
140
1.0
141
100.0
290
     0
  0
SCALE
  5
59
102
{ACAD_REACTORS
330
4C
102
}
330
4C
100
AcDbScale
 70
     0
300
2:1
140
2.0
141
1.0
290
     0
  0
SCALE
  5
5A
102
{ACAD_REACTORS
330
4C
102
}
330
4C
100
AcDbScale
 70
     0
300
4:1
140
4.0
141
1.0
290
     0
  0
SCALE
  5
5B
102
{ACAD_REACTORS
330
4C
102
}
330
4C
100
AcDbScale
 70
     0
300
8:1
140
8.0
141
1.0
290
     0
  0
SCALE
  5
5C
102
{ACAD_REACTORS
330
4C
102
}
330
4C
100
AcDbScale
 70
     0
300
10:1
140
10.0
141
1.0
290
     0
  0
SCALE
  5
5D
102
{ACAD_REACTORS
330
4C
102
}
330
4C
100
AcDbScale
 70
     0
300
100:1
140
100.0
141
1.0
290
     0
  0
SCALE
  5
5E
102
{ACAD_REACTORS
330
4C
102
}
330
4C
100
AcDbScale
 70
     0
300
1/128" = 1'-0"
140
0.0078125
141
12.0
290
     0
  0
SCALE
  5
5F
102
{ACAD_REACTORS
330
4C
102
}
330
4C
100
AcDbScale
 70
     0
300
1/64" = 1'-0"
140
0.015625
141
12.0
290
     0
  0
SCALE
  5
60
102
{ACAD_REACTORS
330
4C
102
}
330
4C
100
AcDbScale
 70
     0
300
1/32" = 1'-0"
140
0.03125
141
12.0
290
     0
  0
SCALE
  5
61
102
{ACAD_REACTORS
330
4C
102
}
330
4C
100
AcDbScale
 70
     0
300
1/16" = 1'-0"
140
0.0625
141
12.0
290
     0
  0
SCALE
  5
62
102
{ACAD_REACTORS
330
4C
102
}
330
4C
100
AcDbScale
 70
     0
300
3/32" = 1'-0"
140
0.09375
141
12.0
290
     0
  0
SCALE
  5
63
102
{ACAD_REACTORS
330
4C
102
}
330
4C
100
AcDbScale
 70
     0
300
1/8" = 1'-0"
140
0.125
141
12.0
290
     0
  0
SCALE
  5
64
102
{ACAD_REACTORS
330
4C
102
}
330
4C
100
AcDbScale
 70
     0
300
3/16" = 1'-0"
140
0.1875
141
12.0
290
     0
  0
SCALE
  5
65
102
{ACAD_REACTORS
330
4C
102
}
330
4C
100
AcDbScale
 70
     0
300
1/4" = 1'-0"
140
0.25
141
12.0
290
     0
  0
SCALE
  5
66
102
{ACAD_REACTORS
330
4C
102
}
330
4C
100
AcDbScale
 70
     0
300
3/8" = 1'-0"
140
0.375
141
12.0
290
     0
  0
SCALE
  5
67
102
{ACAD_REACTORS
330
4C
102
}
330
4C
100
AcDbScale
 70
     0
300
1/2" = 1'-0"
140
0.5
141
12.0
290
     0
  0
SCALE
  5
68
102
{ACAD_REACTORS
330
4C
102
}
330
4C
100
AcDbScale
 70
     0
300
3/4" = 1'-0"
140
0.75
141
12.0
290
     0
  0
SCALE
  5
69
102
{ACAD_REACTORS
330
4C
102
}
330
4C
100
AcDbScale
 70
     0
300
1" = 1'-0"
140
1.0
141
12.0
290
     0
  0
SCALE
  5
6A
102
{ACAD_REACTORS
330
4C
102
}
330
4C
100
AcDbScale
 70
     0
300
1-1/2" = 1'-0"
140
1.5
141
12.0
290
     0
  0
SCALE
  5
6B
102
{ACAD_REACTORS
330
4C
102
}
330
4C
100
AcDbScale
 70
     0
300
3" = 1'-0"
140
3.0
141
12.0
290
     0
  0
SCALE
  5
6C
102
{ACAD_REACTORS
330
4C
102
}
330
4C
100
AcDbScale
 70
     0
300
6" = 1'-0"
140
6.0
141
12.0
290
     0
  0
SCALE
  5
6D
102
{ACAD_REACTORS
330
4C
102
}
330
4C
100
AcDbScale
 70
     0
300
1'-0" = 1'-0"
140
12.0
141
12.0
290
     0
  0
VISUALSTYLE
  5
2F
102
{ACAD_REACTORS
330
2A
102
}
330
2A
100
AcDbVisualStyle
  2
2dWireframe
 70
     4
 71
     0
 72
     2
 73
     0
 90
        0
 40
-0.6
 41
-30.0
 62
     5
 63
     7
 74
     1
 91
        4
 64
     7
 65
   257
 75
     1
175
     1
 42
1.0
 92
        0
 66
   257
 43
1.0
 76
     1
 77
     6
 78
     2
 67
     7
 79
     5
170
     0
171
     0
290
     0
174
     0
 93
        1
 44
0.0
173
     0
291
     0
 45
0.0
1001
ACAD
1000
AcDbSavedByObjectVersion
1070
     0
  0
VISUALSTYLE
  5
31
102
{ACAD_REACTORS
330
2A
102
}
330
2A
100
AcDbVisualStyle
  2
3D Hidden
 70
     6
 71
     1
 72
     2
 73
     2
 90
        0
 40
-0.6
 41
-30.0
 62
     5
 63
     7
 74
     2
 91
        2
 64
     7
 65
   257
 75
     2
175
     1
 42
40.0
 92
        0
 66
   257
 43
1.0
 76
     1
 77
     6
 78
     2
 67
     7
 79
     3
170
     0
171
     0
290
     0
174
     0
 93
        1
 44
0.0
173
     0
291
     0
 45
0.0
1001
ACAD
1000
AcDbSavedByObjectVersion
1070
     0
  0
VISUALSTYLE
  5
30
102
{ACAD_REACTORS
330
2A
102
}
330
2A
100
AcDbVisualStyle
  2
3dWireframe
 70
     5
 71
     0
 72
     2
 73
     0
 90
        0
 40
-0.6
 41
-30.0
 62
     5
 63
     7
 74
     1
 91
        4
 64
     7
 65
   257
 75
     1
175
     1
 42
1.0
 92
        0
 66
   257
 43
1.0
 76
     1
 77
     6
 78
     2
 67
     7
 79
     5
170
     0
171
     0
290
     0
174
     0
 93
        1
 44
0.0
173
     0
291
     0
 45
0.0
1001
ACAD
1000
AcDbSavedByObjectVersion
1070
     0
  0
VISUALSTYLE
  5
32
102
{ACAD_REACTORS
330
2A
102
}
330
2A
100
AcDbVisualStyle
  2
Basic
 70
     7
 71
     1
 72
     0
 73
     1
 90
        0
 40
-0.6
 41
-30.0
 62
     5
 63
     7
 74
     0
 91
        4
 64
     7
 65
   257
 75
     1
175
     1
 42
1.0
 92
        8
 66
     7
 43
1.0
 76
     1
 77
     6
 78
     2
 67
     7
 79
     5
170
     0
171
     0
290
     0
174
     0
 93
        1
 44
0.0
173
     0
291
     1
 45
0.0
1001
ACAD
1000
AcDbSavedByObjectVersion
1070
     0
  0
VISUALSTYLE
  5
36
102
{ACAD_REACTORS
330
2A
102
}
330
2A
100
AcDbVisualStyle
  2
Brighten
 70
    12
 71
     2
 72
     2
 73
     0
 90
        0
 40
-0.6
 41
-30.0
 62
     5
 63
     7
 74
     1
 91
        4
 64
     7
 65
   257
 75
     1
175
     1
 42
1.0
 92
        8
 66
     7
 43
1.0
 76
     1
 77
     6
 78
     2
 67
     7
 79
     5
170
     0
171
     0
290
     0
174
     0
 93
        1
 44
50.0
173
     0
291
     1
 45
0.0
1001
ACAD
1000
AcDbSavedByObjectVersion
1070
     0
  0
VISUALSTYLE
  5
3A
102
{ACAD_REACTORS
330
2A
102
}
330
2A
100
AcDbVisualStyle
  2
ColorChange
 70
    16
 71
     2
 72
     2
 73
     3
 90
        0
 40
-0.6
 41
-30.0
 62
     5
 63
     8
 74
     1
 91
        4
 64
     7
 65
   257
 75
     1
175
     1
 42
1.0
 92
        8
 66
     8
 43
1.0
 76
     1
 77
     6
 78
     2
 67
     7
 79
     5
170
     0
171
     0
290
     0
174
     0
 93
        1
 44
0.0
173
     0
291
     1
 45
0.0
1001
ACAD
1000
AcDbSavedByObjectVersion
1070
     0
  0
VISUALSTYLE
  5
34
102
{ACAD_REACTORS
330
2A
102
}
330
2A
100
AcDbVisualStyle
  2
Conceptual
 70
     9
 71
     3
 72
     2
 73
     0
 90
        0
 40
-0.6
 41
-30.0
 62
     5
 63
     7
 74
     2
 91
        2
 64
     7
 65
   257
 75
     1
175
     1
 42
40.0
 92
        8
 66
     7
 43
1.0
 76
     1
 77
     6
 78
     2
 67
     7
 79
     3
170
     0
171
     0
290
     0
174
     0
 93
        1
 44
0.0
173
     0
291
     0
 45
0.0
1001
ACAD
1000
AcDbSavedByObjectVersion
1070
     0
  0
VISUALSTYLE
  5
35
102
{ACAD_REACTORS
330
2A
102
}
330
2A
100
AcDbVisualStyle
  2
Dim
 70
    11
 71
     2
 72
     2
 73
     0
 90
        0
 40
-0.6
 41
-30.0
 62
     5
 63
     7
 74
     1
 91
        4
 64
     7
 65
   257
 75
     1
175
     1
 42
1.0
 92
        8
 66
     7
 43
1.0
 76
     1
 77
     6
 78
     2
 67
     7
 79
     5
170
     0
171
     0
290
     0
174
     0
 93
        1
 44
-50.0
173
     0
291
     1
 45
0.0
1001
ACAD
1000
AcDbSavedByObjectVersion
1070
     0
  0
VISUALSTYLE
  5
39
102
{ACAD_REACTORS
330
2A
102
}
330
2A
100
AcDbVisualStyle
  2
Facepattern
 70
    15
 71
     2
 72
     2
 73
     0
 90
        0
 40
-0.6
 41
-30.0
 62
     5
 63
     7
 74
     1
 91
        4
 64
     7
 65
   257
 75
     1
175
     1
 42
1.0
 92
        8
 66
     7
 43
1.0
 76
     1
 77
     6
 78
     2
 67
     7
 79
     5
170
     0
171
     0
290
     0
174
     0
 93
        1
 44
0.0
173
     0
291
     1
 45
0.0
1001
ACAD
1000
AcDbSavedByObjectVersion
1070
     0
  0
VISUALSTYLE
  5
2B
102
{ACAD_REACTORS
330
2A
102
}
330
2A
100
AcDbVisualStyle
  2
Flat
 70
     0
 71
     2
 72
     1
 73
     1
 90
        2
 40
-0.6
 41
30.0
 62
     5
 63
     7
 74
     0
 91
        4
 64
     7
 65
   257
 75
     1
175
     1
 42
1.0
 92
        8
 66
     7
 43
1.0
 76
     1
 77
     6
 78
     2
 67
     7
 79
     5
170
     0
171
     0
290
     0
174
     0
 93
       13
 44
0.0
173
     0
291
     1
 45
0.0
1001
ACAD
1000
AcDbSavedByObjectVersion
1070
     0
  0
VISUALSTYLE
  5
2C
102
{ACAD_REACTORS
330
2A
102
}
330
2A
100
AcDbVisualStyle
  2
FlatWithEdges
 70
     1
 71
     2
 72
     1
 73
     1
 90
        2
 40
-0.6
 41
30.0
 62
     5
 63
     7
 74
     1
 91
        4
 64
     7
 65
   257
 75
     1
175
     1
 42
1.0
 92
        0
 66
   257
 43
1.0
 76
     1
 77
     6
 78
     2
 67
     7
 79
     5
170
     0
171
     0
290
     0
174
     0
 93
       13
 44
0.0
173
     0
291
     1
 45
0.0
1001
ACAD
1000
AcDbSavedByObjectVersion
1070
     0
  0
VISUALSTYLE
  5
2D
102
{ACAD_REACTORS
330
2A
102
}
330
2A
100
AcDbVisualStyle
  2
Gouraud
 70
     2
 71
     2
 72
     2
 73
     1
 90
        2
 40
-0.6
 41
30.0
 62
     5
 63
     7
 74
     0
 91
        4
 64
     7
 65
   257
 75
     1
175
     1
 42
1.0
 92
        0
 66
     7
 43
1.0
 76
     1
 77
     6
 78
     2
 67
     7
 79
     5
170
     0
171
     0
290
     0
174
     0
 93
       13
 44
0.0
173
     0
291
     1
 45
0.0
1001
ACAD
1000
AcDbSavedByObjectVersion
1070
     0
  0
VISUALSTYLE
  5
2E
102
{ACAD_REACTORS
330
2A
102
}
330
2A
100
AcDbVisualStyle
  2
GouraudWithEdges
 70
     3
 71
     2
 72
     2
 73
     1
 90
        2
 40
-0.6
 41
30.0
 62
     5
 63
     7
 74
     1
 91
        4
 64
     7
 65
   257
 75
     1
175
     1
 42
1.0
 92
        0
 66
   257
 43
1.0
 76
     1
 77
     6
 78
     2
 67
     7
 79
     5
170
     0
171
     0
290
     0
174
     0
 93
       13
 44
0.0
173
     0
291
     1
 45
0.0
1001
ACAD
1000
AcDbSavedByObjectVersion
1070
     0
  0
VISUALSTYLE
  5
38
102
{ACAD_REACTORS
330
2A
102
}
330
2A
100
AcDbVisualStyle
  2
Linepattern
 70
    14
 71
     2
 72
     2
 73
     0
 90
        0
 40
-0.6
 41
-30.0
 62
     5
 63
     7
 74
     1
 91
        4
 64
     7
 65
   257
 75
     7
175
     7
 42
1.0
 92
        8
 66
     7
 43
1.0
 76
     1
 77
     6
 78
     2
 67
     7
 79
     5
170
     0
171
     0
290
     0
174
     0
 93
        1
 44
0.0
173
     0
291
     1
 45
0.0
1001
ACAD
1000
AcDbSavedByObjectVersion
1070
     0
  0
VISUALSTYLE
  5
33
102
{ACAD_REACTORS
330
2A
102
}
330
2A
100
AcDbVisualStyle
  2
Realistic
 70
     8
 71
     2
 72
     2
 73
     0
 90
        0
 40
-0.6
 41
-30.0
 62
     5
 63
     7
 74
     1
 91
        0
 64
     7
 65
   257
 75
     1
175
     1
 42
1.0
 92
        8
 66
     8
 43
1.0
 76
     1
 77
     6
 78
     2
 67
     7
 79
     5
170
     0
171
     0
290
     0
174
     0
 93
       13
 44
0.0
173
     0
291
     0
 45
0.0
1001
ACAD
1000
AcDbSavedByObjectVersion
1070
     0
  0
VISUALSTYLE
  5
37
102
{ACAD_REACTORS
330
2A
102
}
330
2A
100
AcDbVisualStyle
  2
Thicken
 70
    13
 71
     2
 72
     2
 73
     0
 90
        0
 40
-0.6
 41
-30.0
 62
     5
 63
     7
 74
     1
 91
        4
 64
     7
 65
   257
 75
     1
175
     1
 42
1.0
 92
       12
 66
     7
 43
1.0
 76
     1
 77
     6
 78
     2
 67
     7
 79
     5
170
     0
171
     0
290
     0
174
     0
 93
        1
 44
0.0
173
     0
291
     1
 45
0.0
1001
ACAD
1000
AcDbSavedByObjectVersion
1070
     0
  0
DICTIONARYVAR
  5
124
102
{ACAD_REACTORS
330
121
102
}
330
121
100
DictionaryVariables
280
     0
  1
1:1
  0
ENDSEC
  0
EOF
