  0
SECTION
  2
HEADER
  9
$ACADVER
  1
AC1015
  9
$ACADMAINTVER
 70
     6
  9
$DWGCODEPAGE
  3
ANSI_1252
  9
$INSBASE
 10
0.0
 20
0.0
 30
0.0
  9
$EXTMIN
 10
25.3299988295785
 20
240.5035666488
 30
0.0
  9
$EXTMAX
 10
270.230613593571
 20
370.963117556566
 30
0.0
  9
$LIMMIN
 10
0.0
 20
0.0
  9
$LIMMAX
 10
12.0
 20
9.0
  9
$ORTHOMODE
 70
     0
  9
$REGENMODE
 70
     1
  9
$FILLMODE
 70
     1
  9
$QTEXTMODE
 70
     0
  9
$MIRRTEXT
 70
     1
  9
$LTSCALE
 40
1.0
  9
$ATTMODE
 70
     1
  9
$TEXTSIZE
 40
0.2
  9
$TRACEWID
 40
0.05
  9
$TEXTSTYLE
  7
Standard
  9
$CLAYER
  8
0
  9
$CELTYPE
  6
ByLayer
  9
$CECOLOR
 62
   256
  9
$CELTSCALE
 40
1.0
  9
$DISPSILH
 70
     0
  9
$DIMSCALE
 40
1.0
  9
$DIMASZ
 40
0.18
  9
$DIMEXO
 40
0.0625
  9
$DIMDLI
 40
0.38
  9
$DIMRND
 40
0.0
  9
$DIMDLE
 40
0.0
  9
$DIMEXE
 40
0.18
  9
$DIMTP
 40
0.0
  9
$DIMTM
 40
0.0
  9
$DIMTXT
 40
0.18
  9
$DIMCEN
 40
0.09
  9
$DIMTSZ
 40
0.0
  9
$DIMTOL
 70
     0
  9
$DIMLIM
 70
     0
  9
$DIMTIH
 70
     1
  9
$DIMTOH
 70
     1
  9
$DIMSE1
 70
     0
  9
$DIMSE2
 70
     0
  9
$DIMTAD
 70
     0
  9
$DIMZIN
 70
     0
  9
$DIMBLK
  1

  9
$DIMASO
 70
     1
  9
$DIMSHO
 70
     1
  9
$DIMPOST
  1

  9
$DIMAPOST
  1

  9
$DIMALT
 70
     0
  9
$DIMALTD
 70
     2
  9
$DIMALTF
 40
25.4
  9
$DIMLFAC
 40
1.0
  9
$DIMTOFL
 70
     0
  9
$DIMTVP
 40
0.0
  9
$DIMTIX
 70
     0
  9
$DIMSOXD
 70
     0
  9
$DIMSAH
 70
     0
  9
$DIMBLK1
  1

  9
$DIMBLK2
  1

  9
$DIMSTYLE
  2
Standard
  9
$DIMCLRD
 70
     0
  9
$DIMCLRE
 70
     0
  9
$DIMCLRT
 70
     0
  9
$DIMTFAC
 40
1.0
  9
$DIMGAP
 40
0.09
  9
$DIMJUST
 70
     0
  9
$DIMSD1
 70
     0
  9
$DIMSD2
 70
     0
  9
$DIMTOLJ
 70
     1
  9
$DIMTZIN
 70
     0
  9
$DIMALTZ
 70
     0
  9
$DIMALTTZ
 70
     0
  9
$DIMUPT
 70
     0
  9
$DIMDEC
 70
     4
  9
$DIMTDEC
 70
     4
  9
$DIMALTU
 70
     2
  9
$DIMALTTD
 70
     2
  9
$DIMTXSTY
  7
Standard
  9
$DIMAUNIT
 70
     0
  9
$DIMADEC
 70
     0
  9
$DIMALTRND
 40
0.0
  9
$DIMAZIN
 70
     0
  9
$DIMDSEP
 70
    46
  9
$DIMATFIT
 70
     3
  9
$DIMFRAC
 70
     0
  9
$DIMLDRBLK
  1

  9
$DIMLUNIT
 70
     2
  9
$DIMLWD
 70
    -2
  9
$DIMLWE
 70
    -2
  9
$DIMTMOVE
 70
     0
  9
$LUNITS
 70
     2
  9
$LUPREC
 70
     4
  9
$SKETCHINC
 40
0.1
  9
$FILLETRAD
 40
0.5
  9
$AUNITS
 70
     0
  9
$AUPREC
 70
     0
  9
$MENU
  1
.
  9
$ELEVATION
 40
0.0
  9
$PELEVATION
 40
0.0
  9
$THICKNESS
 40
0.0
  9
$LIMCHECK
 70
     0
  9
$CHAMFERA
 40
0.5
  9
$CHAMFERB
 40
0.5
  9
$CHAMFERC
 40
1.0
  9
$CHAMFERD
 40
0.0
  9
$SKPOLY
 70
     0
  9
$TDCREATE
 40
2456645.679823866
  9
$TDUCREATE
 40
2456645.638157199
  9
$TDUPDATE
 40
2456645.679823877
  9
$TDUUPDATE
 40
2456645.638157211
  9
$TDINDWG
 40
0.0000000116
  9
$TDUSRTIMER
 40
0.0000000116
  9
$USRTIMER
 70
     1
  9
$ANGBASE
 50
0.0
  9
$ANGDIR
 70
     0
  9
$PDMODE
 70
     0
  9
$PDSIZE
 40
0.0
  9
$PLINEWID
 40
0.0
  9
$SPLFRAME
 70
     0
  9
$SPLINETYPE
 70
     6
  9
$SPLINESEGS
 70
     8
  9
$HANDSEED
  5
124
  9
$SURFTAB1
 70
     6
  9
$SURFTAB2
 70
     6
  9
$SURFTYPE
 70
     6
  9
$SURFU
 70
     6
  9
$SURFV
 70
     6
  9
$UCSBASE
  2

  9
$UCSNAME
  2

  9
$UCSORG
 10
0.0
 20
0.0
 30
0.0
  9
$UCSXDIR
 10
1.0
 20
0.0
 30
0.0
  9
$UCSYDIR
 10
0.0
 20
1.0
 30
0.0
  9
$UCSORTHOREF
  2

  9
$UCSORTHOVIEW
 70
     0
  9
$UCSORGTOP
 10
0.0
 20
0.0
 30
0.0
  9
$UCSORGBOTTOM
 10
0.0
 20
0.0
 30
0.0
  9
$UCSORGLEFT
 10
0.0
 20
0.0
 30
0.0
  9
$UCSORGRIGHT
 10
0.0
 20
0.0
 30
0.0
  9
$UCSORGFRONT
 10
0.0
 20
0.0
 30
0.0
  9
$UCSORGBACK
 10
0.0
 20
0.0
 30
0.0
  9
$PUCSBASE
  2

  9
$PUCSNAME
  2

  9
$PUCSORG
 10
0.0
 20
0.0
 30
0.0
  9
$PUCSXDIR
 10
1.0
 20
0.0
 30
0.0
  9
$PUCSYDIR
 10
0.0
 20
1.0
 30
0.0
  9
$PUCSORTHOREF
  2

  9
$PUCSORTHOVIEW
 70
     0
  9
$PUCSORGTOP
 10
0.0
 20
0.0
 30
0.0
  9
$PUCSORGBOTTOM
 10
0.0
 20
0.0
 30
0.0
  9
$PUCSORGLEFT
 10
0.0
 20
0.0
 30
0.0
  9
$PUCSORGRIGHT
 10
0.0
 20
0.0
 30
0.0
  9
$PUCSORGFRONT
 10
0.0
 20
0.0
 30
0.0
  9
$PUCSORGBACK
 10
0.0
 20
0.0
 30
0.0
  9
$USERI1
 70
     0
  9
$USERI2
 70
     0
  9
$USERI3
 70
     0
  9
$USERI4
 70
     0
  9
$USERI5
 70
     0
  9
$USERR1
 40
16.5
  9
$USERR2
 40
0.0
  9
$USERR3
 40
0.0
  9
$USERR4
 40
0.0
  9
$USERR5
 40
0.0
  9
$WORLDVIEW
 70
     1
  9
$SHADEDGE
 70
     3
  9
$SHADEDIF
 70
    70
  9
$TILEMODE
 70
     1
  9
$MAXACTVP
 70
    64
  9
$PINSBASE
 10
0.0
 20
0.0
 30
0.0
  9
$PLIMCHECK
 70
     0
  9
$PEXTMIN
 10
1.00000000000000E+20
 20
1.00000000000000E+20
 30
1.00000000000000E+20
  9
$PEXTMAX
 10
-1.00000000000000E+20
 20
-1.00000000000000E+20
 30
-1.00000000000000E+20
  9
$PLIMMIN
 10
0.0
 20
0.0
  9
$PLIMMAX
 10
12.0
 20
9.0
  9
$UNITMODE
 70
     0
  9
$VISRETAIN
 70
     1
  9
$PLINEGEN
 70
     0
  9
$PSLTSCALE
 70
     1
  9
$TREEDEPTH
 70
  3020
  9
$CMLSTYLE
  2
Standard
  9
$CMLJUST
 70
     0
  9
$CMLSCALE
 40
1.0
  9
$PROXYGRAPHICS
 70
     1
  9
$MEASUREMENT
 70
     1
  9
$CELWEIGHT
370
    -1
  9
$ENDCAPS
280
     0
  9
$JOINSTYLE
280
     0
  9
$LWDISPLAY
290
     0
  9
$INSUNITS
 70
     1
  9
$HYPERLINKBASE
  1

  9
$STYLESHEET
  1

  9
$XEDIT
290
     1
  9
$CEPSNTYPE
380
     0
  9
$PSTYLEMODE
290
     1
  9
$FINGERPRINTGUID
  2
{FE034502-EAF4-4CCE-A326-15BE9F5842F0}
  9
$VERSIONGUID
  2
{FAEB1C32-E019-11D5-929B-00C0DF256EC4}
  9
$EXTNAMES
290
     1
  9
$PSVPSCALE
 40
0.0
  9
$OLESTARTUP
290
     0
  0
ENDSEC
  0
SECTION
  2
CLASSES
  0
CLASS
  1
ACDBDICTIONARYWDFLT
  2
AcDbDictionaryWithDefault
  3
ObjectDBX Classes
 90
        0
280
     0
281
     0
  0
CLASS
  1
VISUALSTYLE
  2
AcDbVisualStyle
  3
ObjectDBX Classes
 90
     4095
280
     0
281
     0
  0
CLASS
  1
SCALE
  2
AcDbScale
  3
ObjectDBX Classes
 90
     1153
280
     0
281
     0
  0
CLASS
  1

  2
exOdDbPolyline
  3

 90
        0
280
     0
281
     1
  0
CLASS
  1

  2
exOdDbSpline
  3

 90
        0
280
     0
281
     1
  0
CLASS
  1
DICTIONARYVAR
  2
AcDbDictionaryVar
  3
ObjectDBX Classes
 90
        0
280
     0
281
     0
  0
CLASS
  1
ACDBPLACEHOLDER
  2
AcDbPlaceHolder
  3
ObjectDBX Classes
 90
        0
280
     0
281
     0
  0
CLASS
  1
LAYOUT
  2
AcDbLayout
  3
ObjectDBX Classes
 90
        0
280
     0
281
     0
  0
ENDSEC
  0
SECTION
  2
TABLES
  0
TABLE
  2
VPORT
  5
8
330
0
100
AcDbSymbolTable
 70
     1
  0
VPORT
  5
29
330
8
100
AcDbSymbolTableRecord
100
AcDbViewportTableRecord
  2
*Active
 70
     0
 10
0.0
 20
0.0
 11
1.0
 21
1.0
 12
147.7803062115747
 22
305.733342102683
 13
0.0
 23
0.0
 14
0.5
 24
0.5
 15
0.5
 25
0.5
 16
0.0
 26
0.0
 36
1.0
 17
0.0
 27
0.0
 37
0.0
 40
168.0877757043114
 41
1.60267857142857
 42
50.0
 43
0.0
 44
0.0
 50
0.0
 51
0.0
 71
     0
 72
   100
 73
     1
 74
     3
 75
     0
 76
     0
 77
     0
 78
     0
281
     0
 65
     1
110
0.0
120
0.0
130
0.0
111
1.0
121
0.0
131
0.0
112
0.0
122
1.0
132
0.0
 79
     0
146
0.0
  0
ENDTAB
  0
TABLE
  2
LTYPE
  5
5
330
0
100
AcDbSymbolTable
 70
     9
  0
LTYPE
  5
14
330
5
100
AcDbSymbolTableRecord
100
AcDbLinetypeTableRecord
  2
ByBlock
 70
     0
  3

 72
    65
 73
     0
 40
0.0
  0
LTYPE
  5
15
330
5
100
AcDbSymbolTableRecord
100
AcDbLinetypeTableRecord
  2
ByLayer
 70
     0
  3

 72
    65
 73
     0
 40
0.0
  0
LTYPE
  5
16
330
5
100
AcDbSymbolTableRecord
100
AcDbLinetypeTableRecord
  2
Continuous
 70
     0
  3
Solid line
 72
    65
 73
     0
 40
0.0
  0
LTYPE
  5
3B
330
5
100
AcDbSymbolTableRecord
100
AcDbLinetypeTableRecord
  2
DASHED
 70
     0
  3
Dashed
 72
    65
 73
     2
 40
15.0
 49
7.0
 74
     0
 49
-8.0
 74
     0
  0
LTYPE
  5
3C
330
5
100
AcDbSymbolTableRecord
100
AcDbLinetypeTableRecord
  2
DOTTED
 70
     0
  3
Dotted
 72
    65
 73
     2
 40
1.0
 49
0.0
 74
     0
 49
-1.0
 74
     0
  0
LTYPE
  5
3D
330
5
100
AcDbSymbolTableRecord
100
AcDbLinetypeTableRecord
  2
DOT_CENTER
 70
     0
  3
Dot_Center
 72
    65
 73
     4
 40
14.0
 49
12.0
 74
     0
 49
-1.0
 74
     0
 49
0.0
 74
     0
 49
-1.0
 74
     0
  0
LTYPE
  5
3E
330
5
100
AcDbSymbolTableRecord
100
AcDbLinetypeTableRecord
  2
LONG_DASHED
 70
     0
  3
Long_Dashed
 72
    65
 73
     2
 40
15.0
 49
10.0
 74
     0
 49
-5.0
 74
     0
  0
LTYPE
  5
3F
330
5
100
AcDbSymbolTableRecord
100
AcDbLinetypeTableRecord
  2
DASH_CENTER
 70
     0
  3
Dash_Center
 72
    65
 73
     4
 40
14.0
 49
11.0
 74
     0
 49
-1.0
 74
     0
 49
1.0
 74
     0
 49
-1.0
 74
     0
  0
LTYPE
  5
40
330
5
100
AcDbSymbolTableRecord
100
AcDbLinetypeTableRecord
  2
PHANTOM
 70
     0
  3
Phantom
 72
    65
 73
     6
 40
13.0
 49
10.0
 74
     0
 49
-1.0
 74
     0
 49
0.0
 74
     0
 49
-1.0
 74
     0
 49
0.0
 74
     0
 49
-1.0
 74
     0
  0
LTYPE
  5
41
330
5
100
AcDbSymbolTableRecord
100
AcDbLinetypeTableRecord
  2
CENTER_DASH_DASH
 70
     0
  3
Center_Dash_Dash
 72
    65
 73
     6
 40
14.0
 49
9.0
 74
     0
 49
-1.0
 74
     0
 49
1.0
 74
     0
 49
-1.0
 74
     0
 49
1.0
 74
     0
 49
-1.0
 74
     0
  0
LTYPE
  5
42
330
5
100
AcDbSymbolTableRecord
100
AcDbLinetypeTableRecord
  2
HIDDEN
 70
     0
  3
HIDDEN
 72
    65
 73
     2
 40
4.0
 49
2.0
 74
     0
 49
-2.0
 74
     0
  0
ENDTAB
  0
TABLE
  2
LAYER
  5
2
330
0
100
AcDbSymbolTable
 70
     7
  0
LAYER
  5
10
330
2
100
AcDbSymbolTableRecord
100
AcDbLayerTableRecord
  2
0
 70
     0
 62
     7
  6
Continuous
370
    -3
390
F
  0
LAYER
  5
43
330
2
100
AcDbSymbolTableRecord
100
AcDbLayerTableRecord
  2
1
 70
     0
 62
     7
  6
Continuous
370
    -3
390
F
  0
LAYER
  5
44
330
2
100
AcDbSymbolTableRecord
100
AcDbLayerTableRecord
  2
BEZUGSACHSEN
 70
     0
 62
     7
  6
Continuous
370
    -3
390
F
  0
LAYER
  5
45
330
2
100
AcDbSymbolTableRecord
100
AcDbLayerTableRecord
  2
DEFAULT_2
 70
     0
 62
     7
  6
Continuous
370
    -3
390
F
  0
LAYER
  5
46
330
2
100
AcDbSymbolTableRecord
100
AcDbLayerTableRecord
  2
FASEN
 70
     0
 62
     7
  6
Continuous
370
    -3
390
F
  0
LAYER
  5
47
330
2
100
AcDbSymbolTableRecord
100
AcDbLayerTableRecord
  2
RUNDUNGEN
 70
     0
 62
     7
  6
Continuous
370
    -3
390
F
  0
LAYER
  5
48
330
2
100
AcDbSymbolTableRecord
100
AcDbLayerTableRecord
  2
TEIL_STARTBEZUEGE
 70
     0
 62
     7
  6
Continuous
370
    -3
390
F
  0
ENDTAB
  0
TABLE
  2
STYLE
  5
3
330
0
100
AcDbSymbolTable
 70
     2
  0
STYLE
  5
11
330
3
100
AcDbSymbolTableRecord
100
AcDbTextStyleTableRecord
  2
Standard
 70
     0
 40
0.0
 41
1.0
 50
0.0
 71
     0
 42
0.2
  3
txt
  4

  0
STYLE
  5
6F
330
3
100
AcDbSymbolTableRecord
100
AcDbTextStyleTableRecord
  2
CONVERTER_11
 70
     0
 40
0.0
 41
0.72
 50
0.0
 71
     0
 42
0.2
  3
txt.shx
  4

  0
ENDTAB
  0
TABLE
  2
VIEW
  5
6
330
0
100
AcDbSymbolTable
 70
     0
  0
ENDTAB
  0
TABLE
  2
UCS
  5
7
330
0
100
AcDbSymbolTable
 70
     0
  0
ENDTAB
  0
TABLE
  2
APPID
  5
9
330
0
100
AcDbSymbolTable
 70
     1
  0
APPID
  5
12
330
9
100
AcDbSymbolTableRecord
100
AcDbRegAppTableRecord
  2
ACAD
 70
     0
  0
ENDTAB
  0
TABLE
  2
DIMSTYLE
  5
A
330
0
100
AcDbSymbolTable
 70
     6
100
AcDbDimStyleTable
  0
DIMSTYLE
105
27
330
A
100
AcDbSymbolTableRecord
100
AcDbDimStyleTableRecord
  2
Standard
 70
     0
340
11
  0
DIMSTYLE
105
EB
102
{ACAD_REACTORS
330
EC
102
}
330
A
100
AcDbSymbolTableRecord
100
AcDbDimStyleTableRecord
  2
ME10_DIM_10
 70
     0
  3
<>
 41
3.5
 42
2.0
 44
2.0
 71
     1
 73
     0
 74
     0
 77
     1
 78
     8
140
3.5
146
0.7
147
2.0
172
     1
173
     1
176
     2
177
     2
178
     3
271
     2
272
     0
340
6F
  0
DIMSTYLE
105
F6
102
{ACAD_REACTORS
330
F7
102
}
330
A
100
AcDbSymbolTableRecord
100
AcDbDimStyleTableRecord
  2
ME10_DIM_11
 70
     0
  3
<>
 41
3.5
 42
2.0
 44
2.0
 71
     1
 73
     0
 74
     0
 77
     1
 78
     8
140
3.5
146
0.7
147
2.0
172
     1
173
     1
176
     2
177
     2
178
     3
271
     2
272
     0
340
6F
  0
DIMSTYLE
105
101
102
{ACAD_REACTORS
330
102
102
}
330
A
100
AcDbSymbolTableRecord
100
AcDbDimStyleTableRecord
  2
ME10_DIM_12
 70
     0
  3
<>
 41
3.5
 42
2.0
 44
2.0
 71
     1
 73
     0
 74
     0
 77
     1
 78
     8
140
3.5
146
0.7
147
2.0
172
     1
173
     1
176
     2
177
     2
178
     3
271
     2
272
     0
340
6F
  0
DIMSTYLE
105
10C
102
{ACAD_REACTORS
330
10D
102
}
330
A
100
AcDbSymbolTableRecord
100
AcDbDimStyleTableRecord
  2
ME10_DIM_13
 70
     0
  3
\U+2300<>
 41
3.5
 42
2.0
 44
2.0
 71
     1
 73
     0
 74
     0
 77
     1
 78
     8
140
3.5
146
0.7
147
2.0
172
     1
173
     1
176
     2
177
     2
178
     3
271
     2
272
     0
340
6F
  0
DIMSTYLE
105
117
102
{ACAD_REACTORS
330
118
102
}
330
A
100
AcDbSymbolTableRecord
100
AcDbDimStyleTableRecord
  2
ME10_DIM_14
 70
     0
  3
\U+2300<>
 41
3.5
 42
2.0
 44
2.0
 71
     1
 73
     0
 74
     0
 77
     1
 78
     8
140
3.5
146
0.7
147
2.0
172
     1
173
     1
176
     2
177
     2
178
     3
271
     2
272
     0
340
6F
  0
ENDTAB
  0
TABLE
  2
BLOCK_RECORD
  5
1
330
0
100
AcDbSymbolTable
 70
     8
  0
BLOCK_RECORD
  5
1F
330
1
100
AcDbSymbolTableRecord
100
AcDbBlockTableRecord
  2
*Model_Space
340
22
  0
BLOCK_RECORD
  5
1B
330
1
100
AcDbSymbolTableRecord
100
AcDbBlockTableRecord
  2
*Paper_Space
340
1E
  0
BLOCK_RECORD
  5
23
330
1
100
AcDbSymbolTableRecord
100
AcDbBlockTableRecord
  2
*Paper_Space0
340
26
  0
BLOCK_RECORD
  5
49
330
1
100
AcDbSymbolTableRecord
100
AcDbBlockTableRecord
  2
Urheberrecht_DE-EN
340
0
102
{BLKREFS
331
6E
102
}
  0
BLOCK_RECORD
  5
E2
330
1
100
AcDbSymbolTableRecord
100
AcDbBlockTableRecord
  2
*D2
340
0
  0
BLOCK_RECORD
  5
ED
330
1
100
AcDbSymbolTableRecord
100
AcDbBlockTableRecord
  2
*D3
340
0
  0
BLOCK_RECORD
  5
F8
330
1
100
AcDbSymbolTableRecord
100
AcDbBlockTableRecord
  2
*D4
340
0
  0
BLOCK_RECORD
  5
103
330
1
100
AcDbSymbolTableRecord
100
AcDbBlockTableRecord
  2
*D5
340
0
  0
BLOCK_RECORD
  5
10E
330
1
100
AcDbSymbolTableRecord
100
AcDbBlockTableRecord
  2
*D6
340
0
  0
BLOCK_RECORD
  5
119
330
1
100
AcDbSymbolTableRecord
100
AcDbBlockTableRecord
  2
*D7
340
0
102
{BLKREFS
331
11F
102
}
  0
ENDTAB
  0
ENDSEC
  0
SECTION
  2
BLOCKS
  0
BLOCK
  5
20
330
1F
100
AcDbEntity
  8
0
100
AcDbBlockBegin
  2
*Model_Space
 70
     0
 10
0.0
 20
0.0
 30
0.0
  3
*Model_Space
  1

  0
ENDBLK
  5
21
330
1F
100
AcDbEntity
  8
0
100
AcDbBlockEnd
  0
BLOCK
  5
1C
330
1B
100
AcDbEntity
 67
     1
  8
0
100
AcDbBlockBegin
  2
*Paper_Space
 70
     0
 10
0.0
 20
0.0
 30
0.0
  3
*Paper_Space
  1

  0
ENDBLK
  5
1D
330
1B
100
AcDbEntity
 67
     1
  8
0
100
AcDbBlockEnd
  0
BLOCK
  5
24
330
23
100
AcDbEntity
  8
0
100
AcDbBlockBegin
  2
*Paper_Space0
 70
     0
 10
0.0
 20
0.0
 30
0.0
  3
*Paper_Space0
  1

  0
ENDBLK
  5
25
330
23
100
AcDbEntity
  8
0
100
AcDbBlockEnd
  0
BLOCK
  5
4A
330
49
100
AcDbEntity
  8
0
100
AcDbBlockBegin
  2
Urheberrecht_DE-EN
 70
     0
 10
39.3299988295785
 20
307.155572990253
 30
0.0
  3
Urheberrecht_DE-EN
  1

  0
MTEXT
  5
70
330
49
100
AcDbEntity
  8
1
 62
     1
100
AcDbMText
 10
39.3299988295785
 20
250.8661860729468
 30
0.0
 40
2.0
 41
0.0
 71
     7
 72
     1
  1
F\U+00fcr diese Unterlage behalten wir das Ur-\Pheberrecht. Sie darf nur f\U+00fcr den von uns \Pbestimmten Zweck benutzt und ohne unsere \PZustimmung weder vervielf\U+00e4ltigt noch\PDritten zug\U+00e4nglich gemacht werden.
  7
CONVERTER_11
 11
0.0
 21
1.0
 31
0.0
 73
     1
 44
0.90036014405762
  0
MTEXT
  5
71
330
49
100
AcDbEntity
  8
1
 62
     1
100
AcDbMText
 10
39.3299988295785
 20
307.155572990253
 30
0.0
 40
2.0
 41
0.0
 71
     7
 72
     1
  1
We own the copyright of this document. It \Pdetermined and may neither be copied or \Pmade accessible to outsiders without our\Ppermission.
  7
CONVERTER_11
 11
0.0
 21
1.0
 31
0.0
 73
     1
 44
0.90036014405762
  0
ENDBLK
  5
4B
330
49
100
AcDbEntity
  8
0
100
AcDbBlockEnd
  0
BLOCK
  5
E9
330
E2
100
AcDbEntity
  8
0
100
AcDbBlockBegin
  2
*D2
 70
     1
 10
0.0
 20
0.0
 30
0.0
  3
*D2
  1

  0
LINE
  5
E3
330
E2
100
AcDbEntity
  8
1
  6
Continuous
 62
     2
100
AcDbLine
 10
247.5218883833
 20
365.463117556566
 30
0.0
 11
45.7218883833
 21
365.463117556566
 31
0.0
  0
LINE
  5
E4
330
E2
100
AcDbEntity
  8
1
  6
Continuous
 62
     2
100
AcDbLine
 10
45.7218883833
 20
314.8292620565
 30
0.0
 11
45.7218883833
 21
367.463117556566
 31
0.0
  0
LINE
  5
E5
330
E2
100
AcDbEntity
  8
1
  6
Continuous
 62
     2
100
AcDbLine
 10
247.5218883833
 20
320.0331628802
 30
0.0
 11
247.5218883833
 21
367.463117556566
 31
0.0
  0
SOLID
  5
E6
330
E2
100
AcDbEntity
  8
1
 62
     2
100
AcDbTrace
 10
244.0218883833
 20
365.0023338150101
 30
0.0
 11
244.0218883833
 21
365.9239012981218
 31
0.0
 12
247.5218883833
 22
365.463117556566
 32
0.0
 13
247.5218883833
 23
365.463117556566
 33
0.0
  0
SOLID
  5
E7
330
E2
100
AcDbEntity
  8
1
 62
     2
100
AcDbTrace
 10
49.2218883833
 20
365.9239012981218
 30
0.0
 11
49.2218883833
 21
365.0023338150101
 31
0.0
 12
45.7218883833
 22
365.463117556566
 32
0.0
 13
45.7218883833
 23
365.463117556566
 33
0.0
  0
MTEXT
  5
E8
330
E2
100
AcDbEntity
  8
1
 62
     3
100
AcDbMText
 10
155.95469152751
 20
367.463117556566
 30
0.0
 40
3.5
 41
0.0
 71
     7
 72
     1
  1
\C3;\C3;\C3;201.8\C2;\H2.45;\S^ ;\C3;
  7
CONVERTER_11
 11
0.9999999999970619
 21
2.424068405545306E-6
 31
0.0
 73
     1
 44
0.60024009603842
  0
ENDBLK
  5
EA
330
E2
100
AcDbEntity
  8
0
100
AcDbBlockEnd
  0
BLOCK
  5
F4
330
ED
100
AcDbEntity
  8
0
100
AcDbBlockBegin
  2
*D3
 70
     1
 10
0.0
 20
0.0
 30
0.0
  3
*D3
  1

  0
LINE
  5
EE
330
ED
100
AcDbEntity
  8
1
  6
Continuous
 62
     2
100
AcDbLine
 10
247.5218883833
 20
357.725175602717
 30
0.0
 11
147.5218883833
 21
357.725175602717
 31
0.0
  0
LINE
  5
EF
330
ED
100
AcDbEntity
  8
1
  6
Continuous
 62
     2
100
AcDbLine
 10
147.5218883833
 20
348.6035666488
 30
0.0
 11
147.5218883833
 21
359.725175602717
 31
0.0
  0
LINE
  5
F0
330
ED
100
AcDbEntity
  8
1
  6
Continuous
 62
     2
100
AcDbLine
 10
247.5218883833
 20
320.0331628802
 30
0.0
 11
247.5218883833
 21
359.725175602717
 31
0.0
  0
SOLID
  5
F1
330
ED
100
AcDbEntity
  8
1
 62
     2
100
AcDbTrace
 10
244.0218883833
 20
357.2643918611611
 30
0.0
 11
244.0218883833
 21
358.1859593442729
 31
0.0
 12
247.5218883833
 22
357.725175602717
 32
0.0
 13
247.5218883833
 23
357.725175602717
 33
0.0
  0
SOLID
  5
F2
330
ED
100
AcDbEntity
  8
1
 62
     2
100
AcDbTrace
 10
151.0218883833
 20
358.1859593442729
 30
0.0
 11
151.0218883833
 21
357.2643918611611
 31
0.0
 12
147.5218883833
 22
357.725175602717
 32
0.0
 13
147.5218883833
 23
357.725175602717
 33
0.0
  0
MTEXT
  5
F3
330
ED
100
AcDbEntity
  8
1
 62
     3
100
AcDbMText
 10
195.791137522973
 20
359.725175602717
 30
0.0
 40
3.5
 41
0.0
 71
     7
 72
     1
  1
\C3;\C3;\C3;100\C2;\H2.45;\S^ ;\C3;
  7
CONVERTER_11
 11
0.9999999999970619
 21
2.424068405545306E-6
 31
0.0
 73
     1
 44
0.60024009603842
  0
ENDBLK
  5
F5
330
ED
100
AcDbEntity
  8
0
100
AcDbBlockEnd
  0
BLOCK
  5
FF
330
F8
100
AcDbEntity
  8
0
100
AcDbBlockBegin
  2
*D4
 70
     1
 10
0.0
 20
0.0
 30
0.0
  3
*D4
  1

  0
LINE
  5
F9
330
F8
100
AcDbEntity
  8
1
  6
Continuous
 62
     2
100
AcDbLine
 10
247.5218883833
 20
350.119009766664
 30
0.0
 11
185.5218883833
 21
350.119009766664
 31
0.0
  0
LINE
  5
FA
330
F8
100
AcDbEntity
  8
1
  6
Continuous
 62
     2
100
AcDbLine
 10
185.5218883833
 20
344.6035666488
 30
0.0
 11
185.5218883833
 21
352.119009766664
 31
0.0
  0
LINE
  5
FB
330
F8
100
AcDbEntity
  8
1
  6
Continuous
 62
     2
100
AcDbLine
 10
247.5218883833
 20
320.0331628802
 30
0.0
 11
247.5218883833
 21
352.119009766664
 31
0.0
  0
SOLID
  5
FC
330
F8
100
AcDbEntity
  8
1
 62
     2
100
AcDbTrace
 10
244.0218883833
 20
349.6582260251081
 30
0.0
 11
244.0218883833
 21
350.5797935082199
 31
0.0
 12
247.5218883833
 22
350.119009766664
 32
0.0
 13
247.5218883833
 23
350.119009766664
 33
0.0
  0
SOLID
  5
FD
330
F8
100
AcDbEntity
  8
1
 62
     2
100
AcDbTrace
 10
189.0218883833
 20
350.5797935082199
 30
0.0
 11
189.0218883833
 21
349.6582260251081
 31
0.0
 12
185.5218883833
 22
350.119009766664
 32
0.0
 13
185.5218883833
 23
350.119009766664
 33
0.0
  0
MTEXT
  5
FE
330
F8
100
AcDbEntity
  8
1
 62
     3
100
AcDbMText
 10
213.63315527415
 20
352.119009766664
 30
0.0
 40
3.5
 41
0.0
 71
     7
 72
     1
  1
\C3;\C3;\C3;62\C2;\H2.45;\S^ ;\C3;
  7
CONVERTER_11
 11
0.9999999999970619
 21
2.424068405545306E-6
 31
0.0
 73
     1
 44
0.60024009603842
  0
ENDBLK
  5
100
330
F8
100
AcDbEntity
  8
0
100
AcDbBlockEnd
  0
BLOCK
  5
10A
330
103
100
AcDbEntity
  8
0
100
AcDbBlockBegin
  2
*D5
 70
     1
 10
0.0
 20
0.0
 30
0.0
  3
*D5
  1

  0
LINE
  5
104
330
103
100
AcDbEntity
  8
1
  6
Continuous
 62
     2
100
AcDbLine
 10
268.230613593571
 20
326.1161080597
 30
0.0
 11
268.230613593571
 21
261.1160666488
 31
0.0
  0
LINE
  5
105
330
103
100
AcDbEntity
  8
1
  6
Continuous
 62
     2
100
AcDbLine
 10
236.2539391909
 20
261.1160666488
 30
0.0
 11
270.230613593571
 21
261.1160666488
 31
0.0
  0
LINE
  5
106
330
103
100
AcDbEntity
  8
1
  6
Continuous
 62
     2
100
AcDbLine
 10
234.5218883833
 20
326.1161080597
 30
0.0
 11
270.230613593571
 21
326.1161080597
 31
0.0
  0
SOLID
  5
107
330
103
100
AcDbEntity
  8
1
 62
     2
100
AcDbTrace
 10
268.6913973351269
 20
322.6161080597
 30
0.0
 11
267.7698298520151
 21
322.6161080597
 31
0.0
 12
268.230613593571
 22
326.1161080597
 32
0.0
 13
268.230613593571
 23
326.1161080597
 33
0.0
  0
SOLID
  5
108
330
103
100
AcDbEntity
  8
1
 62
     2
100
AcDbTrace
 10
267.7698298520151
 20
264.6160666488
 30
0.0
 11
268.6913973351269
 21
264.6160666488
 31
0.0
 12
268.230613593571
 22
261.1160666488
 32
0.0
 13
268.230613593571
 23
261.1160666488
 33
0.0
  0
MTEXT
  5
109
330
103
100
AcDbEntity
  8
1
 62
     3
100
AcDbMText
 10
266.230613593571
 20
284.143195742975
 30
0.0
 40
3.5
 41
0.0
 71
     7
 72
     1
  1
\C3;%%c\C3;\C3;65\C2;\H2.45;\S^ ;\C3;
  7
CONVERTER_11
 11
0.0
 21
1.0
 31
0.0
 73
     1
 44
0.60024009603842
  0
ENDBLK
  5
10B
330
103
100
AcDbEntity
  8
0
100
AcDbBlockEnd
  0
BLOCK
  5
115
330
10E
100
AcDbEntity
  8
0
100
AcDbBlockBegin
  2
*D6
 70
     1
 10
0.0
 20
0.0
 30
0.0
  3
*D6
  1

  0
LINE
  5
10F
330
10E
100
AcDbEntity
  8
1
  6
Continuous
 62
     2
100
AcDbLine
 10
259.729604717983
 20
306.1160666488
 30
0.0
 11
259.729604717983
 21
281.1160666488
 31
0.0
  0
LINE
  5
110
330
10E
100
AcDbEntity
  8
1
  6
Continuous
 62
     2
100
AcDbLine
 10
249.5218883833
 20
281.1160666488
 30
0.0
 11
261.729604717983
 21
281.1160666488
 31
0.0
  0
LINE
  5
111
330
10E
100
AcDbEntity
  8
1
  6
Continuous
 62
     2
100
AcDbLine
 10
249.5218883833
 20
306.1160666488
 30
0.0
 11
261.729604717983
 21
306.1160666488
 31
0.0
  0
SOLID
  5
112
330
10E
100
AcDbEntity
  8
1
 62
     2
100
AcDbTrace
 10
260.1903884595388
 20
302.6160666488
 30
0.0
 11
259.2688209764271
 21
302.6160666488
 31
0.0
 12
259.729604717983
 22
306.1160666488
 32
0.0
 13
259.729604717983
 23
306.1160666488
 33
0.0
  0
SOLID
  5
113
330
10E
100
AcDbEntity
  8
1
 62
     2
100
AcDbTrace
 10
259.2688209764271
 20
284.6160666488
 30
0.0
 11
260.1903884595388
 21
284.6160666488
 31
0.0
 12
259.729604717983
 22
281.1160666488
 32
0.0
 13
259.729604717983
 23
281.1160666488
 33
0.0
  0
MTEXT
  5
114
330
10E
100
AcDbEntity
  8
1
 62
     3
100
AcDbMText
 10
257.729604717983
 20
284.143195742975
 30
0.0
 40
3.5
 41
0.0
 71
     7
 72
     1
  1
\C3;%%c\C3;\C3;25\C2;\H2.45;\S^ ;\C3;
  7
CONVERTER_11
 11
0.0
 21
1.0
 31
0.0
 73
     1
 44
0.60024009603842
  0
ENDBLK
  5
116
330
10E
100
AcDbEntity
  8
0
100
AcDbBlockEnd
  0
BLOCK
  5
11D
330
119
100
AcDbEntity
  8
0
100
AcDbBlockBegin
  2
*D7
 70
     1
 10
0.0
 20
0.0
 30
0.0
  3
*D7
  1

  0
LINE
  5
11A
330
119
100
AcDbEntity
  8
1
  6
Continuous
 62
     2
100
AcDbLine
 10
195.2882080281884
 20
335.5777261994581
 30
0.0
 11
185.8023895986566
 21
326.421572949119
 31
0.0
  0
SOLID
  5
11B
330
119
100
AcDbEntity
  8
1
 62
     2
100
AcDbTrace
 10
188.0006239394826
 20
329.1838342400355
 30
0.0
 11
188.6406467503346
 21
328.5207675559697
 31
0.0
 12
185.8023895986566
 22
326.421572949119
 32
0.0
 13
185.8023895986566
 23
326.421572949119
 33
0.0
  0
MTEXT
  5
11C
330
119
100
AcDbEntity
  8
1
 62
     3
100
AcDbMText
 10
189.1649186258727
 20
332.4469552248439
 30
0.0
 40
3.5
 41
0.0
 71
     7
 72
     1
  1
\C3; R\C3;\C3;1\C2;\H2.45;\S^ ;\C3;
  7
CONVERTER_11
 11
0.7194987846434285
 21
0.6944936996810188
 31
0.0
 73
     1
 44
0.60024009603842
  0
ENDBLK
  5
11E
330
119
100
AcDbEntity
  8
0
100
AcDbBlockEnd
  0
ENDSEC
  0
SECTION
  2
ENTITIES
  0
INSERT
  5
6E
330
1F
100
AcDbEntity
  8
0
100
AcDbBlockReference
  2
Urheberrecht_DE-EN
 10
39.3299988295785
 20
307.155572990253
 30
0.0
  0
LINE
  5
72
330
1F
100
AcDbEntity
  8
BEZUGSACHSEN
  6
HIDDEN
 62
     8
100
AcDbLine
 10
189.5218883833
 20
306.1160666488
 30
0.0
 11
189.5218883833
 21
326.1160666488
 31
0.0
  0
LINE
  5
73
330
1F
100
AcDbEntity
  8
BEZUGSACHSEN
  6
HIDDEN
 62
     8
100
AcDbLine
 10
214.5218883833
 20
306.1160666488
 30
0.0
 11
214.5218883833
 21
326.1160666488
 31
0.0
  0
LINE
  5
74
330
1F
100
AcDbEntity
  8
BEZUGSACHSEN
  6
HIDDEN
 62
     8
100
AcDbLine
 10
207.5218883833
 20
306.1160666488
 30
0.0
 11
207.5218883833
 21
326.1160666488
 31
0.0
  0
LINE
  5
75
330
1F
100
AcDbEntity
  8
BEZUGSACHSEN
  6
HIDDEN
 62
     8
100
AcDbLine
 10
232.5218883833
 20
306.1160666488
 30
0.0
 11
232.5218883833
 21
326.1160666488
 31
0.0
  0
LINE
  5
76
330
1F
100
AcDbEntity
  8
RUNDUNGEN
  6
Continuous
 62
     7
100
AcDbLine
 10
247.5218883833
 20
269.1989704175
 30
0.0
 11
247.5218883833
 21
318.0331628802
 31
0.0
  0
LINE
  5
77
330
1F
100
AcDbEntity
  8
RUNDUNGEN
  6
Continuous
 62
     9
100
AcDbLine
 10
247.0218883833
 20
268.3329450137
 30
0.0
 11
247.0218883833
 21
318.899188284
 31
0.0
  0
LINE
  5
78
330
1F
100
AcDbEntity
  8
RUNDUNGEN
  6
Continuous
 62
     9
100
AcDbLine
 10
234.7539391909
 20
261.250041245
 30
0.0
 11
234.7539391909
 21
325.9820920526
 31
0.0
  0
LINE
  5
79
330
1F
100
AcDbEntity
  8
RUNDUNGEN
  6
Continuous
 62
     9
100
AcDbLine
 10
234.2539391909
 20
261.1160666488
 30
0.0
 11
234.2539391909
 21
326.1160666488
 31
0.0
  0
LINE
  5
7A
330
1F
100
AcDbEntity
  8
BEZUGSACHSEN
  6
HIDDEN
 62
     8
100
AcDbLine
 10
231.5218883833
 20
306.1160666488
 30
0.0
 11
231.5218883833
 21
326.1160666488
 31
0.0
  0
LWPOLYLINE
  5
7B
330
1F
100
AcDbEntity
  8
BEZUGSACHSEN
  6
DOT_CENTER
 62
     7
100
AcDbPolyline
 90
        2
 70
     0
 43
0.25
 10
223.5218883833
 20
329.1160666488
 10
223.5218883833
 20
300.2207530052
  0
LINE
  5
7C
330
1F
100
AcDbEntity
  8
0
  6
Continuous
 62
     7
100
AcDbLine
 10
234.7539391909
 20
325.9820920526
 30
0.0
 11
247.0218883833
 21
318.899188284
 31
0.0
  0
LINE
  5
7D
330
1F
100
AcDbEntity
  8
RUNDUNGEN
  6
Continuous
 62
     7
100
AcDbLine
 10
247.0218883833
 20
318.899188284
 30
0.0
 11
234.7539391909
 21
325.9820920526
 31
0.0
  0
LINE
  5
7E
330
1F
100
AcDbEntity
  8
0
  6
Continuous
 62
     7
100
AcDbLine
 10
234.7539391909
 20
261.250041245
 30
0.0
 11
247.0218883833
 21
268.3329450137
 31
0.0
  0
LINE
  5
7F
330
1F
100
AcDbEntity
  8
BEZUGSACHSEN
  6
HIDDEN
 62
     8
100
AcDbLine
 10
215.5218883833
 20
306.1160666488
 30
0.0
 11
215.5218883833
 21
326.1160666488
 31
0.0
  0
LINE
  5
80
330
1F
100
AcDbEntity
  8
BEZUGSACHSEN
  6
HIDDEN
 62
     8
100
AcDbLine
 10
206.5218883833
 20
306.1160666488
 30
0.0
 11
206.5218883833
 21
326.1160666488
 31
0.0
  0
LINE
  5
81
330
1F
100
AcDbEntity
  8
0
  6
Continuous
 62
     7
100
AcDbLine
 10
151.5218883833
 20
343.6035666488
 30
0.0
 11
163.1912201471
 21
343.6035666488
 31
0.0
  0
LINE
  5
82
330
1F
100
AcDbEntity
  8
0
  6
Continuous
 62
     7
100
AcDbLine
 10
184.5218883833
 20
343.6035666488
 30
0.0
 11
178.2525566195
 21
343.6035666488
 31
0.0
  0
LWPOLYLINE
  5
83
330
1F
100
AcDbEntity
  8
BEZUGSACHSEN
  6
DOT_CENTER
 62
     7
100
AcDbPolyline
 90
        2
 70
     0
 43
0.25
 10
198.5218883833
 20
329.1160666488
 10
198.5218883833
 20
300.2207530052
  0
LINE
  5
84
330
1F
100
AcDbEntity
  8
0
  6
Continuous
 62
     7
100
AcDbLine
 10
163.1912201471
 20
343.6035666488
 30
0.0
 11
167.1843883833
 21
336.6871963806
 31
0.0
  0
LINE
  5
85
330
1F
100
AcDbEntity
  8
0
  6
Continuous
 62
     7
100
AcDbLine
 10
167.4343883833
 20
335.9910666488
 30
0.0
 11
174.0093883833
 21
335.9910666488
 31
0.0
  0
LINE
  5
86
330
1F
100
AcDbEntity
  8
0
  6
Continuous
 62
     7
100
AcDbLine
 10
163.1912201471
 20
243.6285666488
 30
0.0
 11
167.1843883833
 21
250.544936917
 31
0.0
  0
LINE
  5
87
330
1F
100
AcDbEntity
  8
BEZUGSACHSEN
  6
HIDDEN
 62
     8
100
AcDbLine
 10
190.5218883833
 20
306.1160666488
 30
0.0
 11
190.5218883833
 21
326.1160666488
 31
0.0
  0
LINE
  5
88
330
1F
100
AcDbEntity
  8
RUNDUNGEN
  6
Continuous
 62
     9
100
AcDbLine
 10
186.5218883833
 20
326.1160666488
 30
0.0
 11
186.5218883833
 21
261.1160666488
 31
0.0
  0
LINE
  5
89
330
1F
100
AcDbEntity
  8
DEFAULT_2
  6
HIDDEN
 62
     8
100
AcDbLine
 10
186.4218883833
 20
306.1160666488
 30
0.0
 11
186.4218883833
 21
281.1160666488
 31
0.0
  0
LINE
  5
8A
330
1F
100
AcDbEntity
  8
0
  6
Continuous
 62
     7
100
AcDbLine
 10
185.5218883833
 20
342.6035666488
 30
0.0
 11
185.5218883833
 21
244.6285666488
 31
0.0
  0
LINE
  5
8B
330
1F
100
AcDbEntity
  8
0
  6
Continuous
 62
     7
100
AcDbLine
 10
147.8718883833
 20
328.1910666488
 30
0.0
 11
146.902697767
 21
328.4507604918
 31
0.0
  0
LINE
  5
8C
330
1F
100
AcDbEntity
  8
0
  6
Continuous
 62
     7
100
AcDbLine
 10
149.5218883833
 20
328.1910666488
 30
0.0
 11
147.8718883833
 21
328.1910666488
 31
0.0
  0
LINE
  5
8D
330
1F
100
AcDbEntity
  8
0
  6
Continuous
 62
     7
100
AcDbLine
 10
231.5218883833
 20
326.1160666488
 30
0.0
 11
234.2539391909
 21
326.1160666488
 31
0.0
  0
LINE
  5
8E
330
1F
100
AcDbEntity
  8
0
  6
Continuous
 62
     7
100
AcDbLine
 10
206.5218883833
 20
326.1160666488
 30
0.0
 11
215.5218883833
 21
326.1160666488
 31
0.0
  0
LINE
  5
8F
330
1F
100
AcDbEntity
  8
0
  6
Continuous
 62
     7
100
AcDbLine
 10
186.5218883833
 20
326.1160666488
 30
0.0
 11
190.5218883833
 21
326.1160666488
 31
0.0
  0
LINE
  5
90
330
1F
100
AcDbEntity
  8
BEZUGSACHSEN
  6
Continuous
 62
     7
100
AcDbLine
 10
190.5218883833
 20
326.1160666488
 30
0.0
 11
186.5218883833
 21
326.1160666488
 31
0.0
  0
LINE
  5
91
330
1F
100
AcDbEntity
  8
BEZUGSACHSEN
  6
Continuous
 62
     7
100
AcDbLine
 10
215.5218883833
 20
326.1160666488
 30
0.0
 11
206.5218883833
 21
326.1160666488
 31
0.0
  0
LINE
  5
92
330
1F
100
AcDbEntity
  8
BEZUGSACHSEN
  6
Continuous
 62
     7
100
AcDbLine
 10
234.2539391909
 20
326.1160666488
 30
0.0
 11
231.5218883833
 21
326.1160666488
 31
0.0
  0
LINE
  5
93
330
1F
100
AcDbEntity
  8
0
  6
Continuous
 62
     7
100
AcDbLine
 10
146.902697767
 20
328.4507604918
 30
0.0
 11
46.5775697141
 21
313.8187933201
 31
0.0
  0
LINE
  5
94
330
1F
100
AcDbEntity
  8
0
  6
Continuous
 62
     9
100
AcDbLine
 10
184.5218883833
 20
343.6035666488
 30
0.0
 11
184.5218883833
 21
243.6285666488
 31
0.0
  0
LINE
  5
95
330
1F
100
AcDbEntity
  8
0
  6
Continuous
 62
     7
100
AcDbLine
 10
178.2525566195
 20
283.1484263419
 30
0.0
 11
178.2525566195
 21
243.6285666488
 31
0.0
  0
LINE
  5
96
330
1F
100
AcDbEntity
  8
0
  6
Continuous
 62
     7
100
AcDbLine
 10
178.2525566195
 20
343.6035666488
 30
0.0
 11
178.2525566195
 21
304.0837168272
 31
0.0
  0
LINE
  5
97
330
1F
100
AcDbEntity
  8
0
  6
Continuous
 62
     7
100
AcDbLine
 10
174.2593883833
 20
305.3387969729
 30
0.0
 11
174.2593883833
 21
336.6871963806
 31
0.0
  0
LINE
  5
98
330
1F
100
AcDbEntity
  8
0
  6
Continuous
 62
     7
100
AcDbLine
 10
174.2593883833
 20
250.544936917
 30
0.0
 11
174.2593883833
 21
281.8933363248
 31
0.0
  0
LINE
  5
99
330
1F
100
AcDbEntity
  8
0
  6
Continuous
 62
     9
100
AcDbLine
 10
174.0093883833
 20
305.4505462001
 30
0.0
 11
174.0093883833
 21
335.9910666488
 31
0.0
  0
LINE
  5
9A
330
1F
100
AcDbEntity
  8
0
  6
Continuous
 62
     9
100
AcDbLine
 10
174.0093883833
 20
251.2410666488
 30
0.0
 11
174.0093883833
 21
281.7815870975
 31
0.0
  0
LINE
  5
9B
330
1F
100
AcDbEntity
  8
0
  6
Continuous
 62
     9
100
AcDbLine
 10
167.4343883833
 20
306.5185666488
 30
0.0
 11
167.4343883833
 21
335.9910666488
 31
0.0
  0
LINE
  5
9C
330
1F
100
AcDbEntity
  8
0
  6
Continuous
 62
     9
100
AcDbLine
 10
167.4343883833
 20
251.2410666488
 30
0.0
 11
167.4343883833
 21
280.7135666488
 31
0.0
  0
LINE
  5
9D
330
1F
100
AcDbEntity
  8
0
  6
Continuous
 62
     7
100
AcDbLine
 10
167.1843883833
 20
280.7135666488
 30
0.0
 11
167.1843883833
 21
250.5450853269
 31
0.0
  0
LINE
  5
9E
330
1F
100
AcDbEntity
  8
0
  6
Continuous
 62
     7
100
AcDbLine
 10
167.1843883833
 20
336.6870479708
 30
0.0
 11
167.1843883833
 21
306.5185666488
 31
0.0
  0
LINE
  5
9F
330
1F
100
AcDbEntity
  8
0
  6
Continuous
 62
     7
100
AcDbLine
 10
163.1912201471
 20
279.4297697619
 30
0.0
 11
163.1912201471
 21
243.6285666488
 31
0.0
  0
LINE
  5
A0
330
1F
100
AcDbEntity
  8
0
  6
Continuous
 62
     7
100
AcDbLine
 10
163.1912201471
 20
343.6035666488
 30
0.0
 11
163.1912201471
 21
307.8023635358
 31
0.0
  0
LINE
  5
A1
330
1F
100
AcDbEntity
  8
FASEN
  6
Continuous
 62
     7
100
AcDbLine
 10
150.5218883833
 20
307.5185666488
 30
0.0
 11
151.5218883833
 21
306.5185666488
 31
0.0
  0
LINE
  5
A2
330
1F
100
AcDbEntity
  8
0
  6
Continuous
 62
     7
100
AcDbLine
 10
151.5218883833
 20
307.8023635358
 30
0.0
 11
163.1912201471
 21
307.8023635358
 31
0.0
  0
LINE
  5
A3
330
1F
100
AcDbEntity
  8
0
  6
Continuous
 62
     7
100
AcDbLine
 10
151.5218883833
 20
306.5185666488
 30
0.0
 11
168.8693883833
 21
306.5185666488
 31
0.0
  0
LINE
  5
A4
330
1F
100
AcDbEntity
  8
DEFAULT_2
  6
HIDDEN
 62
     8
100
AcDbLine
 10
215.5218883833
 20
306.1160666488
 30
0.0
 11
247.5218883833
 21
306.1160666488
 31
0.0
  0
LINE
  5
A5
330
1F
100
AcDbEntity
  8
DEFAULT_2
  6
HIDDEN
 62
     8
100
AcDbLine
 10
190.5218883833
 20
306.1160666488
 30
0.0
 11
215.5218883833
 21
306.1160666488
 31
0.0
  0
LINE
  5
A6
330
1F
100
AcDbEntity
  8
DEFAULT_2
  6
HIDDEN
 62
     8
100
AcDbLine
 10
186.4218883833
 20
306.1160666488
 30
0.0
 11
190.5218883833
 21
306.1160666488
 31
0.0
  0
LINE
  5
A7
330
1F
100
AcDbEntity
  8
FASEN
  6
Continuous
 62
     7
100
AcDbLine
 10
150.5218883833
 20
279.7135666488
 30
0.0
 11
151.5218883833
 21
280.7135666488
 31
0.0
  0
LINE
  5
A8
330
1F
100
AcDbEntity
  8
0
  6
Continuous
 62
     7
100
AcDbLine
 10
174.2593883833
 20
250.544936917
 30
0.0
 11
178.2525566195
 21
243.6285666488
 31
0.0
  0
LINE
  5
A9
330
1F
100
AcDbEntity
  8
0
  6
Continuous
 62
     7
100
AcDbLine
 10
174.2593883833
 20
336.6871963806
 30
0.0
 11
178.2525566195
 21
343.6035666488
 31
0.0
  0
LINE
  5
AA
330
1F
100
AcDbEntity
  8
0
  6
Continuous
 62
     9
100
AcDbLine
 10
151.5218883833
 20
307.8023635358
 30
0.0
 11
151.5218883833
 21
343.6035666488
 31
0.0
  0
LINE
  5
AB
330
1F
100
AcDbEntity
  8
FASEN
  6
Continuous
 62
     9
100
AcDbLine
 10
151.5218883833
 20
279.4297697619
 30
0.0
 11
151.5218883833
 21
280.7135666488
 31
0.0
  0
LINE
  5
AC
330
1F
100
AcDbEntity
  8
0
  6
Continuous
 62
     9
100
AcDbLine
 10
151.5218883833
 20
243.6285666488
 30
0.0
 11
151.5218883833
 21
279.4297697619
 31
0.0
  0
LINE
  5
AD
330
1F
100
AcDbEntity
  8
FASEN
  6
Continuous
 62
     9
100
AcDbLine
 10
151.5218883833
 20
307.8023635358
 30
0.0
 11
151.5218883833
 21
306.5185666488
 31
0.0
  0
LINE
  5
AE
330
1F
100
AcDbEntity
  8
FASEN
  6
Continuous
 62
     7
100
AcDbLine
 10
150.5218883833
 20
298.767826057
 30
0.0
 11
150.5218883833
 21
342.6034392083
 31
0.0
  0
LINE
  5
AF
330
1F
100
AcDbEntity
  8
FASEN
  6
Continuous
 62
     7
100
AcDbLine
 10
150.5218883833
 20
244.6286940306
 30
0.0
 11
150.5218883833
 21
288.4643072406
 31
0.0
  0
LINE
  5
B0
330
1F
100
AcDbEntity
  8
0
  6
Continuous
 62
     7
100
AcDbLine
 10
150.5218883833
 20
279.7135666488
 30
0.0
 11
150.5218883833
 21
244.6289086611
 31
0.0
  0
LINE
  5
B1
330
1F
100
AcDbEntity
  8
0
  6
Continuous
 62
     7
100
AcDbLine
 10
150.5218883833
 20
342.5794800513
 30
0.0
 11
150.5218883833
 21
307.5185666488
 31
0.0
  0
LINE
  5
B2
330
1F
100
AcDbEntity
  8
0
  6
Continuous
 62
     9
100
AcDbLine
 10
149.5218883833
 20
328.1910666488
 30
0.0
 11
149.5218883833
 21
259.0410666488
 31
0.0
  0
LINE
  5
B3
330
1F
100
AcDbEntity
  8
0
  6
Continuous
 62
     7
100
AcDbLine
 10
147.8718883833
 20
328.1910666488
 30
0.0
 11
147.8718883833
 21
259.0410666488
 31
0.0
  0
LWPOLYLINE
  5
B4
330
1F
100
AcDbEntity
  8
TEIL_STARTBEZUEGE
  6
DOT_CENTER
 62
     7
100
AcDbPolyline
 90
        2
 70
     0
 43
0.25
 10
250.5218883833
 20
293.6160666488
 10
42.7218883833
 20
293.6160666488
  0
LWPOLYLINE
  5
B5
330
1F
100
AcDbEntity
  8
TEIL_STARTBEZUEGE
  6
DOT_CENTER
 62
     7
100
AcDbPolyline
 90
        2
 70
     0
 43
0.25
 10
147.5218883833
 20
240.6285666488
 10
147.5218883833
 20
346.6035666488
  0
LINE
  5
B6
330
1F
100
AcDbEntity
  8
0
  6
Continuous
 62
     7
100
AcDbLine
 10
146.902697767
 20
328.4507604918
 30
0.0
 11
146.902697767
 21
258.7813728059
 31
0.0
  0
LINE
  5
B7
330
1F
100
AcDbEntity
  8
DEFAULT_2
  6
HIDDEN
 62
     8
100
AcDbLine
 10
247.5218883833
 20
281.1160666488
 30
0.0
 11
186.4218883833
 21
281.1160666488
 31
0.0
  0
LINE
  5
B8
330
1F
100
AcDbEntity
  8
0
  6
Continuous
 62
     7
100
AcDbLine
 10
151.5218883833
 20
280.7135666488
 30
0.0
 11
168.8693883833
 21
280.7135666488
 31
0.0
  0
LINE
  5
B9
330
1F
100
AcDbEntity
  8
0
  6
Continuous
 62
     7
100
AcDbLine
 10
163.1912201471
 20
279.4297697619
 30
0.0
 11
151.5218883833
 21
279.4297697619
 31
0.0
  0
LINE
  5
BA
330
1F
100
AcDbEntity
  8
0
  6
Continuous
 62
     7
100
AcDbLine
 10
146.902697767
 20
258.7813728059
 30
0.0
 11
46.5775697141
 21
273.4133399775
 31
0.0
  0
LINE
  5
BB
330
1F
100
AcDbEntity
  8
0
  6
Continuous
 62
     7
100
AcDbLine
 10
186.5218883833
 20
261.1160666488
 30
0.0
 11
234.2539391909
 21
261.1160666488
 31
0.0
  0
LINE
  5
BC
330
1F
100
AcDbEntity
  8
0
  6
Continuous
 62
     7
100
AcDbLine
 10
149.5218883833
 20
259.0410666488
 30
0.0
 11
147.8718883833
 21
259.0410666488
 31
0.0
  0
LINE
  5
BD
330
1F
100
AcDbEntity
  8
0
  6
Continuous
 62
     7
100
AcDbLine
 10
147.8718883833
 20
259.0410666488
 30
0.0
 11
146.902697767
 21
258.7813728059
 31
0.0
  0
LINE
  5
BE
330
1F
100
AcDbEntity
  8
0
  6
Continuous
 62
     7
100
AcDbLine
 10
167.4343883833
 20
251.2410666488
 30
0.0
 11
174.0093883833
 21
251.2410666488
 31
0.0
  0
LINE
  5
BF
330
1F
100
AcDbEntity
  8
0
  6
Continuous
 62
     7
100
AcDbLine
 10
151.5218883833
 20
243.6285666488
 30
0.0
 11
163.1912201471
 21
243.6285666488
 31
0.0
  0
LINE
  5
C0
330
1F
100
AcDbEntity
  8
0
  6
Continuous
 62
     7
100
AcDbLine
 10
184.5218883833
 20
243.6285666488
 30
0.0
 11
178.2525566195
 21
243.6285666488
 31
0.0
  0
LINE
  5
C1
330
1F
100
AcDbEntity
  8
0
  6
Continuous
 62
     9
100
AcDbLine
 10
46.5775697141
 20
313.8187933201
 30
0.0
 11
46.5775697141
 21
273.4133399775
 31
0.0
  0
LINE
  5
C2
330
1F
100
AcDbEntity
  8
0
  6
Continuous
 62
     7
100
AcDbLine
 10
45.7218883833
 20
312.8292620565
 30
0.0
 11
45.7218883833
 21
274.4028712412
 31
0.0
  0
ARC
  5
C3
330
1F
100
AcDbEntity
  8
0
  6
Continuous
 62
     7
100
AcDbCircle
 10
167.4343883833
 20
336.2410666488
 30
0.0
 40
0.25
100
AcDbArc
 50
180.0
 51
270.0
  0
ARC
  5
C4
330
1F
100
AcDbEntity
  8
0
  6
Continuous
 62
     7
100
AcDbCircle
 10
174.0093883833
 20
336.2410666488
 30
0.0
 40
0.25
100
AcDbArc
 50
270.0
 51
0.0
  0
ARC
  5
C5
330
1F
100
AcDbEntity
  8
0
  6
Continuous
 62
     7
100
AcDbCircle
 10
184.5218883833
 20
342.6035666488
 30
0.0
 40
1.0
100
AcDbArc
 50
0.0
 51
90.0
  0
ARC
  5
C6
330
1F
100
AcDbEntity
  8
0
  6
Continuous
 62
     7
100
AcDbCircle
 10
151.5218883833
 20
342.6035666488
 30
0.0
 40
1.0
100
AcDbArc
 50
90.0
 51
180.0
  0
ARC
  5
C7
330
1F
100
AcDbEntity
  8
0
  6
Continuous
 62
     7
100
AcDbCircle
 10
149.5218883833
 20
329.1910666488
 30
0.0
 40
1.0
100
AcDbArc
 50
270.0
 51
0.0
  0
ARC
  5
C8
330
1F
100
AcDbEntity
  8
RUNDUNGEN
  6
Continuous
 62
     7
100
AcDbCircle
 10
186.5218883833
 20
327.1160666488
 30
0.0
 40
1.0
100
AcDbArc
 50
180.0
 51
270.0
  0
ARC
  5
C9
330
1F
100
AcDbEntity
  8
RUNDUNGEN
  6
Continuous
 62
     7
100
AcDbCircle
 10
234.2539391909
 20
325.1160666488
 30
0.0
 40
1.000000000013521
100
AcDbArc
 50
60.00000000044728
 51
90.0
  0
ARC
  5
CA
330
1F
100
AcDbEntity
  8
RUNDUNGEN
  6
Continuous
 62
     7
100
AcDbCircle
 10
246.5218883833
 20
318.0331628802
 30
0.0
 40
1.0
100
AcDbArc
 50
0.0
 51
60.00000000044565
  0
ARC
  5
CB
330
1F
100
AcDbEntity
  8
0
  6
Continuous
 62
     7
100
AcDbCircle
 10
168.8693883833
 20
293.6160666488
 30
0.0
 40
12.90249999999997
100
AcDbArc
 50
270.0
 51
90.0
  0
ARC
  5
CC
330
1F
100
AcDbEntity
  8
0
  6
Continuous
 62
     7
100
AcDbCircle
 10
305.2727836287
 20
371.8081138385
 30
0.0
 40
154.9021570426999
100
AcDbArc
 50
214.4839903094999
 51
214.9149101174766
  0
ARC
  5
CD
330
1F
100
AcDbEntity
  8
0
  6
Continuous
 62
     7
100
AcDbCircle
 10
167.4343883833
 20
250.9910666488
 30
0.0
 40
0.25
100
AcDbArc
 50
90.0
 51
180.0
  0
ARC
  5
CE
330
1F
100
AcDbEntity
  8
0
  6
Continuous
 62
     7
100
AcDbCircle
 10
174.0093883833
 20
250.9910666488
 30
0.0
 40
0.25
100
AcDbArc
 50
0.0
 51
90.0
  0
ARC
  5
CF
330
1F
100
AcDbEntity
  8
RUNDUNGEN
  6
Continuous
 62
     7
100
AcDbCircle
 10
246.5218883833
 20
269.1989704175
 30
0.0
 40
1.000000000013472
100
AcDbArc
 50
299.9999999995543
 51
0.0
  0
ARC
  5
D0
330
1F
100
AcDbEntity
  8
0
  6
Continuous
 62
     7
100
AcDbCircle
 10
151.5218883833
 20
244.6285666488
 30
0.0
 40
1.0
100
AcDbArc
 50
180.0
 51
270.0
  0
ARC
  5
D1
330
1F
100
AcDbEntity
  8
0
  6
Continuous
 62
     7
100
AcDbCircle
 10
149.5218883833
 20
258.0410666488
 30
0.0
 40
1.0
100
AcDbArc
 50
0.0
 51
90.0
  0
ARC
  5
D2
330
1F
100
AcDbEntity
  8
0
  6
Continuous
 62
     7
100
AcDbCircle
 10
184.5218883833
 20
244.6285666488
 30
0.0
 40
1.0
100
AcDbArc
 50
270.0
 51
0.0
  0
ARC
  5
D3
330
1F
100
AcDbEntity
  8
RUNDUNGEN
  6
Continuous
 62
     7
100
AcDbCircle
 10
186.5218883833
 20
260.1160666488
 30
0.0
 40
1.0
100
AcDbArc
 50
90.0
 51
180.0
  0
ARC
  5
D4
330
1F
100
AcDbEntity
  8
RUNDUNGEN
  6
Continuous
 62
     7
100
AcDbCircle
 10
234.2539391909
 20
262.1160666488
 30
0.0
 40
1.0
100
AcDbArc
 50
270.0
 51
299.9999999995543
  0
ARC
  5
D5
330
1F
100
AcDbEntity
  8
0
  6
Continuous
 62
     7
100
AcDbCircle
 10
305.2759639267
 20
215.4218214902
 30
0.0
 40
154.9060285743585
100
AcDbArc
 50
145.0850935211346
 51
145.5160052751999
  0
ARC
  5
D6
330
1F
100
AcDbEntity
  8
0
  6
Continuous
 62
     7
100
AcDbCircle
 10
46.7218883833
 20
312.8292620565
 30
0.0
 40
0.9999999999607213
100
AcDbArc
 50
98.29782683024173
 51
180.0
  0
ARC
  5
D7
330
1F
100
AcDbEntity
  8
0
  6
Continuous
 62
     7
100
AcDbCircle
 10
-34.7328312029
 20
393.7138864957
 30
0.0
 40
228.5493151169399
100
AcDbArc
 50
329.9972617610505
 51
330.36820922
  0
ARC
  5
D8
330
1F
100
AcDbEntity
  8
0
  6
Continuous
 62
     7
100
AcDbCircle
 10
46.7218883833
 20
274.4028712412
 30
0.0
 40
1.0
100
AcDbArc
 50
180.0
 51
261.702173170585
  0
ARC
  5
D9
330
1F
100
AcDbEntity
  8
0
  6
Continuous
 62
     7
100
AcDbCircle
 10
-34.7328311949
 20
193.5182468065
 30
0.0
 40
228.5493151077001
100
AcDbArc
 50
29.63179078000007
 51
30.00273823897545
  0
SPLINE
  5
DA
330
1F
100
AcDbEntity
  8
FASEN
  6
Continuous
 62
     7
100
AcDbSpline
210
0.0
220
0.0
230
1.0
 70
     8
 71
     3
 72
    25
 73
    21
 74
    19
 42
0.0000000001
 43
0.0000000001
 44
0.00000001
 40
0.0
 40
0.0
 40
0.0
 40
0.0
 40
0.0975566094252163
 40
0.1951222766852566
 40
0.2893247602090073
 40
0.3835227315278341
 40
0.4709468131172273
 40
0.5583764926225605
 40
0.6362056178835576
 40
0.7140176369221879
 40
0.779822696940769
 40
0.8456700524168985
 40
0.8980832926091359
 40
0.9504116608841058
 40
0.9715430470621628
 40
0.9926350698016841
 40
1.010621976020301
 40
1.028726681030991
 40
1.05861054833105
 40
1.088017426419308
 40
1.088017426419308
 40
1.088017426419308
 40
1.088017426419308
 10
151.5218883833
 20
279.4297697619
 30
0.0
 10
151.4893682454961
 20
279.4300131093002
 30
0.0
 10
151.4243249504923
 20
279.4304998266947
 30
0.0
 10
151.3279548035338
 20
279.434695996359
 30
0.0
 10
151.2328557362542
 20
279.4413628392284
 30
0.0
 10
151.1413654483705
 20
279.4506243310326
 30
0.0
 10
151.0524505306247
 20
279.4624593720009
 30
0.0
 10
150.9693806741086
 20
279.4764949443741
 30
0.0
 10
150.8900306480455
 20
279.492978550524
 30
0.0
 10
150.8184717078977
 20
279.5112128410639
 30
0.0
 10
150.7517279464404
 20
279.5318217605
 30
0.0
 10
150.6942882838707
 20
279.5535303848839
 30
0.0
 10
150.6425746805592
 20
279.5772944515793
 30
0.0
 10
150.6063096387514
 20
279.5986311263049
 30
0.0
 10
150.5808425834154
 20
279.6172363405894
 30
0.0
 10
150.5655329331858
 20
279.6302381479749
 30
0.0
 10
150.5520319051595
 20
279.6437576255768
 30
0.0
 10
150.5384134997556
 20
279.6610061817974
 30
0.0
 10
150.5254418315182
 20
279.6839550233291
 30
0.0
 10
150.5230664962465
 20
279.7037491877892
 30
0.0
 10
150.5218883833
 20
279.7135666488
 30
0.0
 11
151.5218883833
 21
279.4297697619
 31
0.0
 11
151.4243406475873
 21
279.4310855505844
 31
0.0
 11
151.3268610200843
 21
279.435182091781
 31
0.0
 11
151.2328945643203
 21
279.44184640669
 31
0.0
 11
151.1391782803886
 21
279.4513603925324
 31
0.0
 11
151.0525277271395
 21
279.4629643428671
 31
0.0
 11
150.9663310134851
 21
279.4775956590617
 31
0.0
 11
150.8901536709567
 21
279.4935451174917
 31
0.0
 11
150.8147816013045
 21
279.5128780278573
 31
0.0
 11
150.7519578308105
 21
279.532460667745
 31
0.0
 11
150.690422819388
 21
279.5558981717169
 31
0.0
 11
150.642943398213
 21
279.57809844902
 31
0.0
 11
150.5980209396384
 21
279.6049355658907
 31
0.0
 11
150.5809914128245
 21
279.6174467887847
 31
0.0
 11
150.5649502438822
 21
279.6311418361453
 31
0.0
 11
150.5523258018468
 21
279.6439540279411
 31
0.0
 11
150.5411100217537
 21
279.6581662276451
 31
0.0
 11
150.5272829118449
 21
279.6846588031405
 31
0.0
 11
150.5218883833
 21
279.7135666488
 31
0.0
  0
SPLINE
  5
DB
330
1F
100
AcDbEntity
  8
0
  6
Continuous
 62
     7
100
AcDbSpline
210
0.0
220
0.0
230
1.0
 70
     8
 71
     3
 72
    19
 73
    15
 74
    13
 42
0.0000000001
 43
0.0000000001
 44
0.00000001
 40
0.0
 40
0.0
 40
0.0
 40
0.0
 40
1.288046120788805
 40
2.576183163162817
 40
3.220235598739606
 40
3.864273042028807
 40
4.508318825140059
 40
5.152368395282811
 40
5.796417964890248
 40
6.440463747474377
 40
7.084501190792829
 40
7.7285536264031
 40
9.016690669299132
 40
10.3047367904748
 40
10.3047367904748
 40
10.3047367904748
 40
10.3047367904748
 10
150.5218883833
 20
288.4643072406
 30
0.0
 10
150.5187564185477
 20
288.8936532429352
 30
0.0
 10
150.5124922679617
 20
289.7523755546096
 30
0.0
 10
150.4856625504009
 20
290.825483240387
 30
0.0
 10
150.4682293975251
 20
291.6840464972616
 30
0.0
 10
150.4574778623207
 20
292.3280051691202
 30
0.0
 10
150.4506122178432
 20
292.972017203105
 30
0.0
 10
150.4481266216594
 20
293.6160666486344
 30
0.0
 10
150.4506122215445
 20
294.260116093972
 30
0.0
 10
150.4574778679957
 20
294.9041281275848
 30
0.0
 10
150.4682294017321
 20
295.5480867993083
 30
0.0
 10
150.4856625511828
 20
296.40665005645
 30
0.0
 10
150.5124922676428
 20
297.4797577425645
 30
0.0
 10
150.5187564184415
 20
298.3384800545379
 30
0.0
 10
150.5218883833
 20
298.767826057
 30
0.0
 11
150.5218883833
 21
288.4643072406
 31
0.0
 11
150.5086928624656
 21
289.7522857681807
 31
0.0
 11
150.481639977499
 21
291.0401387028558
 31
0.0
 11
150.4686164875502
 21
291.6840594499062
 31
0.0
 11
150.4581255434718
 21
292.3280114422556
 31
0.0
 11
150.4513422415229
 21
292.9720215023929
 31
0.0
 11
150.4489551559615
 21
293.6160666488101
 31
0.0
 11
150.4513422449362
 21
294.2601117946794
 31
0.0
 11
150.4581255485703
 21
294.9041218542718
 31
0.0
 11
150.4686164915728
 21
295.548073846668
 31
0.0
 11
150.4816399793466
 21
296.1919945937959
 31
0.0
 11
150.5086928624204
 21
297.4798475290328
 31
0.0
 11
150.5218883833
 21
298.767826057
 31
0.0
  0
SPLINE
  5
DC
330
1F
100
AcDbEntity
  8
FASEN
  6
Continuous
 62
     7
100
AcDbSpline
210
0.0
220
0.0
230
1.0
 70
     8
 71
     3
 72
    25
 73
    21
 74
    19
 42
0.0000000001
 43
0.0000000001
 44
0.00000001
 40
0.0
 40
0.0
 40
0.0
 40
0.0
 40
0.0294068781742613
 40
0.0592907454854066
 40
0.0773954504961228
 40
0.0953823567146994
 40
0.1164743794538886
 40
0.137605765629657
 40
0.1899341338895598
 40
0.2423473740699049
 40
0.3081947295486445
 40
0.3739997895731359
 40
0.4518118086088138
 40
0.5296409338658502
 40
0.6170706133734754
 40
0.7044946949652774
 40
0.7986926662827377
 40
0.8928951498057445
 40
0.9904608170671141
 40
1.088017426492686
 40
1.088017426492686
 40
1.088017426492686
 40
1.088017426492686
 10
150.5218883833
 20
307.5185666488
 30
0.0
 10
150.5230664962432
 20
307.5283841098405
 30
0.0
 10
150.525441831505
 20
307.5481782743354
 30
0.0
 10
150.5384134997527
 20
307.5711271159003
 30
0.0
 10
150.5520319051596
 20
307.5883756721232
 30
0.0
 10
150.5655329331857
 20
307.6018951497249
 30
0.0
 10
150.5808425834146
 20
307.61489695711
 30
0.0
 10
150.6063096387483
 20
307.6335021713879
 30
0.0
 10
150.6425746805608
 20
307.6548388460878
 30
0.0
 10
150.6942882838788
 20
307.6786029127476
 30
0.0
 10
150.7517279464417
 20
307.7003115371436
 30
0.0
 10
150.8184717078924
 20
307.720920456609
 30
0.0
 10
150.8900306480453
 20
307.7391547471308
 30
0.0
 10
150.9693806741122
 20
307.7556383532522
 30
0.0
 10
151.0524505306246
 20
307.769673925646
 30
0.0
 10
151.1413654483682
 20
307.7815089666415
 30
0.0
 10
151.2328557362547
 20
307.7907704584239
 30
0.0
 10
151.3279548035351
 20
307.7974373012716
 30
0.0
 10
151.4243249504915
 20
307.8016334709832
 30
0.0
 10
151.4893682454959
 20
307.8021201883925
 30
0.0
 10
151.5218883833
 20
307.8023635358
 30
0.0
 11
150.5218883833
 21
307.5185666488
 31
0.0
 11
150.5272829118449
 21
307.547474494547
 31
0.0
 11
150.5411100217537
 21
307.5739670700549
 31
0.0
 11
150.5523258018468
 21
307.5881792697589
 31
0.0
 11
150.5649502438822
 21
307.6009914615547
 31
0.0
 11
150.5809914128245
 21
307.6146865089148
 31
0.0
 11
150.5980209396384
 21
307.6271977318049
 31
0.0
 11
150.642943398213
 21
307.6540348486462
 31
0.0
 11
150.690422819388
 21
307.6762351259213
 31
0.0
 11
150.7519578308105
 21
307.6996726299005
 31
0.0
 11
150.8147816013044
 21
307.7192552698081
 31
0.0
 11
150.8901536709567
 21
307.7385881801617
 31
0.0
 11
150.9663310134851
 21
307.7545376385724
 31
0.0
 11
151.0525277271395
 21
307.7691689547805
 31
0.0
 11
151.1391782803886
 21
307.7807729051336
 31
0.0
 11
151.2328945643203
 21
307.7902868909624
 31
0.0
 11
151.3268610200843
 21
307.796951205861
 31
0.0
 11
151.4243406475873
 21
307.8010477470892
 31
0.0
 11
151.5218883833
 21
307.8023635358
 31
0.0
  0
SPLINE
  5
DD
330
1F
100
AcDbEntity
  8
0
  6
Continuous
 62
     7
100
AcDbSpline
210
0.0
220
0.0
230
1.0
 70
     8
 71
     3
 72
    31
 73
    27
 74
    25
 42
0.0000000001
 43
0.0000000001
 44
0.00000001
 40
0.0
 40
0.0
 40
0.0
 40
0.0
 40
0.7376437759589382
 40
1.47549832687882
 40
2.213122477512278
 40
2.950705019387486
 40
3.686177655941087
 40
4.421611652195473
 40
5.154930002567794
 40
5.888438802490989
 40
7.349257460187303
 40
8.810872241638629
 40
10.26734972641306
 40
11.7235790084578
 40
13.17967656777962
 40
14.63602209586182
 40
16.09756845536157
 40
17.5583189809902
 40
18.29183757333146
 40
19.02516554602962
 40
19.76065888273278
 40
20.49619142770992
 40
21.23383484430415
 40
21.97151871254231
 40
22.70940763850731
 40
23.44708703438658
 40
23.44708703438658
 40
23.44708703438658
 40
23.44708703438658
 10
178.2525482583
 20
304.0837052963
 30
0.0
 10
178.4297850910147
 20
303.9131988764471
 30
0.0
 10
178.7843094002474
 20
303.5721373160916
 30
0.0
 10
179.2811101578288
 20
303.0260956327315
 30
0.0
 10
179.7505455038996
 20
302.4567125777788
 30
0.0
 10
180.1886294892597
 20
301.8637307811718
 30
0.0
 10
180.5950848231055
 20
301.2495644278557
 30
0.0
 10
180.968551315489
 20
300.6164404453458
 30
0.0
 10
181.3086541845288
 20
299.9655116994636
 30
0.0
 10
181.7157371739897
 20
299.0781998946167
 30
0.0
 10
182.1383294591939
 20
297.9327356505748
 30
0.0
 10
182.5033231102723
 20
296.5169485890248
 30
0.0
 10
182.7229155956052
 20
295.0729511837782
 30
0.0
 10
182.7963674931633
 20
293.6160784335895
 30
0.0
 10
182.7229177458477
 20
292.1592502079714
 30
0.0
 10
182.503355387808
 20
290.7153608767862
 30
0.0
 10
182.138408387904
 20
289.2996546154993
 30
0.0
 10
181.7158552024049
 20
288.1542212437284
 30
0.0
 10
181.3087984547992
 20
287.2669152375291
 30
0.0
 10
180.9686967503248
 20
286.6159562284142
 30
0.0
 10
180.5952193112853
 20
285.982788758846
 30
0.0
 10
180.1887420366913
 20
285.3685649773676
 30
0.0
 10
179.750637000916
 20
284.7755239608818
 30
0.0
 10
179.2811747083366
 20
284.2060953975861
 30
0.0
 10
178.7843276860606
 20
283.6600375383982
 30
0.0
 10
178.4297905777798
 20
283.318955926584
 30
0.0
 10
178.2525471957
 20
283.1484393374
 30
0.0
 11
178.2525482583
 21
304.0837052963
 31
0.0
 11
178.7784341469836
 21
303.5664409806021
 31
0.0
 11
179.2766015201336
 21
303.0221445479094
 31
0.0
 11
179.7454080665965
 21
302.4526624941173
 31
0.0
 11
180.1838310111081
 21
301.8595239539727
 31
0.0
 11
180.5897191119133
 21
301.2461930084434
 31
0.0
 11
180.9633865805613
 21
300.6127612554338
 31
0.0
 11
181.3029842368888
 21
299.9628156924751
 31
0.0
 11
181.6088546703878
 21
299.2961235315223
 31
0.0
 11
182.1146969745181
 21
297.9256802769416
 31
0.0
 11
182.4794807501944
 21
296.510317932395
 31
0.0
 11
182.698611884752
 21
295.0704192520976
 31
0.0
 11
182.7718852759736
 21
293.6160345945797
 31
0.0
 11
182.6986184789487
 21
292.1617814946288
 31
0.0
 11
182.4795207061048
 21
290.7220112132645
 31
0.0
 11
182.1147778735459
 21
289.3067089744957
 31
0.0
 11
181.6089880542749
 21
287.9363189727641
 31
0.0
 11
181.303128189269
 21
287.269611189482
 31
0.0
 11
180.963539387082
 21
286.6196501437487
 31
0.0
 11
180.589853314674
 21
285.9861604693079
 31
0.0
 11
180.1839438870415
 21
285.3727717986597
 31
0.0
 11
179.7454974373089
 21
284.7795749335621
 31
0.0
 11
179.2766564026252
 21
284.2100439215394
 31
0.0
 11
178.7784563078418
 21
283.6657308382688
 31
0.0
 11
178.2525471957
 21
283.1484393374
 31
0.0
  0
SPLINE
  5
DE
330
1F
100
AcDbEntity
  8
BEZUGSACHSEN
  6
Continuous
 62
     7
100
AcDbSpline
210
0.0
220
0.0
230
1.0
 70
     8
 71
     3
 72
    23
 73
    19
 74
    17
 42
0.0000000001
 43
0.0000000001
 44
0.00000001
 40
0.0
 40
0.0
 40
0.0
 40
0.0
 40
0.3144936354644073
 40
0.6289974738231913
 40
1.512309452626555
 40
2.395672937042024
 40
3.702013872910143
 40
5.008435225832531
 40
6.544958993315498
 40
8.081519509787467
 40
9.618082977996208
 40
11.15460970367154
 40
12.46104274885456
 40
13.76739537496497
 40
14.65077504391561
 40
15.5341032036596
 40
15.84861238579206
 40
16.16311136458226
 40
16.16311136458226
 40
16.16311136458226
 40
16.16311136458226
 10
231.5218883833
 20
326.1160666488
 30
0.0
 10
231.4200352258048
 20
326.0912539987085
 30
0.0
 10
231.2163256064644
 20
326.0416278935461
 30
0.0
 10
230.7253019948366
 20
325.9275128128989
 30
0.0
 10
230.0471334116754
 20
325.781063222279
 30
0.0
 10
229.0406851999086
 20
325.5899325074681
 30
0.0
 10
227.8891661783832
 20
325.4087837340813
 30
0.0
 10
226.5151589359787
 20
325.2474554929032
 30
0.0
 10
225.0586173360341
 20
325.1412118266375
 30
0.0
 10
223.5219236151747
 20
325.1035119661116
 30
0.0
 10
221.9852288326288
 20
325.1412088380721
 30
0.0
 10
220.528681170138
 20
325.2474500201009
 30
0.0
 10
219.1546648761077
 20
325.4087765154192
 30
0.0
 10
218.003132504061
 20
325.5899253509405
 30
0.0
 10
216.9966696213585
 20
325.7810575577214
 30
0.0
 10
216.3184886646376
 20
325.9275094265311
 30
0.0
 10
215.8274563256863
 20
326.0416265209113
 30
0.0
 10
215.6237432625972
 20
326.0912535411757
 30
0.0
 10
215.5218883833
 20
326.1160666488
 30
0.0
 11
231.5218883833
 21
326.1160666488
 31
0.0
 11
231.2161998692586
 21
326.0421695640754
 31
0.0
 11
230.9098883649285
 21
325.9708538809655
 31
0.0
 11
230.046419865587
 21
325.7846760021978
 31
0.0
 11
229.1785528703113
 21
325.6199400798562
 31
0.0
 11
227.8880346108423
 21
325.4172352138515
 31
0.0
 11
226.5904923219779
 21
325.2651800923327
 31
0.0
 11
225.0580277150499
 21
325.1535668469135
 31
0.0
 11
223.5219245865911
 21
325.1160781883644
 31
0.0
 11
221.985818432951
 21
325.1535638734
 31
0.0
 11
220.4533506500728
 21
325.2651742365171
 31
0.0
 11
219.1557964456721
 21
325.4172281354746
 31
0.0
 11
217.8652662924579
 21
325.619932618381
 31
0.0
 11
216.9973831962692
 21
325.784670503718
 31
0.0
 11
216.1338987792493
 21
325.970851328081
 31
0.0
 11
215.827582069677
 21
326.0421682200663
 31
0.0
 11
215.5218883833
 21
326.1160666488
 31
0.0
  0
SPLINE
  5
DF
330
1F
100
AcDbEntity
  8
BEZUGSACHSEN
  6
Continuous
 62
     7
100
AcDbSpline
210
0.0
220
0.0
230
1.0
 70
     8
 71
     3
 72
    23
 73
    19
 74
    17
 42
0.0000000001
 43
0.0000000001
 44
0.00000001
 40
0.0
 40
0.0
 40
0.0
 40
0.0
 40
0.3144936354644073
 40
0.6289974738231913
 40
1.512309452626583
 40
2.395672937041996
 40
3.702013872910144
 40
5.008435225832503
 40
6.544958993315499
 40
8.08151950978747
 40
9.61808297799621
 40
11.15460970367155
 40
12.46104274885456
 40
13.76739537496494
 40
14.65077504391561
 40
15.5341032036596
 40
15.84861238579208
 40
16.16311136458226
 40
16.16311136458226
 40
16.16311136458226
 40
16.16311136458226
 10
206.5218883833
 20
326.1160666488
 30
0.0
 10
206.4200352258047
 20
326.0912539987085
 30
0.0
 10
206.2163256064644
 20
326.0416278935461
 30
0.0
 10
205.7253019948364
 20
325.9275128128987
 30
0.0
 10
205.0471334116756
 20
325.7810632222793
 30
0.0
 10
204.0406851999085
 20
325.5899325074679
 30
0.0
 10
202.8891661783834
 20
325.4087837340813
 30
0.0
 10
201.5151589359787
 20
325.2474554929033
 30
0.0
 10
200.0586173360342
 20
325.1412118266375
 30
0.0
 10
198.5219236151747
 20
325.1035119661115
 30
0.0
 10
196.9852288326288
 20
325.1412088380721
 30
0.0
 10
195.528681170138
 20
325.2474500201009
 30
0.0
 10
194.1546648761076
 20
325.4087765154192
 30
0.0
 10
193.003132504061
 20
325.5899253509405
 30
0.0
 10
191.9966696213586
 20
325.7810575577214
 30
0.0
 10
191.3184886646376
 20
325.9275094265312
 30
0.0
 10
190.8274563256863
 20
326.0416265209113
 30
0.0
 10
190.6237432625972
 20
326.0912535411757
 30
0.0
 10
190.5218883833
 20
326.1160666488
 30
0.0
 11
206.5218883833
 21
326.1160666488
 31
0.0
 11
206.2161998692586
 21
326.0421695640754
 31
0.0
 11
205.9098883649285
 21
325.9708538809655
 31
0.0
 11
205.046419865587
 21
325.7846760021978
 31
0.0
 11
204.1785528703113
 21
325.6199400798562
 31
0.0
 11
202.8880346108423
 21
325.4172352138515
 31
0.0
 11
201.5904923219779
 21
325.2651800923327
 31
0.0
 11
200.0580277150499
 21
325.1535668469135
 31
0.0
 11
198.5219245865911
 21
325.1160781883644
 31
0.0
 11
196.985818432951
 21
325.1535638734
 31
0.0
 11
195.4533506500728
 21
325.2651742365171
 31
0.0
 11
194.1557964456721
 21
325.4172281354746
 31
0.0
 11
192.8652662924579
 21
325.619932618381
 31
0.0
 11
191.9973831962692
 21
325.784670503718
 31
0.0
 11
191.1338987792493
 21
325.970851328081
 31
0.0
 11
190.827582069677
 21
326.0421682200663
 31
0.0
 11
190.5218883833
 21
326.1160666488
 31
0.0
  0
SPLINE
  5
E0
330
1F
100
AcDbEntity
  8
0
  6
Continuous
 62
     2
100
AcDbSpline
210
0.0
220
0.0
230
1.0
 70
     8
 71
     3
 72
    49
 73
    45
 74
    43
 42
0.0000000001
 43
0.0000000001
 44
0.00000001
 40
0.0
 40
0.0
 40
0.0
 40
0.0
 40
0.0253614744784223
 40
0.1016714451234747
 40
0.2290579775785934
 40
0.4068076800786437
 40
0.6340555739935246
 40
0.91016441948921
 40
1.234202322738393
 40
1.603804479737658
 40
2.016447029332389
 40
2.470354179317694
 40
2.963233895830637
 40
3.4898965823263
 40
4.045156259896262
 40
4.6266408347065
 40
5.231869613835074
 40
5.854997638617023
 40
6.490450380174281
 40
7.137007546020706
 40
7.793589400591586
 40
8.455249870727053
 40
9.117206853530629
 40
9.77916675278122
 40
10.44083422574829
 40
11.09741835731011
 40
11.7439676623035
 40
12.37941780095727
 40
13.00256073546742
 40
13.6078006998319
 40
14.18927456589572
 40
14.74452931465192
 40
15.27121745151973
 40
15.76411940526039
 40
16.21801396001462
 40
16.6306435527839
 40
17.00026814901669
 40
17.3243387447807
 40
17.60046062224326
 40
17.82771373673903
 40
18.0054770497988
 40
18.13287746779795
 40
18.20919131767839
 40
18.2345520252746
 40
18.2345520252746
 40
18.2345520252746
 40
18.2345520252746
 10
214.5218883833
 20
326.1161080548
 30
0.0
 10
214.5300335973866
 20
326.1138447238569
 30
0.0
 10
214.5626868915686
 20
326.1047712716027
 30
0.0
 10
214.6363075546897
 20
326.0845291584549
 30
0.0
 10
214.7589784292397
 20
326.0510821034513
 30
0.0
 10
214.9303931935305
 20
326.005150006363
 30
0.0
 10
215.1499778129852
 20
325.9474588137662
 30
0.0
 10
215.417199088731
 20
325.8792031181724
 30
0.0
 10
215.7310126629552
 20
325.8016537353799
 30
0.0
 10
216.0898221124698
 20
325.7165369705131
 30
0.0
 10
216.4917364401414
 20
325.625664321372
 30
0.0
 10
216.934915789511
 20
325.5311018747101
 30
0.0
 10
217.4165958540025
 20
325.4350395053843
 30
0.0
 10
217.9328390438215
 20
325.3398044038705
 30
0.0
 10
218.4796545361809
 20
325.2478464256408
 30
0.0
 10
219.0538519302503
 20
325.1612703490679
 30
0.0
 10
219.6519461028336
 20
325.0820803426471
 30
0.0
 10
220.2692793994203
 20
325.0119203502398
 30
0.0
 10
220.9015899792312
 20
324.9525872938393
 30
0.0
 10
221.5460962413592
 20
324.9052434847738
 30
0.0
 10
222.2001705110277
 20
324.8708123178935
 30
0.0
 10
222.8599483953564
 20
324.8497285001611
 30
0.0
 10
223.5218201892982
 20
324.8426559092831
 30
0.0
 10
224.1836943524857
 20
324.8497255595132
 30
0.0
 10
224.8434763800916
 20
324.8708070508889
 30
0.0
 10
225.497551266945
 20
324.9052354016011
 30
0.0
 10
226.1420550431828
 20
324.9525758227392
 30
0.0
 10
226.7743673150197
 20
325.0119067817488
 30
0.0
 10
227.391708589173
 20
325.0820659077752
 30
0.0
 10
227.9898081995419
 20
325.1612538752829
 30
0.0
 10
228.5640045535419
 20
325.2478269262377
 30
0.0
 10
229.1108234912523
 20
325.3397841821711
 30
0.0
 10
229.6270808542538
 20
325.4350210030676
 30
0.0
 10
230.10877278329
 20
325.5310836712982
 30
0.0
 10
230.551951432017
 20
325.6256441271148
 30
0.0
 10
230.9538648374036
 20
325.7165161629485
 30
0.0
 10
231.312688064797
 20
325.8016357449187
 30
0.0
 10
231.6265239521081
 20
325.8791895442266
 30
0.0
 10
231.8937618195292
 20
325.9474489089471
 30
0.0
 10
232.113356695064
 20
326.0051428646011
 30
0.0
 10
232.284781993237
 20
326.0510777834852
 30
0.0
 10
232.4074629931548
 20
326.0845274599516
 30
0.0
 10
232.4810891340999
 20
326.1047710227016
 30
0.0
 10
232.5137434179747
 20
326.1138447883151
 30
0.0
 10
232.5218883833
 20
326.1161080597
 30
0.0
 11
214.5218883833
 21
326.1161080548
 31
0.0
 11
214.5463255526759
 21
326.1093235768824
 31
0.0
 11
214.6198966014572
 21
326.0890624712594
 31
0.0
 11
214.7428022189008
 21
326.0555731020248
 31
0.0
 11
214.9144886073704
 21
326.0095433208701
 31
0.0
 11
215.1342841380383
 21
325.9518239134999
 31
0.0
 11
215.4018003413355
 21
325.8834779148285
 31
0.0
 11
215.7163792062359
 21
325.8057559713369
 31
0.0
 11
216.076001398629
 21
325.720446926114
 31
0.0
 11
216.4784909850099
 21
325.6294743665642
 31
0.0
 11
216.92240696065
 21
325.5347626599
 31
0.0
 11
217.4057684012919
 21
325.4383669512276
 31
0.0
 11
217.9236997757855
 21
325.3428647174211
 31
0.0
 11
218.4712756324633
 21
325.2508104360505
 31
0.0
 11
219.0462654444826
 21
325.1641442557017
 31
0.0
 11
219.6462556780037
 21
325.0846861235516
 31
0.0
 11
220.2654058387467
 21
325.0143895111115
 31
0.0
 11
220.8980819430974
 21
324.9550503694236
 31
0.0
 11
221.5429030113491
 21
324.9077010437041
 31
0.0
 11
222.1985751619582
 21
324.8731501729859
 31
0.0
 11
222.8598999099166
 21
324.8520751764833
 31
0.0
 11
223.521819222952
 21
324.8450132990291
 31
0.0
 11
224.1837414832
 21
324.8520723077499
 31
0.0
 11
224.8450733137126
 21
324.8731449139817
 31
0.0
 11
225.5007478868009
 21
324.9076930836041
 31
0.0
 11
226.1455613329359
 21
324.9550388698049
 31
0.0
 11
226.77823506597
 21
325.0143754204615
 31
0.0
 11
227.3974002715359
 21
325.0846716866953
 31
0.0
 11
227.9974019312174
 21
325.1641287370017
 31
0.0
 11
228.5723815308721
 21
325.2507908215378
 31
0.0
 11
229.1199527766979
 21
325.3428428001211
 31
0.0
 11
229.6379093968143
 21
325.4383484711297
 31
0.0
 11
230.1212929943167
 21
325.5347467785166
 31
0.0
 11
230.5651969727588
 21
325.6294543534975
 31
0.0
 11
230.9676740625543
 21
325.720423430764
 31
0.0
 11
231.3273182281828
 21
325.8057370654869
 31
0.0
 11
231.6419290435311
 21
325.8834659912785
 31
0.0
 11
231.9094579914826
 21
325.9518147529457
 31
0.0
 11
232.1292585782296
 21
326.0095354607868
 31
0.0
 11
232.3009581221231
 21
326.0555687324144
 31
0.0
 11
232.4238771648344
 21
326.0890616487594
 31
0.0
 11
232.4974519593293
 21
326.1093237636199
 31
0.0
 11
232.5218883833
 21
326.1161080597
 31
0.0
  0
SPLINE
  5
E1
330
1F
100
AcDbEntity
  8
0
  6
Continuous
 62
     2
100
AcDbSpline
210
0.0
220
0.0
230
1.0
 70
     8
 71
     3
 72
    49
 73
    45
 74
    43
 42
0.0000000001
 43
0.0000000001
 44
0.00000001
 40
0.0
 40
0.0
 40
0.0
 40
0.0
 40
0.0253614744784223
 40
0.1016714451234747
 40
0.2290579775785934
 40
0.4068076800786712
 40
0.6340555739935246
 40
0.9101644194892375
 40
1.234202322738393
 40
1.603804479737658
 40
2.016447029332417
 40
2.470354179317694
 40
2.963233895830665
 40
3.489896582326299
 40
4.045156259896261
 40
4.626640834706471
 40
5.231869613835045
 40
5.854997638616966
 40
6.490450380174336
 40
7.137007546020704
 40
7.793589400591585
 40
8.45524987072708
 40
9.117206853530684
 40
9.779166752781247
 40
10.44083422574829
 40
11.09741835731011
 40
11.74396766230353
 40
12.37941780095727
 40
13.00256073546744
 40
13.6078006998319
 40
14.18927456589572
 40
14.74452931465192
 40
15.2712174515197
 40
15.76411940526036
 40
16.21801396001464
 40
16.63064355278387
 40
17.00026814901672
 40
17.32433874478072
 40
17.60046062224328
 40
17.82771373673902
 40
18.0054770497988
 40
18.13287746779795
 40
18.20919131767839
 40
18.2345520252746
 40
18.2345520252746
 40
18.2345520252746
 40
18.2345520252746
 10
189.5218883833
 20
326.1161080548
 30
0.0
 10
189.5300335973866
 20
326.1138447238569
 30
0.0
 10
189.5626868915685
 20
326.1047712716027
 30
0.0
 10
189.6363075546898
 20
326.084529158455
 30
0.0
 10
189.7589784292396
 20
326.0510821034511
 30
0.0
 10
189.9303931935306
 20
326.005150006363
 30
0.0
 10
190.1499778129852
 20
325.9474588137663
 30
0.0
 10
190.417199088731
 20
325.8792031181724
 30
0.0
 10
190.7310126629552
 20
325.8016537353799
 30
0.0
 10
191.0898221124699
 20
325.7165369705132
 30
0.0
 10
191.4917364401415
 20
325.6256643213719
 30
0.0
 10
191.934915789511
 20
325.5311018747101
 30
0.0
 10
192.4165958540025
 20
325.4350395053843
 30
0.0
 10
192.9328390438216
 20
325.3398044038705
 30
0.0
 10
193.4796545361808
 20
325.2478464256408
 30
0.0
 10
194.0538519302503
 20
325.1612703490679
 30
0.0
 10
194.6519461028335
 20
325.0820803426471
 30
0.0
 10
195.2692793994204
 20
325.0119203502399
 30
0.0
 10
195.9015899792312
 20
324.9525872938393
 30
0.0
 10
196.5460962413592
 20
324.9052434847738
 30
0.0
 10
197.2001705110277
 20
324.8708123178935
 30
0.0
 10
197.8599483953564
 20
324.8497285001611
 30
0.0
 10
198.5218201892982
 20
324.842655909283
 30
0.0
 10
199.1836943524857
 20
324.8497255595132
 30
0.0
 10
199.8434763800916
 20
324.8708070508889
 30
0.0
 10
200.497551266945
 20
324.9052354016011
 30
0.0
 10
201.1420550431829
 20
324.9525758227392
 30
0.0
 10
201.7743673150197
 20
325.0119067817488
 30
0.0
 10
202.391708589173
 20
325.0820659077752
 30
0.0
 10
202.989808199542
 20
325.161253875283
 30
0.0
 10
203.5640045535418
 20
325.2478269262377
 30
0.0
 10
204.1108234912523
 20
325.3397841821711
 30
0.0
 10
204.6270808542538
 20
325.4350210030674
 30
0.0
 10
205.1087727832901
 20
325.5310836712985
 30
0.0
 10
205.5519514320169
 20
325.6256441271146
 30
0.0
 10
205.9538648374037
 20
325.7165161629487
 30
0.0
 10
206.3126880647969
 20
325.8016357449186
 30
0.0
 10
206.6265239521081
 20
325.8791895442266
 30
0.0
 10
206.8937618195292
 20
325.9474489089471
 30
0.0
 10
207.1133566950639
 20
326.0051428646011
 30
0.0
 10
207.2847819932371
 20
326.0510777834853
 30
0.0
 10
207.4074629931548
 20
326.0845274599516
 30
0.0
 10
207.4810891340999
 20
326.1047710227016
 30
0.0
 10
207.5137434179747
 20
326.1138447883151
 30
0.0
 10
207.5218883833
 20
326.1161080597
 30
0.0
 11
189.5218883833
 21
326.1161080548
 31
0.0
 11
189.5463255526759
 21
326.1093235768824
 31
0.0
 11
189.6198966014572
 21
326.0890624712594
 31
0.0
 11
189.7428022189008
 21
326.0555731020248
 31
0.0
 11
189.9144886073704
 21
326.0095433208701
 31
0.0
 11
190.1342841380383
 21
325.9518239134999
 31
0.0
 11
190.4018003413355
 21
325.8834779148285
 31
0.0
 11
190.7163792062359
 21
325.8057559713369
 31
0.0
 11
191.076001398629
 21
325.720446926114
 31
0.0
 11
191.4784909850099
 21
325.6294743665642
 31
0.0
 11
191.92240696065
 21
325.5347626599
 31
0.0
 11
192.4057684012919
 21
325.4383669512276
 31
0.0
 11
192.9236997757855
 21
325.3428647174211
 31
0.0
 11
193.4712756324633
 21
325.2508104360505
 31
0.0
 11
194.0462654444826
 21
325.1641442557017
 31
0.0
 11
194.6462556780037
 21
325.0846861235516
 31
0.0
 11
195.2654058387466
 21
325.0143895111115
 31
0.0
 11
195.8980819430975
 21
324.9550503694236
 31
0.0
 11
196.5429030113491
 21
324.9077010437041
 31
0.0
 11
197.1985751619582
 21
324.8731501729859
 31
0.0
 11
197.8598999099167
 21
324.8520751764833
 31
0.0
 11
198.5218192229521
 21
324.8450132990291
 31
0.0
 11
199.1837414832
 21
324.8520723077499
 31
0.0
 11
199.8450733137126
 21
324.8731449139817
 31
0.0
 11
200.5007478868009
 21
324.9076930836041
 31
0.0
 11
201.1455613329359
 21
324.9550388698049
 31
0.0
 11
201.77823506597
 21
325.0143754204615
 31
0.0
 11
202.3974002715359
 21
325.0846716866953
 31
0.0
 11
202.9974019312174
 21
325.1641287370017
 31
0.0
 11
203.5723815308721
 21
325.2507908215378
 31
0.0
 11
204.1199527766979
 21
325.3428428001211
 31
0.0
 11
204.6379093968143
 21
325.4383484711297
 31
0.0
 11
205.1212929943166
 21
325.5347467785166
 31
0.0
 11
205.5651969727589
 21
325.6294543534975
 31
0.0
 11
205.9676740625543
 21
325.720423430764
 31
0.0
 11
206.3273182281828
 21
325.8057370654869
 31
0.0
 11
206.6419290435311
 21
325.8834659912785
 31
0.0
 11
206.9094579914826
 21
325.9518147529457
 31
0.0
 11
207.1292585782296
 21
326.0095354607868
 31
0.0
 11
207.3009581221231
 21
326.0555687324144
 31
0.0
 11
207.4238771648344
 21
326.0890616487594
 31
0.0
 11
207.4974519593293
 21
326.1093237636199
 31
0.0
 11
207.5218883833
 21
326.1161080597
 31
0.0
  0
DIMENSION
  5
EC
330
1F
100
AcDbEntity
  8
1
100
AcDbDimension
  2
*D2
 10
247.5218883833
 20
365.463117556566
 30
0.0
 11
160.60969152751
 21
369.213117556566
 31
0.0
 70
    32
  1
<>
 71
     5
 42
-1.0
 53
0.00013888888889
  3
ME10_DIM_10
100
AcDbAlignedDimension
 13
45.7218883833
 23
312.8292620565
 33
0.0
 14
247.5218883833
 24
318.0331628802
 34
0.0
100
AcDbRotatedDimension
  0
DIMENSION
  5
F7
330
1F
100
AcDbEntity
  8
1
100
AcDbDimension
  2
*D3
 10
247.5218883833
 20
357.725175602717
 30
0.0
 11
198.731137522973
 21
361.475175602717
 31
0.0
 70
    32
  1
<>
 71
     5
 42
-1.0
 53
0.00013888888889
  3
ME10_DIM_11
100
AcDbAlignedDimension
 13
147.5218883833
 23
346.6035666488
 33
0.0
 14
247.5218883833
 24
318.0331628802
 34
0.0
100
AcDbRotatedDimension
  0
DIMENSION
  5
102
330
1F
100
AcDbEntity
  8
1
100
AcDbDimension
  2
*D4
 10
247.5218883833
 20
350.119009766664
 30
0.0
 11
215.73315527415
 21
353.869009766664
 31
0.0
 70
    32
  1
<>
 71
     5
 42
-1.0
 53
0.00013888888889
  3
ME10_DIM_12
100
AcDbAlignedDimension
 13
185.5218883833
 23
342.6035666488
 33
0.0
 14
247.5218883833
 24
318.0331628802
 34
0.0
100
AcDbRotatedDimension
  0
DIMENSION
  5
10D
330
1F
100
AcDbEntity
  8
1
100
AcDbDimension
  2
*D5
 10
268.230613593571
 20
326.1161080597
 30
0.0
 11
264.480613593571
 21
292.998195742975
 31
0.0
 70
    32
  1
<>
 71
     5
 42
-1.0
 53
90.0
  3
ME10_DIM_13
100
AcDbAlignedDimension
 13
234.2539391909
 23
261.1160666488
 33
0.0
 14
232.5218883833
 24
326.1161080597
 34
0.0
 50
90.0
100
AcDbRotatedDimension
  0
DIMENSION
  5
118
330
1F
100
AcDbEntity
  8
1
100
AcDbDimension
  2
*D6
 10
259.729604717983
 20
306.1160666488
 30
0.0
 11
255.979604717983
 21
292.998195742975
 31
0.0
 70
    32
  1
<>
 71
     5
 42
-1.0
 53
90.0
  3
ME10_DIM_14
100
AcDbAlignedDimension
 13
247.5218883833
 23
281.1160666488
 33
0.0
 14
247.5218883833
 24
306.1160666488
 34
0.0
 50
90.0
100
AcDbRotatedDimension
  0
INSERT
  5
11F
330
1F
100
AcDbEntity
  8
1
100
AcDbBlockReference
  2
*D7
 10
0.0
 20
0.0
 30
0.0
  0
ENDSEC
  0
SECTION
  2
OBJECTS
  0
DICTIONARY
  5
C
330
0
100
AcDbDictionary
281
     1
  3
ACAD_GROUP
350
D
  3
ACAD_LAYOUT
350
1A
  3
ACAD_MLEADERSTYLE
350
122
  3
ACAD_MLINESTYLE
350
17
  3
ACAD_PLOTSETTINGS
350
19
  3
ACAD_PLOTSTYLENAME
350
E
  3
ACAD_SCALELIST
350
4C
  3
ACAD_VISUALSTYLE
350
2A
  3
AcDbVariableDictionary
350
120
  0
DICTIONARY
  5
D
102
{ACAD_REACTORS
330
C
102
}
330
C
100
AcDbDictionary
281
     1
  0
DICTIONARY
  5
1A
102
{ACAD_REACTORS
330
C
102
}
330
C
100
AcDbDictionary
281
     1
  3
Layout1
350
1E
  3
Layout2
350
26
  3
Model
350
22
  0
DICTIONARY
  5
122
102
{ACAD_REACTORS
330
C
102
}
330
C
100
AcDbDictionary
281
     1
  0
DICTIONARY
  5
17
102
{ACAD_REACTORS
330
C
102
}
330
C
100
AcDbDictionary
281
     1
  3
Standard
350
18
  0
DICTIONARY
  5
19
102
{ACAD_REACTORS
330
C
102
}
330
C
100
AcDbDictionary
281
     1
  0
ACDBDICTIONARYWDFLT
  5
E
102
{ACAD_REACTORS
330
C
102
}
330
C
100
AcDbDictionary
281
     1
  3
Normal
350
F
100
AcDbDictionaryWithDefault
340
F
  0
DICTIONARY
  5
4C
102
{ACAD_REACTORS
330
C
102
}
330
C
100
AcDbDictionary
281
     1
  3
A0
350
4D
  3
A1
350
4E
  3
A2
350
4F
  3
A3
350
50
  3
A4
350
51
  3
A5
350
52
  3
A6
350
53
  3
A7
350
54
  3
A8
350
55
  3
A9
350
56
  3
B0
350
57
  3
B1
350
58
  3
B2
350
59
  3
B3
350
5A
  3
B4
350
5B
  3
B5
350
5C
  3
B6
350
5D
  3
B7
350
5E
  3
B8
350
5F
  3
B9
350
60
  3
C0
350
61
  3
C1
350
62
  3
C2
350
63
  3
C3
350
64
  3
C4
350
65
  3
C5
350
66
  3
C6
350
67
  3
C7
350
68
  3
C8
350
69
  3
C9
350
6A
  3
D0
350
6B
  3
D1
350
6C
  3
D2
350
6D
  0
DICTIONARY
  5
2A
102
{ACAD_REACTORS
330
C
102
}
330
C
100
AcDbDictionary
281
     1
  3
2dWireframe
350
2F
  3
3D Hidden
350
31
  3
3dWireframe
350
30
  3
Basic
350
32
  3
Brighten
350
36
  3
ColorChange
350
3A
  3
Conceptual
350
34
  3
Dim
350
35
  3
Facepattern
350
39
  3
Flat
350
2B
  3
FlatWithEdges
350
2C
  3
Gouraud
350
2D
  3
GouraudWithEdges
350
2E
  3
Linepattern
350
38
  3
Realistic
350
33
  3
Thicken
350
37
  0
DICTIONARY
  5
120
102
{ACAD_REACTORS
330
C
102
}
330
C
100
AcDbDictionary
281
     1
  3
CANNOSCALE
350
123
  0
LAYOUT
  5
1E
102
{ACAD_REACTORS
330
1A
102
}
330
1A
100
AcDbPlotSettings
  1

  2
none_device
  4

  6

 40
0.0
 41
0.0
 42
0.0
 43
0.0
 44
0.0
 45
0.0
 46
0.0
 47
0.0
 48
0.0
 49
0.0
140
0.0
141
0.0
142
1.0
143
1.0
 70
   688
 72
     0
 73
     0
 74
     5
  7

 75
    16
147
1.0
148
0.0
149
0.0
100
AcDbLayout
  1
Layout1
 70
     1
 71
     1
 10
0.0
 20
0.0
 11
12.0
 21
9.0
 12
0.0
 22
0.0
 32
0.0
 14
1.00000000000000E+20
 24
1.00000000000000E+20
 34
1.00000000000000E+20
 15
-1.00000000000000E+20
 25
-1.00000000000000E+20
 35
-1.00000000000000E+20
146
0.0
 13
0.0
 23
0.0
 33
0.0
 16
1.0
 26
0.0
 36
0.0
 17
0.0
 27
1.0
 37
0.0
 76
     0
330
1B
  0
LAYOUT
  5
26
102
{ACAD_REACTORS
330
1A
102
}
330
1A
100
AcDbPlotSettings
  1

  2
none_device
  4

  6

 40
0.0
 41
0.0
 42
0.0
 43
0.0
 44
0.0
 45
0.0
 46
0.0
 47
0.0
 48
0.0
 49
0.0
140
0.0
141
0.0
142
1.0
143
1.0
 70
   688
 72
     0
 73
     0
 74
     5
  7

 75
    16
147
1.0
148
0.0
149
0.0
100
AcDbLayout
  1
Layout2
 70
     1
 71
     2
 10
0.0
 20
0.0
 11
0.0
 21
0.0
 12
0.0
 22
0.0
 32
0.0
 14
0.0
 24
0.0
 34
0.0
 15
0.0
 25
0.0
 35
0.0
146
0.0
 13
0.0
 23
0.0
 33
0.0
 16
1.0
 26
0.0
 36
0.0
 17
0.0
 27
1.0
 37
0.0
 76
     0
330
23
  0
LAYOUT
  5
22
102
{ACAD_REACTORS
330
1A
102
}
330
1A
100
AcDbPlotSettings
  1

  2
none_device
  4

  6

 40
0.0
 41
0.0
 42
0.0
 43
0.0
 44
0.0
 45
0.0
 46
0.0
 47
0.0
 48
0.0
 49
0.0
140
0.0
141
0.0
142
1.0
143
1.0
 70
  1712
 72
     0
 73
     0
 74
     0
  7

 75
     0
147
1.0
148
0.0
149
0.0
100
AcDbLayout
  1
Model
 70
     1
 71
     0
 10
0.0
 20
0.0
 11
12.0
 21
9.0
 12
0.0
 22
0.0
 32
0.0
 14
25.3299988295785
 24
240.5035666488
 34
0.0
 15
270.230613593571
 25
370.963117556566
 35
0.0
146
0.0
 13
0.0
 23
0.0
 33
0.0
 16
1.0
 26
0.0
 36
0.0
 17
0.0
 27
1.0
 37
0.0
 76
     0
330
1F
331
29
  0
MLINESTYLE
  5
18
102
{ACAD_REACTORS
330
17
102
}
330
17
100
AcDbMlineStyle
  2
Standard
 70
     0
  3

 62
   256
 51
90.0
 52
90.0
 71
     2
 49
0.5
 62
   256
  6
BYLAYER
 49
-0.5
 62
   256
  6
BYLAYER
  0
ACDBPLACEHOLDER
  5
F
102
{ACAD_REACTORS
330
E
102
}
330
E
  0
SCALE
  5
4D
102
{ACAD_REACTORS
330
4C
102
}
330
4C
100
AcDbScale
 70
     0
300
1:1
140
1.0
141
1.0
290
     1
  0
SCALE
  5
4E
102
{ACAD_REACTORS
330
4C
102
}
330
4C
100
AcDbScale
 70
     0
300
1:2
140
1.0
141
2.0
290
     0
  0
SCALE
  5
4F
102
{ACAD_REACTORS
330
4C
102
}
330
4C
100
AcDbScale
 70
     0
300
1:4
140
1.0
141
4.0
290
     0
  0
SCALE
  5
50
102
{ACAD_REACTORS
330
4C
102
}
330
4C
100
AcDbScale
 70
     0
300
1:5
140
1.0
141
5.0
290
     0
  0
SCALE
  5
51
102
{ACAD_REACTORS
330
4C
102
}
330
4C
100
AcDbScale
 70
     0
300
1:8
140
1.0
141
8.0
290
     0
  0
SCALE
  5
52
102
{ACAD_REACTORS
330
4C
102
}
330
4C
100
AcDbScale
 70
     0
300
1:10
140
1.0
141
10.0
290
     0
  0
SCALE
  5
53
102
{ACAD_REACTORS
330
4C
102
}
330
4C
100
AcDbScale
 70
     0
300
1:16
140
1.0
141
16.0
290
     0
  0
SCALE
  5
54
102
{ACAD_REACTORS
330
4C
102
}
330
4C
100
AcDbScale
 70
     0
300
1:20
140
1.0
141
20.0
290
     0
  0
SCALE
  5
55
102
{ACAD_REACTORS
330
4C
102
}
330
4C
100
AcDbScale
 70
     0
300
1:30
140
1.0
141
30.0
290
     0
  0
SCALE
  5
56
102
{ACAD_REACTORS
330
4C
102
}
330
4C
100
AcDbScale
 70
     0
300
1:40
140
1.0
141
40.0
290
     0
  0
SCALE
  5
57
102
{ACAD_REACTORS
330
4C
102
}
330
4C
100
AcDbScale
 70
     0
300
1:50
140
1.0
141
50.0
290
     0
  0
SCALE
  5
58
102
{ACAD_REACTORS
330
4C
102
}
330
4C
100
AcDbScale
 70
     0
300
1:100
140
1.0
141
100.0
290
     0
  0
SCALE
  5
59
102
{ACAD_REACTORS
330
4C
102
}
330
4C
100
AcDbScale
 70
     0
300
2:1
140
2.0
141
1.0
290
     0
  0
SCALE
  5
5A
102
{ACAD_REACTORS
330
4C
102
}
330
4C
100
AcDbScale
 70
     0
300
4:1
140
4.0
141
1.0
290
     0
  0
SCALE
  5
5B
102
{ACAD_REACTORS
330
4C
102
}
330
4C
100
AcDbScale
 70
     0
300
8:1
140
8.0
141
1.0
290
     0
  0
SCALE
  5
5C
102
{ACAD_REACTORS
330
4C
102
}
330
4C
100
AcDbScale
 70
     0
300
10:1
140
10.0
141
1.0
290
     0
  0
SCALE
  5
5D
102
{ACAD_REACTORS
330
4C
102
}
330
4C
100
AcDbScale
 70
     0
300
100:1
140
100.0
141
1.0
290
     0
  0
SCALE
  5
5E
102
{ACAD_REACTORS
330
4C
102
}
330
4C
100
AcDbScale
 70
     0
300
1/128" = 1'-0"
140
0.0078125
141
12.0
290
     0
  0
SCALE
  5
5F
102
{ACAD_REACTORS
330
4C
102
}
330
4C
100
AcDbScale
 70
     0
300
1/64" = 1'-0"
140
0.015625
141
12.0
290
     0
  0
SCALE
  5
60
102
{ACAD_REACTORS
330
4C
102
}
330
4C
100
AcDbScale
 70
     0
300
1/32" = 1'-0"
140
0.03125
141
12.0
290
     0
  0
SCALE
  5
61
102
{ACAD_REACTORS
330
4C
102
}
330
4C
100
AcDbScale
 70
     0
300
1/16" = 1'-0"
140
0.0625
141
12.0
290
     0
  0
SCALE
  5
62
102
{ACAD_REACTORS
330
4C
102
}
330
4C
100
AcDbScale
 70
     0
300
3/32" = 1'-0"
140
0.09375
141
12.0
290
     0
  0
SCALE
  5
63
102
{ACAD_REACTORS
330
4C
102
}
330
4C
100
AcDbScale
 70
     0
300
1/8" = 1'-0"
140
0.125
141
12.0
290
     0
  0
SCALE
  5
64
102
{ACAD_REACTORS
330
4C
102
}
330
4C
100
AcDbScale
 70
     0
300
3/16" = 1'-0"
140
0.1875
141
12.0
290
     0
  0
SCALE
  5
65
102
{ACAD_REACTORS
330
4C
102
}
330
4C
100
AcDbScale
 70
     0
300
1/4" = 1'-0"
140
0.25
141
12.0
290
     0
  0
SCALE
  5
66
102
{ACAD_REACTORS
330
4C
102
}
330
4C
100
AcDbScale
 70
     0
300
3/8" = 1'-0"
140
0.375
141
12.0
290
     0
  0
SCALE
  5
67
102
{ACAD_REACTORS
330
4C
102
}
330
4C
100
AcDbScale
 70
     0
300
1/2" = 1'-0"
140
0.5
141
12.0
290
     0
  0
SCALE
  5
68
102
{ACAD_REACTORS
330
4C
102
}
330
4C
100
AcDbScale
 70
     0
300
3/4" = 1'-0"
140
0.75
141
12.0
290
     0
  0
SCALE
  5
69
102
{ACAD_REACTORS
330
4C
102
}
330
4C
100
AcDbScale
 70
     0
300
1" = 1'-0"
140
1.0
141
12.0
290
     0
  0
SCALE
  5
6A
102
{ACAD_REACTORS
330
4C
102
}
330
4C
100
AcDbScale
 70
     0
300
1-1/2" = 1'-0"
140
1.5
141
12.0
290
     0
  0
SCALE
  5
6B
102
{ACAD_REACTORS
330
4C
102
}
330
4C
100
AcDbScale
 70
     0
300
3" = 1'-0"
140
3.0
141
12.0
290
     0
  0
SCALE
  5
6C
102
{ACAD_REACTORS
330
4C
102
}
330
4C
100
AcDbScale
 70
     0
300
6" = 1'-0"
140
6.0
141
12.0
290
     0
  0
SCALE
  5
6D
102
{ACAD_REACTORS
330
4C
102
}
330
4C
100
AcDbScale
 70
     0
300
1'-0" = 1'-0"
140
12.0
141
12.0
290
     0
  0
VISUALSTYLE
  5
2F
102
{ACAD_REACTORS
330
2A
102
}
330
2A
100
AcDbVisualStyle
  2
2dWireframe
 70
     4
 71
     0
 72
     2
 73
     0
 90
        0
 40
-0.6
 41
-30.0
 62
     5
 63
     7
 74
     1
 91
        4
 64
     7
 65
   257
 75
     1
175
     1
 42
1.0
 92
        0
 66
   257
 43
1.0
 76
     1
 77
     6
 78
     2
 67
     7
 79
     5
170
     0
171
     0
290
     0
174
     0
 93
        1
 44
0.0
173
     0
291
     0
 45
0.0
1001
ACAD
1000
AcDbSavedByObjectVersion
1070
     0
  0
VISUALSTYLE
  5
31
102
{ACAD_REACTORS
330
2A
102
}
330
2A
100
AcDbVisualStyle
  2
3D Hidden
 70
     6
 71
     1
 72
     2
 73
     2
 90
        0
 40
-0.6
 41
-30.0
 62
     5
 63
     7
 74
     2
 91
        2
 64
     7
 65
   257
 75
     2
175
     1
 42
40.0
 92
        0
 66
   257
 43
1.0
 76
     1
 77
     6
 78
     2
 67
     7
 79
     3
170
     0
171
     0
290
     0
174
     0
 93
        1
 44
0.0
173
     0
291
     0
 45
0.0
1001
ACAD
1000
AcDbSavedByObjectVersion
1070
     0
  0
VISUALSTYLE
  5
30
102
{ACAD_REACTORS
330
2A
102
}
330
2A
100
AcDbVisualStyle
  2
3dWireframe
 70
     5
 71
     0
 72
     2
 73
     0
 90
        0
 40
-0.6
 41
-30.0
 62
     5
 63
     7
 74
     1
 91
        4
 64
     7
 65
   257
 75
     1
175
     1
 42
1.0
 92
        0
 66
   257
 43
1.0
 76
     1
 77
     6
 78
     2
 67
     7
 79
     5
170
     0
171
     0
290
     0
174
     0
 93
        1
 44
0.0
173
     0
291
     0
 45
0.0
1001
ACAD
1000
AcDbSavedByObjectVersion
1070
     0
  0
VISUALSTYLE
  5
32
102
{ACAD_REACTORS
330
2A
102
}
330
2A
100
AcDbVisualStyle
  2
Basic
 70
     7
 71
     1
 72
     0
 73
     1
 90
        0
 40
-0.6
 41
-30.0
 62
     5
 63
     7
 74
     0
 91
        4
 64
     7
 65
   257
 75
     1
175
     1
 42
1.0
 92
        8
 66
     7
 43
1.0
 76
     1
 77
     6
 78
     2
 67
     7
 79
     5
170
     0
171
     0
290
     0
174
     0
 93
        1
 44
0.0
173
     0
291
     1
 45
0.0
1001
ACAD
1000
AcDbSavedByObjectVersion
1070
     0
  0
VISUALSTYLE
  5
36
102
{ACAD_REACTORS
330
2A
102
}
330
2A
100
AcDbVisualStyle
  2
Brighten
 70
    12
 71
     2
 72
     2
 73
     0
 90
        0
 40
-0.6
 41
-30.0
 62
     5
 63
     7
 74
     1
 91
        4
 64
     7
 65
   257
 75
     1
175
     1
 42
1.0
 92
        8
 66
     7
 43
1.0
 76
     1
 77
     6
 78
     2
 67
     7
 79
     5
170
     0
171
     0
290
     0
174
     0
 93
        1
 44
50.0
173
     0
291
     1
 45
0.0
1001
ACAD
1000
AcDbSavedByObjectVersion
1070
     0
  0
VISUALSTYLE
  5
3A
102
{ACAD_REACTORS
330
2A
102
}
330
2A
100
AcDbVisualStyle
  2
ColorChange
 70
    16
 71
     2
 72
     2
 73
     3
 90
        0
 40
-0.6
 41
-30.0
 62
     5
 63
     8
 74
     1
 91
        4
 64
     7
 65
   257
 75
     1
175
     1
 42
1.0
 92
        8
 66
     8
 43
1.0
 76
     1
 77
     6
 78
     2
 67
     7
 79
     5
170
     0
171
     0
290
     0
174
     0
 93
        1
 44
0.0
173
     0
291
     1
 45
0.0
1001
ACAD
1000
AcDbSavedByObjectVersion
1070
     0
  0
VISUALSTYLE
  5
34
102
{ACAD_REACTORS
330
2A
102
}
330
2A
100
AcDbVisualStyle
  2
Conceptual
 70
     9
 71
     3
 72
     2
 73
     0
 90
        0
 40
-0.6
 41
-30.0
 62
     5
 63
     7
 74
     2
 91
        2
 64
     7
 65
   257
 75
     1
175
     1
 42
40.0
 92
        8
 66
     7
 43
1.0
 76
     1
 77
     6
 78
     2
 67
     7
 79
     3
170
     0
171
     0
290
     0
174
     0
 93
        1
 44
0.0
173
     0
291
     0
 45
0.0
1001
ACAD
1000
AcDbSavedByObjectVersion
1070
     0
  0
VISUALSTYLE
  5
35
102
{ACAD_REACTORS
330
2A
102
}
330
2A
100
AcDbVisualStyle
  2
Dim
 70
    11
 71
     2
 72
     2
 73
     0
 90
        0
 40
-0.6
 41
-30.0
 62
     5
 63
     7
 74
     1
 91
        4
 64
     7
 65
   257
 75
     1
175
     1
 42
1.0
 92
        8
 66
     7
 43
1.0
 76
     1
 77
     6
 78
     2
 67
     7
 79
     5
170
     0
171
     0
290
     0
174
     0
 93
        1
 44
-50.0
173
     0
291
     1
 45
0.0
1001
ACAD
1000
AcDbSavedByObjectVersion
1070
     0
  0
VISUALSTYLE
  5
39
102
{ACAD_REACTORS
330
2A
102
}
330
2A
100
AcDbVisualStyle
  2
Facepattern
 70
    15
 71
     2
 72
     2
 73
     0
 90
        0
 40
-0.6
 41
-30.0
 62
     5
 63
     7
 74
     1
 91
        4
 64
     7
 65
   257
 75
     1
175
     1
 42
1.0
 92
        8
 66
     7
 43
1.0
 76
     1
 77
     6
 78
     2
 67
     7
 79
     5
170
     0
171
     0
290
     0
174
     0
 93
        1
 44
0.0
173
     0
291
     1
 45
0.0
1001
ACAD
1000
AcDbSavedByObjectVersion
1070
     0
  0
VISUALSTYLE
  5
2B
102
{ACAD_REACTORS
330
2A
102
}
330
2A
100
AcDbVisualStyle
  2
Flat
 70
     0
 71
     2
 72
     1
 73
     1
 90
        2
 40
-0.6
 41
30.0
 62
     5
 63
     7
 74
     0
 91
        4
 64
     7
 65
   257
 75
     1
175
     1
 42
1.0
 92
        8
 66
     7
 43
1.0
 76
     1
 77
     6
 78
     2
 67
     7
 79
     5
170
     0
171
     0
290
     0
174
     0
 93
       13
 44
0.0
173
     0
291
     1
 45
0.0
1001
ACAD
1000
AcDbSavedByObjectVersion
1070
     0
  0
VISUALSTYLE
  5
2C
102
{ACAD_REACTORS
330
2A
102
}
330
2A
100
AcDbVisualStyle
  2
FlatWithEdges
 70
     1
 71
     2
 72
     1
 73
     1
 90
        2
 40
-0.6
 41
30.0
 62
     5
 63
     7
 74
     1
 91
        4
 64
     7
 65
   257
 75
     1
175
     1
 42
1.0
 92
        0
 66
   257
 43
1.0
 76
     1
 77
     6
 78
     2
 67
     7
 79
     5
170
     0
171
     0
290
     0
174
     0
 93
       13
 44
0.0
173
     0
291
     1
 45
0.0
1001
ACAD
1000
AcDbSavedByObjectVersion
1070
     0
  0
VISUALSTYLE
  5
2D
102
{ACAD_REACTORS
330
2A
102
}
330
2A
100
AcDbVisualStyle
  2
Gouraud
 70
     2
 71
     2
 72
     2
 73
     1
 90
        2
 40
-0.6
 41
30.0
 62
     5
 63
     7
 74
     0
 91
        4
 64
     7
 65
   257
 75
     1
175
     1
 42
1.0
 92
        0
 66
     7
 43
1.0
 76
     1
 77
     6
 78
     2
 67
     7
 79
     5
170
     0
171
     0
290
     0
174
     0
 93
       13
 44
0.0
173
     0
291
     1
 45
0.0
1001
ACAD
1000
AcDbSavedByObjectVersion
1070
     0
  0
VISUALSTYLE
  5
2E
102
{ACAD_REACTORS
330
2A
102
}
330
2A
100
AcDbVisualStyle
  2
GouraudWithEdges
 70
     3
 71
     2
 72
     2
 73
     1
 90
        2
 40
-0.6
 41
30.0
 62
     5
 63
     7
 74
     1
 91
        4
 64
     7
 65
   257
 75
     1
175
     1
 42
1.0
 92
        0
 66
   257
 43
1.0
 76
     1
 77
     6
 78
     2
 67
     7
 79
     5
170
     0
171
     0
290
     0
174
     0
 93
       13
 44
0.0
173
     0
291
     1
 45
0.0
1001
ACAD
1000
AcDbSavedByObjectVersion
1070
     0
  0
VISUALSTYLE
  5
38
102
{ACAD_REACTORS
330
2A
102
}
330
2A
100
AcDbVisualStyle
  2
Linepattern
 70
    14
 71
     2
 72
     2
 73
     0
 90
        0
 40
-0.6
 41
-30.0
 62
     5
 63
     7
 74
     1
 91
        4
 64
     7
 65
   257
 75
     7
175
     7
 42
1.0
 92
        8
 66
     7
 43
1.0
 76
     1
 77
     6
 78
     2
 67
     7
 79
     5
170
     0
171
     0
290
     0
174
     0
 93
        1
 44
0.0
173
     0
291
     1
 45
0.0
1001
ACAD
1000
AcDbSavedByObjectVersion
1070
     0
  0
VISUALSTYLE
  5
33
102
{ACAD_REACTORS
330
2A
102
}
330
2A
100
AcDbVisualStyle
  2
Realistic
 70
     8
 71
     2
 72
     2
 73
     0
 90
        0
 40
-0.6
 41
-30.0
 62
     5
 63
     7
 74
     1
 91
        0
 64
     7
 65
   257
 75
     1
175
     1
 42
1.0
 92
        8
 66
     8
 43
1.0
 76
     1
 77
     6
 78
     2
 67
     7
 79
     5
170
     0
171
     0
290
     0
174
     0
 93
       13
 44
0.0
173
     0
291
     0
 45
0.0
1001
ACAD
1000
AcDbSavedByObjectVersion
1070
     0
  0
VISUALSTYLE
  5
37
102
{ACAD_REACTORS
330
2A
102
}
330
2A
100
AcDbVisualStyle
  2
Thicken
 70
    13
 71
     2
 72
     2
 73
     0
 90
        0
 40
-0.6
 41
-30.0
 62
     5
 63
     7
 74
     1
 91
        4
 64
     7
 65
   257
 75
     1
175
     1
 42
1.0
 92
       12
 66
     7
 43
1.0
 76
     1
 77
     6
 78
     2
 67
     7
 79
     5
170
     0
171
     0
290
     0
174
     0
 93
        1
 44
0.0
173
     0
291
     1
 45
0.0
1001
ACAD
1000
AcDbSavedByObjectVersion
1070
     0
  0
DICTIONARYVAR
  5
123
102
{ACAD_REACTORS
330
120
102
}
330
120
100
DictionaryVariables
280
     0
  1
1:1
  0
ENDSEC
  0
EOF
