  0
SECTION
  2
HEADER
  9
$ACADVER
  1
AC1015
  9
$ACADMAINTVER
 70
     6
  9
$DWGCODEPAGE
  3
ANSI_1252
  9
$INSBASE
 10
0.0
 20
0.0
 30
0.0
  9
$EXTMIN
 10
-3.6928952463022
 20
256.6016662206
 30
0.0
  9
$EXTMAX
 10
224.919364415801
 20
388.194892128194
 30
0.0
  9
$LIMMIN
 10
0.0
 20
0.0
  9
$LIMMAX
 10
12.0
 20
9.0
  9
$ORTHOMODE
 70
     0
  9
$REGENMODE
 70
     1
  9
$FILLMODE
 70
     1
  9
$QTEXTMODE
 70
     0
  9
$MIRRTEXT
 70
     1
  9
$LTSCALE
 40
1.0
  9
$ATTMODE
 70
     1
  9
$TEXTSIZE
 40
0.2
  9
$TRACEWID
 40
0.05
  9
$TEXTSTYLE
  7
Standard
  9
$CLAYER
  8
0
  9
$CELTYPE
  6
ByLayer
  9
$CECOLOR
 62
   256
  9
$CELTSCALE
 40
1.0
  9
$DISPSILH
 70
     0
  9
$DIMSCALE
 40
1.0
  9
$DIMASZ
 40
0.18
  9
$DIMEXO
 40
0.0625
  9
$DIMDLI
 40
0.38
  9
$DIMRND
 40
0.0
  9
$DIMDLE
 40
0.0
  9
$DIMEXE
 40
0.18
  9
$DIMTP
 40
0.0
  9
$DIMTM
 40
0.0
  9
$DIMTXT
 40
0.18
  9
$DIMCEN
 40
0.09
  9
$DIMTSZ
 40
0.0
  9
$DIMTOL
 70
     0
  9
$DIMLIM
 70
     0
  9
$DIMTIH
 70
     1
  9
$DIMTOH
 70
     1
  9
$DIMSE1
 70
     0
  9
$DIMSE2
 70
     0
  9
$DIMTAD
 70
     0
  9
$DIMZIN
 70
     0
  9
$DIMBLK
  1

  9
$DIMASO
 70
     1
  9
$DIMSHO
 70
     1
  9
$DIMPOST
  1

  9
$DIMAPOST
  1

  9
$DIMALT
 70
     0
  9
$DIMALTD
 70
     2
  9
$DIMALTF
 40
25.4
  9
$DIMLFAC
 40
1.0
  9
$DIMTOFL
 70
     0
  9
$DIMTVP
 40
0.0
  9
$DIMTIX
 70
     0
  9
$DIMSOXD
 70
     0
  9
$DIMSAH
 70
     0
  9
$DIMBLK1
  1

  9
$DIMBLK2
  1

  9
$DIMSTYLE
  2
Standard
  9
$DIMCLRD
 70
     0
  9
$DIMCLRE
 70
     0
  9
$DIMCLRT
 70
     0
  9
$DIMTFAC
 40
1.0
  9
$DIMGAP
 40
0.09
  9
$DIMJUST
 70
     0
  9
$DIMSD1
 70
     0
  9
$DIMSD2
 70
     0
  9
$DIMTOLJ
 70
     1
  9
$DIMTZIN
 70
     0
  9
$DIMALTZ
 70
     0
  9
$DIMALTTZ
 70
     0
  9
$DIMUPT
 70
     0
  9
$DIMDEC
 70
     4
  9
$DIMTDEC
 70
     4
  9
$DIMALTU
 70
     2
  9
$DIMALTTD
 70
     2
  9
$DIMTXSTY
  7
Standard
  9
$DIMAUNIT
 70
     0
  9
$DIMADEC
 70
     0
  9
$DIMALTRND
 40
0.0
  9
$DIMAZIN
 70
     0
  9
$DIMDSEP
 70
    46
  9
$DIMATFIT
 70
     3
  9
$DIMFRAC
 70
     0
  9
$DIMLDRBLK
  1

  9
$DIMLUNIT
 70
     2
  9
$DIMLWD
 70
    -2
  9
$DIMLWE
 70
    -2
  9
$DIMTMOVE
 70
     0
  9
$LUNITS
 70
     2
  9
$LUPREC
 70
     4
  9
$SKETCHINC
 40
0.1
  9
$FILLETRAD
 40
0.5
  9
$AUNITS
 70
     0
  9
$AUPREC
 70
     0
  9
$MENU
  1
.
  9
$ELEVATION
 40
0.0
  9
$PELEVATION
 40
0.0
  9
$THICKNESS
 40
0.0
  9
$LIMCHECK
 70
     0
  9
$CHAMFERA
 40
0.5
  9
$CHAMFERB
 40
0.5
  9
$CHAMFERC
 40
1.0
  9
$CHAMFERD
 40
0.0
  9
$SKPOLY
 70
     0
  9
$TDCREATE
 40
2456645.67975081
  9
$TDUCREATE
 40
2456645.638084143
  9
$TDUPDATE
 40
2456645.679750822
  9
$TDUUPDATE
 40
2456645.638084155
  9
$TDINDWG
 40
0.0000000116
  9
$TDUSRTIMER
 40
0.0000000116
  9
$USRTIMER
 70
     1
  9
$ANGBASE
 50
0.0
  9
$ANGDIR
 70
     0
  9
$PDMODE
 70
     0
  9
$PDSIZE
 40
0.0
  9
$PLINEWID
 40
0.0
  9
$SPLFRAME
 70
     0
  9
$SPLINETYPE
 70
     6
  9
$SPLINESEGS
 70
     8
  9
$HANDSEED
  5
11A
  9
$SURFTAB1
 70
     6
  9
$SURFTAB2
 70
     6
  9
$SURFTYPE
 70
     6
  9
$SURFU
 70
     6
  9
$SURFV
 70
     6
  9
$UCSBASE
  2

  9
$UCSNAME
  2

  9
$UCSORG
 10
0.0
 20
0.0
 30
0.0
  9
$UCSXDIR
 10
1.0
 20
0.0
 30
0.0
  9
$UCSYDIR
 10
0.0
 20
1.0
 30
0.0
  9
$UCSORTHOREF
  2

  9
$UCSORTHOVIEW
 70
     0
  9
$UCSORGTOP
 10
0.0
 20
0.0
 30
0.0
  9
$UCSORGBOTTOM
 10
0.0
 20
0.0
 30
0.0
  9
$UCSORGLEFT
 10
0.0
 20
0.0
 30
0.0
  9
$UCSORGRIGHT
 10
0.0
 20
0.0
 30
0.0
  9
$UCSORGFRONT
 10
0.0
 20
0.0
 30
0.0
  9
$UCSORGBACK
 10
0.0
 20
0.0
 30
0.0
  9
$PUCSBASE
  2

  9
$PUCSNAME
  2

  9
$PUCSORG
 10
0.0
 20
0.0
 30
0.0
  9
$PUCSXDIR
 10
1.0
 20
0.0
 30
0.0
  9
$PUCSYDIR
 10
0.0
 20
1.0
 30
0.0
  9
$PUCSORTHOREF
  2

  9
$PUCSORTHOVIEW
 70
     0
  9
$PUCSORGTOP
 10
0.0
 20
0.0
 30
0.0
  9
$PUCSORGBOTTOM
 10
0.0
 20
0.0
 30
0.0
  9
$PUCSORGLEFT
 10
0.0
 20
0.0
 30
0.0
  9
$PUCSORGRIGHT
 10
0.0
 20
0.0
 30
0.0
  9
$PUCSORGFRONT
 10
0.0
 20
0.0
 30
0.0
  9
$PUCSORGBACK
 10
0.0
 20
0.0
 30
0.0
  9
$USERI1
 70
     0
  9
$USERI2
 70
     0
  9
$USERI3
 70
     0
  9
$USERI4
 70
     0
  9
$USERI5
 70
     0
  9
$USERR1
 40
16.5
  9
$USERR2
 40
0.0
  9
$USERR3
 40
0.0
  9
$USERR4
 40
0.0
  9
$USERR5
 40
0.0
  9
$WORLDVIEW
 70
     1
  9
$SHADEDGE
 70
     3
  9
$SHADEDIF
 70
    70
  9
$TILEMODE
 70
     1
  9
$MAXACTVP
 70
    64
  9
$PINSBASE
 10
0.0
 20
0.0
 30
0.0
  9
$PLIMCHECK
 70
     0
  9
$PEXTMIN
 10
1.00000000000000E+20
 20
1.00000000000000E+20
 30
1.00000000000000E+20
  9
$PEXTMAX
 10
-1.00000000000000E+20
 20
-1.00000000000000E+20
 30
-1.00000000000000E+20
  9
$PLIMMIN
 10
0.0
 20
0.0
  9
$PLIMMAX
 10
12.0
 20
9.0
  9
$UNITMODE
 70
     0
  9
$VISRETAIN
 70
     1
  9
$PLINEGEN
 70
     0
  9
$PSLTSCALE
 70
     1
  9
$TREEDEPTH
 70
  3020
  9
$CMLSTYLE
  2
Standard
  9
$CMLJUST
 70
     0
  9
$CMLSCALE
 40
1.0
  9
$PROXYGRAPHICS
 70
     1
  9
$MEASUREMENT
 70
     1
  9
$CELWEIGHT
370
    -1
  9
$ENDCAPS
280
     0
  9
$JOINSTYLE
280
     0
  9
$LWDISPLAY
290
     0
  9
$INSUNITS
 70
     1
  9
$HYPERLINKBASE
  1

  9
$STYLESHEET
  1

  9
$XEDIT
290
     1
  9
$CEPSNTYPE
380
     0
  9
$PSTYLEMODE
290
     1
  9
$FINGERPRINTGUID
  2
{F181A6A5-9ADC-4EFD-B76F-88BC96B263A1}
  9
$VERSIONGUID
  2
{FAEB1C32-E019-11D5-929B-00C0DF256EC4}
  9
$EXTNAMES
290
     1
  9
$PSVPSCALE
 40
0.0
  9
$OLESTARTUP
290
     0
  0
ENDSEC
  0
SECTION
  2
CLASSES
  0
CLASS
  1
ACDBDICTIONARYWDFLT
  2
AcDbDictionaryWithDefault
  3
ObjectDBX Classes
 90
        0
280
     0
281
     0
  0
CLASS
  1
VISUALSTYLE
  2
AcDbVisualStyle
  3
ObjectDBX Classes
 90
     4095
280
     0
281
     0
  0
CLASS
  1
SCALE
  2
AcDbScale
  3
ObjectDBX Classes
 90
     1153
280
     0
281
     0
  0
CLASS
  1

  2
exOdDbPolyline
  3

 90
        0
280
     0
281
     1
  0
CLASS
  1

  2
exOdDbSpline
  3

 90
        0
280
     0
281
     1
  0
CLASS
  1
DICTIONARYVAR
  2
AcDbDictionaryVar
  3
ObjectDBX Classes
 90
        0
280
     0
281
     0
  0
CLASS
  1
ACDBPLACEHOLDER
  2
AcDbPlaceHolder
  3
ObjectDBX Classes
 90
        0
280
     0
281
     0
  0
CLASS
  1
LAYOUT
  2
AcDbLayout
  3
ObjectDBX Classes
 90
        0
280
     0
281
     0
  0
ENDSEC
  0
SECTION
  2
TABLES
  0
TABLE
  2
VPORT
  5
8
330
0
100
AcDbSymbolTable
 70
     1
  0
VPORT
  5
29
330
8
100
AcDbSymbolTableRecord
100
AcDbViewportTableRecord
  2
*Active
 70
     0
 10
0.0
 20
0.0
 11
1.0
 21
1.0
 12
110.6132345847494
 22
322.398279174397
 13
0.0
 23
0.0
 14
0.5
 24
0.5
 15
0.5
 25
0.5
 16
0.0
 26
0.0
 36
1.0
 17
0.0
 27
0.0
 37
0.0
 40
156.9082473001177
 41
1.60267857142857
 42
50.0
 43
0.0
 44
0.0
 50
0.0
 51
0.0
 71
     0
 72
   100
 73
     1
 74
     3
 75
     0
 76
     0
 77
     0
 78
     0
281
     0
 65
     1
110
0.0
120
0.0
130
0.0
111
1.0
121
0.0
131
0.0
112
0.0
122
1.0
132
0.0
 79
     0
146
0.0
  0
ENDTAB
  0
TABLE
  2
LTYPE
  5
5
330
0
100
AcDbSymbolTable
 70
     9
  0
LTYPE
  5
14
330
5
100
AcDbSymbolTableRecord
100
AcDbLinetypeTableRecord
  2
ByBlock
 70
     0
  3

 72
    65
 73
     0
 40
0.0
  0
LTYPE
  5
15
330
5
100
AcDbSymbolTableRecord
100
AcDbLinetypeTableRecord
  2
ByLayer
 70
     0
  3

 72
    65
 73
     0
 40
0.0
  0
LTYPE
  5
16
330
5
100
AcDbSymbolTableRecord
100
AcDbLinetypeTableRecord
  2
Continuous
 70
     0
  3
Solid line
 72
    65
 73
     0
 40
0.0
  0
LTYPE
  5
3B
330
5
100
AcDbSymbolTableRecord
100
AcDbLinetypeTableRecord
  2
DASHED
 70
     0
  3
Dashed
 72
    65
 73
     2
 40
15.0
 49
7.0
 74
     0
 49
-8.0
 74
     0
  0
LTYPE
  5
3C
330
5
100
AcDbSymbolTableRecord
100
AcDbLinetypeTableRecord
  2
DOTTED
 70
     0
  3
Dotted
 72
    65
 73
     2
 40
1.0
 49
0.0
 74
     0
 49
-1.0
 74
     0
  0
LTYPE
  5
3D
330
5
100
AcDbSymbolTableRecord
100
AcDbLinetypeTableRecord
  2
DOT_CENTER
 70
     0
  3
Dot_Center
 72
    65
 73
     4
 40
14.0
 49
12.0
 74
     0
 49
-1.0
 74
     0
 49
0.0
 74
     0
 49
-1.0
 74
     0
  0
LTYPE
  5
3E
330
5
100
AcDbSymbolTableRecord
100
AcDbLinetypeTableRecord
  2
LONG_DASHED
 70
     0
  3
Long_Dashed
 72
    65
 73
     2
 40
15.0
 49
10.0
 74
     0
 49
-5.0
 74
     0
  0
LTYPE
  5
3F
330
5
100
AcDbSymbolTableRecord
100
AcDbLinetypeTableRecord
  2
DASH_CENTER
 70
     0
  3
Dash_Center
 72
    65
 73
     4
 40
14.0
 49
11.0
 74
     0
 49
-1.0
 74
     0
 49
1.0
 74
     0
 49
-1.0
 74
     0
  0
LTYPE
  5
40
330
5
100
AcDbSymbolTableRecord
100
AcDbLinetypeTableRecord
  2
PHANTOM
 70
     0
  3
Phantom
 72
    65
 73
     6
 40
13.0
 49
10.0
 74
     0
 49
-1.0
 74
     0
 49
0.0
 74
     0
 49
-1.0
 74
     0
 49
0.0
 74
     0
 49
-1.0
 74
     0
  0
LTYPE
  5
41
330
5
100
AcDbSymbolTableRecord
100
AcDbLinetypeTableRecord
  2
CENTER_DASH_DASH
 70
     0
  3
Center_Dash_Dash
 72
    65
 73
     6
 40
14.0
 49
9.0
 74
     0
 49
-1.0
 74
     0
 49
1.0
 74
     0
 49
-1.0
 74
     0
 49
1.0
 74
     0
 49
-1.0
 74
     0
  0
LTYPE
  5
42
330
5
100
AcDbSymbolTableRecord
100
AcDbLinetypeTableRecord
  2
HIDDEN
 70
     0
  3
HIDDEN
 72
    65
 73
     2
 40
4.0
 49
2.0
 74
     0
 49
-2.0
 74
     0
  0
ENDTAB
  0
TABLE
  2
LAYER
  5
2
330
0
100
AcDbSymbolTable
 70
     7
  0
LAYER
  5
10
330
2
100
AcDbSymbolTableRecord
100
AcDbLayerTableRecord
  2
0
 70
     0
 62
     7
  6
Continuous
370
    -3
390
F
  0
LAYER
  5
43
330
2
100
AcDbSymbolTableRecord
100
AcDbLayerTableRecord
  2
1
 70
     0
 62
     7
  6
Continuous
370
    -3
390
F
  0
LAYER
  5
44
330
2
100
AcDbSymbolTableRecord
100
AcDbLayerTableRecord
  2
BEZUGSACHSEN
 70
     0
 62
     7
  6
Continuous
370
    -3
390
F
  0
LAYER
  5
45
330
2
100
AcDbSymbolTableRecord
100
AcDbLayerTableRecord
  2
DEFAULT_2
 70
     0
 62
     7
  6
Continuous
370
    -3
390
F
  0
LAYER
  5
46
330
2
100
AcDbSymbolTableRecord
100
AcDbLayerTableRecord
  2
FASEN
 70
     0
 62
     7
  6
Continuous
370
    -3
390
F
  0
LAYER
  5
47
330
2
100
AcDbSymbolTableRecord
100
AcDbLayerTableRecord
  2
RUNDUNGEN
 70
     0
 62
     7
  6
Continuous
370
    -3
390
F
  0
LAYER
  5
48
330
2
100
AcDbSymbolTableRecord
100
AcDbLayerTableRecord
  2
TEIL_STARTBEZUEGE
 70
     0
 62
     7
  6
Continuous
370
    -3
390
F
  0
ENDTAB
  0
TABLE
  2
STYLE
  5
3
330
0
100
AcDbSymbolTable
 70
     2
  0
STYLE
  5
11
330
3
100
AcDbSymbolTableRecord
100
AcDbTextStyleTableRecord
  2
Standard
 70
     0
 40
0.0
 41
1.0
 50
0.0
 71
     0
 42
0.2
  3
txt
  4

  0
STYLE
  5
6F
330
3
100
AcDbSymbolTableRecord
100
AcDbTextStyleTableRecord
  2
CONVERTER_11
 70
     0
 40
0.0
 41
0.72
 50
0.0
 71
     0
 42
0.2
  3
txt.shx
  4

  0
ENDTAB
  0
TABLE
  2
VIEW
  5
6
330
0
100
AcDbSymbolTable
 70
     0
  0
ENDTAB
  0
TABLE
  2
UCS
  5
7
330
0
100
AcDbSymbolTable
 70
     0
  0
ENDTAB
  0
TABLE
  2
APPID
  5
9
330
0
100
AcDbSymbolTable
 70
     1
  0
APPID
  5
12
330
9
100
AcDbSymbolTableRecord
100
AcDbRegAppTableRecord
  2
ACAD
 70
     0
  0
ENDTAB
  0
TABLE
  2
DIMSTYLE
  5
A
330
0
100
AcDbSymbolTable
 70
     6
100
AcDbDimStyleTable
  0
DIMSTYLE
105
27
330
A
100
AcDbSymbolTableRecord
100
AcDbDimStyleTableRecord
  2
Standard
 70
     0
340
11
  0
DIMSTYLE
105
E1
102
{ACAD_REACTORS
330
E2
102
}
330
A
100
AcDbSymbolTableRecord
100
AcDbDimStyleTableRecord
  2
ME10_DIM_10
 70
     0
  3
<>
 41
3.5
 42
2.0
 44
2.0
 71
     1
 73
     0
 74
     0
 77
     1
 78
     8
140
3.5
146
0.7
147
2.0
172
     1
173
     1
176
     2
177
     2
178
     3
271
     2
272
     0
340
6F
  0
DIMSTYLE
105
EC
102
{ACAD_REACTORS
330
ED
102
}
330
A
100
AcDbSymbolTableRecord
100
AcDbDimStyleTableRecord
  2
ME10_DIM_11
 70
     0
  3
<>
 41
3.5
 42
2.0
 44
2.0
 71
     1
 73
     0
 74
     0
 77
     1
 78
     8
140
3.5
146
0.7
147
2.0
172
     1
173
     1
176
     2
177
     2
178
     3
271
     2
272
     0
340
6F
  0
DIMSTYLE
105
F7
102
{ACAD_REACTORS
330
F8
102
}
330
A
100
AcDbSymbolTableRecord
100
AcDbDimStyleTableRecord
  2
ME10_DIM_12
 70
     0
  3
<>
 41
3.5
 42
2.0
 44
2.0
 71
     1
 73
     0
 74
     0
 77
     1
 78
     8
140
3.5
146
0.7
147
2.0
172
     1
173
     1
176
     2
177
     2
178
     3
271
     2
272
     0
340
6F
  0
DIMSTYLE
105
102
102
{ACAD_REACTORS
330
103
102
}
330
A
100
AcDbSymbolTableRecord
100
AcDbDimStyleTableRecord
  2
ME10_DIM_13
 70
     0
  3
\U+2300<>
 41
3.5
 42
2.0
 44
2.0
 71
     1
 73
     0
 74
     0
 77
     1
 78
     8
140
3.5
146
0.7
147
2.0
172
     1
173
     1
176
     2
177
     2
178
     3
271
     2
272
     0
340
6F
  0
DIMSTYLE
105
10D
102
{ACAD_REACTORS
330
10E
102
}
330
A
100
AcDbSymbolTableRecord
100
AcDbDimStyleTableRecord
  2
ME10_DIM_14
 70
     0
  3
\U+2300<>
 41
3.5
 42
2.0
 44
2.0
 71
     1
 73
     0
 74
     0
 77
     1
 78
     8
140
3.5
146
0.7
147
2.0
172
     1
173
     1
176
     2
177
     2
178
     3
271
     2
272
     0
340
6F
  0
ENDTAB
  0
TABLE
  2
BLOCK_RECORD
  5
1
330
0
100
AcDbSymbolTable
 70
     8
  0
BLOCK_RECORD
  5
1F
330
1
100
AcDbSymbolTableRecord
100
AcDbBlockTableRecord
  2
*Model_Space
340
22
  0
BLOCK_RECORD
  5
1B
330
1
100
AcDbSymbolTableRecord
100
AcDbBlockTableRecord
  2
*Paper_Space
340
1E
  0
BLOCK_RECORD
  5
23
330
1
100
AcDbSymbolTableRecord
100
AcDbBlockTableRecord
  2
*Paper_Space0
340
26
  0
BLOCK_RECORD
  5
49
330
1
100
AcDbSymbolTableRecord
100
AcDbBlockTableRecord
  2
Urheberrecht_DE-EN
340
0
102
{BLKREFS
331
6E
102
}
  0
BLOCK_RECORD
  5
D8
330
1
100
AcDbSymbolTableRecord
100
AcDbBlockTableRecord
  2
*D2
340
0
  0
BLOCK_RECORD
  5
E3
330
1
100
AcDbSymbolTableRecord
100
AcDbBlockTableRecord
  2
*D3
340
0
  0
BLOCK_RECORD
  5
EE
330
1
100
AcDbSymbolTableRecord
100
AcDbBlockTableRecord
  2
*D4
340
0
  0
BLOCK_RECORD
  5
F9
330
1
100
AcDbSymbolTableRecord
100
AcDbBlockTableRecord
  2
*D5
340
0
  0
BLOCK_RECORD
  5
104
330
1
100
AcDbSymbolTableRecord
100
AcDbBlockTableRecord
  2
*D6
340
0
  0
BLOCK_RECORD
  5
10F
330
1
100
AcDbSymbolTableRecord
100
AcDbBlockTableRecord
  2
*D7
340
0
102
{BLKREFS
331
115
102
}
  0
ENDTAB
  0
ENDSEC
  0
SECTION
  2
BLOCKS
  0
BLOCK
  5
20
330
1F
100
AcDbEntity
  8
0
100
AcDbBlockBegin
  2
*Model_Space
 70
     0
 10
0.0
 20
0.0
 30
0.0
  3
*Model_Space
  1

  0
ENDBLK
  5
21
330
1F
100
AcDbEntity
  8
0
100
AcDbBlockEnd
  0
BLOCK
  5
1C
330
1B
100
AcDbEntity
 67
     1
  8
0
100
AcDbBlockBegin
  2
*Paper_Space
 70
     0
 10
0.0
 20
0.0
 30
0.0
  3
*Paper_Space
  1

  0
ENDBLK
  5
1D
330
1B
100
AcDbEntity
 67
     1
  8
0
100
AcDbBlockEnd
  0
BLOCK
  5
24
330
23
100
AcDbEntity
  8
0
100
AcDbBlockBegin
  2
*Paper_Space0
 70
     0
 10
0.0
 20
0.0
 30
0.0
  3
*Paper_Space0
  1

  0
ENDBLK
  5
25
330
23
100
AcDbEntity
  8
0
100
AcDbBlockEnd
  0
BLOCK
  5
4A
330
49
100
AcDbEntity
  8
0
100
AcDbBlockBegin
  2
Urheberrecht_DE-EN
 70
     0
 10
10.3071047536978
 20
320.304511495656
 30
0.0
  3
Urheberrecht_DE-EN
  1

  0
MTEXT
  5
70
330
49
100
AcDbEntity
  8
1
 62
     1
100
AcDbMText
 10
10.3071047536978
 20
264.0151245783498
 30
0.0
 40
2.0
 41
0.0
 71
     7
 72
     1
  1
F\U+00fcr diese Unterlage behalten wir das Ur-\Pheberrecht. Sie darf nur f\U+00fcr den von uns \Pbestimmten Zweck benutzt und ohne unsere \PZustimmung weder vervielf\U+00e4ltigt noch\PDritten zug\U+00e4nglich gemacht werden.
  7
CONVERTER_11
 11
0.0
 21
1.0
 31
0.0
 73
     1
 44
0.90036014405762
  0
MTEXT
  5
71
330
49
100
AcDbEntity
  8
1
 62
     1
100
AcDbMText
 10
10.3071047536978
 20
320.304511495656
 30
0.0
 40
2.0
 41
0.0
 71
     7
 72
     1
  1
We own the copyright of this document. It \Pdetermined and may neither be copied or \Pmade accessible to outsiders without our\Ppermission.
  7
CONVERTER_11
 11
0.0
 21
1.0
 31
0.0
 73
     1
 44
0.90036014405762
  0
ENDBLK
  5
4B
330
49
100
AcDbEntity
  8
0
100
AcDbBlockEnd
  0
BLOCK
  5
DF
330
D8
100
AcDbEntity
  8
0
100
AcDbBlockBegin
  2
*D2
 70
     1
 10
0.0
 20
0.0
 30
0.0
  3
*D2
  1

  0
LINE
  5
D9
330
D8
100
AcDbEntity
  8
1
  6
Continuous
 62
     2
100
AcDbLine
 10
200.7645610278
 20
382.694892128194
 30
0.0
 11
18.9645610278
 21
382.694892128194
 31
0.0
  0
LINE
  5
DA
330
D8
100
AcDbEntity
  8
1
  6
Continuous
 62
     2
100
AcDbLine
 10
18.9645610278
 20
330.9273616282
 30
0.0
 11
18.9645610278
 21
384.694892128194
 31
0.0
  0
LINE
  5
DB
330
D8
100
AcDbEntity
  8
1
  6
Continuous
 62
     2
100
AcDbLine
 10
200.7645610278
 20
329.6312624519
 30
0.0
 11
200.7645610278
 21
384.694892128194
 31
0.0
  0
SOLID
  5
DC
330
D8
100
AcDbEntity
  8
1
 62
     2
100
AcDbTrace
 10
197.2645610278
 20
382.2341083866381
 30
0.0
 11
197.2645610278
 21
383.1556758697499
 31
0.0
 12
200.7645610278
 22
382.694892128194
 32
0.0
 13
200.7645610278
 23
382.694892128194
 33
0.0
  0
SOLID
  5
DD
330
D8
100
AcDbEntity
  8
1
 62
     2
100
AcDbTrace
 10
22.4645610278
 20
383.1556758697499
 30
0.0
 11
22.4645610278
 21
382.2341083866381
 31
0.0
 12
18.9645610278
 22
382.694892128194
 32
0.0
 13
18.9645610278
 23
382.694892128194
 33
0.0
  0
MTEXT
  5
DE
330
D8
100
AcDbEntity
  8
1
 62
     3
100
AcDbMText
 10
111.367684290788
 20
384.694892128194
 30
0.0
 40
3.5
 41
0.0
 71
     7
 72
     1
  1
\C3;\C3;\C3;181.8\C2;\H2.45;\S^ ;\C3;
  7
CONVERTER_11
 11
0.9999999999970619
 21
2.424068405545306E-6
 31
0.0
 73
     1
 44
0.60024009603842
  0
ENDBLK
  5
E0
330
D8
100
AcDbEntity
  8
0
100
AcDbBlockEnd
  0
BLOCK
  5
EA
330
E3
100
AcDbEntity
  8
0
100
AcDbBlockBegin
  2
*D3
 70
     1
 10
0.0
 20
0.0
 30
0.0
  3
*D3
  1

  0
LINE
  5
E4
330
E3
100
AcDbEntity
  8
1
  6
Continuous
 62
     2
100
AcDbLine
 10
200.7645610278
 20
374.181198961974
 30
0.0
 11
120.7645610278
 21
374.181198961974
 31
0.0
  0
LINE
  5
E5
330
E3
100
AcDbEntity
  8
1
  6
Continuous
 62
     2
100
AcDbLine
 10
120.7645610278
 20
364.7016662206
 30
0.0
 11
120.7645610278
 21
376.181198961974
 31
0.0
  0
LINE
  5
E6
330
E3
100
AcDbEntity
  8
1
  6
Continuous
 62
     2
100
AcDbLine
 10
200.7645610278
 20
329.6312624519
 30
0.0
 11
200.7645610278
 21
376.181198961974
 31
0.0
  0
SOLID
  5
E7
330
E3
100
AcDbEntity
  8
1
 62
     2
100
AcDbTrace
 10
197.2645610278
 20
373.7204152204181
 30
0.0
 11
197.2645610278
 21
374.6419827035299
 31
0.0
 12
200.7645610278
 22
374.181198961974
 32
0.0
 13
200.7645610278
 23
374.181198961974
 33
0.0
  0
SOLID
  5
E8
330
E3
100
AcDbEntity
  8
1
 62
     2
100
AcDbTrace
 10
124.2645610278
 20
374.6419827035299
 30
0.0
 11
124.2645610278
 21
373.7204152204181
 31
0.0
 12
120.7645610278
 22
374.181198961974
 32
0.0
 13
120.7645610278
 23
374.181198961974
 33
0.0
  0
MTEXT
  5
E9
330
E3
100
AcDbEntity
  8
1
 62
     3
100
AcDbMText
 10
158.405549861013
 20
376.181198961974
 30
0.0
 40
3.5
 41
0.0
 71
     7
 72
     1
  1
\C3;\C3;\C3;80\C2;\H2.45;\S^ ;\C3;
  7
CONVERTER_11
 11
0.9999999999970619
 21
2.424068405545306E-6
 31
0.0
 73
     1
 44
0.60024009603842
  0
ENDBLK
  5
EB
330
E3
100
AcDbEntity
  8
0
100
AcDbBlockEnd
  0
BLOCK
  5
F5
330
EE
100
AcDbEntity
  8
0
100
AcDbBlockBegin
  2
*D4
 70
     1
 10
0.0
 20
0.0
 30
0.0
  3
*D4
  1

  0
LINE
  5
EF
330
EE
100
AcDbEntity
  8
1
  6
Continuous
 62
     2
100
AcDbLine
 10
200.7645610278
 20
366.491411586034
 30
0.0
 11
158.7645610278
 21
366.491411586034
 31
0.0
  0
LINE
  5
F0
330
EE
100
AcDbEntity
  8
1
  6
Continuous
 62
     2
100
AcDbLine
 10
158.7645610278
 20
360.7016662206
 30
0.0
 11
158.7645610278
 21
368.491411586034
 31
0.0
  0
LINE
  5
F1
330
EE
100
AcDbEntity
  8
1
  6
Continuous
 62
     2
100
AcDbLine
 10
200.7645610278
 20
329.6312624519
 30
0.0
 11
200.7645610278
 21
368.491411586034
 31
0.0
  0
SOLID
  5
F2
330
EE
100
AcDbEntity
  8
1
 62
     2
100
AcDbTrace
 10
197.2645610278
 20
366.0306278444781
 30
0.0
 11
197.2645610278
 21
366.9521953275899
 31
0.0
 12
200.7645610278
 22
366.491411586034
 32
0.0
 13
200.7645610278
 23
366.491411586034
 33
0.0
  0
SOLID
  5
F3
330
EE
100
AcDbEntity
  8
1
 62
     2
100
AcDbTrace
 10
162.2645610278
 20
366.9521953275899
 30
0.0
 11
162.2645610278
 21
366.0306278444781
 31
0.0
 12
158.7645610278
 22
366.491411586034
 32
0.0
 13
158.7645610278
 23
366.491411586034
 33
0.0
  0
MTEXT
  5
F4
330
EE
100
AcDbEntity
  8
1
 62
     3
100
AcDbMText
 10
176.531477247159
 20
368.491411586034
 30
0.0
 40
3.5
 41
0.0
 71
     7
 72
     1
  1
\C3;\C3;\C3;42\C2;\H2.45;\S^ ;\C3;
  7
CONVERTER_11
 11
0.9999999999970619
 21
2.424068405545306E-6
 31
0.0
 73
     1
 44
0.60024009603842
  0
ENDBLK
  5
F6
330
EE
100
AcDbEntity
  8
0
100
AcDbBlockEnd
  0
BLOCK
  5
100
330
F9
100
AcDbEntity
  8
0
100
AcDbBlockBegin
  2
*D5
 70
     1
 10
0.0
 20
0.0
 30
0.0
  3
*D5
  1

  0
LINE
  5
FA
330
F9
100
AcDbEntity
  8
1
  6
Continuous
 62
     2
100
AcDbLine
 10
213.928472750221
 20
319.7141662206
 30
0.0
 11
213.928472750221
 21
299.7141662206
 31
0.0
  0
LINE
  5
FB
330
F9
100
AcDbEntity
  8
1
  6
Continuous
 62
     2
100
AcDbLine
 10
202.7645610278
 20
299.7141662206
 30
0.0
 11
215.928472750221
 21
299.7141662206
 31
0.0
  0
LINE
  5
FC
330
F9
100
AcDbEntity
  8
1
  6
Continuous
 62
     2
100
AcDbLine
 10
202.7645610278
 20
319.7141662206
 30
0.0
 11
215.928472750221
 21
319.7141662206
 31
0.0
  0
SOLID
  5
FD
330
F9
100
AcDbEntity
  8
1
 62
     2
100
AcDbTrace
 10
214.3892564917769
 20
316.2141662206
 30
0.0
 11
213.4676890086651
 21
316.2141662206
 31
0.0
 12
213.928472750221
 22
319.7141662206
 32
0.0
 13
213.928472750221
 23
319.7141662206
 33
0.0
  0
SOLID
  5
FE
330
F9
100
AcDbEntity
  8
1
 62
     2
100
AcDbTrace
 10
213.4676890086651
 20
303.2141662206
 30
0.0
 11
214.3892564917769
 21
303.2141662206
 31
0.0
 12
213.928472750221
 22
299.7141662206
 32
0.0
 13
213.928472750221
 23
299.7141662206
 33
0.0
  0
MTEXT
  5
FF
330
F9
100
AcDbEntity
  8
1
 62
     3
100
AcDbMText
 10
211.928472750221
 20
300.842665914458
 30
0.0
 40
3.5
 41
0.0
 71
     7
 72
     1
  1
\C3;%%c\C3;\C3;20\C2;\H2.45;\S^ ;\C3;
  7
CONVERTER_11
 11
0.0
 21
1.0
 31
0.0
 73
     1
 44
0.60024009603842
  0
ENDBLK
  5
101
330
F9
100
AcDbEntity
  8
0
100
AcDbBlockEnd
  0
BLOCK
  5
10B
330
104
100
AcDbEntity
  8
0
100
AcDbBlockBegin
  2
*D6
 70
     1
 10
0.0
 20
0.0
 30
0.0
  3
*D6
  1

  0
LINE
  5
105
330
104
100
AcDbEntity
  8
1
  6
Continuous
 62
     2
100
AcDbLine
 10
222.919364415801
 20
335.7141662206
 30
0.0
 11
222.919364415801
 21
283.7141662206
 31
0.0
  0
LINE
  5
106
330
104
100
AcDbEntity
  8
1
  6
Continuous
 62
     2
100
AcDbLine
 10
189.4966118354
 20
283.7141662206
 30
0.0
 11
224.919364415801
 21
283.7141662206
 31
0.0
  0
LINE
  5
107
330
104
100
AcDbEntity
  8
1
  6
Continuous
 62
     2
100
AcDbLine
 10
189.4966118354
 20
335.7141662206
 30
0.0
 11
224.919364415801
 21
335.7141662206
 31
0.0
  0
SOLID
  5
108
330
104
100
AcDbEntity
  8
1
 62
     2
100
AcDbTrace
 10
223.3801481573569
 20
332.2141662206
 30
0.0
 11
222.4585806742451
 21
332.2141662206
 31
0.0
 12
222.919364415801
 22
335.7141662206
 32
0.0
 13
222.919364415801
 23
335.7141662206
 33
0.0
  0
SOLID
  5
109
330
104
100
AcDbEntity
  8
1
 62
     2
100
AcDbTrace
 10
222.4585806742451
 20
287.2141662206
 30
0.0
 11
223.3801481573569
 21
287.2141662206
 31
0.0
 12
222.919364415801
 22
283.7141662206
 32
0.0
 13
222.919364415801
 23
283.7141662206
 33
0.0
  0
MTEXT
  5
10A
330
104
100
AcDbEntity
  8
1
 62
     3
100
AcDbMText
 10
220.919364415801
 20
300.842665914458
 30
0.0
 40
3.5
 41
0.0
 71
     7
 72
     1
  1
\C3;%%c\C3;\C3;52\C2;\H2.45;\S^ ;\C3;
  7
CONVERTER_11
 11
0.0
 21
1.0
 31
0.0
 73
     1
 44
0.60024009603842
  0
ENDBLK
  5
10C
330
104
100
AcDbEntity
  8
0
100
AcDbBlockEnd
  0
BLOCK
  5
113
330
10F
100
AcDbEntity
  8
0
100
AcDbBlockBegin
  2
*D7
 70
     1
 10
0.0
 20
0.0
 30
0.0
  3
*D7
  1

  0
LINE
  5
110
330
10F
100
AcDbEntity
  8
1
  6
Continuous
 62
     2
100
AcDbLine
 10
169.6247399374354
 20
346.9573969157597
 30
0.0
 11
160.6857025206969
 21
337.3138351786177
 31
0.0
  0
SOLID
  5
111
330
10F
100
AcDbEntity
  8
1
 62
     2
100
AcDbTrace
 10
162.7271031495722
 20
340.193940233804
 30
0.0
 11
163.4029701501086
 21
339.5674496724107
 31
0.0
 12
160.6857025206969
 22
337.3138351786177
 32
0.0
 13
160.6857025206969
 23
337.3138351786177
 33
0.0
  0
MTEXT
  5
112
330
10F
100
AcDbEntity
  8
1
 62
     3
100
AcDbMText
 10
163.1137745696572
 20
342.8752736962093
 30
0.0
 40
3.5
 41
0.0
 71
     7
 72
     1
  1
\C3; R\C3;\C3;6\C2;\H2.45;\S^ ;\C3;
  7
CONVERTER_11
 11
0.6798097511838465
 21
0.7333885069970464
 31
0.0
 73
     1
 44
0.60024009603842
  0
ENDBLK
  5
114
330
10F
100
AcDbEntity
  8
0
100
AcDbBlockEnd
  0
ENDSEC
  0
SECTION
  2
ENTITIES
  0
INSERT
  5
6E
330
1F
100
AcDbEntity
  8
0
100
AcDbBlockReference
  2
Urheberrecht_DE-EN
 10
10.3071047536978
 20
320.304511495656
 30
0.0
  0
LINE
  5
72
330
1F
100
AcDbEntity
  8
BEZUGSACHSEN
  6
HIDDEN
 62
     8
100
AcDbLine
 10
167.7645610278
 20
319.7141662206
 30
0.0
 11
167.7645610278
 21
335.7141662206
 31
0.0
  0
LINE
  5
73
330
1F
100
AcDbEntity
  8
BEZUGSACHSEN
  6
HIDDEN
 62
     8
100
AcDbLine
 10
183.7645610278
 20
319.7141662206
 30
0.0
 11
183.7645610278
 21
335.7141662206
 31
0.0
  0
LINE
  5
74
330
1F
100
AcDbEntity
  8
RUNDUNGEN
  6
Continuous
 62
     7
100
AcDbLine
 10
200.7645610278
 20
291.7970699892
 30
0.0
 11
200.7645610278
 21
327.6312624519
 31
0.0
  0
LINE
  5
75
330
1F
100
AcDbEntity
  8
RUNDUNGEN
  6
Continuous
 62
     9
100
AcDbLine
 10
200.2645610278
 20
290.9310445854
 30
0.0
 11
200.2645610278
 21
328.4972878557
 31
0.0
  0
LINE
  5
76
330
1F
100
AcDbEntity
  8
RUNDUNGEN
  6
Continuous
 62
     9
100
AcDbLine
 10
187.9966118354
 20
283.8481408168
 30
0.0
 11
187.9966118354
 21
335.5801916243
 31
0.0
  0
LINE
  5
77
330
1F
100
AcDbEntity
  8
RUNDUNGEN
  6
Continuous
 62
     9
100
AcDbLine
 10
187.4966118354
 20
283.7141662206
 30
0.0
 11
187.4966118354
 21
335.7141662206
 31
0.0
  0
LINE
  5
78
330
1F
100
AcDbEntity
  8
BEZUGSACHSEN
  6
HIDDEN
 62
     8
100
AcDbLine
 10
182.7645610278
 20
319.7141662206
 30
0.0
 11
182.7645610278
 21
335.7141662206
 31
0.0
  0
LWPOLYLINE
  5
79
330
1F
100
AcDbEntity
  8
BEZUGSACHSEN
  6
DOT_CENTER
 62
     7
100
AcDbPolyline
 90
        2
 70
     0
 43
0.25
 10
175.7645610278
 20
338.7141662206
 10
175.7645610278
 20
313.8509007334
  0
LINE
  5
7A
330
1F
100
AcDbEntity
  8
RUNDUNGEN
  6
Continuous
 62
     7
100
AcDbLine
 10
200.2645610278
 20
328.4972878557
 30
0.0
 11
187.9966118354
 21
335.5801916243
 31
0.0
  0
LINE
  5
7B
330
1F
100
AcDbEntity
  8
0
  6
Continuous
 62
     7
100
AcDbLine
 10
187.9966118354
 20
335.5801916243
 30
0.0
 11
200.2645610278
 21
328.4972878557
 31
0.0
  0
LINE
  5
7C
330
1F
100
AcDbEntity
  8
0
  6
Continuous
 62
     7
100
AcDbLine
 10
187.9966118354
 20
283.8481408168
 30
0.0
 11
200.2645610278
 21
290.9310445854
 31
0.0
  0
LINE
  5
7D
330
1F
100
AcDbEntity
  8
BEZUGSACHSEN
  6
HIDDEN
 62
     8
100
AcDbLine
 10
168.7645610278
 20
319.7141662206
 30
0.0
 11
168.7645610278
 21
335.7141662206
 31
0.0
  0
LINE
  5
7E
330
1F
100
AcDbEntity
  8
0
  6
Continuous
 62
     7
100
AcDbLine
 10
124.7645610278
 20
359.7016662206
 30
0.0
 11
136.4338927917
 21
359.7016662206
 31
0.0
  0
LINE
  5
7F
330
1F
100
AcDbEntity
  8
0
  6
Continuous
 62
     7
100
AcDbLine
 10
157.7645610278
 20
359.7016662206
 30
0.0
 11
151.495229264
 21
359.7016662206
 31
0.0
  0
LINE
  5
80
330
1F
100
AcDbEntity
  8
RUNDUNGEN
  6
Continuous
 62
     9
100
AcDbLine
 10
164.7645610278
 20
335.7141662206
 30
0.0
 11
164.7645610278
 21
283.7141662206
 31
0.0
  0
LINE
  5
81
330
1F
100
AcDbEntity
  8
0
  6
Continuous
 62
     7
100
AcDbLine
 10
136.4338927917
 20
359.7016662206
 30
0.0
 11
140.4270610278
 21
352.7852959523
 31
0.0
  0
LINE
  5
82
330
1F
100
AcDbEntity
  8
0
  6
Continuous
 62
     7
100
AcDbLine
 10
136.4338927917
 20
259.7266662206
 30
0.0
 11
140.4270610278
 21
266.6430364888
 31
0.0
  0
LINE
  5
83
330
1F
100
AcDbEntity
  8
0
  6
Continuous
 62
     7
100
AcDbLine
 10
158.7645610278
 20
358.7016662206
 30
0.0
 11
158.7645610278
 21
260.7266662206
 31
0.0
  0
LINE
  5
84
330
1F
100
AcDbEntity
  8
0
  6
Continuous
 62
     9
100
AcDbLine
 10
157.7645610278
 20
359.7016662206
 30
0.0
 11
157.7645610278
 21
259.7266662206
 31
0.0
  0
LINE
  5
85
330
1F
100
AcDbEntity
  8
0
  6
Continuous
 62
     7
100
AcDbLine
 10
121.1145610278
 20
344.2891662206
 30
0.0
 11
120.1453704116
 21
344.5488600635
 31
0.0
  0
LINE
  5
86
330
1F
100
AcDbEntity
  8
0
  6
Continuous
 62
     7
100
AcDbLine
 10
140.6770610278
 20
352.0891662206
 30
0.0
 11
147.2520610278
 21
352.0891662206
 31
0.0
  0
LINE
  5
87
330
1F
100
AcDbEntity
  8
0
  6
Continuous
 62
     7
100
AcDbLine
 10
151.495229264
 20
299.2465259136
 30
0.0
 11
151.495229264
 21
259.7266662206
 31
0.0
  0
LINE
  5
88
330
1F
100
AcDbEntity
  8
0
  6
Continuous
 62
     7
100
AcDbLine
 10
151.495229264
 20
359.7016662206
 30
0.0
 11
151.495229264
 21
320.1818163989
 31
0.0
  0
LINE
  5
89
330
1F
100
AcDbEntity
  8
0
  6
Continuous
 62
     7
100
AcDbLine
 10
147.5020610278
 20
321.4368965446
 30
0.0
 11
147.5020610278
 21
352.7852959523
 31
0.0
  0
LINE
  5
8A
330
1F
100
AcDbEntity
  8
0
  6
Continuous
 62
     7
100
AcDbLine
 10
147.5020610278
 20
266.6430364888
 30
0.0
 11
147.5020610278
 21
297.9914358965
 31
0.0
  0
LINE
  5
8B
330
1F
100
AcDbEntity
  8
0
  6
Continuous
 62
     9
100
AcDbLine
 10
147.2520610278
 20
321.5486457719
 30
0.0
 11
147.2520610278
 21
352.0891662206
 31
0.0
  0
LINE
  5
8C
330
1F
100
AcDbEntity
  8
0
  6
Continuous
 62
     9
100
AcDbLine
 10
147.2520610278
 20
267.3391662206
 30
0.0
 11
147.2520610278
 21
297.8796866693
 31
0.0
  0
LINE
  5
8D
330
1F
100
AcDbEntity
  8
0
  6
Continuous
 62
     7
100
AcDbLine
 10
122.7645610278
 20
344.2891662206
 30
0.0
 11
121.1145610278
 21
344.2891662206
 31
0.0
  0
LINE
  5
8E
330
1F
100
AcDbEntity
  8
0
  6
Continuous
 62
     7
100
AcDbLine
 10
120.1453704116
 20
344.5488600635
 30
0.0
 11
19.8202423587
 21
329.9168928919
 31
0.0
  0
LINE
  5
8F
330
1F
100
AcDbEntity
  8
0
  6
Continuous
 62
     9
100
AcDbLine
 10
140.6770610278
 20
322.6166662206
 30
0.0
 11
140.6770610278
 21
352.0891662206
 31
0.0
  0
LINE
  5
90
330
1F
100
AcDbEntity
  8
0
  6
Continuous
 62
     9
100
AcDbLine
 10
140.6770610278
 20
267.3391662206
 30
0.0
 11
140.6770610278
 21
296.8116662206
 31
0.0
  0
LINE
  5
91
330
1F
100
AcDbEntity
  8
DEFAULT_2
  6
HIDDEN
 62
     8
100
AcDbLine
 10
140.6645610278
 20
319.7141662206
 30
0.0
 11
140.6645610278
 21
299.7141662206
 31
0.0
  0
LINE
  5
92
330
1F
100
AcDbEntity
  8
0
  6
Continuous
 62
     7
100
AcDbLine
 10
140.4270610278
 20
296.8116662206
 30
0.0
 11
140.4270610278
 21
266.6431848986
 31
0.0
  0
LINE
  5
93
330
1F
100
AcDbEntity
  8
0
  6
Continuous
 62
     7
100
AcDbLine
 10
140.4270610278
 20
352.7851475425
 30
0.0
 11
140.4270610278
 21
322.6166662206
 31
0.0
  0
LINE
  5
94
330
1F
100
AcDbEntity
  8
0
  6
Continuous
 62
     7
100
AcDbLine
 10
182.7645610278
 20
335.7141662206
 30
0.0
 11
187.4966118354
 21
335.7141662206
 31
0.0
  0
LINE
  5
95
330
1F
100
AcDbEntity
  8
0
  6
Continuous
 62
     7
100
AcDbLine
 10
164.7645610278
 20
335.7141662206
 30
0.0
 11
168.7645610278
 21
335.7141662206
 31
0.0
  0
LINE
  5
96
330
1F
100
AcDbEntity
  8
RUNDUNGEN
  6
Continuous
 62
     7
100
AcDbLine
 10
168.7645610278
 20
335.7141662206
 30
0.0
 11
164.7645610278
 21
335.7141662206
 31
0.0
  0
LINE
  5
97
330
1F
100
AcDbEntity
  8
RUNDUNGEN
  6
Continuous
 62
     7
100
AcDbLine
 10
187.4966118354
 20
335.7141662206
 30
0.0
 11
182.7645610278
 21
335.7141662206
 31
0.0
  0
LINE
  5
98
330
1F
100
AcDbEntity
  8
0
  6
Continuous
 62
     7
100
AcDbLine
 10
136.4338927917
 20
295.5278693336
 30
0.0
 11
136.4338927917
 21
259.7266662206
 31
0.0
  0
LINE
  5
99
330
1F
100
AcDbEntity
  8
0
  6
Continuous
 62
     7
100
AcDbLine
 10
136.4338927917
 20
359.7016662206
 30
0.0
 11
136.4338927917
 21
323.9004631075
 31
0.0
  0
LINE
  5
9A
330
1F
100
AcDbEntity
  8
FASEN
  6
Continuous
 62
     7
100
AcDbLine
 10
123.7645610278
 20
323.6166662206
 30
0.0
 11
124.7645610278
 21
322.6166662206
 31
0.0
  0
LINE
  5
9B
330
1F
100
AcDbEntity
  8
FASEN
  6
Continuous
 62
     7
100
AcDbLine
 10
123.7645610278
 20
295.8116662206
 30
0.0
 11
124.7645610278
 21
296.8116662206
 31
0.0
  0
LINE
  5
9C
330
1F
100
AcDbEntity
  8
0
  6
Continuous
 62
     9
100
AcDbLine
 10
124.7645610278
 20
323.9004631075
 30
0.0
 11
124.7645610278
 21
359.7016662206
 31
0.0
  0
LINE
  5
9D
330
1F
100
AcDbEntity
  8
FASEN
  6
Continuous
 62
     9
100
AcDbLine
 10
124.7645610278
 20
295.5278693336
 30
0.0
 11
124.7645610278
 21
296.8116662206
 31
0.0
  0
LINE
  5
9E
330
1F
100
AcDbEntity
  8
0
  6
Continuous
 62
     9
100
AcDbLine
 10
124.7645610278
 20
259.7266662206
 30
0.0
 11
124.7645610278
 21
295.5278693336
 31
0.0
  0
LINE
  5
9F
330
1F
100
AcDbEntity
  8
FASEN
  6
Continuous
 62
     9
100
AcDbLine
 10
124.7645610278
 20
323.9004631075
 30
0.0
 11
124.7645610278
 21
322.6166662206
 31
0.0
  0
LINE
  5
A0
330
1F
100
AcDbEntity
  8
0
  6
Continuous
 62
     7
100
AcDbLine
 10
147.5020610278
 20
266.6430364888
 30
0.0
 11
151.495229264
 21
259.7266662206
 31
0.0
  0
LINE
  5
A1
330
1F
100
AcDbEntity
  8
0
  6
Continuous
 62
     7
100
AcDbLine
 10
124.7645610278
 20
323.9004631075
 30
0.0
 11
136.4338927917
 21
323.9004631075
 31
0.0
  0
LINE
  5
A2
330
1F
100
AcDbEntity
  8
0
  6
Continuous
 62
     7
100
AcDbLine
 10
124.7645610278
 20
322.6166662206
 30
0.0
 11
142.1120610278
 21
322.6166662206
 31
0.0
  0
LINE
  5
A3
330
1F
100
AcDbEntity
  8
DEFAULT_2
  6
HIDDEN
 62
     8
100
AcDbLine
 10
140.6645610278
 20
319.7141662206
 30
0.0
 11
168.7645610278
 21
319.7141662206
 31
0.0
  0
LINE
  5
A4
330
1F
100
AcDbEntity
  8
BEZUGSACHSEN
  6
HIDDEN
 62
     8
100
AcDbLine
 10
200.7645610278
 20
319.7141662206
 30
0.0
 11
168.7645610278
 21
319.7141662206
 31
0.0
  0
LINE
  5
A5
330
1F
100
AcDbEntity
  8
0
  6
Continuous
 62
     7
100
AcDbLine
 10
147.5020610278
 20
352.7852959523
 30
0.0
 11
151.495229264
 21
359.7016662206
 31
0.0
  0
LINE
  5
A6
330
1F
100
AcDbEntity
  8
FASEN
  6
Continuous
 62
     7
100
AcDbLine
 10
123.7645610278
 20
314.8659256288
 30
0.0
 11
123.7645610278
 21
358.70153878
 31
0.0
  0
LINE
  5
A7
330
1F
100
AcDbEntity
  8
FASEN
  6
Continuous
 62
     7
100
AcDbLine
 10
123.7645610278
 20
260.7267936024
 30
0.0
 11
123.7645610278
 21
304.5624068124
 31
0.0
  0
LINE
  5
A8
330
1F
100
AcDbEntity
  8
0
  6
Continuous
 62
     7
100
AcDbLine
 10
123.7645610278
 20
295.8116662206
 30
0.0
 11
123.7645610278
 21
260.7352378394
 31
0.0
  0
LINE
  5
A9
330
1F
100
AcDbEntity
  8
0
  6
Continuous
 62
     7
100
AcDbLine
 10
123.7645610278
 20
358.658562563
 30
0.0
 11
123.7645610278
 21
323.6166662206
 31
0.0
  0
LINE
  5
AA
330
1F
100
AcDbEntity
  8
0
  6
Continuous
 62
     9
100
AcDbLine
 10
122.7645610278
 20
344.2891662206
 30
0.0
 11
122.7645610278
 21
275.1391662206
 31
0.0
  0
LINE
  5
AB
330
1F
100
AcDbEntity
  8
0
  6
Continuous
 62
     7
100
AcDbLine
 10
121.1145610278
 20
344.2891662206
 30
0.0
 11
121.1145610278
 21
275.1391662206
 31
0.0
  0
LWPOLYLINE
  5
AC
330
1F
100
AcDbEntity
  8
TEIL_STARTBEZUEGE
  6
DOT_CENTER
 62
     7
100
AcDbPolyline
 90
        2
 70
     0
 43
0.25
 10
120.7645610278
 20
256.7266662206
 10
120.7645610278
 20
362.7016662206
  0
LINE
  5
AD
330
1F
100
AcDbEntity
  8
0
  6
Continuous
 62
     7
100
AcDbLine
 10
120.1453704116
 20
344.5488600635
 30
0.0
 11
120.1453704116
 21
274.8794723776
 31
0.0
  0
LWPOLYLINE
  5
AE
330
1F
100
AcDbEntity
  8
TEIL_STARTBEZUEGE
  6
DOT_CENTER
 62
     7
100
AcDbPolyline
 90
        2
 70
     0
 43
0.25
 10
203.7645610278
 20
309.7141662206
 10
15.9645610278
 20
309.7141662206
  0
LINE
  5
AF
330
1F
100
AcDbEntity
  8
DEFAULT_2
  6
HIDDEN
 62
     8
100
AcDbLine
 10
200.7645610278
 20
299.7141662206
 30
0.0
 11
140.6645610278
 21
299.7141662206
 31
0.0
  0
LINE
  5
B0
330
1F
100
AcDbEntity
  8
0
  6
Continuous
 62
     7
100
AcDbLine
 10
124.7645610278
 20
296.8116662206
 30
0.0
 11
142.1120610278
 21
296.8116662206
 31
0.0
  0
LINE
  5
B1
330
1F
100
AcDbEntity
  8
0
  6
Continuous
 62
     7
100
AcDbLine
 10
136.4338927917
 20
295.5278693336
 30
0.0
 11
124.7645610278
 21
295.5278693336
 31
0.0
  0
LINE
  5
B2
330
1F
100
AcDbEntity
  8
0
  6
Continuous
 62
     7
100
AcDbLine
 10
164.7645610278
 20
283.7141662206
 30
0.0
 11
187.4966118354
 21
283.7141662206
 31
0.0
  0
LINE
  5
B3
330
1F
100
AcDbEntity
  8
0
  6
Continuous
 62
     7
100
AcDbLine
 10
19.8202423587
 20
289.5114395493
 30
0.0
 11
120.1453704116
 21
274.8794723776
 31
0.0
  0
LINE
  5
B4
330
1F
100
AcDbEntity
  8
0
  6
Continuous
 62
     7
100
AcDbLine
 10
122.7645610278
 20
275.1391662206
 30
0.0
 11
121.1145610278
 21
275.1391662206
 31
0.0
  0
LINE
  5
B5
330
1F
100
AcDbEntity
  8
0
  6
Continuous
 62
     7
100
AcDbLine
 10
121.1145610278
 20
275.1391662206
 30
0.0
 11
120.1453704116
 21
274.8794723776
 31
0.0
  0
LINE
  5
B6
330
1F
100
AcDbEntity
  8
0
  6
Continuous
 62
     7
100
AcDbLine
 10
140.6770610278
 20
267.3391662206
 30
0.0
 11
147.2520610278
 21
267.3391662206
 31
0.0
  0
LINE
  5
B7
330
1F
100
AcDbEntity
  8
0
  6
Continuous
 62
     7
100
AcDbLine
 10
124.7645610278
 20
259.7266662206
 30
0.0
 11
136.4338927917
 21
259.7266662206
 31
0.0
  0
LINE
  5
B8
330
1F
100
AcDbEntity
  8
0
  6
Continuous
 62
     7
100
AcDbLine
 10
157.7645610278
 20
259.7266662206
 30
0.0
 11
151.495229264
 21
259.7266662206
 31
0.0
  0
LINE
  5
B9
330
1F
100
AcDbEntity
  8
0
  6
Continuous
 62
     9
100
AcDbLine
 10
19.8202423587
 20
329.9168928919
 30
0.0
 11
19.8202423587
 21
289.5114395493
 31
0.0
  0
LINE
  5
BA
330
1F
100
AcDbEntity
  8
0
  6
Continuous
 62
     7
100
AcDbLine
 10
18.9645610278
 20
328.9273616282
 30
0.0
 11
18.9645610278
 21
290.5009708129
 31
0.0
  0
ARC
  5
BB
330
1F
100
AcDbEntity
  8
0
  6
Continuous
 62
     7
100
AcDbCircle
 10
140.6770610278
 20
352.3391662206
 30
0.0
 40
0.25
100
AcDbArc
 50
180.0
 51
270.0
  0
ARC
  5
BC
330
1F
100
AcDbEntity
  8
0
  6
Continuous
 62
     7
100
AcDbCircle
 10
147.2520610278
 20
352.3391662206
 30
0.0
 40
0.25
100
AcDbArc
 50
270.0
 51
0.0
  0
ARC
  5
BD
330
1F
100
AcDbEntity
  8
0
  6
Continuous
 62
     7
100
AcDbCircle
 10
157.7645610278
 20
358.7016662206
 30
0.0
 40
1.0
100
AcDbArc
 50
0.0
 51
90.0
  0
ARC
  5
BE
330
1F
100
AcDbEntity
  8
0
  6
Continuous
 62
     7
100
AcDbCircle
 10
124.7645610278
 20
358.7016662206
 30
0.0
 40
1.0
100
AcDbArc
 50
90.0
 51
180.0
  0
ARC
  5
BF
330
1F
100
AcDbEntity
  8
0
  6
Continuous
 62
     7
100
AcDbCircle
 10
122.7645610278
 20
345.2891662206
 30
0.0
 40
1.0
100
AcDbArc
 50
270.0
 51
0.0
  0
ARC
  5
C0
330
1F
100
AcDbEntity
  8
RUNDUNGEN
  6
Continuous
 62
     7
100
AcDbCircle
 10
187.4966118354
 20
334.7141662206
 30
0.0
 40
0.9999999999268803
100
AcDbArc
 50
59.99999999758122
 51
90.0
  0
ARC
  5
C1
330
1F
100
AcDbEntity
  8
RUNDUNGEN
  6
Continuous
 62
     7
100
AcDbCircle
 10
199.7645610278
 20
327.6312624519
 30
0.0
 40
1.0
100
AcDbArc
 50
0.0
 51
60.00000000044565
  0
ARC
  5
C2
330
1F
100
AcDbEntity
  8
RUNDUNGEN
  6
Continuous
 62
     7
100
AcDbCircle
 10
164.7645610278
 20
341.7141662206
 30
0.0
 40
6.0
100
AcDbArc
 50
180.0
 51
270.0
  0
ARC
  5
C3
330
1F
100
AcDbEntity
  8
0
  6
Continuous
 62
     7
100
AcDbCircle
 10
142.1120610278
 20
309.7141662206
 30
0.0
 40
12.90250000000003
100
AcDbArc
 50
270.0
 51
90.0
  0
ARC
  5
C4
330
1F
100
AcDbEntity
  8
0
  6
Continuous
 62
     7
100
AcDbCircle
 10
278.5154562769
 20
387.9062134128
 30
0.0
 40
154.9021570471998
100
AcDbArc
 50
214.4839903095001
 51
214.9149101174819
  0
ARC
  5
C5
330
1F
100
AcDbEntity
  8
0
  6
Continuous
 62
     7
100
AcDbCircle
 10
140.6770610278
 20
267.0891662206
 30
0.0
 40
0.25
100
AcDbArc
 50
90.0
 51
180.0
  0
ARC
  5
C6
330
1F
100
AcDbEntity
  8
0
  6
Continuous
 62
     7
100
AcDbCircle
 10
147.2520610278
 20
267.0891662206
 30
0.0
 40
0.25
100
AcDbArc
 50
0.0
 51
90.0
  0
ARC
  5
C7
330
1F
100
AcDbEntity
  8
0
  6
Continuous
 62
     7
100
AcDbCircle
 10
124.7645610278
 20
260.7266662206
 30
0.0
 40
1.0
100
AcDbArc
 50
180.0
 51
270.0
  0
ARC
  5
C8
330
1F
100
AcDbEntity
  8
0
  6
Continuous
 62
     7
100
AcDbCircle
 10
122.7645610278
 20
274.1391662206
 30
0.0
 40
1.0
100
AcDbArc
 50
0.0
 51
90.0
  0
ARC
  5
C9
330
1F
100
AcDbEntity
  8
0
  6
Continuous
 62
     7
100
AcDbCircle
 10
157.7645610278
 20
260.7266662206
 30
0.0
 40
1.0
100
AcDbArc
 50
270.0
 51
0.0
  0
ARC
  5
CA
330
1F
100
AcDbEntity
  8
RUNDUNGEN
  6
Continuous
 62
     7
100
AcDbCircle
 10
187.4966118354
 20
284.7141662206
 30
0.0
 40
1.0
100
AcDbArc
 50
270.0
 51
299.9999999995543
  0
ARC
  5
CB
330
1F
100
AcDbEntity
  8
RUNDUNGEN
  6
Continuous
 62
     7
100
AcDbCircle
 10
199.7645610278
 20
291.7970699892
 30
0.0
 40
1.000000000013472
100
AcDbArc
 50
299.9999999995543
 51
0.0
  0
ARC
  5
CC
330
1F
100
AcDbEntity
  8
RUNDUNGEN
  6
Continuous
 62
     7
100
AcDbCircle
 10
164.7645610278
 20
277.7141662206
 30
0.0
 40
6.0
100
AcDbArc
 50
90.0
 51
180.0
  0
ARC
  5
CD
330
1F
100
AcDbEntity
  8
0
  6
Continuous
 62
     7
100
AcDbCircle
 10
278.5186365705
 20
231.5199210625
 30
0.0
 40
154.9060285734411
100
AcDbArc
 50
145.0850935211684
 51
145.5160052751999
  0
ARC
  5
CE
330
1F
100
AcDbEntity
  8
0
  6
Continuous
 62
     7
100
AcDbCircle
 10
19.9645610278
 20
328.9273616282
 30
0.0
 40
1.00000000004523
100
AcDbArc
 50
98.29782682374545
 51
180.0
  0
ARC
  5
CF
330
1F
100
AcDbEntity
  8
0
  6
Continuous
 62
     7
100
AcDbCircle
 10
-61.4901585467
 20
409.8119860608
 30
0.0
 40
228.549315103594
100
AcDbArc
 50
329.9972617610292
 51
330.3682092199999
  0
ARC
  5
D0
330
1F
100
AcDbEntity
  8
0
  6
Continuous
 62
     7
100
AcDbCircle
 10
19.9645610278
 20
290.5009708129
 30
0.0
 40
1.0
100
AcDbArc
 50
180.0
 51
261.7021731754277
  0
ARC
  5
D1
330
1F
100
AcDbEntity
  8
0
  6
Continuous
 62
     7
100
AcDbCircle
 10
-61.4901585479
 20
209.6163463796
 30
0.0
 40
228.549315105
100
AcDbArc
 50
29.63179078000006
 51
30.00273823897237
  0
SPLINE
  5
D2
330
1F
100
AcDbEntity
  8
0
  6
Continuous
 62
     7
100
AcDbSpline
210
0.0
220
0.0
230
1.0
 70
     8
 71
     3
 72
    19
 73
    15
 74
    13
 42
0.0000000001
 43
0.0000000001
 44
0.00000001
 40
0.0
 40
0.0
 40
0.0
 40
0.0
 40
1.288046120701328
 40
2.576183163062836
 40
3.220235598639626
 40
3.864273041928827
 40
4.508318825040057
 40
5.152368395182756
 40
5.796417964790311
 40
6.440463747374675
 40
7.084501190693006
 40
7.728553626302683
 40
9.016690669210607
 40
10.30473679047377
 40
10.30473679047377
 40
10.30473679047377
 40
10.30473679047377
 10
123.7645610278
 20
304.5624068124
 30
0.0
 10
123.7614290630476
 20
304.9917528147059
 30
0.0
 10
123.755164912461
 20
305.8504751263471
 30
0.0
 10
123.7283351949009
 20
306.9235828120912
 30
0.0
 10
123.7109020420251
 20
307.7821460689617
 30
0.0
 10
123.7001505068207
 20
308.4261047408201
 30
0.0
 10
123.6932848623431
 20
309.0701167748049
 30
0.0
 10
123.6907992661719
 20
309.7141662203345
 30
0.0
 10
123.6932848660946
 20
310.3582156656721
 30
0.0
 10
123.7001505125739
 20
311.0022276992847
 30
0.0
 10
123.7109020462945
 20
311.6461863710081
 30
0.0
 10
123.7283351957037
 20
312.5047496281545
 30
0.0
 10
123.7551649121435
 20
313.5778573143024
 30
0.0
 10
123.7614290629417
 20
314.4365796263088
 30
0.0
 10
123.7645610278
 20
314.8659256288
 30
0.0
 11
123.7645610278
 21
304.5624068124
 31
0.0
 11
123.7513655069656
 21
305.8503853398933
 31
0.0
 11
123.724312621999
 21
307.1382382745558
 31
0.0
 11
123.7112891320502
 21
307.7821590216062
 31
0.0
 11
123.7007981879718
 21
308.4261110139556
 31
0.0
 11
123.6940148860249
 21
309.0701210740929
 31
0.0
 11
123.6916278004782
 21
309.7141662205102
 31
0.0
 11
123.6940148894846
 21
310.3582113663794
 31
0.0
 11
123.7007981931411
 21
311.0022214259718
 31
0.0
 11
123.7112891361326
 21
311.6461734183681
 31
0.0
 11
123.72431262388
 21
312.2900941654959
 31
0.0
 11
123.7513655069246
 21
313.5779471007453
 31
0.0
 11
123.7645610278
 21
314.8659256288
 31
0.0
  0
SPLINE
  5
D3
330
1F
100
AcDbEntity
  8
0
  6
Continuous
 62
     7
100
AcDbSpline
210
0.0
220
0.0
230
1.0
 70
     8
 71
     3
 72
    31
 73
    27
 74
    25
 42
0.0000000001
 43
0.0000000001
 44
0.00000001
 40
0.0
 40
0.0
 40
0.0
 40
0.0
 40
0.7376437759163009
 40
1.475498326862272
 40
2.213122477513981
 40
2.950705019400404
 40
3.686177655971525
 40
4.421611652237213
 40
5.154930002604464
 40
5.888438802516617
 40
7.349257460202884
 40
8.81087224165318
 40
10.26734972642584
 40
11.72357900845673
 40
13.17967656774378
 40
14.63602209579055
 40
16.09756845528532
 40
17.55831898094029
 40
18.29183757329807
 40
19.02516554600746
 40
19.76065888271557
 40
20.49619142770116
 40
21.23383484431527
 40
21.97151871257458
 40
22.70940763854944
 40
23.44708703443018
 40
23.44708703443018
 40
23.44708703443018
 40
23.44708703443018
 10
151.4952209029
 20
320.1818048681
 30
0.0
 10
151.6724577355832
 20
320.0112984482352
 30
0.0
 10
152.0269820447698
 20
319.6702368878399
 30
0.0
 10
152.5237828023243
 20
319.1241952044561
 30
0.0
 10
152.9932181483975
 20
318.5548121494815
 30
0.0
 10
153.4313021337747
 20
317.9618303528683
 30
0.0
 10
153.8377574676538
 20
317.3476639995584
 30
0.0
 10
154.2112239600628
 20
316.7145400170538
 30
0.0
 10
154.55132682909
 20
316.0636112711663
 30
0.0
 10
154.9584098185127
 20
315.1762994663114
 30
0.0
 10
155.381002103695
 20
314.0308352222706
 30
0.0
 10
155.7459957547722
 20
312.6150481607251
 30
0.0
 10
155.9655882401044
 20
311.171050755484
 30
0.0
 10
156.0390401376758
 20
309.7141780053137
 30
0.0
 10
155.9655903903981
 20
308.2573497797219
 30
0.0
 10
155.7460280323775
 20
306.8134604485577
 30
0.0
 10
155.381081032439
 20
305.3977541872836
 30
0.0
 10
154.958527846931
 20
304.2523208155051
 30
0.0
 10
154.5514710993628
 20
303.3650148092693
 30
0.0
 10
154.2113693949172
 20
302.7140558001268
 30
0.0
 10
153.8378919558845
 20
302.0808883305444
 30
0.0
 10
153.4314146812752
 20
301.4666645490623
 30
0.0
 10
152.9933096454655
 20
300.8736235325813
 30
0.0
 10
152.5238473528532
 20
300.3041949692907
 30
0.0
 10
152.0270003305636
 20
299.7581371101013
 30
0.0
 10
151.6724632222801
 20
299.4170554982843
 30
0.0
 10
151.4952198402
 20
299.2465389091
 30
0.0
 11
151.4952209029
 21
320.1818048681
 31
0.0
 11
152.0211067914961
 21
319.6645405523739
 31
0.0
 11
152.5192741646336
 21
319.1202441196344
 31
0.0
 11
152.9880807110986
 21
318.5507620658204
 31
0.0
 11
153.4265036556249
 21
317.9576235256727
 31
0.0
 11
153.8323917564618
 21
317.3442925801434
 31
0.0
 11
154.2060592251322
 21
316.7108608271338
 31
0.0
 11
154.5456568814486
 21
316.0609152641751
 31
0.0
 11
154.851527314921
 21
315.3942231032223
 31
0.0
 11
155.3573696190223
 21
314.0237798486415
 31
0.0
 11
155.7221533946945
 21
312.608417504095
 31
0.0
 11
155.9412845292541
 21
311.1685188237996
 31
0.0
 11
156.0145579204903
 21
309.7141341662963
 31
0.0
 11
155.9412911234962
 21
308.2598810663787
 31
0.0
 11
155.7221933506681
 21
306.8201107850479
 31
0.0
 11
155.3574505180889
 21
305.4048085462895
 31
0.0
 11
154.8516606988148
 21
304.0344185445309
 31
0.0
 11
154.5458008338317
 21
303.3677107612202
 31
0.0
 11
154.2062120316694
 21
302.7177497154613
 31
0.0
 11
153.8325259592704
 21
302.0842600410095
 31
0.0
 11
153.4266165316249
 21
301.4708713703597
 31
0.0
 11
152.9881700818589
 21
300.877674505262
 31
0.0
 11
152.5193290471419
 21
300.3081434932394
 31
0.0
 11
152.0211289523439
 21
299.7638304099688
 31
0.0
 11
151.4952198402
 21
299.2465389091
 31
0.0
  0
SPLINE
  5
D4
330
1F
100
AcDbEntity
  8
FASEN
  6
Continuous
 62
     7
100
AcDbSpline
210
0.0
220
0.0
230
1.0
 70
     8
 71
     3
 72
    25
 73
    21
 74
    19
 42
0.0000000001
 43
0.0000000001
 44
0.00000001
 40
0.0
 40
0.0
 40
0.0
 40
0.0
 40
0.0975566094255578
 40
0.1951222766869417
 40
0.2893247602099808
 40
0.3835227315274297
 40
0.4709468131192392
 40
0.5583764926268504
 40
0.6362056178833416
 40
0.7140176369143172
 40
0.779822696929471
 40
0.8456700524050208
 40
0.8980832925972968
 40
0.9504116608722546
 40
0.9715430470486396
 40
0.992635069777109
 40
1.010621975977583
 40
1.028726680978007
 40
1.058610548302233
 40
1.088017426482162
 40
1.088017426482162
 40
1.088017426482162
 40
1.088017426482162
 10
124.7645610278
 20
295.5278693336
 30
0.0
 10
124.7320408899959
 20
295.5281126810075
 30
0.0
 10
124.6669975949915
 20
295.5285993984168
 30
0.0
 10
124.5706274480351
 20
295.5327955681284
 30
0.0
 10
124.4755283807547
 20
295.5394624109761
 30
0.0
 10
124.3840380928682
 20
295.5487239027583
 30
0.0
 10
124.2951231751246
 20
295.5605589437541
 30
0.0
 10
124.2120533186124
 20
295.5745945161478
 30
0.0
 10
124.1327032925471
 20
295.5910781222688
 30
0.0
 10
124.0611443523957
 20
295.6093124127748
 30
0.0
 10
123.994400590939
 20
295.6299213322004
 30
0.0
 10
123.9369609283705
 20
295.6516299565839
 30
0.0
 10
123.8852473250592
 20
295.6753940232794
 30
0.0
 10
123.848982283252
 20
295.6967306980046
 30
0.0
 10
123.8235152279192
 20
295.7153359122866
 30
0.0
 10
123.8082055777018
 20
295.7283377196711
 30
0.0
 10
123.7947045497005
 20
295.7418571972798
 30
0.0
 10
123.7810861443151
 20
295.7591057535116
 30
0.0
 10
123.7681144760348
 20
295.7820545950584
 30
0.0
 10
123.765739140753
 20
295.8018487595583
 30
0.0
 10
123.7645610278
 20
295.8116662206
 30
0.0
 11
124.7645610278
 21
295.5278693336
 31
0.0
 11
124.6670132920873
 21
295.5291851223108
 31
0.0
 11
124.5695336645843
 21
295.533281663539
 31
0.0
 11
124.4755672088203
 21
295.5399459784376
 31
0.0
 11
124.3818509248886
 21
295.5494599642663
 31
0.0
 11
124.2952003716395
 21
295.5610639146195
 31
0.0
 11
124.2090036579851
 21
295.5756952308276
 31
0.0
 11
124.1328263154567
 21
295.5916446892355
 31
0.0
 11
124.0574542458045
 21
295.6109775995703
 31
0.0
 11
123.9946304753105
 21
295.6305602394466
 31
0.0
 11
123.933095463888
 21
295.6539977434169
 31
0.0
 11
123.885616042713
 21
295.6761980207201
 31
0.0
 11
123.8406935841384
 21
295.7030351375907
 31
0.0
 11
123.8236640573266
 21
295.7155463604847
 31
0.0
 11
123.8076228883989
 21
295.7292414078453
 31
0.0
 11
123.7949984463893
 21
295.7420535996411
 31
0.0
 11
123.7837826663127
 21
295.7562657993451
 31
0.0
 11
123.7699555563755
 21
295.7827583748529
 31
0.0
 11
123.7645610278
 21
295.8116662206
 31
0.0
  0
SPLINE
  5
D5
330
1F
100
AcDbEntity
  8
FASEN
  6
Continuous
 62
     7
100
AcDbSpline
210
0.0
220
0.0
230
1.0
 70
     8
 71
     3
 72
    25
 73
    21
 74
    19
 42
0.0000000001
 43
0.0000000001
 44
0.00000001
 40
0.0
 40
0.0
 40
0.0
 40
0.0
 40
0.0294068780938791
 40
0.0592907454070623
 40
0.0773954504074866
 40
0.0953823566079501
 40
0.1164743793364564
 40
0.1376057655128192
 40
0.1899341337877769
 40
0.2423473739800401
 40
0.3081947294561159
 40
0.3739997894746868
 40
0.4518118085133447
 40
0.5296409337743557
 40
0.6170706132793845
 40
0.7044946948670198
 40
0.7986926661827811
 40
0.8928951497056514
 40
0.9904608169670353
 40
1.088017426392593
 40
1.088017426392593
 40
1.088017426392593
 40
1.088017426392593
 10
123.7645610278
 20
323.6166662206
 30
0.0
 10
123.7657391407563
 20
323.6264836816118
 30
0.0
 10
123.768114476048
 20
323.6462778460769
 30
0.0
 10
123.7810861443181
 20
323.6692266875909
 30
0.0
 10
123.7947045497003
 20
323.6864752438203
 30
0.0
 10
123.8082055777019
 20
323.6999947214289
 30
0.0
 10
123.8235152279191
 20
323.7129965288136
 30
0.0
 10
123.8489822832521
 20
323.7316017430953
 30
0.0
 10
123.8852473250592
 20
323.7529384178206
 30
0.0
 10
123.9369609283706
 20
323.7767024845161
 30
0.0
 10
123.9944005909404
 20
323.7984111088999
 30
0.0
 10
124.0611443523976
 20
323.819020028336
 30
0.0
 10
124.1327032925455
 20
323.8372543188761
 30
0.0
 10
124.2120533186084
 20
323.8537379250259
 30
0.0
 10
124.295123175124
 20
323.8677734973993
 30
0.0
 10
124.3840380928698
 20
323.8796085383554
 30
0.0
 10
124.4755283807554
 20
323.888870030124
 30
0.0
 10
124.5706274480352
 20
323.8955368729717
 30
0.0
 10
124.6669975949916
 20
323.8997330426832
 30
0.0
 10
124.7320408899959
 20
323.9002197600924
 30
0.0
 10
124.7645610278
 20
323.9004631075
 30
0.0
 11
123.7645610278
 21
323.6166662206
 31
0.0
 11
123.7699555563755
 21
323.6455740662595
 31
0.0
 11
123.7837826663127
 21
323.6720666417549
 31
0.0
 11
123.7949984463893
 21
323.6862788414589
 31
0.0
 11
123.8076228883988
 21
323.6990910332547
 31
0.0
 11
123.8236640573266
 21
323.7127860806153
 31
0.0
 11
123.8406935841384
 21
323.7252973035093
 31
0.0
 11
123.885616042713
 21
323.7521344203799
 31
0.0
 11
123.933095463888
 21
323.7743346976831
 31
0.0
 11
123.9946304753105
 21
323.7977722016549
 31
0.0
 11
124.0574542458044
 21
323.8173548415426
 31
0.0
 11
124.1328263154567
 21
323.8366877519082
 31
0.0
 11
124.2090036579851
 21
323.8526372103382
 31
0.0
 11
124.2952003716395
 21
323.867268526531
 31
0.0
 11
124.3818509248886
 21
323.8788724768525
 31
0.0
 11
124.4755672088203
 21
323.8883864626648
 31
0.0
 11
124.5695336645843
 21
323.895050777561
 31
0.0
 11
124.6670132920873
 21
323.8991473187892
 31
0.0
 11
124.7645610278
 21
323.9004631075
 31
0.0
  0
SPLINE
  5
D6
330
1F
100
AcDbEntity
  8
BEZUGSACHSEN
  6
Continuous
 62
     7
100
AcDbSpline
210
0.0
220
0.0
230
1.0
 70
     8
 71
     3
 72
    23
 73
    19
 74
    17
 42
0.0000000001
 43
0.0000000001
 44
0.00000001
 40
0.0
 40
0.0
 40
0.0
 40
0.0
 40
0.2769076198196395
 40
0.5538260826341675
 40
1.329544429111531
 40
2.105314825236634
 40
3.249908901891811
 40
4.394585309910919
 40
5.740075549923207
 40
7.085599898658554
 40
8.431128907328942
 40
9.776623816145534
 40
10.92131378309517
 40
12.06592141175559
 40
12.84171171747182
 40
13.61744997304602
 40
13.89437642137931
 40
14.17129202490988
 40
14.17129202490988
 40
14.17129202490988
 40
14.17129202490988
 10
182.7645610278
 20
335.7141662206
 30
0.0
 10
182.6753703987353
 20
335.6903980832537
 30
0.0
 10
182.4969856481285
 20
335.6428608778614
 30
0.0
 10
182.0674742619142
 20
335.5336112300479
 30
0.0
 10
181.4742999853788
 20
335.3932929202862
 30
0.0
 10
180.5943867230324
 20
335.2100366701942
 30
0.0
 10
179.5873105637526
 20
335.0360491378547
 30
0.0
 10
178.3853383267737
 20
334.8808220617004
 30
0.0
 10
177.1102727089198
 20
334.7784199236613
 30
0.0
 10
175.7646056179007
 20
334.7419925680721
 30
0.0
 10
174.4189368401438
 20
334.778415334517
 30
0.0
 10
173.1438632730689
 20
334.8808138415844
 30
0.0
 10
171.9418800363151
 20
335.0360385453256
 30
0.0
 10
170.9347879857648
 20
335.2100262547316
 30
0.0
 10
170.0548570095945
 20
335.3932847506273
 30
0.0
 10
169.4616671185385
 20
335.5336063004842
 30
0.0
 10
169.0321441154882
 20
335.6428587946955
 30
0.0
 10
168.8537542260096
 20
335.6903973889169
 30
0.0
 10
168.7645610278
 20
335.7141662206
 30
0.0
 11
182.7645610278
 21
335.7141662206
 31
0.0
 11
182.4968567400859
 21
335.643369015474
 31
0.0
 11
182.2285125497789
 21
335.5749933576997
 31
0.0
 11
181.4735621311255
 21
335.3966991670018
 31
0.0
 11
180.714068851462
 21
335.2386179674554
 31
0.0
 11
179.5861246506213
 21
335.0440993819576
 31
0.0
 11
178.4508330826542
 21
334.8978217870286
 31
0.0
 11
177.1096451039413
 21
334.7903099657046
 31
0.0
 11
175.7646071496729
 21
334.7541343576646
 31
0.0
 11
174.4195644122171
 21
334.7903054454399
 31
0.0
 11
173.0783714206154
 21
334.8978131611169
 31
0.0
 11
171.9430659562702
 21
335.0440890069115
 31
0.0
 11
170.8151079260656
 21
335.2386071440726
 31
0.0
 11
170.0555949031009
 21
335.3966911925732
 31
0.0
 11
169.300624974768
 21
335.5749893935575
 31
0.0
 11
169.0322730306883
 21
335.6433669622123
 31
0.0
 11
168.7645610278
 21
335.7141662206
 31
0.0
  0
SPLINE
  5
D7
330
1F
100
AcDbEntity
  8
0
  6
Continuous
 62
     2
100
AcDbSpline
210
0.0
220
0.0
230
1.0
 70
     8
 71
     3
 72
    49
 73
    45
 74
    43
 42
0.0000000001
 43
0.0000000001
 44
0.00000001
 40
0.0
 40
0.0
 40
0.0
 40
0.0
 40
0.0236860431092709
 40
0.0941942200112571
 40
0.2105893031717017
 40
0.3714945828862068
 40
0.5755501763037384
 40
0.8218967091379138
 40
1.109576531262931
 40
1.436711927780392
 40
1.801403771809213
 40
2.202538974837556
 40
2.638630955725981
 40
3.105826805101144
 40
3.600162058429468
 40
4.119483543530094
 40
4.661206553487537
 40
5.219065500288687
 40
5.787054024168402
 40
6.363774232696294
 40
6.948235767214898
 40
7.536394617367209
 40
8.124443114751658
 40
8.712538636460645
 40
9.300828779610672
 40
9.885456311821093
 40
10.46233054770555
 40
11.0304655528859
 40
11.58849398313192
 40
12.13049402010668
 40
12.65028540841216
 40
13.14531743742851
 40
13.61343057353885
 40
14.05054272445358
 40
14.45267515757765
 40
14.81829430308229
 40
15.14626250798867
 40
15.43466787818267
 40
15.68162688558392
 40
15.88619247971545
 40
16.04751495422259
 40
16.16422415684859
 40
16.23492892038966
 40
16.25868280417642
 40
16.25868280417642
 40
16.25868280417642
 40
16.25868280417642
 10
167.7645610278
 20
335.7141871925
 30
0.0
 10
167.7721058751742
 20
335.7118608614694
 30
0.0
 10
167.8021100852582
 20
335.7026095510706
 30
0.0
 10
167.8692467584131
 20
335.6821102619188
 30
0.0
 10
167.9802050889356
 20
335.6485023292247
 30
0.0
 10
168.1339856399329
 20
335.6027135557555
 30
0.0
 10
168.3295906777613
 20
335.5456077808861
 30
0.0
 10
168.5662618464261
 20
335.4783956322059
 30
0.0
 10
168.8430488557806
 20
335.4022955976349
 30
0.0
 10
169.1587278939881
 20
335.3189014330438
 30
0.0
 10
169.5120043244357
 20
335.2298397757485
 30
0.0
 10
169.9017499499741
 20
335.1369918903323
 30
0.0
 10
170.3261461534528
 20
335.0423353734523
 30
0.0
 10
170.7824082408609
 20
334.948082665163
 30
0.0
 10
171.2674991275213
 20
334.8565871457147
 30
0.0
 10
171.7787184360743
 20
334.7700444573912
 30
0.0
 10
172.3125179748337
 20
334.6906502641957
 30
0.0
 10
172.8639335529923
 20
334.6201926104137
 30
0.0
 10
173.4283719200498
 20
334.5606510616271
 30
0.0
 10
174.0028561793237
 20
334.5131943234863
 30
0.0
 10
174.58500109741
 20
334.4787016987499
 30
0.0
 10
175.1715641232104
 20
334.45756993721
 30
0.0
 10
175.7596777930282
 20
334.4504037377875
 30
0.0
 10
176.3478380408351
 20
334.457337887616
 30
0.0
 10
176.9345239643919
 20
334.4782460038343
 30
0.0
 10
177.5168322918593
 20
334.5125243017599
 30
0.0
 10
178.0914891916645
 20
334.559780389352
 30
0.0
 10
178.6561048106011
 20
334.6191351136189
 30
0.0
 10
179.2077412606788
 20
334.6894239817936
 30
0.0
 10
179.7418694051035
 20
334.7686856226055
 30
0.0
 10
180.2535905480353
 20
334.8551475071317
 30
0.0
 10
180.7393904880841
 20
334.946632312746
 30
0.0
 10
181.19653597985
 20
335.0409495568038
 30
0.0
 10
181.6219076222395
 20
335.135726838914
 30
0.0
 10
182.0126243964257
 20
335.228734213771
 30
0.0
 10
182.3668043579625
 20
335.3179720285063
 30
0.0
 10
182.6832934289521
 20
335.4015440787882
 30
0.0
 10
182.9607842899784
 20
335.4778137558426
 30
0.0
 10
183.198051975703
 20
335.5451803830421
 30
0.0
 10
183.3941518680294
 20
335.6024224988146
 30
0.0
 10
183.5483301016746
 20
335.6483256185973
 30
0.0
 10
183.6595848875073
 20
335.6820217788847
 30
0.0
 10
183.7269061411647
 20
335.7025769366181
 30
0.0
 10
183.756994572766
 20
335.7118542438359
 30
0.0
 10
183.7645610278
 20
335.7141872444
 30
0.0
 11
167.7645610278
 21
335.7141871925
 31
0.0
 11
167.7871971675763
 21
335.7072133976793
 31
0.0
 11
167.8546236223605
 21
335.6865960213844
 31
0.0
 11
167.9660274894392
 21
335.6528766829593
 31
0.0
 11
168.1202360425144
 21
335.6069394301198
 31
0.0
 11
168.3161212570606
 21
335.5497759109209
 31
0.0
 11
168.5530937366698
 21
335.4824657471471
 31
0.0
 11
168.830484826428
 21
335.4062170528589
 31
0.0
 11
169.1467702110029
 21
335.3226639370645
 31
0.0
 11
169.5004056077795
 21
335.2335452114914
 31
0.0
 11
169.8906225283334
 21
335.1405925029667
 31
0.0
 11
170.3162589093916
 21
335.0456720788484
 31
0.0
 11
170.7738025941
 21
334.9511959535212
 31
0.0
 11
171.2595800921423
 21
334.8596123028024
 31
0.0
 11
171.7716226729379
 21
334.7729682012185
 31
0.0
 11
172.3074486145009
 21
334.6932538369829
 31
0.0
 11
172.8608194626694
 21
334.6226329553444
 31
0.0
 11
173.4256770851288
 21
334.5630776901818
 31
0.0
 11
174.0004413698664
 21
334.5156201732374
 31
0.0
 11
174.5838779671124
 21
334.4810221628067
 31
0.0
 11
175.1716575627333
 21
334.4599039246166
 31
0.0
 11
175.7596625866041
 21
334.4527535974353
 31
0.0
 11
176.347717409
 21
334.4596723047666
 31
0.0
 11
176.9356363859667
 21
334.4805665396151
 31
0.0
 11
177.5192518762336
 21
334.5149512882541
 31
0.0
 11
178.0941872593836
 21
334.5622079198465
 31
0.0
 11
178.6592119957303
 21
334.6215748418447
 31
0.0
 11
179.2127756579762
 21
334.6920234103453
 31
0.0
 11
179.7489021806793
 21
334.7715997368183
 31
0.0
 11
180.2614353237935
 21
334.8581610709461
 31
0.0
 11
180.7479237862668
 21
334.9497344602711
 31
0.0
 11
181.2063894483313
 21
335.0442815115568
 31
0.0
 11
181.6330419831833
 21
335.1393322715833
 31
0.0
 11
182.0242452601246
 21
335.2324477368976
 31
0.0
 11
182.3787921399136
 21
335.3217442630977
 31
0.0
 11
182.6958916464318
 21
335.4054762545671
 31
0.0
 11
182.9739884645959
 21
335.4818949517801
 31
0.0
 11
183.2115540190644
 21
335.5493587099521
 31
0.0
 11
183.4079310295195
 21
335.6066575063365
 31
0.0
 11
183.562540526984
 21
335.6527101292249
 31
0.0
 11
183.6742454910896
 21
335.6865189885928
 31
0.0
 11
183.7418600559799
 21
335.707193470499
 31
0.0
 11
183.7645610278
 21
335.7141872444
 31
0.0
  0
DIMENSION
  5
E2
330
1F
100
AcDbEntity
  8
1
100
AcDbDimension
  2
*D2
 10
200.7645610278
 20
382.694892128194
 30
0.0
 11
115.602684290788
 21
386.444892128194
 31
0.0
 70
    32
  1
<>
 71
     5
 42
-1.0
 53
0.00013888888889
  3
ME10_DIM_10
100
AcDbAlignedDimension
 13
18.9645610278
 23
328.9273616282
 33
0.0
 14
200.7645610278
 24
327.6312624519
 34
0.0
100
AcDbRotatedDimension
  0
DIMENSION
  5
ED
330
1F
100
AcDbEntity
  8
1
100
AcDbDimension
  2
*D3
 10
200.7645610278
 20
374.181198961974
 30
0.0
 11
160.505549861013
 21
377.931198961974
 31
0.0
 70
    32
  1
<>
 71
     5
 42
-1.0
 53
0.00013888888889
  3
ME10_DIM_11
100
AcDbAlignedDimension
 13
120.7645610278
 23
362.7016662206
 33
0.0
 14
200.7645610278
 24
327.6312624519
 34
0.0
100
AcDbRotatedDimension
  0
DIMENSION
  5
F8
330
1F
100
AcDbEntity
  8
1
100
AcDbDimension
  2
*D4
 10
200.7645610278
 20
366.491411586034
 30
0.0
 11
178.631477247159
 21
370.241411586034
 31
0.0
 70
    32
  1
<>
 71
     5
 42
-1.0
 53
0.00013888888889
  3
ME10_DIM_12
100
AcDbAlignedDimension
 13
158.7645610278
 23
358.7016662206
 33
0.0
 14
200.7645610278
 24
327.6312624519
 34
0.0
100
AcDbRotatedDimension
  0
DIMENSION
  5
103
330
1F
100
AcDbEntity
  8
1
100
AcDbDimension
  2
*D5
 10
213.928472750221
 20
319.7141662206
 30
0.0
 11
210.178472750221
 21
309.697665914458
 31
0.0
 70
    32
  1
<>
 71
     5
 42
-1.0
 53
90.0
  3
ME10_DIM_13
100
AcDbAlignedDimension
 13
200.7645610278
 23
299.7141662206
 33
0.0
 14
200.7645610278
 24
319.7141662206
 34
0.0
 50
90.0
100
AcDbRotatedDimension
  0
DIMENSION
  5
10E
330
1F
100
AcDbEntity
  8
1
100
AcDbDimension
  2
*D6
 10
222.919364415801
 20
335.7141662206
 30
0.0
 11
219.169364415801
 21
309.697665914458
 31
0.0
 70
    32
  1
<>
 71
     5
 42
-1.0
 53
90.0
  3
ME10_DIM_14
100
AcDbAlignedDimension
 13
187.4966118354
 23
283.7141662206
 33
0.0
 14
187.4966118354
 24
335.7141662206
 34
0.0
 50
90.0
100
AcDbRotatedDimension
  0
INSERT
  5
115
330
1F
100
AcDbEntity
  8
1
100
AcDbBlockReference
  2
*D7
 10
0.0
 20
0.0
 30
0.0
  0
ENDSEC
  0
SECTION
  2
OBJECTS
  0
DICTIONARY
  5
C
330
0
100
AcDbDictionary
281
     1
  3
ACAD_GROUP
350
D
  3
ACAD_LAYOUT
350
1A
  3
ACAD_MLEADERSTYLE
350
118
  3
ACAD_MLINESTYLE
350
17
  3
ACAD_PLOTSETTINGS
350
19
  3
ACAD_PLOTSTYLENAME
350
E
  3
ACAD_SCALELIST
350
4C
  3
ACAD_VISUALSTYLE
350
2A
  3
AcDbVariableDictionary
350
116
  0
DICTIONARY
  5
D
102
{ACAD_REACTORS
330
C
102
}
330
C
100
AcDbDictionary
281
     1
  0
DICTIONARY
  5
1A
102
{ACAD_REACTORS
330
C
102
}
330
C
100
AcDbDictionary
281
     1
  3
Layout1
350
1E
  3
Layout2
350
26
  3
Model
350
22
  0
DICTIONARY
  5
118
102
{ACAD_REACTORS
330
C
102
}
330
C
100
AcDbDictionary
281
     1
  0
DICTIONARY
  5
17
102
{ACAD_REACTORS
330
C
102
}
330
C
100
AcDbDictionary
281
     1
  3
Standard
350
18
  0
DICTIONARY
  5
19
102
{ACAD_REACTORS
330
C
102
}
330
C
100
AcDbDictionary
281
     1
  0
ACDBDICTIONARYWDFLT
  5
E
102
{ACAD_REACTORS
330
C
102
}
330
C
100
AcDbDictionary
281
     1
  3
Normal
350
F
100
AcDbDictionaryWithDefault
340
F
  0
DICTIONARY
  5
4C
102
{ACAD_REACTORS
330
C
102
}
330
C
100
AcDbDictionary
281
     1
  3
A0
350
4D
  3
A1
350
4E
  3
A2
350
4F
  3
A3
350
50
  3
A4
350
51
  3
A5
350
52
  3
A6
350
53
  3
A7
350
54
  3
A8
350
55
  3
A9
350
56
  3
B0
350
57
  3
B1
350
58
  3
B2
350
59
  3
B3
350
5A
  3
B4
350
5B
  3
B5
350
5C
  3
B6
350
5D
  3
B7
350
5E
  3
B8
350
5F
  3
B9
350
60
  3
C0
350
61
  3
C1
350
62
  3
C2
350
63
  3
C3
350
64
  3
C4
350
65
  3
C5
350
66
  3
C6
350
67
  3
C7
350
68
  3
C8
350
69
  3
C9
350
6A
  3
D0
350
6B
  3
D1
350
6C
  3
D2
350
6D
  0
DICTIONARY
  5
2A
102
{ACAD_REACTORS
330
C
102
}
330
C
100
AcDbDictionary
281
     1
  3
2dWireframe
350
2F
  3
3D Hidden
350
31
  3
3dWireframe
350
30
  3
Basic
350
32
  3
Brighten
350
36
  3
ColorChange
350
3A
  3
Conceptual
350
34
  3
Dim
350
35
  3
Facepattern
350
39
  3
Flat
350
2B
  3
FlatWithEdges
350
2C
  3
Gouraud
350
2D
  3
GouraudWithEdges
350
2E
  3
Linepattern
350
38
  3
Realistic
350
33
  3
Thicken
350
37
  0
DICTIONARY
  5
116
102
{ACAD_REACTORS
330
C
102
}
330
C
100
AcDbDictionary
281
     1
  3
CANNOSCALE
350
119
  0
LAYOUT
  5
1E
102
{ACAD_REACTORS
330
1A
102
}
330
1A
100
AcDbPlotSettings
  1

  2
none_device
  4

  6

 40
0.0
 41
0.0
 42
0.0
 43
0.0
 44
0.0
 45
0.0
 46
0.0
 47
0.0
 48
0.0
 49
0.0
140
0.0
141
0.0
142
1.0
143
1.0
 70
   688
 72
     0
 73
     0
 74
     5
  7

 75
    16
147
1.0
148
0.0
149
0.0
100
AcDbLayout
  1
Layout1
 70
     1
 71
     1
 10
0.0
 20
0.0
 11
12.0
 21
9.0
 12
0.0
 22
0.0
 32
0.0
 14
1.00000000000000E+20
 24
1.00000000000000E+20
 34
1.00000000000000E+20
 15
-1.00000000000000E+20
 25
-1.00000000000000E+20
 35
-1.00000000000000E+20
146
0.0
 13
0.0
 23
0.0
 33
0.0
 16
1.0
 26
0.0
 36
0.0
 17
0.0
 27
1.0
 37
0.0
 76
     0
330
1B
  0
LAYOUT
  5
26
102
{ACAD_REACTORS
330
1A
102
}
330
1A
100
AcDbPlotSettings
  1

  2
none_device
  4

  6

 40
0.0
 41
0.0
 42
0.0
 43
0.0
 44
0.0
 45
0.0
 46
0.0
 47
0.0
 48
0.0
 49
0.0
140
0.0
141
0.0
142
1.0
143
1.0
 70
   688
 72
     0
 73
     0
 74
     5
  7

 75
    16
147
1.0
148
0.0
149
0.0
100
AcDbLayout
  1
Layout2
 70
     1
 71
     2
 10
0.0
 20
0.0
 11
0.0
 21
0.0
 12
0.0
 22
0.0
 32
0.0
 14
0.0
 24
0.0
 34
0.0
 15
0.0
 25
0.0
 35
0.0
146
0.0
 13
0.0
 23
0.0
 33
0.0
 16
1.0
 26
0.0
 36
0.0
 17
0.0
 27
1.0
 37
0.0
 76
     0
330
23
  0
LAYOUT
  5
22
102
{ACAD_REACTORS
330
1A
102
}
330
1A
100
AcDbPlotSettings
  1

  2
none_device
  4

  6

 40
0.0
 41
0.0
 42
0.0
 43
0.0
 44
0.0
 45
0.0
 46
0.0
 47
0.0
 48
0.0
 49
0.0
140
0.0
141
0.0
142
1.0
143
1.0
 70
  1712
 72
     0
 73
     0
 74
     0
  7

 75
     0
147
1.0
148
0.0
149
0.0
100
AcDbLayout
  1
Model
 70
     1
 71
     0
 10
0.0
 20
0.0
 11
12.0
 21
9.0
 12
0.0
 22
0.0
 32
0.0
 14
-3.6928952463022
 24
256.6016662206
 34
0.0
 15
224.919364415801
 25
388.194892128194
 35
0.0
146
0.0
 13
0.0
 23
0.0
 33
0.0
 16
1.0
 26
0.0
 36
0.0
 17
0.0
 27
1.0
 37
0.0
 76
     0
330
1F
331
29
  0
MLINESTYLE
  5
18
102
{ACAD_REACTORS
330
17
102
}
330
17
100
AcDbMlineStyle
  2
Standard
 70
     0
  3

 62
   256
 51
90.0
 52
90.0
 71
     2
 49
0.5
 62
   256
  6
BYLAYER
 49
-0.5
 62
   256
  6
BYLAYER
  0
ACDBPLACEHOLDER
  5
F
102
{ACAD_REACTORS
330
E
102
}
330
E
  0
SCALE
  5
4D
102
{ACAD_REACTORS
330
4C
102
}
330
4C
100
AcDbScale
 70
     0
300
1:1
140
1.0
141
1.0
290
     1
  0
SCALE
  5
4E
102
{ACAD_REACTORS
330
4C
102
}
330
4C
100
AcDbScale
 70
     0
300
1:2
140
1.0
141
2.0
290
     0
  0
SCALE
  5
4F
102
{ACAD_REACTORS
330
4C
102
}
330
4C
100
AcDbScale
 70
     0
300
1:4
140
1.0
141
4.0
290
     0
  0
SCALE
  5
50
102
{ACAD_REACTORS
330
4C
102
}
330
4C
100
AcDbScale
 70
     0
300
1:5
140
1.0
141
5.0
290
     0
  0
SCALE
  5
51
102
{ACAD_REACTORS
330
4C
102
}
330
4C
100
AcDbScale
 70
     0
300
1:8
140
1.0
141
8.0
290
     0
  0
SCALE
  5
52
102
{ACAD_REACTORS
330
4C
102
}
330
4C
100
AcDbScale
 70
     0
300
1:10
140
1.0
141
10.0
290
     0
  0
SCALE
  5
53
102
{ACAD_REACTORS
330
4C
102
}
330
4C
100
AcDbScale
 70
     0
300
1:16
140
1.0
141
16.0
290
     0
  0
SCALE
  5
54
102
{ACAD_REACTORS
330
4C
102
}
330
4C
100
AcDbScale
 70
     0
300
1:20
140
1.0
141
20.0
290
     0
  0
SCALE
  5
55
102
{ACAD_REACTORS
330
4C
102
}
330
4C
100
AcDbScale
 70
     0
300
1:30
140
1.0
141
30.0
290
     0
  0
SCALE
  5
56
102
{ACAD_REACTORS
330
4C
102
}
330
4C
100
AcDbScale
 70
     0
300
1:40
140
1.0
141
40.0
290
     0
  0
SCALE
  5
57
102
{ACAD_REACTORS
330
4C
102
}
330
4C
100
AcDbScale
 70
     0
300
1:50
140
1.0
141
50.0
290
     0
  0
SCALE
  5
58
102
{ACAD_REACTORS
330
4C
102
}
330
4C
100
AcDbScale
 70
     0
300
1:100
140
1.0
141
100.0
290
     0
  0
SCALE
  5
59
102
{ACAD_REACTORS
330
4C
102
}
330
4C
100
AcDbScale
 70
     0
300
2:1
140
2.0
141
1.0
290
     0
  0
SCALE
  5
5A
102
{ACAD_REACTORS
330
4C
102
}
330
4C
100
AcDbScale
 70
     0
300
4:1
140
4.0
141
1.0
290
     0
  0
SCALE
  5
5B
102
{ACAD_REACTORS
330
4C
102
}
330
4C
100
AcDbScale
 70
     0
300
8:1
140
8.0
141
1.0
290
     0
  0
SCALE
  5
5C
102
{ACAD_REACTORS
330
4C
102
}
330
4C
100
AcDbScale
 70
     0
300
10:1
140
10.0
141
1.0
290
     0
  0
SCALE
  5
5D
102
{ACAD_REACTORS
330
4C
102
}
330
4C
100
AcDbScale
 70
     0
300
100:1
140
100.0
141
1.0
290
     0
  0
SCALE
  5
5E
102
{ACAD_REACTORS
330
4C
102
}
330
4C
100
AcDbScale
 70
     0
300
1/128" = 1'-0"
140
0.0078125
141
12.0
290
     0
  0
SCALE
  5
5F
102
{ACAD_REACTORS
330
4C
102
}
330
4C
100
AcDbScale
 70
     0
300
1/64" = 1'-0"
140
0.015625
141
12.0
290
     0
  0
SCALE
  5
60
102
{ACAD_REACTORS
330
4C
102
}
330
4C
100
AcDbScale
 70
     0
300
1/32" = 1'-0"
140
0.03125
141
12.0
290
     0
  0
SCALE
  5
61
102
{ACAD_REACTORS
330
4C
102
}
330
4C
100
AcDbScale
 70
     0
300
1/16" = 1'-0"
140
0.0625
141
12.0
290
     0
  0
SCALE
  5
62
102
{ACAD_REACTORS
330
4C
102
}
330
4C
100
AcDbScale
 70
     0
300
3/32" = 1'-0"
140
0.09375
141
12.0
290
     0
  0
SCALE
  5
63
102
{ACAD_REACTORS
330
4C
102
}
330
4C
100
AcDbScale
 70
     0
300
1/8" = 1'-0"
140
0.125
141
12.0
290
     0
  0
SCALE
  5
64
102
{ACAD_REACTORS
330
4C
102
}
330
4C
100
AcDbScale
 70
     0
300
3/16" = 1'-0"
140
0.1875
141
12.0
290
     0
  0
SCALE
  5
65
102
{ACAD_REACTORS
330
4C
102
}
330
4C
100
AcDbScale
 70
     0
300
1/4" = 1'-0"
140
0.25
141
12.0
290
     0
  0
SCALE
  5
66
102
{ACAD_REACTORS
330
4C
102
}
330
4C
100
AcDbScale
 70
     0
300
3/8" = 1'-0"
140
0.375
141
12.0
290
     0
  0
SCALE
  5
67
102
{ACAD_REACTORS
330
4C
102
}
330
4C
100
AcDbScale
 70
     0
300
1/2" = 1'-0"
140
0.5
141
12.0
290
     0
  0
SCALE
  5
68
102
{ACAD_REACTORS
330
4C
102
}
330
4C
100
AcDbScale
 70
     0
300
3/4" = 1'-0"
140
0.75
141
12.0
290
     0
  0
SCALE
  5
69
102
{ACAD_REACTORS
330
4C
102
}
330
4C
100
AcDbScale
 70
     0
300
1" = 1'-0"
140
1.0
141
12.0
290
     0
  0
SCALE
  5
6A
102
{ACAD_REACTORS
330
4C
102
}
330
4C
100
AcDbScale
 70
     0
300
1-1/2" = 1'-0"
140
1.5
141
12.0
290
     0
  0
SCALE
  5
6B
102
{ACAD_REACTORS
330
4C
102
}
330
4C
100
AcDbScale
 70
     0
300
3" = 1'-0"
140
3.0
141
12.0
290
     0
  0
SCALE
  5
6C
102
{ACAD_REACTORS
330
4C
102
}
330
4C
100
AcDbScale
 70
     0
300
6" = 1'-0"
140
6.0
141
12.0
290
     0
  0
SCALE
  5
6D
102
{ACAD_REACTORS
330
4C
102
}
330
4C
100
AcDbScale
 70
     0
300
1'-0" = 1'-0"
140
12.0
141
12.0
290
     0
  0
VISUALSTYLE
  5
2F
102
{ACAD_REACTORS
330
2A
102
}
330
2A
100
AcDbVisualStyle
  2
2dWireframe
 70
     4
 71
     0
 72
     2
 73
     0
 90
        0
 40
-0.6
 41
-30.0
 62
     5
 63
     7
 74
     1
 91
        4
 64
     7
 65
   257
 75
     1
175
     1
 42
1.0
 92
        0
 66
   257
 43
1.0
 76
     1
 77
     6
 78
     2
 67
     7
 79
     5
170
     0
171
     0
290
     0
174
     0
 93
        1
 44
0.0
173
     0
291
     0
 45
0.0
1001
ACAD
1000
AcDbSavedByObjectVersion
1070
     0
  0
VISUALSTYLE
  5
31
102
{ACAD_REACTORS
330
2A
102
}
330
2A
100
AcDbVisualStyle
  2
3D Hidden
 70
     6
 71
     1
 72
     2
 73
     2
 90
        0
 40
-0.6
 41
-30.0
 62
     5
 63
     7
 74
     2
 91
        2
 64
     7
 65
   257
 75
     2
175
     1
 42
40.0
 92
        0
 66
   257
 43
1.0
 76
     1
 77
     6
 78
     2
 67
     7
 79
     3
170
     0
171
     0
290
     0
174
     0
 93
        1
 44
0.0
173
     0
291
     0
 45
0.0
1001
ACAD
1000
AcDbSavedByObjectVersion
1070
     0
  0
VISUALSTYLE
  5
30
102
{ACAD_REACTORS
330
2A
102
}
330
2A
100
AcDbVisualStyle
  2
3dWireframe
 70
     5
 71
     0
 72
     2
 73
     0
 90
        0
 40
-0.6
 41
-30.0
 62
     5
 63
     7
 74
     1
 91
        4
 64
     7
 65
   257
 75
     1
175
     1
 42
1.0
 92
        0
 66
   257
 43
1.0
 76
     1
 77
     6
 78
     2
 67
     7
 79
     5
170
     0
171
     0
290
     0
174
     0
 93
        1
 44
0.0
173
     0
291
     0
 45
0.0
1001
ACAD
1000
AcDbSavedByObjectVersion
1070
     0
  0
VISUALSTYLE
  5
32
102
{ACAD_REACTORS
330
2A
102
}
330
2A
100
AcDbVisualStyle
  2
Basic
 70
     7
 71
     1
 72
     0
 73
     1
 90
        0
 40
-0.6
 41
-30.0
 62
     5
 63
     7
 74
     0
 91
        4
 64
     7
 65
   257
 75
     1
175
     1
 42
1.0
 92
        8
 66
     7
 43
1.0
 76
     1
 77
     6
 78
     2
 67
     7
 79
     5
170
     0
171
     0
290
     0
174
     0
 93
        1
 44
0.0
173
     0
291
     1
 45
0.0
1001
ACAD
1000
AcDbSavedByObjectVersion
1070
     0
  0
VISUALSTYLE
  5
36
102
{ACAD_REACTORS
330
2A
102
}
330
2A
100
AcDbVisualStyle
  2
Brighten
 70
    12
 71
     2
 72
     2
 73
     0
 90
        0
 40
-0.6
 41
-30.0
 62
     5
 63
     7
 74
     1
 91
        4
 64
     7
 65
   257
 75
     1
175
     1
 42
1.0
 92
        8
 66
     7
 43
1.0
 76
     1
 77
     6
 78
     2
 67
     7
 79
     5
170
     0
171
     0
290
     0
174
     0
 93
        1
 44
50.0
173
     0
291
     1
 45
0.0
1001
ACAD
1000
AcDbSavedByObjectVersion
1070
     0
  0
VISUALSTYLE
  5
3A
102
{ACAD_REACTORS
330
2A
102
}
330
2A
100
AcDbVisualStyle
  2
ColorChange
 70
    16
 71
     2
 72
     2
 73
     3
 90
        0
 40
-0.6
 41
-30.0
 62
     5
 63
     8
 74
     1
 91
        4
 64
     7
 65
   257
 75
     1
175
     1
 42
1.0
 92
        8
 66
     8
 43
1.0
 76
     1
 77
     6
 78
     2
 67
     7
 79
     5
170
     0
171
     0
290
     0
174
     0
 93
        1
 44
0.0
173
     0
291
     1
 45
0.0
1001
ACAD
1000
AcDbSavedByObjectVersion
1070
     0
  0
VISUALSTYLE
  5
34
102
{ACAD_REACTORS
330
2A
102
}
330
2A
100
AcDbVisualStyle
  2
Conceptual
 70
     9
 71
     3
 72
     2
 73
     0
 90
        0
 40
-0.6
 41
-30.0
 62
     5
 63
     7
 74
     2
 91
        2
 64
     7
 65
   257
 75
     1
175
     1
 42
40.0
 92
        8
 66
     7
 43
1.0
 76
     1
 77
     6
 78
     2
 67
     7
 79
     3
170
     0
171
     0
290
     0
174
     0
 93
        1
 44
0.0
173
     0
291
     0
 45
0.0
1001
ACAD
1000
AcDbSavedByObjectVersion
1070
     0
  0
VISUALSTYLE
  5
35
102
{ACAD_REACTORS
330
2A
102
}
330
2A
100
AcDbVisualStyle
  2
Dim
 70
    11
 71
     2
 72
     2
 73
     0
 90
        0
 40
-0.6
 41
-30.0
 62
     5
 63
     7
 74
     1
 91
        4
 64
     7
 65
   257
 75
     1
175
     1
 42
1.0
 92
        8
 66
     7
 43
1.0
 76
     1
 77
     6
 78
     2
 67
     7
 79
     5
170
     0
171
     0
290
     0
174
     0
 93
        1
 44
-50.0
173
     0
291
     1
 45
0.0
1001
ACAD
1000
AcDbSavedByObjectVersion
1070
     0
  0
VISUALSTYLE
  5
39
102
{ACAD_REACTORS
330
2A
102
}
330
2A
100
AcDbVisualStyle
  2
Facepattern
 70
    15
 71
     2
 72
     2
 73
     0
 90
        0
 40
-0.6
 41
-30.0
 62
     5
 63
     7
 74
     1
 91
        4
 64
     7
 65
   257
 75
     1
175
     1
 42
1.0
 92
        8
 66
     7
 43
1.0
 76
     1
 77
     6
 78
     2
 67
     7
 79
     5
170
     0
171
     0
290
     0
174
     0
 93
        1
 44
0.0
173
     0
291
     1
 45
0.0
1001
ACAD
1000
AcDbSavedByObjectVersion
1070
     0
  0
VISUALSTYLE
  5
2B
102
{ACAD_REACTORS
330
2A
102
}
330
2A
100
AcDbVisualStyle
  2
Flat
 70
     0
 71
     2
 72
     1
 73
     1
 90
        2
 40
-0.6
 41
30.0
 62
     5
 63
     7
 74
     0
 91
        4
 64
     7
 65
   257
 75
     1
175
     1
 42
1.0
 92
        8
 66
     7
 43
1.0
 76
     1
 77
     6
 78
     2
 67
     7
 79
     5
170
     0
171
     0
290
     0
174
     0
 93
       13
 44
0.0
173
     0
291
     1
 45
0.0
1001
ACAD
1000
AcDbSavedByObjectVersion
1070
     0
  0
VISUALSTYLE
  5
2C
102
{ACAD_REACTORS
330
2A
102
}
330
2A
100
AcDbVisualStyle
  2
FlatWithEdges
 70
     1
 71
     2
 72
     1
 73
     1
 90
        2
 40
-0.6
 41
30.0
 62
     5
 63
     7
 74
     1
 91
        4
 64
     7
 65
   257
 75
     1
175
     1
 42
1.0
 92
        0
 66
   257
 43
1.0
 76
     1
 77
     6
 78
     2
 67
     7
 79
     5
170
     0
171
     0
290
     0
174
     0
 93
       13
 44
0.0
173
     0
291
     1
 45
0.0
1001
ACAD
1000
AcDbSavedByObjectVersion
1070
     0
  0
VISUALSTYLE
  5
2D
102
{ACAD_REACTORS
330
2A
102
}
330
2A
100
AcDbVisualStyle
  2
Gouraud
 70
     2
 71
     2
 72
     2
 73
     1
 90
        2
 40
-0.6
 41
30.0
 62
     5
 63
     7
 74
     0
 91
        4
 64
     7
 65
   257
 75
     1
175
     1
 42
1.0
 92
        0
 66
     7
 43
1.0
 76
     1
 77
     6
 78
     2
 67
     7
 79
     5
170
     0
171
     0
290
     0
174
     0
 93
       13
 44
0.0
173
     0
291
     1
 45
0.0
1001
ACAD
1000
AcDbSavedByObjectVersion
1070
     0
  0
VISUALSTYLE
  5
2E
102
{ACAD_REACTORS
330
2A
102
}
330
2A
100
AcDbVisualStyle
  2
GouraudWithEdges
 70
     3
 71
     2
 72
     2
 73
     1
 90
        2
 40
-0.6
 41
30.0
 62
     5
 63
     7
 74
     1
 91
        4
 64
     7
 65
   257
 75
     1
175
     1
 42
1.0
 92
        0
 66
   257
 43
1.0
 76
     1
 77
     6
 78
     2
 67
     7
 79
     5
170
     0
171
     0
290
     0
174
     0
 93
       13
 44
0.0
173
     0
291
     1
 45
0.0
1001
ACAD
1000
AcDbSavedByObjectVersion
1070
     0
  0
VISUALSTYLE
  5
38
102
{ACAD_REACTORS
330
2A
102
}
330
2A
100
AcDbVisualStyle
  2
Linepattern
 70
    14
 71
     2
 72
     2
 73
     0
 90
        0
 40
-0.6
 41
-30.0
 62
     5
 63
     7
 74
     1
 91
        4
 64
     7
 65
   257
 75
     7
175
     7
 42
1.0
 92
        8
 66
     7
 43
1.0
 76
     1
 77
     6
 78
     2
 67
     7
 79
     5
170
     0
171
     0
290
     0
174
     0
 93
        1
 44
0.0
173
     0
291
     1
 45
0.0
1001
ACAD
1000
AcDbSavedByObjectVersion
1070
     0
  0
VISUALSTYLE
  5
33
102
{ACAD_REACTORS
330
2A
102
}
330
2A
100
AcDbVisualStyle
  2
Realistic
 70
     8
 71
     2
 72
     2
 73
     0
 90
        0
 40
-0.6
 41
-30.0
 62
     5
 63
     7
 74
     1
 91
        0
 64
     7
 65
   257
 75
     1
175
     1
 42
1.0
 92
        8
 66
     8
 43
1.0
 76
     1
 77
     6
 78
     2
 67
     7
 79
     5
170
     0
171
     0
290
     0
174
     0
 93
       13
 44
0.0
173
     0
291
     0
 45
0.0
1001
ACAD
1000
AcDbSavedByObjectVersion
1070
     0
  0
VISUALSTYLE
  5
37
102
{ACAD_REACTORS
330
2A
102
}
330
2A
100
AcDbVisualStyle
  2
Thicken
 70
    13
 71
     2
 72
     2
 73
     0
 90
        0
 40
-0.6
 41
-30.0
 62
     5
 63
     7
 74
     1
 91
        4
 64
     7
 65
   257
 75
     1
175
     1
 42
1.0
 92
       12
 66
     7
 43
1.0
 76
     1
 77
     6
 78
     2
 67
     7
 79
     5
170
     0
171
     0
290
     0
174
     0
 93
        1
 44
0.0
173
     0
291
     1
 45
0.0
1001
ACAD
1000
AcDbSavedByObjectVersion
1070
     0
  0
DICTIONARYVAR
  5
119
102
{ACAD_REACTORS
330
116
102
}
330
116
100
DictionaryVariables
280
     0
  1
1:1
  0
ENDSEC
  0
EOF
