  0
SECTION
  2
HEADER
  9
$ACADVER
  1
AC1015
  9
$ACADMAINTVER
 70
     6
  9
$DWGCODEPAGE
  3
ANSI_1252
  9
$INSBASE
 10
0.0
 20
0.0
 30
0.0
  9
$EXTMIN
 10
10.6355927234733
 20
278.8874728152
 30
0.0
  9
$EXTMAX
 10
235.534027851518
 20
411.003551959737
 30
0.0
  9
$LIMMIN
 10
0.0
 20
0.0
  9
$LIMMAX
 10
12.0
 20
9.0
  9
$ORTHOMODE
 70
     0
  9
$REGENMODE
 70
     1
  9
$FILLMODE
 70
     1
  9
$QTEXTMODE
 70
     0
  9
$MIRRTEXT
 70
     1
  9
$LTSCALE
 40
1.0
  9
$ATTMODE
 70
     1
  9
$TEXTSIZE
 40
0.2
  9
$TRACEWID
 40
0.05
  9
$TEXTSTYLE
  7
Standard
  9
$CLAYER
  8
0
  9
$CELTYPE
  6
ByLayer
  9
$CECOLOR
 62
   256
  9
$CELTSCALE
 40
1.0
  9
$DISPSILH
 70
     0
  9
$DIMSCALE
 40
1.0
  9
$DIMASZ
 40
0.18
  9
$DIMEXO
 40
0.0625
  9
$DIMDLI
 40
0.38
  9
$DIMRND
 40
0.0
  9
$DIMDLE
 40
0.0
  9
$DIMEXE
 40
0.18
  9
$DIMTP
 40
0.0
  9
$DIMTM
 40
0.0
  9
$DIMTXT
 40
0.18
  9
$DIMCEN
 40
0.09
  9
$DIMTSZ
 40
0.0
  9
$DIMTOL
 70
     0
  9
$DIMLIM
 70
     0
  9
$DIMTIH
 70
     1
  9
$DIMTOH
 70
     1
  9
$DIMSE1
 70
     0
  9
$DIMSE2
 70
     0
  9
$DIMTAD
 70
     0
  9
$DIMZIN
 70
     0
  9
$DIMBLK
  1

  9
$DIMASO
 70
     1
  9
$DIMSHO
 70
     1
  9
$DIMPOST
  1

  9
$DIMAPOST
  1

  9
$DIMALT
 70
     0
  9
$DIMALTD
 70
     2
  9
$DIMALTF
 40
25.4
  9
$DIMLFAC
 40
1.0
  9
$DIMTOFL
 70
     0
  9
$DIMTVP
 40
0.0
  9
$DIMTIX
 70
     0
  9
$DIMSOXD
 70
     0
  9
$DIMSAH
 70
     0
  9
$DIMBLK1
  1

  9
$DIMBLK2
  1

  9
$DIMSTYLE
  2
Standard
  9
$DIMCLRD
 70
     0
  9
$DIMCLRE
 70
     0
  9
$DIMCLRT
 70
     0
  9
$DIMTFAC
 40
1.0
  9
$DIMGAP
 40
0.09
  9
$DIMJUST
 70
     0
  9
$DIMSD1
 70
     0
  9
$DIMSD2
 70
     0
  9
$DIMTOLJ
 70
     1
  9
$DIMTZIN
 70
     0
  9
$DIMALTZ
 70
     0
  9
$DIMALTTZ
 70
     0
  9
$DIMUPT
 70
     0
  9
$DIMDEC
 70
     4
  9
$DIMTDEC
 70
     4
  9
$DIMALTU
 70
     2
  9
$DIMALTTD
 70
     2
  9
$DIMTXSTY
  7
Standard
  9
$DIMAUNIT
 70
     0
  9
$DIMADEC
 70
     0
  9
$DIMALTRND
 40
0.0
  9
$DIMAZIN
 70
     0
  9
$DIMDSEP
 70
    46
  9
$DIMATFIT
 70
     3
  9
$DIMFRAC
 70
     0
  9
$DIMLDRBLK
  1

  9
$DIMLUNIT
 70
     2
  9
$DIMLWD
 70
    -2
  9
$DIMLWE
 70
    -2
  9
$DIMTMOVE
 70
     0
  9
$LUNITS
 70
     2
  9
$LUPREC
 70
     4
  9
$SKETCHINC
 40
0.1
  9
$FILLETRAD
 40
0.5
  9
$AUNITS
 70
     0
  9
$AUPREC
 70
     0
  9
$MENU
  1
.
  9
$ELEVATION
 40
0.0
  9
$PELEVATION
 40
0.0
  9
$THICKNESS
 40
0.0
  9
$LIMCHECK
 70
     0
  9
$CHAMFERA
 40
0.5
  9
$CHAMFERB
 40
0.5
  9
$CHAMFERC
 40
1.0
  9
$CHAMFERD
 40
0.0
  9
$SKPOLY
 70
     0
  9
$TDCREATE
 40
2456645.679673403
  9
$TDUCREATE
 40
2456645.638006736
  9
$TDUPDATE
 40
2456645.679673414
  9
$TDUUPDATE
 40
2456645.638006748
  9
$TDINDWG
 40
0.0000000116
  9
$TDUSRTIMER
 40
0.0000000116
  9
$USRTIMER
 70
     1
  9
$ANGBASE
 50
0.0
  9
$ANGDIR
 70
     0
  9
$PDMODE
 70
     0
  9
$PDSIZE
 40
0.0
  9
$PLINEWID
 40
0.0
  9
$SPLFRAME
 70
     0
  9
$SPLINETYPE
 70
     6
  9
$SPLINESEGS
 70
     8
  9
$HANDSEED
  5
11A
  9
$SURFTAB1
 70
     6
  9
$SURFTAB2
 70
     6
  9
$SURFTYPE
 70
     6
  9
$SURFU
 70
     6
  9
$SURFV
 70
     6
  9
$UCSBASE
  2

  9
$UCSNAME
  2

  9
$UCSORG
 10
0.0
 20
0.0
 30
0.0
  9
$UCSXDIR
 10
1.0
 20
0.0
 30
0.0
  9
$UCSYDIR
 10
0.0
 20
1.0
 30
0.0
  9
$UCSORTHOREF
  2

  9
$UCSORTHOVIEW
 70
     0
  9
$UCSORGTOP
 10
0.0
 20
0.0
 30
0.0
  9
$UCSORGBOTTOM
 10
0.0
 20
0.0
 30
0.0
  9
$UCSORGLEFT
 10
0.0
 20
0.0
 30
0.0
  9
$UCSORGRIGHT
 10
0.0
 20
0.0
 30
0.0
  9
$UCSORGFRONT
 10
0.0
 20
0.0
 30
0.0
  9
$UCSORGBACK
 10
0.0
 20
0.0
 30
0.0
  9
$PUCSBASE
  2

  9
$PUCSNAME
  2

  9
$PUCSORG
 10
0.0
 20
0.0
 30
0.0
  9
$PUCSXDIR
 10
1.0
 20
0.0
 30
0.0
  9
$PUCSYDIR
 10
0.0
 20
1.0
 30
0.0
  9
$PUCSORTHOREF
  2

  9
$PUCSORTHOVIEW
 70
     0
  9
$PUCSORGTOP
 10
0.0
 20
0.0
 30
0.0
  9
$PUCSORGBOTTOM
 10
0.0
 20
0.0
 30
0.0
  9
$PUCSORGLEFT
 10
0.0
 20
0.0
 30
0.0
  9
$PUCSORGRIGHT
 10
0.0
 20
0.0
 30
0.0
  9
$PUCSORGFRONT
 10
0.0
 20
0.0
 30
0.0
  9
$PUCSORGBACK
 10
0.0
 20
0.0
 30
0.0
  9
$USERI1
 70
     0
  9
$USERI2
 70
     0
  9
$USERI3
 70
     0
  9
$USERI4
 70
     0
  9
$USERI5
 70
     0
  9
$USERR1
 40
16.5
  9
$USERR2
 40
0.0
  9
$USERR3
 40
0.0
  9
$USERR4
 40
0.0
  9
$USERR5
 40
0.0
  9
$WORLDVIEW
 70
     1
  9
$SHADEDGE
 70
     3
  9
$SHADEDIF
 70
    70
  9
$TILEMODE
 70
     1
  9
$MAXACTVP
 70
    64
  9
$PINSBASE
 10
0.0
 20
0.0
 30
0.0
  9
$PLIMCHECK
 70
     0
  9
$PEXTMIN
 10
1.00000000000000E+20
 20
1.00000000000000E+20
 30
1.00000000000000E+20
  9
$PEXTMAX
 10
-1.00000000000000E+20
 20
-1.00000000000000E+20
 30
-1.00000000000000E+20
  9
$PLIMMIN
 10
0.0
 20
0.0
  9
$PLIMMAX
 10
12.0
 20
9.0
  9
$UNITMODE
 70
     0
  9
$VISRETAIN
 70
     1
  9
$PLINEGEN
 70
     0
  9
$PSLTSCALE
 70
     1
  9
$TREEDEPTH
 70
  3020
  9
$CMLSTYLE
  2
Standard
  9
$CMLJUST
 70
     0
  9
$CMLSCALE
 40
1.0
  9
$PROXYGRAPHICS
 70
     1
  9
$MEASUREMENT
 70
     1
  9
$CELWEIGHT
370
    -1
  9
$ENDCAPS
280
     0
  9
$JOINSTYLE
280
     0
  9
$LWDISPLAY
290
     0
  9
$INSUNITS
 70
     1
  9
$HYPERLINKBASE
  1

  9
$STYLESHEET
  1

  9
$XEDIT
290
     1
  9
$CEPSNTYPE
380
     0
  9
$PSTYLEMODE
290
     1
  9
$FINGERPRINTGUID
  2
{57AE3467-2FF9-4416-B180-12522ECA3712}
  9
$VERSIONGUID
  2
{FAEB1C32-E019-11D5-929B-00C0DF256EC4}
  9
$EXTNAMES
290
     1
  9
$PSVPSCALE
 40
0.0
  9
$OLESTARTUP
290
     0
  0
ENDSEC
  0
SECTION
  2
CLASSES
  0
CLASS
  1
ACDBDICTIONARYWDFLT
  2
AcDbDictionaryWithDefault
  3
ObjectDBX Classes
 90
        0
280
     0
281
     0
  0
CLASS
  1
VISUALSTYLE
  2
AcDbVisualStyle
  3
ObjectDBX Classes
 90
     4095
280
     0
281
     0
  0
CLASS
  1
SCALE
  2
AcDbScale
  3
ObjectDBX Classes
 90
     1153
280
     0
281
     0
  0
CLASS
  1

  2
exOdDbPolyline
  3

 90
        0
280
     0
281
     1
  0
CLASS
  1

  2
exOdDbSpline
  3

 90
        0
280
     0
281
     1
  0
CLASS
  1
DICTIONARYVAR
  2
AcDbDictionaryVar
  3
ObjectDBX Classes
 90
        0
280
     0
281
     0
  0
CLASS
  1
ACDBPLACEHOLDER
  2
AcDbPlaceHolder
  3
ObjectDBX Classes
 90
        0
280
     0
281
     0
  0
CLASS
  1
LAYOUT
  2
AcDbLayout
  3
ObjectDBX Classes
 90
        0
280
     0
281
     0
  0
ENDSEC
  0
SECTION
  2
TABLES
  0
TABLE
  2
VPORT
  5
8
330
0
100
AcDbSymbolTable
 70
     1
  0
VPORT
  5
29
330
8
100
AcDbSymbolTableRecord
100
AcDbViewportTableRecord
  2
*Active
 70
     0
 10
0.0
 20
0.0
 11
1.0
 21
1.0
 12
123.0848102874957
 22
344.9455123874685
 13
0.0
 23
0.0
 14
0.5
 24
0.5
 15
0.5
 25
0.5
 16
0.0
 26
0.0
 36
1.0
 17
0.0
 27
0.0
 37
0.0
 40
154.3592602104463
 41
1.60267857142857
 42
50.0
 43
0.0
 44
0.0
 50
0.0
 51
0.0
 71
     0
 72
   100
 73
     1
 74
     3
 75
     0
 76
     0
 77
     0
 78
     0
281
     0
 65
     1
110
0.0
120
0.0
130
0.0
111
1.0
121
0.0
131
0.0
112
0.0
122
1.0
132
0.0
 79
     0
146
0.0
  0
ENDTAB
  0
TABLE
  2
LTYPE
  5
5
330
0
100
AcDbSymbolTable
 70
     9
  0
LTYPE
  5
14
330
5
100
AcDbSymbolTableRecord
100
AcDbLinetypeTableRecord
  2
ByBlock
 70
     0
  3

 72
    65
 73
     0
 40
0.0
  0
LTYPE
  5
15
330
5
100
AcDbSymbolTableRecord
100
AcDbLinetypeTableRecord
  2
ByLayer
 70
     0
  3

 72
    65
 73
     0
 40
0.0
  0
LTYPE
  5
16
330
5
100
AcDbSymbolTableRecord
100
AcDbLinetypeTableRecord
  2
Continuous
 70
     0
  3
Solid line
 72
    65
 73
     0
 40
0.0
  0
LTYPE
  5
3B
330
5
100
AcDbSymbolTableRecord
100
AcDbLinetypeTableRecord
  2
DASHED
 70
     0
  3
Dashed
 72
    65
 73
     2
 40
15.0
 49
7.0
 74
     0
 49
-8.0
 74
     0
  0
LTYPE
  5
3C
330
5
100
AcDbSymbolTableRecord
100
AcDbLinetypeTableRecord
  2
DOTTED
 70
     0
  3
Dotted
 72
    65
 73
     2
 40
1.0
 49
0.0
 74
     0
 49
-1.0
 74
     0
  0
LTYPE
  5
3D
330
5
100
AcDbSymbolTableRecord
100
AcDbLinetypeTableRecord
  2
DOT_CENTER
 70
     0
  3
Dot_Center
 72
    65
 73
     4
 40
14.0
 49
12.0
 74
     0
 49
-1.0
 74
     0
 49
0.0
 74
     0
 49
-1.0
 74
     0
  0
LTYPE
  5
3E
330
5
100
AcDbSymbolTableRecord
100
AcDbLinetypeTableRecord
  2
LONG_DASHED
 70
     0
  3
Long_Dashed
 72
    65
 73
     2
 40
15.0
 49
10.0
 74
     0
 49
-5.0
 74
     0
  0
LTYPE
  5
3F
330
5
100
AcDbSymbolTableRecord
100
AcDbLinetypeTableRecord
  2
DASH_CENTER
 70
     0
  3
Dash_Center
 72
    65
 73
     4
 40
14.0
 49
11.0
 74
     0
 49
-1.0
 74
     0
 49
1.0
 74
     0
 49
-1.0
 74
     0
  0
LTYPE
  5
40
330
5
100
AcDbSymbolTableRecord
100
AcDbLinetypeTableRecord
  2
PHANTOM
 70
     0
  3
Phantom
 72
    65
 73
     6
 40
13.0
 49
10.0
 74
     0
 49
-1.0
 74
     0
 49
0.0
 74
     0
 49
-1.0
 74
     0
 49
0.0
 74
     0
 49
-1.0
 74
     0
  0
LTYPE
  5
41
330
5
100
AcDbSymbolTableRecord
100
AcDbLinetypeTableRecord
  2
CENTER_DASH_DASH
 70
     0
  3
Center_Dash_Dash
 72
    65
 73
     6
 40
14.0
 49
9.0
 74
     0
 49
-1.0
 74
     0
 49
1.0
 74
     0
 49
-1.0
 74
     0
 49
1.0
 74
     0
 49
-1.0
 74
     0
  0
LTYPE
  5
42
330
5
100
AcDbSymbolTableRecord
100
AcDbLinetypeTableRecord
  2
HIDDEN
 70
     0
  3
HIDDEN
 72
    65
 73
     2
 40
4.0
 49
2.0
 74
     0
 49
-2.0
 74
     0
  0
ENDTAB
  0
TABLE
  2
LAYER
  5
2
330
0
100
AcDbSymbolTable
 70
     7
  0
LAYER
  5
10
330
2
100
AcDbSymbolTableRecord
100
AcDbLayerTableRecord
  2
0
 70
     0
 62
     7
  6
Continuous
370
    -3
390
F
  0
LAYER
  5
43
330
2
100
AcDbSymbolTableRecord
100
AcDbLayerTableRecord
  2
1
 70
     0
 62
     7
  6
Continuous
370
    -3
390
F
  0
LAYER
  5
44
330
2
100
AcDbSymbolTableRecord
100
AcDbLayerTableRecord
  2
BEZUGSACHSEN
 70
     0
 62
     7
  6
Continuous
370
    -3
390
F
  0
LAYER
  5
45
330
2
100
AcDbSymbolTableRecord
100
AcDbLayerTableRecord
  2
DEFAULT_2
 70
     0
 62
     7
  6
Continuous
370
    -3
390
F
  0
LAYER
  5
46
330
2
100
AcDbSymbolTableRecord
100
AcDbLayerTableRecord
  2
FASEN
 70
     0
 62
     7
  6
Continuous
370
    -3
390
F
  0
LAYER
  5
47
330
2
100
AcDbSymbolTableRecord
100
AcDbLayerTableRecord
  2
RUNDUNGEN
 70
     0
 62
     7
  6
Continuous
370
    -3
390
F
  0
LAYER
  5
48
330
2
100
AcDbSymbolTableRecord
100
AcDbLayerTableRecord
  2
TEIL_STARTBEZUEGE
 70
     0
 62
     7
  6
Continuous
370
    -3
390
F
  0
ENDTAB
  0
TABLE
  2
STYLE
  5
3
330
0
100
AcDbSymbolTable
 70
     2
  0
STYLE
  5
11
330
3
100
AcDbSymbolTableRecord
100
AcDbTextStyleTableRecord
  2
Standard
 70
     0
 40
0.0
 41
1.0
 50
0.0
 71
     0
 42
0.2
  3
txt
  4

  0
STYLE
  5
6F
330
3
100
AcDbSymbolTableRecord
100
AcDbTextStyleTableRecord
  2
CONVERTER_11
 70
     0
 40
0.0
 41
0.72
 50
0.0
 71
     0
 42
0.2
  3
txt.shx
  4

  0
ENDTAB
  0
TABLE
  2
VIEW
  5
6
330
0
100
AcDbSymbolTable
 70
     0
  0
ENDTAB
  0
TABLE
  2
UCS
  5
7
330
0
100
AcDbSymbolTable
 70
     0
  0
ENDTAB
  0
TABLE
  2
APPID
  5
9
330
0
100
AcDbSymbolTable
 70
     1
  0
APPID
  5
12
330
9
100
AcDbSymbolTableRecord
100
AcDbRegAppTableRecord
  2
ACAD
 70
     0
  0
ENDTAB
  0
TABLE
  2
DIMSTYLE
  5
A
330
0
100
AcDbSymbolTable
 70
     6
100
AcDbDimStyleTable
  0
DIMSTYLE
105
27
330
A
100
AcDbSymbolTableRecord
100
AcDbDimStyleTableRecord
  2
Standard
 70
     0
340
11
  0
DIMSTYLE
105
E1
102
{ACAD_REACTORS
330
E2
102
}
330
A
100
AcDbSymbolTableRecord
100
AcDbDimStyleTableRecord
  2
ME10_DIM_10
 70
     0
  3
<>
 41
3.5
 42
2.0
 44
2.0
 71
     1
 73
     0
 74
     0
 77
     1
 78
     8
140
3.5
146
0.7
147
2.0
172
     1
173
     1
176
     2
177
     2
178
     3
271
     2
272
     0
340
6F
  0
DIMSTYLE
105
EC
102
{ACAD_REACTORS
330
ED
102
}
330
A
100
AcDbSymbolTableRecord
100
AcDbDimStyleTableRecord
  2
ME10_DIM_11
 70
     0
  3
<>
 41
3.5
 42
2.0
 44
2.0
 71
     1
 73
     0
 74
     0
 77
     1
 78
     8
140
3.5
146
0.7
147
2.0
172
     1
173
     1
176
     2
177
     2
178
     3
271
     2
272
     0
340
6F
  0
DIMSTYLE
105
F7
102
{ACAD_REACTORS
330
F8
102
}
330
A
100
AcDbSymbolTableRecord
100
AcDbDimStyleTableRecord
  2
ME10_DIM_12
 70
     0
  3
<>
 41
3.5
 42
2.0
 44
2.0
 71
     1
 73
     0
 74
     0
 77
     1
 78
     8
140
3.5
146
0.7
147
2.0
172
     1
173
     1
176
     2
177
     2
178
     3
271
     2
272
     0
340
6F
  0
DIMSTYLE
105
102
102
{ACAD_REACTORS
330
103
102
}
330
A
100
AcDbSymbolTableRecord
100
AcDbDimStyleTableRecord
  2
ME10_DIM_13
 70
     0
  3
\U+2300<>
 41
3.5
 42
2.0
 44
2.0
 71
     1
 73
     0
 74
     0
 77
     1
 78
     8
140
3.5
146
0.7
147
2.0
172
     1
173
     1
176
     2
177
     2
178
     3
271
     2
272
     0
340
6F
  0
DIMSTYLE
105
10D
102
{ACAD_REACTORS
330
10E
102
}
330
A
100
AcDbSymbolTableRecord
100
AcDbDimStyleTableRecord
  2
ME10_DIM_14
 70
     0
  3
\U+2300<>
 41
3.5
 42
2.0
 44
2.0
 71
     1
 73
     0
 74
     0
 77
     1
 78
     8
140
3.5
146
0.7
147
2.0
172
     1
173
     1
176
     2
177
     2
178
     3
271
     2
272
     0
340
6F
  0
ENDTAB
  0
TABLE
  2
BLOCK_RECORD
  5
1
330
0
100
AcDbSymbolTable
 70
     8
  0
BLOCK_RECORD
  5
1F
330
1
100
AcDbSymbolTableRecord
100
AcDbBlockTableRecord
  2
*Model_Space
340
22
  0
BLOCK_RECORD
  5
1B
330
1
100
AcDbSymbolTableRecord
100
AcDbBlockTableRecord
  2
*Paper_Space
340
1E
  0
BLOCK_RECORD
  5
23
330
1
100
AcDbSymbolTableRecord
100
AcDbBlockTableRecord
  2
*Paper_Space0
340
26
  0
BLOCK_RECORD
  5
49
330
1
100
AcDbSymbolTableRecord
100
AcDbBlockTableRecord
  2
Urheberrecht_DE-EN
340
0
102
{BLKREFS
331
6E
102
}
  0
BLOCK_RECORD
  5
D8
330
1
100
AcDbSymbolTableRecord
100
AcDbBlockTableRecord
  2
*D2
340
0
  0
BLOCK_RECORD
  5
E3
330
1
100
AcDbSymbolTableRecord
100
AcDbBlockTableRecord
  2
*D3
340
0
  0
BLOCK_RECORD
  5
EE
330
1
100
AcDbSymbolTableRecord
100
AcDbBlockTableRecord
  2
*D4
340
0
  0
BLOCK_RECORD
  5
F9
330
1
100
AcDbSymbolTableRecord
100
AcDbBlockTableRecord
  2
*D5
340
0
  0
BLOCK_RECORD
  5
104
330
1
100
AcDbSymbolTableRecord
100
AcDbBlockTableRecord
  2
*D6
340
0
  0
BLOCK_RECORD
  5
10F
330
1
100
AcDbSymbolTableRecord
100
AcDbBlockTableRecord
  2
*D7
340
0
102
{BLKREFS
331
115
102
}
  0
ENDTAB
  0
ENDSEC
  0
SECTION
  2
BLOCKS
  0
BLOCK
  5
20
330
1F
100
AcDbEntity
  8
0
100
AcDbBlockBegin
  2
*Model_Space
 70
     0
 10
0.0
 20
0.0
 30
0.0
  3
*Model_Space
  1

  0
ENDBLK
  5
21
330
1F
100
AcDbEntity
  8
0
100
AcDbBlockEnd
  0
BLOCK
  5
1C
330
1B
100
AcDbEntity
 67
     1
  8
0
100
AcDbBlockBegin
  2
*Paper_Space
 70
     0
 10
0.0
 20
0.0
 30
0.0
  3
*Paper_Space
  1

  0
ENDBLK
  5
1D
330
1B
100
AcDbEntity
 67
     1
  8
0
100
AcDbBlockEnd
  0
BLOCK
  5
24
330
23
100
AcDbEntity
  8
0
100
AcDbBlockBegin
  2
*Paper_Space0
 70
     0
 10
0.0
 20
0.0
 30
0.0
  3
*Paper_Space0
  1

  0
ENDBLK
  5
25
330
23
100
AcDbEntity
  8
0
100
AcDbBlockEnd
  0
BLOCK
  5
4A
330
49
100
AcDbEntity
  8
0
100
AcDbBlockBegin
  2
Urheberrecht_DE-EN
 70
     0
 10
24.6355927234733
 20
347.289964298808
 30
0.0
  3
Urheberrecht_DE-EN
  1

  0
MTEXT
  5
70
330
49
100
AcDbEntity
  8
1
 62
     1
100
AcDbMText
 10
24.6355927234733
 20
291.0005773815018
 30
0.0
 40
2.0
 41
0.0
 71
     7
 72
     1
  1
F\U+00fcr diese Unterlage behalten wir das Ur-\Pheberrecht. Sie darf nur f\U+00fcr den von uns \Pbestimmten Zweck benutzt und ohne unsere \PZustimmung weder vervielf\U+00e4ltigt noch\PDritten zug\U+00e4nglich gemacht werden.
  7
CONVERTER_11
 11
0.0
 21
1.0
 31
0.0
 73
     1
 44
0.90036014405762
  0
MTEXT
  5
71
330
49
100
AcDbEntity
  8
1
 62
     1
100
AcDbMText
 10
24.6355927234733
 20
347.289964298808
 30
0.0
 40
2.0
 41
0.0
 71
     7
 72
     1
  1
We own the copyright of this document. It \Pdetermined and may neither be copied or \Pmade accessible to outsiders without our\Ppermission.
  7
CONVERTER_11
 11
0.0
 21
1.0
 31
0.0
 73
     1
 44
0.90036014405762
  0
ENDBLK
  5
4B
330
49
100
AcDbEntity
  8
0
100
AcDbBlockEnd
  0
BLOCK
  5
DF
330
D8
100
AcDbEntity
  8
0
100
AcDbBlockBegin
  2
*D2
 70
     1
 10
0.0
 20
0.0
 30
0.0
  3
*D2
  1

  0
LINE
  5
D9
330
D8
100
AcDbEntity
  8
1
  6
Continuous
 62
     2
100
AcDbLine
 10
213.5088898555
 20
405.503551959737
 30
0.0
 11
31.7088898555
 21
405.503551959737
 31
0.0
  0
LINE
  5
DA
330
D8
100
AcDbEntity
  8
1
  6
Continuous
 62
     2
100
AcDbLine
 10
31.7088898555
 20
353.2131682228
 30
0.0
 11
31.7088898555
 21
407.503551959737
 31
0.0
  0
LINE
  5
DB
330
D8
100
AcDbEntity
  8
1
  6
Continuous
 62
     2
100
AcDbLine
 10
213.5088898555
 20
349.9170690465
 30
0.0
 11
213.5088898555
 21
407.503551959737
 31
0.0
  0
SOLID
  5
DC
330
D8
100
AcDbEntity
  8
1
 62
     2
100
AcDbTrace
 10
210.0088898555
 20
405.0427682181812
 30
0.0
 11
210.0088898555
 21
405.9643357012929
 31
0.0
 12
213.5088898555
 22
405.503551959737
 32
0.0
 13
213.5088898555
 23
405.503551959737
 33
0.0
  0
SOLID
  5
DD
330
D8
100
AcDbEntity
  8
1
 62
     2
100
AcDbTrace
 10
35.2088898555
 20
405.9643357012929
 30
0.0
 11
35.2088898555
 21
405.0427682181812
 31
0.0
 12
31.7088898555
 22
405.503551959737
 32
0.0
 13
31.7088898555
 23
405.503551959737
 33
0.0
  0
MTEXT
  5
DE
330
D8
100
AcDbEntity
  8
1
 62
     3
100
AcDbMText
 10
125.417131261296
 20
407.503551959737
 30
0.0
 40
3.5
 41
0.0
 71
     7
 72
     1
  1
\C3;\C3;\C3;181.8\C2;\H2.45;\S^ ;\C3;
  7
CONVERTER_11
 11
0.9999999999970619
 21
2.424068405545306E-6
 31
0.0
 73
     1
 44
0.60024009603842
  0
ENDBLK
  5
E0
330
D8
100
AcDbEntity
  8
0
100
AcDbBlockEnd
  0
BLOCK
  5
EA
330
E3
100
AcDbEntity
  8
0
100
AcDbBlockBegin
  2
*D3
 70
     1
 10
0.0
 20
0.0
 30
0.0
  3
*D3
  1

  0
LINE
  5
E4
330
E3
100
AcDbEntity
  8
1
  6
Continuous
 62
     2
100
AcDbLine
 10
213.5088898555
 20
397.398832676044
 30
0.0
 11
133.5088898555
 21
397.398832676044
 31
0.0
  0
LINE
  5
E5
330
E3
100
AcDbEntity
  8
1
  6
Continuous
 62
     2
100
AcDbLine
 10
133.5088898555
 20
386.9874728152
 30
0.0
 11
133.5088898555
 21
399.398832676044
 31
0.0
  0
LINE
  5
E6
330
E3
100
AcDbEntity
  8
1
  6
Continuous
 62
     2
100
AcDbLine
 10
213.5088898555
 20
349.9170690465
 30
0.0
 11
213.5088898555
 21
399.398832676044
 31
0.0
  0
SOLID
  5
E7
330
E3
100
AcDbEntity
  8
1
 62
     2
100
AcDbTrace
 10
210.0088898555
 20
396.9380489344881
 30
0.0
 11
210.0088898555
 21
397.8596164175999
 31
0.0
 12
213.5088898555
 22
397.398832676044
 32
0.0
 13
213.5088898555
 23
397.398832676044
 33
0.0
  0
SOLID
  5
E8
330
E3
100
AcDbEntity
  8
1
 62
     2
100
AcDbTrace
 10
137.0088898555
 20
397.8596164175999
 30
0.0
 11
137.0088898555
 21
396.9380489344881
 31
0.0
 12
133.5088898555
 22
397.398832676044
 32
0.0
 13
133.5088898555
 23
397.398832676044
 33
0.0
  0
MTEXT
  5
E9
330
E3
100
AcDbEntity
  8
1
 62
     3
100
AcDbMText
 10
174.706840016421
 20
399.398832676044
 30
0.0
 40
3.5
 41
0.0
 71
     7
 72
     1
  1
\C3;\C3;\C3;80\C2;\H2.45;\S^ ;\C3;
  7
CONVERTER_11
 11
0.9999999999970619
 21
2.424068405545306E-6
 31
0.0
 73
     1
 44
0.60024009603842
  0
ENDBLK
  5
EB
330
E3
100
AcDbEntity
  8
0
100
AcDbBlockEnd
  0
BLOCK
  5
F5
330
EE
100
AcDbEntity
  8
0
100
AcDbBlockBegin
  2
*D4
 70
     1
 10
0.0
 20
0.0
 30
0.0
  3
*D4
  1

  0
LINE
  5
EF
330
EE
100
AcDbEntity
  8
1
  6
Continuous
 62
     2
100
AcDbLine
 10
213.5088898555
 20
389.208920207283
 30
0.0
 11
171.5088898555
 21
389.208920207283
 31
0.0
  0
LINE
  5
F0
330
EE
100
AcDbEntity
  8
1
  6
Continuous
 62
     2
100
AcDbLine
 10
171.5088898555
 20
382.9874728152
 30
0.0
 11
171.5088898555
 21
391.208920207283
 31
0.0
  0
LINE
  5
F1
330
EE
100
AcDbEntity
  8
1
  6
Continuous
 62
     2
100
AcDbLine
 10
213.5088898555
 20
349.9170690465
 30
0.0
 11
213.5088898555
 21
391.208920207283
 31
0.0
  0
SOLID
  5
F2
330
EE
100
AcDbEntity
  8
1
 62
     2
100
AcDbTrace
 10
210.0088898555
 20
388.7481364657271
 30
0.0
 11
210.0088898555
 21
389.6697039488388
 31
0.0
 12
213.5088898555
 22
389.208920207283
 32
0.0
 13
213.5088898555
 23
389.208920207283
 33
0.0
  0
SOLID
  5
F3
330
EE
100
AcDbEntity
  8
1
 62
     2
100
AcDbTrace
 10
175.0088898555
 20
389.6697039488388
 30
0.0
 11
175.0088898555
 21
388.7481364657271
 31
0.0
 12
171.5088898555
 22
389.208920207283
 32
0.0
 13
171.5088898555
 23
389.208920207283
 33
0.0
  0
MTEXT
  5
F4
330
EE
100
AcDbEntity
  8
1
 62
     3
100
AcDbMText
 10
190.002705950725
 20
391.208920207283
 30
0.0
 40
3.5
 41
0.0
 71
     7
 72
     1
  1
\C3;\C3;\C3;42\C2;\H2.45;\S^ ;\C3;
  7
CONVERTER_11
 11
0.9999999999970619
 21
2.424068405545306E-6
 31
0.0
 73
     1
 44
0.60024009603842
  0
ENDBLK
  5
F6
330
EE
100
AcDbEntity
  8
0
100
AcDbBlockEnd
  0
BLOCK
  5
100
330
F9
100
AcDbEntity
  8
0
100
AcDbBlockBegin
  2
*D5
 70
     1
 10
0.0
 20
0.0
 30
0.0
  3
*D5
  1

  0
LINE
  5
FA
330
F9
100
AcDbEntity
  8
1
  6
Continuous
 62
     2
100
AcDbLine
 10
233.534027851518
 20
355.9999728152
 30
0.0
 11
233.534027851518
 21
307.9999728152
 31
0.0
  0
LINE
  5
FB
330
F9
100
AcDbEntity
  8
1
  6
Continuous
 62
     2
100
AcDbLine
 10
202.240940663
 20
307.9999728152
 30
0.0
 11
235.534027851518
 21
307.9999728152
 31
0.0
  0
LINE
  5
FC
330
F9
100
AcDbEntity
  8
1
  6
Continuous
 62
     2
100
AcDbLine
 10
202.240940663
 20
355.9999728152
 30
0.0
 11
235.534027851518
 21
355.9999728152
 31
0.0
  0
SOLID
  5
FD
330
F9
100
AcDbEntity
  8
1
 62
     2
100
AcDbTrace
 10
233.9948115930739
 20
352.4999728152
 30
0.0
 11
233.0732441099621
 21
352.4999728152
 31
0.0
 12
233.534027851518
 22
355.9999728152
 32
0.0
 13
233.534027851518
 23
355.9999728152
 33
0.0
  0
SOLID
  5
FE
330
F9
100
AcDbEntity
  8
1
 62
     2
100
AcDbTrace
 10
233.0732441099621
 20
311.4999728152
 30
0.0
 11
233.9948115930739
 21
311.4999728152
 31
0.0
 12
233.534027851518
 22
307.9999728152
 32
0.0
 13
233.534027851518
 23
307.9999728152
 33
0.0
  0
MTEXT
  5
FF
330
F9
100
AcDbEntity
  8
1
 62
     3
100
AcDbMText
 10
231.534027851518
 20
323.385852593693
 30
0.0
 40
3.5
 41
0.0
 71
     7
 72
     1
  1
\C3;%%c\C3;\C3;48\C2;\H2.45;\S^ ;\C3;
  7
CONVERTER_11
 11
0.0
 21
1.0
 31
0.0
 73
     1
 44
0.60024009603842
  0
ENDBLK
  5
101
330
F9
100
AcDbEntity
  8
0
100
AcDbBlockEnd
  0
BLOCK
  5
10B
330
104
100
AcDbEntity
  8
0
100
AcDbBlockBegin
  2
*D6
 70
     1
 10
0.0
 20
0.0
 30
0.0
  3
*D6
  1

  0
LINE
  5
105
330
104
100
AcDbEntity
  8
1
  6
Continuous
 62
     2
100
AcDbLine
 10
225.103235604263
 20
339.9999728152
 30
0.0
 11
225.103235604263
 21
323.9999728152
 31
0.0
  0
LINE
  5
106
330
104
100
AcDbEntity
  8
1
  6
Continuous
 62
     2
100
AcDbLine
 10
215.5088898555
 20
323.9999728152
 30
0.0
 11
227.103235604263
 21
323.9999728152
 31
0.0
  0
LINE
  5
107
330
104
100
AcDbEntity
  8
1
  6
Continuous
 62
     2
100
AcDbLine
 10
215.5088898555
 20
339.9999728152
 30
0.0
 11
227.103235604263
 21
339.9999728152
 31
0.0
  0
SOLID
  5
108
330
104
100
AcDbEntity
  8
1
 62
     2
100
AcDbTrace
 10
225.5640193458189
 20
336.4999728152
 30
0.0
 11
224.6424518627071
 21
336.4999728152
 31
0.0
 12
225.103235604263
 22
339.9999728152
 32
0.0
 13
225.103235604263
 23
339.9999728152
 33
0.0
  0
SOLID
  5
109
330
104
100
AcDbEntity
  8
1
 62
     2
100
AcDbTrace
 10
224.6424518627071
 20
327.4999728152
 30
0.0
 11
225.5640193458189
 21
327.4999728152
 31
0.0
 12
225.103235604263
 22
323.9999728152
 32
0.0
 13
225.103235604263
 23
323.9999728152
 33
0.0
  0
MTEXT
  5
10A
330
104
100
AcDbEntity
  8
1
 62
     3
100
AcDbMText
 10
223.103235604263
 20
323.5649728152
 30
0.0
 40
3.5
 41
0.0
 71
     7
 72
     1
  1
\C3;%%c\C3;\C3;16\C2;\H2.45;\S^ ;\C3;
  7
CONVERTER_11
 11
0.0
 21
1.0
 31
0.0
 73
     1
 44
0.60024009603842
  0
ENDBLK
  5
10C
330
104
100
AcDbEntity
  8
0
100
AcDbBlockEnd
  0
BLOCK
  5
113
330
10F
100
AcDbEntity
  8
0
100
AcDbBlockBegin
  2
*D7
 70
     1
 10
0.0
 20
0.0
 30
0.0
  3
*D7
  1

  0
LINE
  5
110
330
10F
100
AcDbEntity
  8
1
  6
Continuous
 62
     2
100
AcDbLine
 10
182.9566160316191
 20
365.4254069802702
 30
0.0
 11
172.42955335836
 21
358.806175584814
 31
0.0
  0
SOLID
  5
111
330
10F
100
AcDbEntity
  8
1
 62
     2
100
AcDbTrace
 10
175.1472246754269
 20
361.0593032485015
 30
0.0
 11
175.6377746212897
 21
360.2791446899103
 31
0.0
 12
172.42955335836
 22
358.806175584814
 32
0.0
 13
172.42955335836
 23
358.806175584814
 33
0.0
  0
MTEXT
  5
112
330
10F
100
AcDbEntity
  8
1
 62
     3
100
AcDbMText
 10
175.6105708200274
 20
363.1688565710727
 30
0.0
 40
3.5
 41
0.0
 71
     7
 72
     1
  1
\C3; R\C3;\C3;6\C2;\H2.45;\S^ ;\C3;
  7
CONVERTER_11
 11
0.8465560828566643
 21
0.5322995383976775
 31
0.0
 73
     1
 44
0.60024009603842
  0
ENDBLK
  5
114
330
10F
100
AcDbEntity
  8
0
100
AcDbBlockEnd
  0
ENDSEC
  0
SECTION
  2
ENTITIES
  0
INSERT
  5
6E
330
1F
100
AcDbEntity
  8
0
100
AcDbBlockReference
  2
Urheberrecht_DE-EN
 10
24.6355927234733
 20
347.289964298808
 30
0.0
  0
LINE
  5
72
330
1F
100
AcDbEntity
  8
BEZUGSACHSEN
  6
HIDDEN
 62
     8
100
AcDbLine
 10
182.5088898555
 20
339.9999728152
 30
0.0
 11
182.5088898555
 21
355.9999728152
 31
0.0
  0
LINE
  5
73
330
1F
100
AcDbEntity
  8
BEZUGSACHSEN
  6
HIDDEN
 62
     8
100
AcDbLine
 10
196.5088898555
 20
339.9999728152
 30
0.0
 11
196.5088898555
 21
355.9999728152
 31
0.0
  0
LINE
  5
74
330
1F
100
AcDbEntity
  8
RUNDUNGEN
  6
Continuous
 62
     7
100
AcDbLine
 10
213.5088898555
 20
347.9170690465
 30
0.0
 11
213.5088898555
 21
316.0828765838
 31
0.0
  0
LINE
  5
75
330
1F
100
AcDbEntity
  8
RUNDUNGEN
  6
Continuous
 62
     9
100
AcDbLine
 10
213.0088898555
 20
315.21685118
 30
0.0
 11
213.0088898555
 21
348.7830944503
 31
0.0
  0
LINE
  5
76
330
1F
100
AcDbEntity
  8
RUNDUNGEN
  6
Continuous
 62
     9
100
AcDbLine
 10
200.740940663
 20
308.1339474114
 30
0.0
 11
200.740940663
 21
355.865998219
 31
0.0
  0
LINE
  5
77
330
1F
100
AcDbEntity
  8
RUNDUNGEN
  6
Continuous
 62
     9
100
AcDbLine
 10
200.240940663
 20
307.9999728152
 30
0.0
 11
200.240940663
 21
355.9999728152
 31
0.0
  0
LINE
  5
78
330
1F
100
AcDbEntity
  8
BEZUGSACHSEN
  6
HIDDEN
 62
     8
100
AcDbLine
 10
195.5088898555
 20
339.9999728152
 30
0.0
 11
195.5088898555
 21
355.9999728152
 31
0.0
  0
LWPOLYLINE
  5
79
330
1F
100
AcDbEntity
  8
BEZUGSACHSEN
  6
DOT_CENTER
 62
     7
100
AcDbPolyline
 90
        2
 70
     0
 43
0.25
 10
189.5088898555
 20
358.9999728152
 10
189.5088898555
 20
334.2900340242
  0
LINE
  5
7A
330
1F
100
AcDbEntity
  8
RUNDUNGEN
  6
Continuous
 62
     7
100
AcDbLine
 10
213.0088898555
 20
348.7830944503
 30
0.0
 11
200.740940663
 21
355.865998219
 31
0.0
  0
LINE
  5
7B
330
1F
100
AcDbEntity
  8
0
  6
Continuous
 62
     7
100
AcDbLine
 10
200.740940663
 20
355.865998219
 30
0.0
 11
213.0088898555
 21
348.7830944503
 31
0.0
  0
LINE
  5
7C
330
1F
100
AcDbEntity
  8
0
  6
Continuous
 62
     7
100
AcDbLine
 10
200.740940663
 20
308.1339474114
 30
0.0
 11
213.0088898555
 21
315.21685118
 31
0.0
  0
LINE
  5
7D
330
1F
100
AcDbEntity
  8
BEZUGSACHSEN
  6
HIDDEN
 62
     8
100
AcDbLine
 10
183.5088898555
 20
339.9999728152
 30
0.0
 11
183.5088898555
 21
355.9999728152
 31
0.0
  0
LINE
  5
7E
330
1F
100
AcDbEntity
  8
0
  6
Continuous
 62
     7
100
AcDbLine
 10
137.5088898555
 20
381.9874728152
 30
0.0
 11
149.1782216193
 21
381.9874728152
 31
0.0
  0
LINE
  5
7F
330
1F
100
AcDbEntity
  8
0
  6
Continuous
 62
     7
100
AcDbLine
 10
170.5088898555
 20
381.9874728152
 30
0.0
 11
164.2395580916
 21
381.9874728152
 31
0.0
  0
LINE
  5
80
330
1F
100
AcDbEntity
  8
RUNDUNGEN
  6
Continuous
 62
     9
100
AcDbLine
 10
177.5088898555
 20
355.9999728152
 30
0.0
 11
177.5088898555
 21
307.9999728152
 31
0.0
  0
LINE
  5
81
330
1F
100
AcDbEntity
  8
0
  6
Continuous
 62
     7
100
AcDbLine
 10
149.1782216193
 20
381.9874728152
 30
0.0
 11
153.1713898555
 21
375.071102547
 31
0.0
  0
LINE
  5
82
330
1F
100
AcDbEntity
  8
0
  6
Continuous
 62
     7
100
AcDbLine
 10
149.1782216193
 20
282.0124728152
 30
0.0
 11
153.1713898555
 21
288.9288430834
 31
0.0
  0
LINE
  5
83
330
1F
100
AcDbEntity
  8
0
  6
Continuous
 62
     7
100
AcDbLine
 10
171.5088898555
 20
380.9874728152
 30
0.0
 11
171.5088898555
 21
283.0124728152
 31
0.0
  0
LINE
  5
84
330
1F
100
AcDbEntity
  8
0
  6
Continuous
 62
     9
100
AcDbLine
 10
170.5088898555
 20
381.9874728152
 30
0.0
 11
170.5088898555
 21
282.0124728152
 31
0.0
  0
LINE
  5
85
330
1F
100
AcDbEntity
  8
0
  6
Continuous
 62
     7
100
AcDbLine
 10
133.8588898555
 20
366.5749728152
 30
0.0
 11
132.8896992392
 21
366.8346666581
 31
0.0
  0
LINE
  5
86
330
1F
100
AcDbEntity
  8
0
  6
Continuous
 62
     7
100
AcDbLine
 10
153.4213898555
 20
374.3749728152
 30
0.0
 11
159.9963898555
 21
374.3749728152
 31
0.0
  0
LINE
  5
87
330
1F
100
AcDbEntity
  8
0
  6
Continuous
 62
     7
100
AcDbLine
 10
164.2395580916
 20
321.5323325082
 30
0.0
 11
164.2395580916
 21
282.0124728152
 31
0.0
  0
LINE
  5
88
330
1F
100
AcDbEntity
  8
0
  6
Continuous
 62
     7
100
AcDbLine
 10
164.2395580916
 20
381.9874728152
 30
0.0
 11
164.2395580916
 21
342.4676229935
 31
0.0
  0
LINE
  5
89
330
1F
100
AcDbEntity
  8
0
  6
Continuous
 62
     7
100
AcDbLine
 10
160.2463898555
 20
343.7227031392
 30
0.0
 11
160.2463898555
 21
375.071102547
 31
0.0
  0
LINE
  5
8A
330
1F
100
AcDbEntity
  8
0
  6
Continuous
 62
     7
100
AcDbLine
 10
160.2463898555
 20
288.9288430834
 30
0.0
 11
160.2463898555
 21
320.2772424911
 31
0.0
  0
LINE
  5
8B
330
1F
100
AcDbEntity
  8
0
  6
Continuous
 62
     9
100
AcDbLine
 10
159.9963898555
 20
343.8344523665
 30
0.0
 11
159.9963898555
 21
374.3749728152
 31
0.0
  0
LINE
  5
8C
330
1F
100
AcDbEntity
  8
0
  6
Continuous
 62
     9
100
AcDbLine
 10
159.9963898555
 20
289.6249728152
 30
0.0
 11
159.9963898555
 21
320.1654932639
 31
0.0
  0
LINE
  5
8D
330
1F
100
AcDbEntity
  8
0
  6
Continuous
 62
     7
100
AcDbLine
 10
135.5088898555
 20
366.5749728152
 30
0.0
 11
133.8588898555
 21
366.5749728152
 31
0.0
  0
LINE
  5
8E
330
1F
100
AcDbEntity
  8
0
  6
Continuous
 62
     7
100
AcDbLine
 10
132.8896992392
 20
366.8346666581
 30
0.0
 11
32.5645711863
 21
352.2026994865
 31
0.0
  0
LINE
  5
8F
330
1F
100
AcDbEntity
  8
DEFAULT_2
  6
HIDDEN
 62
     8
100
AcDbLine
 10
155.4088898555
 20
339.9999728152
 30
0.0
 11
155.4088898555
 21
323.9999728152
 31
0.0
  0
LINE
  5
90
330
1F
100
AcDbEntity
  8
0
  6
Continuous
 62
     9
100
AcDbLine
 10
153.4213898555
 20
344.9024728152
 30
0.0
 11
153.4213898555
 21
374.3749728152
 31
0.0
  0
LINE
  5
91
330
1F
100
AcDbEntity
  8
0
  6
Continuous
 62
     9
100
AcDbLine
 10
153.4213898555
 20
289.6249728152
 30
0.0
 11
153.4213898555
 21
319.0974728152
 31
0.0
  0
LINE
  5
92
330
1F
100
AcDbEntity
  8
0
  6
Continuous
 62
     7
100
AcDbLine
 10
153.1713898555
 20
319.0974728152
 30
0.0
 11
153.1713898555
 21
288.9289914932
 31
0.0
  0
LINE
  5
93
330
1F
100
AcDbEntity
  8
0
  6
Continuous
 62
     7
100
AcDbLine
 10
153.1713898555
 20
375.0709541371
 30
0.0
 11
153.1713898555
 21
344.9024728152
 31
0.0
  0
LINE
  5
94
330
1F
100
AcDbEntity
  8
0
  6
Continuous
 62
     7
100
AcDbLine
 10
195.5088898555
 20
355.9999728152
 30
0.0
 11
200.240940663
 21
355.9999728152
 31
0.0
  0
LINE
  5
95
330
1F
100
AcDbEntity
  8
0
  6
Continuous
 62
     7
100
AcDbLine
 10
177.5088898555
 20
355.9999728152
 30
0.0
 11
183.5088898555
 21
355.9999728152
 31
0.0
  0
LINE
  5
96
330
1F
100
AcDbEntity
  8
RUNDUNGEN
  6
Continuous
 62
     7
100
AcDbLine
 10
183.5088898555
 20
355.9999728152
 30
0.0
 11
177.5088898555
 21
355.9999728152
 31
0.0
  0
LINE
  5
97
330
1F
100
AcDbEntity
  8
RUNDUNGEN
  6
Continuous
 62
     7
100
AcDbLine
 10
200.240940663
 20
355.9999728152
 30
0.0
 11
195.5088898555
 21
355.9999728152
 31
0.0
  0
LINE
  5
98
330
1F
100
AcDbEntity
  8
0
  6
Continuous
 62
     7
100
AcDbLine
 10
149.1782216193
 20
317.8136759282
 30
0.0
 11
149.1782216193
 21
282.0124728152
 31
0.0
  0
LINE
  5
99
330
1F
100
AcDbEntity
  8
0
  6
Continuous
 62
     7
100
AcDbLine
 10
149.1782216193
 20
381.9874728152
 30
0.0
 11
149.1782216193
 21
346.1862697021
 31
0.0
  0
LINE
  5
9A
330
1F
100
AcDbEntity
  8
FASEN
  6
Continuous
 62
     7
100
AcDbLine
 10
136.5088898555
 20
345.9024728152
 30
0.0
 11
137.5088898555
 21
344.9024728152
 31
0.0
  0
LINE
  5
9B
330
1F
100
AcDbEntity
  8
FASEN
  6
Continuous
 62
     7
100
AcDbLine
 10
136.5088898555
 20
318.0974728152
 30
0.0
 11
137.5088898555
 21
319.0974728152
 31
0.0
  0
LINE
  5
9C
330
1F
100
AcDbEntity
  8
0
  6
Continuous
 62
     9
100
AcDbLine
 10
137.5088898555
 20
346.1862697021
 30
0.0
 11
137.5088898555
 21
381.9874728152
 31
0.0
  0
LINE
  5
9D
330
1F
100
AcDbEntity
  8
FASEN
  6
Continuous
 62
     9
100
AcDbLine
 10
137.5088898555
 20
317.8136759282
 30
0.0
 11
137.5088898555
 21
319.0974728152
 31
0.0
  0
LINE
  5
9E
330
1F
100
AcDbEntity
  8
0
  6
Continuous
 62
     9
100
AcDbLine
 10
137.5088898555
 20
282.0124728152
 30
0.0
 11
137.5088898555
 21
317.8136759282
 31
0.0
  0
LINE
  5
9F
330
1F
100
AcDbEntity
  8
FASEN
  6
Continuous
 62
     9
100
AcDbLine
 10
137.5088898555
 20
346.1862697021
 30
0.0
 11
137.5088898555
 21
344.9024728152
 31
0.0
  0
LINE
  5
A0
330
1F
100
AcDbEntity
  8
0
  6
Continuous
 62
     7
100
AcDbLine
 10
160.2463898555
 20
288.9288430834
 30
0.0
 11
164.2395580916
 21
282.0124728152
 31
0.0
  0
LINE
  5
A1
330
1F
100
AcDbEntity
  8
0
  6
Continuous
 62
     7
100
AcDbLine
 10
137.5088898555
 20
346.1862697021
 30
0.0
 11
149.1782216193
 21
346.1862697021
 31
0.0
  0
LINE
  5
A2
330
1F
100
AcDbEntity
  8
0
  6
Continuous
 62
     7
100
AcDbLine
 10
137.5088898555
 20
344.9024728152
 30
0.0
 11
154.8563898555
 21
344.9024728152
 31
0.0
  0
LINE
  5
A3
330
1F
100
AcDbEntity
  8
DEFAULT_2
  6
HIDDEN
 62
     8
100
AcDbLine
 10
183.5088898555
 20
339.9999728152
 30
0.0
 11
213.5088898555
 21
339.9999728152
 31
0.0
  0
LINE
  5
A4
330
1F
100
AcDbEntity
  8
BEZUGSACHSEN
  6
HIDDEN
 62
     8
100
AcDbLine
 10
183.5088898555
 20
339.9999728152
 30
0.0
 11
155.4088898555
 21
339.9999728152
 31
0.0
  0
LINE
  5
A5
330
1F
100
AcDbEntity
  8
0
  6
Continuous
 62
     7
100
AcDbLine
 10
160.2463898555
 20
375.071102547
 30
0.0
 11
164.2395580916
 21
381.9874728152
 31
0.0
  0
LINE
  5
A6
330
1F
100
AcDbEntity
  8
FASEN
  6
Continuous
 62
     7
100
AcDbLine
 10
136.5088898555
 20
337.1517322234
 30
0.0
 11
136.5088898555
 21
380.9873453746
 31
0.0
  0
LINE
  5
A7
330
1F
100
AcDbEntity
  8
FASEN
  6
Continuous
 62
     7
100
AcDbLine
 10
136.5088898555
 20
283.012600197
 30
0.0
 11
136.5088898555
 21
326.848213407
 31
0.0
  0
LINE
  5
A8
330
1F
100
AcDbEntity
  8
0
  6
Continuous
 62
     7
100
AcDbLine
 10
136.5088898555
 20
318.0974728152
 30
0.0
 11
136.5088898555
 21
283.021044434
 31
0.0
  0
LINE
  5
A9
330
1F
100
AcDbEntity
  8
0
  6
Continuous
 62
     7
100
AcDbLine
 10
136.5088898555
 20
380.9443691576
 30
0.0
 11
136.5088898555
 21
345.9024728152
 31
0.0
  0
LINE
  5
AA
330
1F
100
AcDbEntity
  8
0
  6
Continuous
 62
     9
100
AcDbLine
 10
135.5088898555
 20
366.5749728152
 30
0.0
 11
135.5088898555
 21
297.4249728152
 31
0.0
  0
LINE
  5
AB
330
1F
100
AcDbEntity
  8
0
  6
Continuous
 62
     7
100
AcDbLine
 10
133.8588898555
 20
366.5749728152
 30
0.0
 11
133.8588898555
 21
297.4249728152
 31
0.0
  0
LWPOLYLINE
  5
AC
330
1F
100
AcDbEntity
  8
TEIL_STARTBEZUEGE
  6
DOT_CENTER
 62
     7
100
AcDbPolyline
 90
        2
 70
     0
 43
0.25
 10
133.5088898555
 20
279.0124728152
 10
133.5088898555
 20
384.9874728152
  0
LINE
  5
AD
330
1F
100
AcDbEntity
  8
0
  6
Continuous
 62
     7
100
AcDbLine
 10
132.8896992392
 20
366.8346666581
 30
0.0
 11
132.8896992392
 21
297.1652789722
 31
0.0
  0
LWPOLYLINE
  5
AE
330
1F
100
AcDbEntity
  8
TEIL_STARTBEZUEGE
  6
DOT_CENTER
 62
     7
100
AcDbPolyline
 90
        2
 70
     0
 43
0.25
 10
216.5088898555
 20
331.9999728152
 10
28.7088898555
 20
331.9999728152
  0
LINE
  5
AF
330
1F
100
AcDbEntity
  8
DEFAULT_2
  6
HIDDEN
 62
     8
100
AcDbLine
 10
213.5088898555
 20
323.9999728152
 30
0.0
 11
155.4088898555
 21
323.9999728152
 31
0.0
  0
LINE
  5
B0
330
1F
100
AcDbEntity
  8
0
  6
Continuous
 62
     7
100
AcDbLine
 10
137.5088898555
 20
319.0974728152
 30
0.0
 11
154.8563898555
 21
319.0974728152
 31
0.0
  0
LINE
  5
B1
330
1F
100
AcDbEntity
  8
0
  6
Continuous
 62
     7
100
AcDbLine
 10
149.1782216193
 20
317.8136759282
 30
0.0
 11
137.5088898555
 21
317.8136759282
 31
0.0
  0
LINE
  5
B2
330
1F
100
AcDbEntity
  8
0
  6
Continuous
 62
     7
100
AcDbLine
 10
177.5088898555
 20
307.9999728152
 30
0.0
 11
200.240940663
 21
307.9999728152
 31
0.0
  0
LINE
  5
B3
330
1F
100
AcDbEntity
  8
0
  6
Continuous
 62
     7
100
AcDbLine
 10
32.5645711863
 20
311.7972461439
 30
0.0
 11
132.8896992392
 21
297.1652789722
 31
0.0
  0
LINE
  5
B4
330
1F
100
AcDbEntity
  8
0
  6
Continuous
 62
     7
100
AcDbLine
 10
135.5088898555
 20
297.4249728152
 30
0.0
 11
133.8588898555
 21
297.4249728152
 31
0.0
  0
LINE
  5
B5
330
1F
100
AcDbEntity
  8
0
  6
Continuous
 62
     7
100
AcDbLine
 10
133.8588898555
 20
297.4249728152
 30
0.0
 11
132.8896992392
 21
297.1652789722
 31
0.0
  0
LINE
  5
B6
330
1F
100
AcDbEntity
  8
0
  6
Continuous
 62
     7
100
AcDbLine
 10
153.4213898555
 20
289.6249728152
 30
0.0
 11
159.9963898555
 21
289.6249728152
 31
0.0
  0
LINE
  5
B7
330
1F
100
AcDbEntity
  8
0
  6
Continuous
 62
     7
100
AcDbLine
 10
137.5088898555
 20
282.0124728152
 30
0.0
 11
149.1782216193
 21
282.0124728152
 31
0.0
  0
LINE
  5
B8
330
1F
100
AcDbEntity
  8
0
  6
Continuous
 62
     7
100
AcDbLine
 10
170.5088898555
 20
282.0124728152
 30
0.0
 11
164.2395580916
 21
282.0124728152
 31
0.0
  0
LINE
  5
B9
330
1F
100
AcDbEntity
  8
0
  6
Continuous
 62
     9
100
AcDbLine
 10
32.5645711863
 20
352.2026994865
 30
0.0
 11
32.5645711863
 21
311.7972461439
 31
0.0
  0
LINE
  5
BA
330
1F
100
AcDbEntity
  8
0
  6
Continuous
 62
     7
100
AcDbLine
 10
31.7088898555
 20
351.2131682228
 30
0.0
 11
31.7088898555
 21
312.7867774075
 31
0.0
  0
ARC
  5
BB
330
1F
100
AcDbEntity
  8
0
  6
Continuous
 62
     7
100
AcDbCircle
 10
153.4213898555
 20
374.6249728152
 30
0.0
 40
0.25
100
AcDbArc
 50
180.0
 51
270.0
  0
ARC
  5
BC
330
1F
100
AcDbEntity
  8
0
  6
Continuous
 62
     7
100
AcDbCircle
 10
159.9963898555
 20
374.6249728152
 30
0.0
 40
0.25
100
AcDbArc
 50
270.0
 51
0.0
  0
ARC
  5
BD
330
1F
100
AcDbEntity
  8
0
  6
Continuous
 62
     7
100
AcDbCircle
 10
170.5088898555
 20
380.9874728152
 30
0.0
 40
1.0
100
AcDbArc
 50
0.0
 51
90.0
  0
ARC
  5
BE
330
1F
100
AcDbEntity
  8
0
  6
Continuous
 62
     7
100
AcDbCircle
 10
137.5088898555
 20
380.9874728152
 30
0.0
 40
1.0
100
AcDbArc
 50
90.0
 51
180.0
  0
ARC
  5
BF
330
1F
100
AcDbEntity
  8
0
  6
Continuous
 62
     7
100
AcDbCircle
 10
135.5088898555
 20
367.5749728152
 30
0.0
 40
1.0
100
AcDbArc
 50
270.0
 51
0.0
  0
ARC
  5
C0
330
1F
100
AcDbEntity
  8
RUNDUNGEN
  6
Continuous
 62
     7
100
AcDbCircle
 10
200.240940663
 20
354.9999728152
 30
0.0
 40
1.000000000013472
100
AcDbArc
 50
60.00000000044565
 51
90.0
  0
ARC
  5
C1
330
1F
100
AcDbEntity
  8
RUNDUNGEN
  6
Continuous
 62
     7
100
AcDbCircle
 10
212.5088898555
 20
347.9170690465
 30
0.0
 40
1.0
100
AcDbArc
 50
0.0
 51
60.00000000044565
  0
ARC
  5
C2
330
1F
100
AcDbEntity
  8
RUNDUNGEN
  6
Continuous
 62
     7
100
AcDbCircle
 10
177.5088898555
 20
361.9999728152
 30
0.0
 40
6.0
100
AcDbArc
 50
180.0
 51
270.0
  0
ARC
  5
C3
330
1F
100
AcDbEntity
  8
0
  6
Continuous
 62
     7
100
AcDbCircle
 10
154.8563898555
 20
331.9999728152
 30
0.0
 40
12.90250000000003
100
AcDbArc
 50
270.0
 51
90.0
  0
ARC
  5
C4
330
1F
100
AcDbEntity
  8
0
  6
Continuous
 62
     7
100
AcDbCircle
 10
291.2597851054
 20
410.192020008
 30
0.0
 40
154.9021570482003
100
AcDbArc
 50
214.4839903094999
 51
214.9149101174733
  0
ARC
  5
C5
330
1F
100
AcDbEntity
  8
0
  6
Continuous
 62
     7
100
AcDbCircle
 10
153.4213898555
 20
289.3749728152
 30
0.0
 40
0.25
100
AcDbArc
 50
90.0
 51
180.0
  0
ARC
  5
C6
330
1F
100
AcDbEntity
  8
0
  6
Continuous
 62
     7
100
AcDbCircle
 10
159.9963898555
 20
289.3749728152
 30
0.0
 40
0.25
100
AcDbArc
 50
0.0
 51
90.0
  0
ARC
  5
C7
330
1F
100
AcDbEntity
  8
0
  6
Continuous
 62
     7
100
AcDbCircle
 10
137.5088898555
 20
283.0124728152
 30
0.0
 40
1.0
100
AcDbArc
 50
180.0
 51
270.0
  0
ARC
  5
C8
330
1F
100
AcDbEntity
  8
0
  6
Continuous
 62
     7
100
AcDbCircle
 10
135.5088898555
 20
296.4249728152
 30
0.0
 40
1.0
100
AcDbArc
 50
0.0
 51
90.0
  0
ARC
  5
C9
330
1F
100
AcDbEntity
  8
0
  6
Continuous
 62
     7
100
AcDbCircle
 10
170.5088898555
 20
283.0124728152
 30
0.0
 40
1.0
100
AcDbArc
 50
270.0
 51
0.0
  0
ARC
  5
CA
330
1F
100
AcDbEntity
  8
RUNDUNGEN
  6
Continuous
 62
     7
100
AcDbCircle
 10
200.240940663
 20
308.9999728152
 30
0.0
 40
1.0
100
AcDbArc
 50
270.0
 51
299.9999999995543
  0
ARC
  5
CB
330
1F
100
AcDbEntity
  8
RUNDUNGEN
  6
Continuous
 62
     7
100
AcDbCircle
 10
212.5088898555
 20
316.0828765838
 30
0.0
 40
1.000000000013472
100
AcDbArc
 50
299.9999999995543
 51
0.0
  0
ARC
  5
CC
330
1F
100
AcDbEntity
  8
RUNDUNGEN
  6
Continuous
 62
     7
100
AcDbCircle
 10
177.5088898555
 20
301.9999728152
 30
0.0
 40
6.0
100
AcDbArc
 50
90.0
 51
180.0
  0
ARC
  5
CD
330
1F
100
AcDbEntity
  8
0
  6
Continuous
 62
     7
100
AcDbCircle
 10
291.2629653989
 20
253.8057276566
 30
0.0
 40
154.9060285743833
100
AcDbArc
 50
145.0850935211861
 51
145.5160052751999
  0
ARC
  5
CE
330
1F
100
AcDbEntity
  8
0
  6
Continuous
 62
     7
100
AcDbCircle
 10
32.7088898555
 20
351.2131682228
 30
0.0
 40
1.000000000059718
100
AcDbArc
 50
98.29782682941448
 51
180.0
  0
ARC
  5
CF
330
1F
100
AcDbEntity
  8
0
  6
Continuous
 62
     7
100
AcDbCircle
 10
-48.7458297191
 20
432.0977926554
 30
0.0
 40
228.5493151035939
100
AcDbArc
 50
329.9972617610292
 51
330.3682092199999
  0
ARC
  5
D0
330
1F
100
AcDbEntity
  8
0
  6
Continuous
 62
     7
100
AcDbCircle
 10
32.7088898555
 20
312.7867774075
 30
0.0
 40
0.9999999999999964
100
AcDbArc
 50
180.0
 51
261.7021731697583
  0
ARC
  5
D1
330
1F
100
AcDbEntity
  8
0
  6
Continuous
 62
     7
100
AcDbCircle
 10
-48.7458297203
 20
231.9021529742
 30
0.0
 40
228.5493151048997
100
AcDbArc
 50
29.63179077999996
 51
30.00273823897237
  0
SPLINE
  5
D2
330
1F
100
AcDbEntity
  8
0
  6
Continuous
 62
     7
100
AcDbSpline
210
0.0
220
0.0
230
1.0
 70
     8
 71
     3
 72
    19
 73
    15
 74
    13
 42
0.0000000001
 43
0.0000000001
 44
0.00000001
 40
0.0
 40
0.0
 40
0.0
 40
0.0
 40
1.288046120701371
 40
2.576183163063491
 40
3.220235598640818
 40
3.864273041930197
 40
4.508318825043315
 40
5.152368395200446
 40
5.796417964841297
 40
6.440463747458699
 40
7.08450119079
 40
7.728553626392273
 40
9.016690669248396
 40
10.30473679047589
 40
10.30473679047589
 40
10.30473679047589
 40
10.30473679047589
 10
136.5088898555
 20
326.848213407
 30
0.0
 10
136.5057578907476
 20
327.277559409306
 30
0.0
 10
136.4994937401609
 20
328.1362817209474
 30
0.0
 10
136.47266402258
 20
329.2093894066913
 30
0.0
 10
136.4552308696627
 20
330.0679526635614
 30
0.0
 10
136.4444793344426
 20
330.7119113354207
 30
0.0
 10
136.4376136899931
 20
331.3559233694111
 30
0.0
 10
136.4351280938469
 20
331.9999728149573
 30
0.0
 10
136.4376136937445
 20
332.6440222603219
 30
0.0
 10
136.4444793401863
 20
333.2880342939614
 30
0.0
 10
136.4552308738945
 20
333.9319929656978
 30
0.0
 10
136.4726640233139
 20
334.7905562228287
 30
0.0
 10
136.499493739815
 20
335.8636639089435
 30
0.0
 10
136.5057578906322
 20
336.7223862209207
 30
0.0
 10
136.5088898555
 20
337.1517322234
 30
0.0
 11
136.5088898555
 21
326.848213407
 31
0.0
 11
136.4956943346614
 21
328.1361919344932
 31
0.0
 11
136.4686414496657
 21
329.4240448691558
 31
0.0
 11
136.4556179596903
 21
330.0679656162062
 31
0.0
 11
136.445127015601
 21
330.7119176085556
 31
0.0
 11
136.4383437136744
 21
331.355927668695
 31
0.0
 11
136.4359566281448
 21
331.9999728151267
 31
0.0
 11
136.4383437171325
 21
332.6440179610294
 31
0.0
 11
136.4451270207578
 21
333.2880280206551
 31
0.0
 11
136.4556179637361
 21
333.9319800130646
 31
0.0
 11
136.4686414514911
 21
334.5759007601849
 31
0.0
 11
136.4956943345885
 21
335.8637536953814
 31
0.0
 11
136.5088898555
 21
337.1517322234
 31
0.0
  0
SPLINE
  5
D3
330
1F
100
AcDbEntity
  8
0
  6
Continuous
 62
     7
100
AcDbSpline
210
0.0
220
0.0
230
1.0
 70
     8
 71
     3
 72
    31
 73
    27
 74
    25
 42
0.0000000001
 43
0.0000000001
 44
0.00000001
 40
0.0
 40
0.0
 40
0.0
 40
0.0
 40
0.7376437759589345
 40
1.475498326879691
 40
2.213122477517416
 40
2.950705019396502
 40
3.686177655945292
 40
4.421611652192511
 40
5.154930002569573
 40
5.888438802505854
 40
7.349257460217406
 40
8.810872241657458
 40
10.26734972639927
 40
11.72357900841154
 40
13.17967656771715
 40
14.63602209579226
 40
16.09756845529238
 40
17.55831898094748
 40
18.29183757331291
 40
19.0251655460209
 40
19.76065888270663
 40
20.49619142766936
 40
21.2338348442806
 40
21.9715187125567
 40
22.70940763855491
 40
23.44708703439435
 40
23.44708703439435
 40
23.44708703439435
 40
23.44708703439435
 10
164.2395497305
 20
342.4676114627
 30
0.0
 10
164.4167865632147
 20
342.2971050428471
 30
0.0
 10
164.7713108724477
 20
341.9560434824913
 30
0.0
 10
165.2681116300175
 20
341.4100017991176
 30
0.0
 10
165.7375469760496
 20
340.8406187441286
 30
0.0
 10
166.1756309613818
 20
340.247636947501
 30
0.0
 10
166.5820862952549
 20
339.633470594207
 30
0.0
 10
166.9555527876705
 20
339.0003466117182
 30
0.0
 10
167.295655656693
 20
338.3494178658219
 30
0.0
 10
167.7027386461082
 20
337.462106060942
 30
0.0
 10
168.1253309312899
 20
336.3166418168879
 30
0.0
 10
168.4903245823702
 20
334.9008547553485
 30
0.0
 10
168.7099170677056
 20
333.4568573501282
 30
0.0
 10
168.7833689652758
 20
331.9999845999678
 30
0.0
 10
168.7099192179971
 20
330.5431563743671
 30
0.0
 10
168.4903568599951
 20
329.0992670431834
 30
0.0
 10
168.1254098601003
 20
327.6835607818865
 30
0.0
 10
167.7028566746006
 20
326.5381274100982
 30
0.0
 10
167.2957999270022
 20
325.6508214038734
 30
0.0
 10
166.9556982225324
 20
324.9998623947496
 30
0.0
 10
166.5822207834847
 20
324.3666949251943
 30
0.0
 10
166.1757435088815
 20
323.7524711437285
 30
0.0
 10
165.7376384731097
 20
323.1594301272235
 30
0.0
 10
165.2681761805174
 20
322.5900015638998
 30
0.0
 10
164.7713291582126
 20
322.0439437047226
 30
0.0
 10
164.4167920498912
 20
321.702862092953
 30
0.0
 10
164.2395486678
 20
321.5323455038
 30
0.0
 11
164.2395497305
 21
342.4676114627
 31
0.0
 11
164.7654356191815
 21
341.950347147
 31
0.0
 11
165.2636029923169
 21
341.4060507142927
 31
0.0
 11
165.7324095387485
 21
340.8365686604694
 31
0.0
 11
166.1708324832414
 21
340.2434301203061
 31
0.0
 11
166.5767205840638
 21
339.630099174794
 31
0.0
 11
166.9503880527322
 21
338.9966674218047
 31
0.0
 11
167.2899857090486
 21
338.3467218588348
 31
0.0
 11
167.595856142521
 21
337.6800296978554
 31
0.0
 11
168.1016984466223
 21
336.3095864432478
 31
0.0
 11
168.4664822222944
 21
334.8942240987118
 31
0.0
 11
168.6856133568541
 21
333.4543254184476
 31
0.0
 11
168.7588867480903
 21
331.999940760963
 31
0.0
 11
168.6856199510987
 21
330.5456876610267
 31
0.0
 11
168.466522178288
 21
329.1059173796645
 31
0.0
 11
168.1017793457438
 21
327.6906151408916
 31
0.0
 11
167.5959895264749
 21
326.3202251391309
 31
0.0
 11
167.290129661469
 21
325.6535173558223
 31
0.0
 11
166.950540859282
 21
325.0035563100778
 31
0.0
 11
166.576854786874
 21
324.3700666356573
 31
0.0
 11
166.1709453592415
 21
323.7566779650264
 31
0.0
 11
165.7324989095057
 21
323.1634810999099
 31
0.0
 11
165.2636578748002
 21
322.5939500878561
 31
0.0
 11
164.7654577799699
 21
322.0496370045834
 31
0.0
 11
164.2395486678
 21
321.5323455038
 31
0.0
  0
SPLINE
  5
D4
330
1F
100
AcDbEntity
  8
FASEN
  6
Continuous
 62
     7
100
AcDbSpline
210
0.0
220
0.0
230
1.0
 70
     8
 71
     3
 72
    25
 73
    21
 74
    19
 42
0.0000000001
 43
0.0000000001
 44
0.00000001
 40
0.0
 40
0.0
 40
0.0
 40
0.0
 40
0.0975566094277887
 40
0.1951222767046937
 40
0.2893247602615794
 40
0.3835227316120833
 40
0.4709468132169639
 40
0.5583764927264385
 40
0.6362056179834633
 40
0.7140176370191278
 40
0.7798226970436125
 40
0.8456700525223926
 40
0.8980832927027119
 40
0.9504116609625856
 40
0.9715430471367722
 40
0.9926350698648725
 40
1.010621976064059
 40
1.028726681056648
 40
1.05861054835705
 40
1.088017426530701
 40
1.088017426530701
 40
1.088017426530701
 40
1.088017426530701
 10
137.5088898555
 20
317.8136759282
 30
0.0
 10
137.4763697176952
 20
317.8139192756075
 30
0.0
 10
137.4113264226849
 20
317.8144059930169
 30
0.0
 10
137.3149562757112
 20
317.8186021627291
 30
0.0
 10
137.2198572084033
 20
317.8252690055761
 30
0.0
 10
137.1283669204899
 20
317.8345304973572
 30
0.0
 10
137.0394520027302
 20
317.8463655383532
 30
0.0
 10
136.9563821462128
 20
317.8604011107477
 30
0.0
 10
136.8770321201452
 20
317.8768847168691
 30
0.0
 10
136.8054731799924
 20
317.8951190073911
 30
0.0
 10
136.7387294185417
 20
317.9157279268562
 30
0.0
 10
136.6812897559789
 20
317.9374365512523
 30
0.0
 10
136.6295761526609
 20
317.9612006179122
 30
0.0
 10
136.5933111108488
 20
317.9825372926117
 30
0.0
 10
136.5678440555184
 20
318.0011425068871
 30
0.0
 10
136.552534405302
 20
318.0141443142709
 30
0.0
 10
136.539033377303
 20
318.0276637918773
 30
0.0
 10
136.5254149719304
 20
318.0449123481069
 30
0.0
 10
136.512443303704
 20
318.0678611896691
 30
0.0
 10
136.510067968443
 20
318.0876553541599
 30
0.0
 10
136.5088898555
 20
318.0974728152
 30
0.0
 11
137.5088898555
 21
317.8136759282
 31
0.0
 11
137.411342119785
 21
317.8149917169108
 31
0.0
 11
137.3138624922665
 21
317.8190882581391
 31
0.0
 11
137.2198960364686
 21
317.8257525730376
 31
0.0
 11
137.1261797525036
 21
317.8352665588663
 31
0.0
 11
137.0395291992414
 21
317.8468705092195
 31
0.0
 11
136.9533324855851
 21
317.8615018254276
 31
0.0
 11
136.8771551430567
 21
317.8774512838382
 31
0.0
 11
136.8017830734045
 21
317.8967841941919
 31
0.0
 11
136.7389593029105
 21
317.9163668340994
 31
0.0
 11
136.677424291488
 21
317.9398043380787
 31
0.0
 11
136.629944870313
 21
317.9620046153537
 31
0.0
 11
136.5850224117384
 21
317.9888417321951
 31
0.0
 11
136.5679928849266
 21
318.0013529550853
 31
0.0
 11
136.5519517159989
 21
318.0150480024453
 31
0.0
 11
136.5393272739911
 21
318.0278601942411
 31
0.0
 11
136.5281114939272
 21
318.0420723939451
 31
0.0
 11
136.5142843840416
 21
318.068564969453
 31
0.0
 11
136.5088898555
 21
318.0974728152
 31
0.0
  0
SPLINE
  5
D5
330
1F
100
AcDbEntity
  8
FASEN
  6
Continuous
 62
     7
100
AcDbSpline
210
0.0
220
0.0
230
1.0
 70
     8
 71
     3
 72
    25
 73
    21
 74
    19
 42
0.0000000001
 43
0.0000000001
 44
0.00000001
 40
0.0
 40
0.0
 40
0.0
 40
0.0
 40
0.0294068780876538
 40
0.0592907453769687
 40
0.0773954503695226
 40
0.0953823565687899
 40
0.1164743792972377
 40
0.1376057654736118
 40
0.1899341337485865
 40
0.2423473739408256
 40
0.3081947294169147
 40
0.3739997894354855
 40
0.4518118084741434
 40
0.5296409337351404
 40
0.6170706132423605
 40
0.7044946948448171
 40
0.7986926661966879
 40
0.8928951497542851
 40
0.9904608170298843
 40
1.088017426457317
 40
1.088017426457317
 40
1.088017426457317
 40
1.088017426457317
 10
136.5088898555
 20
345.9024728152
 30
0.0
 10
136.5100679684464
 20
345.9122902762103
 30
0.0
 10
136.5124433037172
 20
345.9320844406664
 30
0.0
 10
136.5254149719335
 20
345.9550332821955
 30
0.0
 10
136.5390333773028
 20
345.9722818384228
 30
0.0
 10
136.5525344053021
 20
345.9858013160291
 30
0.0
 10
136.5678440555191
 20
345.9988031234135
 30
0.0
 10
136.5933111108521
 20
346.0174083376953
 30
0.0
 10
136.6295761526592
 20
346.0387450124207
 30
0.0
 10
136.6812897559706
 20
346.0625090791161
 30
0.0
 10
136.7387294185405
 20
346.0842177034999
 30
0.0
 10
136.8054731799976
 20
346.1048266229361
 30
0.0
 10
136.8770321201455
 20
346.123060913476
 30
0.0
 10
136.9563821462091
 20
346.139544519626
 30
0.0
 10
137.0394520027303
 20
346.1535800920001
 30
0.0
 10
137.1283669204922
 20
346.1654151329684
 30
0.0
 10
137.2198572084027
 20
346.1746766247718
 30
0.0
 10
137.31495627571
 20
346.1813434676403
 30
0.0
 10
137.4113264226856
 20
346.1855396373052
 30
0.0
 10
137.4763697176953
 20
346.1860263546997
 30
0.0
 10
137.5088898555
 20
346.1862697021
 30
0.0
 11
136.5088898555
 21
345.9024728152
 31
0.0
 11
136.5142843840416
 21
345.9313806608595
 31
0.0
 11
136.5281114939272
 21
345.9578732363549
 31
0.0
 11
136.5393272739911
 21
345.9720854360589
 31
0.0
 11
136.5519517159989
 21
345.9848976278547
 31
0.0
 11
136.5679928849266
 21
345.9985926752153
 31
0.0
 11
136.5850224117384
 21
346.0111038981092
 31
0.0
 11
136.629944870313
 21
346.03794101498
 31
0.0
 11
136.677424291488
 21
346.0601412922831
 31
0.0
 11
136.7389593029105
 21
346.0835787962549
 31
0.0
 11
136.8017830734044
 21
346.1031614361426
 31
0.0
 11
136.8771551430567
 21
346.1224943465082
 31
0.0
 11
136.9533324855851
 21
346.1384438049382
 31
0.0
 11
137.0395291992414
 21
346.1530751211329
 31
0.0
 11
137.1261797525037
 21
346.1646790714676
 31
0.0
 11
137.2198960364686
 21
346.17419305731
 31
0.0
 11
137.3138624922665
 21
346.1808573722191
 31
0.0
 11
137.411342119785
 21
346.1849539134155
 31
0.0
 11
137.5088898555
 21
346.1862697021
 31
0.0
  0
SPLINE
  5
D6
330
1F
100
AcDbEntity
  8
BEZUGSACHSEN
  6
Continuous
 62
     7
100
AcDbSpline
210
0.0
220
0.0
230
1.0
 70
     8
 71
     3
 72
    23
 73
    19
 74
    17
 42
0.0000000001
 43
0.0000000001
 44
0.00000001
 40
0.0
 40
0.0
 40
0.0
 40
0.0
 40
0.2360930783596679
 40
0.4721940833385277
 40
1.135009475654948
 40
1.797864409426858
 40
2.777778434235008
 40
3.757754762194344
 40
4.910398249580832
 40
6.063069108003201
 40
7.215746348539073
 40
8.368396239402633
 40
9.348395724720241
 40
10.32833288524115
 40
10.9912071709103
 40
11.65404191837545
 40
11.89015071513321
 40
12.12625158234844
 40
12.12625158234844
 40
12.12625158234844
 40
12.12625158234844
 10
195.5088898555
 20
355.9999728152
 30
0.0
 10
195.4324952995551
 20
355.9810708185004
 30
0.0
 10
195.2797036227847
 20
355.9432661904833
 30
0.0
 10
194.9114826500314
 20
355.8563435968559
 30
0.0
 10
194.4029285303577
 20
355.7447773407033
 30
0.0
 10
193.6482467961002
 20
355.599154427323
 30
0.0
 10
192.784729354616
 20
355.4610970344954
 30
0.0
 10
191.7542618483058
 20
355.338096941456
 30
0.0
 10
190.6617202764591
 20
355.2570566193838
 30
0.0
 10
189.5089444848721
 20
355.2282823432773
 30
0.0
 10
188.3561664418294
 20
355.2570521196529
 30
0.0
 10
187.2636125932967
 20
355.3380888128053
 30
0.0
 10
186.233127097084
 20
355.4610864897002
 30
0.0
 10
185.3695875568458
 20
355.5991444128364
 30
0.0
 10
184.614885304093
 20
355.7447698467321
 30
0.0
 10
184.1063159573425
 20
355.8563390534829
 30
0.0
 10
183.7380836371635
 20
355.9432642668249
 30
0.0
 10
183.5852869274457
 20
355.9810701773592
 30
0.0
 10
183.5088898555
 20
355.9999728152
 30
0.0
 11
195.5088898555
 21
355.9999728152
 31
0.0
 11
195.2796066844007
 21
355.9436774415001
 31
0.0
 11
195.0498430306221
 21
355.8893419286719
 31
0.0
 11
194.4023776134302
 21
355.7475224031044
 31
0.0
 11
193.7515170939025
 21
355.6219945283279
 31
0.0
 11
192.7838540220887
 21
355.4675287539197
 31
0.0
 11
191.8107579933045
 21
355.3516075646359
 31
0.0
 11
190.6612624631924
 21
355.2664780440984
 31
0.0
 11
189.5089465929905
 21
355.2378730945794
 31
0.0
 11
188.3566242274781
 21
355.2664735629181
 31
0.0
 11
187.2071219529051
 21
355.3515987158359
 31
0.0
 11
186.2340024384613
 21
355.4675185235971
 31
0.0
 11
185.2663160167945
 21
355.6219847914084
 31
0.0
 11
184.6154362599509
 21
355.7475151093902
 31
0.0
 11
183.9679518256131
 21
355.8893382730039
 31
0.0
 11
183.7381805814413
 21
355.9436755461979
 31
0.0
 11
183.5088898555
 21
355.9999728152
 31
0.0
  0
SPLINE
  5
D7
330
1F
100
AcDbEntity
  8
0
  6
Continuous
 62
     2
100
AcDbSpline
210
0.0
220
0.0
230
1.0
 70
     8
 71
     3
 72
    47
 73
    43
 74
    41
 42
0.0000000001
 43
0.0000000001
 44
0.00000001
 40
0.0
 40
0.0
 40
0.0
 40
0.0
 40
0.0227303698599951
 40
0.0903121385709122
 40
0.2017859149883588
 40
0.3560104670058132
 40
0.5517857416370684
 40
0.7878489780667332
 40
1.06290891823389
 40
1.375595317412688
 40
1.724357339807193
 40
2.106946310333702
 40
2.520891382277657
 40
2.963444578784892
 40
3.431573618212844
 40
3.921269463389513
 40
4.428315535321286
 40
4.948513485885102
 40
5.477981019467005
 40
6.013987265243954
 40
6.554171218917332
 40
7.09644661158897
 40
7.638788485165628
 40
8.179121402504366
 40
8.715293876069822
 40
9.244920597720215
 40
9.765271708551662
 40
10.27252688658378
 40
10.76256898829203
 40
11.23127867341966
 40
11.67470440374636
 40
12.08969494389075
 40
12.47335705192329
 40
12.82314566922218
 40
13.13676210988619
 40
13.41263238222181
 40
13.64937561394316
 40
13.84571371824616
 40
14.00039723580142
 40
14.11221638673576
 40
14.18001491816928
 40
14.20282034522688
 40
14.20282034522688
 40
14.20282034522688
 40
14.20282034522688
 10
182.5088898555
 20
355.999999686
 30
0.0
 10
182.5161620941246
 20
355.9978731124
 30
0.0
 10
182.5450560992128
 20
355.9894238257923
 30
0.0
 10
182.6096696803388
 20
355.9707349759769
 30
0.0
 10
182.7164629884244
 20
355.9401249370203
 30
0.0
 10
182.8645462188775
 20
355.8984885662816
 30
0.0
 10
183.052907920421
 20
355.8466836497777
 30
0.0
 10
183.2805845112755
 20
355.7859589010744
 30
0.0
 10
183.5465353515894
 20
355.7175523299759
 30
0.0
 10
183.8496869217842
 20
355.6430329816353
 30
0.0
 10
184.1886235740185
 20
355.5640312734334
 30
0.0
 10
184.5615873666212
 20
355.4824655293814
 30
0.0
 10
184.9663887480034
 20
355.400348428487
 30
0.0
 10
185.4005408372905
 20
355.3197785185997
 30
0.0
 10
185.8609931539108
 20
355.2429383224421
 30
0.0
 10
186.3441124584542
 20
355.171838884429
 30
0.0
 10
186.8458245425205
 20
355.1085833822887
 30
0.0
 10
187.361960364168
 20
355.0546565193386
 30
0.0
 10
187.8888006804708
 20
355.0115304438882
 30
0.0
 10
188.423138941681
 20
354.9800145019747
 30
0.0
 10
188.9623365984901
 20
354.9608539662954
 30
0.0
 10
189.5039478514188
 20
354.9543076775541
 30
0.0
 10
190.0456115062545
 20
354.9606225665412
 30
0.0
 10
190.5849445082694
 20
354.9795566728841
 30
0.0
 10
191.1194537218873
 20
355.0108602802655
 30
0.0
 10
191.6464704631193
 20
355.0537864766288
 30
0.0
 10
192.1628004385254
 20
355.1075280261574
 30
0.0
 10
192.6647707476846
 20
355.1706236756235
 30
0.0
 10
193.1482907130975
 20
355.2416017720023
 30
0.0
 10
193.609360475925
 20
355.318386747219
 30
0.0
 10
194.0443553993065
 20
355.3989802526646
 30
0.0
 10
194.4501557964457
 20
355.481188359537
 30
0.0
 10
194.8241612726852
 20
355.5628986955927
 30
0.0
 10
195.1640949507911
 20
355.6420722447762
 30
0.0
 10
195.4681520304999
 20
355.7167719432483
 30
0.0
 10
195.7348909888661
 20
355.7853533548895
 30
0.0
 10
195.9632332168103
 20
355.8462381937733
 30
0.0
 10
196.1521443053198
 20
355.8981847430044
 30
0.0
 10
196.3006674892844
 20
355.9399400737392
 30
0.0
 10
196.4077884761585
 20
355.9706422056462
 30
0.0
 10
196.4726062456311
 20
355.9893895435052
 30
0.0
 10
196.5015936055975
 20
355.9978661609619
 30
0.0
 10
196.5088898555
 20
355.999999764
 30
0.0
 11
182.5088898555
 21
355.999999686
 31
0.0
 11
182.5307081370698
 21
355.9936253387146
 31
0.0
 11
182.5956207589083
 21
355.9748198345167
 31
0.0
 11
182.7027858705052
 21
355.9441271369291
 31
0.0
 11
182.8512475565333
 21
355.9023618376166
 31
0.0
 11
183.0400193371458
 21
355.8504660477937
 31
0.0
 11
183.2681065392333
 21
355.7896213287333
 31
0.0
 11
183.534500837475
 21
355.7211227991937
 31
0.0
 11
183.8381474909666
 21
355.6464803578167
 31
0.0
 11
184.1778096327437
 21
355.5673312724896
 31
0.0
 11
184.5515683071833
 21
355.4856075082
 31
0.0
 11
184.9572549188916
 21
355.4033342095708
 31
0.0
 11
185.39238440205
 21
355.3226145426667
 31
0.0
 11
185.8541301110687
 21
355.2455710630041
 31
0.0
 11
186.3386155517
 21
355.1743258624667
 31
0.0
 11
186.8416788233292
 21
355.110898236
 31
0.0
 11
187.3590662485333
 21
355.0568967544333
 31
0.0
 11
187.8867687166792
 21
355.0136998305833
 31
0.0
 11
188.4218471611
 21
354.9821759693333
 31
0.0
 11
188.961690075225
 21
354.9629839950937
 31
0.0
 11
189.5039261489
 21
354.9564539183166
 31
0.0
 11
190.046231451
 21
354.9627521044708
 31
0.0
 11
190.5862313701
 21
354.9817191530499
 31
0.0
 11
191.1214888006708
 21
355.0130305635582
 31
0.0
 11
191.6493673410666
 21
355.0560272015166
 31
0.0
 11
192.1669282863583
 21
355.1098412001812
 31
0.0
 11
192.6702230146
 21
355.1731043977334
 31
0.0
 11
193.1550768833417
 21
355.2442239267876
 31
0.0
 11
193.6174210851333
 21
355.3212083927666
 31
0.0
 11
194.05343254925
 21
355.4019572718584
 31
0.0
 11
194.4601653168667
 21
355.4843320505
 31
0.0
 11
194.8349898584625
 21
355.5662049773895
 31
0.0
 11
195.1756652498333
 21
355.6455293400167
 31
0.0
 11
195.4802248725667
 21
355.7203538550854
 31
0.0
 11
195.7474107261
 21
355.7890279173666
 31
0.0
 11
195.9761592722229
 21
355.8500316911229
 31
0.0
 11
196.1654762042834
 21
355.9020677405167
 31
0.0
 11
196.3143809417615
 21
355.9439529379001
 31
0.0
 11
196.4218785771083
 21
355.9747389884833
 31
0.0
 11
196.4869995299323
 21
355.9936043633229
 31
0.0
 11
196.5088898555
 21
355.999999764
 31
0.0
  0
DIMENSION
  5
E2
330
1F
100
AcDbEntity
  8
1
100
AcDbDimension
  2
*D2
 10
213.5088898555
 20
405.503551959737
 30
0.0
 11
129.652131261296
 21
409.253551959737
 31
0.0
 70
    32
  1
<>
 71
     5
 42
-1.0
 53
0.00013888888889
  3
ME10_DIM_10
100
AcDbAlignedDimension
 13
31.7088898555
 23
351.2131682228
 33
0.0
 14
213.5088898555
 24
347.9170690465
 34
0.0
100
AcDbRotatedDimension
  0
DIMENSION
  5
ED
330
1F
100
AcDbEntity
  8
1
100
AcDbDimension
  2
*D3
 10
213.5088898555
 20
397.398832676044
 30
0.0
 11
176.806840016421
 21
401.148832676044
 31
0.0
 70
    32
  1
<>
 71
     5
 42
-1.0
 53
0.00013888888889
  3
ME10_DIM_11
100
AcDbAlignedDimension
 13
133.5088898555
 23
384.9874728152
 33
0.0
 14
213.5088898555
 24
347.9170690465
 34
0.0
100
AcDbRotatedDimension
  0
DIMENSION
  5
F8
330
1F
100
AcDbEntity
  8
1
100
AcDbDimension
  2
*D4
 10
213.5088898555
 20
389.208920207283
 30
0.0
 11
192.102705950725
 21
392.958920207283
 31
0.0
 70
    32
  1
<>
 71
     5
 42
-1.0
 53
0.00013888888889
  3
ME10_DIM_12
100
AcDbAlignedDimension
 13
171.5088898555
 23
380.9874728152
 33
0.0
 14
213.5088898555
 24
347.9170690465
 34
0.0
100
AcDbRotatedDimension
  0
DIMENSION
  5
103
330
1F
100
AcDbEntity
  8
1
100
AcDbDimension
  2
*D5
 10
233.534027851518
 20
355.9999728152
 30
0.0
 11
229.784027851518
 21
332.240852593693
 31
0.0
 70
    32
  1
<>
 71
     5
 42
-1.0
 53
90.0
  3
ME10_DIM_13
100
AcDbAlignedDimension
 13
200.240940663
 23
307.9999728152
 33
0.0
 14
200.240940663
 24
355.9999728152
 34
0.0
 50
90.0
100
AcDbRotatedDimension
  0
DIMENSION
  5
10E
330
1F
100
AcDbEntity
  8
1
100
AcDbDimension
  2
*D6
 10
225.103235604263
 20
339.9999728152
 30
0.0
 11
221.353235604263
 21
331.9999728152
 31
0.0
 70
    32
  1
<>
 71
     5
 42
-1.0
 53
90.0
  3
ME10_DIM_14
100
AcDbAlignedDimension
 13
213.5088898555
 23
323.9999728152
 33
0.0
 14
213.5088898555
 24
339.9999728152
 34
0.0
 50
90.0
100
AcDbRotatedDimension
  0
INSERT
  5
115
330
1F
100
AcDbEntity
  8
1
100
AcDbBlockReference
  2
*D7
 10
0.0
 20
0.0
 30
0.0
  0
ENDSEC
  0
SECTION
  2
OBJECTS
  0
DICTIONARY
  5
C
330
0
100
AcDbDictionary
281
     1
  3
ACAD_GROUP
350
D
  3
ACAD_LAYOUT
350
1A
  3
ACAD_MLEADERSTYLE
350
118
  3
ACAD_MLINESTYLE
350
17
  3
ACAD_PLOTSETTINGS
350
19
  3
ACAD_PLOTSTYLENAME
350
E
  3
ACAD_SCALELIST
350
4C
  3
ACAD_VISUALSTYLE
350
2A
  3
AcDbVariableDictionary
350
116
  0
DICTIONARY
  5
D
102
{ACAD_REACTORS
330
C
102
}
330
C
100
AcDbDictionary
281
     1
  0
DICTIONARY
  5
1A
102
{ACAD_REACTORS
330
C
102
}
330
C
100
AcDbDictionary
281
     1
  3
Layout1
350
1E
  3
Layout2
350
26
  3
Model
350
22
  0
DICTIONARY
  5
118
102
{ACAD_REACTORS
330
C
102
}
330
C
100
AcDbDictionary
281
     1
  0
DICTIONARY
  5
17
102
{ACAD_REACTORS
330
C
102
}
330
C
100
AcDbDictionary
281
     1
  3
Standard
350
18
  0
DICTIONARY
  5
19
102
{ACAD_REACTORS
330
C
102
}
330
C
100
AcDbDictionary
281
     1
  0
ACDBDICTIONARYWDFLT
  5
E
102
{ACAD_REACTORS
330
C
102
}
330
C
100
AcDbDictionary
281
     1
  3
Normal
350
F
100
AcDbDictionaryWithDefault
340
F
  0
DICTIONARY
  5
4C
102
{ACAD_REACTORS
330
C
102
}
330
C
100
AcDbDictionary
281
     1
  3
A0
350
4D
  3
A1
350
4E
  3
A2
350
4F
  3
A3
350
50
  3
A4
350
51
  3
A5
350
52
  3
A6
350
53
  3
A7
350
54
  3
A8
350
55
  3
A9
350
56
  3
B0
350
57
  3
B1
350
58
  3
B2
350
59
  3
B3
350
5A
  3
B4
350
5B
  3
B5
350
5C
  3
B6
350
5D
  3
B7
350
5E
  3
B8
350
5F
  3
B9
350
60
  3
C0
350
61
  3
C1
350
62
  3
C2
350
63
  3
C3
350
64
  3
C4
350
65
  3
C5
350
66
  3
C6
350
67
  3
C7
350
68
  3
C8
350
69
  3
C9
350
6A
  3
D0
350
6B
  3
D1
350
6C
  3
D2
350
6D
  0
DICTIONARY
  5
2A
102
{ACAD_REACTORS
330
C
102
}
330
C
100
AcDbDictionary
281
     1
  3
2dWireframe
350
2F
  3
3D Hidden
350
31
  3
3dWireframe
350
30
  3
Basic
350
32
  3
Brighten
350
36
  3
ColorChange
350
3A
  3
Conceptual
350
34
  3
Dim
350
35
  3
Facepattern
350
39
  3
Flat
350
2B
  3
FlatWithEdges
350
2C
  3
Gouraud
350
2D
  3
GouraudWithEdges
350
2E
  3
Linepattern
350
38
  3
Realistic
350
33
  3
Thicken
350
37
  0
DICTIONARY
  5
116
102
{ACAD_REACTORS
330
C
102
}
330
C
100
AcDbDictionary
281
     1
  3
CANNOSCALE
350
119
  0
LAYOUT
  5
1E
102
{ACAD_REACTORS
330
1A
102
}
330
1A
100
AcDbPlotSettings
  1

  2
none_device
  4

  6

 40
0.0
 41
0.0
 42
0.0
 43
0.0
 44
0.0
 45
0.0
 46
0.0
 47
0.0
 48
0.0
 49
0.0
140
0.0
141
0.0
142
1.0
143
1.0
 70
   688
 72
     0
 73
     0
 74
     5
  7

 75
    16
147
1.0
148
0.0
149
0.0
100
AcDbLayout
  1
Layout1
 70
     1
 71
     1
 10
0.0
 20
0.0
 11
12.0
 21
9.0
 12
0.0
 22
0.0
 32
0.0
 14
1.00000000000000E+20
 24
1.00000000000000E+20
 34
1.00000000000000E+20
 15
-1.00000000000000E+20
 25
-1.00000000000000E+20
 35
-1.00000000000000E+20
146
0.0
 13
0.0
 23
0.0
 33
0.0
 16
1.0
 26
0.0
 36
0.0
 17
0.0
 27
1.0
 37
0.0
 76
     0
330
1B
  0
LAYOUT
  5
26
102
{ACAD_REACTORS
330
1A
102
}
330
1A
100
AcDbPlotSettings
  1

  2
none_device
  4

  6

 40
0.0
 41
0.0
 42
0.0
 43
0.0
 44
0.0
 45
0.0
 46
0.0
 47
0.0
 48
0.0
 49
0.0
140
0.0
141
0.0
142
1.0
143
1.0
 70
   688
 72
     0
 73
     0
 74
     5
  7

 75
    16
147
1.0
148
0.0
149
0.0
100
AcDbLayout
  1
Layout2
 70
     1
 71
     2
 10
0.0
 20
0.0
 11
0.0
 21
0.0
 12
0.0
 22
0.0
 32
0.0
 14
0.0
 24
0.0
 34
0.0
 15
0.0
 25
0.0
 35
0.0
146
0.0
 13
0.0
 23
0.0
 33
0.0
 16
1.0
 26
0.0
 36
0.0
 17
0.0
 27
1.0
 37
0.0
 76
     0
330
23
  0
LAYOUT
  5
22
102
{ACAD_REACTORS
330
1A
102
}
330
1A
100
AcDbPlotSettings
  1

  2
none_device
  4

  6

 40
0.0
 41
0.0
 42
0.0
 43
0.0
 44
0.0
 45
0.0
 46
0.0
 47
0.0
 48
0.0
 49
0.0
140
0.0
141
0.0
142
1.0
143
1.0
 70
  1712
 72
     0
 73
     0
 74
     0
  7

 75
     0
147
1.0
148
0.0
149
0.0
100
AcDbLayout
  1
Model
 70
     1
 71
     0
 10
0.0
 20
0.0
 11
12.0
 21
9.0
 12
0.0
 22
0.0
 32
0.0
 14
10.6355927234733
 24
278.8874728152
 34
0.0
 15
235.534027851518
 25
411.003551959737
 35
0.0
146
0.0
 13
0.0
 23
0.0
 33
0.0
 16
1.0
 26
0.0
 36
0.0
 17
0.0
 27
1.0
 37
0.0
 76
     0
330
1F
331
29
  0
MLINESTYLE
  5
18
102
{ACAD_REACTORS
330
17
102
}
330
17
100
AcDbMlineStyle
  2
Standard
 70
     0
  3

 62
   256
 51
90.0
 52
90.0
 71
     2
 49
0.5
 62
   256
  6
BYLAYER
 49
-0.5
 62
   256
  6
BYLAYER
  0
ACDBPLACEHOLDER
  5
F
102
{ACAD_REACTORS
330
E
102
}
330
E
  0
SCALE
  5
4D
102
{ACAD_REACTORS
330
4C
102
}
330
4C
100
AcDbScale
 70
     0
300
1:1
140
1.0
141
1.0
290
     1
  0
SCALE
  5
4E
102
{ACAD_REACTORS
330
4C
102
}
330
4C
100
AcDbScale
 70
     0
300
1:2
140
1.0
141
2.0
290
     0
  0
SCALE
  5
4F
102
{ACAD_REACTORS
330
4C
102
}
330
4C
100
AcDbScale
 70
     0
300
1:4
140
1.0
141
4.0
290
     0
  0
SCALE
  5
50
102
{ACAD_REACTORS
330
4C
102
}
330
4C
100
AcDbScale
 70
     0
300
1:5
140
1.0
141
5.0
290
     0
  0
SCALE
  5
51
102
{ACAD_REACTORS
330
4C
102
}
330
4C
100
AcDbScale
 70
     0
300
1:8
140
1.0
141
8.0
290
     0
  0
SCALE
  5
52
102
{ACAD_REACTORS
330
4C
102
}
330
4C
100
AcDbScale
 70
     0
300
1:10
140
1.0
141
10.0
290
     0
  0
SCALE
  5
53
102
{ACAD_REACTORS
330
4C
102
}
330
4C
100
AcDbScale
 70
     0
300
1:16
140
1.0
141
16.0
290
     0
  0
SCALE
  5
54
102
{ACAD_REACTORS
330
4C
102
}
330
4C
100
AcDbScale
 70
     0
300
1:20
140
1.0
141
20.0
290
     0
  0
SCALE
  5
55
102
{ACAD_REACTORS
330
4C
102
}
330
4C
100
AcDbScale
 70
     0
300
1:30
140
1.0
141
30.0
290
     0
  0
SCALE
  5
56
102
{ACAD_REACTORS
330
4C
102
}
330
4C
100
AcDbScale
 70
     0
300
1:40
140
1.0
141
40.0
290
     0
  0
SCALE
  5
57
102
{ACAD_REACTORS
330
4C
102
}
330
4C
100
AcDbScale
 70
     0
300
1:50
140
1.0
141
50.0
290
     0
  0
SCALE
  5
58
102
{ACAD_REACTORS
330
4C
102
}
330
4C
100
AcDbScale
 70
     0
300
1:100
140
1.0
141
100.0
290
     0
  0
SCALE
  5
59
102
{ACAD_REACTORS
330
4C
102
}
330
4C
100
AcDbScale
 70
     0
300
2:1
140
2.0
141
1.0
290
     0
  0
SCALE
  5
5A
102
{ACAD_REACTORS
330
4C
102
}
330
4C
100
AcDbScale
 70
     0
300
4:1
140
4.0
141
1.0
290
     0
  0
SCALE
  5
5B
102
{ACAD_REACTORS
330
4C
102
}
330
4C
100
AcDbScale
 70
     0
300
8:1
140
8.0
141
1.0
290
     0
  0
SCALE
  5
5C
102
{ACAD_REACTORS
330
4C
102
}
330
4C
100
AcDbScale
 70
     0
300
10:1
140
10.0
141
1.0
290
     0
  0
SCALE
  5
5D
102
{ACAD_REACTORS
330
4C
102
}
330
4C
100
AcDbScale
 70
     0
300
100:1
140
100.0
141
1.0
290
     0
  0
SCALE
  5
5E
102
{ACAD_REACTORS
330
4C
102
}
330
4C
100
AcDbScale
 70
     0
300
1/128" = 1'-0"
140
0.0078125
141
12.0
290
     0
  0
SCALE
  5
5F
102
{ACAD_REACTORS
330
4C
102
}
330
4C
100
AcDbScale
 70
     0
300
1/64" = 1'-0"
140
0.015625
141
12.0
290
     0
  0
SCALE
  5
60
102
{ACAD_REACTORS
330
4C
102
}
330
4C
100
AcDbScale
 70
     0
300
1/32" = 1'-0"
140
0.03125
141
12.0
290
     0
  0
SCALE
  5
61
102
{ACAD_REACTORS
330
4C
102
}
330
4C
100
AcDbScale
 70
     0
300
1/16" = 1'-0"
140
0.0625
141
12.0
290
     0
  0
SCALE
  5
62
102
{ACAD_REACTORS
330
4C
102
}
330
4C
100
AcDbScale
 70
     0
300
3/32" = 1'-0"
140
0.09375
141
12.0
290
     0
  0
SCALE
  5
63
102
{ACAD_REACTORS
330
4C
102
}
330
4C
100
AcDbScale
 70
     0
300
1/8" = 1'-0"
140
0.125
141
12.0
290
     0
  0
SCALE
  5
64
102
{ACAD_REACTORS
330
4C
102
}
330
4C
100
AcDbScale
 70
     0
300
3/16" = 1'-0"
140
0.1875
141
12.0
290
     0
  0
SCALE
  5
65
102
{ACAD_REACTORS
330
4C
102
}
330
4C
100
AcDbScale
 70
     0
300
1/4" = 1'-0"
140
0.25
141
12.0
290
     0
  0
SCALE
  5
66
102
{ACAD_REACTORS
330
4C
102
}
330
4C
100
AcDbScale
 70
     0
300
3/8" = 1'-0"
140
0.375
141
12.0
290
     0
  0
SCALE
  5
67
102
{ACAD_REACTORS
330
4C
102
}
330
4C
100
AcDbScale
 70
     0
300
1/2" = 1'-0"
140
0.5
141
12.0
290
     0
  0
SCALE
  5
68
102
{ACAD_REACTORS
330
4C
102
}
330
4C
100
AcDbScale
 70
     0
300
3/4" = 1'-0"
140
0.75
141
12.0
290
     0
  0
SCALE
  5
69
102
{ACAD_REACTORS
330
4C
102
}
330
4C
100
AcDbScale
 70
     0
300
1" = 1'-0"
140
1.0
141
12.0
290
     0
  0
SCALE
  5
6A
102
{ACAD_REACTORS
330
4C
102
}
330
4C
100
AcDbScale
 70
     0
300
1-1/2" = 1'-0"
140
1.5
141
12.0
290
     0
  0
SCALE
  5
6B
102
{ACAD_REACTORS
330
4C
102
}
330
4C
100
AcDbScale
 70
     0
300
3" = 1'-0"
140
3.0
141
12.0
290
     0
  0
SCALE
  5
6C
102
{ACAD_REACTORS
330
4C
102
}
330
4C
100
AcDbScale
 70
     0
300
6" = 1'-0"
140
6.0
141
12.0
290
     0
  0
SCALE
  5
6D
102
{ACAD_REACTORS
330
4C
102
}
330
4C
100
AcDbScale
 70
     0
300
1'-0" = 1'-0"
140
12.0
141
12.0
290
     0
  0
VISUALSTYLE
  5
2F
102
{ACAD_REACTORS
330
2A
102
}
330
2A
100
AcDbVisualStyle
  2
2dWireframe
 70
     4
 71
     0
 72
     2
 73
     0
 90
        0
 40
-0.6
 41
-30.0
 62
     5
 63
     7
 74
     1
 91
        4
 64
     7
 65
   257
 75
     1
175
     1
 42
1.0
 92
        0
 66
   257
 43
1.0
 76
     1
 77
     6
 78
     2
 67
     7
 79
     5
170
     0
171
     0
290
     0
174
     0
 93
        1
 44
0.0
173
     0
291
     0
 45
0.0
1001
ACAD
1000
AcDbSavedByObjectVersion
1070
     0
  0
VISUALSTYLE
  5
31
102
{ACAD_REACTORS
330
2A
102
}
330
2A
100
AcDbVisualStyle
  2
3D Hidden
 70
     6
 71
     1
 72
     2
 73
     2
 90
        0
 40
-0.6
 41
-30.0
 62
     5
 63
     7
 74
     2
 91
        2
 64
     7
 65
   257
 75
     2
175
     1
 42
40.0
 92
        0
 66
   257
 43
1.0
 76
     1
 77
     6
 78
     2
 67
     7
 79
     3
170
     0
171
     0
290
     0
174
     0
 93
        1
 44
0.0
173
     0
291
     0
 45
0.0
1001
ACAD
1000
AcDbSavedByObjectVersion
1070
     0
  0
VISUALSTYLE
  5
30
102
{ACAD_REACTORS
330
2A
102
}
330
2A
100
AcDbVisualStyle
  2
3dWireframe
 70
     5
 71
     0
 72
     2
 73
     0
 90
        0
 40
-0.6
 41
-30.0
 62
     5
 63
     7
 74
     1
 91
        4
 64
     7
 65
   257
 75
     1
175
     1
 42
1.0
 92
        0
 66
   257
 43
1.0
 76
     1
 77
     6
 78
     2
 67
     7
 79
     5
170
     0
171
     0
290
     0
174
     0
 93
        1
 44
0.0
173
     0
291
     0
 45
0.0
1001
ACAD
1000
AcDbSavedByObjectVersion
1070
     0
  0
VISUALSTYLE
  5
32
102
{ACAD_REACTORS
330
2A
102
}
330
2A
100
AcDbVisualStyle
  2
Basic
 70
     7
 71
     1
 72
     0
 73
     1
 90
        0
 40
-0.6
 41
-30.0
 62
     5
 63
     7
 74
     0
 91
        4
 64
     7
 65
   257
 75
     1
175
     1
 42
1.0
 92
        8
 66
     7
 43
1.0
 76
     1
 77
     6
 78
     2
 67
     7
 79
     5
170
     0
171
     0
290
     0
174
     0
 93
        1
 44
0.0
173
     0
291
     1
 45
0.0
1001
ACAD
1000
AcDbSavedByObjectVersion
1070
     0
  0
VISUALSTYLE
  5
36
102
{ACAD_REACTORS
330
2A
102
}
330
2A
100
AcDbVisualStyle
  2
Brighten
 70
    12
 71
     2
 72
     2
 73
     0
 90
        0
 40
-0.6
 41
-30.0
 62
     5
 63
     7
 74
     1
 91
        4
 64
     7
 65
   257
 75
     1
175
     1
 42
1.0
 92
        8
 66
     7
 43
1.0
 76
     1
 77
     6
 78
     2
 67
     7
 79
     5
170
     0
171
     0
290
     0
174
     0
 93
        1
 44
50.0
173
     0
291
     1
 45
0.0
1001
ACAD
1000
AcDbSavedByObjectVersion
1070
     0
  0
VISUALSTYLE
  5
3A
102
{ACAD_REACTORS
330
2A
102
}
330
2A
100
AcDbVisualStyle
  2
ColorChange
 70
    16
 71
     2
 72
     2
 73
     3
 90
        0
 40
-0.6
 41
-30.0
 62
     5
 63
     8
 74
     1
 91
        4
 64
     7
 65
   257
 75
     1
175
     1
 42
1.0
 92
        8
 66
     8
 43
1.0
 76
     1
 77
     6
 78
     2
 67
     7
 79
     5
170
     0
171
     0
290
     0
174
     0
 93
        1
 44
0.0
173
     0
291
     1
 45
0.0
1001
ACAD
1000
AcDbSavedByObjectVersion
1070
     0
  0
VISUALSTYLE
  5
34
102
{ACAD_REACTORS
330
2A
102
}
330
2A
100
AcDbVisualStyle
  2
Conceptual
 70
     9
 71
     3
 72
     2
 73
     0
 90
        0
 40
-0.6
 41
-30.0
 62
     5
 63
     7
 74
     2
 91
        2
 64
     7
 65
   257
 75
     1
175
     1
 42
40.0
 92
        8
 66
     7
 43
1.0
 76
     1
 77
     6
 78
     2
 67
     7
 79
     3
170
     0
171
     0
290
     0
174
     0
 93
        1
 44
0.0
173
     0
291
     0
 45
0.0
1001
ACAD
1000
AcDbSavedByObjectVersion
1070
     0
  0
VISUALSTYLE
  5
35
102
{ACAD_REACTORS
330
2A
102
}
330
2A
100
AcDbVisualStyle
  2
Dim
 70
    11
 71
     2
 72
     2
 73
     0
 90
        0
 40
-0.6
 41
-30.0
 62
     5
 63
     7
 74
     1
 91
        4
 64
     7
 65
   257
 75
     1
175
     1
 42
1.0
 92
        8
 66
     7
 43
1.0
 76
     1
 77
     6
 78
     2
 67
     7
 79
     5
170
     0
171
     0
290
     0
174
     0
 93
        1
 44
-50.0
173
     0
291
     1
 45
0.0
1001
ACAD
1000
AcDbSavedByObjectVersion
1070
     0
  0
VISUALSTYLE
  5
39
102
{ACAD_REACTORS
330
2A
102
}
330
2A
100
AcDbVisualStyle
  2
Facepattern
 70
    15
 71
     2
 72
     2
 73
     0
 90
        0
 40
-0.6
 41
-30.0
 62
     5
 63
     7
 74
     1
 91
        4
 64
     7
 65
   257
 75
     1
175
     1
 42
1.0
 92
        8
 66
     7
 43
1.0
 76
     1
 77
     6
 78
     2
 67
     7
 79
     5
170
     0
171
     0
290
     0
174
     0
 93
        1
 44
0.0
173
     0
291
     1
 45
0.0
1001
ACAD
1000
AcDbSavedByObjectVersion
1070
     0
  0
VISUALSTYLE
  5
2B
102
{ACAD_REACTORS
330
2A
102
}
330
2A
100
AcDbVisualStyle
  2
Flat
 70
     0
 71
     2
 72
     1
 73
     1
 90
        2
 40
-0.6
 41
30.0
 62
     5
 63
     7
 74
     0
 91
        4
 64
     7
 65
   257
 75
     1
175
     1
 42
1.0
 92
        8
 66
     7
 43
1.0
 76
     1
 77
     6
 78
     2
 67
     7
 79
     5
170
     0
171
     0
290
     0
174
     0
 93
       13
 44
0.0
173
     0
291
     1
 45
0.0
1001
ACAD
1000
AcDbSavedByObjectVersion
1070
     0
  0
VISUALSTYLE
  5
2C
102
{ACAD_REACTORS
330
2A
102
}
330
2A
100
AcDbVisualStyle
  2
FlatWithEdges
 70
     1
 71
     2
 72
     1
 73
     1
 90
        2
 40
-0.6
 41
30.0
 62
     5
 63
     7
 74
     1
 91
        4
 64
     7
 65
   257
 75
     1
175
     1
 42
1.0
 92
        0
 66
   257
 43
1.0
 76
     1
 77
     6
 78
     2
 67
     7
 79
     5
170
     0
171
     0
290
     0
174
     0
 93
       13
 44
0.0
173
     0
291
     1
 45
0.0
1001
ACAD
1000
AcDbSavedByObjectVersion
1070
     0
  0
VISUALSTYLE
  5
2D
102
{ACAD_REACTORS
330
2A
102
}
330
2A
100
AcDbVisualStyle
  2
Gouraud
 70
     2
 71
     2
 72
     2
 73
     1
 90
        2
 40
-0.6
 41
30.0
 62
     5
 63
     7
 74
     0
 91
        4
 64
     7
 65
   257
 75
     1
175
     1
 42
1.0
 92
        0
 66
     7
 43
1.0
 76
     1
 77
     6
 78
     2
 67
     7
 79
     5
170
     0
171
     0
290
     0
174
     0
 93
       13
 44
0.0
173
     0
291
     1
 45
0.0
1001
ACAD
1000
AcDbSavedByObjectVersion
1070
     0
  0
VISUALSTYLE
  5
2E
102
{ACAD_REACTORS
330
2A
102
}
330
2A
100
AcDbVisualStyle
  2
GouraudWithEdges
 70
     3
 71
     2
 72
     2
 73
     1
 90
        2
 40
-0.6
 41
30.0
 62
     5
 63
     7
 74
     1
 91
        4
 64
     7
 65
   257
 75
     1
175
     1
 42
1.0
 92
        0
 66
   257
 43
1.0
 76
     1
 77
     6
 78
     2
 67
     7
 79
     5
170
     0
171
     0
290
     0
174
     0
 93
       13
 44
0.0
173
     0
291
     1
 45
0.0
1001
ACAD
1000
AcDbSavedByObjectVersion
1070
     0
  0
VISUALSTYLE
  5
38
102
{ACAD_REACTORS
330
2A
102
}
330
2A
100
AcDbVisualStyle
  2
Linepattern
 70
    14
 71
     2
 72
     2
 73
     0
 90
        0
 40
-0.6
 41
-30.0
 62
     5
 63
     7
 74
     1
 91
        4
 64
     7
 65
   257
 75
     7
175
     7
 42
1.0
 92
        8
 66
     7
 43
1.0
 76
     1
 77
     6
 78
     2
 67
     7
 79
     5
170
     0
171
     0
290
     0
174
     0
 93
        1
 44
0.0
173
     0
291
     1
 45
0.0
1001
ACAD
1000
AcDbSavedByObjectVersion
1070
     0
  0
VISUALSTYLE
  5
33
102
{ACAD_REACTORS
330
2A
102
}
330
2A
100
AcDbVisualStyle
  2
Realistic
 70
     8
 71
     2
 72
     2
 73
     0
 90
        0
 40
-0.6
 41
-30.0
 62
     5
 63
     7
 74
     1
 91
        0
 64
     7
 65
   257
 75
     1
175
     1
 42
1.0
 92
        8
 66
     8
 43
1.0
 76
     1
 77
     6
 78
     2
 67
     7
 79
     5
170
     0
171
     0
290
     0
174
     0
 93
       13
 44
0.0
173
     0
291
     0
 45
0.0
1001
ACAD
1000
AcDbSavedByObjectVersion
1070
     0
  0
VISUALSTYLE
  5
37
102
{ACAD_REACTORS
330
2A
102
}
330
2A
100
AcDbVisualStyle
  2
Thicken
 70
    13
 71
     2
 72
     2
 73
     0
 90
        0
 40
-0.6
 41
-30.0
 62
     5
 63
     7
 74
     1
 91
        4
 64
     7
 65
   257
 75
     1
175
     1
 42
1.0
 92
       12
 66
     7
 43
1.0
 76
     1
 77
     6
 78
     2
 67
     7
 79
     5
170
     0
171
     0
290
     0
174
     0
 93
        1
 44
0.0
173
     0
291
     1
 45
0.0
1001
ACAD
1000
AcDbSavedByObjectVersion
1070
     0
  0
DICTIONARYVAR
  5
119
102
{ACAD_REACTORS
330
116
102
}
330
116
100
DictionaryVariables
280
     0
  1
1:1
  0
ENDSEC
  0
EOF
