  0
SECTION
  2
HEADER
  9
$ACADVER
  1
AC1015
  9
$ACADMAINTVER
 70
     6
  9
$DWGCODEPAGE
  3
ANSI_1252
  9
$INSBASE
 10
0.0
 20
0.0
 30
0.0
  9
$EXTMIN
 10
23.4066788842665
 20
276.7242906852
 30
0.0
  9
$EXTMAX
 10
250.874227817826
 20
406.157285542408
 30
0.0
  9
$LIMMIN
 10
0.0
 20
0.0
  9
$LIMMAX
 10
12.0
 20
9.0
  9
$ORTHOMODE
 70
     0
  9
$REGENMODE
 70
     1
  9
$FILLMODE
 70
     1
  9
$QTEXTMODE
 70
     0
  9
$MIRRTEXT
 70
     1
  9
$LTSCALE
 40
1.0
  9
$ATTMODE
 70
     1
  9
$TEXTSIZE
 40
0.2
  9
$TRACEWID
 40
0.05
  9
$TEXTSTYLE
  7
Standard
  9
$CLAYER
  8
0
  9
$CELTYPE
  6
ByLayer
  9
$CECOLOR
 62
   256
  9
$CELTSCALE
 40
1.0
  9
$DISPSILH
 70
     0
  9
$DIMSCALE
 40
1.0
  9
$DIMASZ
 40
0.18
  9
$DIMEXO
 40
0.0625
  9
$DIMDLI
 40
0.38
  9
$DIMRND
 40
0.0
  9
$DIMDLE
 40
0.0
  9
$DIMEXE
 40
0.18
  9
$DIMTP
 40
0.0
  9
$DIMTM
 40
0.0
  9
$DIMTXT
 40
0.18
  9
$DIMCEN
 40
0.09
  9
$DIMTSZ
 40
0.0
  9
$DIMTOL
 70
     0
  9
$DIMLIM
 70
     0
  9
$DIMTIH
 70
     1
  9
$DIMTOH
 70
     1
  9
$DIMSE1
 70
     0
  9
$DIMSE2
 70
     0
  9
$DIMTAD
 70
     0
  9
$DIMZIN
 70
     0
  9
$DIMBLK
  1

  9
$DIMASO
 70
     1
  9
$DIMSHO
 70
     1
  9
$DIMPOST
  1

  9
$DIMAPOST
  1

  9
$DIMALT
 70
     0
  9
$DIMALTD
 70
     2
  9
$DIMALTF
 40
25.4
  9
$DIMLFAC
 40
1.0
  9
$DIMTOFL
 70
     0
  9
$DIMTVP
 40
0.0
  9
$DIMTIX
 70
     0
  9
$DIMSOXD
 70
     0
  9
$DIMSAH
 70
     0
  9
$DIMBLK1
  1

  9
$DIMBLK2
  1

  9
$DIMSTYLE
  2
Standard
  9
$DIMCLRD
 70
     0
  9
$DIMCLRE
 70
     0
  9
$DIMCLRT
 70
     0
  9
$DIMTFAC
 40
1.0
  9
$DIMGAP
 40
0.09
  9
$DIMJUST
 70
     0
  9
$DIMSD1
 70
     0
  9
$DIMSD2
 70
     0
  9
$DIMTOLJ
 70
     1
  9
$DIMTZIN
 70
     0
  9
$DIMALTZ
 70
     0
  9
$DIMALTTZ
 70
     0
  9
$DIMUPT
 70
     0
  9
$DIMDEC
 70
     4
  9
$DIMTDEC
 70
     4
  9
$DIMALTU
 70
     2
  9
$DIMALTTD
 70
     2
  9
$DIMTXSTY
  7
Standard
  9
$DIMAUNIT
 70
     0
  9
$DIMADEC
 70
     0
  9
$DIMALTRND
 40
0.0
  9
$DIMAZIN
 70
     0
  9
$DIMDSEP
 70
    46
  9
$DIMATFIT
 70
     3
  9
$DIMFRAC
 70
     0
  9
$DIMLDRBLK
  1

  9
$DIMLUNIT
 70
     2
  9
$DIMLWD
 70
    -2
  9
$DIMLWE
 70
    -2
  9
$DIMTMOVE
 70
     0
  9
$LUNITS
 70
     2
  9
$LUPREC
 70
     4
  9
$SKETCHINC
 40
0.1
  9
$FILLETRAD
 40
0.5
  9
$AUNITS
 70
     0
  9
$AUPREC
 70
     0
  9
$MENU
  1
.
  9
$ELEVATION
 40
0.0
  9
$PELEVATION
 40
0.0
  9
$THICKNESS
 40
0.0
  9
$LIMCHECK
 70
     0
  9
$CHAMFERA
 40
0.5
  9
$CHAMFERB
 40
0.5
  9
$CHAMFERC
 40
1.0
  9
$CHAMFERD
 40
0.0
  9
$SKPOLY
 70
     0
  9
$TDCREATE
 40
2456645.679592928
  9
$TDUCREATE
 40
2456645.637926261
  9
$TDUPDATE
 40
2456645.67959294
  9
$TDUUPDATE
 40
2456645.637926273
  9
$TDINDWG
 40
0.0000000116
  9
$TDUSRTIMER
 40
0.0000000116
  9
$USRTIMER
 70
     1
  9
$ANGBASE
 50
0.0
  9
$ANGDIR
 70
     0
  9
$PDMODE
 70
     0
  9
$PDSIZE
 40
0.0
  9
$PLINEWID
 40
0.0
  9
$SPLFRAME
 70
     0
  9
$SPLINETYPE
 70
     6
  9
$SPLINESEGS
 70
     8
  9
$HANDSEED
  5
11A
  9
$SURFTAB1
 70
     6
  9
$SURFTAB2
 70
     6
  9
$SURFTYPE
 70
     6
  9
$SURFU
 70
     6
  9
$SURFV
 70
     6
  9
$UCSBASE
  2

  9
$UCSNAME
  2

  9
$UCSORG
 10
0.0
 20
0.0
 30
0.0
  9
$UCSXDIR
 10
1.0
 20
0.0
 30
0.0
  9
$UCSYDIR
 10
0.0
 20
1.0
 30
0.0
  9
$UCSORTHOREF
  2

  9
$UCSORTHOVIEW
 70
     0
  9
$UCSORGTOP
 10
0.0
 20
0.0
 30
0.0
  9
$UCSORGBOTTOM
 10
0.0
 20
0.0
 30
0.0
  9
$UCSORGLEFT
 10
0.0
 20
0.0
 30
0.0
  9
$UCSORGRIGHT
 10
0.0
 20
0.0
 30
0.0
  9
$UCSORGFRONT
 10
0.0
 20
0.0
 30
0.0
  9
$UCSORGBACK
 10
0.0
 20
0.0
 30
0.0
  9
$PUCSBASE
  2

  9
$PUCSNAME
  2

  9
$PUCSORG
 10
0.0
 20
0.0
 30
0.0
  9
$PUCSXDIR
 10
1.0
 20
0.0
 30
0.0
  9
$PUCSYDIR
 10
0.0
 20
1.0
 30
0.0
  9
$PUCSORTHOREF
  2

  9
$PUCSORTHOVIEW
 70
     0
  9
$PUCSORGTOP
 10
0.0
 20
0.0
 30
0.0
  9
$PUCSORGBOTTOM
 10
0.0
 20
0.0
 30
0.0
  9
$PUCSORGLEFT
 10
0.0
 20
0.0
 30
0.0
  9
$PUCSORGRIGHT
 10
0.0
 20
0.0
 30
0.0
  9
$PUCSORGFRONT
 10
0.0
 20
0.0
 30
0.0
  9
$PUCSORGBACK
 10
0.0
 20
0.0
 30
0.0
  9
$USERI1
 70
     0
  9
$USERI2
 70
     0
  9
$USERI3
 70
     0
  9
$USERI4
 70
     0
  9
$USERI5
 70
     0
  9
$USERR1
 40
16.5
  9
$USERR2
 40
0.0
  9
$USERR3
 40
0.0
  9
$USERR4
 40
0.0
  9
$USERR5
 40
0.0
  9
$WORLDVIEW
 70
     1
  9
$SHADEDGE
 70
     3
  9
$SHADEDIF
 70
    70
  9
$TILEMODE
 70
     1
  9
$MAXACTVP
 70
    64
  9
$PINSBASE
 10
0.0
 20
0.0
 30
0.0
  9
$PLIMCHECK
 70
     0
  9
$PEXTMIN
 10
1.00000000000000E+20
 20
1.00000000000000E+20
 30
1.00000000000000E+20
  9
$PEXTMAX
 10
-1.00000000000000E+20
 20
-1.00000000000000E+20
 30
-1.00000000000000E+20
  9
$PLIMMIN
 10
0.0
 20
0.0
  9
$PLIMMAX
 10
12.0
 20
9.0
  9
$UNITMODE
 70
     0
  9
$VISRETAIN
 70
     1
  9
$PLINEGEN
 70
     0
  9
$PSLTSCALE
 70
     1
  9
$TREEDEPTH
 70
  3020
  9
$CMLSTYLE
  2
Standard
  9
$CMLJUST
 70
     0
  9
$CMLSCALE
 40
1.0
  9
$PROXYGRAPHICS
 70
     1
  9
$MEASUREMENT
 70
     1
  9
$CELWEIGHT
370
    -1
  9
$ENDCAPS
280
     0
  9
$JOINSTYLE
280
     0
  9
$LWDISPLAY
290
     0
  9
$INSUNITS
 70
     1
  9
$HYPERLINKBASE
  1

  9
$STYLESHEET
  1

  9
$XEDIT
290
     1
  9
$CEPSNTYPE
380
     0
  9
$PSTYLEMODE
290
     1
  9
$FINGERPRINTGUID
  2
{51BD1160-0F35-4EA7-8129-ACA24EE670B8}
  9
$VERSIONGUID
  2
{FAEB1C32-E019-11D5-929B-00C0DF256EC4}
  9
$EXTNAMES
290
     1
  9
$PSVPSCALE
 40
0.0
  9
$OLESTARTUP
290
     0
  0
ENDSEC
  0
SECTION
  2
CLASSES
  0
CLASS
  1
ACDBDICTIONARYWDFLT
  2
AcDbDictionaryWithDefault
  3
ObjectDBX Classes
 90
        0
280
     0
281
     0
  0
CLASS
  1
VISUALSTYLE
  2
AcDbVisualStyle
  3
ObjectDBX Classes
 90
     4095
280
     0
281
     0
  0
CLASS
  1
SCALE
  2
AcDbScale
  3
ObjectDBX Classes
 90
     1153
280
     0
281
     0
  0
CLASS
  1

  2
exOdDbPolyline
  3

 90
        0
280
     0
281
     1
  0
CLASS
  1

  2
exOdDbSpline
  3

 90
        0
280
     0
281
     1
  0
CLASS
  1
DICTIONARYVAR
  2
AcDbDictionaryVar
  3
ObjectDBX Classes
 90
        0
280
     0
281
     0
  0
CLASS
  1
ACDBPLACEHOLDER
  2
AcDbPlaceHolder
  3
ObjectDBX Classes
 90
        0
280
     0
281
     0
  0
CLASS
  1
LAYOUT
  2
AcDbLayout
  3
ObjectDBX Classes
 90
        0
280
     0
281
     0
  0
ENDSEC
  0
SECTION
  2
TABLES
  0
TABLE
  2
VPORT
  5
8
330
0
100
AcDbSymbolTable
 70
     1
  0
VPORT
  5
29
330
8
100
AcDbSymbolTableRecord
100
AcDbViewportTableRecord
  2
*Active
 70
     0
 10
0.0
 20
0.0
 11
1.0
 21
1.0
 12
137.1404533510463
 22
341.440788113804
 13
0.0
 23
0.0
 14
0.5
 24
0.5
 15
0.5
 25
0.5
 16
0.0
 26
0.0
 36
1.0
 17
0.0
 27
0.0
 37
0.0
 40
156.1225739755685
 41
1.60267857142857
 42
50.0
 43
0.0
 44
0.0
 50
0.0
 51
0.0
 71
     0
 72
   100
 73
     1
 74
     3
 75
     0
 76
     0
 77
     0
 78
     0
281
     0
 65
     1
110
0.0
120
0.0
130
0.0
111
1.0
121
0.0
131
0.0
112
0.0
122
1.0
132
0.0
 79
     0
146
0.0
  0
ENDTAB
  0
TABLE
  2
LTYPE
  5
5
330
0
100
AcDbSymbolTable
 70
     9
  0
LTYPE
  5
14
330
5
100
AcDbSymbolTableRecord
100
AcDbLinetypeTableRecord
  2
ByBlock
 70
     0
  3

 72
    65
 73
     0
 40
0.0
  0
LTYPE
  5
15
330
5
100
AcDbSymbolTableRecord
100
AcDbLinetypeTableRecord
  2
ByLayer
 70
     0
  3

 72
    65
 73
     0
 40
0.0
  0
LTYPE
  5
16
330
5
100
AcDbSymbolTableRecord
100
AcDbLinetypeTableRecord
  2
Continuous
 70
     0
  3
Solid line
 72
    65
 73
     0
 40
0.0
  0
LTYPE
  5
3B
330
5
100
AcDbSymbolTableRecord
100
AcDbLinetypeTableRecord
  2
DASHED
 70
     0
  3
Dashed
 72
    65
 73
     2
 40
15.0
 49
7.0
 74
     0
 49
-8.0
 74
     0
  0
LTYPE
  5
3C
330
5
100
AcDbSymbolTableRecord
100
AcDbLinetypeTableRecord
  2
DOTTED
 70
     0
  3
Dotted
 72
    65
 73
     2
 40
1.0
 49
0.0
 74
     0
 49
-1.0
 74
     0
  0
LTYPE
  5
3D
330
5
100
AcDbSymbolTableRecord
100
AcDbLinetypeTableRecord
  2
DOT_CENTER
 70
     0
  3
Dot_Center
 72
    65
 73
     4
 40
14.0
 49
12.0
 74
     0
 49
-1.0
 74
     0
 49
0.0
 74
     0
 49
-1.0
 74
     0
  0
LTYPE
  5
3E
330
5
100
AcDbSymbolTableRecord
100
AcDbLinetypeTableRecord
  2
LONG_DASHED
 70
     0
  3
Long_Dashed
 72
    65
 73
     2
 40
15.0
 49
10.0
 74
     0
 49
-5.0
 74
     0
  0
LTYPE
  5
3F
330
5
100
AcDbSymbolTableRecord
100
AcDbLinetypeTableRecord
  2
DASH_CENTER
 70
     0
  3
Dash_Center
 72
    65
 73
     4
 40
14.0
 49
11.0
 74
     0
 49
-1.0
 74
     0
 49
1.0
 74
     0
 49
-1.0
 74
     0
  0
LTYPE
  5
40
330
5
100
AcDbSymbolTableRecord
100
AcDbLinetypeTableRecord
  2
PHANTOM
 70
     0
  3
Phantom
 72
    65
 73
     6
 40
13.0
 49
10.0
 74
     0
 49
-1.0
 74
     0
 49
0.0
 74
     0
 49
-1.0
 74
     0
 49
0.0
 74
     0
 49
-1.0
 74
     0
  0
LTYPE
  5
41
330
5
100
AcDbSymbolTableRecord
100
AcDbLinetypeTableRecord
  2
CENTER_DASH_DASH
 70
     0
  3
Center_Dash_Dash
 72
    65
 73
     6
 40
14.0
 49
9.0
 74
     0
 49
-1.0
 74
     0
 49
1.0
 74
     0
 49
-1.0
 74
     0
 49
1.0
 74
     0
 49
-1.0
 74
     0
  0
LTYPE
  5
42
330
5
100
AcDbSymbolTableRecord
100
AcDbLinetypeTableRecord
  2
HIDDEN
 70
     0
  3
HIDDEN
 72
    65
 73
     2
 40
4.0
 49
2.0
 74
     0
 49
-2.0
 74
     0
  0
ENDTAB
  0
TABLE
  2
LAYER
  5
2
330
0
100
AcDbSymbolTable
 70
     7
  0
LAYER
  5
10
330
2
100
AcDbSymbolTableRecord
100
AcDbLayerTableRecord
  2
0
 70
     0
 62
     7
  6
Continuous
370
    -3
390
F
  0
LAYER
  5
43
330
2
100
AcDbSymbolTableRecord
100
AcDbLayerTableRecord
  2
1
 70
     0
 62
     7
  6
Continuous
370
    -3
390
F
  0
LAYER
  5
44
330
2
100
AcDbSymbolTableRecord
100
AcDbLayerTableRecord
  2
BEZUGSACHSEN
 70
     0
 62
     7
  6
Continuous
370
    -3
390
F
  0
LAYER
  5
45
330
2
100
AcDbSymbolTableRecord
100
AcDbLayerTableRecord
  2
DEFAULT_2
 70
     0
 62
     7
  6
Continuous
370
    -3
390
F
  0
LAYER
  5
46
330
2
100
AcDbSymbolTableRecord
100
AcDbLayerTableRecord
  2
FASEN
 70
     0
 62
     7
  6
Continuous
370
    -3
390
F
  0
LAYER
  5
47
330
2
100
AcDbSymbolTableRecord
100
AcDbLayerTableRecord
  2
RUNDUNGEN
 70
     0
 62
     7
  6
Continuous
370
    -3
390
F
  0
LAYER
  5
48
330
2
100
AcDbSymbolTableRecord
100
AcDbLayerTableRecord
  2
TEIL_STARTBEZUEGE
 70
     0
 62
     7
  6
Continuous
370
    -3
390
F
  0
ENDTAB
  0
TABLE
  2
STYLE
  5
3
330
0
100
AcDbSymbolTable
 70
     2
  0
STYLE
  5
11
330
3
100
AcDbSymbolTableRecord
100
AcDbTextStyleTableRecord
  2
Standard
 70
     0
 40
0.0
 41
1.0
 50
0.0
 71
     0
 42
0.2
  3
txt
  4

  0
STYLE
  5
6F
330
3
100
AcDbSymbolTableRecord
100
AcDbTextStyleTableRecord
  2
CONVERTER_11
 70
     0
 40
0.0
 41
0.72
 50
0.0
 71
     0
 42
0.2
  3
txt.shx
  4

  0
ENDTAB
  0
TABLE
  2
VIEW
  5
6
330
0
100
AcDbSymbolTable
 70
     0
  0
ENDTAB
  0
TABLE
  2
UCS
  5
7
330
0
100
AcDbSymbolTable
 70
     0
  0
ENDTAB
  0
TABLE
  2
APPID
  5
9
330
0
100
AcDbSymbolTable
 70
     1
  0
APPID
  5
12
330
9
100
AcDbSymbolTableRecord
100
AcDbRegAppTableRecord
  2
ACAD
 70
     0
  0
ENDTAB
  0
TABLE
  2
DIMSTYLE
  5
A
330
0
100
AcDbSymbolTable
 70
     6
100
AcDbDimStyleTable
  0
DIMSTYLE
105
27
330
A
100
AcDbSymbolTableRecord
100
AcDbDimStyleTableRecord
  2
Standard
 70
     0
340
11
  0
DIMSTYLE
105
E1
102
{ACAD_REACTORS
330
E2
102
}
330
A
100
AcDbSymbolTableRecord
100
AcDbDimStyleTableRecord
  2
ME10_DIM_10
 70
     0
  3
<>
 41
3.5
 42
2.0
 44
2.0
 71
     1
 73
     0
 74
     0
 77
     1
 78
     8
140
3.5
146
0.7
147
2.0
172
     1
173
     1
176
     2
177
     2
178
     3
271
     2
272
     0
340
6F
  0
DIMSTYLE
105
EC
102
{ACAD_REACTORS
330
ED
102
}
330
A
100
AcDbSymbolTableRecord
100
AcDbDimStyleTableRecord
  2
ME10_DIM_11
 70
     0
  3
<>
 41
3.5
 42
2.0
 44
2.0
 71
     1
 73
     0
 74
     0
 77
     1
 78
     8
140
3.5
146
0.7
147
2.0
172
     1
173
     1
176
     2
177
     2
178
     3
271
     2
272
     0
340
6F
  0
DIMSTYLE
105
F7
102
{ACAD_REACTORS
330
F8
102
}
330
A
100
AcDbSymbolTableRecord
100
AcDbDimStyleTableRecord
  2
ME10_DIM_12
 70
     0
  3
<>
 41
3.5
 42
2.0
 44
2.0
 71
     1
 73
     0
 74
     0
 77
     1
 78
     8
140
3.5
146
0.7
147
2.0
172
     1
173
     1
176
     2
177
     2
178
     3
271
     2
272
     0
340
6F
  0
DIMSTYLE
105
102
102
{ACAD_REACTORS
330
103
102
}
330
A
100
AcDbSymbolTableRecord
100
AcDbDimStyleTableRecord
  2
ME10_DIM_13
 70
     0
  3
\U+2300<>
 41
3.5
 42
2.0
 44
2.0
 71
     1
 73
     0
 74
     0
 77
     1
 78
     8
140
3.5
146
0.7
147
2.0
172
     1
173
     1
176
     2
177
     2
178
     3
271
     2
272
     0
340
6F
  0
DIMSTYLE
105
10D
102
{ACAD_REACTORS
330
10E
102
}
330
A
100
AcDbSymbolTableRecord
100
AcDbDimStyleTableRecord
  2
ME10_DIM_14
 70
     0
  3
\U+2300<>
 41
3.5
 42
2.0
 44
2.0
 71
     1
 73
     0
 74
     0
 77
     1
 78
     8
140
3.5
146
0.7
147
2.0
172
     1
173
     1
176
     2
177
     2
178
     3
271
     2
272
     0
340
6F
  0
ENDTAB
  0
TABLE
  2
BLOCK_RECORD
  5
1
330
0
100
AcDbSymbolTable
 70
     8
  0
BLOCK_RECORD
  5
1F
330
1
100
AcDbSymbolTableRecord
100
AcDbBlockTableRecord
  2
*Model_Space
340
22
  0
BLOCK_RECORD
  5
1B
330
1
100
AcDbSymbolTableRecord
100
AcDbBlockTableRecord
  2
*Paper_Space
340
1E
  0
BLOCK_RECORD
  5
23
330
1
100
AcDbSymbolTableRecord
100
AcDbBlockTableRecord
  2
*Paper_Space0
340
26
  0
BLOCK_RECORD
  5
49
330
1
100
AcDbSymbolTableRecord
100
AcDbBlockTableRecord
  2
Urheberrecht_DE-EN
340
0
102
{BLKREFS
331
6E
102
}
  0
BLOCK_RECORD
  5
D8
330
1
100
AcDbSymbolTableRecord
100
AcDbBlockTableRecord
  2
*D2
340
0
  0
BLOCK_RECORD
  5
E3
330
1
100
AcDbSymbolTableRecord
100
AcDbBlockTableRecord
  2
*D3
340
0
  0
BLOCK_RECORD
  5
EE
330
1
100
AcDbSymbolTableRecord
100
AcDbBlockTableRecord
  2
*D4
340
0
  0
BLOCK_RECORD
  5
F9
330
1
100
AcDbSymbolTableRecord
100
AcDbBlockTableRecord
  2
*D5
340
0
  0
BLOCK_RECORD
  5
104
330
1
100
AcDbSymbolTableRecord
100
AcDbBlockTableRecord
  2
*D6
340
0
  0
BLOCK_RECORD
  5
10F
330
1
100
AcDbSymbolTableRecord
100
AcDbBlockTableRecord
  2
*D7
340
0
102
{BLKREFS
331
115
102
}
  0
ENDTAB
  0
ENDSEC
  0
SECTION
  2
BLOCKS
  0
BLOCK
  5
20
330
1F
100
AcDbEntity
  8
0
100
AcDbBlockBegin
  2
*Model_Space
 70
     0
 10
0.0
 20
0.0
 30
0.0
  3
*Model_Space
  1

  0
ENDBLK
  5
21
330
1F
100
AcDbEntity
  8
0
100
AcDbBlockEnd
  0
BLOCK
  5
1C
330
1B
100
AcDbEntity
 67
     1
  8
0
100
AcDbBlockBegin
  2
*Paper_Space
 70
     0
 10
0.0
 20
0.0
 30
0.0
  3
*Paper_Space
  1

  0
ENDBLK
  5
1D
330
1B
100
AcDbEntity
 67
     1
  8
0
100
AcDbBlockEnd
  0
BLOCK
  5
24
330
23
100
AcDbEntity
  8
0
100
AcDbBlockBegin
  2
*Paper_Space0
 70
     0
 10
0.0
 20
0.0
 30
0.0
  3
*Paper_Space0
  1

  0
ENDBLK
  5
25
330
23
100
AcDbEntity
  8
0
100
AcDbBlockEnd
  0
BLOCK
  5
4A
330
49
100
AcDbEntity
  8
0
100
AcDbBlockBegin
  2
Urheberrecht_DE-EN
 70
     0
 10
37.4066788842665
 20
339.408957788661
 30
0.0
  3
Urheberrecht_DE-EN
  1

  0
MTEXT
  5
70
330
49
100
AcDbEntity
  8
1
 62
     1
100
AcDbMText
 10
37.4066788842665
 20
283.1195708713548
 30
0.0
 40
2.0
 41
0.0
 71
     7
 72
     1
  1
F\U+00fcr diese Unterlage behalten wir das Ur-\Pheberrecht. Sie darf nur f\U+00fcr den von uns \Pbestimmten Zweck benutzt und ohne unsere \PZustimmung weder vervielf\U+00e4ltigt noch\PDritten zug\U+00e4nglich gemacht werden.
  7
CONVERTER_11
 11
0.0
 21
1.0
 31
0.0
 73
     1
 44
0.90036014405762
  0
MTEXT
  5
71
330
49
100
AcDbEntity
  8
1
 62
     1
100
AcDbMText
 10
37.4066788842665
 20
339.408957788661
 30
0.0
 40
2.0
 41
0.0
 71
     7
 72
     1
  1
We own the copyright of this document. It \Pdetermined and may neither be copied or \Pmade accessible to outsiders without our\Ppermission.
  7
CONVERTER_11
 11
0.0
 21
1.0
 31
0.0
 73
     1
 44
0.90036014405762
  0
ENDBLK
  5
4B
330
49
100
AcDbEntity
  8
0
100
AcDbBlockEnd
  0
BLOCK
  5
DF
330
D8
100
AcDbEntity
  8
0
100
AcDbBlockBegin
  2
*D2
 70
     1
 10
0.0
 20
0.0
 30
0.0
  3
*D2
  1

  0
LINE
  5
D9
330
D8
100
AcDbEntity
  8
1
  6
Continuous
 62
     2
100
AcDbLine
 10
227.1922744914
 20
400.657285542408
 30
0.0
 11
45.39227449139999
 21
400.657285542408
 31
0.0
  0
LINE
  5
DA
330
D8
100
AcDbEntity
  8
1
  6
Continuous
 62
     2
100
AcDbLine
 10
45.39227449139999
 20
351.0499860929
 30
0.0
 11
45.39227449139999
 21
402.657285542408
 31
0.0
  0
LINE
  5
DB
330
D8
100
AcDbEntity
  8
1
  6
Continuous
 62
     2
100
AcDbLine
 10
227.1922744914
 20
344.7538869166
 30
0.0
 11
227.1922744914
 21
402.657285542408
 31
0.0
  0
SOLID
  5
DC
330
D8
100
AcDbEntity
  8
1
 62
     2
100
AcDbTrace
 10
223.6922744914
 20
400.1965018008521
 30
0.0
 11
223.6922744914
 21
401.1180692839638
 31
0.0
 12
227.1922744914
 22
400.657285542408
 32
0.0
 13
227.1922744914
 23
400.657285542408
 33
0.0
  0
SOLID
  5
DD
330
D8
100
AcDbEntity
  8
1
 62
     2
100
AcDbTrace
 10
48.89227449139999
 20
401.1180692839638
 30
0.0
 11
48.89227449139999
 21
400.1965018008521
 31
0.0
 12
45.39227449139999
 22
400.657285542408
 32
0.0
 13
45.39227449139999
 23
400.657285542408
 33
0.0
  0
MTEXT
  5
DE
330
D8
100
AcDbEntity
  8
1
 62
     3
100
AcDbMText
 10
143.893416059607
 20
402.657285542408
 30
0.0
 40
3.5
 41
0.0
 71
     7
 72
     1
  1
\C3;\C3;\C3;181.8\C2;\H2.45;\S^ ;\C3;
  7
CONVERTER_11
 11
0.9999999999970619
 21
2.424068405545306E-6
 31
0.0
 73
     1
 44
0.60024009603842
  0
ENDBLK
  5
E0
330
D8
100
AcDbEntity
  8
0
100
AcDbBlockEnd
  0
BLOCK
  5
EA
330
E3
100
AcDbEntity
  8
0
100
AcDbBlockBegin
  2
*D3
 70
     1
 10
0.0
 20
0.0
 30
0.0
  3
*D3
  1

  0
LINE
  5
E4
330
E3
100
AcDbEntity
  8
1
  6
Continuous
 62
     2
100
AcDbLine
 10
227.1922744914
 20
392.974731786276
 30
0.0
 11
147.1922744914
 21
392.974731786276
 31
0.0
  0
LINE
  5
E5
330
E3
100
AcDbEntity
  8
1
  6
Continuous
 62
     2
100
AcDbLine
 10
147.1922744914
 20
384.8242906852
 30
0.0
 11
147.1922744914
 21
394.974731786276
 31
0.0
  0
LINE
  5
E6
330
E3
100
AcDbEntity
  8
1
  6
Continuous
 62
     2
100
AcDbLine
 10
227.1922744914
 20
344.7538869166
 30
0.0
 11
227.1922744914
 21
394.974731786276
 31
0.0
  0
SOLID
  5
E7
330
E3
100
AcDbEntity
  8
1
 62
     2
100
AcDbTrace
 10
223.6922744914
 20
392.5139480447201
 30
0.0
 11
223.6922744914
 21
393.4355155278319
 31
0.0
 12
227.1922744914
 22
392.974731786276
 32
0.0
 13
227.1922744914
 23
392.974731786276
 33
0.0
  0
SOLID
  5
E8
330
E3
100
AcDbEntity
  8
1
 62
     2
100
AcDbTrace
 10
150.6922744914
 20
393.4355155278319
 30
0.0
 11
150.6922744914
 21
392.5139480447201
 31
0.0
 12
147.1922744914
 22
392.974731786276
 32
0.0
 13
147.1922744914
 23
392.974731786276
 33
0.0
  0
MTEXT
  5
E9
330
E3
100
AcDbEntity
  8
1
 62
     3
100
AcDbMText
 10
186.240405927393
 20
394.974731786276
 30
0.0
 40
3.5
 41
0.0
 71
     7
 72
     1
  1
\C3;\C3;\C3;80\C2;\H2.45;\S^ ;\C3;
  7
CONVERTER_11
 11
0.9999999999970619
 21
2.424068405545306E-6
 31
0.0
 73
     1
 44
0.60024009603842
  0
ENDBLK
  5
EB
330
E3
100
AcDbEntity
  8
0
100
AcDbBlockEnd
  0
BLOCK
  5
F5
330
EE
100
AcDbEntity
  8
0
100
AcDbBlockBegin
  2
*D4
 70
     1
 10
0.0
 20
0.0
 30
0.0
  3
*D4
  1

  0
LINE
  5
EF
330
EE
100
AcDbEntity
  8
1
  6
Continuous
 62
     2
100
AcDbLine
 10
227.1922744914
 20
385.660228307849
 30
0.0
 11
185.1922744914
 21
385.660228307849
 31
0.0
  0
LINE
  5
F0
330
EE
100
AcDbEntity
  8
1
  6
Continuous
 62
     2
100
AcDbLine
 10
185.1922744914
 20
380.8242906852
 30
0.0
 11
185.1922744914
 21
387.660228307849
 31
0.0
  0
LINE
  5
F1
330
EE
100
AcDbEntity
  8
1
  6
Continuous
 62
     2
100
AcDbLine
 10
227.1922744914
 20
344.7538869166
 30
0.0
 11
227.1922744914
 21
387.660228307849
 31
0.0
  0
SOLID
  5
F2
330
EE
100
AcDbEntity
  8
1
 62
     2
100
AcDbTrace
 10
223.6922744914
 20
385.1994445662932
 30
0.0
 11
223.6922744914
 21
386.1210120494049
 31
0.0
 12
227.1922744914
 22
385.660228307849
 32
0.0
 13
227.1922744914
 23
385.660228307849
 33
0.0
  0
SOLID
  5
F3
330
EE
100
AcDbEntity
  8
1
 62
     2
100
AcDbTrace
 10
188.6922744914
 20
386.1210120494049
 30
0.0
 11
188.6922744914
 21
385.1994445662932
 31
0.0
 12
185.1922744914
 22
385.660228307849
 32
0.0
 13
185.1922744914
 23
385.660228307849
 33
0.0
  0
MTEXT
  5
F4
330
EE
100
AcDbEntity
  8
1
 62
     3
100
AcDbMText
 10
203.139431205139
 20
387.660228307849
 30
0.0
 40
3.5
 41
0.0
 71
     7
 72
     1
  1
\C3;\C3;\C3;42\C2;\H2.45;\S^ ;\C3;
  7
CONVERTER_11
 11
0.9999999999970619
 21
2.424068405545306E-6
 31
0.0
 73
     1
 44
0.60024009603842
  0
ENDBLK
  5
F6
330
EE
100
AcDbEntity
  8
0
100
AcDbBlockEnd
  0
BLOCK
  5
100
330
F9
100
AcDbEntity
  8
0
100
AcDbBlockBegin
  2
*D5
 70
     1
 10
0.0
 20
0.0
 30
0.0
  3
*D5
  1

  0
LINE
  5
FA
330
F9
100
AcDbEntity
  8
1
  6
Continuous
 62
     2
100
AcDbLine
 10
248.874227817826
 20
350.8367906852
 30
0.0
 11
248.874227817826
 21
308.8367906852
 31
0.0
  0
LINE
  5
FB
330
F9
100
AcDbEntity
  8
1
  6
Continuous
 62
     2
100
AcDbLine
 10
215.924325299
 20
308.8367906852
 30
0.0
 11
250.874227817826
 21
308.8367906852
 31
0.0
  0
LINE
  5
FC
330
F9
100
AcDbEntity
  8
1
  6
Continuous
 62
     2
100
AcDbLine
 10
215.924325299
 20
350.8367906852
 30
0.0
 11
250.874227817826
 21
350.8367906852
 31
0.0
  0
SOLID
  5
FD
330
F9
100
AcDbEntity
  8
1
 62
     2
100
AcDbTrace
 10
249.3350115593819
 20
347.3367906852
 30
0.0
 11
248.4134440762701
 21
347.3367906852
 31
0.0
 12
248.874227817826
 22
350.8367906852
 32
0.0
 13
248.874227817826
 23
350.8367906852
 33
0.0
  0
SOLID
  5
FE
330
F9
100
AcDbEntity
  8
1
 62
     2
100
AcDbTrace
 10
248.4134440762701
 20
312.3367906852
 30
0.0
 11
249.3350115593819
 21
312.3367906852
 31
0.0
 12
248.874227817826
 22
308.8367906852
 32
0.0
 13
248.874227817826
 23
308.8367906852
 33
0.0
  0
MTEXT
  5
FF
330
F9
100
AcDbEntity
  8
1
 62
     3
100
AcDbMText
 10
246.874227817826
 20
320.937555188138
 30
0.0
 40
3.5
 41
0.0
 71
     7
 72
     1
  1
\C3;%%c\C3;\C3;42\C2;\H2.45;\S^ ;\C3;
  7
CONVERTER_11
 11
0.0
 21
1.0
 31
0.0
 73
     1
 44
0.60024009603842
  0
ENDBLK
  5
101
330
F9
100
AcDbEntity
  8
0
100
AcDbBlockEnd
  0
BLOCK
  5
10B
330
104
100
AcDbEntity
  8
0
100
AcDbBlockBegin
  2
*D6
 70
     1
 10
0.0
 20
0.0
 30
0.0
  3
*D6
  1

  0
LINE
  5
105
330
104
100
AcDbEntity
  8
1
  6
Continuous
 62
     2
100
AcDbLine
 10
238.659145373816
 20
335.8367906852
 30
0.0
 11
238.659145373816
 21
323.8367906852
 31
0.0
  0
LINE
  5
106
330
104
100
AcDbEntity
  8
1
  6
Continuous
 62
     2
100
AcDbLine
 10
229.1922744914
 20
323.8367906852
 30
0.0
 11
240.659145373816
 21
323.8367906852
 31
0.0
  0
LINE
  5
107
330
104
100
AcDbEntity
  8
1
  6
Continuous
 62
     2
100
AcDbLine
 10
229.1922744914
 20
335.8367906852
 30
0.0
 11
240.659145373816
 21
335.8367906852
 31
0.0
  0
SOLID
  5
108
330
104
100
AcDbEntity
  8
1
 62
     2
100
AcDbTrace
 10
239.1199291153719
 20
332.3367906852
 30
0.0
 11
238.1983616322601
 21
332.3367906852
 31
0.0
 12
238.659145373816
 22
335.8367906852
 32
0.0
 13
238.659145373816
 23
335.8367906852
 33
0.0
  0
SOLID
  5
109
330
104
100
AcDbEntity
  8
1
 62
     2
100
AcDbTrace
 10
238.1983616322601
 20
327.3367906852
 30
0.0
 11
239.1199291153719
 21
327.3367906852
 31
0.0
 12
238.659145373816
 22
323.8367906852
 32
0.0
 13
238.659145373816
 23
323.8367906852
 33
0.0
  0
MTEXT
  5
10A
330
104
100
AcDbEntity
  8
1
 62
     3
100
AcDbMText
 10
236.659145373816
 20
321.483667317076
 30
0.0
 40
3.5
 41
0.0
 71
     7
 72
     1
  1
\C3;%%c\C3;\C3;12\C2;\H2.45;\S^ ;\C3;
  7
CONVERTER_11
 11
0.0
 21
1.0
 31
0.0
 73
     1
 44
0.60024009603842
  0
ENDBLK
  5
10C
330
104
100
AcDbEntity
  8
0
100
AcDbBlockEnd
  0
BLOCK
  5
113
330
10F
100
AcDbEntity
  8
0
100
AcDbBlockBegin
  2
*D7
 70
     1
 10
0.0
 20
0.0
 30
0.0
  3
*D7
  1

  0
LINE
  5
110
330
10F
100
AcDbEntity
  8
1
  6
Continuous
 62
     2
100
AcDbLine
 10
197.0742667972452
 20
362.0440938019561
 30
0.0
 11
186.6998124109956
 21
352.8596328487384
 31
0.0
  0
SOLID
  5
111
330
10F
100
AcDbEntity
  8
1
 62
     2
100
AcDbTrace
 10
189.0149803464577
 20
355.5246505010421
 30
0.0
 11
189.6258502360054
 21
354.8346326723066
 31
0.0
 12
186.6998124109956
 22
352.8596328487384
 32
0.0
 13
186.6998124109956
 23
352.8596328487384
 33
0.0
  0
MTEXT
  5
112
330
10F
100
AcDbEntity
  8
1
 62
     3
100
AcDbMText
 10
190.1928694123245
 20
358.6231626376668
 30
0.0
 40
3.5
 41
0.0
 71
     7
 72
     1
  1
\C3; R\C3;\C3;6\C2;\H2.45;\S^ ;\C3;
  7
CONVERTER_11
 11
0.748743680067411
 21
0.6628596394102682
 31
0.0
 73
     1
 44
0.60024009603842
  0
ENDBLK
  5
114
330
10F
100
AcDbEntity
  8
0
100
AcDbBlockEnd
  0
ENDSEC
  0
SECTION
  2
ENTITIES
  0
INSERT
  5
6E
330
1F
100
AcDbEntity
  8
0
100
AcDbBlockReference
  2
Urheberrecht_DE-EN
 10
37.4066788842665
 20
339.408957788661
 30
0.0
  0
LINE
  5
72
330
1F
100
AcDbEntity
  8
BEZUGSACHSEN
  6
HIDDEN
 62
     8
100
AcDbLine
 10
198.6922744914
 20
335.8367906852
 30
0.0
 11
198.6922744914
 21
350.8367906852
 31
0.0
  0
LINE
  5
73
330
1F
100
AcDbEntity
  8
BEZUGSACHSEN
  6
HIDDEN
 62
     8
100
AcDbLine
 10
210.6922744914
 20
335.8367906852
 30
0.0
 11
210.6922744914
 21
350.8367906852
 31
0.0
  0
LINE
  5
74
330
1F
100
AcDbEntity
  8
RUNDUNGEN
  6
Continuous
 62
     7
100
AcDbLine
 10
227.1922744914
 20
316.9196944539
 30
0.0
 11
227.1922744914
 21
342.7538869166
 31
0.0
  0
LINE
  5
75
330
1F
100
AcDbEntity
  8
RUNDUNGEN
  6
Continuous
 62
     9
100
AcDbLine
 10
226.6922744914
 20
316.0536690501
 30
0.0
 11
226.6922744914
 21
343.6199123204
 31
0.0
  0
LINE
  5
76
330
1F
100
AcDbEntity
  8
RUNDUNGEN
  6
Continuous
 62
     9
100
AcDbLine
 10
214.424325299
 20
308.9707652814
 30
0.0
 11
214.424325299
 21
350.702816089
 31
0.0
  0
LINE
  5
77
330
1F
100
AcDbEntity
  8
RUNDUNGEN
  6
Continuous
 62
     9
100
AcDbLine
 10
213.924325299
 20
308.8367906852
 30
0.0
 11
213.924325299
 21
350.8367906852
 31
0.0
  0
LINE
  5
78
330
1F
100
AcDbEntity
  8
BEZUGSACHSEN
  6
HIDDEN
 62
     8
100
AcDbLine
 10
209.7922744914
 20
335.8367906852
 30
0.0
 11
209.7922744914
 21
350.8367906852
 31
0.0
  0
LWPOLYLINE
  5
79
330
1F
100
AcDbEntity
  8
BEZUGSACHSEN
  6
DOT_CENTER
 62
     7
100
AcDbPolyline
 90
        2
 70
     0
 43
0.25
 10
204.6922744914
 20
353.8367906852
 10
204.6922744914
 20
329.9948781951
  0
LINE
  5
7A
330
1F
100
AcDbEntity
  8
BEZUGSACHSEN
  6
HIDDEN
 62
     8
100
AcDbLine
 10
199.5922744914
 20
335.8367906852
 30
0.0
 11
199.5922744914
 21
350.8367906852
 31
0.0
  0
LINE
  5
7B
330
1F
100
AcDbEntity
  8
RUNDUNGEN
  6
Continuous
 62
     7
100
AcDbLine
 10
226.6922744914
 20
343.6199123204
 30
0.0
 11
214.424325299
 21
350.702816089
 31
0.0
  0
LINE
  5
7C
330
1F
100
AcDbEntity
  8
0
  6
Continuous
 62
     7
100
AcDbLine
 10
214.424325299
 20
350.702816089
 30
0.0
 11
226.6922744914
 21
343.6199123204
 31
0.0
  0
LINE
  5
7D
330
1F
100
AcDbEntity
  8
0
  6
Continuous
 62
     7
100
AcDbLine
 10
214.424325299
 20
308.9707652814
 30
0.0
 11
226.6922744914
 21
316.0536690501
 31
0.0
  0
LINE
  5
7E
330
1F
100
AcDbEntity
  8
0
  6
Continuous
 62
     7
100
AcDbLine
 10
151.1922744914
 20
379.8242906852
 30
0.0
 11
162.8616062553
 21
379.8242906852
 31
0.0
  0
LINE
  5
7F
330
1F
100
AcDbEntity
  8
0
  6
Continuous
 62
     7
100
AcDbLine
 10
184.1922744914
 20
379.8242906852
 30
0.0
 11
177.9229427276
 21
379.8242906852
 31
0.0
  0
LINE
  5
80
330
1F
100
AcDbEntity
  8
RUNDUNGEN
  6
Continuous
 62
     9
100
AcDbLine
 10
191.1922744914
 20
350.8367906852
 30
0.0
 11
191.1922744914
 21
308.8367906852
 31
0.0
  0
LINE
  5
81
330
1F
100
AcDbEntity
  8
0
  6
Continuous
 62
     7
100
AcDbLine
 10
162.8616062553
 20
379.8242906852
 30
0.0
 11
166.8547744914
 21
372.907920417
 31
0.0
  0
LINE
  5
82
330
1F
100
AcDbEntity
  8
0
  6
Continuous
 62
     7
100
AcDbLine
 10
162.8616062553
 20
279.8492906852
 30
0.0
 11
166.8547744914
 21
286.7656609535
 31
0.0
  0
LINE
  5
83
330
1F
100
AcDbEntity
  8
0
  6
Continuous
 62
     7
100
AcDbLine
 10
185.1922744914
 20
378.8242906852
 30
0.0
 11
185.1922744914
 21
280.8492906852
 31
0.0
  0
LINE
  5
84
330
1F
100
AcDbEntity
  8
0
  6
Continuous
 62
     9
100
AcDbLine
 10
184.1922744914
 20
379.8242906852
 30
0.0
 11
184.1922744914
 21
279.8492906852
 31
0.0
  0
LINE
  5
85
330
1F
100
AcDbEntity
  8
DEFAULT_2
  6
HIDDEN
 62
     8
100
AcDbLine
 10
183.4822744914
 20
335.8367906852
 30
0.0
 11
183.4822744914
 21
323.8367906852
 31
0.0
  0
LINE
  5
86
330
1F
100
AcDbEntity
  8
0
  6
Continuous
 62
     7
100
AcDbLine
 10
147.5422744914
 20
364.4117906852
 30
0.0
 11
146.5730838751
 21
364.6714845282
 31
0.0
  0
LINE
  5
87
330
1F
100
AcDbEntity
  8
0
  6
Continuous
 62
     7
100
AcDbLine
 10
167.1047744914
 20
372.2117906852
 30
0.0
 11
173.6797744914
 21
372.2117906852
 31
0.0
  0
LINE
  5
88
330
1F
100
AcDbEntity
  8
0
  6
Continuous
 62
     7
100
AcDbLine
 10
177.9229427276
 20
319.3691503783
 30
0.0
 11
177.9229427276
 21
279.8492906852
 31
0.0
  0
LINE
  5
89
330
1F
100
AcDbEntity
  8
0
  6
Continuous
 62
     7
100
AcDbLine
 10
177.9229427276
 20
379.8242906852
 30
0.0
 11
177.9229427276
 21
340.3044408636
 31
0.0
  0
LINE
  5
8A
330
1F
100
AcDbEntity
  8
0
  6
Continuous
 62
     7
100
AcDbLine
 10
173.9297744914
 20
341.5595210093
 30
0.0
 11
173.9297744914
 21
372.907920417
 31
0.0
  0
LINE
  5
8B
330
1F
100
AcDbEntity
  8
0
  6
Continuous
 62
     7
100
AcDbLine
 10
173.9297744914
 20
286.7656609535
 30
0.0
 11
173.9297744914
 21
318.1140603612
 31
0.0
  0
LINE
  5
8C
330
1F
100
AcDbEntity
  8
0
  6
Continuous
 62
     9
100
AcDbLine
 10
173.6797744914
 20
341.6712702365
 30
0.0
 11
173.6797744914
 21
372.2117906852
 31
0.0
  0
LINE
  5
8D
330
1F
100
AcDbEntity
  8
0
  6
Continuous
 62
     9
100
AcDbLine
 10
173.6797744914
 20
287.4617906852
 30
0.0
 11
173.6797744914
 21
318.0023111339
 31
0.0
  0
LINE
  5
8E
330
1F
100
AcDbEntity
  8
0
  6
Continuous
 62
     7
100
AcDbLine
 10
149.1922744914
 20
364.4117906852
 30
0.0
 11
147.5422744914
 21
364.4117906852
 31
0.0
  0
LINE
  5
8F
330
1F
100
AcDbEntity
  8
0
  6
Continuous
 62
     7
100
AcDbLine
 10
146.5730838751
 20
364.6714845282
 30
0.0
 11
46.2479558223
 21
350.0395173565
 31
0.0
  0
LINE
  5
90
330
1F
100
AcDbEntity
  8
0
  6
Continuous
 62
     9
100
AcDbLine
 10
167.1047744914
 20
342.7392906852
 30
0.0
 11
167.1047744914
 21
372.2117906852
 31
0.0
  0
LINE
  5
91
330
1F
100
AcDbEntity
  8
0
  6
Continuous
 62
     9
100
AcDbLine
 10
167.1047744914
 20
287.4617906852
 30
0.0
 11
167.1047744914
 21
316.9342906852
 31
0.0
  0
LINE
  5
92
330
1F
100
AcDbEntity
  8
0
  6
Continuous
 62
     7
100
AcDbLine
 10
166.8547744914
 20
316.9342906852
 30
0.0
 11
166.8547744914
 21
286.7658093633
 31
0.0
  0
LINE
  5
93
330
1F
100
AcDbEntity
  8
0
  6
Continuous
 62
     7
100
AcDbLine
 10
166.8547744914
 20
372.9077720072
 30
0.0
 11
166.8547744914
 21
342.7392906852
 31
0.0
  0
LINE
  5
94
330
1F
100
AcDbEntity
  8
0
  6
Continuous
 62
     7
100
AcDbLine
 10
162.8616062553
 20
315.6504937983
 30
0.0
 11
162.8616062553
 21
279.8492906852
 31
0.0
  0
LINE
  5
95
330
1F
100
AcDbEntity
  8
0
  6
Continuous
 62
     7
100
AcDbLine
 10
162.8616062553
 20
379.8242906852
 30
0.0
 11
162.8616062553
 21
344.0230875722
 31
0.0
  0
LINE
  5
96
330
1F
100
AcDbEntity
  8
FASEN
  6
Continuous
 62
     7
100
AcDbLine
 10
150.1922744914
 20
343.7392906852
 30
0.0
 11
151.1922744914
 21
342.7392906852
 31
0.0
  0
LINE
  5
97
330
1F
100
AcDbEntity
  8
0
  6
Continuous
 62
     7
100
AcDbLine
 10
209.7922744914
 20
350.8367906852
 30
0.0
 11
213.924325299
 21
350.8367906852
 31
0.0
  0
LINE
  5
98
330
1F
100
AcDbEntity
  8
0
  6
Continuous
 62
     7
100
AcDbLine
 10
191.1922744914
 20
350.8367906852
 30
0.0
 11
199.5922744914
 21
350.8367906852
 31
0.0
  0
LINE
  5
99
330
1F
100
AcDbEntity
  8
RUNDUNGEN
  6
Continuous
 62
     7
100
AcDbLine
 10
199.5922744914
 20
350.8367906852
 30
0.0
 11
191.1922744914
 21
350.8367906852
 31
0.0
  0
LINE
  5
9A
330
1F
100
AcDbEntity
  8
RUNDUNGEN
  6
Continuous
 62
     7
100
AcDbLine
 10
213.924325299
 20
350.8367906852
 30
0.0
 11
209.7922744914
 21
350.8367906852
 31
0.0
  0
LINE
  5
9B
330
1F
100
AcDbEntity
  8
FASEN
  6
Continuous
 62
     7
100
AcDbLine
 10
150.1922744914
 20
315.9342906852
 30
0.0
 11
151.1922744914
 21
316.9342906852
 31
0.0
  0
LINE
  5
9C
330
1F
100
AcDbEntity
  8
0
  6
Continuous
 62
     9
100
AcDbLine
 10
151.1922744914
 20
344.0230875722
 30
0.0
 11
151.1922744914
 21
379.8242906852
 31
0.0
  0
LINE
  5
9D
330
1F
100
AcDbEntity
  8
FASEN
  6
Continuous
 62
     9
100
AcDbLine
 10
151.1922744914
 20
315.6504937983
 30
0.0
 11
151.1922744914
 21
316.9342906852
 31
0.0
  0
LINE
  5
9E
330
1F
100
AcDbEntity
  8
0
  6
Continuous
 62
     9
100
AcDbLine
 10
151.1922744914
 20
279.8492906852
 30
0.0
 11
151.1922744914
 21
315.6504937983
 31
0.0
  0
LINE
  5
9F
330
1F
100
AcDbEntity
  8
FASEN
  6
Continuous
 62
     9
100
AcDbLine
 10
151.1922744914
 20
344.0230875722
 30
0.0
 11
151.1922744914
 21
342.7392906852
 31
0.0
  0
LINE
  5
A0
330
1F
100
AcDbEntity
  8
0
  6
Continuous
 62
     7
100
AcDbLine
 10
173.9297744914
 20
286.7656609535
 30
0.0
 11
177.9229427276
 21
279.8492906852
 31
0.0
  0
LINE
  5
A1
330
1F
100
AcDbEntity
  8
0
  6
Continuous
 62
     7
100
AcDbLine
 10
151.1922744914
 20
344.0230875722
 30
0.0
 11
162.8616062553
 21
344.0230875722
 31
0.0
  0
LINE
  5
A2
330
1F
100
AcDbEntity
  8
0
  6
Continuous
 62
     7
100
AcDbLine
 10
151.1922744914
 20
342.7392906852
 30
0.0
 11
168.5397744914
 21
342.7392906852
 31
0.0
  0
LINE
  5
A3
330
1F
100
AcDbEntity
  8
0
  6
Continuous
 62
     7
100
AcDbLine
 10
173.9297744914
 20
372.907920417
 30
0.0
 11
177.9229427276
 21
379.8242906852
 31
0.0
  0
LINE
  5
A4
330
1F
100
AcDbEntity
  8
FASEN
  6
Continuous
 62
     7
100
AcDbLine
 10
150.1922744914
 20
334.9885500934
 30
0.0
 11
150.1922744914
 21
378.8241632447
 31
0.0
  0
LINE
  5
A5
330
1F
100
AcDbEntity
  8
FASEN
  6
Continuous
 62
     7
100
AcDbLine
 10
150.1922744914
 20
280.849418067
 30
0.0
 11
150.1922744914
 21
324.685031277
 31
0.0
  0
LINE
  5
A6
330
1F
100
AcDbEntity
  8
0
  6
Continuous
 62
     7
100
AcDbLine
 10
150.1922744914
 20
315.9342906852
 30
0.0
 11
150.1922744914
 21
280.8578623041
 31
0.0
  0
LINE
  5
A7
330
1F
100
AcDbEntity
  8
0
  6
Continuous
 62
     7
100
AcDbLine
 10
150.1922744914
 20
378.7811870277
 30
0.0
 11
150.1922744914
 21
343.7392906852
 31
0.0
  0
LINE
  5
A8
330
1F
100
AcDbEntity
  8
0
  6
Continuous
 62
     9
100
AcDbLine
 10
149.1922744914
 20
364.4117906852
 30
0.0
 11
149.1922744914
 21
295.2617906852
 31
0.0
  0
LINE
  5
A9
330
1F
100
AcDbEntity
  8
0
  6
Continuous
 62
     7
100
AcDbLine
 10
147.5422744914
 20
364.4117906852
 30
0.0
 11
147.5422744914
 21
295.2617906852
 31
0.0
  0
LWPOLYLINE
  5
AA
330
1F
100
AcDbEntity
  8
TEIL_STARTBEZUEGE
  6
DOT_CENTER
 62
     7
100
AcDbPolyline
 90
        2
 70
     0
 43
0.25
 10
147.1922744914
 20
276.8492906852
 10
147.1922744914
 20
382.8242906852
  0
LINE
  5
AB
330
1F
100
AcDbEntity
  8
0
  6
Continuous
 62
     7
100
AcDbLine
 10
146.5730838751
 20
364.6714845282
 30
0.0
 11
146.5730838751
 21
295.0020968423
 31
0.0
  0
LINE
  5
AC
330
1F
100
AcDbEntity
  8
DEFAULT_2
  6
HIDDEN
 62
     8
100
AcDbLine
 10
199.5922744914
 20
335.8367906852
 30
0.0
 11
227.1922744914
 21
335.8367906852
 31
0.0
  0
LINE
  5
AD
330
1F
100
AcDbEntity
  8
DEFAULT_2
  6
HIDDEN
 62
     8
100
AcDbLine
 10
183.4822744914
 20
335.8367906852
 30
0.0
 11
199.5922744914
 21
335.8367906852
 31
0.0
  0
LWPOLYLINE
  5
AE
330
1F
100
AcDbEntity
  8
TEIL_STARTBEZUEGE
  6
DOT_CENTER
 62
     7
100
AcDbPolyline
 90
        2
 70
     0
 43
0.25
 10
230.1922744914
 20
329.8367906852
 10
42.3922744914
 20
329.8367906852
  0
LINE
  5
AF
330
1F
100
AcDbEntity
  8
DEFAULT_2
  6
HIDDEN
 62
     8
100
AcDbLine
 10
227.1922744914
 20
323.8367906852
 30
0.0
 11
183.4822744914
 21
323.8367906852
 31
0.0
  0
LINE
  5
B0
330
1F
100
AcDbEntity
  8
0
  6
Continuous
 62
     7
100
AcDbLine
 10
151.1922744914
 20
316.9342906852
 30
0.0
 11
168.5397744914
 21
316.9342906852
 31
0.0
  0
LINE
  5
B1
330
1F
100
AcDbEntity
  8
0
  6
Continuous
 62
     7
100
AcDbLine
 10
162.8616062553
 20
315.6504937983
 30
0.0
 11
151.1922744914
 21
315.6504937983
 31
0.0
  0
LINE
  5
B2
330
1F
100
AcDbEntity
  8
0
  6
Continuous
 62
     7
100
AcDbLine
 10
191.1922744914
 20
308.8367906852
 30
0.0
 11
213.924325299
 21
308.8367906852
 31
0.0
  0
LINE
  5
B3
330
1F
100
AcDbEntity
  8
0
  6
Continuous
 62
     7
100
AcDbLine
 10
46.2479558223
 20
309.6340640139
 30
0.0
 11
146.5730838751
 21
295.0020968423
 31
0.0
  0
LINE
  5
B4
330
1F
100
AcDbEntity
  8
0
  6
Continuous
 62
     7
100
AcDbLine
 10
149.1922744914
 20
295.2617906852
 30
0.0
 11
147.5422744914
 21
295.2617906852
 31
0.0
  0
LINE
  5
B5
330
1F
100
AcDbEntity
  8
0
  6
Continuous
 62
     7
100
AcDbLine
 10
147.5422744914
 20
295.2617906852
 30
0.0
 11
146.5730838751
 21
295.0020968423
 31
0.0
  0
LINE
  5
B6
330
1F
100
AcDbEntity
  8
0
  6
Continuous
 62
     7
100
AcDbLine
 10
167.1047744914
 20
287.4617906852
 30
0.0
 11
173.6797744914
 21
287.4617906852
 31
0.0
  0
LINE
  5
B7
330
1F
100
AcDbEntity
  8
0
  6
Continuous
 62
     7
100
AcDbLine
 10
151.1922744914
 20
279.8492906852
 30
0.0
 11
162.8616062553
 21
279.8492906852
 31
0.0
  0
LINE
  5
B8
330
1F
100
AcDbEntity
  8
0
  6
Continuous
 62
     7
100
AcDbLine
 10
184.1922744914
 20
279.8492906852
 30
0.0
 11
177.9229427276
 21
279.8492906852
 31
0.0
  0
LINE
  5
B9
330
1F
100
AcDbEntity
  8
0
  6
Continuous
 62
     9
100
AcDbLine
 10
46.2479558223
 20
350.0395173565
 30
0.0
 11
46.2479558223
 21
309.6340640139
 31
0.0
  0
LINE
  5
BA
330
1F
100
AcDbEntity
  8
0
  6
Continuous
 62
     7
100
AcDbLine
 10
45.3922744914
 20
349.0499860929
 30
0.0
 11
45.3922744914
 21
310.6235952776
 31
0.0
  0
ARC
  5
BB
330
1F
100
AcDbEntity
  8
0
  6
Continuous
 62
     7
100
AcDbCircle
 10
167.1047744914
 20
372.4617906852
 30
0.0
 40
0.25
100
AcDbArc
 50
180.0
 51
270.0
  0
ARC
  5
BC
330
1F
100
AcDbEntity
  8
0
  6
Continuous
 62
     7
100
AcDbCircle
 10
173.6797744914
 20
372.4617906852
 30
0.0
 40
0.25
100
AcDbArc
 50
270.0
 51
0.0
  0
ARC
  5
BD
330
1F
100
AcDbEntity
  8
RUNDUNGEN
  6
Continuous
 62
     7
100
AcDbCircle
 10
226.1922744914
 20
342.7538869166
 30
0.0
 40
1.0
100
AcDbArc
 50
0.0
 51
60.00000000044565
  0
ARC
  5
BE
330
1F
100
AcDbEntity
  8
0
  6
Continuous
 62
     7
100
AcDbCircle
 10
184.1922744914
 20
378.8242906852
 30
0.0
 40
1.0
100
AcDbArc
 50
0.0
 51
90.0
  0
ARC
  5
BF
330
1F
100
AcDbEntity
  8
0
  6
Continuous
 62
     7
100
AcDbCircle
 10
151.1922744914
 20
378.8242906852
 30
0.0
 40
1.0
100
AcDbArc
 50
90.0
 51
180.0
  0
ARC
  5
C0
330
1F
100
AcDbEntity
  8
0
  6
Continuous
 62
     7
100
AcDbCircle
 10
149.1922744914
 20
365.4117906852
 30
0.0
 40
1.0
100
AcDbArc
 50
270.0
 51
0.0
  0
ARC
  5
C1
330
1F
100
AcDbEntity
  8
RUNDUNGEN
  6
Continuous
 62
     7
100
AcDbCircle
 10
213.924325299
 20
349.8367906852
 30
0.0
 40
1.000000000013472
100
AcDbArc
 50
60.00000000044565
 51
90.0
  0
ARC
  5
C2
330
1F
100
AcDbEntity
  8
RUNDUNGEN
  6
Continuous
 62
     7
100
AcDbCircle
 10
191.1922744914
 20
356.8367906852
 30
0.0
 40
6.0
100
AcDbArc
 50
180.0
 51
270.0
  0
ARC
  5
C3
330
1F
100
AcDbEntity
  8
0
  6
Continuous
 62
     7
100
AcDbCircle
 10
168.5397744914
 20
329.8367906852
 30
0.0
 40
12.90250000000003
100
AcDbArc
 50
270.0
 51
90.0
  0
ARC
  5
C4
330
1F
100
AcDbEntity
  8
0
  6
Continuous
 62
     7
100
AcDbCircle
 10
304.9431697369
 20
408.0288378749
 30
0.0
 40
154.9021570426999
100
AcDbArc
 50
214.4839903094999
 51
214.9149101174554
  0
ARC
  5
C5
330
1F
100
AcDbEntity
  8
0
  6
Continuous
 62
     7
100
AcDbCircle
 10
167.1047744914
 20
287.2117906852
 30
0.0
 40
0.25
100
AcDbArc
 50
90.0
 51
180.0
  0
ARC
  5
C6
330
1F
100
AcDbEntity
  8
0
  6
Continuous
 62
     7
100
AcDbCircle
 10
173.6797744914
 20
287.2117906852
 30
0.0
 40
0.25
100
AcDbArc
 50
0.0
 51
90.0
  0
ARC
  5
C7
330
1F
100
AcDbEntity
  8
RUNDUNGEN
  6
Continuous
 62
     7
100
AcDbCircle
 10
226.1922744914
 20
316.9196944539
 30
0.0
 40
1.000000000013472
100
AcDbArc
 50
299.9999999995543
 51
0.0
  0
ARC
  5
C8
330
1F
100
AcDbEntity
  8
0
  6
Continuous
 62
     7
100
AcDbCircle
 10
151.1922744914
 20
280.8492906852
 30
0.0
 40
1.0
100
AcDbArc
 50
180.0
 51
270.0
  0
ARC
  5
C9
330
1F
100
AcDbEntity
  8
0
  6
Continuous
 62
     7
100
AcDbCircle
 10
149.1922744914
 20
294.2617906852
 30
0.0
 40
1.0
100
AcDbArc
 50
0.0
 51
90.0
  0
ARC
  5
CA
330
1F
100
AcDbEntity
  8
0
  6
Continuous
 62
     7
100
AcDbCircle
 10
184.1922744914
 20
280.8492906852
 30
0.0
 40
1.0
100
AcDbArc
 50
270.0
 51
0.0
  0
ARC
  5
CB
330
1F
100
AcDbEntity
  8
RUNDUNGEN
  6
Continuous
 62
     7
100
AcDbCircle
 10
213.924325299
 20
309.8367906852
 30
0.0
 40
1.0
100
AcDbArc
 50
270.0
 51
299.9999999995543
  0
ARC
  5
CC
330
1F
100
AcDbEntity
  8
RUNDUNGEN
  6
Continuous
 62
     7
100
AcDbCircle
 10
191.1922744914
 20
302.8367906852
 30
0.0
 40
6.0
100
AcDbArc
 50
90.0
 51
180.0
  0
ARC
  5
CD
330
1F
100
AcDbEntity
  8
0
  6
Continuous
 62
     7
100
AcDbCircle
 10
304.9463500349
 20
251.6425455266
 30
0.0
 40
154.9060285744405
100
AcDbArc
 50
145.0850935211558
 51
145.5160052751999
  0
ARC
  5
CE
330
1F
100
AcDbEntity
  8
0
  6
Continuous
 62
     7
100
AcDbCircle
 10
46.3922744914
 20
349.0499860929
 30
0.0
 40
0.9999999999463465
100
AcDbArc
 50
98.29782682457197
 51
180.0
  0
ARC
  5
CF
330
1F
100
AcDbEntity
  8
0
  6
Continuous
 62
     7
100
AcDbCircle
 10
-35.0624450891
 20
429.9346105289
 30
0.0
 40
228.5493151104901
100
AcDbArc
 50
329.9972617610432
 51
330.36820922
  0
ARC
  5
D0
330
1F
100
AcDbEntity
  8
0
  6
Continuous
 62
     7
100
AcDbCircle
 10
46.3922744914
 20
310.6235952776
 30
0.0
 40
1.0
100
AcDbArc
 50
180.0
 51
261.7021731762543
  0
ARC
  5
D1
330
1F
100
AcDbEntity
  8
0
  6
Continuous
 62
     7
100
AcDbCircle
 10
-35.0624450867
 20
229.7389708429
 30
0.0
 40
228.5493151077001
100
AcDbArc
 50
29.63179078000007
 51
30.00273823897545
  0
SPLINE
  5
D2
330
1F
100
AcDbEntity
  8
0
  6
Continuous
 62
     7
100
AcDbSpline
210
0.0
220
0.0
230
1.0
 70
     8
 71
     3
 72
    19
 73
    15
 74
    13
 42
0.0000000001
 43
0.0000000001
 44
0.00000001
 40
0.0
 40
0.0
 40
0.0
 40
0.0
 40
1.288046120788805
 40
2.576183163162817
 40
3.22023559873955
 40
3.864273042028807
 40
4.508318825140037
 40
5.152368395282736
 40
5.796417964890291
 40
6.440463747474599
 40
7.084501190792929
 40
7.728553626402721
 40
9.016690669298084
 40
10.30473679047377
 40
10.30473679047377
 40
10.30473679047377
 40
10.30473679047377
 10
150.1922744914
 20
324.685031277
 30
0.0
 10
150.1891425266477
 20
325.1143772793351
 30
0.0
 10
150.1828783760617
 20
325.9730995910096
 30
0.0
 10
150.156048658501
 20
327.046207276787
 30
0.0
 10
150.1386155056251
 20
327.9047705336615
 30
0.0
 10
150.1278639704208
 20
328.5487292055201
 30
0.0
 10
150.1209983259431
 20
329.1927412395048
 30
0.0
 10
150.118512729772
 20
329.8367906850345
 30
0.0
 10
150.1209983296945
 20
330.480840130372
 30
0.0
 10
150.1278639761739
 20
331.1248521639847
 30
0.0
 10
150.1386155098945
 20
331.7688108357079
 30
0.0
 10
150.1560486593037
 20
332.6273740928504
 30
0.0
 10
150.1828783757428
 20
333.7004817789648
 30
0.0
 10
150.1891425265416
 20
334.5592040909379
 30
0.0
 10
150.1922744914
 20
334.9885500934
 30
0.0
 11
150.1922744914
 21
324.685031277
 31
0.0
 11
150.1790789705656
 21
325.9730098045807
 31
0.0
 11
150.152026085599
 21
327.2608627392557
 31
0.0
 11
150.1390025956502
 21
327.9047834863061
 31
0.0
 11
150.1285116515718
 21
328.5487354786556
 31
0.0
 11
150.121728349625
 21
329.1927455387929
 31
0.0
 11
150.1193412640782
 21
329.8367906852101
 31
0.0
 11
150.1217283530846
 21
330.4808358310794
 31
0.0
 11
150.1285116567411
 21
331.1248458906717
 31
0.0
 11
150.1390025997326
 21
331.768797883068
 31
0.0
 11
150.15202608748
 21
332.412718630196
 31
0.0
 11
150.1790789705246
 21
333.7005715654328
 31
0.0
 11
150.1922744914
 21
334.9885500934
 31
0.0
  0
SPLINE
  5
D3
330
1F
100
AcDbEntity
  8
0
  6
Continuous
 62
     7
100
AcDbSpline
210
0.0
220
0.0
230
1.0
 70
     8
 71
     3
 72
    31
 73
    27
 74
    25
 42
0.0000000001
 43
0.0000000001
 44
0.00000001
 40
0.0
 40
0.0
 40
0.0
 40
0.0
 40
0.7376437758965698
 40
1.475498326808027
 40
2.213122477442778
 40
2.95070501932667
 40
3.686177655897854
 40
4.421611652163528
 40
5.154930002530793
 40
5.888438802442934
 40
7.349257460129147
 40
8.81087224157939
 40
10.2673497263542
 40
11.72357900839962
 40
13.17967656771994
 40
14.63602209579968
 40
16.09756845530561
 40
17.55831898094537
 40
18.29183757328822
 40
19.02516554598003
 40
19.7606588826673
 40
20.49619142763409
 40
21.23383484423946
 40
21.97151871249745
 40
22.70940763847233
 40
23.44708703435307
 40
23.44708703435307
 40
23.44708703435307
 40
23.44708703435307
 10
177.9229343665
 20
340.3044293327
 30
0.0
 10
178.1001711991822
 20
340.1339229128437
 30
0.0
 10
178.454695508363
 20
339.7928613524688
 30
0.0
 10
178.9514962659316
 20
339.2468196691299
 30
0.0
 10
179.4209316120019
 20
338.6774366141757
 30
0.0
 10
179.8590155973752
 20
338.0844548175677
 30
0.0
 10
180.2654709312538
 20
337.4702884642584
 30
0.0
 10
180.6389374236628
 20
336.8371644817538
 30
0.0
 10
180.9790402926901
 20
336.1862357358661
 30
0.0
 10
181.3861232821127
 20
335.2989239310114
 30
0.0
 10
181.808715567295
 20
334.1534596869707
 30
0.0
 10
182.1737092183724
 20
332.7376726254244
 30
0.0
 10
182.3933017037053
 20
331.2936752201779
 30
0.0
 10
182.4667536012759
 20
329.8368024699909
 30
0.0
 10
182.3933038539978
 20
328.3799742443722
 30
0.0
 10
182.1737414959797
 20
326.9360849131816
 30
0.0
 10
181.8087944960432
 20
325.5203786518964
 30
0.0
 10
181.3862413105127
 20
324.3749452801312
 30
0.0
 10
180.9791845629008
 20
323.4876392739327
 30
0.0
 10
180.6390828584401
 20
322.8366802648191
 30
0.0
 10
180.265605419434
 20
322.2035127952437
 30
0.0
 10
179.8591281448595
 20
321.5892890137578
 30
0.0
 10
179.4210231090631
 20
320.9962479972783
 30
0.0
 10
178.9515608164529
 20
320.4268194339903
 30
0.0
 10
178.4547137941637
 20
319.8807615748013
 30
0.0
 10
178.1001766858801
 20
319.5396799629843
 30
0.0
 10
177.9229333038
 20
319.3691633738
 30
0.0
 11
177.9229343665
 21
340.3044293327
 31
0.0
 11
178.4488202550961
 21
339.7871650170021
 31
0.0
 11
178.9469876282336
 21
339.2428685843094
 31
0.0
 11
179.4157941746986
 21
338.6733865305173
 31
0.0
 11
179.8542171192248
 21
338.0802479903728
 31
0.0
 11
180.2601052200618
 21
337.4669170448434
 31
0.0
 11
180.6337726887322
 21
336.8334852918338
 31
0.0
 11
180.9733703450486
 21
336.1835397288751
 31
0.0
 11
181.279240778521
 21
335.5168475679222
 31
0.0
 11
181.7850830826223
 21
334.1464043133416
 31
0.0
 11
182.1498668582944
 21
332.7310419687951
 31
0.0
 11
182.3689979928541
 21
331.2911432884976
 31
0.0
 11
182.4422713840903
 21
329.8367586309797
 31
0.0
 11
182.3690045870962
 21
328.3825055310288
 31
0.0
 11
182.1499068142681
 21
326.9427352496646
 31
0.0
 11
181.7851639816848
 21
325.5274330108957
 31
0.0
 11
181.2793741623816
 21
324.1570430091641
 31
0.0
 11
180.9735142973719
 21
323.490335225882
 31
0.0
 11
180.6339254951986
 21
322.8403741801487
 31
0.0
 11
180.2602394228219
 21
322.2068845057079
 31
0.0
 11
179.8543299952081
 21
321.5934958350597
 31
0.0
 11
179.4158835454568
 21
321.000298969962
 31
0.0
 11
178.9470425107419
 21
320.4307679579394
 31
0.0
 11
178.4488424159439
 21
319.8864548746687
 31
0.0
 11
177.9229333038
 21
319.3691633738
 31
0.0
  0
SPLINE
  5
D4
330
1F
100
AcDbEntity
  8
FASEN
  6
Continuous
 62
     7
100
AcDbSpline
210
0.0
220
0.0
230
1.0
 70
     8
 71
     3
 72
    25
 73
    21
 74
    19
 42
0.0000000001
 43
0.0000000001
 44
0.00000001
 40
0.0
 40
0.0
 40
0.0
 40
0.0
 40
0.0975566094252163
 40
0.1951222766852873
 40
0.2893247602090341
 40
0.3835227315278609
 40
0.4709468131172541
 40
0.5583764926225873
 40
0.6362056178835843
 40
0.7140176369222422
 40
0.7798226969407962
 40
0.8456700524169258
 40
0.8980832926091632
 40
0.9504116608841331
 40
0.9715430470605517
 40
0.9926350697889842
 40
1.010621975989468
 40
1.028726680989937
 40
1.058610548303069
 40
1.088017426396943
 40
1.088017426396943
 40
1.088017426396943
 40
1.088017426396943
 10
151.1922744914
 20
315.6504937983
 30
0.0
 10
151.1597543535961
 20
315.6507371457002
 30
0.0
 10
151.0947110585923
 20
315.6512238630947
 30
0.0
 10
150.9983409116338
 20
315.6554200327591
 30
0.0
 10
150.9032418443542
 20
315.6620868756282
 30
0.0
 10
150.8117515564705
 20
315.6713483674326
 30
0.0
 10
150.7228366387247
 20
315.6831834084009
 30
0.0
 10
150.6397667822085
 20
315.6972189807739
 30
0.0
 10
150.5604167561455
 20
315.7137025869239
 30
0.0
 10
150.4888578159976
 20
315.7319368774639
 30
0.0
 10
150.4221140545404
 20
315.7525457968999
 30
0.0
 10
150.3646743919707
 20
315.7742544212838
 30
0.0
 10
150.3129607886592
 20
315.7980184879794
 30
0.0
 10
150.2766957468519
 20
315.8193551627044
 30
0.0
 10
150.2512286915193
 20
315.8379603769866
 30
0.0
 10
150.2359190413018
 20
315.8509621843712
 30
0.0
 10
150.2224180133003
 20
315.8644816619797
 30
0.0
 10
150.2087996079181
 20
315.8817302182092
 30
0.0
 10
150.195827939648
 20
315.904679059723
 30
0.0
 10
150.1934526043564
 20
315.9244732241882
 30
0.0
 10
150.1922744914
 20
315.9342906852
 30
0.0
 11
151.1922744914
 21
315.6504937983
 31
0.0
 11
151.0947267556873
 21
315.6518095869844
 31
0.0
 11
150.9972471281843
 21
315.655906128181
 31
0.0
 11
150.9032806724203
 21
315.66257044309
 31
0.0
 11
150.8095643884886
 21
315.6720844289324
 31
0.0
 11
150.7229138352395
 21
315.6836883792671
 31
0.0
 11
150.6367171215851
 21
315.6983196954617
 31
0.0
 11
150.5605397790567
 21
315.7142691538917
 31
0.0
 11
150.4851677094044
 21
315.7336020642573
 31
0.0
 11
150.4223439389105
 21
315.753184704145
 31
0.0
 11
150.360808927488
 21
315.7766222081169
 31
0.0
 11
150.313329506313
 21
315.79882248542
 31
0.0
 11
150.2684070477384
 21
315.8256596022907
 31
0.0
 11
150.2513775209266
 21
315.8381708251848
 31
0.0
 11
150.2353363519989
 21
315.8518658725453
 31
0.0
 11
150.2227119099893
 21
315.8646780643411
 31
0.0
 11
150.2114961299127
 21
315.8788902640451
 31
0.0
 11
150.1976690199755
 21
315.9053828395404
 31
0.0
 11
150.1922744914
 21
315.9342906852
 31
0.0
  0
SPLINE
  5
D5
330
1F
100
AcDbEntity
  8
FASEN
  6
Continuous
 62
     7
100
AcDbSpline
210
0.0
220
0.0
230
1.0
 70
     8
 71
     3
 72
    25
 73
    21
 74
    19
 42
0.0000000001
 43
0.0000000001
 44
0.00000001
 40
0.0
 40
0.0
 40
0.0
 40
0.0
 40
0.0294068781798713
 40
0.0592907455041409
 40
0.0773954505045476
 40
0.095382356705051
 40
0.1164743794331667
 40
0.137605765607286
 40
0.1899341338672131
 40
0.2423473740475325
 40
0.3081947295263125
 40
0.373999789550743
 40
0.451811808586435
 40
0.5296409338434876
 40
0.6170706133511223
 40
0.7044946949429244
 40
0.7986926662603507
 40
0.8928951497833859
 40
0.990460817044784
 40
1.088017426470356
 40
1.088017426470356
 40
1.088017426470356
 40
1.088017426470356
 10
150.1922744914
 20
343.7392906852
 30
0.0
 10
150.193452604353
 20
343.7491081462417
 30
0.0
 10
150.1958279396349
 20
343.7689023107416
 30
0.0
 10
150.2087996079151
 20
343.7918511522882
 30
0.0
 10
150.2224180133004
 20
343.8090997085203
 30
0.0
 10
150.2359190413017
 20
343.8226191861286
 30
0.0
 10
150.2512286915184
 20
343.835620993513
 30
0.0
 10
150.2766957468488
 20
343.8542262077881
 30
0.0
 10
150.3129607886608
 20
343.8755628824878
 30
0.0
 10
150.3646743919789
 20
343.8993269491476
 30
0.0
 10
150.4221140545416
 20
343.9210355735437
 30
0.0
 10
150.4888578159924
 20
343.9416444930089
 30
0.0
 10
150.5604167561451
 20
343.9598787835308
 30
0.0
 10
150.6397667822122
 20
343.9763623896522
 30
0.0
 10
150.7228366387246
 20
343.9903979620459
 30
0.0
 10
150.8117515564682
 20
344.0022330030416
 30
0.0
 10
150.9032418443547
 20
344.011494494824
 30
0.0
 10
150.9983409116351
 20
344.0181613376716
 30
0.0
 10
151.0947110585916
 20
344.0223575073833
 30
0.0
 10
151.159754353596
 20
344.0228442247924
 30
0.0
 10
151.1922744914
 20
344.0230875722
 30
0.0
 11
150.1922744914
 21
343.7392906852
 31
0.0
 11
150.1976690199755
 21
343.768198530947
 31
0.0
 11
150.2114961299127
 21
343.7946911064549
 31
0.0
 11
150.2227119099892
 21
343.8089033061589
 31
0.0
 11
150.2353363519989
 21
343.8217154979546
 31
0.0
 11
150.2513775209266
 21
343.8354105453147
 31
0.0
 11
150.2684070477384
 21
343.8479217682049
 31
0.0
 11
150.313329506313
 21
343.8747588850462
 31
0.0
 11
150.360808927488
 21
343.8969591623213
 31
0.0
 11
150.4223439389105
 21
343.9203966663006
 31
0.0
 11
150.4851677094044
 21
343.9399793062081
 31
0.0
 11
150.5605397790567
 21
343.9593122165618
 31
0.0
 11
150.6367171215851
 21
343.9752616749724
 31
0.0
 11
150.7229138352395
 21
343.9898929911806
 31
0.0
 11
150.8095643884886
 21
344.0014969415337
 31
0.0
 11
150.9032806724203
 21
344.0110109273624
 31
0.0
 11
150.9972471281843
 21
344.017675242261
 31
0.0
 11
151.0947267556873
 21
344.0217717834892
 31
0.0
 11
151.1922744914
 21
344.0230875722
 31
0.0
  0
SPLINE
  5
D6
330
1F
100
AcDbEntity
  8
BEZUGSACHSEN
  6
Continuous
 62
     7
100
AcDbSpline
210
0.0
220
0.0
230
1.0
 70
     8
 71
     3
 72
    19
 73
    15
 74
    13
 42
0.0000000001
 43
0.0000000001
 44
0.00000001
 40
0.0
 40
0.0
 40
0.0
 40
0.0
 40
0.7630168058670127
 40
1.526125486711314
 40
2.358722566889099
 40
3.191319832044907
 40
4.170881149504593
 40
5.150487899649142
 40
6.130100316866172
 40
7.109667290459512
 40
7.942288109574777
 40
8.774908774304357
 40
9.538048429559717
 40
10.30109614567833
 40
10.30109614567833
 40
10.30109614567833
 40
10.30109614567833
 10
209.7922744914
 20
350.8367906852
 30
0.0
 10
209.5445726057122
 20
350.7789666144685
 30
0.0
 10
209.0491390085124
 20
350.6633115103998
 30
0.0
 10
208.2765048171793
 20
350.516513317952
 30
0.0
 10
207.4765356126494
 20
350.3920244994648
 30
0.0
 10
206.6005571832241
 20
350.2906980735783
 30
0.0
 10
205.6720176670747
 20
350.2238908622454
 30
0.0
 10
204.692332753559
 20
350.2002227314946
 30
0.0
 10
203.7126457851692
 20
350.223884295422
 30
0.0
 10
202.7840942592148
 20
350.2906869114813
 30
0.0
 10
201.9080979171209
 20
350.3920118837237
 30
0.0
 10
201.1081026630283
 20
350.516502741915
 30
0.0
 10
200.3354402521047
 20
350.6633051292488
 30
0.0
 10
199.8399864627486
 20
350.7789644890302
 30
0.0
 10
199.5922744914
 20
350.8367906852
 30
0.0
 11
209.7922744914
 21
350.8367906852
 31
0.0
 11
209.0480511684053
 21
350.6684865214183
 31
0.0
 11
208.2985840282112
 21
350.5248415961714
 31
0.0
 11
207.4757955470806
 21
350.3974170567793
 31
0.0
 11
206.64870342713
 21
350.3018302843645
 31
0.0
 11
205.6716580916544
 21
350.2316677082385
 31
0.0
 11
204.6923346145392
 21
350.2081111359136
 31
0.0
 11
203.7130053154534
 21
350.2316613358717
 31
0.0
 11
202.7359539355363
 21
350.3018187072364
 31
0.0
 11
201.9088380266201
 21
350.3974048026784
 31
0.0
 11
201.0860259112319
 21
350.5248308365378
 31
0.0
 11
200.3365281271045
 21
350.6684804275966
 31
0.0
 11
199.5922744914
 21
350.8367906852
 31
0.0
  0
SPLINE
  5
D7
330
1F
100
AcDbEntity
  8
0
  6
Continuous
 62
     2
100
AcDbSpline
210
0.0
220
0.0
230
1.0
 70
     8
 71
     3
 72
    47
 73
    43
 74
    41
 42
0.0000000001
 43
0.0000000001
 44
0.00000001
 40
0.0
 40
0.0
 40
0.0
 40
0.0
 40
0.0186517448833476
 40
0.0745777076558331
 40
0.1675605653717711
 40
0.2966890654003911
 40
0.4607824058588615
 40
0.6582682785414683
 40
0.8874056283108572
 40
1.146147148716654
 40
1.432781408983518
 40
1.747210491909624
 40
2.089298306486966
 40
2.457082072555757
 40
2.848059525319631
 40
3.259301305926535
 40
3.688293905375297
 40
4.134518734757815
 40
4.597893416415227
 40
5.077989041333133
 40
5.573062255461205
 40
6.076301304930936
 40
6.579651850471987
 40
7.075049186524415
 40
7.555666092535271
 40
8.019742147546934
 40
8.466828342221048
 40
8.89681087338926
 40
9.309135502692218
 40
9.70124730772542
 40
10.07017360822944
 40
10.4133674245366
 40
10.72883095462997
 40
11.01643425179151
 40
11.27608586459384
 40
11.50604157144187
 40
11.70422084114697
 40
11.86888730227027
 40
11.9984778921156
 40
12.09180166564872
 40
12.14793461719018
 40
12.16665568784875
 40
12.16665568784875
 40
12.16665568784875
 40
12.16665568784875
 10
198.6922744914
 20
350.8368157461
 30
0.0
 10
198.6982511955591
 20
350.8351030875226
 30
0.0
 10
198.7221486324105
 20
350.8282551410434
 30
0.0
 10
198.7758855972931
 20
350.8130247572529
 30
0.0
 10
198.8651109743467
 20
350.7879592362427
 30
0.0
 10
198.9892171667716
 20
350.7537468686701
 30
0.0
 10
199.147141350549
 20
350.7111416268845
 30
0.0
 10
199.3376295027805
 20
350.6612727584678
 30
0.0
 10
199.5591294925082
 20
350.6053181696316
 30
0.0
 10
199.8100673788981
 20
350.5446138626251
 30
0.0
 10
200.0893884411059
 20
350.4803930487076
 30
0.0
 10
200.3966805808007
 20
350.4139490260544
 30
0.0
 10
200.7314058892424
 20
350.3465362599529
 30
0.0
 10
201.092245119042
 20
350.2797570489276
 30
0.0
 10
201.4769228977157
 20
350.2154148837266
 30
0.0
 10
201.8829032909879
 20
350.1551512465003
 30
0.0
 10
202.3082662622521
 20
350.1005783163231
 30
0.0
 10
202.7519600511841
 20
350.0530574824926
 30
0.0
 10
203.2135652695234
 20
350.0138106269947
 30
0.0
 10
203.6922142951225
 20
349.9842619555146
 30
0.0
 10
204.1847203752783
 20
349.9658348504091
 30
0.0
 10
204.6852841226697
 20
349.9592575243171
 30
0.0
 10
205.1859603819912
 20
349.965488458228
 30
0.0
 10
205.6787978027511
 20
349.9835907246245
 30
0.0
 10
206.1579809023264
 20
350.0128569955939
 30
0.0
 10
206.6203028132171
 20
350.0518756970972
 30
0.0
 10
207.0648700990585
 20
350.09923227914
 30
0.0
 10
207.4912319681994
 20
350.1537065286385
 30
0.0
 10
207.8982980317938
 20
350.213938257019
 30
0.0
 10
208.2841068347883
 20
350.2783080022386
 30
0.0
 10
208.6460781921597
 20
350.3451671934378
 30
0.0
 10
208.9818961935378
 20
350.4126977538696
 30
0.0
 10
209.290217594716
 20
350.4792864661955
 30
0.0
 10
209.5704975903683
 20
350.5436711344951
 30
0.0
 10
209.8223185726588
 20
350.6045492794591
 30
0.0
 10
210.0446077130222
 20
350.6606761707981
 30
0.0
 10
210.2357723014752
 20
350.7107053457137
 30
0.0
 10
210.3942550626361
 20
350.7534523241823
 30
0.0
 10
210.5188046204467
 20
350.7877824420481
 30
0.0
 10
210.6083545573393
 20
350.8129374499478
 30
0.0
 10
210.6622896096277
 20
350.8282234433839
 30
0.0
 10
210.6862755757356
 20
350.8350968041528
 30
0.0
 10
210.6922744914
 20
350.836815839
 30
0.0
 11
198.6922744914
 21
350.8368157461
 31
0.0
 11
198.7102058400823
 21
350.8316821000635
 31
0.0
 11
198.7640057927083
 21
350.8164086456584
 31
0.0
 11
198.8535284207031
 21
350.7912787649198
 31
0.0
 11
198.9780086417167
 21
350.7569444658
 31
0.0
 11
199.1364423263749
 21
350.7142198599104
 31
0.0
 11
199.3274883109833
 21
350.6641988475834
 31
0.0
 11
199.5496488922
 21
350.6080864495521
 31
0.0
 11
199.8011372424166
 21
350.5472523794334
 31
0.0
 11
200.0804885302
 21
350.4830491305083
 31
0.0
 11
200.3878150330834
 21
350.4165956218334
 31
0.0
 11
200.7231734510667
 21
350.349076703225
 31
0.0
 11
201.08482106505
 21
350.2821745217666
 31
0.0
 11
201.4704426585812
 21
350.2176814587896
 31
0.0
 11
201.8772324449
 21
350.15733353535
 31
0.0
 11
202.3027402253938
 21
350.1027645045625
 31
0.0
 11
202.74642872435
 21
350.05525540805
 31
0.0
 11
203.2081406307021
 21
350.0160353731979
 31
0.0
 11
203.6873255690667
 21
349.9864785819333
 31
0.0
 11
204.1820508641375
 21
349.9679213794458
 31
0.0
 11
204.6852477052333
 21
349.9614037094333
 31
0.0
 11
205.1885604398083
 21
349.9675732240917
 31
0.0
 11
205.6836221832333
 21
349.9858048111
 31
0.0
 11
206.1633467209583
 21
350.0150790019166
 31
0.0
 11
206.6257817508333
 21
350.0540716676334
 31
0.0
 11
207.0703539715542
 21
350.1014172696625
 31
0.0
 11
207.4968721728
 21
350.1558892910667
 31
0.0
 11
207.9047611797271
 21
350.2162064358751
 31
0.0
 11
208.2915278684167
 21
350.2807292703333
 31
0.0
 11
208.6543222344209
 21
350.3477133221605
 31
0.0
 11
208.99078470025
 21
350.41535210275
 31
0.0
 11
209.2991383444604
 21
350.4819499174374
 31
0.0
 11
209.5794464428333
 21
350.54631626365
 31
0.0
 11
209.8318285293209
 21
350.607326446825
 31
0.0
 11
210.0547889733333
 21
350.66361381235
 31
0.0
 11
210.2465098446854
 21
350.7137947891125
 31
0.0
 11
210.40549917935
 21
350.7566601000501
 31
0.0
 11
210.530426000199
 21
350.7911131174656
 31
0.0
 11
210.6202773115417
 21
350.816333517075
 31
0.0
 11
210.674276498924
 21
350.8316630966781
 31
0.0
 11
210.6922744914
 21
350.836815839
 31
0.0
  0
DIMENSION
  5
E2
330
1F
100
AcDbEntity
  8
1
100
AcDbDimension
  2
*D2
 10
227.1922744914
 20
400.657285542408
 30
0.0
 11
148.128416059607
 21
404.407285542408
 31
0.0
 70
    32
  1
<>
 71
     5
 42
-1.0
 53
0.00013888888889
  3
ME10_DIM_10
100
AcDbAlignedDimension
 13
45.3922744914
 23
349.0499860929
 33
0.0
 14
227.1922744914
 24
342.7538869166
 34
0.0
100
AcDbRotatedDimension
  0
DIMENSION
  5
ED
330
1F
100
AcDbEntity
  8
1
100
AcDbDimension
  2
*D3
 10
227.1922744914
 20
392.974731786276
 30
0.0
 11
188.340405927393
 21
396.724731786276
 31
0.0
 70
    32
  1
<>
 71
     5
 42
-1.0
 53
0.00013888888889
  3
ME10_DIM_11
100
AcDbAlignedDimension
 13
147.1922744914
 23
382.8242906852
 33
0.0
 14
227.1922744914
 24
342.7538869166
 34
0.0
100
AcDbRotatedDimension
  0
DIMENSION
  5
F8
330
1F
100
AcDbEntity
  8
1
100
AcDbDimension
  2
*D4
 10
227.1922744914
 20
385.660228307849
 30
0.0
 11
205.239431205139
 21
389.410228307849
 31
0.0
 70
    32
  1
<>
 71
     5
 42
-1.0
 53
0.00013888888889
  3
ME10_DIM_12
100
AcDbAlignedDimension
 13
185.1922744914
 23
378.8242906852
 33
0.0
 14
227.1922744914
 24
342.7538869166
 34
0.0
100
AcDbRotatedDimension
  0
DIMENSION
  5
103
330
1F
100
AcDbEntity
  8
1
100
AcDbDimension
  2
*D5
 10
248.874227817826
 20
350.8367906852
 30
0.0
 11
245.124227817826
 21
329.792555188138
 31
0.0
 70
    32
  1
<>
 71
     5
 42
-1.0
 53
90.0
  3
ME10_DIM_13
100
AcDbAlignedDimension
 13
213.924325299
 23
308.8367906852
 33
0.0
 14
213.924325299
 24
350.8367906852
 34
0.0
 50
90.0
100
AcDbRotatedDimension
  0
DIMENSION
  5
10E
330
1F
100
AcDbEntity
  8
1
100
AcDbDimension
  2
*D6
 10
238.659145373816
 20
335.8367906852
 30
0.0
 11
234.909145373816
 21
329.918667317076
 31
0.0
 70
    32
  1
<>
 71
     5
 42
-1.0
 53
90.0
  3
ME10_DIM_14
100
AcDbAlignedDimension
 13
227.1922744914
 23
323.8367906852
 33
0.0
 14
227.1922744914
 24
335.8367906852
 34
0.0
 50
90.0
100
AcDbRotatedDimension
  0
INSERT
  5
115
330
1F
100
AcDbEntity
  8
1
100
AcDbBlockReference
  2
*D7
 10
0.0
 20
0.0
 30
0.0
  0
ENDSEC
  0
SECTION
  2
OBJECTS
  0
DICTIONARY
  5
C
330
0
100
AcDbDictionary
281
     1
  3
ACAD_GROUP
350
D
  3
ACAD_LAYOUT
350
1A
  3
ACAD_MLEADERSTYLE
350
118
  3
ACAD_MLINESTYLE
350
17
  3
ACAD_PLOTSETTINGS
350
19
  3
ACAD_PLOTSTYLENAME
350
E
  3
ACAD_SCALELIST
350
4C
  3
ACAD_VISUALSTYLE
350
2A
  3
AcDbVariableDictionary
350
116
  0
DICTIONARY
  5
D
102
{ACAD_REACTORS
330
C
102
}
330
C
100
AcDbDictionary
281
     1
  0
DICTIONARY
  5
1A
102
{ACAD_REACTORS
330
C
102
}
330
C
100
AcDbDictionary
281
     1
  3
Layout1
350
1E
  3
Layout2
350
26
  3
Model
350
22
  0
DICTIONARY
  5
118
102
{ACAD_REACTORS
330
C
102
}
330
C
100
AcDbDictionary
281
     1
  0
DICTIONARY
  5
17
102
{ACAD_REACTORS
330
C
102
}
330
C
100
AcDbDictionary
281
     1
  3
Standard
350
18
  0
DICTIONARY
  5
19
102
{ACAD_REACTORS
330
C
102
}
330
C
100
AcDbDictionary
281
     1
  0
ACDBDICTIONARYWDFLT
  5
E
102
{ACAD_REACTORS
330
C
102
}
330
C
100
AcDbDictionary
281
     1
  3
Normal
350
F
100
AcDbDictionaryWithDefault
340
F
  0
DICTIONARY
  5
4C
102
{ACAD_REACTORS
330
C
102
}
330
C
100
AcDbDictionary
281
     1
  3
A0
350
4D
  3
A1
350
4E
  3
A2
350
4F
  3
A3
350
50
  3
A4
350
51
  3
A5
350
52
  3
A6
350
53
  3
A7
350
54
  3
A8
350
55
  3
A9
350
56
  3
B0
350
57
  3
B1
350
58
  3
B2
350
59
  3
B3
350
5A
  3
B4
350
5B
  3
B5
350
5C
  3
B6
350
5D
  3
B7
350
5E
  3
B8
350
5F
  3
B9
350
60
  3
C0
350
61
  3
C1
350
62
  3
C2
350
63
  3
C3
350
64
  3
C4
350
65
  3
C5
350
66
  3
C6
350
67
  3
C7
350
68
  3
C8
350
69
  3
C9
350
6A
  3
D0
350
6B
  3
D1
350
6C
  3
D2
350
6D
  0
DICTIONARY
  5
2A
102
{ACAD_REACTORS
330
C
102
}
330
C
100
AcDbDictionary
281
     1
  3
2dWireframe
350
2F
  3
3D Hidden
350
31
  3
3dWireframe
350
30
  3
Basic
350
32
  3
Brighten
350
36
  3
ColorChange
350
3A
  3
Conceptual
350
34
  3
Dim
350
35
  3
Facepattern
350
39
  3
Flat
350
2B
  3
FlatWithEdges
350
2C
  3
Gouraud
350
2D
  3
GouraudWithEdges
350
2E
  3
Linepattern
350
38
  3
Realistic
350
33
  3
Thicken
350
37
  0
DICTIONARY
  5
116
102
{ACAD_REACTORS
330
C
102
}
330
C
100
AcDbDictionary
281
     1
  3
CANNOSCALE
350
119
  0
LAYOUT
  5
1E
102
{ACAD_REACTORS
330
1A
102
}
330
1A
100
AcDbPlotSettings
  1

  2
none_device
  4

  6

 40
0.0
 41
0.0
 42
0.0
 43
0.0
 44
0.0
 45
0.0
 46
0.0
 47
0.0
 48
0.0
 49
0.0
140
0.0
141
0.0
142
1.0
143
1.0
 70
   688
 72
     0
 73
     0
 74
     5
  7

 75
    16
147
1.0
148
0.0
149
0.0
100
AcDbLayout
  1
Layout1
 70
     1
 71
     1
 10
0.0
 20
0.0
 11
12.0
 21
9.0
 12
0.0
 22
0.0
 32
0.0
 14
1.00000000000000E+20
 24
1.00000000000000E+20
 34
1.00000000000000E+20
 15
-1.00000000000000E+20
 25
-1.00000000000000E+20
 35
-1.00000000000000E+20
146
0.0
 13
0.0
 23
0.0
 33
0.0
 16
1.0
 26
0.0
 36
0.0
 17
0.0
 27
1.0
 37
0.0
 76
     0
330
1B
  0
LAYOUT
  5
26
102
{ACAD_REACTORS
330
1A
102
}
330
1A
100
AcDbPlotSettings
  1

  2
none_device
  4

  6

 40
0.0
 41
0.0
 42
0.0
 43
0.0
 44
0.0
 45
0.0
 46
0.0
 47
0.0
 48
0.0
 49
0.0
140
0.0
141
0.0
142
1.0
143
1.0
 70
   688
 72
     0
 73
     0
 74
     5
  7

 75
    16
147
1.0
148
0.0
149
0.0
100
AcDbLayout
  1
Layout2
 70
     1
 71
     2
 10
0.0
 20
0.0
 11
0.0
 21
0.0
 12
0.0
 22
0.0
 32
0.0
 14
0.0
 24
0.0
 34
0.0
 15
0.0
 25
0.0
 35
0.0
146
0.0
 13
0.0
 23
0.0
 33
0.0
 16
1.0
 26
0.0
 36
0.0
 17
0.0
 27
1.0
 37
0.0
 76
     0
330
23
  0
LAYOUT
  5
22
102
{ACAD_REACTORS
330
1A
102
}
330
1A
100
AcDbPlotSettings
  1

  2
none_device
  4

  6

 40
0.0
 41
0.0
 42
0.0
 43
0.0
 44
0.0
 45
0.0
 46
0.0
 47
0.0
 48
0.0
 49
0.0
140
0.0
141
0.0
142
1.0
143
1.0
 70
  1712
 72
     0
 73
     0
 74
     0
  7

 75
     0
147
1.0
148
0.0
149
0.0
100
AcDbLayout
  1
Model
 70
     1
 71
     0
 10
0.0
 20
0.0
 11
12.0
 21
9.0
 12
0.0
 22
0.0
 32
0.0
 14
23.4066788842665
 24
276.7242906852
 34
0.0
 15
250.874227817826
 25
406.157285542408
 35
0.0
146
0.0
 13
0.0
 23
0.0
 33
0.0
 16
1.0
 26
0.0
 36
0.0
 17
0.0
 27
1.0
 37
0.0
 76
     0
330
1F
331
29
  0
MLINESTYLE
  5
18
102
{ACAD_REACTORS
330
17
102
}
330
17
100
AcDbMlineStyle
  2
Standard
 70
     0
  3

 62
   256
 51
90.0
 52
90.0
 71
     2
 49
0.5
 62
   256
  6
BYLAYER
 49
-0.5
 62
   256
  6
BYLAYER
  0
ACDBPLACEHOLDER
  5
F
102
{ACAD_REACTORS
330
E
102
}
330
E
  0
SCALE
  5
4D
102
{ACAD_REACTORS
330
4C
102
}
330
4C
100
AcDbScale
 70
     0
300
1:1
140
1.0
141
1.0
290
     1
  0
SCALE
  5
4E
102
{ACAD_REACTORS
330
4C
102
}
330
4C
100
AcDbScale
 70
     0
300
1:2
140
1.0
141
2.0
290
     0
  0
SCALE
  5
4F
102
{ACAD_REACTORS
330
4C
102
}
330
4C
100
AcDbScale
 70
     0
300
1:4
140
1.0
141
4.0
290
     0
  0
SCALE
  5
50
102
{ACAD_REACTORS
330
4C
102
}
330
4C
100
AcDbScale
 70
     0
300
1:5
140
1.0
141
5.0
290
     0
  0
SCALE
  5
51
102
{ACAD_REACTORS
330
4C
102
}
330
4C
100
AcDbScale
 70
     0
300
1:8
140
1.0
141
8.0
290
     0
  0
SCALE
  5
52
102
{ACAD_REACTORS
330
4C
102
}
330
4C
100
AcDbScale
 70
     0
300
1:10
140
1.0
141
10.0
290
     0
  0
SCALE
  5
53
102
{ACAD_REACTORS
330
4C
102
}
330
4C
100
AcDbScale
 70
     0
300
1:16
140
1.0
141
16.0
290
     0
  0
SCALE
  5
54
102
{ACAD_REACTORS
330
4C
102
}
330
4C
100
AcDbScale
 70
     0
300
1:20
140
1.0
141
20.0
290
     0
  0
SCALE
  5
55
102
{ACAD_REACTORS
330
4C
102
}
330
4C
100
AcDbScale
 70
     0
300
1:30
140
1.0
141
30.0
290
     0
  0
SCALE
  5
56
102
{ACAD_REACTORS
330
4C
102
}
330
4C
100
AcDbScale
 70
     0
300
1:40
140
1.0
141
40.0
290
     0
  0
SCALE
  5
57
102
{ACAD_REACTORS
330
4C
102
}
330
4C
100
AcDbScale
 70
     0
300
1:50
140
1.0
141
50.0
290
     0
  0
SCALE
  5
58
102
{ACAD_REACTORS
330
4C
102
}
330
4C
100
AcDbScale
 70
     0
300
1:100
140
1.0
141
100.0
290
     0
  0
SCALE
  5
59
102
{ACAD_REACTORS
330
4C
102
}
330
4C
100
AcDbScale
 70
     0
300
2:1
140
2.0
141
1.0
290
     0
  0
SCALE
  5
5A
102
{ACAD_REACTORS
330
4C
102
}
330
4C
100
AcDbScale
 70
     0
300
4:1
140
4.0
141
1.0
290
     0
  0
SCALE
  5
5B
102
{ACAD_REACTORS
330
4C
102
}
330
4C
100
AcDbScale
 70
     0
300
8:1
140
8.0
141
1.0
290
     0
  0
SCALE
  5
5C
102
{ACAD_REACTORS
330
4C
102
}
330
4C
100
AcDbScale
 70
     0
300
10:1
140
10.0
141
1.0
290
     0
  0
SCALE
  5
5D
102
{ACAD_REACTORS
330
4C
102
}
330
4C
100
AcDbScale
 70
     0
300
100:1
140
100.0
141
1.0
290
     0
  0
SCALE
  5
5E
102
{ACAD_REACTORS
330
4C
102
}
330
4C
100
AcDbScale
 70
     0
300
1/128" = 1'-0"
140
0.0078125
141
12.0
290
     0
  0
SCALE
  5
5F
102
{ACAD_REACTORS
330
4C
102
}
330
4C
100
AcDbScale
 70
     0
300
1/64" = 1'-0"
140
0.015625
141
12.0
290
     0
  0
SCALE
  5
60
102
{ACAD_REACTORS
330
4C
102
}
330
4C
100
AcDbScale
 70
     0
300
1/32" = 1'-0"
140
0.03125
141
12.0
290
     0
  0
SCALE
  5
61
102
{ACAD_REACTORS
330
4C
102
}
330
4C
100
AcDbScale
 70
     0
300
1/16" = 1'-0"
140
0.0625
141
12.0
290
     0
  0
SCALE
  5
62
102
{ACAD_REACTORS
330
4C
102
}
330
4C
100
AcDbScale
 70
     0
300
3/32" = 1'-0"
140
0.09375
141
12.0
290
     0
  0
SCALE
  5
63
102
{ACAD_REACTORS
330
4C
102
}
330
4C
100
AcDbScale
 70
     0
300
1/8" = 1'-0"
140
0.125
141
12.0
290
     0
  0
SCALE
  5
64
102
{ACAD_REACTORS
330
4C
102
}
330
4C
100
AcDbScale
 70
     0
300
3/16" = 1'-0"
140
0.1875
141
12.0
290
     0
  0
SCALE
  5
65
102
{ACAD_REACTORS
330
4C
102
}
330
4C
100
AcDbScale
 70
     0
300
1/4" = 1'-0"
140
0.25
141
12.0
290
     0
  0
SCALE
  5
66
102
{ACAD_REACTORS
330
4C
102
}
330
4C
100
AcDbScale
 70
     0
300
3/8" = 1'-0"
140
0.375
141
12.0
290
     0
  0
SCALE
  5
67
102
{ACAD_REACTORS
330
4C
102
}
330
4C
100
AcDbScale
 70
     0
300
1/2" = 1'-0"
140
0.5
141
12.0
290
     0
  0
SCALE
  5
68
102
{ACAD_REACTORS
330
4C
102
}
330
4C
100
AcDbScale
 70
     0
300
3/4" = 1'-0"
140
0.75
141
12.0
290
     0
  0
SCALE
  5
69
102
{ACAD_REACTORS
330
4C
102
}
330
4C
100
AcDbScale
 70
     0
300
1" = 1'-0"
140
1.0
141
12.0
290
     0
  0
SCALE
  5
6A
102
{ACAD_REACTORS
330
4C
102
}
330
4C
100
AcDbScale
 70
     0
300
1-1/2" = 1'-0"
140
1.5
141
12.0
290
     0
  0
SCALE
  5
6B
102
{ACAD_REACTORS
330
4C
102
}
330
4C
100
AcDbScale
 70
     0
300
3" = 1'-0"
140
3.0
141
12.0
290
     0
  0
SCALE
  5
6C
102
{ACAD_REACTORS
330
4C
102
}
330
4C
100
AcDbScale
 70
     0
300
6" = 1'-0"
140
6.0
141
12.0
290
     0
  0
SCALE
  5
6D
102
{ACAD_REACTORS
330
4C
102
}
330
4C
100
AcDbScale
 70
     0
300
1'-0" = 1'-0"
140
12.0
141
12.0
290
     0
  0
VISUALSTYLE
  5
2F
102
{ACAD_REACTORS
330
2A
102
}
330
2A
100
AcDbVisualStyle
  2
2dWireframe
 70
     4
 71
     0
 72
     2
 73
     0
 90
        0
 40
-0.6
 41
-30.0
 62
     5
 63
     7
 74
     1
 91
        4
 64
     7
 65
   257
 75
     1
175
     1
 42
1.0
 92
        0
 66
   257
 43
1.0
 76
     1
 77
     6
 78
     2
 67
     7
 79
     5
170
     0
171
     0
290
     0
174
     0
 93
        1
 44
0.0
173
     0
291
     0
 45
0.0
1001
ACAD
1000
AcDbSavedByObjectVersion
1070
     0
  0
VISUALSTYLE
  5
31
102
{ACAD_REACTORS
330
2A
102
}
330
2A
100
AcDbVisualStyle
  2
3D Hidden
 70
     6
 71
     1
 72
     2
 73
     2
 90
        0
 40
-0.6
 41
-30.0
 62
     5
 63
     7
 74
     2
 91
        2
 64
     7
 65
   257
 75
     2
175
     1
 42
40.0
 92
        0
 66
   257
 43
1.0
 76
     1
 77
     6
 78
     2
 67
     7
 79
     3
170
     0
171
     0
290
     0
174
     0
 93
        1
 44
0.0
173
     0
291
     0
 45
0.0
1001
ACAD
1000
AcDbSavedByObjectVersion
1070
     0
  0
VISUALSTYLE
  5
30
102
{ACAD_REACTORS
330
2A
102
}
330
2A
100
AcDbVisualStyle
  2
3dWireframe
 70
     5
 71
     0
 72
     2
 73
     0
 90
        0
 40
-0.6
 41
-30.0
 62
     5
 63
     7
 74
     1
 91
        4
 64
     7
 65
   257
 75
     1
175
     1
 42
1.0
 92
        0
 66
   257
 43
1.0
 76
     1
 77
     6
 78
     2
 67
     7
 79
     5
170
     0
171
     0
290
     0
174
     0
 93
        1
 44
0.0
173
     0
291
     0
 45
0.0
1001
ACAD
1000
AcDbSavedByObjectVersion
1070
     0
  0
VISUALSTYLE
  5
32
102
{ACAD_REACTORS
330
2A
102
}
330
2A
100
AcDbVisualStyle
  2
Basic
 70
     7
 71
     1
 72
     0
 73
     1
 90
        0
 40
-0.6
 41
-30.0
 62
     5
 63
     7
 74
     0
 91
        4
 64
     7
 65
   257
 75
     1
175
     1
 42
1.0
 92
        8
 66
     7
 43
1.0
 76
     1
 77
     6
 78
     2
 67
     7
 79
     5
170
     0
171
     0
290
     0
174
     0
 93
        1
 44
0.0
173
     0
291
     1
 45
0.0
1001
ACAD
1000
AcDbSavedByObjectVersion
1070
     0
  0
VISUALSTYLE
  5
36
102
{ACAD_REACTORS
330
2A
102
}
330
2A
100
AcDbVisualStyle
  2
Brighten
 70
    12
 71
     2
 72
     2
 73
     0
 90
        0
 40
-0.6
 41
-30.0
 62
     5
 63
     7
 74
     1
 91
        4
 64
     7
 65
   257
 75
     1
175
     1
 42
1.0
 92
        8
 66
     7
 43
1.0
 76
     1
 77
     6
 78
     2
 67
     7
 79
     5
170
     0
171
     0
290
     0
174
     0
 93
        1
 44
50.0
173
     0
291
     1
 45
0.0
1001
ACAD
1000
AcDbSavedByObjectVersion
1070
     0
  0
VISUALSTYLE
  5
3A
102
{ACAD_REACTORS
330
2A
102
}
330
2A
100
AcDbVisualStyle
  2
ColorChange
 70
    16
 71
     2
 72
     2
 73
     3
 90
        0
 40
-0.6
 41
-30.0
 62
     5
 63
     8
 74
     1
 91
        4
 64
     7
 65
   257
 75
     1
175
     1
 42
1.0
 92
        8
 66
     8
 43
1.0
 76
     1
 77
     6
 78
     2
 67
     7
 79
     5
170
     0
171
     0
290
     0
174
     0
 93
        1
 44
0.0
173
     0
291
     1
 45
0.0
1001
ACAD
1000
AcDbSavedByObjectVersion
1070
     0
  0
VISUALSTYLE
  5
34
102
{ACAD_REACTORS
330
2A
102
}
330
2A
100
AcDbVisualStyle
  2
Conceptual
 70
     9
 71
     3
 72
     2
 73
     0
 90
        0
 40
-0.6
 41
-30.0
 62
     5
 63
     7
 74
     2
 91
        2
 64
     7
 65
   257
 75
     1
175
     1
 42
40.0
 92
        8
 66
     7
 43
1.0
 76
     1
 77
     6
 78
     2
 67
     7
 79
     3
170
     0
171
     0
290
     0
174
     0
 93
        1
 44
0.0
173
     0
291
     0
 45
0.0
1001
ACAD
1000
AcDbSavedByObjectVersion
1070
     0
  0
VISUALSTYLE
  5
35
102
{ACAD_REACTORS
330
2A
102
}
330
2A
100
AcDbVisualStyle
  2
Dim
 70
    11
 71
     2
 72
     2
 73
     0
 90
        0
 40
-0.6
 41
-30.0
 62
     5
 63
     7
 74
     1
 91
        4
 64
     7
 65
   257
 75
     1
175
     1
 42
1.0
 92
        8
 66
     7
 43
1.0
 76
     1
 77
     6
 78
     2
 67
     7
 79
     5
170
     0
171
     0
290
     0
174
     0
 93
        1
 44
-50.0
173
     0
291
     1
 45
0.0
1001
ACAD
1000
AcDbSavedByObjectVersion
1070
     0
  0
VISUALSTYLE
  5
39
102
{ACAD_REACTORS
330
2A
102
}
330
2A
100
AcDbVisualStyle
  2
Facepattern
 70
    15
 71
     2
 72
     2
 73
     0
 90
        0
 40
-0.6
 41
-30.0
 62
     5
 63
     7
 74
     1
 91
        4
 64
     7
 65
   257
 75
     1
175
     1
 42
1.0
 92
        8
 66
     7
 43
1.0
 76
     1
 77
     6
 78
     2
 67
     7
 79
     5
170
     0
171
     0
290
     0
174
     0
 93
        1
 44
0.0
173
     0
291
     1
 45
0.0
1001
ACAD
1000
AcDbSavedByObjectVersion
1070
     0
  0
VISUALSTYLE
  5
2B
102
{ACAD_REACTORS
330
2A
102
}
330
2A
100
AcDbVisualStyle
  2
Flat
 70
     0
 71
     2
 72
     1
 73
     1
 90
        2
 40
-0.6
 41
30.0
 62
     5
 63
     7
 74
     0
 91
        4
 64
     7
 65
   257
 75
     1
175
     1
 42
1.0
 92
        8
 66
     7
 43
1.0
 76
     1
 77
     6
 78
     2
 67
     7
 79
     5
170
     0
171
     0
290
     0
174
     0
 93
       13
 44
0.0
173
     0
291
     1
 45
0.0
1001
ACAD
1000
AcDbSavedByObjectVersion
1070
     0
  0
VISUALSTYLE
  5
2C
102
{ACAD_REACTORS
330
2A
102
}
330
2A
100
AcDbVisualStyle
  2
FlatWithEdges
 70
     1
 71
     2
 72
     1
 73
     1
 90
        2
 40
-0.6
 41
30.0
 62
     5
 63
     7
 74
     1
 91
        4
 64
     7
 65
   257
 75
     1
175
     1
 42
1.0
 92
        0
 66
   257
 43
1.0
 76
     1
 77
     6
 78
     2
 67
     7
 79
     5
170
     0
171
     0
290
     0
174
     0
 93
       13
 44
0.0
173
     0
291
     1
 45
0.0
1001
ACAD
1000
AcDbSavedByObjectVersion
1070
     0
  0
VISUALSTYLE
  5
2D
102
{ACAD_REACTORS
330
2A
102
}
330
2A
100
AcDbVisualStyle
  2
Gouraud
 70
     2
 71
     2
 72
     2
 73
     1
 90
        2
 40
-0.6
 41
30.0
 62
     5
 63
     7
 74
     0
 91
        4
 64
     7
 65
   257
 75
     1
175
     1
 42
1.0
 92
        0
 66
     7
 43
1.0
 76
     1
 77
     6
 78
     2
 67
     7
 79
     5
170
     0
171
     0
290
     0
174
     0
 93
       13
 44
0.0
173
     0
291
     1
 45
0.0
1001
ACAD
1000
AcDbSavedByObjectVersion
1070
     0
  0
VISUALSTYLE
  5
2E
102
{ACAD_REACTORS
330
2A
102
}
330
2A
100
AcDbVisualStyle
  2
GouraudWithEdges
 70
     3
 71
     2
 72
     2
 73
     1
 90
        2
 40
-0.6
 41
30.0
 62
     5
 63
     7
 74
     1
 91
        4
 64
     7
 65
   257
 75
     1
175
     1
 42
1.0
 92
        0
 66
   257
 43
1.0
 76
     1
 77
     6
 78
     2
 67
     7
 79
     5
170
     0
171
     0
290
     0
174
     0
 93
       13
 44
0.0
173
     0
291
     1
 45
0.0
1001
ACAD
1000
AcDbSavedByObjectVersion
1070
     0
  0
VISUALSTYLE
  5
38
102
{ACAD_REACTORS
330
2A
102
}
330
2A
100
AcDbVisualStyle
  2
Linepattern
 70
    14
 71
     2
 72
     2
 73
     0
 90
        0
 40
-0.6
 41
-30.0
 62
     5
 63
     7
 74
     1
 91
        4
 64
     7
 65
   257
 75
     7
175
     7
 42
1.0
 92
        8
 66
     7
 43
1.0
 76
     1
 77
     6
 78
     2
 67
     7
 79
     5
170
     0
171
     0
290
     0
174
     0
 93
        1
 44
0.0
173
     0
291
     1
 45
0.0
1001
ACAD
1000
AcDbSavedByObjectVersion
1070
     0
  0
VISUALSTYLE
  5
33
102
{ACAD_REACTORS
330
2A
102
}
330
2A
100
AcDbVisualStyle
  2
Realistic
 70
     8
 71
     2
 72
     2
 73
     0
 90
        0
 40
-0.6
 41
-30.0
 62
     5
 63
     7
 74
     1
 91
        0
 64
     7
 65
   257
 75
     1
175
     1
 42
1.0
 92
        8
 66
     8
 43
1.0
 76
     1
 77
     6
 78
     2
 67
     7
 79
     5
170
     0
171
     0
290
     0
174
     0
 93
       13
 44
0.0
173
     0
291
     0
 45
0.0
1001
ACAD
1000
AcDbSavedByObjectVersion
1070
     0
  0
VISUALSTYLE
  5
37
102
{ACAD_REACTORS
330
2A
102
}
330
2A
100
AcDbVisualStyle
  2
Thicken
 70
    13
 71
     2
 72
     2
 73
     0
 90
        0
 40
-0.6
 41
-30.0
 62
     5
 63
     7
 74
     1
 91
        4
 64
     7
 65
   257
 75
     1
175
     1
 42
1.0
 92
       12
 66
     7
 43
1.0
 76
     1
 77
     6
 78
     2
 67
     7
 79
     5
170
     0
171
     0
290
     0
174
     0
 93
        1
 44
0.0
173
     0
291
     1
 45
0.0
1001
ACAD
1000
AcDbSavedByObjectVersion
1070
     0
  0
DICTIONARYVAR
  5
119
102
{ACAD_REACTORS
330
116
102
}
330
116
100
DictionaryVariables
280
     0
  1
1:1
  0
ENDSEC
  0
EOF
