  0
SECTION
  2
HEADER
  9
$ACADVER
  1
AC1015
  9
$ACADMAINTVER
 70
     6
  9
$DWGCODEPAGE
  3
ANSI_1252
  9
$INSBASE
 10
0.0
 20
0.0
 30
0.0
  9
$EXTMIN
 10
15.8486696326319
 20
257.2724203694
 30
0.0
  9
$EXTMAX
 10
229.09557786753
 20
390.695641983103
 30
0.0
  9
$LIMMIN
 10
0.0
 20
0.0
  9
$LIMMAX
 10
12.0
 20
9.0
  9
$ORTHOMODE
 70
     0
  9
$REGENMODE
 70
     1
  9
$FILLMODE
 70
     1
  9
$QTEXTMODE
 70
     0
  9
$MIRRTEXT
 70
     1
  9
$LTSCALE
 40
1.0
  9
$ATTMODE
 70
     1
  9
$TEXTSIZE
 40
0.2
  9
$TRACEWID
 40
0.05
  9
$TEXTSTYLE
  7
Standard
  9
$CLAYER
  8
0
  9
$CELTYPE
  6
ByLayer
  9
$CECOLOR
 62
   256
  9
$CELTSCALE
 40
1.0
  9
$DISPSILH
 70
     0
  9
$DIMSCALE
 40
1.0
  9
$DIMASZ
 40
0.18
  9
$DIMEXO
 40
0.0625
  9
$DIMDLI
 40
0.38
  9
$DIMRND
 40
0.0
  9
$DIMDLE
 40
0.0
  9
$DIMEXE
 40
0.18
  9
$DIMTP
 40
0.0
  9
$DIMTM
 40
0.0
  9
$DIMTXT
 40
0.18
  9
$DIMCEN
 40
0.09
  9
$DIMTSZ
 40
0.0
  9
$DIMTOL
 70
     0
  9
$DIMLIM
 70
     0
  9
$DIMTIH
 70
     1
  9
$DIMTOH
 70
     1
  9
$DIMSE1
 70
     0
  9
$DIMSE2
 70
     0
  9
$DIMTAD
 70
     0
  9
$DIMZIN
 70
     0
  9
$DIMBLK
  1

  9
$DIMASO
 70
     1
  9
$DIMSHO
 70
     1
  9
$DIMPOST
  1

  9
$DIMAPOST
  1

  9
$DIMALT
 70
     0
  9
$DIMALTD
 70
     2
  9
$DIMALTF
 40
25.4
  9
$DIMLFAC
 40
1.0
  9
$DIMTOFL
 70
     0
  9
$DIMTVP
 40
0.0
  9
$DIMTIX
 70
     0
  9
$DIMSOXD
 70
     0
  9
$DIMSAH
 70
     0
  9
$DIMBLK1
  1

  9
$DIMBLK2
  1

  9
$DIMSTYLE
  2
Standard
  9
$DIMCLRD
 70
     0
  9
$DIMCLRE
 70
     0
  9
$DIMCLRT
 70
     0
  9
$DIMTFAC
 40
1.0
  9
$DIMGAP
 40
0.09
  9
$DIMJUST
 70
     0
  9
$DIMSD1
 70
     0
  9
$DIMSD2
 70
     0
  9
$DIMTOLJ
 70
     1
  9
$DIMTZIN
 70
     0
  9
$DIMALTZ
 70
     0
  9
$DIMALTTZ
 70
     0
  9
$DIMUPT
 70
     0
  9
$DIMDEC
 70
     4
  9
$DIMTDEC
 70
     4
  9
$DIMALTU
 70
     2
  9
$DIMALTTD
 70
     2
  9
$DIMTXSTY
  7
Standard
  9
$DIMAUNIT
 70
     0
  9
$DIMADEC
 70
     0
  9
$DIMALTRND
 40
0.0
  9
$DIMAZIN
 70
     0
  9
$DIMDSEP
 70
    46
  9
$DIMATFIT
 70
     3
  9
$DIMFRAC
 70
     0
  9
$DIMLDRBLK
  1

  9
$DIMLUNIT
 70
     2
  9
$DIMLWD
 70
    -2
  9
$DIMLWE
 70
    -2
  9
$DIMTMOVE
 70
     0
  9
$LUNITS
 70
     2
  9
$LUPREC
 70
     4
  9
$SKETCHINC
 40
0.1
  9
$FILLETRAD
 40
0.5
  9
$AUNITS
 70
     0
  9
$AUPREC
 70
     0
  9
$MENU
  1
.
  9
$ELEVATION
 40
0.0
  9
$PELEVATION
 40
0.0
  9
$THICKNESS
 40
0.0
  9
$LIMCHECK
 70
     0
  9
$CHAMFERA
 40
0.5
  9
$CHAMFERB
 40
0.5
  9
$CHAMFERC
 40
1.0
  9
$CHAMFERD
 40
0.0
  9
$SKPOLY
 70
     0
  9
$TDCREATE
 40
2456645.679441748
  9
$TDUCREATE
 40
2456645.637775081
  9
$TDUPDATE
 40
2456645.679441759
  9
$TDUUPDATE
 40
2456645.637775092
  9
$TDINDWG
 40
0.0000000116
  9
$TDUSRTIMER
 40
0.0000000116
  9
$USRTIMER
 70
     1
  9
$ANGBASE
 50
0.0
  9
$ANGDIR
 70
     0
  9
$PDMODE
 70
     0
  9
$PDSIZE
 40
0.0
  9
$PLINEWID
 40
0.0
  9
$SPLFRAME
 70
     0
  9
$SPLINETYPE
 70
     6
  9
$SPLINESEGS
 70
     8
  9
$HANDSEED
  5
11A
  9
$SURFTAB1
 70
     6
  9
$SURFTAB2
 70
     6
  9
$SURFTYPE
 70
     6
  9
$SURFU
 70
     6
  9
$SURFV
 70
     6
  9
$UCSBASE
  2

  9
$UCSNAME
  2

  9
$UCSORG
 10
0.0
 20
0.0
 30
0.0
  9
$UCSXDIR
 10
1.0
 20
0.0
 30
0.0
  9
$UCSYDIR
 10
0.0
 20
1.0
 30
0.0
  9
$UCSORTHOREF
  2

  9
$UCSORTHOVIEW
 70
     0
  9
$UCSORGTOP
 10
0.0
 20
0.0
 30
0.0
  9
$UCSORGBOTTOM
 10
0.0
 20
0.0
 30
0.0
  9
$UCSORGLEFT
 10
0.0
 20
0.0
 30
0.0
  9
$UCSORGRIGHT
 10
0.0
 20
0.0
 30
0.0
  9
$UCSORGFRONT
 10
0.0
 20
0.0
 30
0.0
  9
$UCSORGBACK
 10
0.0
 20
0.0
 30
0.0
  9
$PUCSBASE
  2

  9
$PUCSNAME
  2

  9
$PUCSORG
 10
0.0
 20
0.0
 30
0.0
  9
$PUCSXDIR
 10
1.0
 20
0.0
 30
0.0
  9
$PUCSYDIR
 10
0.0
 20
1.0
 30
0.0
  9
$PUCSORTHOREF
  2

  9
$PUCSORTHOVIEW
 70
     0
  9
$PUCSORGTOP
 10
0.0
 20
0.0
 30
0.0
  9
$PUCSORGBOTTOM
 10
0.0
 20
0.0
 30
0.0
  9
$PUCSORGLEFT
 10
0.0
 20
0.0
 30
0.0
  9
$PUCSORGRIGHT
 10
0.0
 20
0.0
 30
0.0
  9
$PUCSORGFRONT
 10
0.0
 20
0.0
 30
0.0
  9
$PUCSORGBACK
 10
0.0
 20
0.0
 30
0.0
  9
$USERI1
 70
     0
  9
$USERI2
 70
     0
  9
$USERI3
 70
     0
  9
$USERI4
 70
     0
  9
$USERI5
 70
     0
  9
$USERR1
 40
16.5
  9
$USERR2
 40
0.0
  9
$USERR3
 40
0.0
  9
$USERR4
 40
0.0
  9
$USERR5
 40
0.0
  9
$WORLDVIEW
 70
     1
  9
$SHADEDGE
 70
     3
  9
$SHADEDIF
 70
    70
  9
$TILEMODE
 70
     1
  9
$MAXACTVP
 70
    64
  9
$PINSBASE
 10
0.0
 20
0.0
 30
0.0
  9
$PLIMCHECK
 70
     0
  9
$PEXTMIN
 10
1.00000000000000E+20
 20
1.00000000000000E+20
 30
1.00000000000000E+20
  9
$PEXTMAX
 10
-1.00000000000000E+20
 20
-1.00000000000000E+20
 30
-1.00000000000000E+20
  9
$PLIMMIN
 10
0.0
 20
0.0
  9
$PLIMMAX
 10
12.0
 20
9.0
  9
$UNITMODE
 70
     0
  9
$VISRETAIN
 70
     1
  9
$PLINEGEN
 70
     0
  9
$PSLTSCALE
 70
     1
  9
$TREEDEPTH
 70
  3020
  9
$CMLSTYLE
  2
Standard
  9
$CMLJUST
 70
     0
  9
$CMLSCALE
 40
1.0
  9
$PROXYGRAPHICS
 70
     1
  9
$MEASUREMENT
 70
     1
  9
$CELWEIGHT
370
    -1
  9
$ENDCAPS
280
     0
  9
$JOINSTYLE
280
     0
  9
$LWDISPLAY
290
     0
  9
$INSUNITS
 70
     1
  9
$HYPERLINKBASE
  1

  9
$STYLESHEET
  1

  9
$XEDIT
290
     1
  9
$CEPSNTYPE
380
     0
  9
$PSTYLEMODE
290
     1
  9
$FINGERPRINTGUID
  2
{8F24A340-D94E-46A6-A5E9-8D2F8F9FE3EA}
  9
$VERSIONGUID
  2
{FAEB1C32-E019-11D5-929B-00C0DF256EC4}
  9
$EXTNAMES
290
     1
  9
$PSVPSCALE
 40
0.0
  9
$OLESTARTUP
290
     0
  0
ENDSEC
  0
SECTION
  2
CLASSES
  0
CLASS
  1
ACDBDICTIONARYWDFLT
  2
AcDbDictionaryWithDefault
  3
ObjectDBX Classes
 90
        0
280
     0
281
     0
  0
CLASS
  1
VISUALSTYLE
  2
AcDbVisualStyle
  3
ObjectDBX Classes
 90
     4095
280
     0
281
     0
  0
CLASS
  1
SCALE
  2
AcDbScale
  3
ObjectDBX Classes
 90
     1153
280
     0
281
     0
  0
CLASS
  1

  2
exOdDbPolyline
  3

 90
        0
280
     0
281
     1
  0
CLASS
  1

  2
exOdDbSpline
  3

 90
        0
280
     0
281
     1
  0
CLASS
  1
DICTIONARYVAR
  2
AcDbDictionaryVar
  3
ObjectDBX Classes
 90
        0
280
     0
281
     0
  0
CLASS
  1
ACDBPLACEHOLDER
  2
AcDbPlaceHolder
  3
ObjectDBX Classes
 90
        0
280
     0
281
     0
  0
CLASS
  1
LAYOUT
  2
AcDbLayout
  3
ObjectDBX Classes
 90
        0
280
     0
281
     0
  0
ENDSEC
  0
SECTION
  2
TABLES
  0
TABLE
  2
VPORT
  5
8
330
0
100
AcDbSymbolTable
 70
     1
  0
VPORT
  5
29
330
8
100
AcDbSymbolTableRecord
100
AcDbViewportTableRecord
  2
*Active
 70
     0
 10
0.0
 20
0.0
 11
1.0
 21
1.0
 12
122.472123750081
 22
323.9840311762515
 13
0.0
 23
0.0
 14
0.5
 24
0.5
 15
0.5
 25
0.5
 16
0.0
 26
0.0
 36
1.0
 17
0.0
 27
0.0
 37
0.0
 40
146.7655437750733
 41
1.60267857142857
 42
50.0
 43
0.0
 44
0.0
 50
0.0
 51
0.0
 71
     0
 72
   100
 73
     1
 74
     3
 75
     0
 76
     0
 77
     0
 78
     0
281
     0
 65
     1
110
0.0
120
0.0
130
0.0
111
1.0
121
0.0
131
0.0
112
0.0
122
1.0
132
0.0
 79
     0
146
0.0
  0
ENDTAB
  0
TABLE
  2
LTYPE
  5
5
330
0
100
AcDbSymbolTable
 70
     9
  0
LTYPE
  5
14
330
5
100
AcDbSymbolTableRecord
100
AcDbLinetypeTableRecord
  2
ByBlock
 70
     0
  3

 72
    65
 73
     0
 40
0.0
  0
LTYPE
  5
15
330
5
100
AcDbSymbolTableRecord
100
AcDbLinetypeTableRecord
  2
ByLayer
 70
     0
  3

 72
    65
 73
     0
 40
0.0
  0
LTYPE
  5
16
330
5
100
AcDbSymbolTableRecord
100
AcDbLinetypeTableRecord
  2
Continuous
 70
     0
  3
Solid line
 72
    65
 73
     0
 40
0.0
  0
LTYPE
  5
3B
330
5
100
AcDbSymbolTableRecord
100
AcDbLinetypeTableRecord
  2
DASHED
 70
     0
  3
Dashed
 72
    65
 73
     2
 40
15.0
 49
7.0
 74
     0
 49
-8.0
 74
     0
  0
LTYPE
  5
3C
330
5
100
AcDbSymbolTableRecord
100
AcDbLinetypeTableRecord
  2
DOTTED
 70
     0
  3
Dotted
 72
    65
 73
     2
 40
1.0
 49
0.0
 74
     0
 49
-1.0
 74
     0
  0
LTYPE
  5
3D
330
5
100
AcDbSymbolTableRecord
100
AcDbLinetypeTableRecord
  2
DOT_CENTER
 70
     0
  3
Dot_Center
 72
    65
 73
     4
 40
14.0
 49
12.0
 74
     0
 49
-1.0
 74
     0
 49
0.0
 74
     0
 49
-1.0
 74
     0
  0
LTYPE
  5
3E
330
5
100
AcDbSymbolTableRecord
100
AcDbLinetypeTableRecord
  2
LONG_DASHED
 70
     0
  3
Long_Dashed
 72
    65
 73
     2
 40
15.0
 49
10.0
 74
     0
 49
-5.0
 74
     0
  0
LTYPE
  5
3F
330
5
100
AcDbSymbolTableRecord
100
AcDbLinetypeTableRecord
  2
DASH_CENTER
 70
     0
  3
Dash_Center
 72
    65
 73
     4
 40
14.0
 49
11.0
 74
     0
 49
-1.0
 74
     0
 49
1.0
 74
     0
 49
-1.0
 74
     0
  0
LTYPE
  5
40
330
5
100
AcDbSymbolTableRecord
100
AcDbLinetypeTableRecord
  2
PHANTOM
 70
     0
  3
Phantom
 72
    65
 73
     6
 40
13.0
 49
10.0
 74
     0
 49
-1.0
 74
     0
 49
0.0
 74
     0
 49
-1.0
 74
     0
 49
0.0
 74
     0
 49
-1.0
 74
     0
  0
LTYPE
  5
41
330
5
100
AcDbSymbolTableRecord
100
AcDbLinetypeTableRecord
  2
CENTER_DASH_DASH
 70
     0
  3
Center_Dash_Dash
 72
    65
 73
     6
 40
14.0
 49
9.0
 74
     0
 49
-1.0
 74
     0
 49
1.0
 74
     0
 49
-1.0
 74
     0
 49
1.0
 74
     0
 49
-1.0
 74
     0
  0
LTYPE
  5
42
330
5
100
AcDbSymbolTableRecord
100
AcDbLinetypeTableRecord
  2
HIDDEN
 70
     0
  3
HIDDEN
 72
    65
 73
     2
 40
4.0
 49
2.0
 74
     0
 49
-2.0
 74
     0
  0
ENDTAB
  0
TABLE
  2
LAYER
  5
2
330
0
100
AcDbSymbolTable
 70
     7
  0
LAYER
  5
10
330
2
100
AcDbSymbolTableRecord
100
AcDbLayerTableRecord
  2
0
 70
     0
 62
     7
  6
Continuous
370
    -3
390
F
  0
LAYER
  5
43
330
2
100
AcDbSymbolTableRecord
100
AcDbLayerTableRecord
  2
1
 70
     0
 62
     7
  6
Continuous
370
    -3
390
F
  0
LAYER
  5
44
330
2
100
AcDbSymbolTableRecord
100
AcDbLayerTableRecord
  2
BEZUGSACHSEN
 70
     0
 62
     7
  6
Continuous
370
    -3
390
F
  0
LAYER
  5
45
330
2
100
AcDbSymbolTableRecord
100
AcDbLayerTableRecord
  2
DEFAULT_2
 70
     0
 62
     7
  6
Continuous
370
    -3
390
F
  0
LAYER
  5
46
330
2
100
AcDbSymbolTableRecord
100
AcDbLayerTableRecord
  2
FASEN
 70
     0
 62
     7
  6
Continuous
370
    -3
390
F
  0
LAYER
  5
47
330
2
100
AcDbSymbolTableRecord
100
AcDbLayerTableRecord
  2
RUNDUNGEN
 70
     0
 62
     7
  6
Continuous
370
    -3
390
F
  0
LAYER
  5
48
330
2
100
AcDbSymbolTableRecord
100
AcDbLayerTableRecord
  2
TEIL_STARTBEZUEGE
 70
     0
 62
     7
  6
Continuous
370
    -3
390
F
  0
ENDTAB
  0
TABLE
  2
STYLE
  5
3
330
0
100
AcDbSymbolTable
 70
     2
  0
STYLE
  5
11
330
3
100
AcDbSymbolTableRecord
100
AcDbTextStyleTableRecord
  2
Standard
 70
     0
 40
0.0
 41
1.0
 50
0.0
 71
     0
 42
0.2
  3
txt
  4

  0
STYLE
  5
6F
330
3
100
AcDbSymbolTableRecord
100
AcDbTextStyleTableRecord
  2
CONVERTER_11
 70
     0
 40
0.0
 41
0.72
 50
0.0
 71
     0
 42
0.2
  3
txt.shx
  4

  0
ENDTAB
  0
TABLE
  2
VIEW
  5
6
330
0
100
AcDbSymbolTable
 70
     0
  0
ENDTAB
  0
TABLE
  2
UCS
  5
7
330
0
100
AcDbSymbolTable
 70
     0
  0
ENDTAB
  0
TABLE
  2
APPID
  5
9
330
0
100
AcDbSymbolTable
 70
     1
  0
APPID
  5
12
330
9
100
AcDbSymbolTableRecord
100
AcDbRegAppTableRecord
  2
ACAD
 70
     0
  0
ENDTAB
  0
TABLE
  2
DIMSTYLE
  5
A
330
0
100
AcDbSymbolTable
 70
     6
100
AcDbDimStyleTable
  0
DIMSTYLE
105
27
330
A
100
AcDbSymbolTableRecord
100
AcDbDimStyleTableRecord
  2
Standard
 70
     0
340
11
  0
DIMSTYLE
105
DF
102
{ACAD_REACTORS
330
E0
102
}
330
A
100
AcDbSymbolTableRecord
100
AcDbDimStyleTableRecord
  2
ME10_DIM_10
 70
     0
  3
<>
 41
3.5
 42
2.0
 44
2.0
 71
     1
 73
     0
 74
     0
 77
     1
 78
     8
140
3.5
146
0.7
147
2.0
172
     1
173
     1
176
     2
177
     2
178
     3
271
     2
272
     0
340
6F
  0
DIMSTYLE
105
EA
102
{ACAD_REACTORS
330
EB
102
}
330
A
100
AcDbSymbolTableRecord
100
AcDbDimStyleTableRecord
  2
ME10_DIM_11
 70
     0
  3
<>
 41
3.5
 42
2.0
 44
2.0
 71
     1
 73
     0
 74
     0
 77
     1
 78
     8
140
3.5
146
0.7
147
2.0
172
     1
173
     1
176
     2
177
     2
178
     3
271
     2
272
     0
340
6F
  0
DIMSTYLE
105
F5
102
{ACAD_REACTORS
330
F6
102
}
330
A
100
AcDbSymbolTableRecord
100
AcDbDimStyleTableRecord
  2
ME10_DIM_12
 70
     0
  3
<>
 41
3.5
 42
2.0
 44
2.0
 71
     1
 73
     0
 74
     0
 77
     1
 78
     8
140
3.5
146
0.7
147
2.0
172
     1
173
     1
176
     2
177
     2
178
     3
271
     2
272
     0
340
6F
  0
DIMSTYLE
105
100
102
{ACAD_REACTORS
330
101
102
}
330
A
100
AcDbSymbolTableRecord
100
AcDbDimStyleTableRecord
  2
ME10_DIM_13
 70
     0
  3
\U+2300<>
 41
3.5
 42
2.0
 44
2.0
 71
     1
 73
     0
 74
     0
 77
     1
 78
     8
140
3.5
146
0.7
147
2.0
172
     1
173
     1
176
     2
177
     2
178
     3
271
     2
272
     0
340
6F
  0
DIMSTYLE
105
10D
102
{ACAD_REACTORS
330
10E
102
}
330
A
100
AcDbSymbolTableRecord
100
AcDbDimStyleTableRecord
  2
ME10_DIM_14
 70
     0
  3
\U+2300<>
 41
3.5
 42
2.0
 44
2.0
 71
     1
 73
     0
 74
     0
 77
     1
 78
     8
140
3.5
146
0.7
147
2.0
172
     1
173
     1
176
     2
177
     2
178
     3
271
     2
272
     0
340
6F
  0
ENDTAB
  0
TABLE
  2
BLOCK_RECORD
  5
1
330
0
100
AcDbSymbolTable
 70
     8
  0
BLOCK_RECORD
  5
1F
330
1
100
AcDbSymbolTableRecord
100
AcDbBlockTableRecord
  2
*Model_Space
340
22
  0
BLOCK_RECORD
  5
1B
330
1
100
AcDbSymbolTableRecord
100
AcDbBlockTableRecord
  2
*Paper_Space
340
1E
  0
BLOCK_RECORD
  5
23
330
1
100
AcDbSymbolTableRecord
100
AcDbBlockTableRecord
  2
*Paper_Space0
340
26
  0
BLOCK_RECORD
  5
49
330
1
100
AcDbSymbolTableRecord
100
AcDbBlockTableRecord
  2
Urheberrecht_DE-EN
340
0
102
{BLKREFS
331
6E
102
}
  0
BLOCK_RECORD
  5
D6
330
1
100
AcDbSymbolTableRecord
100
AcDbBlockTableRecord
  2
*D2
340
0
  0
BLOCK_RECORD
  5
E1
330
1
100
AcDbSymbolTableRecord
100
AcDbBlockTableRecord
  2
*D3
340
0
  0
BLOCK_RECORD
  5
EC
330
1
100
AcDbSymbolTableRecord
100
AcDbBlockTableRecord
  2
*D4
340
0
  0
BLOCK_RECORD
  5
F7
330
1
100
AcDbSymbolTableRecord
100
AcDbBlockTableRecord
  2
*D5
340
0
  0
BLOCK_RECORD
  5
102
330
1
100
AcDbSymbolTableRecord
100
AcDbBlockTableRecord
  2
*D6
340
0
  0
BLOCK_RECORD
  5
10F
330
1
100
AcDbSymbolTableRecord
100
AcDbBlockTableRecord
  2
*D7
340
0
102
{BLKREFS
331
115
102
}
  0
ENDTAB
  0
ENDSEC
  0
SECTION
  2
BLOCKS
  0
BLOCK
  5
20
330
1F
100
AcDbEntity
  8
0
100
AcDbBlockBegin
  2
*Model_Space
 70
     0
 10
0.0
 20
0.0
 30
0.0
  3
*Model_Space
  1

  0
ENDBLK
  5
21
330
1F
100
AcDbEntity
  8
0
100
AcDbBlockEnd
  0
BLOCK
  5
1C
330
1B
100
AcDbEntity
 67
     1
  8
0
100
AcDbBlockBegin
  2
*Paper_Space
 70
     0
 10
0.0
 20
0.0
 30
0.0
  3
*Paper_Space
  1

  0
ENDBLK
  5
1D
330
1B
100
AcDbEntity
 67
     1
  8
0
100
AcDbBlockEnd
  0
BLOCK
  5
24
330
23
100
AcDbEntity
  8
0
100
AcDbBlockBegin
  2
*Paper_Space0
 70
     0
 10
0.0
 20
0.0
 30
0.0
  3
*Paper_Space0
  1

  0
ENDBLK
  5
25
330
23
100
AcDbEntity
  8
0
100
AcDbBlockEnd
  0
BLOCK
  5
4A
330
49
100
AcDbEntity
  8
0
100
AcDbBlockBegin
  2
Urheberrecht_DE-EN
 70
     0
 10
29.8486696326319
 20
326.230924533777
 30
0.0
  3
Urheberrecht_DE-EN
  1

  0
MTEXT
  5
70
330
49
100
AcDbEntity
  8
1
 62
     1
100
AcDbMText
 10
29.8486696326319
 20
269.9415376164708
 30
0.0
 40
2.0
 41
0.0
 71
     7
 72
     1
  1
F\U+00fcr diese Unterlage behalten wir das Ur-\Pheberrecht. Sie darf nur f\U+00fcr den von uns \Pbestimmten Zweck benutzt und ohne unsere \PZustimmung weder vervielf\U+00e4ltigt noch\PDritten zug\U+00e4nglich gemacht werden.
  7
CONVERTER_11
 11
0.0
 21
1.0
 31
0.0
 73
     1
 44
0.90036014405762
  0
MTEXT
  5
71
330
49
100
AcDbEntity
  8
1
 62
     1
100
AcDbMText
 10
29.8486696326319
 20
326.230924533777
 30
0.0
 40
2.0
 41
0.0
 71
     7
 72
     1
  1
We own the copyright of this document. It \Pdetermined and may neither be copied or \Pmade accessible to outsiders without our\Ppermission.
  7
CONVERTER_11
 11
0.0
 21
1.0
 31
0.0
 73
     1
 44
0.90036014405762
  0
ENDBLK
  5
4B
330
49
100
AcDbEntity
  8
0
100
AcDbBlockEnd
  0
BLOCK
  5
DD
330
D6
100
AcDbEntity
  8
0
100
AcDbBlockBegin
  2
*D2
 70
     1
 10
0.0
 20
0.0
 30
0.0
  3
*D2
  1

  0
LINE
  5
D7
330
D6
100
AcDbEntity
  8
1
  6
Continuous
 62
     2
100
AcDbLine
 10
204.7405881959
 20
385.195641983103
 30
0.0
 11
39.94058819590001
 21
385.195641983103
 31
0.0
  0
LINE
  5
D8
330
D6
100
AcDbEntity
  8
1
  6
Continuous
 62
     2
100
AcDbLine
 10
39.94058819590001
 20
331.598115777
 30
0.0
 11
39.94058819590001
 21
387.195641983103
 31
0.0
  0
LINE
  5
D9
330
D6
100
AcDbEntity
  8
1
  6
Continuous
 62
     2
100
AcDbLine
 10
204.7405881959
 20
319.4567171391
 30
0.0
 11
204.7405881959
 21
387.195641983103
 31
0.0
  0
SOLID
  5
DA
330
D6
100
AcDbEntity
  8
1
 62
     2
100
AcDbTrace
 10
201.2405881959
 20
384.7348582415471
 30
0.0
 11
201.2405881959
 21
385.6564257246588
 31
0.0
 12
204.7405881959
 22
385.195641983103
 32
0.0
 13
204.7405881959
 23
385.195641983103
 33
0.0
  0
SOLID
  5
DB
330
D6
100
AcDbEntity
  8
1
 62
     2
100
AcDbTrace
 10
43.44058819590001
 20
385.6564257246588
 30
0.0
 11
43.44058819590001
 21
384.7348582415471
 31
0.0
 12
39.94058819590001
 22
385.195641983103
 32
0.0
 13
39.94058819590001
 23
385.195641983103
 33
0.0
  0
MTEXT
  5
DC
330
D6
100
AcDbEntity
  8
1
 62
     3
100
AcDbMText
 10
123.980935388314
 20
387.195641983103
 30
0.0
 40
3.5
 41
0.0
 71
     7
 72
     1
  1
\C3;\C3;\C3;164.8\C2;\H2.45;\S^ ;\C3;
  7
CONVERTER_11
 11
0.9999999999970619
 21
2.424068405545306E-6
 31
0.0
 73
     1
 44
0.60024009603842
  0
ENDBLK
  5
DE
330
D6
100
AcDbEntity
  8
0
100
AcDbBlockEnd
  0
BLOCK
  5
E8
330
E1
100
AcDbEntity
  8
0
100
AcDbBlockBegin
  2
*D3
 70
     1
 10
0.0
 20
0.0
 30
0.0
  3
*D3
  1

  0
LINE
  5
E2
330
E1
100
AcDbEntity
  8
1
  6
Continuous
 62
     2
100
AcDbLine
 10
204.7405881959
 20
376.326381228775
 30
0.0
 11
141.7405881959
 21
376.326381228775
 31
0.0
  0
LINE
  5
E3
330
E1
100
AcDbEntity
  8
1
  6
Continuous
 62
     2
100
AcDbLine
 10
141.7405881959
 20
365.3724203694
 30
0.0
 11
141.7405881959
 21
378.326381228775
 31
0.0
  0
LINE
  5
E4
330
E1
100
AcDbEntity
  8
1
  6
Continuous
 62
     2
100
AcDbLine
 10
204.7405881959
 20
319.4567171391
 30
0.0
 11
204.7405881959
 21
378.326381228775
 31
0.0
  0
SOLID
  5
E5
330
E1
100
AcDbEntity
  8
1
 62
     2
100
AcDbTrace
 10
201.2405881959
 20
375.8655974872191
 30
0.0
 11
201.2405881959
 21
376.7871649703309
 31
0.0
 12
204.7405881959
 22
376.326381228775
 32
0.0
 13
204.7405881959
 23
376.326381228775
 33
0.0
  0
SOLID
  5
E6
330
E1
100
AcDbEntity
  8
1
 62
     2
100
AcDbTrace
 10
145.2405881959
 20
376.7871649703309
 30
0.0
 11
145.2405881959
 21
375.8655974872191
 31
0.0
 12
141.7405881959
 22
376.326381228775
 32
0.0
 13
141.7405881959
 23
376.326381228775
 33
0.0
  0
MTEXT
  5
E7
330
E1
100
AcDbEntity
  8
1
 62
     3
100
AcDbMText
 10
171.016182497623
 20
378.326381228775
 30
0.0
 40
3.5
 41
0.0
 71
     7
 72
     1
  1
\C3;\C3;\C3;63\C2;\H2.45;\S^ ;\C3;
  7
CONVERTER_11
 11
0.9999999999970619
 21
2.424068405545306E-6
 31
0.0
 73
     1
 44
0.60024009603842
  0
ENDBLK
  5
E9
330
E1
100
AcDbEntity
  8
0
100
AcDbBlockEnd
  0
BLOCK
  5
F3
330
EC
100
AcDbEntity
  8
0
100
AcDbBlockBegin
  2
*D4
 70
     1
 10
0.0
 20
0.0
 30
0.0
  3
*D4
  1

  0
LINE
  5
ED
330
EC
100
AcDbEntity
  8
1
  6
Continuous
 62
     2
100
AcDbLine
 10
204.7405881959
 20
368.151422020035
 30
0.0
 11
179.7405881959
 21
368.151422020035
 31
0.0
  0
LINE
  5
EE
330
EC
100
AcDbEntity
  8
1
  6
Continuous
 62
     2
100
AcDbLine
 10
179.7405881959
 20
361.3724203694
 30
0.0
 11
179.7405881959
 21
370.151422020035
 31
0.0
  0
LINE
  5
EF
330
EC
100
AcDbEntity
  8
1
  6
Continuous
 62
     2
100
AcDbLine
 10
204.7405881959
 20
319.4567171391
 30
0.0
 11
204.7405881959
 21
370.151422020035
 31
0.0
  0
SOLID
  5
F0
330
EC
100
AcDbEntity
  8
1
 62
     2
100
AcDbTrace
 10
201.2405881959
 20
367.6906382784791
 30
0.0
 11
201.2405881959
 21
368.6122057615909
 31
0.0
 12
204.7405881959
 22
368.151422020035
 32
0.0
 13
204.7405881959
 23
368.151422020035
 33
0.0
  0
SOLID
  5
F1
330
EC
100
AcDbEntity
  8
1
 62
     2
100
AcDbTrace
 10
183.2405881959
 20
368.6122057615909
 30
0.0
 11
183.2405881959
 21
367.6906382784791
 31
0.0
 12
179.7405881959
 22
368.151422020035
 32
0.0
 13
179.7405881959
 23
368.151422020035
 33
0.0
  0
MTEXT
  5
F2
330
EC
100
AcDbEntity
  8
1
 62
     3
100
AcDbMText
 10
190.010940659108
 20
370.151422020035
 30
0.0
 40
3.5
 41
0.0
 71
     7
 72
     1
  1
\C3;\C3;\C3;25\C2;\H2.45;\S^ ;\C3;
  7
CONVERTER_11
 11
0.9999999999970619
 21
2.424068405545306E-6
 31
0.0
 73
     1
 44
0.60024009603842
  0
ENDBLK
  5
F4
330
EC
100
AcDbEntity
  8
0
100
AcDbBlockEnd
  0
BLOCK
  5
FE
330
F7
100
AcDbEntity
  8
0
100
AcDbBlockBegin
  2
*D5
 70
     1
 10
0.0
 20
0.0
 30
0.0
  3
*D5
  1

  0
LINE
  5
F8
330
F7
100
AcDbEntity
  8
1
  6
Continuous
 62
     2
100
AcDbLine
 10
227.09557786753
 20
324.3849203694
 30
0.0
 11
227.09557786753
 21
296.3849203694
 31
0.0
  0
LINE
  5
F9
330
F7
100
AcDbEntity
  8
1
  6
Continuous
 62
     2
100
AcDbLine
 10
195.4726390035
 20
296.3849203694
 30
0.0
 11
229.09557786753
 21
296.3849203694
 31
0.0
  0
LINE
  5
FA
330
F7
100
AcDbEntity
  8
1
  6
Continuous
 62
     2
100
AcDbLine
 10
195.4726390035
 20
324.3849203694
 30
0.0
 11
229.09557786753
 21
324.3849203694
 31
0.0
  0
SOLID
  5
FB
330
F7
100
AcDbEntity
  8
1
 62
     2
100
AcDbTrace
 10
227.5563616090859
 20
320.8849203694
 30
0.0
 11
226.6347941259741
 21
320.8849203694
 31
0.0
 12
227.09557786753
 22
324.3849203694
 32
0.0
 13
227.09557786753
 23
324.3849203694
 33
0.0
  0
SOLID
  5
FC
330
F7
100
AcDbEntity
  8
1
 62
     2
100
AcDbTrace
 10
226.6347941259741
 20
299.8849203694
 30
0.0
 11
227.5563616090859
 21
299.8849203694
 31
0.0
 12
227.09557786753
 22
296.3849203694
 32
0.0
 13
227.09557786753
 23
296.3849203694
 33
0.0
  0
MTEXT
  5
FD
330
F7
100
AcDbEntity
  8
1
 62
     3
100
AcDbMText
 10
225.09557786753
 20
301.979560783642
 30
0.0
 40
3.5
 41
0.0
 71
     7
 72
     1
  1
\C3;%%c\C3;\C3;28\C2;\H2.45;\S^ ;\C3;
  7
CONVERTER_11
 11
0.0
 21
1.0
 31
0.0
 73
     1
 44
0.60024009603842
  0
ENDBLK
  5
FF
330
F7
100
AcDbEntity
  8
0
100
AcDbBlockEnd
  0
BLOCK
  5
10B
330
102
100
AcDbEntity
  8
0
100
AcDbBlockBegin
  2
*D6
 70
     1
 10
0.0
 20
0.0
 30
0.0
  3
*D6
  1

  0
LINE
  5
103
330
102
100
AcDbEntity
  8
1
  6
Continuous
 62
     2
100
AcDbLine
 10
216.720699892305
 20
306.3849203694
 30
0.0
 11
216.720699892305
 21
299.3849203694
 31
0.0
  0
LINE
  5
104
330
102
100
AcDbEntity
  8
1
  6
Continuous
 62
     2
100
AcDbLine
 10
216.720699892305
 20
314.3849203694
 30
0.0
 11
216.720699892305
 21
306.3849203694
 31
0.0
  0
LINE
  5
105
330
102
100
AcDbEntity
  8
1
  6
Continuous
 62
     2
100
AcDbLine
 10
216.720699892305
 20
321.3849203694
 30
0.0
 11
216.720699892305
 21
314.3849203694
 31
0.0
  0
LINE
  5
106
330
102
100
AcDbEntity
  8
1
  6
Continuous
 62
     2
100
AcDbLine
 10
206.7405881959
 20
306.3849203694
 30
0.0
 11
218.720699892305
 21
306.3849203694
 31
0.0
  0
LINE
  5
107
330
102
100
AcDbEntity
  8
1
  6
Continuous
 62
     2
100
AcDbLine
 10
206.7405881959
 20
314.3849203694
 30
0.0
 11
218.720699892305
 21
314.3849203694
 31
0.0
  0
SOLID
  5
108
330
102
100
AcDbEntity
  8
1
 62
     2
100
AcDbTrace
 10
216.2599161507491
 20
317.8849203694
 30
0.0
 11
217.1814836338609
 21
317.8849203694
 31
0.0
 12
216.720699892305
 22
314.3849203694
 32
0.0
 13
216.720699892305
 23
314.3849203694
 33
0.0
  0
SOLID
  5
109
330
102
100
AcDbEntity
  8
1
 62
     2
100
AcDbTrace
 10
217.1814836338609
 20
302.8849203694
 30
0.0
 11
216.2599161507491
 21
302.8849203694
 31
0.0
 12
216.720699892305
 22
306.3849203694
 32
0.0
 13
216.720699892305
 23
306.3849203694
 33
0.0
  0
MTEXT
  5
10A
330
102
100
AcDbEntity
  8
1
 62
     3
100
AcDbMText
 10
214.720699892305
 20
303.055391352129
 30
0.0
 40
3.5
 41
0.0
 71
     7
 72
     1
  1
\C3;%%c\C3;\C3;8\C2;\H2.45;\S^ ;\C3;
  7
CONVERTER_11
 11
0.0
 21
1.0
 31
0.0
 73
     1
 44
0.60024009603842
  0
ENDBLK
  5
10C
330
102
100
AcDbEntity
  8
0
100
AcDbBlockEnd
  0
BLOCK
  5
113
330
10F
100
AcDbEntity
  8
0
100
AcDbBlockBegin
  2
*D7
 70
     1
 10
0.0
 20
0.0
 30
0.0
  3
*D7
  1

  0
LINE
  5
110
330
10F
100
AcDbEntity
  8
1
  6
Continuous
 62
     2
100
AcDbLine
 10
190.1095098990745
 20
285.0841754900847
 30
0.0
 11
181.9244700205896
 21
295.0149573100805
 31
0.0
  0
SOLID
  5
111
330
10F
100
AcDbEntity
  8
1
 62
     2
100
AcDbTrace
 10
184.5061132470321
 20
292.6071699631901
 30
0.0
 11
183.7949646653426
 21
292.0210348928438
 31
0.0
 12
181.9244700205896
 22
295.0149573100805
 32
0.0
 13
181.9244700205896
 23
295.0149573100805
 33
0.0
  0
MTEXT
  5
112
330
10F
100
AcDbEntity
  8
1
 62
     3
100
AcDbMText
 10
186.9335894025008
 20
292.0820272318297
 30
0.0
 40
3.5
 41
0.0
 71
     7
 72
     1
  1
\C3; R\C3;\C3;6\C2;\H2.45;\S^ ;\C3;
  7
CONVERTER_11
 11
0.6360196958850592
 21
-0.7716728234467485
 31
0.0
 73
     1
 44
0.60024009603842
  0
ENDBLK
  5
114
330
10F
100
AcDbEntity
  8
0
100
AcDbBlockEnd
  0
ENDSEC
  0
SECTION
  2
ENTITIES
  0
INSERT
  5
6E
330
1F
100
AcDbEntity
  8
0
100
AcDbBlockReference
  2
Urheberrecht_DE-EN
 10
29.8486696326319
 20
326.230924533777
 30
0.0
  0
LINE
  5
72
330
1F
100
AcDbEntity
  8
RUNDUNGEN
  6
HIDDEN
 62
     8
100
AcDbLine
 10
182.7405881959
 20
324.8858295354
 30
0.0
 11
182.7405881959
 21
314.3849203694
 31
0.0
  0
LINE
  5
73
330
1F
100
AcDbEntity
  8
BEZUGSACHSEN
  6
HIDDEN
 62
     8
100
AcDbLine
 10
190.7405881959
 20
314.3849203694
 30
0.0
 11
190.7405881959
 21
324.3849203694
 31
0.0
  0
LINE
  5
74
330
1F
100
AcDbEntity
  8
RUNDUNGEN
  6
Continuous
 62
     7
100
AcDbLine
 10
204.7405881959
 20
317.4567171391
 30
0.0
 11
204.7405881959
 21
303.3131235997
 31
0.0
  0
LINE
  5
75
330
1F
100
AcDbEntity
  8
RUNDUNGEN
  6
Continuous
 62
     9
100
AcDbLine
 10
204.2405881959
 20
302.4470981959
 30
0.0
 11
204.2405881959
 21
318.3227425429
 31
0.0
  0
LINE
  5
76
330
1F
100
AcDbEntity
  8
RUNDUNGEN
  6
Continuous
 62
     9
100
AcDbLine
 10
193.9726390035
 20
296.5188949656
 30
0.0
 11
193.9726390035
 21
324.2509457732
 31
0.0
  0
LINE
  5
77
330
1F
100
AcDbEntity
  8
RUNDUNGEN
  6
Continuous
 62
     9
100
AcDbLine
 10
193.4726390035
 20
296.3849203694
 30
0.0
 11
193.4726390035
 21
324.3849203694
 31
0.0
  0
LINE
  5
78
330
1F
100
AcDbEntity
  8
BEZUGSACHSEN
  6
HIDDEN
 62
     8
100
AcDbLine
 10
190.1405881959
 20
314.3849203694
 30
0.0
 11
190.1405881959
 21
324.3849203694
 31
0.0
  0
LWPOLYLINE
  5
79
330
1F
100
AcDbEntity
  8
BEZUGSACHSEN
  6
DOT_CENTER
 62
     7
100
AcDbPolyline
 90
        2
 70
     0
 43
0.25
 10
186.7405881959
 20
327.8858295354
 10
186.7405881959
 20
309.4920483288
  0
LINE
  5
7A
330
1F
100
AcDbEntity
  8
RUNDUNGEN
  6
Continuous
 62
     9
100
AcDbLine
 10
185.7405881959
 20
324.0025559938
 30
0.0
 11
185.7405881959
 21
296.3849203694
 31
0.0
  0
LINE
  5
7B
330
1F
100
AcDbEntity
  8
BEZUGSACHSEN
  6
HIDDEN
 62
     8
100
AcDbLine
 10
183.3405881959
 20
314.3849203694
 30
0.0
 11
183.3405881959
 21
324.8858295354
 31
0.0
  0
LINE
  5
7C
330
1F
100
AcDbEntity
  8
0
  6
Continuous
 62
     7
100
AcDbLine
 10
157.4099199598
 20
360.3724203694
 30
0.0
 11
161.4030881959
 21
353.4560501012
 31
0.0
  0
LINE
  5
7D
330
1F
100
AcDbEntity
  8
0
  6
Continuous
 62
     7
100
AcDbLine
 10
157.4099199598
 20
260.3974203694
 30
0.0
 11
161.4030881959
 21
267.3137906376
 31
0.0
  0
LINE
  5
7E
330
1F
100
AcDbEntity
  8
0
  6
Continuous
 62
     7
100
AcDbLine
 10
179.7405881959
 20
359.3724203694
 30
0.0
 11
179.7405881959
 21
261.3974203694
 31
0.0
  0
LINE
  5
7F
330
1F
100
AcDbEntity
  8
0
  6
Continuous
 62
     9
100
AcDbLine
 10
178.7405881959
 20
360.3724203694
 30
0.0
 11
178.7405881959
 21
260.3974203694
 31
0.0
  0
LINE
  5
80
330
1F
100
AcDbEntity
  8
RUNDUNGEN
  6
Continuous
 62
     7
100
AcDbLine
 10
204.2405881959
 20
318.3227425429
 30
0.0
 11
193.9726390035
 21
324.2509457732
 31
0.0
  0
LINE
  5
81
330
1F
100
AcDbEntity
  8
0
  6
Continuous
 62
     7
100
AcDbLine
 10
193.9726390035
 20
324.2509457732
 30
0.0
 11
204.2405881959
 21
318.3227425429
 31
0.0
  0
LINE
  5
82
330
1F
100
AcDbEntity
  8
0
  6
Continuous
 62
     7
100
AcDbLine
 10
145.7405881959
 20
360.3724203694
 30
0.0
 11
157.4099199598
 21
360.3724203694
 31
0.0
  0
LINE
  5
83
330
1F
100
AcDbEntity
  8
0
  6
Continuous
 62
     7
100
AcDbLine
 10
178.7405881959
 20
360.3724203694
 30
0.0
 11
172.4712564321
 21
360.3724203694
 31
0.0
  0
LINE
  5
84
330
1F
100
AcDbEntity
  8
0
  6
Continuous
 62
     7
100
AcDbLine
 10
193.9726390035
 20
296.5188949656
 30
0.0
 11
204.2405881959
 21
302.4470981959
 31
0.0
  0
LINE
  5
85
330
1F
100
AcDbEntity
  8
0
  6
Continuous
 62
     7
100
AcDbLine
 10
172.4712564321
 20
299.9172800624
 30
0.0
 11
172.4712564321
 21
260.3974203694
 31
0.0
  0
LINE
  5
86
330
1F
100
AcDbEntity
  8
0
  6
Continuous
 62
     7
100
AcDbLine
 10
172.4712564321
 20
360.3724203694
 30
0.0
 11
172.4712564321
 21
320.8525705477
 31
0.0
  0
LINE
  5
87
330
1F
100
AcDbEntity
  8
DEFAULT_2
  6
HIDDEN
 62
     8
100
AcDbLine
 10
171.7405881959
 20
314.3849203694
 30
0.0
 11
171.7405881959
 21
306.3849203694
 31
0.0
  0
LINE
  5
88
330
1F
100
AcDbEntity
  8
0
  6
Continuous
 62
     7
100
AcDbLine
 10
168.4780881959
 20
322.1076506934
 30
0.0
 11
168.4780881959
 21
353.4560501012
 31
0.0
  0
LINE
  5
89
330
1F
100
AcDbEntity
  8
0
  6
Continuous
 62
     7
100
AcDbLine
 10
168.4780881959
 20
267.3137906376
 30
0.0
 11
168.4780881959
 21
298.6621900453
 31
0.0
  0
LINE
  5
8A
330
1F
100
AcDbEntity
  8
0
  6
Continuous
 62
     9
100
AcDbLine
 10
168.2280881959
 20
322.2193999207
 30
0.0
 11
168.2280881959
 21
352.7599203694
 31
0.0
  0
LINE
  5
8B
330
1F
100
AcDbEntity
  8
0
  6
Continuous
 62
     9
100
AcDbLine
 10
168.2280881959
 20
268.0099203694
 30
0.0
 11
168.2280881959
 21
298.5504408181
 31
0.0
  0
LINE
  5
8C
330
1F
100
AcDbEntity
  8
0
  6
Continuous
 62
     7
100
AcDbLine
 10
161.6530881959
 20
352.7599203694
 30
0.0
 11
168.2280881959
 21
352.7599203694
 31
0.0
  0
LINE
  5
8D
330
1F
100
AcDbEntity
  8
0
  6
Continuous
 62
     7
100
AcDbLine
 10
142.0905881959
 20
344.9599203694
 30
0.0
 11
141.1213975796
 21
345.2196142123
 31
0.0
  0
LINE
  5
8E
330
1F
100
AcDbEntity
  8
0
  6
Continuous
 62
     7
100
AcDbLine
 10
143.7405881959
 20
344.9599203694
 30
0.0
 11
142.0905881959
 21
344.9599203694
 31
0.0
  0
LINE
  5
8F
330
1F
100
AcDbEntity
  8
0
  6
Continuous
 62
     9
100
AcDbLine
 10
161.6530881959
 20
323.2874203694
 30
0.0
 11
161.6530881959
 21
352.7599203694
 31
0.0
  0
LINE
  5
90
330
1F
100
AcDbEntity
  8
0
  6
Continuous
 62
     9
100
AcDbLine
 10
161.6530881959
 20
268.0099203694
 30
0.0
 11
161.6530881959
 21
297.4824203694
 31
0.0
  0
LINE
  5
91
330
1F
100
AcDbEntity
  8
0
  6
Continuous
 62
     7
100
AcDbLine
 10
161.4030881959
 20
297.4824203694
 30
0.0
 11
161.4030881959
 21
267.3139390474
 31
0.0
  0
LINE
  5
92
330
1F
100
AcDbEntity
  8
0
  6
Continuous
 62
     7
100
AcDbLine
 10
161.4030881959
 20
353.4559016913
 30
0.0
 11
161.4030881959
 21
323.2874203694
 31
0.0
  0
LINE
  5
93
330
1F
100
AcDbEntity
  8
0
  6
Continuous
 62
     7
100
AcDbLine
 10
157.4099199598
 20
296.1986234824
 30
0.0
 11
157.4099199598
 21
260.3974203694
 31
0.0
  0
LINE
  5
94
330
1F
100
AcDbEntity
  8
0
  6
Continuous
 62
     7
100
AcDbLine
 10
157.4099199598
 20
360.3724203694
 30
0.0
 11
157.4099199598
 21
324.5712172563
 31
0.0
  0
LINE
  5
95
330
1F
100
AcDbEntity
  8
0
  6
Continuous
 62
     7
100
AcDbLine
 10
141.1213975796
 20
345.2196142123
 30
0.0
 11
40.7962695268
 21
330.5876470407
 31
0.0
  0
LINE
  5
96
330
1F
100
AcDbEntity
  8
FASEN
  6
Continuous
 62
     7
100
AcDbLine
 10
144.7405881959
 20
324.2874203694
 30
0.0
 11
145.7405881959
 21
323.2874203694
 31
0.0
  0
LINE
  5
97
330
1F
100
AcDbEntity
  8
FASEN
  6
Continuous
 62
     7
100
AcDbLine
 10
144.7405881959
 20
296.4824203694
 30
0.0
 11
145.7405881959
 21
297.4824203694
 31
0.0
  0
LINE
  5
98
330
1F
100
AcDbEntity
  8
0
  6
Continuous
 62
     9
100
AcDbLine
 10
145.7405881959
 20
324.5712172563
 30
0.0
 11
145.7405881959
 21
360.3724203694
 31
0.0
  0
LINE
  5
99
330
1F
100
AcDbEntity
  8
FASEN
  6
Continuous
 62
     9
100
AcDbLine
 10
145.7405881959
 20
296.1986234824
 30
0.0
 11
145.7405881959
 21
297.4824203694
 31
0.0
  0
LINE
  5
9A
330
1F
100
AcDbEntity
  8
0
  6
Continuous
 62
     9
100
AcDbLine
 10
145.7405881959
 20
260.3974203694
 30
0.0
 11
145.7405881959
 21
296.1986234824
 31
0.0
  0
LINE
  5
9B
330
1F
100
AcDbEntity
  8
FASEN
  6
Continuous
 62
     9
100
AcDbLine
 10
145.7405881959
 20
324.5712172563
 30
0.0
 11
145.7405881959
 21
323.2874203694
 31
0.0
  0
LINE
  5
9C
330
1F
100
AcDbEntity
  8
FASEN
  6
Continuous
 62
     7
100
AcDbLine
 10
144.7405881959
 20
315.5366797776
 30
0.0
 11
144.7405881959
 21
359.3722929288
 31
0.0
  0
LINE
  5
9D
330
1F
100
AcDbEntity
  8
FASEN
  6
Continuous
 62
     7
100
AcDbLine
 10
144.7405881959
 20
261.3975477512
 30
0.0
 11
144.7405881959
 21
305.2331609612
 31
0.0
  0
LINE
  5
9E
330
1F
100
AcDbEntity
  8
0
  6
Continuous
 62
     7
100
AcDbLine
 10
144.7405881959
 20
296.4824203694
 30
0.0
 11
144.7405881959
 21
261.4023284228
 31
0.0
  0
LINE
  5
9F
330
1F
100
AcDbEntity
  8
0
  6
Continuous
 62
     7
100
AcDbLine
 10
144.7405881959
 20
359.3375520228
 30
0.0
 11
144.7405881959
 21
324.2874203694
 31
0.0
  0
LINE
  5
A0
330
1F
100
AcDbEntity
  8
0
  6
Continuous
 62
     9
100
AcDbLine
 10
143.7405881959
 20
344.9599203694
 30
0.0
 11
143.7405881959
 21
275.8099203694
 31
0.0
  0
LINE
  5
A1
330
1F
100
AcDbEntity
  8
0
  6
Continuous
 62
     7
100
AcDbLine
 10
168.4780881959
 20
267.3137906376
 30
0.0
 11
172.4712564321
 21
260.3974203694
 31
0.0
  0
LINE
  5
A2
330
1F
100
AcDbEntity
  8
0
  6
Continuous
 62
     7
100
AcDbLine
 10
145.7405881959
 20
324.5712172563
 30
0.0
 11
157.4099199598
 21
324.5712172563
 31
0.0
  0
LINE
  5
A3
330
1F
100
AcDbEntity
  8
0
  6
Continuous
 62
     7
100
AcDbLine
 10
190.1405881959
 20
324.3849203694
 30
0.0
 11
193.4726390035
 21
324.3849203694
 31
0.0
  0
LINE
  5
A4
330
1F
100
AcDbEntity
  8
RUNDUNGEN
  6
Continuous
 62
     7
100
AcDbLine
 10
193.4726390035
 20
324.3849203694
 30
0.0
 11
190.1405881959
 21
324.3849203694
 31
0.0
  0
LINE
  5
A5
330
1F
100
AcDbEntity
  8
0
  6
Continuous
 62
     7
100
AcDbLine
 10
168.4780881959
 20
353.4560501012
 30
0.0
 11
172.4712564321
 21
360.3724203694
 31
0.0
  0
LINE
  5
A6
330
1F
100
AcDbEntity
  8
0
  6
Continuous
 62
     7
100
AcDbLine
 10
142.0905881959
 20
344.9599203694
 30
0.0
 11
142.0905881959
 21
275.8099203694
 31
0.0
  0
LWPOLYLINE
  5
A7
330
1F
100
AcDbEntity
  8
TEIL_STARTBEZUEGE
  6
DOT_CENTER
 62
     7
100
AcDbPolyline
 90
        2
 70
     0
 43
0.25
 10
141.7405881959
 20
257.3974203694
 10
141.7405881959
 20
363.3724203694
  0
LINE
  5
A8
330
1F
100
AcDbEntity
  8
0
  6
Continuous
 62
     7
100
AcDbLine
 10
141.1213975796
 20
345.2196142123
 30
0.0
 11
141.1213975796
 21
275.5502265264
 31
0.0
  0
LINE
  5
A9
330
1F
100
AcDbEntity
  8
0
  6
Continuous
 62
     7
100
AcDbLine
 10
145.7405881959
 20
323.2874203694
 30
0.0
 11
163.0880881959
 21
323.2874203694
 31
0.0
  0
LINE
  5
AA
330
1F
100
AcDbEntity
  8
DEFAULT_2
  6
HIDDEN
 62
     8
100
AcDbLine
 10
183.3405881959
 20
314.3849203694
 30
0.0
 11
204.7405881959
 21
314.3849203694
 31
0.0
  0
LINE
  5
AB
330
1F
100
AcDbEntity
  8
DEFAULT_2
  6
HIDDEN
 62
     8
100
AcDbLine
 10
171.7405881959
 20
314.3849203694
 30
0.0
 11
183.3405881959
 21
314.3849203694
 31
0.0
  0
LWPOLYLINE
  5
AC
330
1F
100
AcDbEntity
  8
TEIL_STARTBEZUEGE
  6
DOT_CENTER
 62
     7
100
AcDbPolyline
 90
        2
 70
     0
 43
0.25
 10
207.7405881959
 20
310.3849203694
 10
36.9405881959
 20
310.3849203694
  0
LINE
  5
AD
330
1F
100
AcDbEntity
  8
DEFAULT_2
  6
HIDDEN
 62
     8
100
AcDbLine
 10
204.7405881959
 20
306.3849203694
 30
0.0
 11
171.7405881959
 21
306.3849203694
 31
0.0
  0
LINE
  5
AE
330
1F
100
AcDbEntity
  8
0
  6
Continuous
 62
     7
100
AcDbLine
 10
145.7405881959
 20
297.4824203694
 30
0.0
 11
163.0880881959
 21
297.4824203694
 31
0.0
  0
LINE
  5
AF
330
1F
100
AcDbEntity
  8
0
  6
Continuous
 62
     7
100
AcDbLine
 10
185.7405881959
 20
296.3849203694
 30
0.0
 11
193.4726390035
 21
296.3849203694
 31
0.0
  0
LINE
  5
B0
330
1F
100
AcDbEntity
  8
0
  6
Continuous
 62
     7
100
AcDbLine
 10
157.4099199598
 20
296.1986234824
 30
0.0
 11
145.7405881959
 21
296.1986234824
 31
0.0
  0
LINE
  5
B1
330
1F
100
AcDbEntity
  8
0
  6
Continuous
 62
     7
100
AcDbLine
 10
40.7962695268
 20
290.1821936981
 30
0.0
 11
141.1213975796
 21
275.5502265264
 31
0.0
  0
LINE
  5
B2
330
1F
100
AcDbEntity
  8
0
  6
Continuous
 62
     7
100
AcDbLine
 10
143.7405881959
 20
275.8099203694
 30
0.0
 11
142.0905881959
 21
275.8099203694
 31
0.0
  0
LINE
  5
B3
330
1F
100
AcDbEntity
  8
0
  6
Continuous
 62
     7
100
AcDbLine
 10
161.6530881959
 20
268.0099203694
 30
0.0
 11
168.2280881959
 21
268.0099203694
 31
0.0
  0
LINE
  5
B4
330
1F
100
AcDbEntity
  8
0
  6
Continuous
 62
     7
100
AcDbLine
 10
142.0905881959
 20
275.8099203694
 30
0.0
 11
141.1213975796
 21
275.5502265264
 31
0.0
  0
LINE
  5
B5
330
1F
100
AcDbEntity
  8
0
  6
Continuous
 62
     7
100
AcDbLine
 10
145.7405881959
 20
260.3974203694
 30
0.0
 11
157.4099199598
 21
260.3974203694
 31
0.0
  0
LINE
  5
B6
330
1F
100
AcDbEntity
  8
0
  6
Continuous
 62
     7
100
AcDbLine
 10
178.7405881959
 20
260.3974203694
 30
0.0
 11
172.4712564321
 21
260.3974203694
 31
0.0
  0
LINE
  5
B7
330
1F
100
AcDbEntity
  8
0
  6
Continuous
 62
     9
100
AcDbLine
 10
40.7962695268
 20
330.5876470407
 30
0.0
 11
40.7962695268
 21
290.1821936981
 31
0.0
  0
LINE
  5
B8
330
1F
100
AcDbEntity
  8
0
  6
Continuous
 62
     7
100
AcDbLine
 10
39.9405881959
 20
329.598115777
 30
0.0
 11
39.9405881959
 21
291.1717249617
 31
0.0
  0
ARC
  5
B9
330
1F
100
AcDbEntity
  8
0
  6
Continuous
 62
     7
100
AcDbCircle
 10
161.6530881959
 20
353.0099203694
 30
0.0
 40
0.25
100
AcDbArc
 50
180.0
 51
270.0
  0
ARC
  5
BA
330
1F
100
AcDbEntity
  8
0
  6
Continuous
 62
     7
100
AcDbCircle
 10
168.2280881959
 20
353.0099203694
 30
0.0
 40
0.25
100
AcDbArc
 50
270.0
 51
0.0
  0
ARC
  5
BB
330
1F
100
AcDbEntity
  8
RUNDUNGEN
  6
Continuous
 62
     7
100
AcDbCircle
 10
203.7405881959
 20
317.4567171391
 30
0.0
 40
1.0
100
AcDbArc
 50
0.0
 51
60.00000000044565
  0
ARC
  5
BC
330
1F
100
AcDbEntity
  8
0
  6
Continuous
 62
     7
100
AcDbCircle
 10
178.7405881959
 20
359.3724203694
 30
0.0
 40
1.0
100
AcDbArc
 50
0.0
 51
90.0
  0
ARC
  5
BD
330
1F
100
AcDbEntity
  8
0
  6
Continuous
 62
     7
100
AcDbCircle
 10
145.7405881959
 20
359.3724203694
 30
0.0
 40
1.0
100
AcDbArc
 50
90.0
 51
180.0
  0
ARC
  5
BE
330
1F
100
AcDbEntity
  8
0
  6
Continuous
 62
     7
100
AcDbCircle
 10
143.7405881959
 20
345.9599203694
 30
0.0
 40
1.0
100
AcDbArc
 50
270.0
 51
0.0
  0
ARC
  5
BF
330
1F
100
AcDbEntity
  8
RUNDUNGEN
  6
Continuous
 62
     7
100
AcDbCircle
 10
193.4726390035
 20
323.3849203694
 30
0.0
 40
1.000000000013472
100
AcDbArc
 50
60.00000000044565
 51
90.0
  0
ARC
  5
C0
330
1F
100
AcDbEntity
  8
RUNDUNGEN
  6
Continuous
 62
     7
100
AcDbCircle
 10
185.7405881959
 20
330.3849203694
 30
0.0
 40
5.999999999999651
100
AcDbArc
 50
180.0014138074029
 51
246.4218215220008
  0
ARC
  5
C1
330
1F
100
AcDbEntity
  8
0
  6
Continuous
 62
     7
100
AcDbCircle
 10
163.0880881959
 20
310.3849203694
 30
0.0
 40
12.90249999999997
100
AcDbArc
 50
270.0
 51
90.0
  0
ARC
  5
C2
330
1F
100
AcDbEntity
  8
0
  6
Continuous
 62
     7
100
AcDbCircle
 10
299.4914834442
 20
388.576967561
 30
0.0
 40
154.9021570462001
100
AcDbArc
 50
214.4839903095001
 51
214.9149101174692
  0
ARC
  5
C3
330
1F
100
AcDbEntity
  8
0
  6
Continuous
 62
     7
100
AcDbCircle
 10
161.6530881959
 20
267.7599203694
 30
0.0
 40
0.25
100
AcDbArc
 50
90.0
 51
180.0
  0
ARC
  5
C4
330
1F
100
AcDbEntity
  8
0
  6
Continuous
 62
     7
100
AcDbCircle
 10
168.2280881959
 20
267.7599203694
 30
0.0
 40
0.25
100
AcDbArc
 50
0.0
 51
90.0
  0
ARC
  5
C5
330
1F
100
AcDbEntity
  8
0
  6
Continuous
 62
     7
100
AcDbCircle
 10
145.7405881959
 20
261.3974203694
 30
0.0
 40
1.0
100
AcDbArc
 50
180.0
 51
270.0
  0
ARC
  5
C6
330
1F
100
AcDbEntity
  8
0
  6
Continuous
 62
     7
100
AcDbCircle
 10
143.7405881959
 20
274.8099203694
 30
0.0
 40
1.0
100
AcDbArc
 50
0.0
 51
90.0
  0
ARC
  5
C7
330
1F
100
AcDbEntity
  8
0
  6
Continuous
 62
     7
100
AcDbCircle
 10
178.7405881959
 20
261.3974203694
 30
0.0
 40
1.0
100
AcDbArc
 50
270.0
 51
0.0
  0
ARC
  5
C8
330
1F
100
AcDbEntity
  8
RUNDUNGEN
  6
Continuous
 62
     7
100
AcDbCircle
 10
193.4726390035
 20
297.3849203694
 30
0.0
 40
1.0
100
AcDbArc
 50
270.0
 51
299.9999999995543
  0
ARC
  5
C9
330
1F
100
AcDbEntity
  8
RUNDUNGEN
  6
Continuous
 62
     7
100
AcDbCircle
 10
203.7405881959
 20
303.3131235997
 30
0.0
 40
1.000000000013472
100
AcDbArc
 50
299.9999999995543
 51
0.0
  0
ARC
  5
CA
330
1F
100
AcDbEntity
  8
RUNDUNGEN
  6
Continuous
 62
     7
100
AcDbCircle
 10
185.7405881959
 20
290.3849203694
 30
0.0
 40
6.0
100
AcDbArc
 50
90.0
 51
180.0
  0
ARC
  5
CB
330
1F
100
AcDbEntity
  8
0
  6
Continuous
 62
     7
100
AcDbCircle
 10
299.4946637377
 20
232.1906752119
 30
0.0
 40
154.9060285723597
100
AcDbArc
 50
145.0850935211598
 51
145.5160052752002
  0
ARC
  5
CC
330
1F
100
AcDbEntity
  8
0
  6
Continuous
 62
     7
100
AcDbCircle
 10
40.9405881959
 20
329.598115777
 30
0.0
 40
1.000000000045286
100
AcDbArc
 50
98.29782682374478
 51
180.0
  0
ARC
  5
CD
330
1F
100
AcDbEntity
  8
0
  6
Continuous
 62
     7
100
AcDbCircle
 10
-40.5141313822
 20
410.4827402117
 30
0.0
 40
228.5493151077616
100
AcDbArc
 50
329.9972617610246
 51
330.3682092199999
  0
ARC
  5
CE
330
1F
100
AcDbEntity
  8
0
  6
Continuous
 62
     7
100
AcDbCircle
 10
40.9405881959
 20
291.1717249617
 30
0.0
 40
1.0
100
AcDbArc
 50
180.0
 51
261.7021731754284
  0
ARC
  5
CF
330
1F
100
AcDbEntity
  8
0
  6
Continuous
 62
     7
100
AcDbCircle
 10
-40.5141313822
 20
210.287100527
 30
0.0
 40
228.5493151077001
100
AcDbArc
 50
29.63179078000006
 51
30.00273823897545
  0
SPLINE
  5
D0
330
1F
100
AcDbEntity
  8
0
  6
Continuous
 62
     7
100
AcDbSpline
210
0.0
220
0.0
230
1.0
 70
     8
 71
     3
 72
    19
 73
    15
 74
    13
 42
0.0000000001
 43
0.0000000001
 44
0.00000001
 40
0.0
 40
0.0
 40
0.0
 40
0.0
 40
1.288046120701385
 40
2.576183163062893
 40
3.220235598639682
 40
3.86427304192894
 40
4.508318825042181
 40
5.152368395199486
 40
5.796417964840289
 40
6.440463747457727
 40
7.084501190789422
 40
7.728553626392078
 40
9.01669066924776
 40
10.30473679047487
 40
10.30473679047487
 40
10.30473679047487
 40
10.30473679047487
 10
144.7405881959
 20
305.2331609612
 30
0.0
 10
144.7374562311475
 20
305.662506963506
 30
0.0
 10
144.7311920805609
 20
306.5212292751471
 30
0.0
 10
144.7043623630008
 20
307.5943369608911
 30
0.0
 10
144.6869292101251
 20
308.4529002177617
 30
0.0
 10
144.6761776749207
 20
309.0968588896208
 30
0.0
 10
144.6693120304432
 20
309.7408709236112
 30
0.0
 10
144.6668264342593
 20
310.3849203691572
 30
0.0
 10
144.6693120341446
 20
311.0289698145221
 30
0.0
 10
144.6761776805956
 20
311.6729818481614
 30
0.0
 10
144.6869292143319
 20
312.3169405198979
 30
0.0
 10
144.7043623637826
 20
313.1755037770282
 30
0.0
 10
144.7311920802437
 20
314.2486114631437
 30
0.0
 10
144.7374562310418
 20
315.1073337751208
 30
0.0
 10
144.7405881959
 20
315.5366797776
 30
0.0
 11
144.7405881959
 21
305.2331609612
 31
0.0
 11
144.7273926750655
 21
306.5211394886933
 31
0.0
 11
144.700339790099
 21
307.8089924233558
 31
0.0
 11
144.6873163001502
 21
308.4529131704062
 31
0.0
 11
144.6768253560718
 21
309.0968651627557
 31
0.0
 11
144.6700420541229
 21
309.740875222895
 31
0.0
 11
144.6676549685615
 21
310.3849203693268
 31
0.0
 11
144.6700420575362
 21
311.0289655152294
 31
0.0
 11
144.6768253611702
 21
311.6729755748551
 31
0.0
 11
144.6873163041728
 21
312.3169275672646
 31
0.0
 11
144.7003397919466
 21
312.9608483143849
 31
0.0
 11
144.7273926750204
 21
314.2487012495814
 31
0.0
 11
144.7405881959
 21
315.5366797776
 31
0.0
  0
SPLINE
  5
D1
330
1F
100
AcDbEntity
  8
0
  6
Continuous
 62
     7
100
AcDbSpline
210
0.0
220
0.0
230
1.0
 70
     8
 71
     3
 72
    31
 73
    27
 74
    25
 42
0.0000000001
 43
0.0000000001
 44
0.00000001
 40
0.0
 40
0.0
 40
0.0
 40
0.0
 40
0.7376437758980049
 40
1.475498326820197
 40
2.213122477479111
 40
2.950705019378059
 40
3.686177655934832
 40
4.421611652183126
 40
5.154930002560164
 40
5.888438802496484
 40
7.349257460208027
 40
8.810872241648141
 40
10.2673497263899
 40
11.72357900840211
 40
13.17967656770784
 40
14.63602209578551
 40
16.09756845529546
 40
17.55831898096246
 40
18.2918375733295
 40
19.02516554603114
 40
19.76065888270099
 40
20.49619142765338
 40
21.23383484427378
 40
21.97151871255589
 40
22.70940763853234
 40
23.4470870343532
 40
23.4470870343532
 40
23.4470870343532
 40
23.4470870343532
 10
172.471248071
 20
320.8525590169
 30
0.0
 10
172.6484849036825
 20
320.6820525970433
 30
0.0
 10
173.0030092128662
 20
320.3409910366656
 30
0.0
 10
173.4998099704367
 20
319.7949493533116
 30
0.0
 10
173.9692453164989
 20
319.225566298329
 30
0.0
 10
174.4073293018656
 20
318.6325845017063
 30
0.0
 10
174.8137846357532
 20
318.0184181484101
 30
0.0
 10
175.1872511281703
 20
317.3852941659184
 30
0.0
 10
175.5273539971931
 20
316.7343654200219
 30
0.0
 10
175.9344369866082
 20
315.8470536151421
 30
0.0
 10
176.3570292717898
 20
314.7015893710877
 30
0.0
 10
176.7220229228702
 20
313.2858023095485
 30
0.0
 10
176.9416154082056
 20
311.8418049043282
 30
0.0
 10
177.0150673057759
 20
310.3849321541678
 30
0.0
 10
176.941617558497
 20
308.9281039285661
 30
0.0
 10
176.7220552004793
 20
307.4842145973794
 30
0.0
 10
176.3571082005399
 20
306.0685083360854
 30
0.0
 10
175.9345550150085
 20
304.923074964301
 30
0.0
 10
175.5274982674039
 20
304.035768958077
 30
0.0
 10
175.1873965629475
 20
303.3848099489543
 30
0.0
 10
174.8139191239333
 20
302.751642479392
 30
0.0
 10
174.4074418493499
 20
302.1374186979191
 30
0.0
 10
173.9693368135605
 20
301.5443776814246
 30
0.0
 10
173.4998745209589
 20
300.9749491181125
 30
0.0
 10
173.0030274986884
 20
300.4288912589196
 30
0.0
 10
172.6484903903834
 20
300.0878096471524
 30
0.0
 10
172.4712470083
 20
299.917293058
 30
0.0
 11
172.471248071
 21
320.8525590169
 31
0.0
 11
172.9971339595961
 21
320.3352947012
 31
0.0
 11
173.4953013327336
 21
319.7909982684928
 31
0.0
 11
173.9641078791986
 21
319.2215162146694
 31
0.0
 11
174.4025308237248
 21
318.6283776745061
 31
0.0
 11
174.8084189245618
 21
318.015046728994
 31
0.0
 11
175.1820863932322
 21
317.3816149760046
 31
0.0
 11
175.5216840495486
 21
316.7316694130349
 31
0.0
 11
175.827554483021
 21
316.0649772520554
 31
0.0
 11
176.3333967871223
 21
314.6945339974478
 31
0.0
 11
176.6981805627944
 21
313.2791716529117
 31
0.0
 11
176.9173116973541
 21
311.8392729726476
 31
0.0
 11
176.9905850885903
 21
310.384888315163
 31
0.0
 11
176.9173182915962
 21
308.9306352152267
 31
0.0
 11
176.6982205187682
 21
307.4908649338646
 31
0.0
 11
176.3334776861848
 21
306.0755626950916
 31
0.0
 11
175.8276878668817
 21
304.7051726933309
 31
0.0
 11
175.5218280018719
 21
304.0384649100222
 31
0.0
 11
175.1822391996986
 21
303.3885038642778
 31
0.0
 11
174.8085531273218
 21
302.7550141898573
 31
0.0
 11
174.4026436997082
 21
302.1416255192263
 31
0.0
 11
173.9641972499568
 21
301.54842865411
 31
0.0
 11
173.4953562152419
 21
300.9788976420561
 31
0.0
 11
172.9971561204439
 21
300.4345845587833
 31
0.0
 11
172.4712470083
 21
299.917293058
 31
0.0
  0
SPLINE
  5
D2
330
1F
100
AcDbEntity
  8
FASEN
  6
Continuous
 62
     7
100
AcDbSpline
210
0.0
220
0.0
230
1.0
 70
     8
 71
     3
 72
    25
 73
    21
 74
    19
 42
0.0000000001
 43
0.0000000001
 44
0.00000001
 40
0.0
 40
0.0
 40
0.0
 40
0.0
 40
0.0975566094255436
 40
0.1951222766869156
 40
0.2893247602099751
 40
0.3835227315273957
 40
0.470946813119241
 40
0.5583764926268102
 40
0.6362056178838745
 40
0.7140176369195383
 40
0.7798226969440128
 40
0.8456700524227929
 40
0.898083292603138
 40
0.9504116608630117
 40
0.9715430470371983
 40
0.992635069765277
 40
1.010621975965761
 40
1.028726680966185
 40
1.058610548290455
 40
1.088017426470331
 40
1.088017426470331
 40
1.088017426470331
 40
1.088017426470331
 10
145.7405881959
 20
296.1986234824
 30
0.0
 10
145.708068058096
 20
296.1988668298077
 30
0.0
 10
145.6430247630916
 20
296.1993535472169
 30
0.0
 10
145.5466546161351
 20
296.2035497169285
 30
0.0
 10
145.4515555488547
 20
296.2102165597761
 30
0.0
 10
145.3600652609682
 20
296.2194780515584
 30
0.0
 10
145.2711503432246
 20
296.2313130925541
 30
0.0
 10
145.1880804867122
 20
296.2453486649479
 30
0.0
 10
145.1087304606452
 20
296.2618322710694
 30
0.0
 10
145.0371715204924
 20
296.280066561591
 30
0.0
 10
144.9704277590417
 20
296.3006754810563
 30
0.0
 10
144.9129880964789
 20
296.3223841054524
 30
0.0
 10
144.8612744931608
 20
296.3461481721122
 30
0.0
 10
144.8250094513488
 20
296.3674848468117
 30
0.0
 10
144.7995423960184
 20
296.3860900610872
 30
0.0
 10
144.7842327458017
 20
296.3990918684713
 30
0.0
 10
144.7707317178005
 20
296.4126113460798
 30
0.0
 10
144.757113312415
 20
296.4298599023116
 30
0.0
 10
144.7441416441349
 20
296.4528087438584
 30
0.0
 10
144.741766308853
 20
296.4726029083583
 30
0.0
 10
144.7405881959
 20
296.4824203694
 30
0.0
 11
145.7405881959
 21
296.1986234824
 31
0.0
 11
145.6430404601873
 21
296.1999392711108
 31
0.0
 11
145.5455608326843
 21
296.2040358123391
 31
0.0
 11
145.4515943769203
 21
296.2107001272376
 31
0.0
 11
145.3578780929886
 21
296.2202141130663
 31
0.0
 11
145.2712275397395
 21
296.2318180634195
 31
0.0
 11
145.1850308260851
 21
296.2464493796276
 31
0.0
 11
145.1088534835567
 21
296.2623988380383
 31
0.0
 11
145.0334814139044
 21
296.2817317483918
 31
0.0
 11
144.9706576434105
 21
296.3013143882994
 31
0.0
 11
144.909122631988
 21
296.3247518922788
 31
0.0
 11
144.861643210813
 21
296.3469521695538
 31
0.0
 11
144.8167207522384
 21
296.3737892863951
 31
0.0
 11
144.7996912254266
 21
296.3863005092853
 31
0.0
 11
144.7836500564989
 21
296.3999955566454
 31
0.0
 11
144.7710256144893
 21
296.4128077484411
 31
0.0
 11
144.7598098344127
 21
296.4270199481451
 31
0.0
 11
144.7459827244755
 21
296.453512523653
 31
0.0
 11
144.7405881959
 21
296.4824203694
 31
0.0
  0
SPLINE
  5
D3
330
1F
100
AcDbEntity
  8
FASEN
  6
Continuous
 62
     7
100
AcDbSpline
210
0.0
220
0.0
230
1.0
 70
     8
 71
     3
 72
    25
 73
    21
 74
    19
 42
0.0000000001
 43
0.0000000001
 44
0.00000001
 40
0.0
 40
0.0
 40
0.0
 40
0.0
 40
0.0294068780938232
 40
0.0592907454070064
 40
0.0773954504074307
 40
0.0953823566079142
 40
0.1164743793364205
 40
0.1376057655127381
 40
0.1899341337877664
 40
0.2423473739800037
 40
0.3081947294561131
 40
0.3739997894746839
 40
0.4518118085133143
 40
0.5296409337743275
 40
0.6170706132796983
 40
0.7044946948690483
 40
0.7986926661878639
 40
0.8928951497116674
 40
0.9904608169717053
 40
1.088017426396893
 40
1.088017426396893
 40
1.088017426396893
 40
1.088017426396893
 10
144.7405881959
 20
324.2874203694
 30
0.0
 10
144.7417663088563
 20
324.2972378304117
 30
0.0
 10
144.744141644148
 20
324.317031994877
 30
0.0
 10
144.757113312418
 20
324.3399808363907
 30
0.0
 10
144.7707317178003
 20
324.3572293926202
 30
0.0
 10
144.7842327458019
 20
324.3707488702289
 30
0.0
 10
144.7995423960191
 20
324.3837506776135
 30
0.0
 10
144.8250094513521
 20
324.4023558918952
 30
0.0
 10
144.8612744931591
 20
324.4236925666207
 30
0.0
 10
144.9129880964707
 20
324.4474566333162
 30
0.0
 10
144.9704277590404
 20
324.4691652577
 30
0.0
 10
145.0371715204976
 20
324.4897741771361
 30
0.0
 10
145.1087304606455
 20
324.5080084676761
 30
0.0
 10
145.1880804867085
 20
324.524492073826
 30
0.0
 10
145.2711503432247
 20
324.5385276461992
 30
0.0
 10
145.3600652609704
 20
324.5503626871672
 30
0.0
 10
145.4515555488542
 20
324.5596241789718
 30
0.0
 10
145.5466546161339
 20
324.5662910218409
 30
0.0
 10
145.6430247630922
 20
324.5704871915053
 30
0.0
 10
145.7080680580961
 20
324.5709739088998
 30
0.0
 10
145.7405881959
 20
324.5712172563
 30
0.0
 11
144.7405881959
 21
324.2874203694
 31
0.0
 11
144.7459827244755
 21
324.3163282150595
 31
0.0
 11
144.7598098344127
 21
324.3428207905549
 31
0.0
 11
144.7710256144893
 21
324.3570329902589
 31
0.0
 11
144.7836500564989
 21
324.3698451820546
 31
0.0
 11
144.7996912254266
 21
324.3835402294153
 31
0.0
 11
144.8167207522384
 21
324.3960514523092
 31
0.0
 11
144.861643210813
 21
324.42288856918
 31
0.0
 11
144.909122631988
 21
324.4450888464831
 31
0.0
 11
144.9706576434105
 21
324.468526350455
 31
0.0
 11
145.0334814139044
 21
324.4881089903427
 31
0.0
 11
145.1088534835567
 21
324.5074419007083
 31
0.0
 11
145.1850308260851
 21
324.5233913591383
 31
0.0
 11
145.2712275397395
 21
324.5380226753329
 31
0.0
 11
145.3578780929886
 21
324.5496266256675
 31
0.0
 11
145.4515943769203
 21
324.55914061151
 31
0.0
 11
145.5455608326843
 21
324.565804926419
 31
0.0
 11
145.6430404601873
 21
324.5699014676155
 31
0.0
 11
145.7405881959
 21
324.5712172563
 31
0.0
  0
SPLINE
  5
D4
330
1F
100
AcDbEntity
  8
RUNDUNGEN
  6
Continuous
 62
     7
100
AcDbSpline
210
0.0
220
0.0
230
1.0
 70
     8
 71
     3
 72
    15
 73
    11
 74
     9
 42
0.0000000001
 43
0.0000000001
 44
0.00000001
 40
0.0
 40
0.0
 40
0.0
 40
0.0
 40
0.1876162667163877
 40
0.3752472686816645
 40
0.8896127170104029
 40
1.404021138135761
 40
2.131000331614136
 40
2.858087598157336
 40
3.646367622712919
 40
4.434396846474601
 40
4.434396846474601
 40
4.434396846474601
 40
4.434396846474601
 10
190.1405881959
 20
324.3849203694
 30
0.0
 10
190.0797662936838
 20
324.3703636880607
 30
0.0
 10
189.9581177123422
 20
324.3412491821107
 30
0.0
 10
189.6687260633205
 20
324.276508706652
 30
0.0
 10
189.2711398699066
 20
324.1965243767896
 30
0.0
 10
188.6936327905401
 20
324.1010045875144
 30
0.0
 10
188.041967100836
 20
324.0215738738506
 30
0.0
 10
187.2960077487546
 20
323.9705755922396
 30
0.0
 10
186.5276510866281
 20
323.9579021023222
 30
0.0
 10
186.0029146631789
 20
323.9876729422172
 30
0.0
 10
185.7405881959
 20
324.0025559938
 30
0.0
 11
190.1405881959
 21
324.3849203694
 31
0.0
 11
189.9580175920352
 21
324.3417018763553
 31
0.0
 11
189.774935137765
 21
324.3006384152629
 31
0.0
 11
189.2706217701894
 21
324.1994463122164
 31
0.0
 11
188.7630984692642
 21
324.1155647126688
 31
0.0
 11
188.0414147860303
 21
324.0279781320504
 31
0.0
 11
187.3160484697849
 21
323.9779821279518
 31
0.0
 11
186.5278379453181
 21
323.9675147389203
 31
0.0
 11
185.7405881959
 21
324.0025559938
 31
0.0
  0
SPLINE
  5
D5
330
1F
100
AcDbEntity
  8
RUNDUNGEN
  6
Continuous
 62
     7
100
AcDbSpline
210
0.0
220
0.0
230
1.0
 70
     8
 71
     3
 72
    15
 73
    11
 74
     9
 42
0.0000000001
 43
0.0000000001
 44
0.00000001
 40
0.0
 40
0.0
 40
0.0
 40
0.0
 40
0.1050361176338966
 40
0.2100911948526483
 40
0.4932217864754972
 40
0.7763913443300798
 40
1.184589031255003
 40
1.593042264679628
 40
2.089643680108558
 40
2.585549951134116
 40
2.585549951134116
 40
2.585549951134116
 40
2.585549951134116
 10
183.3405881959
 20
324.8858295354
 30
0.0
 10
183.3697536574594
 20
324.8664573098509
 30
0.0
 10
183.4280898451011
 20
324.8277093619616
 30
0.0
 10
183.566894671837
 20
324.7395874527045
 30
0.0
 10
183.7594011751855
 20
324.6252989465991
 30
0.0
 10
184.0465447903347
 20
324.4732046741842
 30
0.0
 10
184.3808496994879
 20
324.3216677822211
 30
0.0
 10
184.7933881400689
 20
324.174365554594
 30
0.0
 10
185.2468253863869
 20
324.0564133366005
 30
0.0
 10
185.5760774612309
 20
324.0205000569428
 30
0.0
 10
185.7405881959
 20
324.0025559938
 30
0.0
 11
183.3405881959
 21
324.8858295354
 31
0.0
 11
183.4282817145148
 21
324.8280157584904
 31
0.0
 11
183.5169310189379
 21
324.7716431581003
 31
0.0
 11
183.760510399394
 21
324.6273101496464
 31
0.0
 11
184.0107834596604
 21
324.4948397989999
 31
0.0
 11
184.3828474209611
 21
324.3269298221905
 31
0.0
 11
184.7674538212319
 21
324.1894090573375
 31
0.0
 11
185.2490570493142
 21
324.0682839298588
 31
0.0
 11
185.7405881959
 21
324.0025559938
 31
0.0
  0
DIMENSION
  5
E0
330
1F
100
AcDbEntity
  8
1
100
AcDbDimension
  2
*D2
 10
204.7405881959
 20
385.195641983103
 30
0.0
 11
128.635935388314
 21
388.945641983103
 31
0.0
 70
    32
  1
<>
 71
     5
 42
-1.0
 53
0.00013888888889
  3
ME10_DIM_10
100
AcDbAlignedDimension
 13
39.9405881959
 23
329.598115777
 33
0.0
 14
204.7405881959
 24
317.4567171391
 34
0.0
100
AcDbRotatedDimension
  0
DIMENSION
  5
EB
330
1F
100
AcDbEntity
  8
1
100
AcDbDimension
  2
*D3
 10
204.7405881959
 20
376.326381228775
 30
0.0
 11
173.116182497623
 21
380.076381228775
 31
0.0
 70
    32
  1
<>
 71
     5
 42
-1.0
 53
0.00013888888889
  3
ME10_DIM_11
100
AcDbAlignedDimension
 13
141.7405881959
 23
363.3724203694
 33
0.0
 14
204.7405881959
 24
317.4567171391
 34
0.0
100
AcDbRotatedDimension
  0
DIMENSION
  5
F6
330
1F
100
AcDbEntity
  8
1
100
AcDbDimension
  2
*D4
 10
204.7405881959
 20
368.151422020035
 30
0.0
 11
192.110940659108
 21
371.901422020035
 31
0.0
 70
    32
  1
<>
 71
     5
 42
-1.0
 53
0.00013888888889
  3
ME10_DIM_12
100
AcDbAlignedDimension
 13
179.7405881959
 23
359.3724203694
 33
0.0
 14
204.7405881959
 24
317.4567171391
 34
0.0
100
AcDbRotatedDimension
  0
DIMENSION
  5
101
330
1F
100
AcDbEntity
  8
1
100
AcDbDimension
  2
*D5
 10
227.09557786753
 20
324.3849203694
 30
0.0
 11
223.34557786753
 21
310.834560783642
 31
0.0
 70
    32
  1
<>
 71
     5
 42
-1.0
 53
90.0
  3
ME10_DIM_13
100
AcDbAlignedDimension
 13
193.4726390035
 23
296.3849203694
 33
0.0
 14
193.4726390035
 24
324.3849203694
 34
0.0
 50
90.0
100
AcDbRotatedDimension
  0
DIMENSION
  5
10E
330
1F
100
AcDbEntity
  8
1
100
AcDbDimension
  2
*D6
 10
216.720699892305
 20
314.3849203694
 30
0.0
 11
212.970699892305
 21
310.650391352129
 31
0.0
 70
    32
  1
<>
 71
     5
 42
-1.0
 53
90.0
  3
ME10_DIM_14
100
AcDbAlignedDimension
 13
204.7405881959
 23
306.3849203694
 33
0.0
 14
204.7405881959
 24
314.3849203694
 34
0.0
 50
90.0
100
AcDbRotatedDimension
  0
INSERT
  5
115
330
1F
100
AcDbEntity
  8
1
100
AcDbBlockReference
  2
*D7
 10
0.0
 20
0.0
 30
0.0
  0
ENDSEC
  0
SECTION
  2
OBJECTS
  0
DICTIONARY
  5
C
330
0
100
AcDbDictionary
281
     1
  3
ACAD_GROUP
350
D
  3
ACAD_LAYOUT
350
1A
  3
ACAD_MLEADERSTYLE
350
118
  3
ACAD_MLINESTYLE
350
17
  3
ACAD_PLOTSETTINGS
350
19
  3
ACAD_PLOTSTYLENAME
350
E
  3
ACAD_SCALELIST
350
4C
  3
ACAD_VISUALSTYLE
350
2A
  3
AcDbVariableDictionary
350
116
  0
DICTIONARY
  5
D
102
{ACAD_REACTORS
330
C
102
}
330
C
100
AcDbDictionary
281
     1
  0
DICTIONARY
  5
1A
102
{ACAD_REACTORS
330
C
102
}
330
C
100
AcDbDictionary
281
     1
  3
Layout1
350
1E
  3
Layout2
350
26
  3
Model
350
22
  0
DICTIONARY
  5
118
102
{ACAD_REACTORS
330
C
102
}
330
C
100
AcDbDictionary
281
     1
  0
DICTIONARY
  5
17
102
{ACAD_REACTORS
330
C
102
}
330
C
100
AcDbDictionary
281
     1
  3
Standard
350
18
  0
DICTIONARY
  5
19
102
{ACAD_REACTORS
330
C
102
}
330
C
100
AcDbDictionary
281
     1
  0
ACDBDICTIONARYWDFLT
  5
E
102
{ACAD_REACTORS
330
C
102
}
330
C
100
AcDbDictionary
281
     1
  3
Normal
350
F
100
AcDbDictionaryWithDefault
340
F
  0
DICTIONARY
  5
4C
102
{ACAD_REACTORS
330
C
102
}
330
C
100
AcDbDictionary
281
     1
  3
A0
350
4D
  3
A1
350
4E
  3
A2
350
4F
  3
A3
350
50
  3
A4
350
51
  3
A5
350
52
  3
A6
350
53
  3
A7
350
54
  3
A8
350
55
  3
A9
350
56
  3
B0
350
57
  3
B1
350
58
  3
B2
350
59
  3
B3
350
5A
  3
B4
350
5B
  3
B5
350
5C
  3
B6
350
5D
  3
B7
350
5E
  3
B8
350
5F
  3
B9
350
60
  3
C0
350
61
  3
C1
350
62
  3
C2
350
63
  3
C3
350
64
  3
C4
350
65
  3
C5
350
66
  3
C6
350
67
  3
C7
350
68
  3
C8
350
69
  3
C9
350
6A
  3
D0
350
6B
  3
D1
350
6C
  3
D2
350
6D
  0
DICTIONARY
  5
2A
102
{ACAD_REACTORS
330
C
102
}
330
C
100
AcDbDictionary
281
     1
  3
2dWireframe
350
2F
  3
3D Hidden
350
31
  3
3dWireframe
350
30
  3
Basic
350
32
  3
Brighten
350
36
  3
ColorChange
350
3A
  3
Conceptual
350
34
  3
Dim
350
35
  3
Facepattern
350
39
  3
Flat
350
2B
  3
FlatWithEdges
350
2C
  3
Gouraud
350
2D
  3
GouraudWithEdges
350
2E
  3
Linepattern
350
38
  3
Realistic
350
33
  3
Thicken
350
37
  0
DICTIONARY
  5
116
102
{ACAD_REACTORS
330
C
102
}
330
C
100
AcDbDictionary
281
     1
  3
CANNOSCALE
350
119
  0
LAYOUT
  5
1E
102
{ACAD_REACTORS
330
1A
102
}
330
1A
100
AcDbPlotSettings
  1

  2
none_device
  4

  6

 40
0.0
 41
0.0
 42
0.0
 43
0.0
 44
0.0
 45
0.0
 46
0.0
 47
0.0
 48
0.0
 49
0.0
140
0.0
141
0.0
142
1.0
143
1.0
 70
   688
 72
     0
 73
     0
 74
     5
  7

 75
    16
147
1.0
148
0.0
149
0.0
100
AcDbLayout
  1
Layout1
 70
     1
 71
     1
 10
0.0
 20
0.0
 11
12.0
 21
9.0
 12
0.0
 22
0.0
 32
0.0
 14
1.00000000000000E+20
 24
1.00000000000000E+20
 34
1.00000000000000E+20
 15
-1.00000000000000E+20
 25
-1.00000000000000E+20
 35
-1.00000000000000E+20
146
0.0
 13
0.0
 23
0.0
 33
0.0
 16
1.0
 26
0.0
 36
0.0
 17
0.0
 27
1.0
 37
0.0
 76
     0
330
1B
  0
LAYOUT
  5
26
102
{ACAD_REACTORS
330
1A
102
}
330
1A
100
AcDbPlotSettings
  1

  2
none_device
  4

  6

 40
0.0
 41
0.0
 42
0.0
 43
0.0
 44
0.0
 45
0.0
 46
0.0
 47
0.0
 48
0.0
 49
0.0
140
0.0
141
0.0
142
1.0
143
1.0
 70
   688
 72
     0
 73
     0
 74
     5
  7

 75
    16
147
1.0
148
0.0
149
0.0
100
AcDbLayout
  1
Layout2
 70
     1
 71
     2
 10
0.0
 20
0.0
 11
0.0
 21
0.0
 12
0.0
 22
0.0
 32
0.0
 14
0.0
 24
0.0
 34
0.0
 15
0.0
 25
0.0
 35
0.0
146
0.0
 13
0.0
 23
0.0
 33
0.0
 16
1.0
 26
0.0
 36
0.0
 17
0.0
 27
1.0
 37
0.0
 76
     0
330
23
  0
LAYOUT
  5
22
102
{ACAD_REACTORS
330
1A
102
}
330
1A
100
AcDbPlotSettings
  1

  2
none_device
  4

  6

 40
0.0
 41
0.0
 42
0.0
 43
0.0
 44
0.0
 45
0.0
 46
0.0
 47
0.0
 48
0.0
 49
0.0
140
0.0
141
0.0
142
1.0
143
1.0
 70
  1712
 72
     0
 73
     0
 74
     0
  7

 75
     0
147
1.0
148
0.0
149
0.0
100
AcDbLayout
  1
Model
 70
     1
 71
     0
 10
0.0
 20
0.0
 11
12.0
 21
9.0
 12
0.0
 22
0.0
 32
0.0
 14
15.8486696326319
 24
257.2724203694
 34
0.0
 15
229.09557786753
 25
390.695641983103
 35
0.0
146
0.0
 13
0.0
 23
0.0
 33
0.0
 16
1.0
 26
0.0
 36
0.0
 17
0.0
 27
1.0
 37
0.0
 76
     0
330
1F
331
29
  0
MLINESTYLE
  5
18
102
{ACAD_REACTORS
330
17
102
}
330
17
100
AcDbMlineStyle
  2
Standard
 70
     0
  3

 62
   256
 51
90.0
 52
90.0
 71
     2
 49
0.5
 62
   256
  6
BYLAYER
 49
-0.5
 62
   256
  6
BYLAYER
  0
ACDBPLACEHOLDER
  5
F
102
{ACAD_REACTORS
330
E
102
}
330
E
  0
SCALE
  5
4D
102
{ACAD_REACTORS
330
4C
102
}
330
4C
100
AcDbScale
 70
     0
300
1:1
140
1.0
141
1.0
290
     1
  0
SCALE
  5
4E
102
{ACAD_REACTORS
330
4C
102
}
330
4C
100
AcDbScale
 70
     0
300
1:2
140
1.0
141
2.0
290
     0
  0
SCALE
  5
4F
102
{ACAD_REACTORS
330
4C
102
}
330
4C
100
AcDbScale
 70
     0
300
1:4
140
1.0
141
4.0
290
     0
  0
SCALE
  5
50
102
{ACAD_REACTORS
330
4C
102
}
330
4C
100
AcDbScale
 70
     0
300
1:5
140
1.0
141
5.0
290
     0
  0
SCALE
  5
51
102
{ACAD_REACTORS
330
4C
102
}
330
4C
100
AcDbScale
 70
     0
300
1:8
140
1.0
141
8.0
290
     0
  0
SCALE
  5
52
102
{ACAD_REACTORS
330
4C
102
}
330
4C
100
AcDbScale
 70
     0
300
1:10
140
1.0
141
10.0
290
     0
  0
SCALE
  5
53
102
{ACAD_REACTORS
330
4C
102
}
330
4C
100
AcDbScale
 70
     0
300
1:16
140
1.0
141
16.0
290
     0
  0
SCALE
  5
54
102
{ACAD_REACTORS
330
4C
102
}
330
4C
100
AcDbScale
 70
     0
300
1:20
140
1.0
141
20.0
290
     0
  0
SCALE
  5
55
102
{ACAD_REACTORS
330
4C
102
}
330
4C
100
AcDbScale
 70
     0
300
1:30
140
1.0
141
30.0
290
     0
  0
SCALE
  5
56
102
{ACAD_REACTORS
330
4C
102
}
330
4C
100
AcDbScale
 70
     0
300
1:40
140
1.0
141
40.0
290
     0
  0
SCALE
  5
57
102
{ACAD_REACTORS
330
4C
102
}
330
4C
100
AcDbScale
 70
     0
300
1:50
140
1.0
141
50.0
290
     0
  0
SCALE
  5
58
102
{ACAD_REACTORS
330
4C
102
}
330
4C
100
AcDbScale
 70
     0
300
1:100
140
1.0
141
100.0
290
     0
  0
SCALE
  5
59
102
{ACAD_REACTORS
330
4C
102
}
330
4C
100
AcDbScale
 70
     0
300
2:1
140
2.0
141
1.0
290
     0
  0
SCALE
  5
5A
102
{ACAD_REACTORS
330
4C
102
}
330
4C
100
AcDbScale
 70
     0
300
4:1
140
4.0
141
1.0
290
     0
  0
SCALE
  5
5B
102
{ACAD_REACTORS
330
4C
102
}
330
4C
100
AcDbScale
 70
     0
300
8:1
140
8.0
141
1.0
290
     0
  0
SCALE
  5
5C
102
{ACAD_REACTORS
330
4C
102
}
330
4C
100
AcDbScale
 70
     0
300
10:1
140
10.0
141
1.0
290
     0
  0
SCALE
  5
5D
102
{ACAD_REACTORS
330
4C
102
}
330
4C
100
AcDbScale
 70
     0
300
100:1
140
100.0
141
1.0
290
     0
  0
SCALE
  5
5E
102
{ACAD_REACTORS
330
4C
102
}
330
4C
100
AcDbScale
 70
     0
300
1/128" = 1'-0"
140
0.0078125
141
12.0
290
     0
  0
SCALE
  5
5F
102
{ACAD_REACTORS
330
4C
102
}
330
4C
100
AcDbScale
 70
     0
300
1/64" = 1'-0"
140
0.015625
141
12.0
290
     0
  0
SCALE
  5
60
102
{ACAD_REACTORS
330
4C
102
}
330
4C
100
AcDbScale
 70
     0
300
1/32" = 1'-0"
140
0.03125
141
12.0
290
     0
  0
SCALE
  5
61
102
{ACAD_REACTORS
330
4C
102
}
330
4C
100
AcDbScale
 70
     0
300
1/16" = 1'-0"
140
0.0625
141
12.0
290
     0
  0
SCALE
  5
62
102
{ACAD_REACTORS
330
4C
102
}
330
4C
100
AcDbScale
 70
     0
300
3/32" = 1'-0"
140
0.09375
141
12.0
290
     0
  0
SCALE
  5
63
102
{ACAD_REACTORS
330
4C
102
}
330
4C
100
AcDbScale
 70
     0
300
1/8" = 1'-0"
140
0.125
141
12.0
290
     0
  0
SCALE
  5
64
102
{ACAD_REACTORS
330
4C
102
}
330
4C
100
AcDbScale
 70
     0
300
3/16" = 1'-0"
140
0.1875
141
12.0
290
     0
  0
SCALE
  5
65
102
{ACAD_REACTORS
330
4C
102
}
330
4C
100
AcDbScale
 70
     0
300
1/4" = 1'-0"
140
0.25
141
12.0
290
     0
  0
SCALE
  5
66
102
{ACAD_REACTORS
330
4C
102
}
330
4C
100
AcDbScale
 70
     0
300
3/8" = 1'-0"
140
0.375
141
12.0
290
     0
  0
SCALE
  5
67
102
{ACAD_REACTORS
330
4C
102
}
330
4C
100
AcDbScale
 70
     0
300
1/2" = 1'-0"
140
0.5
141
12.0
290
     0
  0
SCALE
  5
68
102
{ACAD_REACTORS
330
4C
102
}
330
4C
100
AcDbScale
 70
     0
300
3/4" = 1'-0"
140
0.75
141
12.0
290
     0
  0
SCALE
  5
69
102
{ACAD_REACTORS
330
4C
102
}
330
4C
100
AcDbScale
 70
     0
300
1" = 1'-0"
140
1.0
141
12.0
290
     0
  0
SCALE
  5
6A
102
{ACAD_REACTORS
330
4C
102
}
330
4C
100
AcDbScale
 70
     0
300
1-1/2" = 1'-0"
140
1.5
141
12.0
290
     0
  0
SCALE
  5
6B
102
{ACAD_REACTORS
330
4C
102
}
330
4C
100
AcDbScale
 70
     0
300
3" = 1'-0"
140
3.0
141
12.0
290
     0
  0
SCALE
  5
6C
102
{ACAD_REACTORS
330
4C
102
}
330
4C
100
AcDbScale
 70
     0
300
6" = 1'-0"
140
6.0
141
12.0
290
     0
  0
SCALE
  5
6D
102
{ACAD_REACTORS
330
4C
102
}
330
4C
100
AcDbScale
 70
     0
300
1'-0" = 1'-0"
140
12.0
141
12.0
290
     0
  0
VISUALSTYLE
  5
2F
102
{ACAD_REACTORS
330
2A
102
}
330
2A
100
AcDbVisualStyle
  2
2dWireframe
 70
     4
 71
     0
 72
     2
 73
     0
 90
        0
 40
-0.6
 41
-30.0
 62
     5
 63
     7
 74
     1
 91
        4
 64
     7
 65
   257
 75
     1
175
     1
 42
1.0
 92
        0
 66
   257
 43
1.0
 76
     1
 77
     6
 78
     2
 67
     7
 79
     5
170
     0
171
     0
290
     0
174
     0
 93
        1
 44
0.0
173
     0
291
     0
 45
0.0
1001
ACAD
1000
AcDbSavedByObjectVersion
1070
     0
  0
VISUALSTYLE
  5
31
102
{ACAD_REACTORS
330
2A
102
}
330
2A
100
AcDbVisualStyle
  2
3D Hidden
 70
     6
 71
     1
 72
     2
 73
     2
 90
        0
 40
-0.6
 41
-30.0
 62
     5
 63
     7
 74
     2
 91
        2
 64
     7
 65
   257
 75
     2
175
     1
 42
40.0
 92
        0
 66
   257
 43
1.0
 76
     1
 77
     6
 78
     2
 67
     7
 79
     3
170
     0
171
     0
290
     0
174
     0
 93
        1
 44
0.0
173
     0
291
     0
 45
0.0
1001
ACAD
1000
AcDbSavedByObjectVersion
1070
     0
  0
VISUALSTYLE
  5
30
102
{ACAD_REACTORS
330
2A
102
}
330
2A
100
AcDbVisualStyle
  2
3dWireframe
 70
     5
 71
     0
 72
     2
 73
     0
 90
        0
 40
-0.6
 41
-30.0
 62
     5
 63
     7
 74
     1
 91
        4
 64
     7
 65
   257
 75
     1
175
     1
 42
1.0
 92
        0
 66
   257
 43
1.0
 76
     1
 77
     6
 78
     2
 67
     7
 79
     5
170
     0
171
     0
290
     0
174
     0
 93
        1
 44
0.0
173
     0
291
     0
 45
0.0
1001
ACAD
1000
AcDbSavedByObjectVersion
1070
     0
  0
VISUALSTYLE
  5
32
102
{ACAD_REACTORS
330
2A
102
}
330
2A
100
AcDbVisualStyle
  2
Basic
 70
     7
 71
     1
 72
     0
 73
     1
 90
        0
 40
-0.6
 41
-30.0
 62
     5
 63
     7
 74
     0
 91
        4
 64
     7
 65
   257
 75
     1
175
     1
 42
1.0
 92
        8
 66
     7
 43
1.0
 76
     1
 77
     6
 78
     2
 67
     7
 79
     5
170
     0
171
     0
290
     0
174
     0
 93
        1
 44
0.0
173
     0
291
     1
 45
0.0
1001
ACAD
1000
AcDbSavedByObjectVersion
1070
     0
  0
VISUALSTYLE
  5
36
102
{ACAD_REACTORS
330
2A
102
}
330
2A
100
AcDbVisualStyle
  2
Brighten
 70
    12
 71
     2
 72
     2
 73
     0
 90
        0
 40
-0.6
 41
-30.0
 62
     5
 63
     7
 74
     1
 91
        4
 64
     7
 65
   257
 75
     1
175
     1
 42
1.0
 92
        8
 66
     7
 43
1.0
 76
     1
 77
     6
 78
     2
 67
     7
 79
     5
170
     0
171
     0
290
     0
174
     0
 93
        1
 44
50.0
173
     0
291
     1
 45
0.0
1001
ACAD
1000
AcDbSavedByObjectVersion
1070
     0
  0
VISUALSTYLE
  5
3A
102
{ACAD_REACTORS
330
2A
102
}
330
2A
100
AcDbVisualStyle
  2
ColorChange
 70
    16
 71
     2
 72
     2
 73
     3
 90
        0
 40
-0.6
 41
-30.0
 62
     5
 63
     8
 74
     1
 91
        4
 64
     7
 65
   257
 75
     1
175
     1
 42
1.0
 92
        8
 66
     8
 43
1.0
 76
     1
 77
     6
 78
     2
 67
     7
 79
     5
170
     0
171
     0
290
     0
174
     0
 93
        1
 44
0.0
173
     0
291
     1
 45
0.0
1001
ACAD
1000
AcDbSavedByObjectVersion
1070
     0
  0
VISUALSTYLE
  5
34
102
{ACAD_REACTORS
330
2A
102
}
330
2A
100
AcDbVisualStyle
  2
Conceptual
 70
     9
 71
     3
 72
     2
 73
     0
 90
        0
 40
-0.6
 41
-30.0
 62
     5
 63
     7
 74
     2
 91
        2
 64
     7
 65
   257
 75
     1
175
     1
 42
40.0
 92
        8
 66
     7
 43
1.0
 76
     1
 77
     6
 78
     2
 67
     7
 79
     3
170
     0
171
     0
290
     0
174
     0
 93
        1
 44
0.0
173
     0
291
     0
 45
0.0
1001
ACAD
1000
AcDbSavedByObjectVersion
1070
     0
  0
VISUALSTYLE
  5
35
102
{ACAD_REACTORS
330
2A
102
}
330
2A
100
AcDbVisualStyle
  2
Dim
 70
    11
 71
     2
 72
     2
 73
     0
 90
        0
 40
-0.6
 41
-30.0
 62
     5
 63
     7
 74
     1
 91
        4
 64
     7
 65
   257
 75
     1
175
     1
 42
1.0
 92
        8
 66
     7
 43
1.0
 76
     1
 77
     6
 78
     2
 67
     7
 79
     5
170
     0
171
     0
290
     0
174
     0
 93
        1
 44
-50.0
173
     0
291
     1
 45
0.0
1001
ACAD
1000
AcDbSavedByObjectVersion
1070
     0
  0
VISUALSTYLE
  5
39
102
{ACAD_REACTORS
330
2A
102
}
330
2A
100
AcDbVisualStyle
  2
Facepattern
 70
    15
 71
     2
 72
     2
 73
     0
 90
        0
 40
-0.6
 41
-30.0
 62
     5
 63
     7
 74
     1
 91
        4
 64
     7
 65
   257
 75
     1
175
     1
 42
1.0
 92
        8
 66
     7
 43
1.0
 76
     1
 77
     6
 78
     2
 67
     7
 79
     5
170
     0
171
     0
290
     0
174
     0
 93
        1
 44
0.0
173
     0
291
     1
 45
0.0
1001
ACAD
1000
AcDbSavedByObjectVersion
1070
     0
  0
VISUALSTYLE
  5
2B
102
{ACAD_REACTORS
330
2A
102
}
330
2A
100
AcDbVisualStyle
  2
Flat
 70
     0
 71
     2
 72
     1
 73
     1
 90
        2
 40
-0.6
 41
30.0
 62
     5
 63
     7
 74
     0
 91
        4
 64
     7
 65
   257
 75
     1
175
     1
 42
1.0
 92
        8
 66
     7
 43
1.0
 76
     1
 77
     6
 78
     2
 67
     7
 79
     5
170
     0
171
     0
290
     0
174
     0
 93
       13
 44
0.0
173
     0
291
     1
 45
0.0
1001
ACAD
1000
AcDbSavedByObjectVersion
1070
     0
  0
VISUALSTYLE
  5
2C
102
{ACAD_REACTORS
330
2A
102
}
330
2A
100
AcDbVisualStyle
  2
FlatWithEdges
 70
     1
 71
     2
 72
     1
 73
     1
 90
        2
 40
-0.6
 41
30.0
 62
     5
 63
     7
 74
     1
 91
        4
 64
     7
 65
   257
 75
     1
175
     1
 42
1.0
 92
        0
 66
   257
 43
1.0
 76
     1
 77
     6
 78
     2
 67
     7
 79
     5
170
     0
171
     0
290
     0
174
     0
 93
       13
 44
0.0
173
     0
291
     1
 45
0.0
1001
ACAD
1000
AcDbSavedByObjectVersion
1070
     0
  0
VISUALSTYLE
  5
2D
102
{ACAD_REACTORS
330
2A
102
}
330
2A
100
AcDbVisualStyle
  2
Gouraud
 70
     2
 71
     2
 72
     2
 73
     1
 90
        2
 40
-0.6
 41
30.0
 62
     5
 63
     7
 74
     0
 91
        4
 64
     7
 65
   257
 75
     1
175
     1
 42
1.0
 92
        0
 66
     7
 43
1.0
 76
     1
 77
     6
 78
     2
 67
     7
 79
     5
170
     0
171
     0
290
     0
174
     0
 93
       13
 44
0.0
173
     0
291
     1
 45
0.0
1001
ACAD
1000
AcDbSavedByObjectVersion
1070
     0
  0
VISUALSTYLE
  5
2E
102
{ACAD_REACTORS
330
2A
102
}
330
2A
100
AcDbVisualStyle
  2
GouraudWithEdges
 70
     3
 71
     2
 72
     2
 73
     1
 90
        2
 40
-0.6
 41
30.0
 62
     5
 63
     7
 74
     1
 91
        4
 64
     7
 65
   257
 75
     1
175
     1
 42
1.0
 92
        0
 66
   257
 43
1.0
 76
     1
 77
     6
 78
     2
 67
     7
 79
     5
170
     0
171
     0
290
     0
174
     0
 93
       13
 44
0.0
173
     0
291
     1
 45
0.0
1001
ACAD
1000
AcDbSavedByObjectVersion
1070
     0
  0
VISUALSTYLE
  5
38
102
{ACAD_REACTORS
330
2A
102
}
330
2A
100
AcDbVisualStyle
  2
Linepattern
 70
    14
 71
     2
 72
     2
 73
     0
 90
        0
 40
-0.6
 41
-30.0
 62
     5
 63
     7
 74
     1
 91
        4
 64
     7
 65
   257
 75
     7
175
     7
 42
1.0
 92
        8
 66
     7
 43
1.0
 76
     1
 77
     6
 78
     2
 67
     7
 79
     5
170
     0
171
     0
290
     0
174
     0
 93
        1
 44
0.0
173
     0
291
     1
 45
0.0
1001
ACAD
1000
AcDbSavedByObjectVersion
1070
     0
  0
VISUALSTYLE
  5
33
102
{ACAD_REACTORS
330
2A
102
}
330
2A
100
AcDbVisualStyle
  2
Realistic
 70
     8
 71
     2
 72
     2
 73
     0
 90
        0
 40
-0.6
 41
-30.0
 62
     5
 63
     7
 74
     1
 91
        0
 64
     7
 65
   257
 75
     1
175
     1
 42
1.0
 92
        8
 66
     8
 43
1.0
 76
     1
 77
     6
 78
     2
 67
     7
 79
     5
170
     0
171
     0
290
     0
174
     0
 93
       13
 44
0.0
173
     0
291
     0
 45
0.0
1001
ACAD
1000
AcDbSavedByObjectVersion
1070
     0
  0
VISUALSTYLE
  5
37
102
{ACAD_REACTORS
330
2A
102
}
330
2A
100
AcDbVisualStyle
  2
Thicken
 70
    13
 71
     2
 72
     2
 73
     0
 90
        0
 40
-0.6
 41
-30.0
 62
     5
 63
     7
 74
     1
 91
        4
 64
     7
 65
   257
 75
     1
175
     1
 42
1.0
 92
       12
 66
     7
 43
1.0
 76
     1
 77
     6
 78
     2
 67
     7
 79
     5
170
     0
171
     0
290
     0
174
     0
 93
        1
 44
0.0
173
     0
291
     1
 45
0.0
1001
ACAD
1000
AcDbSavedByObjectVersion
1070
     0
  0
DICTIONARYVAR
  5
119
102
{ACAD_REACTORS
330
116
102
}
330
116
100
DictionaryVariables
280
     0
  1
1:1
  0
ENDSEC
  0
EOF
