999
DXF file: 200_50-320-16-3-bmg.dxf
999
Pro/ENGINEER 2010430 by Parametric Technology Corporation
  0
SECTION
  2
HEADER
  9
$ACADVER
  1
AC1021
  9
$DWGCODEPAGE
  3
ANSI_1252
  9
$EXTMAX
 10
420.0
 20
297.0
 30
0.0
  9
$EXTMIN
 10
0.0
 20
0.0
 30
0.0
  9
$LIMMIN
 10
0.0
 20
0.0
  9
$LIMMAX
 10
420.0
 20
297.0
  9
$VIEWCTR
 10
210.0
 20
148.5
  9
$VIEWSIZE
 40
297.0
  9
$CLAYER
  8
0
  9
$LTSCALE
 40
23.1
  9
$CELTYPE
  6
BYLAYER
  9
$DIMSCALE
 40
1.0
  9
$DIMASZ
 40
3.5
  9
$DIMEXO
 40
2.625
  9
$DIMDLI
 40
15.96
  9
$DIMEXE
 40
7.56
  9
$DIMCEN
 40
3.78
  9
$DIMLFAC
 40
1.0
  9
$DIMBLK
  1
_FILLED
  9
$DIMTXT
 40
3.5
  9
$DIMTOL
 70
0
  9
$DIMLIM
 70
0
  9
$DIMTFAC
 40
1.0
  9
$PDMODE
 70
3
  9
$PDSIZE
 40
0.3125
  9
$HANDSEED
  5
321
  9
$TILEMODE
 70
1
  9
$MEASUREMENT
 70
1
  9
$INSUNITS
 70
4
  0
ENDSEC
  0
SECTION
  2
CLASSES
  0
CLASS
  1
ACDBDICTIONARYWDFLT
  2
AcDbDictionaryWithDefault
  3
AutoCAD 2000
 90
0
 91
1
280
0
281
0
  0
CLASS
  1
ACDBPLACEHOLDER
  2
AcDbPlaceHolder
  3
AutoCAD 2000
 90
0
 91
1
280
0
281
0
  0
CLASS
  1
LAYOUT
  2
AcDbLayout
  3
AutoCAD 2000
 90
0
 91
0
280
0
281
0
  0
ENDSEC
  0
SECTION
  2
TABLES
  0
TABLE
  2
VPORT
  5
8
100
AcDbSymbolTable
 70
2
  0
VPORT
  5
1F4
100
AcDbSymbolTableRecord
100
AcDbViewportTableRecord
  2
*ACTIVE
 70
0
 10
0.0
 20
0.0
 11
1.0
 21
1.0
 12
210.0
 22
148.5
 13
0.0
 23
0.0
 14
1.0
 24
1.0
 15
0.0
 25
0.0
 16
0.0
 26
0.0
 36
1.0
 17
0.0
 27
0.0
 37
0.0
 40
297.0
 41
1.4141414141
 42
50.0
 43
0.0
 44
0.0
 50
0.0
 51
0.0
 71
0
 72
100
 73
1
 74
1
 75
0
 76
0
 77
0
 78
0
  0
ENDTAB
  0
TABLE
  2
LTYPE
  5
5
100
AcDbSymbolTable
 70
6
  0
LTYPE
  5
14
100
AcDbSymbolTableRecord
100
AcDbLinetypeTableRecord
  2
BYBLOCK
 70
0
  3

 72
65
 73
0
 40
0.0
  0
LTYPE
  5
15
100
AcDbSymbolTableRecord
100
AcDbLinetypeTableRecord
  2
BYLAYER
 70
0
  3

 72
65
 73
0
 40
0.0
  0
LTYPE
  5
16
100
AcDbSymbolTableRecord
100
AcDbLinetypeTableRecord
  2
CONTINUOUS
 70
64
  3
Solid line
 72
65
 73
0
 40
0.0
  0
LTYPE
  5
1F5
100
AcDbSymbolTableRecord
100
AcDbLinetypeTableRecord
  2
CENTER
 70
64
  3
____ _ ____ _ ____ _ ____ _ ____ _ ____ _ ____
 72
65
 73
4
 40
0.6
 49
0.375
 74
0
 49
-0.075
 74
0
 49
0.075
 74
0
 49
-0.075
 74
0
  0
LTYPE
  5
1F6
100
AcDbSymbolTableRecord
100
AcDbLinetypeTableRecord
  2
HIDDEN
 70
64
  3
- - - - - - - - - - - - - - - - - - - -
 72
65
 73
2
 40
0.2
 49
0.1
 74
0
 49
-0.1
 74
0
  0
LTYPE
  5
1F7
100
AcDbSymbolTableRecord
100
AcDbLinetypeTableRecord
  2
PHANTOM
 70
64
  3
_____ _ _ _____ _ _ _____ _ _ _____
 72
65
 73
6
 40
0.8
 49
0.45
 74
0
 49
-0.05
 74
0
 49
0.1
 74
0
 49
-0.05
 74
0
 49
0.1
 74
0
 49
-0.05
 74
0
  0
LTYPE
  5
1F8
100
AcDbSymbolTableRecord
100
AcDbLinetypeTableRecord
  2
DOT
 70
64
  3
. . . . . . . . . . . . . . . . . . . .
 72
65
 73
2
 40
0.2
 49
0.1
 74
0
 49
-0.1
 74
0
  0
LTYPE
  5
1F9
100
AcDbSymbolTableRecord
100
AcDbLinetypeTableRecord
  2
DASHED
 70
64
  3
- - - - - - - - - - - - - - - - - - - -
 72
65
 73
2
 40
0.2
 49
0.1
 74
0
 49
-0.1
 74
0
  0
ENDTAB
  0
TABLE
  2
LAYER
  5
2
100
AcDbSymbolTable
 70
36
  0
LAYER
  5
10
100
AcDbSymbolTableRecord
100
AcDbLayerTableRecord
  2
0
 70
0
 62
7
  6
CONTINUOUS
370
-3
390
F
  0
LAYER
  5
1FA
100
AcDbSymbolTableRecord
100
AcDbLayerTableRecord
  2
DEFAULT_1
 70
0
 62
7
  6
CENTER
370
-3
390
F
  0
LAYER
  5
1FB
100
AcDbSymbolTableRecord
100
AcDbLayerTableRecord
  2
DEFAULT_2
 70
0
 62
8
  6
HIDDEN
370
-3
390
F
  0
LAYER
  5
1FC
100
AcDbSymbolTableRecord
100
AcDbLayerTableRecord
  2
DEFAULT_3
 70
0
 62
7
  6
PHANTOM
370
-3
390
F
  0
LAYER
  5
1FD
100
AcDbSymbolTableRecord
100
AcDbLayerTableRecord
  2
1
 70
0
 62
7
  6
CONTINUOUS
370
-3
390
F
  0
LAYER
  5
1FE
100
AcDbSymbolTableRecord
100
AcDbLayerTableRecord
  2
2
 70
0
 62
7
  6
CONTINUOUS
370
-3
390
F
  0
LAYER
  5
1FF
100
AcDbSymbolTableRecord
100
AcDbLayerTableRecord
  2
4
 70
0
 62
7
  6
CONTINUOUS
370
-3
390
F
  0
LAYER
  5
200
100
AcDbSymbolTableRecord
100
AcDbLayerTableRecord
  2
5
 70
0
 62
7
  6
CONTINUOUS
370
-3
390
F
  0
LAYER
  5
201
100
AcDbSymbolTableRecord
100
AcDbLayerTableRecord
  2
6
 70
0
 62
7
  6
CONTINUOUS
370
-3
390
F
  0
LAYER
  5
202
100
AcDbSymbolTableRecord
100
AcDbLayerTableRecord
  2
ACHSEN
 70
0
 62
7
  6
CONTINUOUS
370
-3
390
F
  0
LAYER
  5
203
100
AcDbSymbolTableRecord
100
AcDbLayerTableRecord
  2
ANALYSEN
 70
0
 62
7
  6
CONTINUOUS
370
-3
390
F
  0
LAYER
  5
204
100
AcDbSymbolTableRecord
100
AcDbLayerTableRecord
  2
AUFMASS_EINFUEHRFASE
 70
0
 62
7
  6
CONTINUOUS
370
-3
390
F
  0
LAYER
  5
205
100
AcDbSymbolTableRecord
100
AcDbLayerTableRecord
  2
AUFMASS_WEICHBEARBEITUNG
 70
0
 62
7
  6
CONTINUOUS
370
-3
390
F
  0
LAYER
  5
206
100
AcDbSymbolTableRecord
100
AcDbLayerTableRecord
  2
AUFMASS_WEICHBEARBEITUNG_FERTIG
 70
0
 62
7
  6
CONTINUOUS
370
-3
390
F
  0
LAYER
  5
207
100
AcDbSymbolTableRecord
100
AcDbLayerTableRecord
  2
AUFMASS_WEICHBE_INNENKONTUR
 70
0
 62
7
  6
CONTINUOUS
370
-3
390
F
  0
LAYER
  5
208
100
AcDbSymbolTableRecord
100
AcDbLayerTableRecord
  2
AUSFORMSCHRAEGEN
 70
0
 62
7
  6
CONTINUOUS
370
-3
390
F
  0
LAYER
  5
209
100
AcDbSymbolTableRecord
100
AcDbLayerTableRecord
  2
AUSSENKONTUR
 70
0
 62
7
  6
CONTINUOUS
370
-3
390
F
  0
LAYER
  5
20A
100
AcDbSymbolTableRecord
100
AcDbLayerTableRecord
  2
BEZUG
 70
0
 62
7
  6
CONTINUOUS
370
-3
390
F
  0
LAYER
  5
20B
100
AcDbSymbolTableRecord
100
AcDbLayerTableRecord
  2
BEZUGSACHSEN
 70
0
 62
7
  6
CONTINUOUS
370
-3
390
F
  0
LAYER
  5
20C
100
AcDbSymbolTableRecord
100
AcDbLayerTableRecord
  2
BEZUGSACHSENKENNZEICHEN
 70
0
 62
7
  6
CONTINUOUS
370
-3
390
F
  0
LAYER
  5
20D
100
AcDbSymbolTableRecord
100
AcDbLayerTableRecord
  2
BEZUGSEBENEN
 70
0
 62
7
  6
CONTINUOUS
370
-3
390
F
  0
LAYER
  5
20E
100
AcDbSymbolTableRecord
100
AcDbLayerTableRecord
  2
BEZUGSEBENE_B
 70
0
 62
7
  6
CONTINUOUS
370
-3
390
F
  0
LAYER
  5
20F
100
AcDbSymbolTableRecord
100
AcDbLayerTableRecord
  2
BEZUGSPUNKTE
 70
0
 62
7
  6
CONTINUOUS
370
-3
390
F
  0
LAYER
  5
210
100
AcDbSymbolTableRecord
100
AcDbLayerTableRecord
  2
BG_STARTBEZUEGE
 70
0
 62
7
  6
CONTINUOUS
370
-3
390
F
  0
LAYER
  5
211
100
AcDbSymbolTableRecord
100
AcDbLayerTableRecord
  2
BOHRUNGEN
 70
0
 62
7
  6
CONTINUOUS
370
-3
390
F
  0
LAYER
  5
212
100
AcDbSymbolTableRecord
100
AcDbLayerTableRecord
  2
EBENEN
 70
0
 62
7
  6
CONTINUOUS
370
-3
390
F
  0
LAYER
  5
213
100
AcDbSymbolTableRecord
100
AcDbLayerTableRecord
  2
FASEN
 70
0
 62
7
  6
CONTINUOUS
370
-3
390
F
  0
LAYER
  5
214
100
AcDbSymbolTableRecord
100
AcDbLayerTableRecord
  2
FLAECHEN
 70
0
 62
7
  6
CONTINUOUS
370
-3
390
F
  0
LAYER
  5
215
100
AcDbSymbolTableRecord
100
AcDbLayerTableRecord
  2
FORM_LAGE_TOLERANZEN
 70
0
 62
7
  6
CONTINUOUS
370
-3
390
F
  0
LAYER
  5
216
100
AcDbSymbolTableRecord
100
AcDbLayerTableRecord
  2
GEOMTOL
 70
0
 62
7
  6
CONTINUOUS
370
-3
390
F
  0
LAYER
  5
217
100
AcDbSymbolTableRecord
100
AcDbLayerTableRecord
  2
GEWINDE
 70
0
 62
7
  6
CONTINUOUS
370
-3
390
F
  0
LAYER
  5
218
100
AcDbSymbolTableRecord
100
AcDbLayerTableRecord
  2
HILFEN
 70
0
 62
7
  6
CONTINUOUS
370
-3
390
F
  0
LAYER
  5
219
100
AcDbSymbolTableRecord
100
AcDbLayerTableRecord
  2
INNENKONTUR
 70
0
 62
7
  6
CONTINUOUS
370
-3
390
F
  0
LAYER
  5
21A
100
AcDbSymbolTableRecord
100
AcDbLayerTableRecord
  2
KOORDINATENSYSTEME
 70
0
 62
7
  6
CONTINUOUS
370
-3
390
F
  0
LAYER
  5
21B
100
AcDbSymbolTableRecord
100
AcDbLayerTableRecord
  2
KOORDSYS
 70
0
 62
7
  6
CONTINUOUS
370
-3
390
F
  0
LAYER
  5
21C
100
AcDbSymbolTableRecord
100
AcDbLayerTableRecord
  2
KURVEN
 70
0
 62
7
  6
CONTINUOUS
370
-3
390
F
  0
LAYER
  5
21D
100
AcDbSymbolTableRecord
100
AcDbLayerTableRecord
  2
KURVE_FUER_GTOL_DETAILANSICHT
 70
0
 62
7
  6
CONTINUOUS
370
-3
390
F
  0
LAYER
  5
21E
100
AcDbSymbolTableRecord
100
AcDbLayerTableRecord
  2
KURVE_GAUGE2_POLIGON_INNENEINST
 70
0
 62
7
  6
CONTINUOUS
370
-3
390
F
  0
LAYER
  5
21F
100
AcDbSymbolTableRecord
100
AcDbLayerTableRecord
  2
KURVE_PHANTOM1_GAUGE_PIN_1
 70
0
 62
7
  6
CONTINUOUS
370
-3
390
F
  0
LAYER
  5
220
100
AcDbSymbolTableRecord
100
AcDbLayerTableRecord
  2
KURVE_PHANTOM2_GAUGE_PIN1
 70
0
 62
7
  6
CONTINUOUS
370
-3
390
F
  0
LAYER
  5
221
100
AcDbSymbolTableRecord
100
AcDbLayerTableRecord
  2
KURVE_POLIGON_BEMASUNG
 70
0
 62
7
  6
CONTINUOUS
370
-3
390
F
  0
LAYER
  5
222
100
AcDbSymbolTableRecord
100
AcDbLayerTableRecord
  2
NOCUT
 70
0
 62
7
  6
CONTINUOUS
370
-3
390
F
  0
LAYER
  5
223
100
AcDbSymbolTableRecord
100
AcDbLayerTableRecord
  2
PLATZIERUNG
 70
0
 62
7
  6
CONTINUOUS
370
-3
390
F
  0
LAYER
  5
224
100
AcDbSymbolTableRecord
100
AcDbLayerTableRecord
  2
PUNKTE
 70
0
 62
7
  6
CONTINUOUS
370
-3
390
F
  0
LAYER
  5
225
100
AcDbSymbolTableRecord
100
AcDbLayerTableRecord
  2
RUNDUNGEN
 70
0
 62
7
  6
CONTINUOUS
370
-3
390
F
  0
LAYER
  5
226
100
AcDbSymbolTableRecord
100
AcDbLayerTableRecord
  2
SK1
 70
0
 62
7
  6
CONTINUOUS
370
-3
390
F
  0
LAYER
  5
227
100
AcDbSymbolTableRecord
100
AcDbLayerTableRecord
  2
SK2
 70
0
 62
7
  6
CONTINUOUS
370
-3
390
F
  0
LAYER
  5
228
100
AcDbSymbolTableRecord
100
AcDbLayerTableRecord
  2
SK4
 70
0
 62
7
  6
CONTINUOUS
370
-3
390
F
  0
LAYER
  5
229
100
AcDbSymbolTableRecord
100
AcDbLayerTableRecord
  2
SKELETTE
 70
0
 62
7
  6
CONTINUOUS
370
-3
390
F
  0
LAYER
  5
22A
100
AcDbSymbolTableRecord
100
AcDbLayerTableRecord
  2
S_ACHSEN
 70
0
 62
7
  6
CONTINUOUS
370
-3
390
F
  0
LAYER
  5
22B
100
AcDbSymbolTableRecord
100
AcDbLayerTableRecord
  2
S_EBENEN
 70
0
 62
7
  6
CONTINUOUS
370
-3
390
F
  0
LAYER
  5
22C
100
AcDbSymbolTableRecord
100
AcDbLayerTableRecord
  2
S_KOORDSYS
 70
0
 62
7
  6
CONTINUOUS
370
-3
390
F
  0
LAYER
  5
22D
100
AcDbSymbolTableRecord
100
AcDbLayerTableRecord
  2
TEIL_STARTBEZUEGE
 70
0
 62
7
  6
CONTINUOUS
370
-3
390
F
  0
LAYER
  5
22E
100
AcDbSymbolTableRecord
100
AcDbLayerTableRecord
  2
TOL_BEZUEGE
 70
0
 62
7
  6
CONTINUOUS
370
-3
390
F
  0
LAYER
  5
22F
100
AcDbSymbolTableRecord
100
AcDbLayerTableRecord
  2
VERBFLAECHE
 70
0
 62
7
  6
CONTINUOUS
370
-3
390
F
  0
LAYER
  5
230
100
AcDbSymbolTableRecord
100
AcDbLayerTableRecord
  2
VERERBUNG
 70
0
 62
7
  6
CONTINUOUS
370
-3
390
F
  0
LAYER
  5
231
100
AcDbSymbolTableRecord
100
AcDbLayerTableRecord
  2
VERPACKUNG
 70
0
 62
7
  6
CONTINUOUS
370
-3
390
F
  0
LAYER
  5
232
100
AcDbSymbolTableRecord
100
AcDbLayerTableRecord
  2
VOLGEOM
 70
0
 62
7
  6
CONTINUOUS
370
-3
390
F
  0
LAYER
  5
233
100
AcDbSymbolTableRecord
100
AcDbLayerTableRecord
  2
VOLUMEN
 70
0
 62
7
  6
CONTINUOUS
370
-3
390
F
  0
LAYER
  5
234
100
AcDbSymbolTableRecord
100
AcDbLayerTableRecord
  2
XSEC_DATUMS
 70
0
 62
7
  6
CONTINUOUS
370
-3
390
F
  0
LAYER
  5
235
100
AcDbSymbolTableRecord
100
AcDbLayerTableRecord
  2
ZEICHNUNG
 70
0
 62
7
  6
CONTINUOUS
370
-3
390
F
  0
LAYER
  5
236
100
AcDbSymbolTableRecord
100
AcDbLayerTableRecord
  2
ZEICHNUNGSBEMASSUNGEN
 70
0
 62
7
  6
CONTINUOUS
370
-3
390
F
  0
ENDTAB
  0
TABLE
  2
STYLE
  5
3
100
AcDbSymbolTable
 70
1
  0
STYLE
  5
11
100
AcDbSymbolTableRecord
100
AcDbTextStyleTableRecord
  2
STANDARD
 70
0
 40
0.0
 41
0.7
 50
0.0
 71
0
 42
0.2
  3
txt
  4

  0
STYLE
  5
237
100
AcDbSymbolTableRecord
100
AcDbTextStyleTableRecord
  2
TEXTSTYLE_1
 70
0
 40
0.0
 41
0.8
 50
0.0
 71
0
 42
0.2
  3
gdt
  4

  0
STYLE
  5
238
100
AcDbSymbolTableRecord
100
AcDbTextStyleTableRecord
  2
TEXTSTYLE_2
 70
0
 40
0.0
 41
0.7
 50
0.0
 71
0
 42
0.2
  3
gdt
  4

  0
ENDTAB
  0
TABLE
  2
VIEW
  5
6
100
AcDbSymbolTable
 70
0
  0
ENDTAB
  0
TABLE
  2
UCS
  5
7
100
AcDbSymbolTable
 70
0
  0
ENDTAB
  0
TABLE
  2
APPID
  5
9
100
AcDbSymbolTable
 70
1
  0
APPID
  5
239
100
AcDbSymbolTableRecord
100
AcDbRegAppTableRecord
  2
ACAD
 70
0
  0
ENDTAB
  0
TABLE
  2
BLOCK_RECORD
  5
1
100
AcDbSymbolTable
 70
0
  0
BLOCK_RECORD
  5
23A
100
AcDbSymbolTableRecord
100
AcDbBlockTableRecord
  2
*Model_Space
  0
BLOCK_RECORD
  5
23B
100
AcDbSymbolTableRecord
100
AcDbBlockTableRecord
  2
*Paper_Space
  0
BLOCK_RECORD
  5
23C
100
AcDbSymbolTableRecord
100
AcDbBlockTableRecord
  2
_FILLED
  0
BLOCK_RECORD
  5
23D
100
AcDbSymbolTableRecord
100
AcDbBlockTableRecord
  2
*D0
  0
BLOCK_RECORD
  5
23E
100
AcDbSymbolTableRecord
100
AcDbBlockTableRecord
  2
*D1
  0
BLOCK_RECORD
  5
23F
100
AcDbSymbolTableRecord
100
AcDbBlockTableRecord
  2
*D2
  0
BLOCK_RECORD
  5
240
100
AcDbSymbolTableRecord
100
AcDbBlockTableRecord
  2
*D3
  0
BLOCK_RECORD
  5
241
100
AcDbSymbolTableRecord
100
AcDbBlockTableRecord
  2
*D4
  0
BLOCK_RECORD
  5
242
100
AcDbSymbolTableRecord
100
AcDbBlockTableRecord
  2
*D5
  0
BLOCK_RECORD
  5
243
100
AcDbSymbolTableRecord
100
AcDbBlockTableRecord
  2
*D6
  0
ENDTAB
  0
TABLE
  2
DIMSTYLE
  5
A
100
AcDbSymbolTable
 70
1
100
AcDbDimStyleTable
 71
0
  0
DIMSTYLE
105
244
100
AcDbSymbolTableRecord
100
AcDbDimStyleTableRecord
  2
STANDARD
 70
0
  3

  4

 40
1.0
 41
3.5
 42
0.0625
 43
0.38
 44
0.18
 45
0.0
 46
0.0
 47
0.005
 48
0.005
140
3.5
141
0.09
142
0.0
143
25.4
144
1.0
145
0.0
146
1.0
147
0.09
 71
0.0
 72
0.0
 73
0
 74
0
 75
0
 76
0
 77
1
 78
8
170
0
171
2
172
0
173
0
174
0
175
0
176
0
177
0
178
5
270
2
271
3
272
3
273
2
274
2
275
0
280
0
281
0
282
0
283
1
284
8
285
0
286
0
287
3
288
0
340
11
341
23C
342
23C
343
23C
344
23C
  0
DIMSTYLE
105
245
100
AcDbSymbolTableRecord
100
AcDbDimStyleTableRecord
  2
DIMSTYLE_1
 70
0
  3

  4

 40
1.0
 41
3.5
 42
0.0625
 43
0.38
 44
0.18
 45
0.0
 46
0.0
 47
0.0
 48
0.0
140
3.5
141
0.09
142
0.0
143
25.4
144
1.0
145
0.0
146
1.0
147
0.09
 71
0.0
 72
0.0
 73
0
 74
0
 75
0
 76
0
 77
1
 78
8
170
0
171
2
172
0
173
0
174
0
175
0
176
0
177
0
178
5
270
2
271
3
272
3
273
2
274
2
275
0
280
0
281
0
282
0
283
1
284
8
285
0
286
0
287
3
288
0
340
11
341
23C
342
23C
343
23C
344
23C
  0
DIMSTYLE
105
246
100
AcDbSymbolTableRecord
100
AcDbDimStyleTableRecord
  2
DIMSTYLE_2
 70
0
  3

  4

 40
1.0
 41
3.5
 42
0.0625
 43
0.38
 44
0.18
 45
0.0
 46
0.0
 47
0.0
 48
0.0
140
3.5
141
0.09
142
0.0
143
25.4
144
1.0
145
0.0
146
1.0
147
0.09
 71
0.0
 72
0.0
 73
0
 74
0
 75
0
 76
0
 77
1
 78
8
170
0
171
2
172
0
173
0
174
0
175
0
176
0
177
0
178
5
270
2
271
2
272
2
273
2
274
2
275
0
280
0
281
0
282
0
283
1
284
8
285
0
286
0
287
3
288
0
340
11
341
23C
342
23C
343
23C
344
23C
  0
ENDTAB
  0
ENDSEC
  0
SECTION
  2
BLOCKS
  0
BLOCK
  5
20
100
AcDbEntity
  8
0
100
AcDbBlockBegin
  2
*Model_Space
 70
0
 10
0.0
 20
0.0
 30
0.0
  3
*Model_Space
  1

  0
ENDBLK
  5
21
100
AcDbEntity
  8
0
100
AcDbBlockEnd
  0
BLOCK
  5
1C
100
AcDbEntity
  8
0
100
AcDbBlockBegin
  2
*Paper_Space
 70
0
 10
0.0
 20
0.0
 30
0.0
  3
*Paper_Space
  1

  0
ENDBLK
  5
1D
100
AcDbEntity
  8
0
100
AcDbBlockEnd
  0
BLOCK
  5
247
100
AcDbEntity
  8
0
100
AcDbBlockBegin
  2
_FILLED
 70
64
 10
0.0
 20
0.0
  3
_FILLED
  1

  0
SOLID
  5
248
100
AcDbEntity
  8
0
  6
BYBLOCK
 62
0
100
AcDbTrace
 10
0.0
 20
0.0
 11
-1.0
 21
0.125
 12
-1.0
 22
-0.125
 13
-1.0
 23
-0.125
  0
ENDBLK
  5
249
100
AcDbEntity
  8
0
  6
BYBLOCK
 62
0
100
AcDbBlockEnd
  0
BLOCK
  5
24A
100
AcDbEntity
  8
2
100
AcDbBlockBegin
 62
2
  6
CONTINUOUS
  2
*D0
 70
65
 10
0.0
 20
0.0
  3
*D0
  1

  0
MTEXT
  5
24B
100
AcDbEntity
  8
2
100
AcDbMText
 62
5
  6
CONTINUOUS
  7
STANDARD
 71
2
 72
1
 10
221.6175
 20
234.1125
 30
0.0
 11
1.0
 21
0.0
 31
0.0
 44
0.9
  1
63.235
 40
3.5
 41
15.0
  0
LINE
  5
24C
100
AcDbEntity
  8
2
100
AcDbLine
 62
2
  6
CONTINUOUS
 10
190.0
 20
208.75
 11
190.0
 21
231.2375
  0
LINE
  5
24D
100
AcDbEntity
  8
2
100
AcDbLine
 62
2
  6
CONTINUOUS
 10
253.235
 20
195.0
 11
253.235
 21
231.2375
  0
LINE
  5
24E
100
AcDbEntity
  8
2
100
AcDbLine
 62
2
  6
CONTINUOUS
 10
190.0
 20
229.7375
 11
221.6175
 21
229.7375
  0
LINE
  5
24F
100
AcDbEntity
  8
2
100
AcDbLine
 62
2
  6
CONTINUOUS
 10
253.235
 20
229.7375
 11
221.6175
 21
229.7375
  0
INSERT
  5
250
100
AcDbEntity
  8
2
100
AcDbBlockReference
 62
2
  6
CONTINUOUS
  2
_FILLED
 10
190.0
 20
229.7375
 41
3.5
 42
3.5
 43
3.5
 50
180.0
  0
INSERT
  5
251
100
AcDbEntity
  8
2
100
AcDbBlockReference
 62
2
  6
CONTINUOUS
  2
_FILLED
 10
253.235
 20
229.7375
 41
3.5
 42
3.5
 43
3.5
  0
ENDBLK
  5
252
100
AcDbEntity
  8
0
  6
BYBLOCK
 62
0
100
AcDbBlockEnd
  0
BLOCK
  5
253
100
AcDbEntity
  8
SK2
100
AcDbBlockBegin
 62
2
  6
CONTINUOUS
  2
*D1
 70
65
 10
0.0
 20
0.0
  3
*D1
  1

  0
MTEXT
  5
254
100
AcDbEntity
  8
SK2
100
AcDbMText
 62
5
  6
CONTINUOUS
  7
STANDARD
 71
2
 72
1
 10
170.7425
 20
254.1125
 30
0.0
 11
1.0
 21
0.0
 31
0.0
 44
0.9
  1
164.985
 40
3.5
 41
17.5
  0
LINE
  5
255
100
AcDbEntity
  8
SK2
100
AcDbLine
 62
2
  6
CONTINUOUS
 10
88.25
 20
160.0
 11
88.25
 21
251.2375
  0
LINE
  5
256
100
AcDbEntity
  8
SK2
100
AcDbLine
 62
2
  6
CONTINUOUS
 10
253.235
 20
160.0
 11
253.235
 21
236.7375
  0
LINE
  5
257
100
AcDbEntity
  8
SK2
100
AcDbLine
 62
2
  6
CONTINUOUS
 10
253.235
 20
242.7375
 11
253.235
 21
251.2375
  0
LINE
  5
258
100
AcDbEntity
  8
SK2
100
AcDbLine
 62
2
  6
CONTINUOUS
 10
88.25
 20
249.7375
 11
170.7425
 21
249.7375
  0
LINE
  5
259
100
AcDbEntity
  8
SK2
100
AcDbLine
 62
2
  6
CONTINUOUS
 10
253.235
 20
249.7375
 11
170.7425
 21
249.7375
  0
INSERT
  5
25A
100
AcDbEntity
  8
SK2
100
AcDbBlockReference
 62
2
  6
CONTINUOUS
  2
_FILLED
 10
88.25
 20
249.7375
 41
3.5
 42
3.5
 43
3.5
 50
180.0
  0
INSERT
  5
25B
100
AcDbEntity
  8
SK2
100
AcDbBlockReference
 62
2
  6
CONTINUOUS
  2
_FILLED
 10
253.235
 20
249.7375
 41
3.5
 42
3.5
 43
3.5
  0
ENDBLK
  5
25C
100
AcDbEntity
  8
0
  6
BYBLOCK
 62
0
100
AcDbBlockEnd
  0
BLOCK
  5
25D
100
AcDbEntity
  8
SK2
100
AcDbBlockBegin
 62
2
  6
CONTINUOUS
  2
*D2
 70
65
 10
0.0
 20
0.0
  3
*D2
  1

  0
MTEXT
  5
25E
100
AcDbEntity
  8
SK2
100
AcDbMText
 62
5
  6
CONTINUOUS
  7
STANDARD
 71
2
 72
1
 10
231.1675
 20
224.1125
 30
0.0
 11
1.0
 21
0.0
 31
0.0
 44
0.9
  1
44.135
 40
3.5
 41
14.5
  0
LINE
  5
25F
100
AcDbEntity
  8
SK2
100
AcDbLine
 62
2
  6
CONTINUOUS
 10
209.1
 20
208.75
 11
209.1
 21
221.2375
  0
LINE
  5
260
100
AcDbEntity
  8
SK2
100
AcDbLine
 62
2
  6
CONTINUOUS
 10
253.235
 20
160.0
 11
253.235
 21
221.2375
  0
LINE
  5
261
100
AcDbEntity
  8
SK2
100
AcDbLine
 62
2
  6
CONTINUOUS
 10
209.1
 20
219.7375
 11
231.1675
 21
219.7375
  0
LINE
  5
262
100
AcDbEntity
  8
SK2
100
AcDbLine
 62
2
  6
CONTINUOUS
 10
253.235
 20
219.7375
 11
231.1675
 21
219.7375
  0
INSERT
  5
263
100
AcDbEntity
  8
SK2
100
AcDbBlockReference
 62
2
  6
CONTINUOUS
  2
_FILLED
 10
209.1
 20
219.7375
 41
3.5
 42
3.5
 43
3.5
 50
180.0
  0
INSERT
  5
264
100
AcDbEntity
  8
SK2
100
AcDbBlockReference
 62
2
  6
CONTINUOUS
  2
_FILLED
 10
253.235
 20
219.7375
 41
3.5
 42
3.5
 43
3.5
  0
ENDBLK
  5
265
100
AcDbEntity
  8
0
  6
BYBLOCK
 62
0
100
AcDbBlockEnd
  0
BLOCK
  5
266
100
AcDbEntity
  8
2
100
AcDbBlockBegin
 62
2
  6
CONTINUOUS
  2
*D3
 70
65
 10
0.0
 20
0.0
  3
*D3
  1

  0
MTEXT
  5
267
100
AcDbEntity
  8
2
100
AcDbMText
 62
5
  6
CONTINUOUS
  7
TEXTSTYLE_2
 71
2
 72
1
 10
268.495
 20
160.0
 30
0.0
 11
0.0
 21
1.0
 31
0.0
 44
0.9
  1
{\Fgdt;n}\Ftxt;16
 40
3.5
 41
9.4166666667
  0
LINE
  5
268
100
AcDbEntity
  8
2
100
AcDbLine
 62
2
  6
CONTINUOUS
 10
253.235
 20
152.0
 11
274.37
 21
152.0
  0
LINE
  5
269
100
AcDbEntity
  8
2
100
AcDbLine
 62
2
  6
CONTINUOUS
 10
253.235
 20
168.0
 11
274.37
 21
168.0
  0
LINE
  5
26A
100
AcDbEntity
  8
2
100
AcDbLine
 62
2
  6
CONTINUOUS
 10
272.87
 20
152.0
 11
272.87
 21
160.0
  0
LINE
  5
26B
100
AcDbEntity
  8
2
100
AcDbLine
 62
2
  6
CONTINUOUS
 10
272.87
 20
168.0
 11
272.87
 21
160.0
  0
INSERT
  5
26C
100
AcDbEntity
  8
2
100
AcDbBlockReference
 62
2
  6
CONTINUOUS
  2
_FILLED
 10
272.87
 20
152.0
 41
3.5
 42
3.5
 43
3.5
 50
270.0
  0
INSERT
  5
26D
100
AcDbEntity
  8
2
100
AcDbBlockReference
 62
2
  6
CONTINUOUS
  2
_FILLED
 10
272.87
 20
168.0
 41
3.5
 42
3.5
 43
3.5
 50
90.0
  0
ENDBLK
  5
26E
100
AcDbEntity
  8
0
  6
BYBLOCK
 62
0
100
AcDbBlockEnd
  0
BLOCK
  5
26F
100
AcDbEntity
  8
2
100
AcDbBlockBegin
 62
2
  6
CONTINUOUS
  2
*D4
 70
65
 10
0.0
 20
0.0
  3
*D4
  1

  0
MTEXT
  5
270
100
AcDbEntity
  8
2
100
AcDbMText
 62
5
  6
CONTINUOUS
  7
TEXTSTYLE_2
 71
2
 72
1
 10
288.495
 20
160.0
 30
0.0
 11
0.0
 21
1.0
 31
0.0
 44
0.9
  1
{\Fgdt;n}\Ftxt;70
 40
3.5
 41
10.1666666667
  0
LINE
  5
271
100
AcDbEntity
  8
2
100
AcDbLine
 62
2
  6
CONTINUOUS
 10
211.235
 20
125.0
 11
294.37
 21
125.0
  0
LINE
  5
272
100
AcDbEntity
  8
2
100
AcDbLine
 62
2
  6
CONTINUOUS
 10
211.235
 20
195.0
 11
294.37
 21
195.0
  0
LINE
  5
273
100
AcDbEntity
  8
2
100
AcDbLine
 62
2
  6
CONTINUOUS
 10
292.87
 20
125.0
 11
292.87
 21
160.0
  0
LINE
  5
274
100
AcDbEntity
  8
2
100
AcDbLine
 62
2
  6
CONTINUOUS
 10
292.87
 20
195.0
 11
292.87
 21
160.0
  0
INSERT
  5
275
100
AcDbEntity
  8
2
100
AcDbBlockReference
 62
2
  6
CONTINUOUS
  2
_FILLED
 10
292.87
 20
125.0
 41
3.5
 42
3.5
 43
3.5
 50
270.0
  0
INSERT
  5
276
100
AcDbEntity
  8
2
100
AcDbBlockReference
 62
2
  6
CONTINUOUS
  2
_FILLED
 10
292.87
 20
195.0
 41
3.5
 42
3.5
 43
3.5
 50
90.0
  0
ENDBLK
  5
277
100
AcDbEntity
  8
0
  6
BYBLOCK
 62
0
100
AcDbBlockEnd
  0
BLOCK
  5
278
100
AcDbEntity
  8
2
100
AcDbBlockBegin
 62
2
  6
CONTINUOUS
  2
*D5
 70
65
 10
0.0
 20
0.0
  3
*D5
  1

  0
MTEXT
  5
279
100
AcDbEntity
  8
2
100
AcDbMText
 62
5
  6
CONTINUOUS
  7
STANDARD
 71
2
 72
1
 10
225.0
 20
244.1125
 30
0.0
 11
1.0
 21
0.0
 31
0.0
 44
0.9
  1
70
 40
3.5
 41
5.5
  0
LINE
  5
27A
100
AcDbEntity
  8
2
100
AcDbLine
 62
2
  6
CONTINUOUS
 10
190.0
 20
208.75
 11
190.0
 21
241.2375
  0
LINE
  5
27B
100
AcDbEntity
  8
2
100
AcDbLine
 62
2
  6
CONTINUOUS
 10
260.0
 20
160.0
 11
260.0
 21
165.0
  0
LINE
  5
27C
100
AcDbEntity
  8
2
100
AcDbLine
 62
2
  6
CONTINUOUS
 10
260.0
 20
171.0
 11
260.0
 21
192.0
  0
LINE
  5
27D
100
AcDbEntity
  8
2
100
AcDbLine
 62
2
  6
CONTINUOUS
 10
260.0
 20
198.0
 11
260.0
 21
241.2375
  0
LINE
  5
27E
100
AcDbEntity
  8
2
100
AcDbLine
 62
2
  6
CONTINUOUS
 10
190.0
 20
239.7375
 11
225.0
 21
239.7375
  0
LINE
  5
27F
100
AcDbEntity
  8
2
100
AcDbLine
 62
2
  6
CONTINUOUS
 10
260.0
 20
239.7375
 11
225.0
 21
239.7375
  0
INSERT
  5
280
100
AcDbEntity
  8
2
100
AcDbBlockReference
 62
2
  6
CONTINUOUS
  2
_FILLED
 10
190.0
 20
239.7375
 41
3.5
 42
3.5
 43
3.5
 50
180.0
  0
INSERT
  5
281
100
AcDbEntity
  8
2
100
AcDbBlockReference
 62
2
  6
CONTINUOUS
  2
_FILLED
 10
260.0
 20
239.7375
 41
3.5
 42
3.5
 43
3.5
  0
ENDBLK
  5
282
100
AcDbEntity
  8
0
  6
BYBLOCK
 62
0
100
AcDbBlockEnd
  0
BLOCK
  5
283
100
AcDbEntity
  8
2
100
AcDbBlockBegin
 62
2
  6
CONTINUOUS
  2
*D6
 70
65
 10
0.0
 20
0.0
  3
*D6
  1

  0
MTEXT
  5
284
100
AcDbEntity
  8
2
100
AcDbMText
 62
5
  6
CONTINUOUS
  7
TEXTSTYLE_2
 71
2
 72
1
 10
278.495
 20
160.0
 30
0.0
 11
0.0
 21
1.0
 31
0.0
 44
0.9
  1
{\Fgdt;n}\Ftxt;28
 40
3.5
 41
10.1666666667
  0
LINE
  5
285
100
AcDbEntity
  8
2
100
AcDbLine
 62
2
  6
CONTINUOUS
 10
257.0
 20
146.0
 11
284.37
 21
146.0
  0
LINE
  5
286
100
AcDbEntity
  8
2
100
AcDbLine
 62
2
  6
CONTINUOUS
 10
257.0
 20
174.0
 11
284.37
 21
174.0
  0
LINE
  5
287
100
AcDbEntity
  8
2
100
AcDbLine
 62
2
  6
CONTINUOUS
 10
282.87
 20
146.0
 11
282.87
 21
160.0
  0
LINE
  5
288
100
AcDbEntity
  8
2
100
AcDbLine
 62
2
  6
CONTINUOUS
 10
282.87
 20
174.0
 11
282.87
 21
160.0
  0
INSERT
  5
289
100
AcDbEntity
  8
2
100
AcDbBlockReference
 62
2
  6
CONTINUOUS
  2
_FILLED
 10
282.87
 20
146.0
 41
3.5
 42
3.5
 43
3.5
 50
270.0
  0
INSERT
  5
28A
100
AcDbEntity
  8
2
100
AcDbBlockReference
 62
2
  6
CONTINUOUS
  2
_FILLED
 10
282.87
 20
174.0
 41
3.5
 42
3.5
 43
3.5
 50
90.0
  0
ENDBLK
  5
28B
100
AcDbEntity
  8
0
  6
BYBLOCK
 62
0
100
AcDbBlockEnd
  0
ENDSEC
  0
SECTION
  2
ENTITIES
  0
DIMENSION
  5
28C
100
AcDbEntity
  8
2
100
AcDbDimension
 62
2
  6
CONTINUOUS
  2
*D0
 10
253.235
 20
229.7375
 11
214.1175
 21
232.3625
 70
160
 71
2
 42
63.235
  3
DIMSTYLE_1
100
AcDbAlignedDimension
 13
190.0
 23
208.75
 14
253.235
 24
195.0
100
AcDbRotatedDimension
  0
DIMENSION
  5
28D
100
AcDbEntity
  8
SK2
100
AcDbDimension
 62
2
  6
CONTINUOUS
  2
*D1
 10
253.235
 20
249.7375
 11
161.9925
 21
252.3625
 70
160
 71
2
 42
164.985
  3
DIMSTYLE_1
100
AcDbAlignedDimension
 13
88.25
 23
160.0
 14
253.235
 24
160.0
100
AcDbRotatedDimension
  0
DIMENSION
  5
28E
100
AcDbEntity
  8
SK2
100
AcDbDimension
 62
2
  6
CONTINUOUS
  2
*D2
 10
253.235
 20
219.7375
 11
223.9175
 21
222.3625
 70
160
 71
2
 42
44.135
  3
DIMSTYLE_1
100
AcDbAlignedDimension
 13
209.1
 23
208.75
 14
253.235
 24
160.0
100
AcDbRotatedDimension
  0
DIMENSION
  5
28F
100
AcDbEntity
  8
2
100
AcDbDimension
 62
2
  6
CONTINUOUS
  2
*D3
 10
272.87
 20
168.0
 11
271.2998399713
 21
157.8953828544
 70
160
 71
2
 42
16.0
  1
%%c<>
  3
DIMSTYLE_2
100
AcDbAlignedDimension
 13
253.235
 23
152.0
 14
253.235
 24
168.0
 50
90.0
100
AcDbRotatedDimension
  0
DIMENSION
  5
290
100
AcDbEntity
  8
2
100
AcDbDimension
 62
2
  6
CONTINUOUS
  2
*D4
 10
292.87
 20
195.0
 11
291.3838537743
 21
157.72775848
 70
160
 71
2
 42
70.0
  1
%%c<>
  3
DIMSTYLE_2
100
AcDbAlignedDimension
 13
211.235
 23
125.0
 14
211.235
 24
195.0
 50
90.0
100
AcDbRotatedDimension
  0
DIMENSION
  5
291
100
AcDbEntity
  8
2
100
AcDbDimension
 62
2
  6
CONTINUOUS
  2
*D5
 10
260.0
 20
239.7375
 11
222.25
 21
242.3625
 70
160
 71
2
 42
70.0
  3
DIMSTYLE_1
100
AcDbAlignedDimension
 13
190.0
 23
208.75
 14
260.0
 24
160.0
100
AcDbRotatedDimension
  0
DIMENSION
  5
292
100
AcDbEntity
  8
2
100
AcDbDimension
 62
2
  6
CONTINUOUS
  2
*D6
 10
282.87
 20
174.0
 11
281.3838537743
 21
157.72775848
 70
160
 71
2
 42
28.0
  1
%%c<>
  3
DIMSTYLE_1
100
AcDbAlignedDimension
 13
257.0
 23
146.0
 14
257.0
 24
174.0
 50
90.0
100
AcDbRotatedDimension
  0
MTEXT
  5
293
100
AcDbEntity
  8
6
100
AcDbMText
 62
5
  6
CONTINUOUS
  7
STANDARD
 71
1
 72
1
 10
187.1438497029
 20
82.3507156451
 30
0.0
 11
1.0
 21
0.0
 31
0.0
 44
0.9
  3
Für diese Unterlage behalten wir das Ur-\Pheberrecht. Sie darf nur für den von uns\Pbestimmten Zweck benutzt und ohne unsere \PZustimmung weder vervielfältigt noch \PDritten zugänglich gemacht werden.\P \PWe own the copyright of this document. It\Pde
  1
termined and may neither be copied or\Pmade accessible to outsiders without our\Ppermission.\P \PCe plan reste notre propriété. Il ne peut\Pétre utilisé, copié ou reproduit sans notre\Paccord.
 40
3.5
 41
103.5833333333
  0
LINE
  5
294
100
AcDbEntity
  8
1
100
AcDbLine
 62
9
  6
CONTINUOUS
 10
88.4
 20
178.1614470012
 11
88.4
 21
141.8385529988
  0
LINE
  5
295
100
AcDbEntity
  8
1
100
AcDbLine
 62
9
  6
CONTINUOUS
 10
90.3252829944
 20
180.3878923444
 11
90.3252829944
 21
139.6121076556
  0
LINE
  5
296
100
AcDbEntity
  8
1
100
AcDbLine
 62
6
  6
CONTINUOUS
 10
194.2
 20
111.2625
 11
197.9346216142
 21
111.2625
  0
LINE
  5
297
100
AcDbEntity
  8
1
100
AcDbLine
 62
6
  6
CONTINUOUS
 10
204.4153783858
 20
111.2625
 11
208.05
 21
111.2625
  0
LINE
  5
298
100
AcDbEntity
  8
1
100
AcDbLine
 62
6
  6
CONTINUOUS
 10
200.0125
 20
114.5
 11
202.3375
 21
114.5
  0
LINE
  5
299
100
AcDbEntity
  8
1
100
AcDbLine
 62
6
  6
CONTINUOUS
 10
190.55
 20
125.425
 11
189.5103176668
 21
125.1464179584
  0
LINE
  5
29A
100
AcDbEntity
  8
1
100
AcDbLine
 62
6
  6
CONTINUOUS
 10
194.2
 20
121.4731080121
 11
197.9346216142
 21
121.4731080121
  0
LINE
  5
29B
100
AcDbEntity
  8
1
100
AcDbLine
 62
6
  6
CONTINUOUS
 10
204.4153783858
 20
121.4731080121
 11
208.05
 21
121.4731080121
  0
LINE
  5
29C
100
AcDbEntity
  8
1
100
AcDbLine
 62
6
  6
CONTINUOUS
 10
192.2
 20
125.425
 11
190.55
 21
125.425
  0
LINE
  5
29D
100
AcDbEntity
  8
1
100
AcDbLine
 62
6
  6
CONTINUOUS
 10
200.0125
 20
125.6601179385
 11
202.3375
 21
125.6601179385
  0
LINE
  5
29E
100
AcDbEntity
  8
1
100
AcDbLine
 62
6
  6
CONTINUOUS
 10
209.05
 20
129.75
 11
193.2
 21
129.75
  0
LINE
  5
29F
100
AcDbEntity
  8
1
100
AcDbLine
 62
6
  6
CONTINUOUS
 10
193.2
 20
130.15
 11
209.05
 21
130.15
  0
LINE
  5
2A0
100
AcDbEntity
  8
1
100
AcDbLine
 62
6
  6
CONTINUOUS
 10
189.5103176668
 20
125.1464179584
 11
90.3252829944
 21
139.6121076556
  0
LINE
  5
2A1
100
AcDbEntity
  8
1
100
AcDbLine
 62
6
  6
CONTINUOUS
 10
256.0
 20
146.0
 11
243.45
 21
146.0
  0
LINE
  5
2A2
100
AcDbEntity
  8
1
100
AcDbLine
 62
6
  6
CONTINUOUS
 10
234.3432864376
 20
146.025
 11
221.3229545616
 21
146.025
  0
LINE
  5
2A3
100
AcDbEntity
  8
1
100
AcDbLine
 62
6
  6
CONTINUOUS
 10
256.0
 20
147.1819563197
 11
250.0
 21
147.1819563197
  0
LINE
  5
2A4
100
AcDbEntity
  8
1
100
AcDbLine
 62
8
  6
HIDDEN
 10
252.3112395693
 20
148.5025
 11
242.2
 21
148.5025
  0
LINE
  5
2A5
100
AcDbEntity
  8
1
100
AcDbLine
 62
6
  6
CONTINUOUS
 10
242.2
 20
148.5025
 11
237.6492135624
 21
148.5025
  0
LINE
  5
2A6
100
AcDbEntity
  8
1
100
AcDbLine
 62
6
  6
CONTINUOUS
 10
256.0
 20
148.7151892844
 11
250.0
 21
148.7151892844
  0
LINE
  5
2A7
100
AcDbEntity
  8
1
100
AcDbLine
 62
8
  6
HIDDEN
 10
239.2532984955
 20
153.965
 11
227.735
 21
153.965
  0
LINE
  5
2A8
100
AcDbEntity
  8
1
100
AcDbLine
 62
8
  6
HIDDEN
 10
253.235
 20
168.0
 11
239.2532984955
 21
166.035
  0
LINE
  5
2A9
100
AcDbEntity
  8
1
100
AcDbLine
 62
6
  6
CONTINUOUS
 10
256.0
 20
158.4667670353
 11
250.0
 21
158.4667670353
  0
LINE
  5
2AA
100
AcDbEntity
  8
4
100
AcDbLine
 62
7
  6
CENTER
 10
258.235
 20
160.0
 11
84.4
 21
160.0
  0
LINE
  5
2AB
100
AcDbEntity
  8
1
100
AcDbLine
 62
6
  6
CONTINUOUS
 10
203.0875
 20
206.4375471695
 11
204.4153783858
 21
208.7375
  0
LINE
  5
2AC
100
AcDbEntity
  8
1
100
AcDbLine
 62
6
  6
CONTINUOUS
 10
256.0
 20
161.5332329647
 11
250.0
 21
161.5332329647
  0
LINE
  5
2AD
100
AcDbEntity
  8
1
100
AcDbLine
 62
8
  6
HIDDEN
 10
239.2532984955
 20
166.035
 11
227.735
 21
166.035
  0
LINE
  5
2AE
100
AcDbEntity
  8
1
100
AcDbLine
 62
8
  6
HIDDEN
 10
253.235
 20
152.0
 11
239.2532984955
 21
153.965
  0
LINE
  5
2AF
100
AcDbEntity
  8
1
100
AcDbLine
 62
6
  6
CONTINUOUS
 10
203.0875
 20
113.5624528305
 11
204.4153783858
 21
111.2625
  0
LINE
  5
2B0
100
AcDbEntity
  8
1
100
AcDbLine
 62
6
  6
CONTINUOUS
 10
256.0
 20
171.2848107156
 11
250.0
 21
171.2848107156
  0
LINE
  5
2B1
100
AcDbEntity
  8
1
100
AcDbLine
 62
8
  6
HIDDEN
 10
252.3112395693
 20
171.4975
 11
242.2
 21
171.4975
  0
LINE
  5
2B2
100
AcDbEntity
  8
1
100
AcDbLine
 62
6
  6
CONTINUOUS
 10
242.2
 20
171.4975
 11
237.6492135624
 21
171.4975
  0
LINE
  5
2B3
100
AcDbEntity
  8
1
100
AcDbLine
 62
6
  6
CONTINUOUS
 10
256.0
 20
172.8180436803
 11
250.0
 21
172.8180436803
  0
LINE
  5
2B4
100
AcDbEntity
  8
1
100
AcDbLine
 62
6
  6
CONTINUOUS
 10
234.3432864376
 20
173.975
 11
221.3229545616
 21
173.975
  0
LINE
  5
2B5
100
AcDbEntity
  8
1
100
AcDbLine
 62
6
  6
CONTINUOUS
 10
256.0
 20
174.0
 11
243.45
 21
174.0
  0
LINE
  5
2B6
100
AcDbEntity
  8
1
100
AcDbLine
 62
6
  6
CONTINUOUS
 10
189.5103176668
 20
194.8535820416
 11
189.5103176668
 21
125.1464179584
  0
LINE
  5
2B7
100
AcDbEntity
  8
DEFAULT_1
100
AcDbLine
 62
7
  6
CENTER
 10
190.0
 20
107.15
 11
190.0
 21
212.7375
  0
LINE
  5
2B8
100
AcDbEntity
  8
1
100
AcDbLine
 62
6
  6
CONTINUOUS
 10
190.55
 20
194.575
 11
190.55
 21
125.425
  0
LINE
  5
2B9
100
AcDbEntity
  8
1
100
AcDbLine
 62
9
  6
CONTINUOUS
 10
192.2
 20
194.575
 11
192.2
 21
125.425
  0
LINE
  5
2BA
100
AcDbEntity
  8
1
100
AcDbLine
 62
9
  6
CONTINUOUS
 10
193.2
 20
112.2625063534
 11
193.2
 21
122.7461893728
  0
LINE
  5
2BB
100
AcDbEntity
  8
1
100
AcDbLine
 62
6
  6
CONTINUOUS
 10
193.2
 20
122.7461893728
 11
193.2
 21
130.15
  0
LINE
  5
2BC
100
AcDbEntity
  8
1
100
AcDbLine
 62
9
  6
CONTINUOUS
 10
193.2
 20
130.15
 11
193.2
 21
207.7374703509
  0
LINE
  5
2BD
100
AcDbEntity
  8
1
100
AcDbLine
 62
9
  6
CONTINUOUS
 10
194.2
 20
208.7375
 11
194.2
 21
130.15
  0
LINE
  5
2BE
100
AcDbEntity
  8
1
100
AcDbLine
 62
9
  6
CONTINUOUS
 10
194.2
 20
121.4731080121
 11
194.2
 21
111.2625
  0
LINE
  5
2BF
100
AcDbEntity
  8
1
100
AcDbLine
 62
6
  6
CONTINUOUS
 10
197.9346216142
 20
111.2625
 11
197.9346216142
 21
121.4731080121
  0
LINE
  5
2C0
100
AcDbEntity
  8
1
100
AcDbLine
 62
6
  6
CONTINUOUS
 10
197.9346216142
 20
130.15
 11
197.9346216142
 21
208.7375
  0
LINE
  5
2C1
100
AcDbEntity
  8
1
100
AcDbLine
 62
6
  6
CONTINUOUS
 10
199.2625
 20
206.4375141569
 11
199.2625
 21
130.15
  0
LINE
  5
2C2
100
AcDbEntity
  8
1
100
AcDbLine
 62
6
  6
CONTINUOUS
 10
199.2625
 20
113.5624827695
 11
199.2625
 21
124.6723904007
  0
LINE
  5
2C3
100
AcDbEntity
  8
1
100
AcDbLine
 62
9
  6
CONTINUOUS
 10
200.0125
 20
114.5
 11
200.0125
 21
125.6601179385
  0
LINE
  5
2C4
100
AcDbEntity
  8
1
100
AcDbLine
 62
9
  6
CONTINUOUS
 10
200.0125
 20
130.15
 11
200.0125
 21
205.5
  0
LINE
  5
2C5
100
AcDbEntity
  8
1
100
AcDbLine
 62
9
  6
CONTINUOUS
 10
202.3375
 20
114.5
 11
202.3375
 21
125.6601179385
  0
LINE
  5
2C6
100
AcDbEntity
  8
1
100
AcDbLine
 62
9
  6
CONTINUOUS
 10
202.3375
 20
130.15
 11
202.3375
 21
205.5
  0
LINE
  5
2C7
100
AcDbEntity
  8
1
100
AcDbLine
 62
6
  6
CONTINUOUS
 10
203.0875
 20
113.5624827695
 11
203.0875
 21
124.6723904007
  0
LINE
  5
2C8
100
AcDbEntity
  8
1
100
AcDbLine
 62
6
  6
CONTINUOUS
 10
203.0875
 20
130.15
 11
203.0875
 21
206.4375141569
  0
LINE
  5
2C9
100
AcDbEntity
  8
1
100
AcDbLine
 62
6
  6
CONTINUOUS
 10
204.4153783858
 20
208.7375
 11
204.4153783858
 21
130.15
  0
LINE
  5
2CA
100
AcDbEntity
  8
1
100
AcDbLine
 62
6
  6
CONTINUOUS
 10
204.4153783858
 20
121.4731080121
 11
204.4153783858
 21
111.2625
  0
LINE
  5
2CB
100
AcDbEntity
  8
1
100
AcDbLine
 62
9
  6
CONTINUOUS
 10
208.05
 20
111.2625
 11
208.05
 21
121.4731080121
  0
LINE
  5
2CC
100
AcDbEntity
  8
1
100
AcDbLine
 62
9
  6
CONTINUOUS
 10
208.05
 20
130.15
 11
208.05
 21
208.7375
  0
LINE
  5
2CD
100
AcDbEntity
  8
1
100
AcDbLine
 62
9
  6
CONTINUOUS
 10
209.05
 20
207.7374703509
 11
209.05
 21
130.15
  0
LINE
  5
2CE
100
AcDbEntity
  8
1
100
AcDbLine
 62
9
  6
CONTINUOUS
 10
209.05
 20
122.7461893728
 11
209.05
 21
112.2625063534
  0
LINE
  5
2CF
100
AcDbEntity
  8
1
100
AcDbLine
 62
6
  6
CONTINUOUS
 10
209.05
 20
122.7461893728
 11
209.05
 21
130.15
  0
LINE
  5
2D0
100
AcDbEntity
  8
1
100
AcDbLine
 62
9
  6
CONTINUOUS
 10
209.1761667783
 20
194.7482561109
 11
209.1761667783
 21
125.2517438891
  0
LINE
  5
2D1
100
AcDbEntity
  8
1
100
AcDbLine
 62
6
  6
CONTINUOUS
 10
189.5103176668
 20
194.8535820416
 11
90.3252829944
 21
180.3878923444
  0
LINE
  5
2D2
100
AcDbEntity
  8
1
100
AcDbLine
 62
6
  6
CONTINUOUS
 10
192.2
 20
194.575
 11
190.55
 21
194.575
  0
LINE
  5
2D3
100
AcDbEntity
  8
1
100
AcDbLine
 62
6
  6
CONTINUOUS
 10
190.55
 20
194.575
 11
189.5103176668
 21
194.8535820416
  0
LINE
  5
2D4
100
AcDbEntity
  8
1
100
AcDbLine
 62
9
  6
CONTINUOUS
 10
220.4491213398
 20
174.4887742288
 11
220.4491213398
 21
145.5112257712
  0
LINE
  5
2D5
100
AcDbEntity
  8
1
100
AcDbLine
 62
9
  6
CONTINUOUS
 10
221.3229545616
 20
173.975
 11
221.3229545616
 21
146.025
  0
LINE
  5
2D6
100
AcDbEntity
  8
1
100
AcDbLine
 62
6
  6
CONTINUOUS
 10
220.4491213398
 20
145.5112257712
 11
209.1761667783
 21
125.2517438891
  0
LINE
  5
2D7
100
AcDbEntity
  8
1
100
AcDbLine
 62
6
  6
CONTINUOUS
 10
197.9346216142
 20
111.2625
 11
199.2625
 21
113.5624528305
  0
LINE
  5
2D8
100
AcDbEntity
  8
1
100
AcDbLine
 62
6
  6
CONTINUOUS
 10
200.0125
 20
205.5
 11
202.3375
 21
205.5
  0
LINE
  5
2D9
100
AcDbEntity
  8
1
100
AcDbLine
 62
6
  6
CONTINUOUS
 10
197.9346216142
 20
208.7375
 11
199.2625
 21
206.4375471695
  0
LINE
  5
2DA
100
AcDbEntity
  8
1
100
AcDbLine
 62
6
  6
CONTINUOUS
 10
220.4491213398
 20
174.4887742288
 11
209.1761667783
 21
194.7482561109
  0
LINE
  5
2DB
100
AcDbEntity
  8
1
100
AcDbLine
 62
8
  6
HIDDEN
 10
227.735
 20
166.035
 11
227.735
 21
153.965
  0
LINE
  5
2DC
100
AcDbEntity
  8
1
100
AcDbLine
 62
6
  6
CONTINUOUS
 10
236.9421067812
 20
148.2096067812
 11
235.0503932188
 21
146.3178932188
  0
LINE
  5
2DD
100
AcDbEntity
  8
1
100
AcDbLine
 62
6
  6
CONTINUOUS
 10
194.2
 20
208.7375
 11
197.9346216142
 21
208.7375
  0
LINE
  5
2DE
100
AcDbEntity
  8
1
100
AcDbLine
 62
6
  6
CONTINUOUS
 10
204.4153783858
 20
208.7375
 11
208.05
 21
208.7375
  0
LINE
  5
2DF
100
AcDbEntity
  8
1
100
AcDbLine
 62
6
  6
CONTINUOUS
 10
236.9421067812
 20
171.7903932188
 11
235.0503932188
 21
173.6821067812
  0
LINE
  5
2E0
100
AcDbEntity
  8
1
100
AcDbLine
 62
9
  6
CONTINUOUS
 10
234.3432864376
 20
173.975
 11
234.3432864376
 21
146.025
  0
LINE
  5
2E1
100
AcDbEntity
  8
1
100
AcDbLine
 62
9
  6
CONTINUOUS
 10
235.0503932188
 20
173.6821067812
 11
235.0503932188
 21
146.3178932188
  0
LINE
  5
2E2
100
AcDbEntity
  8
1
100
AcDbLine
 62
9
  6
CONTINUOUS
 10
236.9421067812
 20
171.7903932188
 11
236.9421067812
 21
148.2096067812
  0
LINE
  5
2E3
100
AcDbEntity
  8
1
100
AcDbLine
 62
9
  6
CONTINUOUS
 10
237.6492135624
 20
171.4975
 11
237.6492135624
 21
148.5025
  0
LINE
  5
2E4
100
AcDbEntity
  8
1
100
AcDbLine
 62
8
  6
HIDDEN
 10
239.2532984955
 20
166.035
 11
239.2532984955
 21
153.965
  0
LINE
  5
2E5
100
AcDbEntity
  8
1
100
AcDbLine
 62
6
  6
CONTINUOUS
 10
242.2
 20
172.73
 11
242.2
 21
147.25
  0
LINE
  5
2E6
100
AcDbEntity
  8
1
100
AcDbLine
 62
9
  6
CONTINUOUS
 10
243.45
 20
174.0
 11
243.45
 21
146.0
  0
LINE
  5
2E7
100
AcDbEntity
  8
1
100
AcDbLine
 62
9
  6
CONTINUOUS
 10
250.0
 20
172.8180436803
 11
250.0
 21
171.2848107156
  0
LINE
  5
2E8
100
AcDbEntity
  8
1
100
AcDbLine
 62
9
  6
CONTINUOUS
 10
250.0
 20
161.5332329647
 11
250.0
 21
158.4667670353
  0
LINE
  5
2E9
100
AcDbEntity
  8
1
100
AcDbLine
 62
9
  6
CONTINUOUS
 10
250.0
 20
148.7151892844
 11
250.0
 21
147.1819563197
  0
LINE
  5
2EA
100
AcDbEntity
  8
1
100
AcDbLine
 62
8
  6
HIDDEN
 10
253.235
 20
150.1025
 11
252.3112395693
 21
148.5025
  0
LINE
  5
2EB
100
AcDbEntity
  8
1
100
AcDbLine
 62
8
  6
HIDDEN
 10
253.235
 20
169.8975
 11
252.3112395693
 21
171.4975
  0
LINE
  5
2EC
100
AcDbEntity
  8
1
100
AcDbLine
 62
8
  6
HIDDEN
 10
252.3112395693
 20
171.4975
 11
252.3112395693
 21
148.5025
  0
LINE
  5
2ED
100
AcDbEntity
  8
1
100
AcDbLine
 62
8
  6
HIDDEN
 10
253.235
 20
169.8975
 11
253.235
 21
150.1025
  0
LINE
  5
2EE
100
AcDbEntity
  8
1
100
AcDbLine
 62
9
  6
CONTINUOUS
 10
256.0
 20
174.0
 11
256.0
 21
172.8180436803
  0
LINE
  5
2EF
100
AcDbEntity
  8
1
100
AcDbLine
 62
9
  6
CONTINUOUS
 10
256.0
 20
171.2848107156
 11
256.0
 21
161.5332329647
  0
LINE
  5
2F0
100
AcDbEntity
  8
1
100
AcDbLine
 62
9
  6
CONTINUOUS
 10
256.0
 20
158.4667670353
 11
256.0
 21
148.7151892844
  0
LINE
  5
2F1
100
AcDbEntity
  8
1
100
AcDbLine
 62
9
  6
CONTINUOUS
 10
256.0
 20
147.1819563197
 11
256.0
 21
146.0
  0
LINE
  5
2F2
100
AcDbEntity
  8
1
100
AcDbLine
 62
9
  6
CONTINUOUS
 10
260.0
 20
170.0
 11
260.0
 21
150.0
  0
ARC
  5
2F3
100
AcDbEntity
  8
1
100
AcDbCircle
 62
6
  6
CONTINUOUS
 10
90.65
 20
141.8385529988
 40
2.25
100
AcDbArc
 50
180.0
 51
261.7021731718
  0
ARC
  5
2F4
100
AcDbEntity
  8
1
100
AcDbCircle
 62
6
  6
CONTINUOUS
 10
192.2
 20
124.425
 40
1.0
100
AcDbArc
 50
0.0
 51
90.0
  0
ARC
  5
2F5
100
AcDbEntity
  8
1
100
AcDbCircle
 62
6
  6
CONTINUOUS
 10
194.2
 20
112.2625
 40
1.0
100
AcDbArc
 50
180.0
 51
270.0
  0
ARC
  5
2F6
100
AcDbEntity
  8
1
100
AcDbCircle
 62
6
  6
CONTINUOUS
 10
200.0125
 20
113.75
 40
0.75
100
AcDbArc
 50
90.0
 51
174.375
  0
ARC
  5
2F7
100
AcDbEntity
  8
1
100
AcDbCircle
 62
6
  6
CONTINUOUS
 10
-52.7913761792
 20
235.9506939781
 40
275.6240984713
100
AcDbArc
 50
335.4592993178
 51
336.1325788933
  0
ARC
  5
2F8
100
AcDbEntity
  8
1
100
AcDbCircle
 62
6
  6
CONTINUOUS
 10
90.65
 20
178.1614470012
 40
2.25
100
AcDbArc
 50
98.2978268282
 51
180.0
  0
ARC
  5
2F9
100
AcDbEntity
  8
1
100
AcDbCircle
 62
6
  6
CONTINUOUS
 10
192.2
 20
195.575
 40
1.0
100
AcDbArc
 50
270.0
 51
360.0
  0
ARC
  5
2FA
100
AcDbEntity
  8
1
100
AcDbCircle
 62
6
  6
CONTINUOUS
 10
194.2
 20
207.7375
 40
1.0
100
AcDbArc
 50
90.0
 51
180.0
  0
ARC
  5
2FB
100
AcDbEntity
  8
1
100
AcDbCircle
 62
6
  6
CONTINUOUS
 10
200.0125
 20
206.25
 40
0.75
100
AcDbArc
 50
185.625
 51
270.0
  0
ARC
  5
2FC
100
AcDbEntity
  8
1
100
AcDbCircle
 62
6
  6
CONTINUOUS
 10
210.05
 20
124.7655181178
 40
1.0
100
AcDbArc
 50
150.9071871418
 51
180.0
  0
ARC
  5
2FD
100
AcDbEntity
  8
1
100
AcDbCircle
 62
6
  6
CONTINUOUS
 10
208.05
 20
112.2625
 40
1.0
100
AcDbArc
 50
270.0
 51
360.0
  0
ARC
  5
2FE
100
AcDbEntity
  8
1
100
AcDbCircle
 62
6
  6
CONTINUOUS
 10
202.3375
 20
113.75
 40
0.75
100
AcDbArc
 50
5.625
 51
90.0
  0
ARC
  5
2FF
100
AcDbEntity
  8
1
100
AcDbCircle
 62
6
  6
CONTINUOUS
 10
221.3229545616
 20
145.025
 40
1.0
100
AcDbArc
 50
90.0
 51
150.9071871418
  0
ARC
  5
300
100
AcDbEntity
  8
1
100
AcDbCircle
 62
6
  6
CONTINUOUS
 10
234.3432864376
 20
147.025
 40
1.0
100
AcDbArc
 50
270.0
 51
315.0
  0
ARC
  5
301
100
AcDbEntity
  8
1
100
AcDbCircle
 62
6
  6
CONTINUOUS
 10
237.6492135624
 20
147.5025
 40
1.0
100
AcDbArc
 50
90.0
 51
135.0
  0
ARC
  5
302
100
AcDbEntity
  8
1
100
AcDbCircle
 62
6
  6
CONTINUOUS
 10
243.45
 20
147.25
 40
1.25
100
AcDbArc
 50
180.0
 51
270.0
  0
ARC
  5
303
100
AcDbEntity
  8
1
100
AcDbCircle
 62
6
  6
CONTINUOUS
 10
237.6492135624
 20
172.4975
 40
1.0
100
AcDbArc
 50
225.0
 51
270.0
  0
ARC
  5
304
100
AcDbEntity
  8
1
100
AcDbCircle
 62
6
  6
CONTINUOUS
 10
234.3432864376
 20
172.975
 40
1.0
100
AcDbArc
 50
45.0
 51
90.0
  0
ARC
  5
305
100
AcDbEntity
  8
1
100
AcDbCircle
 62
6
  6
CONTINUOUS
 10
243.5869708393
 20
172.7207564799
 40
1.387507506
100
AcDbArc
 50
158.0547714479
 51
163.0312516963
  0
ARC
  5
306
100
AcDbEntity
  8
1
100
AcDbCircle
 62
6
  6
CONTINUOUS
 10
243.45
 20
172.75
 40
1.25
100
AcDbArc
 50
90.0
 51
156.6321188674
  0
ARC
  5
307
100
AcDbEntity
  8
1
100
AcDbCircle
 62
6
  6
CONTINUOUS
 10
256.0
 20
150.0
 40
4.0
100
AcDbArc
 50
270.0
 51
360.0
  0
ARC
  5
308
100
AcDbEntity
  8
1
100
AcDbCircle
 62
6
  6
CONTINUOUS
 10
256.0
 20
170.0
 40
4.0
100
AcDbArc
 50
0.0
 51
90.0
  0
ARC
  5
309
100
AcDbEntity
  8
1
100
AcDbCircle
 62
6
  6
CONTINUOUS
 10
455.1413761776
 20
235.9506939774
 40
275.6240984695
100
AcDbArc
 50
203.8674211067
 51
204.5407006822
  0
ARC
  5
30A
100
AcDbEntity
  8
1
100
AcDbCircle
 62
6
  6
CONTINUOUS
 10
221.3229545616
 20
174.975
 40
1.0
100
AcDbArc
 50
209.0928128582
 51
270.0
  0
ARC
  5
30B
100
AcDbEntity
  8
1
100
AcDbCircle
 62
6
  6
CONTINUOUS
 10
210.05
 20
195.2344818822
 40
1.0
100
AcDbArc
 50
180.0
 51
209.0928128582
  0
ARC
  5
30C
100
AcDbEntity
  8
1
100
AcDbCircle
 62
6
  6
CONTINUOUS
 10
208.05
 20
207.7375
 40
1.0
100
AcDbArc
 50
0.0
 51
90.0
  0
ARC
  5
30D
100
AcDbEntity
  8
1
100
AcDbCircle
 62
6
  6
CONTINUOUS
 10
202.3375
 20
206.25
 40
0.75
100
AcDbArc
 50
270.0
 51
354.375
  0
SPLINE
  5
30E
100
AcDbEntity
  8
1
100
AcDbSpline
 62
6
  6
CONTINUOUS
 70
0
 71
3
 72
10
 73
6
 74
0
 42
0.0000001
 43
0.0000001
 44
0.0000000001
 40
0.0
 40
0.0
 40
0.0
 40
0.0
 40
0.2096450541
 40
0.4533742123
 40
1.0
 40
1.0
 40
1.0
 40
1.0
 10
248.5851525543
 20
148.2499313883
 30
0.0
 10
248.6606062841
 20
148.3245212844
 30
0.0
 10
248.8506597492
 20
148.4587218585
 30
0.0
 10
249.3180517916
 20
148.6576759087
 30
0.0
 10
249.7233598283
 20
148.7151892844
 30
0.0
 10
250.0
 20
148.7151892844
 30
0.0
  0
SPLINE
  5
30F
100
AcDbEntity
  8
1
100
AcDbSpline
 62
6
  6
CONTINUOUS
 70
0
 71
3
 72
9
 73
5
 74
0
 42
0.0000001
 43
0.0000001
 44
0.0000000001
 40
0.0
 40
0.0
 40
0.0
 40
0.0
 40
0.1262225215
 40
1.0
 40
1.0
 40
1.0
 40
1.0
 10
242.3
 20
173.2392959075
 30
0.0
 10
242.2918354178
 20
173.2189956844
 30
0.0
 10
242.2307903606
 20
173.0568432407
 30
0.0
 10
242.2
 20
172.8814686239
 30
0.0
 10
242.2
 20
172.73
 30
0.0
  0
SPLINE
  5
310
100
AcDbEntity
  8
1
100
AcDbSpline
 62
6
  6
CONTINUOUS
 70
0
 71
3
 72
9
 73
5
 74
0
 42
0.0000001
 43
0.0000001
 44
0.0000000001
 40
0.0
 40
0.0
 40
0.0
 40
0.0
 40
0.3482433145
 40
1.0
 40
1.0
 40
1.0
 40
1.0
 10
242.3011819985
 20
173.2480328242
 30
0.0
 10
242.3013179915
 20
173.2476041713
 30
0.0
 10
242.3017088279
 20
173.2463443793
 30
0.0
 10
242.3019409397
 20
173.2450323608
 30
0.0
 10
242.3018978659
 20
173.2441794952
 30
0.0
  0
SPLINE
  5
311
100
AcDbEntity
  8
1
100
AcDbSpline
 62
6
  6
CONTINUOUS
 70
0
 71
3
 72
8
 73
4
 74
0
 42
0.0000001
 43
0.0000001
 44
0.0000000001
 40
0.0
 40
0.0
 40
0.0
 40
0.0
 40
1.0
 40
1.0
 40
1.0
 40
1.0
 10
242.3018978659
 20
173.2441794952
 30
0.0
 10
242.3018097733
 20
173.2424352513
 30
0.0
 10
242.3006298494
 20
173.2409248448
 30
0.0
 10
242.3
 20
173.2392959075
 30
0.0
  0
SPLINE
  5
312
100
AcDbEntity
  8
1
100
AcDbSpline
 62
6
  6
CONTINUOUS
 70
0
 71
3
 72
11
 73
7
 74
0
 42
0.0000001
 43
0.0000001
 44
0.0000000001
 40
0.0
 40
0.0
 40
0.0
 40
0.0
 40
0.2703647083
 40
0.5343990194
 40
0.7825736202
 40
1.0
 40
1.0
 40
1.0
 40
1.0
 10
256.0
 20
148.7151892844
 30
0.0
 10
256.1735798279
 20
148.7151892844
 30
0.0
 10
256.5167249529
 20
148.7246147167
 30
0.0
 10
257.0178953971
 20
148.762690368
 30
0.0
 10
257.4836462103
 20
148.8106686081
 30
0.0
 10
257.7820326101
 20
148.8359938025
 30
0.0
 10
257.9216242573
 20
148.8364232777
 30
0.0
  0
SPLINE
  5
313
100
AcDbEntity
  8
1
100
AcDbSpline
 62
6
  6
CONTINUOUS
 70
0
 71
3
 72
11
 73
7
 74
0
 42
0.0000001
 43
0.0000001
 44
0.0000000001
 40
0.0
 40
0.0
 40
0.0
 40
0.0
 40
0.2174406445
 40
0.4656168556
 40
0.7296413654
 40
1.0
 40
1.0
 40
1.0
 40
1.0
 10
257.9214034527
 20
171.1635733324
 30
0.0
 10
257.7818186491
 20
171.1640181835
 30
0.0
 10
257.483458083
 20
171.189351198
 30
0.0
 10
257.0177561427
 20
171.2373239752
 30
0.0
 10
256.5166519074
 20
171.275391243
 30
0.0
 10
256.1735560922
 20
171.2848107156
 30
0.0
 10
256.0
 20
171.2848107156
 30
0.0
  0
SPLINE
  5
314
100
AcDbEntity
  8
1
100
AcDbSpline
 62
6
  6
CONTINUOUS
 70
0
 71
3
 72
10
 73
6
 74
0
 42
0.0000001
 43
0.0000001
 44
0.0000000001
 40
0.0
 40
0.0
 40
0.0
 40
0.0
 40
0.5466320984
 40
0.7903580968
 40
1.0
 40
1.0
 40
1.0
 40
1.0
 10
250.0
 20
171.2848107156
 30
0.0
 10
249.72335134
 20
171.2848107156
 30
0.0
 10
249.3180329462
 20
171.3423259934
 30
0.0
 10
248.8506355715
 20
171.5412918414
 30
0.0
 10
248.6605827563
 20
171.6754962768
 30
0.0
 10
248.585131579
 20
171.750089375
 30
0.0
  0
SPLINE
  5
315
100
AcDbEntity
  8
1
100
AcDbSpline
 62
6
  6
CONTINUOUS
 70
0
 71
3
 72
15
 73
11
 74
0
 42
0.0000001
 43
0.0000001
 44
0.0000000001
 40
0.0
 40
0.0
 40
0.0
 40
0.0
 40
0.1253148805
 40
0.2503387171
 40
0.3751797661
 40
0.4999973332
 40
0.6248149301
 40
0.7496575949
 40
0.8746840308
 40
1.0
 40
1.0
 40
1.0
 40
1.0
 10
250.0
 20
158.4667670353
 30
0.0
 10
249.7956744092
 20
158.4667670353
 30
0.0
 10
249.3834338795
 20
158.5428332749
 30
0.0
 10
248.8522875668
 20
158.8745695061
 30
0.0
 10
248.4870481508
 20
159.3851464202
 30
0.0
 10
248.35651032
 20
159.9999863163
 30
0.0
 10
248.4870383034
 20
160.6148308008
 30
0.0
 10
248.8522736152
 20
161.125420087
 30
0.0
 10
249.3834261431
 20
161.4571645941
 30
0.0
 10
249.7956726341
 20
161.5332329647
 30
0.0
 10
250.0
 20
161.5332329647
 30
0.0
  0
SPLINE
  5
316
100
AcDbEntity
  8
1
100
AcDbSpline
 62
6
  6
CONTINUOUS
 70
0
 71
3
 72
17
 73
13
 74
0
 42
0.0000001
 43
0.0000001
 44
0.0000000001
 40
0.0
 40
0.0
 40
0.0
 40
0.0
 40
0.1726063824
 40
0.3370401314
 40
0.4851283688
 40
0.6114998342
 40
0.7148732937
 40
0.760174423
 40
0.8034817078
 40
0.8472031956
 40
0.8936122323
 40
1.0
 40
1.0
 40
1.0
 40
1.0
 10
250.0
 20
147.1819563197
 30
0.0
 10
249.8671960473
 20
147.1819563197
 30
0.0
 10
249.6076840397
 20
147.1943170561
 30
0.0
 10
249.2378578058
 20
147.249831068
 30
0.0
 10
248.9117545702
 20
147.3425303702
 30
0.0
 10
248.6487127623
 20
147.4703601784
 30
0.0
 10
248.4873943922
 20
147.6158075666
 30
0.0
 10
248.418066226
 20
147.7480224222
 30
0.0
 10
248.3962385278
 20
147.8488189817
 30
0.0
 10
248.4032691704
 20
147.9525519186
 30
0.0
 10
248.4523007619
 20
148.0969839471
 30
0.0
 10
248.5269399793
 20
148.1923852613
 30
0.0
 10
248.5851525543
 20
148.2499313883
 30
0.0
  0
SPLINE
  5
317
100
AcDbEntity
  8
1
100
AcDbSpline
 62
6
  6
CONTINUOUS
 70
0
 71
3
 72
17
 73
13
 74
0
 42
0.0000001
 43
0.0000001
 44
0.0000000001
 40
0.0
 40
0.0
 40
0.0
 40
0.0
 40
0.1063870162
 40
0.1527956035
 40
0.1965170604
 40
0.2398252946
 40
0.2851278816
 40
0.3885038255
 40
0.5148767323
 40
0.6629656679
 40
0.8273951315
 40
1.0
 40
1.0
 40
1.0
 40
1.0
 10
248.585131579
 20
171.750089375
 30
0.0
 10
248.5269223684
 20
171.8076365932
 30
0.0
 10
248.4522879203
 20
171.9030385281
 30
0.0
 10
248.4032639856
 20
172.0474704523
 30
0.0
 10
248.3962409617
 20
172.1512028255
 30
0.0
 10
248.418073048
 20
172.2519989923
 30
0.0
 10
248.4874117264
 20
172.3842105504
 30
0.0
 10
248.6487344205
 20
172.5296534046
 30
0.0
 10
248.9117787898
 20
172.6574780806
 30
0.0
 10
249.2378769714
 20
172.7501721497
 30
0.0
 10
249.6076946343
 20
172.805684485
 30
0.0
 10
249.8671989109
 20
172.8180436803
 30
0.0
 10
250.0
 20
172.8180436803
 30
0.0
  0
SPLINE
  5
318
100
AcDbEntity
  8
1
100
AcDbSpline
 62
6
  6
CONTINUOUS
 70
0
 71
3
 72
20
 73
16
 74
0
 42
0.0000001
 43
0.0000001
 44
0.0000000001
 40
0.0
 40
0.0
 40
0.0
 40
0.0
 40
0.1554601844
 40
0.3107188024
 40
0.4645480142
 40
0.6127977136
 40
0.6815372414
 40
0.7434831487
 40
0.7957625645
 40
0.8371879949
 40
0.854690518
 40
0.8712340831
 40
0.9058444421
 40
0.9482963032
 40
1.0
 40
1.0
 40
1.0
 40
1.0
 10
256.0
 20
172.8180436803
 30
0.0
 10
256.1856361498
 20
172.8180436803
 30
0.0
 10
256.5573945417
 20
172.7874594091
 30
0.0
 10
257.0974495601
 20
172.6492710731
 30
0.0
 10
257.5962748937
 20
172.4194800517
 30
0.0
 10
257.9566315036
 20
172.1550774113
 30
0.0
 10
258.1847354227
 20
171.9112254311
 30
0.0
 10
258.3100026075
 20
171.7308858848
 30
0.0
 10
258.3868850454
 20
171.5606242338
 30
0.0
 10
258.4070728199
 20
171.4255140946
 30
0.0
 10
258.3862380256
 20
171.3367420656
 30
0.0
 10
258.345068103
 20
171.2643053094
 30
0.0
 10
258.2474976952
 20
171.1997187346
 30
0.0
 10
258.095780698
 20
171.1676915785
 30
0.0
 10
257.9831429038
 20
171.1633765712
 30
0.0
 10
257.9214034527
 20
171.1635733324
 30
0.0
  0
SPLINE
  5
319
100
AcDbEntity
  8
1
100
AcDbSpline
 62
6
  6
CONTINUOUS
 70
0
 71
3
 72
21
 73
17
 74
0
 42
0.0000001
 43
0.0000001
 44
0.0000000001
 40
0.0
 40
0.0
 40
0.0
 40
0.0
 40
0.128138205
 40
0.1909468519
 40
0.2525130726
 40
0.3130996633
 40
0.3737404126
 40
0.4359434463
 40
0.5000028606
 40
0.5640567943
 40
0.626257617
 40
0.6868978265
 40
0.7474839212
 40
0.8090506923
 40
0.871860356
 40
1.0
 40
1.0
 40
1.0
 40
1.0
 10
256.0
 20
161.5332329647
 30
0.0
 10
256.2711510674
 20
161.5332329647
 30
0.0
 10
256.6768320997
 20
161.5033361357
 30
0.0
 10
257.1987603535
 20
161.3843127336
 30
0.0
 10
257.5666279736
 20
161.2459184327
 30
0.0
 10
257.8997197258
 20
161.0434557016
 30
0.0
 10
258.1749153779
 20
160.7625648932
 30
0.0
 10
258.3578298846
 20
160.4044828102
 30
0.0
 10
258.421396321
 20
159.9999924051
 30
0.0
 10
258.3578236876
 20
159.5955097811
 30
0.0
 10
258.1749222852
 20
159.2374412375
 30
0.0
 10
257.8997322205
 20
158.9565538802
 30
0.0
 10
257.5666422618
 20
158.7540913111
 30
0.0
 10
257.1987757146
 20
158.6156871534
 30
0.0
 10
256.6768395969
 20
158.496667977
 30
0.0
 10
256.2711541124
 20
158.4667670353
 30
0.0
 10
256.0
 20
158.4667670353
 30
0.0
  0
SPLINE
  5
31A
100
AcDbEntity
  8
1
100
AcDbSpline
 62
6
  6
CONTINUOUS
 70
0
 71
3
 72
20
 73
16
 74
0
 42
0.0000001
 43
0.0000001
 44
0.0000000001
 40
0.0
 40
0.0
 40
0.0
 40
0.0
 40
0.0516981422
 40
0.0941392164
 40
0.1287438992
 40
0.1452879405
 40
0.1627948209
 40
0.2042287562
 40
0.2565185099
 40
0.3184695662
 40
0.3872134051
 40
0.535461032
 40
0.6892873713
 40
0.844541363
 40
1.0
 40
1.0
 40
1.0
 40
1.0
 10
257.9216242573
 20
148.8364232777
 30
0.0
 10
257.9833533632
 20
148.8366131968
 30
0.0
 10
258.0959679522
 20
148.8323023118
 30
0.0
 10
258.2476333815
 20
148.8002123489
 30
0.0
 10
258.3451669309
 20
148.7356117677
 30
0.0
 10
258.3862848091
 20
148.6631500347
 30
0.0
 10
258.4070649888
 20
148.5743562086
 30
0.0
 10
258.3868372087
 20
148.4392386677
 30
0.0
 10
258.3099290479
 20
148.2689677826
 30
0.0
 10
258.1846170067
 20
148.0886475736
 30
0.0
 10
257.9565179983
 20
147.8448085072
 30
0.0
 10
257.596156241
 20
147.5804564148
 30
0.0
 10
257.0973659435
 20
147.3507028797
 30
0.0
 10
256.5573513948
 20
147.212535741
 30
0.0
 10
256.1856230742
 20
147.1819563197
 30
0.0
 10
256.0
 20
147.1819563197
 30
0.0
  0
SPLINE
  5
31B
100
AcDbEntity
  8
1
100
AcDbSpline
 62
6
  6
CONTINUOUS
 70
0
 71
3
 72
13
 73
9
 74
0
 42
0.0000001
 43
0.0000001
 44
0.0000000001
 40
0.0
 40
0.0
 40
0.0
 40
0.0
 40
0.125076426
 40
0.2501769719
 40
0.3753210633
 40
0.5005091086
 40
0.7501257497
 40
1.0
 40
1.0
 40
1.0
 40
1.0
 10
194.2
 20
121.4731080121
 30
0.0
 10
194.1255007674
 20
121.4731080121
 30
0.0
 10
193.9756795757
 20
121.4946286919
 30
0.0
 10
193.769043781
 20
121.5860323812
 30
0.0
 10
193.5907906001
 20
121.7242989923
 30
0.0
 10
193.3977602048
 20
121.9533570807
 30
0.0
 10
193.2402655161
 20
122.2983303487
 30
0.0
 10
193.2
 20
122.5973568509
 30
0.0
 10
193.2
 20
122.7461893728
 30
0.0
  0
SPLINE
  5
31C
100
AcDbEntity
  8
1
100
AcDbSpline
 62
6
  6
CONTINUOUS
 70
0
 71
3
 72
13
 73
9
 74
0
 42
0.0000001
 43
0.0000001
 44
0.0000000001
 40
0.0
 40
0.0
 40
0.0
 40
0.0
 40
0.1249985708
 40
0.2500619323
 40
0.375209266
 40
0.5003969702
 40
0.7500667455
 40
1.0
 40
1.0
 40
1.0
 40
1.0
 10
200.0125
 20
125.6601179385
 30
0.0
 10
199.9555678133
 20
125.6601179385
 30
0.0
 10
199.8409888493
 20
125.642483534
 30
0.0
 10
199.6846923569
 20
125.5686505334
 30
0.0
 10
199.5515143584
 20
125.459038771
 30
0.0
 10
199.4085484773
 20
125.2801346276
 30
0.0
 10
199.2925540451
 20
125.0148021684
 30
0.0
 10
199.2625
 20
124.786225676
 30
0.0
 10
199.2625
 20
124.6723904007
 30
0.0
  0
SPLINE
  5
31D
100
AcDbEntity
  8
1
100
AcDbSpline
 62
6
  6
CONTINUOUS
 70
0
 71
3
 72
13
 73
9
 74
0
 42
0.0000001
 43
0.0000001
 44
0.0000000001
 40
0.0
 40
0.0
 40
0.0
 40
0.0
 40
0.2499336934
 40
0.4996031186
 40
0.6247907074
 40
0.7499374641
 40
0.8750011087
 40
1.0
 40
1.0
 40
1.0
 40
1.0
 10
203.0875
 20
124.6723904007
 30
0.0
 10
203.0875
 20
124.7862258769
 30
0.0
 10
203.0574459015
 20
125.0148024011
 30
0.0
 10
202.9414514546
 20
125.2801348814
 30
0.0
 10
202.7984856925
 20
125.4590384649
 30
0.0
 10
202.665308154
 20
125.5686505
 30
0.0
 10
202.509011523
 20
125.642483282
 30
0.0
 10
202.3944323332
 20
125.6601179385
 30
0.0
 10
202.3375
 20
125.6601179385
 30
0.0
  0
SPLINE
  5
31E
100
AcDbEntity
  8
1
100
AcDbSpline
 62
6
  6
CONTINUOUS
 70
0
 71
3
 72
13
 73
9
 74
0
 42
0.0000001
 43
0.0000001
 44
0.0000000001
 40
0.0
 40
0.0
 40
0.0
 40
0.0
 40
0.2498742351
 40
0.4994907786
 40
0.6246788022
 40
0.7498229559
 40
0.874923691
 40
1.0
 40
1.0
 40
1.0
 40
1.0
 10
209.05
 20
122.7461893728
 30
0.0
 10
209.05
 20
122.5973568603
 30
0.0
 10
209.0097344935
 20
122.2983304261
 30
0.0
 10
208.8522398713
 20
121.9533572274
 30
0.0
 10
208.6592095461
 20
121.7242991265
 30
0.0
 10
208.4809562741
 20
121.5860324046
 30
0.0
 10
208.2743203917
 20
121.4946287003
 30
0.0
 10
208.1244991628
 20
121.4731080121
 30
0.0
 10
208.05
 20
121.4731080121
 30
0.0
  0
ENDSEC
  0
SECTION
  2
OBJECTS
  0
DICTIONARY
  5
C
100
AcDbDictionary
280
0
281
1
  3
ACAD_GROUP
350
D
  3
ACAD_MLINESTYLE
350
17
  3
ACAD_LAYOUT
350
1A
  3
ACAD_PLOTSETTINGS
350
19
  3
ACAD_PLOTSTYLENAME
350
E
  0
DICTIONARY
  5
D
102
{ACAD_REACTORS
330
C
102
}
100
AcDbDictionary
280
0
281
1
  0
ACDBDICTIONARYWDFLT
  5
E
102
{ACAD_REACTORS
330
C
102
}
100
AcDbDictionary
281
1
  3
Normal
350
F
100
AcDbDictionaryWithDefault
340
F
  0
DICTIONARY
  5
17
102
{ACAD_REACTORS
330
C
102
}
100
AcDbDictionary
280
0
281
1
  3
Standard
350
18
  0
DICTIONARY
  5
19
102
{ACAD_REACTORS
330
C
102
}
100
AcDbDictionary
281
1
  0
DICTIONARY
  5
1A
102
{ACAD_REACTORS
330
C
102
}
100
AcDbDictionary
281
1
  3
Model
350
31F
  3
Layout1
350
320
  0
ACDBPLACEHOLDER
  5
F
102
{ACAD_REACTORS
330
E
102
}
  0
MLINESTYLE
  5
18
102
{ACAD_REACTORS
330
17
102
}
100
AcDbMlineStyle
  2
STANDARD
 70
0
  3

 62
256
 51
90.0
 52
90.0
 71
2
 49
0.5
 62
256
  6
BYLAYER
 49
-0.5
 62
256
  6
BYLAYER
  0
LAYOUT
  5
31F
102
{ACAD_REACTORS
330
1A
102
}
100
AcDbPlotSettings
  1

  2
none_device
  4
ISO_A3_(420.00_x_297.00_MM)
  6

 40
0.0
 41
0.0
 42
0.0
 43
0.0
 44
420.0
 45
297.0
 46
0.0
 47
0.0
 48
0.0
 49
0.0
140
0.0
141
0.0
142
1.0
143
1.0
 70
1024
 72
1
 73
0
 74
0
  7

 75
0
147
1.0
148
0.0
149
0.0
100
AcDbLayout
  1
Model
 70
0
 71
0
 10
0.0
 20
0.0
 11
420.0
 21
297.0
 12
0.0
 22
0.0
 32
0.0
 14
0.0
 24
0.0
 34
0.0
 15
0.0
 25
0.0
 35
0.0
146
0.0
 13
0.0
 23
0.0
 33
0.0
 16
1.0
 26
0.0
 36
0.0
 17
0.0
 27
1.0
 37
0.0
 76
0
330
23A
345
0
346
0
  0
LAYOUT
  5
320
102
{ACAD_REACTORS
330
1A
102
}
100
AcDbPlotSettings
  1

  2
none_device
  4
ISO_A3_(420.00_x_297.00_MM)
  6

 40
0.0
 41
0.0
 42
0.0
 43
0.0
 44
420.0
 45
297.0
 46
0.0
 47
0.0
 48
0.0
 49
0.0
140
0.0
141
0.0
142
1.0
143
1.0
 70
0
 72
1
 73
0
 74
0
  7

 75
0
147
1.0
148
0.0
149
0.0
100
AcDbLayout
  1
Layout1
 70
0
 71
1
 10
0.0
 20
0.0
 11
420.0
 21
297.0
 12
0.0
 22
0.0
 32
0.0
 14
0.0
 24
0.0
 34
0.0
 15
0.0
 25
0.0
 35
0.0
146
0.0
 13
0.0
 23
0.0
 33
0.0
 16
1.0
 26
0.0
 36
0.0
 17
0.0
 27
1.0
 37
0.0
 76
0
330
23B
345
0
346
0
  0
ENDSEC
  0
EOF
