  0
SECTION
  2
HEADER
  9
$ACADVER
  1
AC1015
  9
$ACADMAINTVER
 70
     6
  9
$DWGCODEPAGE
  3
ANSI_1252
  9
$INSBASE
 10
0.0
 20
0.0
 30
0.0
  9
$EXTMIN
 10
41.36563687882881
 20
333.9210018947
 30
0.0
  9
$EXTMAX
 10
351.366666509207
 20
473.231327352052
 30
0.0
  9
$LIMMIN
 10
0.0
 20
0.0
  9
$LIMMAX
 10
12.0
 20
9.0
  9
$ORTHOMODE
 70
     0
  9
$REGENMODE
 70
     1
  9
$FILLMODE
 70
     1
  9
$QTEXTMODE
 70
     0
  9
$MIRRTEXT
 70
     1
  9
$LTSCALE
 40
1.0
  9
$ATTMODE
 70
     1
  9
$TEXTSIZE
 40
0.2
  9
$TRACEWID
 40
0.05
  9
$TEXTSTYLE
  7
Standard
  9
$CLAYER
  8
0
  9
$CELTYPE
  6
ByLayer
  9
$CECOLOR
 62
   256
  9
$CELTSCALE
 40
1.0
  9
$DISPSILH
 70
     0
  9
$DIMSCALE
 40
1.0
  9
$DIMASZ
 40
0.18
  9
$DIMEXO
 40
0.0625
  9
$DIMDLI
 40
0.38
  9
$DIMRND
 40
0.0
  9
$DIMDLE
 40
0.0
  9
$DIMEXE
 40
0.18
  9
$DIMTP
 40
0.0
  9
$DIMTM
 40
0.0
  9
$DIMTXT
 40
0.18
  9
$DIMCEN
 40
0.09
  9
$DIMTSZ
 40
0.0
  9
$DIMTOL
 70
     0
  9
$DIMLIM
 70
     0
  9
$DIMTIH
 70
     1
  9
$DIMTOH
 70
     1
  9
$DIMSE1
 70
     0
  9
$DIMSE2
 70
     0
  9
$DIMTAD
 70
     0
  9
$DIMZIN
 70
     0
  9
$DIMBLK
  1

  9
$DIMASO
 70
     1
  9
$DIMSHO
 70
     1
  9
$DIMPOST
  1

  9
$DIMAPOST
  1

  9
$DIMALT
 70
     0
  9
$DIMALTD
 70
     2
  9
$DIMALTF
 40
25.4
  9
$DIMLFAC
 40
1.0
  9
$DIMTOFL
 70
     0
  9
$DIMTVP
 40
0.0
  9
$DIMTIX
 70
     0
  9
$DIMSOXD
 70
     0
  9
$DIMSAH
 70
     0
  9
$DIMBLK1
  1

  9
$DIMBLK2
  1

  9
$DIMSTYLE
  2
Standard
  9
$DIMCLRD
 70
     0
  9
$DIMCLRE
 70
     0
  9
$DIMCLRT
 70
     0
  9
$DIMTFAC
 40
1.0
  9
$DIMGAP
 40
0.09
  9
$DIMJUST
 70
     0
  9
$DIMSD1
 70
     0
  9
$DIMSD2
 70
     0
  9
$DIMTOLJ
 70
     1
  9
$DIMTZIN
 70
     0
  9
$DIMALTZ
 70
     0
  9
$DIMALTTZ
 70
     0
  9
$DIMUPT
 70
     0
  9
$DIMDEC
 70
     4
  9
$DIMTDEC
 70
     4
  9
$DIMALTU
 70
     2
  9
$DIMALTTD
 70
     2
  9
$DIMTXSTY
  7
Standard
  9
$DIMAUNIT
 70
     0
  9
$DIMADEC
 70
     0
  9
$DIMALTRND
 40
0.0
  9
$DIMAZIN
 70
     0
  9
$DIMDSEP
 70
    46
  9
$DIMATFIT
 70
     3
  9
$DIMFRAC
 70
     0
  9
$DIMLDRBLK
  1

  9
$DIMLUNIT
 70
     2
  9
$DIMLWD
 70
    -2
  9
$DIMLWE
 70
    -2
  9
$DIMTMOVE
 70
     0
  9
$LUNITS
 70
     2
  9
$LUPREC
 70
     4
  9
$SKETCHINC
 40
0.1
  9
$FILLETRAD
 40
0.5
  9
$AUNITS
 70
     0
  9
$AUPREC
 70
     0
  9
$MENU
  1
.
  9
$ELEVATION
 40
0.0
  9
$PELEVATION
 40
0.0
  9
$THICKNESS
 40
0.0
  9
$LIMCHECK
 70
     0
  9
$CHAMFERA
 40
0.5
  9
$CHAMFERB
 40
0.5
  9
$CHAMFERC
 40
1.0
  9
$CHAMFERD
 40
0.0
  9
$SKPOLY
 70
     0
  9
$TDCREATE
 40
2456821.36425257
  9
$TDUCREATE
 40
2456821.280919236
  9
$TDUPDATE
 40
2456821.364252581
  9
$TDUUPDATE
 40
2456821.280919248
  9
$TDINDWG
 40
0.0000000116
  9
$TDUSRTIMER
 40
0.0000000116
  9
$USRTIMER
 70
     1
  9
$ANGBASE
 50
0.0
  9
$ANGDIR
 70
     0
  9
$PDMODE
 70
     0
  9
$PDSIZE
 40
0.0
  9
$PLINEWID
 40
0.0
  9
$SPLFRAME
 70
     0
  9
$SPLINETYPE
 70
     6
  9
$SPLINESEGS
 70
     8
  9
$HANDSEED
  5
15D
  9
$SURFTAB1
 70
     6
  9
$SURFTAB2
 70
     6
  9
$SURFTYPE
 70
     6
  9
$SURFU
 70
     6
  9
$SURFV
 70
     6
  9
$UCSBASE
  2

  9
$UCSNAME
  2

  9
$UCSORG
 10
0.0
 20
0.0
 30
0.0
  9
$UCSXDIR
 10
1.0
 20
0.0
 30
0.0
  9
$UCSYDIR
 10
0.0
 20
1.0
 30
0.0
  9
$UCSORTHOREF
  2

  9
$UCSORTHOVIEW
 70
     0
  9
$UCSORGTOP
 10
0.0
 20
0.0
 30
0.0
  9
$UCSORGBOTTOM
 10
0.0
 20
0.0
 30
0.0
  9
$UCSORGLEFT
 10
0.0
 20
0.0
 30
0.0
  9
$UCSORGRIGHT
 10
0.0
 20
0.0
 30
0.0
  9
$UCSORGFRONT
 10
0.0
 20
0.0
 30
0.0
  9
$UCSORGBACK
 10
0.0
 20
0.0
 30
0.0
  9
$PUCSBASE
  2

  9
$PUCSNAME
  2

  9
$PUCSORG
 10
0.0
 20
0.0
 30
0.0
  9
$PUCSXDIR
 10
1.0
 20
0.0
 30
0.0
  9
$PUCSYDIR
 10
0.0
 20
1.0
 30
0.0
  9
$PUCSORTHOREF
  2

  9
$PUCSORTHOVIEW
 70
     0
  9
$PUCSORGTOP
 10
0.0
 20
0.0
 30
0.0
  9
$PUCSORGBOTTOM
 10
0.0
 20
0.0
 30
0.0
  9
$PUCSORGLEFT
 10
0.0
 20
0.0
 30
0.0
  9
$PUCSORGRIGHT
 10
0.0
 20
0.0
 30
0.0
  9
$PUCSORGFRONT
 10
0.0
 20
0.0
 30
0.0
  9
$PUCSORGBACK
 10
0.0
 20
0.0
 30
0.0
  9
$USERI1
 70
     0
  9
$USERI2
 70
     0
  9
$USERI3
 70
     0
  9
$USERI4
 70
     0
  9
$USERI5
 70
     0
  9
$USERR1
 40
16.5
  9
$USERR2
 40
0.0
  9
$USERR3
 40
0.0
  9
$USERR4
 40
0.0
  9
$USERR5
 40
0.0
  9
$WORLDVIEW
 70
     1
  9
$SHADEDGE
 70
     3
  9
$SHADEDIF
 70
    70
  9
$TILEMODE
 70
     1
  9
$MAXACTVP
 70
    64
  9
$PINSBASE
 10
0.0
 20
0.0
 30
0.0
  9
$PLIMCHECK
 70
     0
  9
$PEXTMIN
 10
1.00000000000000E+20
 20
1.00000000000000E+20
 30
1.00000000000000E+20
  9
$PEXTMAX
 10
-1.00000000000000E+20
 20
-1.00000000000000E+20
 30
-1.00000000000000E+20
  9
$PLIMMIN
 10
0.0
 20
0.0
  9
$PLIMMAX
 10
12.0
 20
9.0
  9
$UNITMODE
 70
     0
  9
$VISRETAIN
 70
     1
  9
$PLINEGEN
 70
     0
  9
$PSLTSCALE
 70
     1
  9
$TREEDEPTH
 70
  3020
  9
$CMLSTYLE
  2
Standard
  9
$CMLJUST
 70
     0
  9
$CMLSCALE
 40
1.0
  9
$PROXYGRAPHICS
 70
     1
  9
$MEASUREMENT
 70
     1
  9
$CELWEIGHT
370
    -1
  9
$ENDCAPS
280
     0
  9
$JOINSTYLE
280
     0
  9
$LWDISPLAY
290
     0
  9
$INSUNITS
 70
     1
  9
$HYPERLINKBASE
  1

  9
$STYLESHEET
  1

  9
$XEDIT
290
     1
  9
$CEPSNTYPE
380
     0
  9
$PSTYLEMODE
290
     1
  9
$FINGERPRINTGUID
  2
{6CCCC56E-761C-4960-AE23-F8036E48A2D5}
  9
$VERSIONGUID
  2
{FAEB1C32-E019-11D5-929B-00C0DF256EC4}
  9
$EXTNAMES
290
     1
  9
$PSVPSCALE
 40
0.0
  9
$OLESTARTUP
290
     0
  0
ENDSEC
  0
SECTION
  2
CLASSES
  0
CLASS
  1
ACDBDICTIONARYWDFLT
  2
AcDbDictionaryWithDefault
  3
ObjectDBX Classes
 90
        0
280
     0
281
     0
  0
CLASS
  1
VISUALSTYLE
  2
AcDbVisualStyle
  3
ObjectDBX Classes
 90
     4095
280
     0
281
     0
  0
CLASS
  1
SCALE
  2
AcDbScale
  3
ObjectDBX Classes
 90
     1153
280
     0
281
     0
  0
CLASS
  1

  2
exOdDbPolyline
  3

 90
        0
280
     0
281
     1
  0
CLASS
  1

  2
exOdDbSpline
  3

 90
        0
280
     0
281
     1
  0
CLASS
  1
DICTIONARYVAR
  2
AcDbDictionaryVar
  3
ObjectDBX Classes
 90
        0
280
     0
281
     0
  0
CLASS
  1
ACDBPLACEHOLDER
  2
AcDbPlaceHolder
  3
ObjectDBX Classes
 90
        0
280
     0
281
     0
  0
CLASS
  1
LAYOUT
  2
AcDbLayout
  3
ObjectDBX Classes
 90
        0
280
     0
281
     0
  0
ENDSEC
  0
SECTION
  2
TABLES
  0
TABLE
  2
VPORT
  5
8
330
0
100
AcDbSymbolTable
 70
     1
  0
VPORT
  5
29
330
8
100
AcDbSymbolTableRecord
100
AcDbViewportTableRecord
  2
*Active
 70
     0
 10
0.0
 20
0.0
 11
1.0
 21
1.0
 12
196.3661516940179
 22
403.576164623376
 13
0.0
 23
0.0
 14
0.5
 24
0.5
 15
0.5
 25
0.5
 16
0.0
 26
0.0
 36
1.0
 17
0.0
 27
0.0
 37
0.0
 40
212.7695089162262
 41
1.60267857142857
 42
50.0
 43
0.0
 44
0.0
 50
0.0
 51
0.0
 71
     0
 72
   100
 73
     1
 74
     3
 75
     0
 76
     0
 77
     0
 78
     0
281
     0
 65
     1
110
0.0
120
0.0
130
0.0
111
1.0
121
0.0
131
0.0
112
0.0
122
1.0
132
0.0
 79
     0
146
0.0
  0
ENDTAB
  0
TABLE
  2
LTYPE
  5
5
330
0
100
AcDbSymbolTable
 70
     8
  0
LTYPE
  5
14
330
5
100
AcDbSymbolTableRecord
100
AcDbLinetypeTableRecord
  2
ByBlock
 70
     0
  3

 72
    65
 73
     0
 40
0.0
  0
LTYPE
  5
15
330
5
100
AcDbSymbolTableRecord
100
AcDbLinetypeTableRecord
  2
ByLayer
 70
     0
  3

 72
    65
 73
     0
 40
0.0
  0
LTYPE
  5
16
330
5
100
AcDbSymbolTableRecord
100
AcDbLinetypeTableRecord
  2
Continuous
 70
     0
  3
Solid line
 72
    65
 73
     0
 40
0.0
  0
LTYPE
  5
3B
330
5
100
AcDbSymbolTableRecord
100
AcDbLinetypeTableRecord
  2
DASHED
 70
     0
  3
Dashed
 72
    65
 73
     2
 40
15.0
 49
7.0
 74
     0
 49
-8.0
 74
     0
  0
LTYPE
  5
3C
330
5
100
AcDbSymbolTableRecord
100
AcDbLinetypeTableRecord
  2
DOTTED
 70
     0
  3
Dotted
 72
    65
 73
     2
 40
1.0
 49
0.0
 74
     0
 49
-1.0
 74
     0
  0
LTYPE
  5
3D
330
5
100
AcDbSymbolTableRecord
100
AcDbLinetypeTableRecord
  2
DOT_CENTER
 70
     0
  3
Dot_Center
 72
    65
 73
     4
 40
14.0
 49
12.0
 74
     0
 49
-1.0
 74
     0
 49
0.0
 74
     0
 49
-1.0
 74
     0
  0
LTYPE
  5
3E
330
5
100
AcDbSymbolTableRecord
100
AcDbLinetypeTableRecord
  2
LONG_DASHED
 70
     0
  3
Long_Dashed
 72
    65
 73
     2
 40
15.0
 49
10.0
 74
     0
 49
-5.0
 74
     0
  0
LTYPE
  5
3F
330
5
100
AcDbSymbolTableRecord
100
AcDbLinetypeTableRecord
  2
DASH_CENTER
 70
     0
  3
Dash_Center
 72
    65
 73
     4
 40
14.0
 49
11.0
 74
     0
 49
-1.0
 74
     0
 49
1.0
 74
     0
 49
-1.0
 74
     0
  0
LTYPE
  5
40
330
5
100
AcDbSymbolTableRecord
100
AcDbLinetypeTableRecord
  2
PHANTOM
 70
     0
  3
Phantom
 72
    65
 73
     6
 40
13.0
 49
10.0
 74
     0
 49
-1.0
 74
     0
 49
0.0
 74
     0
 49
-1.0
 74
     0
 49
0.0
 74
     0
 49
-1.0
 74
     0
  0
LTYPE
  5
41
330
5
100
AcDbSymbolTableRecord
100
AcDbLinetypeTableRecord
  2
CENTER_DASH_DASH
 70
     0
  3
Center_Dash_Dash
 72
    65
 73
     6
 40
14.0
 49
9.0
 74
     0
 49
-1.0
 74
     0
 49
1.0
 74
     0
 49
-1.0
 74
     0
 49
1.0
 74
     0
 49
-1.0
 74
     0
  0
ENDTAB
  0
TABLE
  2
LAYER
  5
2
330
0
100
AcDbSymbolTable
 70
     6
  0
LAYER
  5
10
330
2
100
AcDbSymbolTableRecord
100
AcDbLayerTableRecord
  2
0
 70
     0
 62
     7
  6
Continuous
370
    -3
390
F
  0
LAYER
  5
42
330
2
100
AcDbSymbolTableRecord
100
AcDbLayerTableRecord
  2
1
 70
     0
 62
     7
  6
Continuous
370
    -3
390
F
  0
LAYER
  5
43
330
2
100
AcDbSymbolTableRecord
100
AcDbLayerTableRecord
  2
BG_STARTBEZUEGE
 70
     0
 62
     7
  6
Continuous
370
    -3
390
F
  0
LAYER
  5
44
330
2
100
AcDbSymbolTableRecord
100
AcDbLayerTableRecord
  2
DEFAULT_2
 70
     0
 62
     7
  6
Continuous
370
    -3
390
F
  0
LAYER
  5
45
330
2
100
AcDbSymbolTableRecord
100
AcDbLayerTableRecord
  2
RUNDUNGEN
 70
     0
 62
     7
  6
Continuous
370
    -3
390
F
  0
LAYER
  5
46
330
2
100
AcDbSymbolTableRecord
100
AcDbLayerTableRecord
  2
TEIL_STARTBEZUEGE
 70
     0
 62
     7
  6
Continuous
370
    -3
390
F
  0
ENDTAB
  0
TABLE
  2
STYLE
  5
3
330
0
100
AcDbSymbolTable
 70
     2
  0
STYLE
  5
11
330
3
100
AcDbSymbolTableRecord
100
AcDbTextStyleTableRecord
  2
Standard
 70
     0
 40
0.0
 41
1.0
 50
0.0
 71
     0
 42
0.2
  3
txt
  4

  0
STYLE
  5
6D
330
3
100
AcDbSymbolTableRecord
100
AcDbTextStyleTableRecord
  2
CONVERTER_11
 70
     0
 40
0.0
 41
0.72
 50
0.0
 71
     0
 42
0.2
  3
txt.shx
  4

  0
ENDTAB
  0
TABLE
  2
VIEW
  5
6
330
0
100
AcDbSymbolTable
 70
     0
  0
ENDTAB
  0
TABLE
  2
UCS
  5
7
330
0
100
AcDbSymbolTable
 70
     0
  0
ENDTAB
  0
TABLE
  2
APPID
  5
9
330
0
100
AcDbSymbolTable
 70
     1
  0
APPID
  5
12
330
9
100
AcDbSymbolTableRecord
100
AcDbRegAppTableRecord
  2
ACAD
 70
     0
  0
ENDTAB
  0
TABLE
  2
DIMSTYLE
  5
A
330
0
100
AcDbSymbolTable
 70
     7
100
AcDbDimStyleTable
  0
DIMSTYLE
105
27
330
A
100
AcDbSymbolTableRecord
100
AcDbDimStyleTableRecord
  2
Standard
 70
     0
340
11
  0
DIMSTYLE
105
119
102
{ACAD_REACTORS
330
11A
102
}
330
A
100
AcDbSymbolTableRecord
100
AcDbDimStyleTableRecord
  2
ME10_DIM_10
 70
     0
  3
\U+2300<>
 41
3.5
 42
2.0
 44
2.0
 71
     1
 73
     0
 74
     0
 77
     1
 78
     8
140
3.5
146
0.7
147
2.0
172
     1
173
     1
176
     2
177
     2
178
     3
271
     2
272
     0
340
6D
  0
DIMSTYLE
105
124
102
{ACAD_REACTORS
330
125
102
}
330
A
100
AcDbSymbolTableRecord
100
AcDbDimStyleTableRecord
  2
ME10_DIM_11
 70
     0
  3
\U+2300<>
 41
3.5
 42
2.0
 44
2.0
 71
     1
 73
     0
 74
     0
 77
     1
 78
     8
140
3.5
146
0.7
147
2.0
172
     1
173
     1
176
     2
177
     2
178
     3
271
     2
272
     0
340
6D
  0
DIMSTYLE
105
12F
102
{ACAD_REACTORS
330
130
102
}
330
A
100
AcDbSymbolTableRecord
100
AcDbDimStyleTableRecord
  2
ME10_DIM_12
 70
     0
  3
<>
 41
3.5
 42
2.0
 44
2.0
 71
     1
 73
     0
 74
     0
 77
     1
 78
     8
140
3.5
146
0.7
147
2.0
172
     1
173
     1
176
     2
177
     2
178
     3
271
     2
272
     0
340
6D
  0
DIMSTYLE
105
13A
102
{ACAD_REACTORS
330
13B
102
}
330
A
100
AcDbSymbolTableRecord
100
AcDbDimStyleTableRecord
  2
ME10_DIM_13
 70
     0
  3
<>
 41
3.5
 42
2.0
 44
2.0
 71
     1
 73
     0
 74
     0
 77
     1
 78
     8
140
3.5
146
0.7
147
2.0
172
     1
173
     1
176
     2
177
     2
178
     3
271
     2
272
     0
340
6D
  0
DIMSTYLE
105
145
102
{ACAD_REACTORS
330
146
102
}
330
A
100
AcDbSymbolTableRecord
100
AcDbDimStyleTableRecord
  2
ME10_DIM_14
 70
     0
  3
<>
 41
3.5
 42
2.0
 44
2.0
 71
     1
 73
     0
 74
     0
 77
     1
 78
     8
140
3.5
146
0.7
147
2.0
172
     1
173
     1
176
     2
177
     2
178
     3
271
     2
272
     0
340
6D
  0
DIMSTYLE
105
150
102
{ACAD_REACTORS
330
151
102
}
330
A
100
AcDbSymbolTableRecord
100
AcDbDimStyleTableRecord
  2
ME10_DIM_15
 70
     0
  3
<>
 41
3.5
 42
2.0
 44
2.0
 71
     1
 73
     0
 74
     0
 77
     1
 78
     8
140
3.5
146
0.7
147
2.0
172
     1
173
     1
176
     2
177
     2
178
     3
271
     2
272
     0
340
6D
  0
ENDTAB
  0
TABLE
  2
BLOCK_RECORD
  5
1
330
0
100
AcDbSymbolTable
 70
     9
  0
BLOCK_RECORD
  5
1F
330
1
100
AcDbSymbolTableRecord
100
AcDbBlockTableRecord
  2
*Model_Space
340
22
  0
BLOCK_RECORD
  5
1B
330
1
100
AcDbSymbolTableRecord
100
AcDbBlockTableRecord
  2
*Paper_Space
340
1E
  0
BLOCK_RECORD
  5
23
330
1
100
AcDbSymbolTableRecord
100
AcDbBlockTableRecord
  2
*Paper_Space0
340
26
  0
BLOCK_RECORD
  5
47
330
1
100
AcDbSymbolTableRecord
100
AcDbBlockTableRecord
  2
Urheberrecht_DE-EN
340
0
102
{BLKREFS
331
6C
102
}
  0
BLOCK_RECORD
  5
110
330
1
100
AcDbSymbolTableRecord
100
AcDbBlockTableRecord
  2
*D2
340
0
  0
BLOCK_RECORD
  5
11B
330
1
100
AcDbSymbolTableRecord
100
AcDbBlockTableRecord
  2
*D3
340
0
  0
BLOCK_RECORD
  5
126
330
1
100
AcDbSymbolTableRecord
100
AcDbBlockTableRecord
  2
*D4
340
0
  0
BLOCK_RECORD
  5
131
330
1
100
AcDbSymbolTableRecord
100
AcDbBlockTableRecord
  2
*D5
340
0
  0
BLOCK_RECORD
  5
13C
330
1
100
AcDbSymbolTableRecord
100
AcDbBlockTableRecord
  2
*D6
340
0
  0
BLOCK_RECORD
  5
147
330
1
100
AcDbSymbolTableRecord
100
AcDbBlockTableRecord
  2
*D7
340
0
  0
BLOCK_RECORD
  5
152
330
1
100
AcDbSymbolTableRecord
100
AcDbBlockTableRecord
  2
*D8
340
0
102
{BLKREFS
331
158
102
}
  0
ENDTAB
  0
ENDSEC
  0
SECTION
  2
BLOCKS
  0
BLOCK
  5
20
330
1F
100
AcDbEntity
  8
0
100
AcDbBlockBegin
  2
*Model_Space
 70
     0
 10
0.0
 20
0.0
 30
0.0
  3
*Model_Space
  1

  0
ENDBLK
  5
21
330
1F
100
AcDbEntity
  8
0
100
AcDbBlockEnd
  0
BLOCK
  5
1C
330
1B
100
AcDbEntity
 67
     1
  8
0
100
AcDbBlockBegin
  2
*Paper_Space
 70
     0
 10
0.0
 20
0.0
 30
0.0
  3
*Paper_Space
  1

  0
ENDBLK
  5
1D
330
1B
100
AcDbEntity
 67
     1
  8
0
100
AcDbBlockEnd
  0
BLOCK
  5
24
330
23
100
AcDbEntity
  8
0
100
AcDbBlockBegin
  2
*Paper_Space0
 70
     0
 10
0.0
 20
0.0
 30
0.0
  3
*Paper_Space0
  1

  0
ENDBLK
  5
25
330
23
100
AcDbEntity
  8
0
100
AcDbBlockEnd
  0
BLOCK
  5
48
330
47
100
AcDbEntity
  8
0
100
AcDbBlockBegin
  2
Urheberrecht_DE-EN
 70
     0
 10
55.36563687882881
 20
401.57130870021
 30
0.0
  3
Urheberrecht_DE-EN
  1

  0
MTEXT
  5
6E
330
47
100
AcDbEntity
  8
1
 62
     1
100
AcDbMText
 10
55.36563687882881
 20
401.57130870021
 30
0.0
 40
2.0
 41
0.0
 71
     7
 72
     1
  1
We own the copyright of this document. It \Pdetermined and may neither be copied or \Pmade accessible to outsiders without our\Ppermission.
  7
CONVERTER_11
 11
0.0
 21
1.0
 31
0.0
 73
     1
 44
0.90036014405762
  0
MTEXT
  5
6F
330
47
100
AcDbEntity
  8
1
 62
     1
100
AcDbMText
 10
55.36563687882881
 20
345.2819217829038
 30
0.0
 40
2.0
 41
0.0
 71
     7
 72
     1
  1
F\U+00fcr diese Unterlage behalten wir das Ur-\Pheberrecht. Sie darf nur f\U+00fcr den von uns \Pbestimmten Zweck benutzt und ohne unsere \PZustimmung weder vervielf\U+00e4ltigt noch\PDritten zug\U+00e4nglich gemacht werden.
  7
CONVERTER_11
 11
0.0
 21
1.0
 31
0.0
 73
     1
 44
0.90036014405762
  0
ENDBLK
  5
49
330
47
100
AcDbEntity
  8
0
100
AcDbBlockEnd
  0
BLOCK
  5
117
330
110
100
AcDbEntity
  8
0
100
AcDbBlockBegin
  2
*D2
 70
     1
 10
0.0
 20
0.0
 30
0.0
  3
*D2
  1

  0
LINE
  5
111
330
110
100
AcDbEntity
  8
1
  6
Continuous
 62
     2
100
AcDbLine
 10
349.366666509207
 20
417.2835018947
 30
0.0
 11
349.366666509207
 21
354.2835018947
 31
0.0
  0
LINE
  5
112
330
110
100
AcDbEntity
  8
1
  6
Continuous
 62
     2
100
AcDbLine
 10
282.5856857162
 20
417.2835018947
 30
0.0
 11
351.366666509207
 21
417.2835018947
 31
0.0
  0
LINE
  5
113
330
110
100
AcDbEntity
  8
1
  6
Continuous
 62
     2
100
AcDbLine
 10
282.5856857162
 20
354.2835018947
 30
0.0
 11
351.366666509207
 21
354.2835018947
 31
0.0
  0
SOLID
  5
114
330
110
100
AcDbEntity
  8
1
 62
     2
100
AcDbTrace
 10
349.8274502507629
 20
413.7835018947
 30
0.0
 11
348.9058827676511
 21
413.7835018947
 31
0.0
 12
349.366666509207
 22
417.2835018947
 32
0.0
 13
349.366666509207
 23
417.2835018947
 33
0.0
  0
SOLID
  5
115
330
110
100
AcDbEntity
  8
1
 62
     2
100
AcDbTrace
 10
348.9058827676511
 20
357.7835018947
 30
0.0
 11
349.8274502507629
 21
357.7835018947
 31
0.0
 12
349.366666509207
 22
354.2835018947
 32
0.0
 13
349.366666509207
 23
354.2835018947
 33
0.0
  0
MTEXT
  5
116
330
110
100
AcDbEntity
  8
1
 62
     3
100
AcDbMText
 10
347.366666509207
 20
376.274173887326
 30
0.0
 40
3.5
 41
0.0
 71
     7
 72
     1
  1
\C3;%%c\C3;\C3;63\C2;\H2.45;\S^ ;\C3;
  7
CONVERTER_11
 11
0.0
 21
1.0
 31
0.0
 73
     1
 44
0.60024009603842
  0
ENDBLK
  5
118
330
110
100
AcDbEntity
  8
0
100
AcDbBlockEnd
  0
BLOCK
  5
122
330
11B
100
AcDbEntity
  8
0
100
AcDbBlockBegin
  2
*D3
 70
     1
 10
0.0
 20
0.0
 30
0.0
  3
*D3
  1

  0
LINE
  5
11C
330
11B
100
AcDbEntity
  8
1
  6
Continuous
 62
     2
100
AcDbLine
 10
339.188202101231
 20
405.7835018947
 30
0.0
 11
339.188202101231
 21
365.7835018947
 31
0.0
  0
LINE
  5
11D
330
11B
100
AcDbEntity
  8
1
  6
Continuous
 62
     2
100
AcDbLine
 10
312.3283264033
 20
405.7835018947
 30
0.0
 11
341.188202101231
 21
405.7835018947
 31
0.0
  0
LINE
  5
11E
330
11B
100
AcDbEntity
  8
1
  6
Continuous
 62
     2
100
AcDbLine
 10
312.3283264033
 20
365.7835018947
 30
0.0
 11
341.188202101231
 21
365.7835018947
 31
0.0
  0
SOLID
  5
11F
330
11B
100
AcDbEntity
  8
1
 62
     2
100
AcDbTrace
 10
339.6489858427869
 20
402.2835018947
 30
0.0
 11
338.7274183596751
 21
402.2835018947
 31
0.0
 12
339.188202101231
 22
405.7835018947
 32
0.0
 13
339.188202101231
 23
405.7835018947
 33
0.0
  0
SOLID
  5
120
330
11B
100
AcDbEntity
  8
1
 62
     2
100
AcDbTrace
 10
338.7274183596751
 20
369.2835018947
 30
0.0
 11
339.6489858427869
 21
369.2835018947
 31
0.0
 12
339.188202101231
 22
365.7835018947
 32
0.0
 13
339.188202101231
 23
365.7835018947
 33
0.0
  0
MTEXT
  5
121
330
11B
100
AcDbEntity
  8
1
 62
     3
100
AcDbMText
 10
337.188202101231
 20
375.491215086712
 30
0.0
 40
3.5
 41
0.0
 71
     7
 72
     1
  1
\C3;%%c\C3;\C3;40\C2;\H2.45;\S^ ;\C3;
  7
CONVERTER_11
 11
0.0
 21
1.0
 31
0.0
 73
     1
 44
0.60024009603842
  0
ENDBLK
  5
123
330
11B
100
AcDbEntity
  8
0
100
AcDbBlockEnd
  0
BLOCK
  5
12D
330
126
100
AcDbEntity
  8
0
100
AcDbBlockBegin
  2
*D4
 70
     1
 10
0.0
 20
0.0
 30
0.0
  3
*D4
  1

  0
LINE
  5
127
330
126
100
AcDbEntity
  8
1
  6
Continuous
 62
     2
100
AcDbLine
 10
310.3283264033
 20
443.459604533033
 30
0.0
 11
184.4283264033
 21
443.459604533033
 31
0.0
  0
LINE
  5
128
330
126
100
AcDbEntity
  8
1
  6
Continuous
 62
     2
100
AcDbLine
 10
310.3283264033
 20
412.7835018947
 30
0.0
 11
310.3283264033
 21
445.459604533033
 31
0.0
  0
LINE
  5
129
330
126
100
AcDbEntity
  8
1
  6
Continuous
 62
     2
100
AcDbLine
 10
184.4283264033
 20
435.5210018947
 30
0.0
 11
184.4283264033
 21
445.459604533033
 31
0.0
  0
SOLID
  5
12A
330
126
100
AcDbEntity
  8
1
 62
     2
100
AcDbTrace
 10
306.8283264033
 20
442.9988207914771
 30
0.0
 11
306.8283264033
 21
443.9203882745888
 31
0.0
 12
310.3283264033
 22
443.459604533033
 32
0.0
 13
310.3283264033
 23
443.459604533033
 33
0.0
  0
SOLID
  5
12B
330
126
100
AcDbEntity
  8
1
 62
     2
100
AcDbTrace
 10
187.9283264033
 20
443.9203882745888
 30
0.0
 11
187.9283264033
 21
442.9988207914771
 31
0.0
 12
184.4283264033
 22
443.459604533033
 32
0.0
 13
184.4283264033
 23
443.459604533033
 33
0.0
  0
MTEXT
  5
12C
330
126
100
AcDbEntity
  8
1
 62
     3
100
AcDbMText
 10
239.8213397236907
 20
445.459604533033
 30
0.0
 40
3.5
 41
0.0
 71
     7
 72
     1
  1
\C3;\C3;\C3;125.9\C2;\H2.45;\S^ ;\C3;
  7
CONVERTER_11
 11
0.9999999999970619
 21
2.424068405545306E-6
 31
0.0
 73
     1
 44
0.60024009603842
  0
ENDBLK
  5
12E
330
126
100
AcDbEntity
  8
0
100
AcDbBlockEnd
  0
BLOCK
  5
138
330
131
100
AcDbEntity
  8
0
100
AcDbBlockBegin
  2
*D5
 70
     1
 10
0.0
 20
0.0
 30
0.0
  3
*D5
  1

  0
LINE
  5
132
330
131
100
AcDbEntity
  8
1
  6
Continuous
 62
     2
100
AcDbLine
 10
165.3283264033
 20
451.484932239322
 30
0.0
 11
310.3283264033
 21
451.484932239322
 31
0.0
  0
LINE
  5
133
330
131
100
AcDbEntity
  8
1
  6
Continuous
 62
     2
100
AcDbLine
 10
165.3283264033
 20
439.5210018947
 30
0.0
 11
165.3283264033
 21
453.484932239322
 31
0.0
  0
LINE
  5
134
330
131
100
AcDbEntity
  8
1
  6
Continuous
 62
     2
100
AcDbLine
 10
310.3283264033
 20
412.7835018947
 30
0.0
 11
310.3283264033
 21
453.484932239322
 31
0.0
  0
SOLID
  5
135
330
131
100
AcDbEntity
  8
1
 62
     2
100
AcDbTrace
 10
168.8283264033
 20
451.9457159808779
 30
0.0
 11
168.8283264033
 21
451.0241484977661
 31
0.0
 12
165.3283264033
 22
451.484932239322
 32
0.0
 13
165.3283264033
 23
451.484932239322
 33
0.0
  0
SOLID
  5
136
330
131
100
AcDbEntity
  8
1
 62
     2
100
AcDbTrace
 10
306.8283264033
 20
451.0241484977661
 30
0.0
 11
306.8283264033
 21
451.9457159808779
 31
0.0
 12
310.3283264033
 22
451.484932239322
 32
0.0
 13
310.3283264033
 23
451.484932239322
 33
0.0
  0
MTEXT
  5
137
330
131
100
AcDbEntity
  8
1
 62
     3
100
AcDbMText
 10
234.26781832132
 20
453.484932239322
 30
0.0
 40
3.5
 41
0.0
 71
     7
 72
     1
  1
\C3;\C3;\C3;145\C2;\H2.45;\S^ ;\C3;
  7
CONVERTER_11
 11
0.9999999999970619
 21
2.424068405545306E-6
 31
0.0
 73
     1
 44
0.60024009603842
  0
ENDBLK
  5
139
330
131
100
AcDbEntity
  8
0
100
AcDbBlockEnd
  0
BLOCK
  5
143
330
13C
100
AcDbEntity
  8
0
100
AcDbBlockBegin
  2
*D6
 70
     1
 10
0.0
 20
0.0
 30
0.0
  3
*D6
  1

  0
LINE
  5
13D
330
13C
100
AcDbEntity
  8
1
  6
Continuous
 62
     2
100
AcDbLine
 10
165.3283264033
 20
460.097479046071
 30
0.0
 11
325.3283264033
 21
460.097479046071
 31
0.0
  0
LINE
  5
13E
330
13C
100
AcDbEntity
  8
1
  6
Continuous
 62
     2
100
AcDbLine
 10
165.3283264033
 20
439.5210018947
 30
0.0
 11
165.3283264033
 21
462.097479046071
 31
0.0
  0
LINE
  5
13F
330
13C
100
AcDbEntity
  8
1
  6
Continuous
 62
     2
100
AcDbLine
 10
325.3283264033
 20
413.2835018947
 30
0.0
 11
325.3283264033
 21
462.097479046071
 31
0.0
  0
SOLID
  5
140
330
13C
100
AcDbEntity
  8
1
 62
     2
100
AcDbTrace
 10
168.8283264033
 20
460.5582627876269
 30
0.0
 11
168.8283264033
 21
459.6366953045151
 31
0.0
 12
165.3283264033
 22
460.097479046071
 32
0.0
 13
165.3283264033
 23
460.097479046071
 33
0.0
  0
SOLID
  5
141
330
13C
100
AcDbEntity
  8
1
 62
     2
100
AcDbTrace
 10
321.8283264033
 20
459.6366953045151
 30
0.0
 11
321.8283264033
 21
460.5582627876269
 31
0.0
 12
325.3283264033
 22
460.097479046071
 32
0.0
 13
325.3283264033
 23
460.097479046071
 33
0.0
  0
MTEXT
  5
142
330
13C
100
AcDbEntity
  8
1
 62
     3
100
AcDbMText
 10
239.357050525308
 20
462.097479046071
 30
0.0
 40
3.5
 41
0.0
 71
     7
 72
     1
  1
\C3;\C3;\C3;160\C2;\H2.45;\S^ ;\C3;
  7
CONVERTER_11
 11
0.9999999999970619
 21
2.424068405545306E-6
 31
0.0
 73
     1
 44
0.60024009603842
  0
ENDBLK
  5
144
330
13C
100
AcDbEntity
  8
0
100
AcDbBlockEnd
  0
BLOCK
  5
14E
330
147
100
AcDbEntity
  8
0
100
AcDbBlockBegin
  2
*D7
 70
     1
 10
0.0
 20
0.0
 30
0.0
  3
*D7
  1

  0
LINE
  5
148
330
147
100
AcDbEntity
  8
1
  6
Continuous
 62
     2
100
AcDbLine
 10
310.3283264033
 20
467.731327352052
 30
0.0
 11
63.57832640329988
 21
467.731327352052
 31
0.0
  0
LINE
  5
149
330
147
100
AcDbEntity
  8
1
  6
Continuous
 62
     2
100
AcDbLine
 10
310.3283264033
 20
412.7835018947
 30
0.0
 11
310.3283264033
 21
469.731327352052
 31
0.0
  0
LINE
  5
14A
330
147
100
AcDbEntity
  8
1
  6
Continuous
 62
     2
100
AcDbLine
 10
63.57832640329988
 20
405.9447360947
 30
0.0
 11
63.57832640329988
 21
469.731327352052
 31
0.0
  0
SOLID
  5
14B
330
147
100
AcDbEntity
  8
1
 62
     2
100
AcDbTrace
 10
306.8283264033
 20
467.2705436104961
 30
0.0
 11
306.8283264033
 21
468.1921110936079
 31
0.0
 12
310.3283264033
 22
467.731327352052
 32
0.0
 13
310.3283264033
 23
467.731327352052
 33
0.0
  0
SOLID
  5
14C
330
147
100
AcDbEntity
  8
1
 62
     2
100
AcDbTrace
 10
67.07832640329988
 20
468.1921110936079
 30
0.0
 11
67.07832640329988
 21
467.2705436104961
 31
0.0
 12
63.57832640329988
 22
467.731327352052
 32
0.0
 13
63.57832640329988
 23
467.731327352052
 33
0.0
  0
MTEXT
  5
14D
330
147
100
AcDbEntity
  8
1
 62
     3
100
AcDbMText
 10
186.5642606363417
 20
469.731327352052
 30
0.0
 40
3.5
 41
0.0
 71
     7
 72
     1
  1
\C3;\C3;\C3;246.75\C2;\H2.45;\S^ ;\C3;
  7
CONVERTER_11
 11
0.9999999999970619
 21
2.424068405545306E-6
 31
0.0
 73
     1
 44
0.60024009603842
  0
ENDBLK
  5
14F
330
147
100
AcDbEntity
  8
0
100
AcDbBlockEnd
  0
BLOCK
  5
156
330
152
100
AcDbEntity
  8
0
100
AcDbBlockBegin
  2
*D8
 70
     1
 10
0.0
 20
0.0
 30
0.0
  3
*D8
  1

  0
LINE
  5
153
330
152
100
AcDbEntity
  8
1
  6
Continuous
 62
     2
100
AcDbLine
 10
194.7447778255782
 20
430.0319017677069
 30
0.0
 11
184.8061457270102
 21
422.8646191685419
 31
0.0
  0
SOLID
  5
154
330
152
100
AcDbEntity
  8
1
 62
     2
100
AcDbTrace
 10
187.3754398680529
 20
425.2855795716229
 30
0.0
 11
187.9144839529329
 21
424.5381050901289
 31
0.0
 12
184.8061457270102
 22
422.8646191685419
 32
0.0
 13
184.8061457270102
 23
422.8646191685419
 33
0.0
  0
MTEXT
  5
155
330
152
100
AcDbEntity
  8
1
 62
     3
100
AcDbMText
 10
187.5566457095468
 20
427.3139693398349
 30
0.0
 40
3.5
 41
0.0
 71
     7
 72
     1
  1
\C3; R\C3;\C3;2\C2;\H2.45;\S^ ;\C3;
  7
CONVERTER_11
 11
0.8110903381379246
 21
0.5849209035239783
 31
0.0
 73
     1
 44
0.60024009603842
  0
ENDBLK
  5
157
330
152
100
AcDbEntity
  8
0
100
AcDbBlockEnd
  0
ENDSEC
  0
SECTION
  2
ENTITIES
  0
INSERT
  5
6C
330
1F
100
AcDbEntity
  8
0
100
AcDbBlockReference
  2
Urheberrecht_DE-EN
 10
55.36563687882881
 20
401.57130870021
 30
0.0
  0
LINE
  5
70
330
1F
100
AcDbEntity
  8
0
  6
Continuous
 62
     7
100
AcDbLine
 10
63.57832640329997
 20
403.9447360947
 30
0.0
 11
63.57832640329997
 21
367.6220548935
 31
0.0
  0
LINE
  5
71
330
1F
100
AcDbEntity
  8
0
  6
Continuous
 62
     9
100
AcDbLine
 10
65.50360939769996
 20
365.3956095503
 30
0.0
 11
65.50360939769996
 21
406.1713942391
 31
0.0
  0
LINE
  5
72
330
1F
100
AcDbEntity
  8
0
  6
Continuous
 62
     7
100
AcDbLine
 10
169.5283264033
 20
337.0460018947
 30
0.0
 11
173.2629480175
 21
337.0460018947
 31
0.0
  0
LINE
  5
73
330
1F
100
AcDbEntity
  8
0
  6
Continuous
 62
     7
100
AcDbLine
 10
179.7437047892
 20
337.0460018947
 30
0.0
 11
183.4283264033
 21
337.0460018947
 31
0.0
  0
LINE
  5
74
330
1F
100
AcDbEntity
  8
0
  6
Continuous
 62
     7
100
AcDbLine
 10
175.3408264033
 20
340.2835018947
 30
0.0
 11
177.6658264033
 21
340.2835018947
 31
0.0
  0
LINE
  5
75
330
1F
100
AcDbEntity
  8
0
  6
Continuous
 62
     7
100
AcDbLine
 10
178.4158264033
 20
432.2210490642
 30
0.0
 11
179.7437047892
 21
434.5210018947
 31
0.0
  0
LINE
  5
76
330
1F
100
AcDbEntity
  8
0
  6
Continuous
 62
     7
100
AcDbLine
 10
169.5283264033
 20
347.2566099068
 30
0.0
 11
173.2629480175
 21
347.2566099068
 31
0.0
  0
LINE
  5
77
330
1F
100
AcDbEntity
  8
0
  6
Continuous
 62
     7
100
AcDbLine
 10
179.7437047892
 20
347.2566099068
 30
0.0
 11
183.4283264033
 21
347.2566099068
 31
0.0
  0
LINE
  5
78
330
1F
100
AcDbEntity
  8
0
  6
Continuous
 62
     7
100
AcDbLine
 10
65.50360939769996
 20
365.3956095503
 30
0.0
 11
164.8386440701
 21
350.9299198531
 31
0.0
  0
LINE
  5
79
330
1F
100
AcDbEntity
  8
0
  6
Continuous
 62
     7
100
AcDbLine
 10
178.4158264033
 20
339.3459547252
 30
0.0
 11
179.7437047892
 21
337.0460018947
 31
0.0
  0
LINE
  5
7A
330
1F
100
AcDbEntity
  8
0
  6
Continuous
 62
     7
100
AcDbLine
 10
164.8386440701
 20
350.9299198531
 30
0.0
 11
164.8386440701
 21
420.6370839363
 31
0.0
  0
LWPOLYLINE
  5
7B
330
1F
100
AcDbEntity
  8
BG_STARTBEZUEGE
  6
DOT_CENTER
 62
     7
100
AcDbPolyline
 90
        2
 70
     0
 43
0.25
 10
165.3283264033
 20
437.5210018947
 10
165.3283264033
 20
334.0460018947
  0
LINE
  5
7C
330
1F
100
AcDbEntity
  8
0
  6
Continuous
 62
     7
100
AcDbLine
 10
165.8783264033
 20
351.2085018947
 30
0.0
 11
165.8783264033
 21
420.3585018947
 31
0.0
  0
LINE
  5
7D
330
1F
100
AcDbEntity
  8
0
  6
Continuous
 62
     9
100
AcDbLine
 10
167.5283264033
 20
351.2085018947
 30
0.0
 11
167.5283264033
 21
420.3585018947
 31
0.0
  0
LINE
  5
7E
330
1F
100
AcDbEntity
  8
0
  6
Continuous
 62
     7
100
AcDbLine
 10
165.8783264033
 20
351.2085018947
 30
0.0
 11
167.5283264033
 21
351.2085018947
 31
0.0
  0
LINE
  5
7F
330
1F
100
AcDbEntity
  8
0
  6
Continuous
 62
     7
100
AcDbLine
 10
175.3408264033
 20
351.4436198332
 30
0.0
 11
177.6658264033
 21
351.4436198332
 31
0.0
  0
LINE
  5
80
330
1F
100
AcDbEntity
  8
0
  6
Continuous
 62
     9
100
AcDbLine
 10
184.4283264033
 20
354.1835018947
 30
0.0
 11
168.5283264033
 21
354.1835018947
 31
0.0
  0
LINE
  5
81
330
1F
100
AcDbEntity
  8
RUNDUNGEN
  6
Continuous
 62
     7
100
AcDbLine
 10
321.1425369517
 20
354.2835018947
 30
0.0
 11
301.0783264033
 21
354.2835018947
 31
0.0
  0
LINE
  5
82
330
1F
100
AcDbEntity
  8
0
  6
Continuous
 62
     7
100
AcDbLine
 10
239.4283264033
 20
354.2835018947
 30
0.0
 11
280.5856857162
 21
354.2835018947
 31
0.0
  0
LINE
  5
83
330
1F
100
AcDbEntity
  8
0
  6
Continuous
 62
     7
100
AcDbLine
 10
301.0783264033
 20
354.2835018947
 30
0.0
 11
321.1425369517
 21
354.2835018947
 31
0.0
  0
LINE
  5
84
330
1F
100
AcDbEntity
  8
0
  6
Continuous
 62
     7
100
AcDbLine
 10
168.5283264033
 20
355.9335018947
 30
0.0
 11
184.4283264033
 21
355.9335018947
 31
0.0
  0
LINE
  5
85
330
1F
100
AcDbEntity
  8
0
  6
Continuous
 62
     7
100
AcDbLine
 10
310.3283264033
 20
356.7350809546
 30
0.0
 11
321.1425369517
 21
356.7350809546
 31
0.0
  0
LINE
  5
86
330
1F
100
AcDbEntity
  8
0
  6
Continuous
 62
     7
100
AcDbLine
 10
168.5283264033
 20
338.0460018947
 30
0.0
 11
168.5283264033
 21
433.5208198661
 31
0.0
  0
LINE
  5
87
330
1F
100
AcDbEntity
  8
0
  6
Continuous
 62
     9
100
AcDbLine
 10
169.5283264033
 20
434.5210018947
 30
0.0
 11
169.5283264033
 21
398.6835018947
 31
0.0
  0
LINE
  5
88
330
1F
100
AcDbEntity
  8
0
  6
Continuous
 62
     9
100
AcDbLine
 10
169.5283264033
 20
337.0460018947
 30
0.0
 11
169.5283264033
 21
347.2566099068
 31
0.0
  0
LINE
  5
89
330
1F
100
AcDbEntity
  8
0
  6
Continuous
 62
     9
100
AcDbLine
 10
169.5283264033
 20
355.9335018947
 30
0.0
 11
169.5283264033
 21
372.8835018947
 31
0.0
  0
LINE
  5
8A
330
1F
100
AcDbEntity
  8
0
  6
Continuous
 62
     7
100
AcDbLine
 10
173.2629480175
 20
434.5210018947
 30
0.0
 11
173.2629480175
 21
398.6835018947
 31
0.0
  0
LINE
  5
8B
330
1F
100
AcDbEntity
  8
0
  6
Continuous
 62
     7
100
AcDbLine
 10
173.2629480175
 20
372.8835018947
 30
0.0
 11
173.2629480175
 21
355.9335018947
 31
0.0
  0
LINE
  5
8C
330
1F
100
AcDbEntity
  8
0
  6
Continuous
 62
     7
100
AcDbLine
 10
173.2629480175
 20
347.2566099068
 30
0.0
 11
173.2629480175
 21
337.0460018947
 31
0.0
  0
LINE
  5
8D
330
1F
100
AcDbEntity
  8
0
  6
Continuous
 62
     7
100
AcDbLine
 10
174.5908264033
 20
432.2208772925
 30
0.0
 11
174.5908264033
 21
398.6835018947
 31
0.0
  0
LINE
  5
8E
330
1F
100
AcDbEntity
  8
0
  6
Continuous
 62
     7
100
AcDbLine
 10
174.5908264033
 20
339.3460783074
 30
0.0
 11
174.5908264033
 21
350.4558922954
 31
0.0
  0
LINE
  5
8F
330
1F
100
AcDbEntity
  8
0
  6
Continuous
 62
     7
100
AcDbLine
 10
174.5908264033
 20
355.9335018947
 30
0.0
 11
174.5908264033
 21
372.8835018947
 31
0.0
  0
LINE
  5
90
330
1F
100
AcDbEntity
  8
0
  6
Continuous
 62
     9
100
AcDbLine
 10
175.3408264033
 20
431.2835018947
 30
0.0
 11
175.3408264033
 21
398.6835018947
 31
0.0
  0
LINE
  5
91
330
1F
100
AcDbEntity
  8
0
  6
Continuous
 62
     9
100
AcDbLine
 10
175.3408264033
 20
340.2835018947
 30
0.0
 11
175.3408264033
 21
351.4436198332
 31
0.0
  0
LINE
  5
92
330
1F
100
AcDbEntity
  8
0
  6
Continuous
 62
     9
100
AcDbLine
 10
175.3408264033
 20
355.9335018947
 30
0.0
 11
175.3408264033
 21
372.8835018947
 31
0.0
  0
LINE
  5
93
330
1F
100
AcDbEntity
  8
0
  6
Continuous
 62
     7
100
AcDbLine
 10
164.8386440701
 20
350.9299198531
 30
0.0
 11
165.8783264033
 21
351.2085018947
 31
0.0
  0
LINE
  5
94
330
1F
100
AcDbEntity
  8
0
  6
Continuous
 62
     7
100
AcDbLine
 10
323.3396342281
 20
359.2102715359
 30
0.0
 11
310.3283264033
 21
359.2102715359
 31
0.0
  0
LINE
  5
95
330
1F
100
AcDbEntity
  8
0
  6
Continuous
 62
     7
100
AcDbLine
 10
310.3283264033
 20
360.708015167
 30
0.0
 11
321.1425369517
 21
360.708015167
 31
0.0
  0
LINE
  5
96
330
1F
100
AcDbEntity
  8
0
  6
Continuous
 62
     7
100
AcDbLine
 10
288.7425399657
 20
360.7835018947
 30
0.0
 11
299.8283264033
 21
360.7835018947
 31
0.0
  0
LWPOLYLINE
  5
97
330
1F
100
AcDbEntity
  8
DEFAULT_2
  6
DASHED
 62
     8
100
AcDbPolyline
 90
        2
 70
     0
 43
0.35
 10
299.8283264033
 20
360.7835018947
 10
310.3283264033
 20
360.7835018947
  0
LINE
  5
98
330
1F
100
AcDbEntity
  8
0
  6
Continuous
 62
     9
100
AcDbLine
 10
177.6658264033
 20
431.2835018947
 30
0.0
 11
177.6658264033
 21
398.6835018947
 31
0.0
  0
LINE
  5
99
330
1F
100
AcDbEntity
  8
0
  6
Continuous
 62
     9
100
AcDbLine
 10
177.6658264033
 20
340.2835018947
 30
0.0
 11
177.6658264033
 21
351.4436198332
 31
0.0
  0
LINE
  5
9A
330
1F
100
AcDbEntity
  8
0
  6
Continuous
 62
     9
100
AcDbLine
 10
177.6658264033
 20
355.9335018947
 30
0.0
 11
177.6658264033
 21
372.8835018947
 31
0.0
  0
LINE
  5
9B
330
1F
100
AcDbEntity
  8
0
  6
Continuous
 62
     7
100
AcDbLine
 10
178.4158264033
 20
432.2208772925
 30
0.0
 11
178.4158264033
 21
398.6835018947
 31
0.0
  0
LINE
  5
9C
330
1F
100
AcDbEntity
  8
0
  6
Continuous
 62
     7
100
AcDbLine
 10
178.4158264033
 20
339.3460783074
 30
0.0
 11
178.4158264033
 21
350.4558922954
 31
0.0
  0
LINE
  5
9D
330
1F
100
AcDbEntity
  8
0
  6
Continuous
 62
     7
100
AcDbLine
 10
178.4158264033
 20
355.9335018947
 30
0.0
 11
178.4158264033
 21
372.8835018947
 31
0.0
  0
LINE
  5
9E
330
1F
100
AcDbEntity
  8
0
  6
Continuous
 62
     7
100
AcDbLine
 10
179.7437047892
 20
434.5210018947
 30
0.0
 11
179.7437047892
 21
398.6835018947
 31
0.0
  0
LINE
  5
9F
330
1F
100
AcDbEntity
  8
0
  6
Continuous
 62
     7
100
AcDbLine
 10
179.7437047892
 20
372.8835018947
 30
0.0
 11
179.7437047892
 21
355.9335018947
 31
0.0
  0
LINE
  5
A0
330
1F
100
AcDbEntity
  8
0
  6
Continuous
 62
     7
100
AcDbLine
 10
179.7437047892
 20
347.2566099068
 30
0.0
 11
179.7437047892
 21
337.0460018947
 31
0.0
  0
LINE
  5
A1
330
1F
100
AcDbEntity
  8
0
  6
Continuous
 62
     9
100
AcDbLine
 10
183.4283264033
 20
434.5210018947
 30
0.0
 11
183.4283264033
 21
398.6835018947
 31
0.0
  0
LINE
  5
A2
330
1F
100
AcDbEntity
  8
0
  6
Continuous
 62
     9
100
AcDbLine
 10
183.4283264033
 20
337.0460018947
 30
0.0
 11
183.4283264033
 21
347.2566099068
 31
0.0
  0
LINE
  5
A3
330
1F
100
AcDbEntity
  8
0
  6
Continuous
 62
     9
100
AcDbLine
 10
183.4283264033
 20
355.9335018947
 30
0.0
 11
183.4283264033
 21
372.8835018947
 31
0.0
  0
LINE
  5
A4
330
1F
100
AcDbEntity
  8
0
  6
Continuous
 62
     7
100
AcDbLine
 10
184.4283264033
 20
433.5210018947
 30
0.0
 11
184.4283264033
 21
396.9335018947
 31
0.0
  0
LINE
  5
A5
330
1F
100
AcDbEntity
  8
0
  6
Continuous
 62
     7
100
AcDbLine
 10
184.4283264033
 20
338.0460018947
 30
0.0
 11
184.4283264033
 21
374.6335018947
 31
0.0
  0
LINE
  5
A6
330
1F
100
AcDbEntity
  8
RUNDUNGEN
  6
Continuous
 62
     7
100
AcDbLine
 10
184.4283264033
 20
374.6335018947
 30
0.0
 11
184.4283264033
 21
378.2412487137
 31
0.0
  0
LINE
  5
A7
330
1F
100
AcDbEntity
  8
RUNDUNGEN
  6
Continuous
 62
     7
100
AcDbLine
 10
184.4283264033
 20
393.3257141901
 30
0.0
 11
184.4283264033
 21
396.9335018947
 31
0.0
  0
LINE
  5
A8
330
1F
100
AcDbEntity
  8
RUNDUNGEN
  6
Continuous
 62
     9
100
AcDbLine
 10
186.0726217053
 20
422.066346607
 30
0.0
 11
186.0726217053
 21
349.5006571824
 31
0.0
  0
LWPOLYLINE
  5
A9
330
1F
100
AcDbEntity
  8
DEFAULT_2
  6
DASHED
 62
     8
100
AcDbPolyline
 90
        2
 70
     0
 43
0.35
 10
252.3283264033
 20
372.2835018947
 10
264.0784232078
 20
372.2835018947
  0
LINE
  5
AA
330
1F
100
AcDbEntity
  8
0
  6
Continuous
 62
     7
100
AcDbLine
 10
168.5283264033
 20
372.8835018947
 30
0.0
 11
184.4283264033
 21
372.8835018947
 31
0.0
  0
LINE
  5
AB
330
1F
100
AcDbEntity
  8
0
  6
Continuous
 62
     9
100
AcDbLine
 10
184.4283264033
 20
374.6335018947
 30
0.0
 11
168.5283264033
 21
374.6335018947
 31
0.0
  0
LINE
  5
AC
330
1F
100
AcDbEntity
  8
0
  6
Continuous
 62
     7
100
AcDbLine
 10
310.3283264033
 20
381.8105676824
 30
0.0
 11
321.1425369517
 21
381.8105676824
 31
0.0
  0
LINE
  5
AD
330
1F
100
AcDbEntity
  8
0
  6
Continuous
 62
     7
100
AcDbLine
 10
323.3396342281
 20
382.4335018947
 30
0.0
 11
310.3283264033
 21
382.4335018947
 31
0.0
  0
LWPOLYLINE
  5
AE
330
1F
100
AcDbEntity
  8
TEIL_STARTBEZUEGE
  6
DOT_CENTER
 62
     7
100
AcDbPolyline
 90
        2
 70
     0
 43
0.25
 10
329.9065075107
 20
385.7835018947
 10
60.57832640329998
 20
385.7835018947
  0
LWPOLYLINE
  5
AF
330
1F
100
AcDbEntity
  8
DEFAULT_2
  6
DASHED
 62
     8
100
AcDbPolyline
 90
        2
 70
     0
 43
0.35
 10
264.0784232078
 20
372.2835018947
 10
310.3283264033
 20
365.7835018947
  0
LINE
  5
B0
330
1F
100
AcDbEntity
  8
0
  6
Continuous
 62
     7
100
AcDbLine
 10
173.2629480175
 20
337.0460018947
 30
0.0
 11
174.5908264033
 21
339.3459547252
 31
0.0
  0
LWPOLYLINE
  5
B1
330
1F
100
AcDbEntity
  8
DEFAULT_2
  6
DASHED
 62
     8
100
AcDbPolyline
 90
        2
 70
     0
 43
0.35
 10
264.0784232078
 20
399.2835018947
 10
310.3283264033
 20
405.7835018947
  0
LINE
  5
B2
330
1F
100
AcDbEntity
  8
0
  6
Continuous
 62
     7
100
AcDbLine
 10
323.3396342281
 20
389.1335018947
 30
0.0
 11
310.3283264033
 21
389.1335018947
 31
0.0
  0
LINE
  5
B3
330
1F
100
AcDbEntity
  8
0
  6
Continuous
 62
     7
100
AcDbLine
 10
310.3283264033
 20
389.756436107
 30
0.0
 11
321.1425369517
 21
389.756436107
 31
0.0
  0
LINE
  5
B4
330
1F
100
AcDbEntity
  8
0
  6
Continuous
 62
     7
100
AcDbLine
 10
173.2629480175
 20
434.5210018947
 30
0.0
 11
174.5908264033
 21
432.2210490642
 31
0.0
  0
LINE
  5
B5
330
1F
100
AcDbEntity
  8
0
  6
Continuous
 62
     9
100
AcDbLine
 10
184.4283264033
 20
396.9335018947
 30
0.0
 11
168.5283264033
 21
396.9335018947
 31
0.0
  0
LINE
  5
B6
330
1F
100
AcDbEntity
  8
0
  6
Continuous
 62
     7
100
AcDbLine
 10
168.5283264033
 20
398.6835018947
 30
0.0
 11
184.4283264033
 21
398.6835018947
 31
0.0
  0
LWPOLYLINE
  5
B7
330
1F
100
AcDbEntity
  8
DEFAULT_2
  6
DASHED
 62
     8
100
AcDbPolyline
 90
        2
 70
     0
 43
0.35
 10
252.3283264033
 20
399.2835018947
 10
264.0784232078
 20
399.2835018947
  0
LINE
  5
B8
330
1F
100
AcDbEntity
  8
0
  6
Continuous
 62
     7
100
AcDbLine
 10
288.7425399657
 20
410.7835018947
 30
0.0
 11
299.8283264033
 21
410.7835018947
 31
0.0
  0
LWPOLYLINE
  5
B9
330
1F
100
AcDbEntity
  8
DEFAULT_2
  6
DASHED
 62
     8
100
AcDbPolyline
 90
        2
 70
     0
 43
0.35
 10
299.8283264033
 20
410.7835018947
 10
310.3283264033
 20
410.7835018947
  0
LINE
  5
BA
330
1F
100
AcDbEntity
  8
0
  6
Continuous
 62
     7
100
AcDbLine
 10
310.3283264033
 20
410.8589886225
 30
0.0
 11
321.1425369517
 21
410.8589886225
 31
0.0
  0
LINE
  5
BB
330
1F
100
AcDbEntity
  8
0
  6
Continuous
 62
     7
100
AcDbLine
 10
323.3396342281
 20
412.3567322535
 30
0.0
 11
310.3283264033
 21
412.3567322535
 31
0.0
  0
LINE
  5
BC
330
1F
100
AcDbEntity
  8
0
  6
Continuous
 62
     7
100
AcDbLine
 10
310.3283264033
 20
414.8319228348
 30
0.0
 11
321.1425369517
 21
414.8319228348
 31
0.0
  0
LINE
  5
BD
330
1F
100
AcDbEntity
  8
0
  6
Continuous
 62
     7
100
AcDbLine
 10
164.8386440701
 20
420.6370839363
 30
0.0
 11
165.8783264033
 21
420.3585018947
 31
0.0
  0
LINE
  5
BE
330
1F
100
AcDbEntity
  8
0
  6
Continuous
 62
     7
100
AcDbLine
 10
239.4283264033
 20
417.2835018947
 30
0.0
 11
280.5856857162
 21
417.2835018947
 31
0.0
  0
LINE
  5
BF
330
1F
100
AcDbEntity
  8
0
  6
Continuous
 62
     7
100
AcDbLine
 10
301.0783264033
 20
417.2835018947
 30
0.0
 11
321.1425369517
 21
417.2835018947
 31
0.0
  0
LINE
  5
C0
330
1F
100
AcDbEntity
  8
0
  6
Continuous
 62
     7
100
AcDbLine
 10
165.8783264033
 20
420.3585018947
 30
0.0
 11
167.5283264033
 21
420.3585018947
 31
0.0
  0
LINE
  5
C1
330
1F
100
AcDbEntity
  8
0
  6
Continuous
 62
     9
100
AcDbLine
 10
239.4283264033
 20
417.2835018947
 30
0.0
 11
239.4283264033
 21
354.2835018947
 31
0.0
  0
LINE
  5
C2
330
1F
100
AcDbEntity
  8
0
  6
Continuous
 62
     7
100
AcDbLine
 10
65.50360939769996
 20
406.1713942391
 30
0.0
 11
164.8386440701
 21
420.6370839363
 31
0.0
  0
LINE
  5
C3
330
1F
100
AcDbEntity
  8
0
  6
Continuous
 62
     7
100
AcDbLine
 10
175.3408264033
 20
431.2835018947
 30
0.0
 11
177.6658264033
 21
431.2835018947
 31
0.0
  0
LINE
  5
C4
330
1F
100
AcDbEntity
  8
0
  6
Continuous
 62
     7
100
AcDbLine
 10
169.5283264033
 20
434.5210018947
 30
0.0
 11
173.2629480175
 21
434.5210018947
 31
0.0
  0
LINE
  5
C5
330
1F
100
AcDbEntity
  8
0
  6
Continuous
 62
     7
100
AcDbLine
 10
179.7437047892
 20
434.5210018947
 30
0.0
 11
183.4283264033
 21
434.5210018947
 31
0.0
  0
LWPOLYLINE
  5
C6
330
1F
100
AcDbEntity
  8
DEFAULT_2
  6
DASHED
 62
     8
100
AcDbPolyline
 90
        2
 70
     0
 43
0.35
 10
252.3283264033
 20
372.2836118606
 10
252.3283264033
 20
399.2833919288
  0
LWPOLYLINE
  5
C7
330
1F
100
AcDbEntity
  8
DEFAULT_2
  6
DASHED
 62
     8
100
AcDbPolyline
 90
        2
 70
     0
 43
0.35
 10
264.0784232078
 20
399.2835018947
 10
264.0784232078
 20
372.2835018947
  0
LINE
  5
C8
330
1F
100
AcDbEntity
  8
0
  6
Continuous
 62
     7
100
AcDbLine
 10
282.7070060598
 20
355.1621815512
 30
0.0
 11
288.0354331845
 21
360.4906086759
 31
0.0
  0
LINE
  5
C9
330
1F
100
AcDbEntity
  8
0
  6
Continuous
 62
     7
100
AcDbLine
 10
282.7070060598
 20
416.4048222383
 30
0.0
 11
288.0354331845
 21
411.0763951135
 31
0.0
  0
LINE
  5
CA
330
1F
100
AcDbEntity
  8
RUNDUNGEN
  6
Continuous
 62
     9
100
AcDbLine
 10
280.5856857162
 20
354.2835018947
 30
0.0
 11
280.5856857162
 21
417.2835018947
 31
0.0
  0
LINE
  5
CB
330
1F
100
AcDbEntity
  8
RUNDUNGEN
  6
Continuous
 62
     9
100
AcDbLine
 10
282.7070060598
 20
355.1621815512
 30
0.0
 11
282.7070060598
 21
416.4048222383
 31
0.0
  0
LINE
  5
CC
330
1F
100
AcDbEntity
  8
RUNDUNGEN
  6
Continuous
 62
     9
100
AcDbLine
 10
288.0354331845
 20
411.0763951135
 30
0.0
 11
288.0354331845
 21
360.4906086759
 31
0.0
  0
LINE
  5
CD
330
1F
100
AcDbEntity
  8
RUNDUNGEN
  6
Continuous
 62
     9
100
AcDbLine
 10
288.7425399657
 20
410.7835018947
 30
0.0
 11
288.7425399657
 21
360.7835018947
 31
0.0
  0
LINE
  5
CE
330
1F
100
AcDbEntity
  8
RUNDUNGEN
  6
Continuous
 62
     7
100
AcDbLine
 10
299.8283264033
 20
355.5335018947
 30
0.0
 11
299.8283264033
 21
416.0335018947
 31
0.0
  0
LINE
  5
CF
330
1F
100
AcDbEntity
  8
RUNDUNGEN
  6
Continuous
 62
     9
100
AcDbLine
 10
301.0783264033
 20
354.2835018947
 30
0.0
 11
301.0783264033
 21
417.2835018947
 31
0.0
  0
LINE
  5
D0
330
1F
100
AcDbEntity
  8
0
  6
Continuous
 62
     7
100
AcDbLine
 10
310.3283264033
 20
414.8319228348
 30
0.0
 11
310.3283264033
 21
410.8589886225
 31
0.0
  0
LINE
  5
D1
330
1F
100
AcDbEntity
  8
0
  6
Continuous
 62
     7
100
AcDbLine
 10
310.3283264033
 20
389.756436107
 30
0.0
 11
310.3283264033
 21
381.8105676824
 31
0.0
  0
LINE
  5
D2
330
1F
100
AcDbEntity
  8
0
  6
Continuous
 62
     7
100
AcDbLine
 10
310.3283264033
 20
360.708015167
 30
0.0
 11
310.3283264033
 21
356.7350809546
 31
0.0
  0
LWPOLYLINE
  5
D3
330
1F
100
AcDbEntity
  8
DEFAULT_2
  6
DASHED
 62
     8
100
AcDbPolyline
 90
        2
 70
     0
 43
0.35
 10
310.3283264033
 20
360.7835018947
 10
310.3283264033
 20
381.8105676824
  0
LWPOLYLINE
  5
D4
330
1F
100
AcDbEntity
  8
DEFAULT_2
  6
DASHED
 62
     8
100
AcDbPolyline
 90
        2
 70
     0
 43
0.35
 10
310.3283264033
 20
389.756436107
 10
310.3283264033
 20
410.7835018947
  0
LINE
  5
D5
330
1F
100
AcDbEntity
  8
0
  6
Continuous
 62
     9
100
AcDbLine
 10
321.1425369517
 20
354.2835018947
 30
0.0
 11
321.1425369517
 21
356.7350809546
 31
0.0
  0
LINE
  5
D6
330
1F
100
AcDbEntity
  8
0
  6
Continuous
 62
     9
100
AcDbLine
 10
321.1425369517
 20
360.708015167
 30
0.0
 11
321.1425369517
 21
381.8105676824
 31
0.0
  0
LINE
  5
D7
330
1F
100
AcDbEntity
  8
0
  6
Continuous
 62
     9
100
AcDbLine
 10
321.1425369517
 20
389.756436107
 30
0.0
 11
321.1425369517
 21
410.8589886225
 31
0.0
  0
LINE
  5
D8
330
1F
100
AcDbEntity
  8
0
  6
Continuous
 62
     9
100
AcDbLine
 10
321.1425369517
 20
414.8319228348
 30
0.0
 11
321.1425369517
 21
417.2835018947
 31
0.0
  0
LINE
  5
D9
330
1F
100
AcDbEntity
  8
0
  6
Continuous
 62
     9
100
AcDbLine
 10
322.2250687064
 20
354.9085018947
 30
0.0
 11
322.2250687064
 21
357.3401542357
 31
0.0
  0
LINE
  5
DA
330
1F
100
AcDbEntity
  8
0
  6
Continuous
 62
     9
100
AcDbLine
 10
322.2250687064
 20
361.1608089223
 30
0.0
 11
322.2250687064
 21
381.9628472081
 31
0.0
  0
LINE
  5
DB
330
1F
100
AcDbEntity
  8
0
  6
Continuous
 62
     9
100
AcDbLine
 10
322.2250687064
 20
389.6041565813
 30
0.0
 11
322.2250687064
 21
410.4061948671
 31
0.0
  0
LINE
  5
DC
330
1F
100
AcDbEntity
  8
0
  6
Continuous
 62
     9
100
AcDbLine
 10
322.2250687064
 20
414.2268495537
 30
0.0
 11
322.2250687064
 21
416.6585018947
 31
0.0
  0
LINE
  5
DD
330
1F
100
AcDbEntity
  8
0
  6
Continuous
 62
     7
100
AcDbLine
 10
325.3283264033
 20
360.2835018947
 30
0.0
 11
325.3283264033
 21
411.2835018947
 31
0.0
  0
LINE
  5
DE
330
1F
100
AcDbEntity
  8
RUNDUNGEN
  6
Continuous
 62
     7
100
AcDbLine
 10
325.3283264033
 20
360.2835018947
 30
0.0
 11
322.2250687064
 21
354.9085018947
 31
0.0
  0
LINE
  5
DF
330
1F
100
AcDbEntity
  8
0
  6
Continuous
 62
     7
100
AcDbLine
 10
322.2250687064
 20
354.9085018947
 30
0.0
 11
325.3283264033
 21
360.2835018947
 31
0.0
  0
LINE
  5
E0
330
1F
100
AcDbEntity
  8
0
  6
Continuous
 62
     7
100
AcDbLine
 10
322.2250687064
 20
416.6585018947
 30
0.0
 11
325.3283264033
 21
411.2835018947
 31
0.0
  0
LINE
  5
E1
330
1F
100
AcDbEntity
  8
RUNDUNGEN
  6
Continuous
 62
     7
100
AcDbLine
 10
325.3283264033
 20
411.2835018947
 30
0.0
 11
322.2250687064
 21
416.6585018947
 31
0.0
  0
LINE
  5
E2
330
1F
100
AcDbEntity
  8
0
  6
Continuous
 62
     7
100
AcDbLine
 10
323.3396342281
 20
382.4335018947
 30
0.0
 11
322.2250687064
 21
381.9628472081
 31
0.0
  0
LINE
  5
E3
330
1F
100
AcDbEntity
  8
0
  6
Continuous
 62
     7
100
AcDbLine
 10
322.2250687064
 20
389.6041565813
 30
0.0
 11
323.3396342281
 21
389.1335018947
 31
0.0
  0
ARC
  5
E4
330
1F
100
AcDbEntity
  8
0
  6
Continuous
 62
     7
100
AcDbCircle
 10
239.4283264033
 20
54.2835018947
 30
0.0
 40
300.0
100
AcDbArc
 50
90.0
 51
100.2446901284913
  0
ARC
  5
E5
330
1F
100
AcDbEntity
  8
0
  6
Continuous
 62
     7
100
AcDbCircle
 10
239.4283264033
 20
717.2835018947
 30
0.0
 40
299.9999999999702
100
AcDbArc
 50
259.7553098715087
 51
270.0
  0
ARC
  5
E6
330
1F
100
AcDbEntity
  8
0
  6
Continuous
 62
     7
100
AcDbCircle
 10
-77.4630497751
 20
461.7341958725
 30
0.0
 40
275.6240984704152
100
AcDbArc
 50
335.459299317832
 51
336.1325788932999
  0
ARC
  5
E7
330
1F
100
AcDbEntity
  8
0
  6
Continuous
 62
     7
100
AcDbCircle
 10
430.4697025812
 20
461.7341958722
 30
0.0
 40
275.6240984697994
100
AcDbArc
 50
203.8674211066999
 51
204.5407006821631
  0
ARC
  5
E8
330
1F
100
AcDbEntity
  8
0
  6
Continuous
 62
     7
100
AcDbCircle
 10
273.4280658023
 20
385.7835018947
 30
0.0
 40
50.02386593140634
100
AcDbArc
 50
356.16014046767
 51
3.83985953232996
  0
ARC
  5
E9
330
1F
100
AcDbEntity
  8
0
  6
Continuous
 62
     7
100
AcDbCircle
 10
310.9038536862
 20
410.6817322535
 30
0.0
 40
12.54807804749972
100
AcDbArc
 50
352.328884866801
 51
7.67111513316774
  0
ARC
  5
EA
330
1F
100
AcDbEntity
  8
0
  6
Continuous
 62
     7
100
AcDbCircle
 10
310.9038536862
 20
360.8852715359
 30
0.0
 40
12.54807804750586
100
AcDbArc
 50
352.3288848668323
 51
7.67111513319901
  0
ARC
  5
EB
330
1F
100
AcDbEntity
  8
RUNDUNGEN
  6
Continuous
 62
     7
100
AcDbCircle
 10
280.5856857162
 20
414.2835018947
 30
0.0
 40
3.0000000000571
100
AcDbArc
 50
45.0
 51
90.0
  0
ARC
  5
EC
330
1F
100
AcDbEntity
  8
RUNDUNGEN
  6
Continuous
 62
     7
100
AcDbCircle
 10
280.5856857162
 20
357.2835018947
 30
0.0
 40
3.0
100
AcDbArc
 50
270.0
 51
315.0000000013503
  0
ARC
  5
ED
330
1F
100
AcDbEntity
  8
0
  6
Continuous
 62
     7
100
AcDbCircle
 10
65.82832640329997
 20
367.6220548935
 30
0.0
 40
2.25
100
AcDbArc
 50
180.0
 51
261.7021731726453
  0
ARC
  5
EE
330
1F
100
AcDbEntity
  8
0
  6
Continuous
 62
     7
100
AcDbCircle
 10
65.82832640329997
 20
403.9449488959
 30
0.0
 40
2.249999999996176
100
AcDbArc
 50
98.29782682735467
 51
180.0
  0
ARC
  5
EF
330
1F
100
AcDbEntity
  8
RUNDUNGEN
  6
Continuous
 62
     7
100
AcDbCircle
 10
186.4283264033
 20
424.0344609756
 30
0.0
 40
2.0
100
AcDbArc
 50
180.0
 51
259.7553098712113
  0
ARC
  5
F0
330
1F
100
AcDbEntity
  8
RUNDUNGEN
  6
Continuous
 62
     7
100
AcDbCircle
 10
186.4283264033
 20
347.5325428139
 30
0.0
 40
1.999999999918836
100
AcDbArc
 50
100.2446901292981
 51
180.0
  0
ARC
  5
F1
330
1F
100
AcDbEntity
  8
RUNDUNGEN
  6
Continuous
 62
     7
100
AcDbCircle
 10
321.1425369517
 20
416.0335018947
 30
0.0
 40
1.249999999973569
100
AcDbArc
 50
30.00000000069947
 51
90.0
  0
ARC
  5
F2
330
1F
100
AcDbEntity
  8
RUNDUNGEN
  6
Continuous
 62
     7
100
AcDbCircle
 10
321.1425369517
 20
355.5335018947
 30
0.0
 40
1.25
100
AcDbArc
 50
270.0
 51
329.9999999993005
  0
ARC
  5
F3
330
1F
100
AcDbEntity
  8
RUNDUNGEN
  6
Continuous
 62
     7
100
AcDbCircle
 10
301.0783264033
 20
416.0335018947
 30
0.0
 40
1.25
100
AcDbArc
 50
90.0
 51
180.0
  0
ARC
  5
F4
330
1F
100
AcDbEntity
  8
RUNDUNGEN
  6
Continuous
 62
     7
100
AcDbCircle
 10
301.0783264033
 20
355.5335018947
 30
0.0
 40
1.25
100
AcDbArc
 50
180.0
 51
270.0
  0
ARC
  5
F5
330
1F
100
AcDbEntity
  8
RUNDUNGEN
  6
Continuous
 62
     7
100
AcDbCircle
 10
288.7425399657
 20
411.7835018947
 30
0.0
 40
1.00000000001906
100
AcDbArc
 50
225.0
 51
270.0
  0
ARC
  5
F6
330
1F
100
AcDbEntity
  8
RUNDUNGEN
  6
Continuous
 62
     7
100
AcDbCircle
 10
288.7425399657
 20
359.7835018947
 30
0.0
 40
1.0
100
AcDbArc
 50
90.0
 51
135.0000000000023
  0
ARC
  5
F7
330
1F
100
AcDbEntity
  8
0
  6
Continuous
 62
     7
100
AcDbCircle
 10
167.5283264033
 20
350.2085018947
 30
0.0
 40
1.0
100
AcDbArc
 50
0.0
 51
90.0
  0
ARC
  5
F8
330
1F
100
AcDbEntity
  8
0
  6
Continuous
 62
     7
100
AcDbCircle
 10
169.5283264033
 20
338.0460018947
 30
0.0
 40
1.0
100
AcDbArc
 50
180.0
 51
270.0
  0
ARC
  5
F9
330
1F
100
AcDbEntity
  8
0
  6
Continuous
 62
     7
100
AcDbCircle
 10
183.4283264033
 20
338.0460018947
 30
0.0
 40
1.0
100
AcDbArc
 50
270.0
 51
0.0
  0
ARC
  5
FA
330
1F
100
AcDbEntity
  8
0
  6
Continuous
 62
     7
100
AcDbCircle
 10
167.5283264033
 20
421.3585018947
 30
0.0
 40
1.0
100
AcDbArc
 50
270.0
 51
0.0
  0
ARC
  5
FB
330
1F
100
AcDbEntity
  8
0
  6
Continuous
 62
     7
100
AcDbCircle
 10
169.5283264033
 20
433.5210018947
 30
0.0
 40
1.0
100
AcDbArc
 50
90.0
 51
180.0
  0
ARC
  5
FC
330
1F
100
AcDbEntity
  8
0
  6
Continuous
 62
     7
100
AcDbCircle
 10
183.4283264033
 20
433.5210018947
 30
0.0
 40
1.0
100
AcDbArc
 50
0.0
 51
90.0
  0
ARC
  5
FD
330
1F
100
AcDbEntity
  8
0
  6
Continuous
 62
     7
100
AcDbCircle
 10
177.6658264033
 20
339.5335018947
 30
0.0
 40
0.75
100
AcDbArc
 50
0.0
 51
90.0
  0
ARC
  5
FE
330
1F
100
AcDbEntity
  8
0
  6
Continuous
 62
     7
100
AcDbCircle
 10
175.3408264033
 20
339.5335018947
 30
0.0
 40
0.75
100
AcDbArc
 50
90.0
 51
180.0
  0
ARC
  5
FF
330
1F
100
AcDbEntity
  8
0
  6
Continuous
 62
     7
100
AcDbCircle
 10
177.6658264033
 20
432.0335018947
 30
0.0
 40
0.75
100
AcDbArc
 50
270.0
 51
0.0
  0
ARC
  5
100
330
1F
100
AcDbEntity
  8
0
  6
Continuous
 62
     7
100
AcDbCircle
 10
175.3408264033
 20
432.0335018947
 30
0.0
 40
0.75
100
AcDbArc
 50
180.0
 51
270.0
  0
SPLINE
  5
101
330
1F
100
AcDbEntity
  8
0
  6
Continuous
 62
     7
100
AcDbSpline
210
0.0
220
0.0
230
1.0
 70
     8
 71
     3
 72
    11
 73
     7
 74
     5
 42
0.0000000001
 43
0.0000000001
 44
0.00000001
 40
0.0
 40
0.0
 40
0.0
 40
0.0
 40
0.2824665656321695
 40
0.5684424498184639
 40
0.8897488044323922
 40
1.209172372514499
 40
1.209172372514499
 40
1.209172372514499
 40
1.209172372514499
 10
322.2250687064
 20
410.4061948671
 30
0.0
 10
322.159458606853
 20
410.4745631883398
 30
0.0
 10
322.0274232785804
 20
410.6121492276947
 30
0.0
 10
321.7605961200584
 20
410.7502798307716
 30
0.0
 10
321.463365626564
 20
410.8427113528196
 30
0.0
 10
321.2492701366048
 20
410.8535735054278
 30
0.0
 10
321.1425369517
 20
410.8589886225
 30
0.0
 11
322.2250687064
 21
410.4061948671
 31
0.0
 11
322.0187479007681
 21
410.5991173537713
 31
0.0
 11
321.7683837604612
 21
410.7373201163504
 31
0.0
 11
321.4606019681748
 21
410.8295597057482
 31
0.0
 11
321.1425369517
 21
410.8589886225
 31
0.0
  0
SPLINE
  5
102
330
1F
100
AcDbEntity
  8
0
  6
Continuous
 62
     7
100
AcDbSpline
210
0.0
220
0.0
230
1.0
 70
     8
 71
     3
 72
    11
 73
     7
 74
     5
 42
0.0000000001
 43
0.0000000001
 44
0.00000001
 40
0.0
 40
0.0
 40
0.0
 40
0.0
 40
0.3194240369407795
 40
0.6407308582647193
 40
0.9267062690663019
 40
1.209172374262845
 40
1.209172374262845
 40
1.209172374262845
 40
1.209172374262845
 10
321.1425369517
 20
360.708015167
 30
0.0
 10
321.2492702936239
 20
360.7134303003064
 30
0.0
 10
321.4633660969057
 20
360.7242924853952
 30
0.0
 10
321.7605967095294
 20
360.8167241924112
 30
0.0
 10
322.0274236363178
 20
360.9548548727237
 30
0.0
 10
322.1594587250497
 20
361.0924407037247
 30
0.0
 10
322.2250687064
 20
361.1608089223
 30
0.0
 11
321.1425369517
 21
360.708015167
 31
0.0
 11
321.4606024309044
 21
360.7374441716387
 31
0.0
 11
321.7683846278408
 21
360.829684036547
 31
0.0
 11
322.0187482795762
 21
360.9678867046574
 31
0.0
 11
322.2250687064
 21
361.1608089223
 31
0.0
  0
SPLINE
  5
103
330
1F
100
AcDbEntity
  8
0
  6
Continuous
 62
     7
100
AcDbSpline
210
0.0
220
0.0
230
1.0
 70
     8
 71
     3
 72
     9
 73
     5
 74
     3
 42
0.0000000001
 43
0.0000000001
 44
0.00000001
 40
0.0
 40
0.0
 40
0.0
 40
0.0
 40
0.8945322731766773
 40
1.789064548103907
 40
1.789064548103907
 40
1.789064548103907
 40
1.789064548103907
 10
323.339634228093
 20
409.006732253494
 30
0.0
 10
323.1539162660338
 20
409.2400102350123
 30
0.0
 10
322.7824803415518
 20
409.7065661985054
 30
0.0
 10
322.4108725849052
 20
410.1729853107497
 30
0.0
 10
322.2250687064
 20
410.4061948671
 30
0.0
 11
323.339634228093
 21
409.006732253494
 31
0.0
 11
322.7824373838741
 21
409.7065319852367
 31
0.0
 11
322.2250687064
 21
410.4061948671
 31
0.0
  0
SPLINE
  5
104
330
1F
100
AcDbEntity
  8
0
  6
Continuous
 62
     7
100
AcDbSpline
210
0.0
220
0.0
230
1.0
 70
     8
 71
     3
 72
     9
 73
     5
 74
     3
 42
0.0000000001
 43
0.0000000001
 44
0.00000001
 40
0.0
 40
0.0
 40
0.0
 40
0.0
 40
0.8945322749565293
 40
1.789064548103902
 40
1.789064548103902
 40
1.789064548103902
 40
1.789064548103902
 10
322.2250687064
 20
361.1608089223
 30
0.0
 10
322.4108725849021
 20
361.3940184786652
 30
0.0
 10
322.7824803415305
 20
361.8604375909241
 30
0.0
 10
323.1539162660308
 20
362.3269935544027
 30
0.0
 10
323.339634228093
 20
362.560271535906
 30
0.0
 11
322.2250687064
 21
361.1608089223
 31
0.0
 11
322.7824373838741
 21
361.8604718042008
 31
0.0
 11
323.339634228093
 21
362.560271535906
 31
0.0
  0
SPLINE
  5
105
330
1F
100
AcDbEntity
  8
0
  6
Continuous
 62
     7
100
AcDbSpline
210
0.0
220
0.0
230
1.0
 70
     8
 71
     3
 72
     9
 73
     5
 74
     3
 42
0.0000000001
 43
0.0000000001
 44
0.00000001
 40
0.0
 40
0.0
 40
0.0
 40
0.0
 40
1.088530555848417
 40
2.17706111004291
 40
2.17706111004291
 40
2.17706111004291
 40
2.17706111004291
 10
322.2250687064
 20
414.2268495537
 30
0.0
 10
322.4108814314378
 20
413.9151942116372
 30
0.0
 10
322.782506881231
 20
413.291883527985
 30
0.0
 10
323.1539251125711
 20
412.6684493448372
 30
0.0
 10
323.3396342281
 20
412.3567322535
 30
0.0
 11
322.2250687064
 21
414.2268495537
 31
0.0
 11
322.7824550769
 21
413.2918526526375
 31
0.0
 11
323.3396342281
 21
412.3567322535
 31
0.0
  0
SPLINE
  5
106
330
1F
100
AcDbEntity
  8
0
  6
Continuous
 62
     7
100
AcDbSpline
210
0.0
220
0.0
230
1.0
 70
     8
 71
     3
 72
    15
 73
    11
 74
     9
 42
0.0000000001
 43
0.0000000001
 44
0.00000001
 40
0.0
 40
0.0
 40
0.0
 40
0.0
 40
0.1635787864367744
 40
0.3274341230722374
 40
0.4903801840820666
 40
0.6532371553341578
 40
0.8146888508027768
 40
0.9762230920728143
 40
1.136240333943228
 40
1.295959296727724
 40
1.295959296727724
 40
1.295959296727724
 40
1.295959296727724
 10
321.1425369517
 20
414.8319228348
 30
0.0
 10
321.1970983948145
 20
414.8299096783008
 30
0.0
 10
321.3063135239209
 20
414.8258799618118
 30
0.0
 10
321.4672636890223
 20
414.7937389840577
 30
0.0
 10
321.6227283274163
 20
414.7428892507204
 30
0.0
 10
321.7696639943235
 20
414.6725833078048
 30
0.0
 10
321.9060559824244
 20
414.5843905476663
 30
0.0
 10
322.028852204383
 20
414.4797085144145
 30
0.0
 10
322.1378278254586
 20
414.3610304600343
 30
0.0
 10
322.1960065042117
 20
414.2715486968956
 30
0.0
 10
322.2250687064
 20
414.2268495537
 30
0.0
 11
321.1425369517
 21
414.8319228348
 31
0.0
 11
321.305785439105
 21
414.8215329006283
 31
0.0
 11
321.466681506259
 21
414.7905324664649
 31
0.0
 11
321.621457747715
 21
414.7395841212576
 31
0.0
 11
321.7683846278272
 21
414.6693353847145
 31
0.0
 11
321.9038942918087
 21
414.5815641995948
 31
0.0
 11
322.026981831198
 21
414.4769565098691
 31
0.0
 11
322.1343336740803
 21
414.358292701041
 31
0.0
 11
322.2250687064
 21
414.2268495537
 31
0.0
  0
SPLINE
  5
107
330
1F
100
AcDbEntity
  8
0
  6
Continuous
 62
     7
100
AcDbSpline
210
0.0
220
0.0
230
1.0
 70
     8
 71
     3
 72
    13
 73
     9
 74
     7
 42
0.0000000001
 43
0.0000000001
 44
0.00000001
 40
0.0
 40
0.0
 40
0.0
 40
0.0
 40
0.3138224605695197
 40
0.6275710913548667
 40
0.759121968231504
 40
0.890739432053768
 40
0.9948365677334874
 40
1.098755804293746
 40
1.098755804293746
 40
1.098755804293746
 40
1.098755804293746
 10
321.1425369517
 20
389.756436107
 30
0.0
 10
321.2471649473482
 20
389.7547727172634
 30
0.0
 10
321.4563963238919
 20
389.7514463291189
 30
0.0
 10
321.7084984448713
 20
389.7257793242796
 30
0.0
 10
321.8984697963151
 20
389.6955691531685
 30
0.0
 10
322.0182400564041
 20
389.6701219918094
 30
0.0
 10
322.1279225865354
 20
389.6414418402891
 30
0.0
 10
322.1927051341553
 20
389.616577912946
 30
0.0
 10
322.2250687064
 20
389.6041565813
 30
0.0
 11
321.1425369517
 21
389.756436107
 31
0.0
 11
321.456216664126
 21
389.7469717121301
 31
0.0
 11
321.7683846277719
 21
389.7155175265127
 31
0.0
 11
321.8982391793887
 21
389.6944597813485
 31
0.0
 11
322.026981831181
 21
389.667101301996
 31
0.0
 11
322.1273802678908
 21
389.6395991645708
 31
0.0
 11
322.2250687064
 21
389.6041565813
 31
0.0
  0
SPLINE
  5
108
330
1F
100
AcDbEntity
  8
0
  6
Continuous
 62
     7
100
AcDbSpline
210
0.0
220
0.0
230
1.0
 70
     8
 71
     3
 72
     9
 73
     5
 74
     3
 42
0.0000000001
 43
0.0000000001
 44
0.00000001
 40
0.0
 40
0.0
 40
0.0
 40
0.0
 40
1.088530554162264
 40
2.177061110042906
 40
2.177061110042906
 40
2.177061110042906
 40
2.177061110042906
 10
323.3396342281
 20
359.2102715359
 30
0.0
 10
323.1539251125683
 20
358.898554444577
 30
0.0
 10
322.7825068812118
 20
358.2751202614389
 30
0.0
 10
322.4108814314351
 20
357.651809577777
 30
0.0
 10
322.2250687064
 20
357.3401542357
 30
0.0
 11
323.3396342281
 21
359.2102715359
 31
0.0
 11
322.7824550769
 21
358.2751511368
 31
0.0
 11
322.2250687064
 21
357.3401542357
 31
0.0
  0
SPLINE
  5
109
330
1F
100
AcDbEntity
  8
0
  6
Continuous
 62
     7
100
AcDbSpline
210
0.0
220
0.0
230
1.0
 70
     8
 71
     3
 72
    15
 73
    11
 74
     9
 42
0.0000000001
 43
0.0000000001
 44
0.00000001
 40
0.0
 40
0.0
 40
0.0
 40
0.0
 40
0.1597192799849576
 40
0.319736840972586
 40
0.4812712601288006
 40
0.642723132316306
 40
0.8055799297130136
 40
0.9685258155907195
 40
1.132380830380895
 40
1.295959296718818
 40
1.295959296718818
 40
1.295959296718818
 40
1.295959296718818
 10
322.2250687064
 20
357.3401542357
 30
0.0
 10
322.1960064424525
 20
357.2954550059907
 30
0.0
 10
322.1378276398246
 20
357.2059730692921
 30
0.0
 10
322.0288517824224
 20
357.0872948580322
 30
0.0
 10
321.9060553283594
 20
356.9826127495715
 30
0.0
 10
321.7696632262422
 20
356.8944200522161
 30
0.0
 10
321.6227275635376
 20
356.8241142370347
 30
0.0
 10
321.4672631099568
 20
356.7732646607176
 30
0.0
 10
321.3063132026516
 20
356.7411238022804
 30
0.0
 10
321.1970982879189
 20
356.737094102673
 30
0.0
 10
321.1425369517
 20
356.7350809546
 30
0.0
 11
322.2250687064
 21
357.3401542357
 31
0.0
 11
322.1343334751747
 21
357.2087108402273
 31
0.0
 11
322.0269813705842
 21
357.0900468378322
 31
0.0
 11
321.9038936347235
 21
356.9854391045959
 31
0.0
 11
321.7683837604534
 21
356.8976679190728
 31
0.0
 11
321.6214569881335
 21
356.8274193601269
 31
0.0
 11
321.4666808841674
 21
356.7764711573565
 31
0.0
 11
321.305785121063
 21
356.7454708462781
 31
0.0
 11
321.1425369517
 21
356.7350809546
 31
0.0
  0
SPLINE
  5
10A
330
1F
100
AcDbEntity
  8
0
  6
Continuous
 62
     7
100
AcDbSpline
210
0.0
220
0.0
230
1.0
 70
     8
 71
     3
 72
    13
 73
     9
 74
     7
 42
0.0000000001
 43
0.0000000001
 44
0.00000001
 40
0.0
 40
0.0
 40
0.0
 40
0.0
 40
0.1039194727053169
 40
0.2080168457233356
 40
0.3396345108739264
 40
0.4711855883484665
 40
0.7849337816956289
 40
1.098755804385496
 40
1.098755804385496
 40
1.098755804385496
 40
1.098755804385496
 10
322.2250687064
 20
381.9628472081
 30
0.0
 10
322.1927050596888
 20
381.950425850382
 30
0.0
 10
322.1279223627629
 20
381.9255618707559
 30
0.0
 10
322.0182396069198
 20
381.8968816901295
 30
0.0
 10
321.8984691325594
 20
381.8714345127028
 30
0.0
 10
321.7084977853663
 20
381.8412243893077
 30
0.0
 10
321.4563958859098
 20
381.8155574478511
 30
0.0
 10
321.2471648013051
 20
381.8122310679922
 30
0.0
 10
321.1425369517
 20
381.8105676824
 30
0.0
 11
322.2250687064
 21
381.9628472081
 31
0.0
 11
322.1273800424069
 21
381.9274045539304
 31
0.0
 11
322.0269813706332
 21
381.8999023762834
 31
0.0
 11
321.8982385152638
 21
381.8725438863572
 31
0.0
 11
321.7683837605001
 21
381.8514861407524
 31
0.0
 11
321.4562162268361
 21
381.8200320511169
 31
0.0
 11
321.1425369517
 21
381.8105676824
 31
0.0
  0
SPLINE
  5
10B
330
1F
100
AcDbEntity
  8
0
  6
Continuous
 62
     7
100
AcDbSpline
210
0.0
220
0.0
230
1.0
 70
     8
 71
     3
 72
    17
 73
    13
 74
    11
 42
0.0000000001
 43
0.0000000001
 44
0.00000001
 40
0.0
 40
0.0
 40
0.0
 40
0.0
 40
0.2235602340948689
 40
0.4475666316117682
 40
0.6712655547848325
 40
0.8950713345244247
 40
1.119203328740137
 40
1.342351511398003
 40
1.454388474263312
 40
1.566418982949352
 40
1.678554291423371
 40
1.790469539379875
 40
1.790469539379875
 40
1.790469539379875
 40
1.790469539379875
 10
184.4283264033
 20
348.5296912675
 30
0.0
 10
184.4253863911443
 20
348.4551112061704
 30
0.0
 10
184.4195004993946
 20
348.3058022426604
 30
0.0
 10
184.3715428360725
 20
348.0861117241807
 30
0.0
 10
184.2942000468094
 20
347.875287539768
 30
0.0
 10
184.1825429114698
 20
347.6798437794113
 30
0.0
 10
184.0372391850514
 20
347.5080330487003
 30
0.0
 10
183.8887303979955
 20
347.3924451967232
 30
0.0
 10
183.7559847750411
 20
347.3237499490263
 30
0.0
 10
183.6502971425474
 20
347.2857025972608
 30
0.0
 10
183.5403994687182
 20
347.261299849768
 30
0.0
 10
183.4656596221625
 20
347.2581721971382
 30
0.0
 10
183.4283264033
 20
347.2566099068
 30
0.0
 11
184.4283264033
 21
348.5296912675
 31
0.0
 11
184.4129968885686
 21
348.3066572247024
 31
0.0
 11
184.3666192042768
 21
348.0875043636026
 31
0.0
 11
184.2885016670975
 21
347.877888384694
 31
0.0
 11
184.1769754388692
 21
347.6838499156678
 31
0.0
 11
184.03152311134
 21
347.5133249285033
 31
0.0
 11
183.8545771240536
 21
347.3773645335099
 31
0.0
 11
183.7550008305333
 21
347.3260143356833
 31
0.0
 11
183.6496223455253
 21
347.2879852708265
 31
0.0
 11
183.5399578165998
 21
347.2645754758232
 31
0.0
 11
183.4283264033
 21
347.2566099068
 31
0.0
  0
SPLINE
  5
10C
330
1F
100
AcDbEntity
  8
0
  6
Continuous
 62
     7
100
AcDbSpline
210
0.0
220
0.0
230
1.0
 70
     8
 71
     3
 72
    17
 73
    13
 74
    11
 42
0.0000000001
 43
0.0000000001
 44
0.00000001
 40
0.0
 40
0.0
 40
0.0
 40
0.0
 40
0.0856061207781315
 40
0.1714040658160067
 40
0.2570770785180877
 40
0.3427486324066356
 40
0.5133560119181054
 40
0.6847864607641763
 40
0.8559332498662506
 40
1.026944760390244
 40
1.198166489446602
 40
1.369069305193607
 40
1.369069305193607
 40
1.369069305193607
 40
1.369069305193607
 10
175.3408264033
 20
351.4436198332
 30
0.0
 10
175.3122670759236
 20
351.4423386972911
 30
0.0
 10
175.2550844260758
 20
351.4397735547328
 30
0.0
 10
175.1712420804646
 20
351.4199009984491
 30
0.0
 10
175.0910303546153
 20
351.3890792875
 30
0.0
 10
174.990914765639
 20
351.3339221003107
 30
0.0
 10
174.8799051933382
 20
351.2423225149492
 30
0.0
 10
174.7723918454646
 20
351.1080481650998
 30
0.0
 10
174.6899707677301
 20
350.9570295585485
 30
0.0
 10
174.6329439923515
 20
350.7951460165655
 30
0.0
 10
174.5974084174286
 20
350.6270299454506
 30
0.0
 10
174.5930190441499
 20
350.5129027173053
 30
0.0
 10
174.5908264033
 20
350.4558922954
 30
0.0
 11
175.3408264033
 21
351.4436198332
 31
0.0
 11
175.2554680652845
 21
351.4371112199902
 31
0.0
 11
175.1718110341792
 21
351.4180642118429
 31
0.0
 11
175.0918505739329
 21
351.3873040118655
 31
0.0
 11
175.0167337507902
 21
351.3461084049805
 31
0.0
 11
174.8843773209833
 21
351.2384577968422
 31
0.0
 11
174.7765377938395
 21
351.1051947667964
 31
0.0
 11
174.6941780273983
 21
350.9551677949157
 31
0.0
 11
174.6365417888329
 21
350.7941615815706
 31
0.0
 11
174.6022211715708
 21
350.6264148208514
 31
0.0
 11
174.5908264033
 21
350.4558922954
 31
0.0
  0
SPLINE
  5
10D
330
1F
100
AcDbEntity
  8
0
  6
Continuous
 62
     7
100
AcDbSpline
210
0.0
220
0.0
230
1.0
 70
     8
 71
     3
 72
    17
 73
    13
 74
    11
 42
0.0000000001
 43
0.0000000001
 44
0.00000001
 40
0.0
 40
0.0
 40
0.0
 40
0.0
 40
0.1119154476661611
 40
0.2240509586530645
 40
0.3360819825981158
 40
0.4481194617026024
 40
0.6712673498095622
 40
0.8953990333268038
 40
1.119204507490588
 40
1.342903129543692
 40
1.566909390283678
 40
1.790469488977754
 40
1.790469488977754
 40
1.790469488977754
 40
1.790469488977754
 10
169.5283264033
 20
347.2566099068
 30
0.0
 10
169.4909931176769
 20
347.2581722063016
 30
0.0
 10
169.4162531366648
 20
347.2612998773096
 30
0.0
 10
169.3063551772758
 20
347.2857027684398
 30
0.0
 10
169.2006671952033
 20
347.3237503724581
 30
0.0
 10
169.0679214549588
 20
347.3924459349151
 30
0.0
 10
168.9194128403327
 20
347.5080339396974
 30
0.0
 10
168.7741094345263
 20
347.6798445361927
 30
0.0
 10
168.6624525385237
 20
347.8752880752884
 30
0.0
 10
168.5851098805035
 20
348.0861120412829
 30
0.0
 10
168.537152292383
 20
348.3058023788491
 30
0.0
 10
168.531266410523
 20
348.4551112514134
 30
0.0
 10
168.5283264033
 20
348.5296912675
 30
0.0
 11
169.5283264033
 21
347.2566099068
 31
0.0
 11
169.4166947928463
 21
347.2645755187552
 31
0.0
 11
169.3070300808448
 21
347.287985426186
 31
0.0
 11
169.2016511508499
 21
347.3260147758954
 31
0.0
 11
169.1020744745263
 21
347.3773653577464
 31
0.0
 11
168.92512889333
 21
347.5133257978078
 31
0.0
 11
168.7796768942972
 21
347.683850656798
 31
0.0
 11
168.668150904264
 21
347.877888910276
 31
0.0
 11
168.5900335209378
 21
348.0875046251705
 31
0.0
 11
168.5436558951849
 21
348.3066573588524
 31
0.0
 11
168.5283264033
 21
348.5296912675
 31
0.0
  0
SPLINE
  5
10E
330
1F
100
AcDbEntity
  8
0
  6
Continuous
 62
     7
100
AcDbSpline
210
0.0
220
0.0
230
1.0
 70
     8
 71
     3
 72
    17
 73
    13
 74
    11
 42
0.0000000001
 43
0.0000000001
 44
0.00000001
 40
0.0
 40
0.0
 40
0.0
 40
0.0
 40
0.170902112912184
 40
0.3421231434977784
 40
0.513135376384023
 40
0.6842828841296398
 40
0.8557140430166176
 40
1.026322127398841
 40
1.111993247384478
 40
1.197665821289328
 40
1.283463468635682
 40
1.369069297522689
 40
1.369069297522689
 40
1.369069297522689
 40
1.369069297522689
 10
178.4158264033
 20
350.4558922954
 30
0.0
 10
178.4136337751937
 20
350.512902482582
 30
0.0
 10
178.4092444273534
 20
350.627029242736
 30
0.0
 10
178.373709018414
 20
350.7951451071268
 30
0.0
 10
178.3166823385875
 20
350.9570289493475
 30
0.0
 10
178.2342609849135
 20
351.1080482363608
 30
0.0
 10
178.1267471057461
 20
351.2423230901404
 30
0.0
 10
178.0157371355368
 20
351.3339227300666
 30
0.0
 10
177.9156215105255
 20
351.3890797279134
 30
0.0
 10
177.8354101152339
 20
351.4199012077127
 30
0.0
 10
177.7515680860183
 20
351.4397735938066
 30
0.0
 10
177.6943856331529
 20
351.4423387102802
 30
0.0
 10
177.6658264033
 20
351.4436198332
 30
0.0
 11
178.4158264033
 21
350.4558922954
 31
0.0
 11
178.4044317110803
 21
350.6264141215311
 31
0.0
 11
178.3701113597074
 21
350.7941602237106
 31
0.0
 11
178.3124750424572
 21
350.9551671761399
 31
0.0
 11
178.2301149918224
 21
351.1051948118174
 31
0.0
 11
178.1222749443816
 21
351.238458334228
 31
0.0
 11
177.9899178089319
 21
351.346109191875
 31
0.0
 11
177.9148012988257
 21
351.3873044671994
 31
0.0
 11
177.8348412117527
 21
351.4180644150987
 31
0.0
 11
177.751184453057
 21
351.4371112787434
 31
0.0
 11
177.6658264033
 21
351.4436198332
 31
0.0
  0
SPLINE
  5
10F
330
1F
100
AcDbEntity
  8
RUNDUNGEN
  6
Continuous
 62
     7
100
AcDbSpline
210
0.0
220
0.0
230
1.0
 70
     8
 71
     3
 72
    15
 73
    11
 74
     9
 42
0.0000000001
 43
0.0000000001
 44
0.00000001
 40
0.0
 40
0.0
 40
0.0
 40
0.0
 40
1.885802023632506
 40
3.771944183292828
 40
5.658087632272434
 40
7.543905744353375
 40
9.429723856451215
 40
11.3158673054684
 40
13.20200946518782
 40
15.08781148898667
 40
15.08781148898667
 40
15.08781148898667
 40
15.08781148898667
 10
184.4283264033
 20
378.2412296506
 30
0.0
 10
184.4346707425873
 20
378.8698221564122
 30
0.0
 10
184.44736056547
 20
380.1271205452391
 30
0.0
 10
184.5114951466063
 20
382.0121508102587
 30
0.0
 10
184.5598248523643
 20
383.8975692076322
 30
0.0
 10
184.5820844901185
 20
385.7835018946217
 30
0.0
 10
184.5598248526029
 20
387.6694345816277
 30
0.0
 10
184.5114951467132
 20
389.5548529790368
 30
0.0
 10
184.4473605643011
 20
391.4398832441108
 30
0.0
 10
184.4346707421979
 20
392.6971816330259
 30
0.0
 10
184.4283264033
 20
393.3257741389
 30
0.0
 11
184.4283264033
 21
378.2412296506
 31
0.0
 11
184.4548743830634
 21
380.1268447961446
 31
0.0
 11
184.5088608063393
 21
382.012214179727
 31
0.0
 11
184.5554822068599
 21
383.8977813504059
 31
0.0
 11
184.574665037569
 21
385.7835018946167
 31
0.0
 11
184.555482207037
 21
387.6692224388461
 31
0.0
 11
184.5088608062559
 21
389.5547896095562
 31
0.0
 11
184.454874382303
 21
391.4401589931784
 31
0.0
 11
184.4283264033
 21
393.3257741389
 31
0.0
  0
DIMENSION
  5
11A
330
1F
100
AcDbEntity
  8
1
100
AcDbDimension
  2
*D2
 10
349.366666509207
 20
417.2835018947
 30
0.0
 11
345.616666509207
 21
385.129173887326
 31
0.0
 70
    32
  1
<>
 71
     5
 42
-1.0
 53
90.0
  3
ME10_DIM_10
100
AcDbAlignedDimension
 13
280.5856857162
 23
354.2835018947
 33
0.0
 14
280.5856857162
 24
417.2835018947
 34
0.0
 50
90.0
100
AcDbRotatedDimension
  0
DIMENSION
  5
125
330
1F
100
AcDbEntity
  8
1
100
AcDbDimension
  2
*D3
 10
339.188202101231
 20
405.7835018947
 30
0.0
 11
335.438202101231
 21
384.346215086712
 31
0.0
 70
    32
  1
<>
 71
     5
 42
-1.0
 53
90.0
  3
ME10_DIM_11
100
AcDbAlignedDimension
 13
310.3283264033
 23
365.7835018947
 33
0.0
 14
310.3283264033
 24
405.7835018947
 34
0.0
 50
90.0
100
AcDbRotatedDimension
  0
DIMENSION
  5
130
330
1F
100
AcDbEntity
  8
1
100
AcDbDimension
  2
*D4
 10
310.3283264033
 20
443.459604533033
 30
0.0
 11
244.4763397236907
 21
447.209604533033
 31
0.0
 70
    32
  1
<>
 71
     5
 42
-1.0
 53
0.00013888888889
  3
ME10_DIM_12
100
AcDbAlignedDimension
 13
184.4283264033
 23
433.5210018947
 33
0.0
 14
310.3283264033
 24
410.7835018947
 34
0.0
100
AcDbRotatedDimension
  0
DIMENSION
  5
13B
330
1F
100
AcDbEntity
  8
1
100
AcDbDimension
  2
*D5
 10
165.3283264033
 20
451.484932239322
 30
0.0
 11
237.20781832132
 21
455.234932239322
 31
0.0
 70
    32
  1
<>
 71
     5
 42
-1.0
 53
0.00013888888889
  3
ME10_DIM_13
100
AcDbAlignedDimension
 13
310.3283264033
 23
410.7835018947
 33
0.0
 14
165.3283264033
 24
437.5210018947
 34
0.0
100
AcDbRotatedDimension
  0
DIMENSION
  5
146
330
1F
100
AcDbEntity
  8
1
100
AcDbDimension
  2
*D6
 10
165.3283264033
 20
460.097479046071
 30
0.0
 11
242.297050525308
 21
463.847479046071
 31
0.0
 70
    32
  1
<>
 71
     5
 42
-1.0
 53
0.00013888888889
  3
ME10_DIM_14
100
AcDbAlignedDimension
 13
325.3283264033
 23
411.2835018947
 33
0.0
 14
165.3283264033
 24
437.5210018947
 34
0.0
100
AcDbRotatedDimension
  0
DIMENSION
  5
151
330
1F
100
AcDbEntity
  8
1
100
AcDbDimension
  2
*D7
 10
310.3283264033
 20
467.731327352052
 30
0.0
 11
192.8992606363417
 21
471.481327352052
 31
0.0
 70
    32
  1
<>
 71
     5
 42
-1.0
 53
0.00013888888889
  3
ME10_DIM_15
100
AcDbAlignedDimension
 13
63.57832640329997
 23
403.9447360947
 33
0.0
 14
310.3283264033
 24
410.7835018947
 34
0.0
100
AcDbRotatedDimension
  0
INSERT
  5
158
330
1F
100
AcDbEntity
  8
1
100
AcDbBlockReference
  2
*D8
 10
0.0
 20
0.0
 30
0.0
  0
ENDSEC
  0
SECTION
  2
OBJECTS
  0
DICTIONARY
  5
C
330
0
100
AcDbDictionary
281
     1
  3
ACAD_GROUP
350
D
  3
ACAD_LAYOUT
350
1A
  3
ACAD_MLEADERSTYLE
350
15B
  3
ACAD_MLINESTYLE
350
17
  3
ACAD_PLOTSETTINGS
350
19
  3
ACAD_PLOTSTYLENAME
350
E
  3
ACAD_SCALELIST
350
4A
  3
ACAD_VISUALSTYLE
350
2A
  3
AcDbVariableDictionary
350
159
  0
DICTIONARY
  5
D
102
{ACAD_REACTORS
330
C
102
}
330
C
100
AcDbDictionary
281
     1
  0
DICTIONARY
  5
1A
102
{ACAD_REACTORS
330
C
102
}
330
C
100
AcDbDictionary
281
     1
  3
Layout1
350
1E
  3
Layout2
350
26
  3
Model
350
22
  0
DICTIONARY
  5
15B
102
{ACAD_REACTORS
330
C
102
}
330
C
100
AcDbDictionary
281
     1
  0
DICTIONARY
  5
17
102
{ACAD_REACTORS
330
C
102
}
330
C
100
AcDbDictionary
281
     1
  3
Standard
350
18
  0
DICTIONARY
  5
19
102
{ACAD_REACTORS
330
C
102
}
330
C
100
AcDbDictionary
281
     1
  0
ACDBDICTIONARYWDFLT
  5
E
102
{ACAD_REACTORS
330
C
102
}
330
C
100
AcDbDictionary
281
     1
  3
Normal
350
F
100
AcDbDictionaryWithDefault
340
F
  0
DICTIONARY
  5
4A
102
{ACAD_REACTORS
330
C
102
}
330
C
100
AcDbDictionary
281
     1
  3
A0
350
4B
  3
A1
350
4C
  3
A2
350
4D
  3
A3
350
4E
  3
A4
350
4F
  3
A5
350
50
  3
A6
350
51
  3
A7
350
52
  3
A8
350
53
  3
A9
350
54
  3
B0
350
55
  3
B1
350
56
  3
B2
350
57
  3
B3
350
58
  3
B4
350
59
  3
B5
350
5A
  3
B6
350
5B
  3
B7
350
5C
  3
B8
350
5D
  3
B9
350
5E
  3
C0
350
5F
  3
C1
350
60
  3
C2
350
61
  3
C3
350
62
  3
C4
350
63
  3
C5
350
64
  3
C6
350
65
  3
C7
350
66
  3
C8
350
67
  3
C9
350
68
  3
D0
350
69
  3
D1
350
6A
  3
D2
350
6B
  0
DICTIONARY
  5
2A
102
{ACAD_REACTORS
330
C
102
}
330
C
100
AcDbDictionary
281
     1
  3
2dWireframe
350
2F
  3
3D Hidden
350
31
  3
3dWireframe
350
30
  3
Basic
350
32
  3
Brighten
350
36
  3
ColorChange
350
3A
  3
Conceptual
350
34
  3
Dim
350
35
  3
Facepattern
350
39
  3
Flat
350
2B
  3
FlatWithEdges
350
2C
  3
Gouraud
350
2D
  3
GouraudWithEdges
350
2E
  3
Linepattern
350
38
  3
Realistic
350
33
  3
Thicken
350
37
  0
DICTIONARY
  5
159
102
{ACAD_REACTORS
330
C
102
}
330
C
100
AcDbDictionary
281
     1
  3
CANNOSCALE
350
15C
  0
LAYOUT
  5
1E
102
{ACAD_REACTORS
330
1A
102
}
330
1A
100
AcDbPlotSettings
  1

  2
none_device
  4

  6

 40
0.0
 41
0.0
 42
0.0
 43
0.0
 44
0.0
 45
0.0
 46
0.0
 47
0.0
 48
0.0
 49
0.0
140
0.0
141
0.0
142
1.0
143
1.0
 70
   688
 72
     0
 73
     0
 74
     5
  7

 75
    16
147
1.0
148
0.0
149
0.0
100
AcDbLayout
  1
Layout1
 70
     1
 71
     1
 10
0.0
 20
0.0
 11
12.0
 21
9.0
 12
0.0
 22
0.0
 32
0.0
 14
1.00000000000000E+20
 24
1.00000000000000E+20
 34
1.00000000000000E+20
 15
-1.00000000000000E+20
 25
-1.00000000000000E+20
 35
-1.00000000000000E+20
146
0.0
 13
0.0
 23
0.0
 33
0.0
 16
1.0
 26
0.0
 36
0.0
 17
0.0
 27
1.0
 37
0.0
 76
     0
330
1B
  0
LAYOUT
  5
26
102
{ACAD_REACTORS
330
1A
102
}
330
1A
100
AcDbPlotSettings
  1

  2
none_device
  4

  6

 40
0.0
 41
0.0
 42
0.0
 43
0.0
 44
0.0
 45
0.0
 46
0.0
 47
0.0
 48
0.0
 49
0.0
140
0.0
141
0.0
142
1.0
143
1.0
 70
   688
 72
     0
 73
     0
 74
     5
  7

 75
    16
147
1.0
148
0.0
149
0.0
100
AcDbLayout
  1
Layout2
 70
     1
 71
     2
 10
0.0
 20
0.0
 11
0.0
 21
0.0
 12
0.0
 22
0.0
 32
0.0
 14
0.0
 24
0.0
 34
0.0
 15
0.0
 25
0.0
 35
0.0
146
0.0
 13
0.0
 23
0.0
 33
0.0
 16
1.0
 26
0.0
 36
0.0
 17
0.0
 27
1.0
 37
0.0
 76
     0
330
23
  0
LAYOUT
  5
22
102
{ACAD_REACTORS
330
1A
102
}
330
1A
100
AcDbPlotSettings
  1

  2
none_device
  4

  6

 40
0.0
 41
0.0
 42
0.0
 43
0.0
 44
0.0
 45
0.0
 46
0.0
 47
0.0
 48
0.0
 49
0.0
140
0.0
141
0.0
142
1.0
143
1.0
 70
  1712
 72
     0
 73
     0
 74
     0
  7

 75
     0
147
1.0
148
0.0
149
0.0
100
AcDbLayout
  1
Model
 70
     1
 71
     0
 10
0.0
 20
0.0
 11
12.0
 21
9.0
 12
0.0
 22
0.0
 32
0.0
 14
41.36563687882881
 24
333.9210018947
 34
0.0
 15
351.366666509207
 25
473.231327352052
 35
0.0
146
0.0
 13
0.0
 23
0.0
 33
0.0
 16
1.0
 26
0.0
 36
0.0
 17
0.0
 27
1.0
 37
0.0
 76
     0
330
1F
331
29
  0
MLINESTYLE
  5
18
102
{ACAD_REACTORS
330
17
102
}
330
17
100
AcDbMlineStyle
  2
Standard
 70
     0
  3

 62
   256
 51
90.0
 52
90.0
 71
     2
 49
0.5
 62
   256
  6
BYLAYER
 49
-0.5
 62
   256
  6
BYLAYER
  0
ACDBPLACEHOLDER
  5
F
102
{ACAD_REACTORS
330
E
102
}
330
E
  0
SCALE
  5
4B
102
{ACAD_REACTORS
330
4A
102
}
330
4A
100
AcDbScale
 70
     0
300
1:1
140
1.0
141
1.0
290
     1
  0
SCALE
  5
4C
102
{ACAD_REACTORS
330
4A
102
}
330
4A
100
AcDbScale
 70
     0
300
1:2
140
1.0
141
2.0
290
     0
  0
SCALE
  5
4D
102
{ACAD_REACTORS
330
4A
102
}
330
4A
100
AcDbScale
 70
     0
300
1:4
140
1.0
141
4.0
290
     0
  0
SCALE
  5
4E
102
{ACAD_REACTORS
330
4A
102
}
330
4A
100
AcDbScale
 70
     0
300
1:5
140
1.0
141
5.0
290
     0
  0
SCALE
  5
4F
102
{ACAD_REACTORS
330
4A
102
}
330
4A
100
AcDbScale
 70
     0
300
1:8
140
1.0
141
8.0
290
     0
  0
SCALE
  5
50
102
{ACAD_REACTORS
330
4A
102
}
330
4A
100
AcDbScale
 70
     0
300
1:10
140
1.0
141
10.0
290
     0
  0
SCALE
  5
51
102
{ACAD_REACTORS
330
4A
102
}
330
4A
100
AcDbScale
 70
     0
300
1:16
140
1.0
141
16.0
290
     0
  0
SCALE
  5
52
102
{ACAD_REACTORS
330
4A
102
}
330
4A
100
AcDbScale
 70
     0
300
1:20
140
1.0
141
20.0
290
     0
  0
SCALE
  5
53
102
{ACAD_REACTORS
330
4A
102
}
330
4A
100
AcDbScale
 70
     0
300
1:30
140
1.0
141
30.0
290
     0
  0
SCALE
  5
54
102
{ACAD_REACTORS
330
4A
102
}
330
4A
100
AcDbScale
 70
     0
300
1:40
140
1.0
141
40.0
290
     0
  0
SCALE
  5
55
102
{ACAD_REACTORS
330
4A
102
}
330
4A
100
AcDbScale
 70
     0
300
1:50
140
1.0
141
50.0
290
     0
  0
SCALE
  5
56
102
{ACAD_REACTORS
330
4A
102
}
330
4A
100
AcDbScale
 70
     0
300
1:100
140
1.0
141
100.0
290
     0
  0
SCALE
  5
57
102
{ACAD_REACTORS
330
4A
102
}
330
4A
100
AcDbScale
 70
     0
300
2:1
140
2.0
141
1.0
290
     0
  0
SCALE
  5
58
102
{ACAD_REACTORS
330
4A
102
}
330
4A
100
AcDbScale
 70
     0
300
4:1
140
4.0
141
1.0
290
     0
  0
SCALE
  5
59
102
{ACAD_REACTORS
330
4A
102
}
330
4A
100
AcDbScale
 70
     0
300
8:1
140
8.0
141
1.0
290
     0
  0
SCALE
  5
5A
102
{ACAD_REACTORS
330
4A
102
}
330
4A
100
AcDbScale
 70
     0
300
10:1
140
10.0
141
1.0
290
     0
  0
SCALE
  5
5B
102
{ACAD_REACTORS
330
4A
102
}
330
4A
100
AcDbScale
 70
     0
300
100:1
140
100.0
141
1.0
290
     0
  0
SCALE
  5
5C
102
{ACAD_REACTORS
330
4A
102
}
330
4A
100
AcDbScale
 70
     0
300
1/128" = 1'-0"
140
0.0078125
141
12.0
290
     0
  0
SCALE
  5
5D
102
{ACAD_REACTORS
330
4A
102
}
330
4A
100
AcDbScale
 70
     0
300
1/64" = 1'-0"
140
0.015625
141
12.0
290
     0
  0
SCALE
  5
5E
102
{ACAD_REACTORS
330
4A
102
}
330
4A
100
AcDbScale
 70
     0
300
1/32" = 1'-0"
140
0.03125
141
12.0
290
     0
  0
SCALE
  5
5F
102
{ACAD_REACTORS
330
4A
102
}
330
4A
100
AcDbScale
 70
     0
300
1/16" = 1'-0"
140
0.0625
141
12.0
290
     0
  0
SCALE
  5
60
102
{ACAD_REACTORS
330
4A
102
}
330
4A
100
AcDbScale
 70
     0
300
3/32" = 1'-0"
140
0.09375
141
12.0
290
     0
  0
SCALE
  5
61
102
{ACAD_REACTORS
330
4A
102
}
330
4A
100
AcDbScale
 70
     0
300
1/8" = 1'-0"
140
0.125
141
12.0
290
     0
  0
SCALE
  5
62
102
{ACAD_REACTORS
330
4A
102
}
330
4A
100
AcDbScale
 70
     0
300
3/16" = 1'-0"
140
0.1875
141
12.0
290
     0
  0
SCALE
  5
63
102
{ACAD_REACTORS
330
4A
102
}
330
4A
100
AcDbScale
 70
     0
300
1/4" = 1'-0"
140
0.25
141
12.0
290
     0
  0
SCALE
  5
64
102
{ACAD_REACTORS
330
4A
102
}
330
4A
100
AcDbScale
 70
     0
300
3/8" = 1'-0"
140
0.375
141
12.0
290
     0
  0
SCALE
  5
65
102
{ACAD_REACTORS
330
4A
102
}
330
4A
100
AcDbScale
 70
     0
300
1/2" = 1'-0"
140
0.5
141
12.0
290
     0
  0
SCALE
  5
66
102
{ACAD_REACTORS
330
4A
102
}
330
4A
100
AcDbScale
 70
     0
300
3/4" = 1'-0"
140
0.75
141
12.0
290
     0
  0
SCALE
  5
67
102
{ACAD_REACTORS
330
4A
102
}
330
4A
100
AcDbScale
 70
     0
300
1" = 1'-0"
140
1.0
141
12.0
290
     0
  0
SCALE
  5
68
102
{ACAD_REACTORS
330
4A
102
}
330
4A
100
AcDbScale
 70
     0
300
1-1/2" = 1'-0"
140
1.5
141
12.0
290
     0
  0
SCALE
  5
69
102
{ACAD_REACTORS
330
4A
102
}
330
4A
100
AcDbScale
 70
     0
300
3" = 1'-0"
140
3.0
141
12.0
290
     0
  0
SCALE
  5
6A
102
{ACAD_REACTORS
330
4A
102
}
330
4A
100
AcDbScale
 70
     0
300
6" = 1'-0"
140
6.0
141
12.0
290
     0
  0
SCALE
  5
6B
102
{ACAD_REACTORS
330
4A
102
}
330
4A
100
AcDbScale
 70
     0
300
1'-0" = 1'-0"
140
12.0
141
12.0
290
     0
  0
VISUALSTYLE
  5
2F
102
{ACAD_REACTORS
330
2A
102
}
330
2A
100
AcDbVisualStyle
  2
2dWireframe
 70
     4
 71
     0
 72
     2
 73
     0
 90
        0
 40
-0.6
 41
-30.0
 62
     5
 63
     7
 74
     1
 91
        4
 64
     7
 65
   257
 75
     1
175
     1
 42
1.0
 92
        0
 66
   257
 43
1.0
 76
     1
 77
     6
 78
     2
 67
     7
 79
     5
170
     0
171
     0
290
     0
174
     0
 93
        1
 44
0.0
173
     0
291
     0
 45
0.0
1001
ACAD
1000
AcDbSavedByObjectVersion
1070
     0
  0
VISUALSTYLE
  5
31
102
{ACAD_REACTORS
330
2A
102
}
330
2A
100
AcDbVisualStyle
  2
3D Hidden
 70
     6
 71
     1
 72
     2
 73
     2
 90
        0
 40
-0.6
 41
-30.0
 62
     5
 63
     7
 74
     2
 91
        2
 64
     7
 65
   257
 75
     2
175
     1
 42
40.0
 92
        0
 66
   257
 43
1.0
 76
     1
 77
     6
 78
     2
 67
     7
 79
     3
170
     0
171
     0
290
     0
174
     0
 93
        1
 44
0.0
173
     0
291
     0
 45
0.0
1001
ACAD
1000
AcDbSavedByObjectVersion
1070
     0
  0
VISUALSTYLE
  5
30
102
{ACAD_REACTORS
330
2A
102
}
330
2A
100
AcDbVisualStyle
  2
3dWireframe
 70
     5
 71
     0
 72
     2
 73
     0
 90
        0
 40
-0.6
 41
-30.0
 62
     5
 63
     7
 74
     1
 91
        4
 64
     7
 65
   257
 75
     1
175
     1
 42
1.0
 92
        0
 66
   257
 43
1.0
 76
     1
 77
     6
 78
     2
 67
     7
 79
     5
170
     0
171
     0
290
     0
174
     0
 93
        1
 44
0.0
173
     0
291
     0
 45
0.0
1001
ACAD
1000
AcDbSavedByObjectVersion
1070
     0
  0
VISUALSTYLE
  5
32
102
{ACAD_REACTORS
330
2A
102
}
330
2A
100
AcDbVisualStyle
  2
Basic
 70
     7
 71
     1
 72
     0
 73
     1
 90
        0
 40
-0.6
 41
-30.0
 62
     5
 63
     7
 74
     0
 91
        4
 64
     7
 65
   257
 75
     1
175
     1
 42
1.0
 92
        8
 66
     7
 43
1.0
 76
     1
 77
     6
 78
     2
 67
     7
 79
     5
170
     0
171
     0
290
     0
174
     0
 93
        1
 44
0.0
173
     0
291
     1
 45
0.0
1001
ACAD
1000
AcDbSavedByObjectVersion
1070
     0
  0
VISUALSTYLE
  5
36
102
{ACAD_REACTORS
330
2A
102
}
330
2A
100
AcDbVisualStyle
  2
Brighten
 70
    12
 71
     2
 72
     2
 73
     0
 90
        0
 40
-0.6
 41
-30.0
 62
     5
 63
     7
 74
     1
 91
        4
 64
     7
 65
   257
 75
     1
175
     1
 42
1.0
 92
        8
 66
     7
 43
1.0
 76
     1
 77
     6
 78
     2
 67
     7
 79
     5
170
     0
171
     0
290
     0
174
     0
 93
        1
 44
50.0
173
     0
291
     1
 45
0.0
1001
ACAD
1000
AcDbSavedByObjectVersion
1070
     0
  0
VISUALSTYLE
  5
3A
102
{ACAD_REACTORS
330
2A
102
}
330
2A
100
AcDbVisualStyle
  2
ColorChange
 70
    16
 71
     2
 72
     2
 73
     3
 90
        0
 40
-0.6
 41
-30.0
 62
     5
 63
     8
 74
     1
 91
        4
 64
     7
 65
   257
 75
     1
175
     1
 42
1.0
 92
        8
 66
     8
 43
1.0
 76
     1
 77
     6
 78
     2
 67
     7
 79
     5
170
     0
171
     0
290
     0
174
     0
 93
        1
 44
0.0
173
     0
291
     1
 45
0.0
1001
ACAD
1000
AcDbSavedByObjectVersion
1070
     0
  0
VISUALSTYLE
  5
34
102
{ACAD_REACTORS
330
2A
102
}
330
2A
100
AcDbVisualStyle
  2
Conceptual
 70
     9
 71
     3
 72
     2
 73
     0
 90
        0
 40
-0.6
 41
-30.0
 62
     5
 63
     7
 74
     2
 91
        2
 64
     7
 65
   257
 75
     1
175
     1
 42
40.0
 92
        8
 66
     7
 43
1.0
 76
     1
 77
     6
 78
     2
 67
     7
 79
     3
170
     0
171
     0
290
     0
174
     0
 93
        1
 44
0.0
173
     0
291
     0
 45
0.0
1001
ACAD
1000
AcDbSavedByObjectVersion
1070
     0
  0
VISUALSTYLE
  5
35
102
{ACAD_REACTORS
330
2A
102
}
330
2A
100
AcDbVisualStyle
  2
Dim
 70
    11
 71
     2
 72
     2
 73
     0
 90
        0
 40
-0.6
 41
-30.0
 62
     5
 63
     7
 74
     1
 91
        4
 64
     7
 65
   257
 75
     1
175
     1
 42
1.0
 92
        8
 66
     7
 43
1.0
 76
     1
 77
     6
 78
     2
 67
     7
 79
     5
170
     0
171
     0
290
     0
174
     0
 93
        1
 44
-50.0
173
     0
291
     1
 45
0.0
1001
ACAD
1000
AcDbSavedByObjectVersion
1070
     0
  0
VISUALSTYLE
  5
39
102
{ACAD_REACTORS
330
2A
102
}
330
2A
100
AcDbVisualStyle
  2
Facepattern
 70
    15
 71
     2
 72
     2
 73
     0
 90
        0
 40
-0.6
 41
-30.0
 62
     5
 63
     7
 74
     1
 91
        4
 64
     7
 65
   257
 75
     1
175
     1
 42
1.0
 92
        8
 66
     7
 43
1.0
 76
     1
 77
     6
 78
     2
 67
     7
 79
     5
170
     0
171
     0
290
     0
174
     0
 93
        1
 44
0.0
173
     0
291
     1
 45
0.0
1001
ACAD
1000
AcDbSavedByObjectVersion
1070
     0
  0
VISUALSTYLE
  5
2B
102
{ACAD_REACTORS
330
2A
102
}
330
2A
100
AcDbVisualStyle
  2
Flat
 70
     0
 71
     2
 72
     1
 73
     1
 90
        2
 40
-0.6
 41
30.0
 62
     5
 63
     7
 74
     0
 91
        4
 64
     7
 65
   257
 75
     1
175
     1
 42
1.0
 92
        8
 66
     7
 43
1.0
 76
     1
 77
     6
 78
     2
 67
     7
 79
     5
170
     0
171
     0
290
     0
174
     0
 93
       13
 44
0.0
173
     0
291
     1
 45
0.0
1001
ACAD
1000
AcDbSavedByObjectVersion
1070
     0
  0
VISUALSTYLE
  5
2C
102
{ACAD_REACTORS
330
2A
102
}
330
2A
100
AcDbVisualStyle
  2
FlatWithEdges
 70
     1
 71
     2
 72
     1
 73
     1
 90
        2
 40
-0.6
 41
30.0
 62
     5
 63
     7
 74
     1
 91
        4
 64
     7
 65
   257
 75
     1
175
     1
 42
1.0
 92
        0
 66
   257
 43
1.0
 76
     1
 77
     6
 78
     2
 67
     7
 79
     5
170
     0
171
     0
290
     0
174
     0
 93
       13
 44
0.0
173
     0
291
     1
 45
0.0
1001
ACAD
1000
AcDbSavedByObjectVersion
1070
     0
  0
VISUALSTYLE
  5
2D
102
{ACAD_REACTORS
330
2A
102
}
330
2A
100
AcDbVisualStyle
  2
Gouraud
 70
     2
 71
     2
 72
     2
 73
     1
 90
        2
 40
-0.6
 41
30.0
 62
     5
 63
     7
 74
     0
 91
        4
 64
     7
 65
   257
 75
     1
175
     1
 42
1.0
 92
        0
 66
     7
 43
1.0
 76
     1
 77
     6
 78
     2
 67
     7
 79
     5
170
     0
171
     0
290
     0
174
     0
 93
       13
 44
0.0
173
     0
291
     1
 45
0.0
1001
ACAD
1000
AcDbSavedByObjectVersion
1070
     0
  0
VISUALSTYLE
  5
2E
102
{ACAD_REACTORS
330
2A
102
}
330
2A
100
AcDbVisualStyle
  2
GouraudWithEdges
 70
     3
 71
     2
 72
     2
 73
     1
 90
        2
 40
-0.6
 41
30.0
 62
     5
 63
     7
 74
     1
 91
        4
 64
     7
 65
   257
 75
     1
175
     1
 42
1.0
 92
        0
 66
   257
 43
1.0
 76
     1
 77
     6
 78
     2
 67
     7
 79
     5
170
     0
171
     0
290
     0
174
     0
 93
       13
 44
0.0
173
     0
291
     1
 45
0.0
1001
ACAD
1000
AcDbSavedByObjectVersion
1070
     0
  0
VISUALSTYLE
  5
38
102
{ACAD_REACTORS
330
2A
102
}
330
2A
100
AcDbVisualStyle
  2
Linepattern
 70
    14
 71
     2
 72
     2
 73
     0
 90
        0
 40
-0.6
 41
-30.0
 62
     5
 63
     7
 74
     1
 91
        4
 64
     7
 65
   257
 75
     7
175
     7
 42
1.0
 92
        8
 66
     7
 43
1.0
 76
     1
 77
     6
 78
     2
 67
     7
 79
     5
170
     0
171
     0
290
     0
174
     0
 93
        1
 44
0.0
173
     0
291
     1
 45
0.0
1001
ACAD
1000
AcDbSavedByObjectVersion
1070
     0
  0
VISUALSTYLE
  5
33
102
{ACAD_REACTORS
330
2A
102
}
330
2A
100
AcDbVisualStyle
  2
Realistic
 70
     8
 71
     2
 72
     2
 73
     0
 90
        0
 40
-0.6
 41
-30.0
 62
     5
 63
     7
 74
     1
 91
        0
 64
     7
 65
   257
 75
     1
175
     1
 42
1.0
 92
        8
 66
     8
 43
1.0
 76
     1
 77
     6
 78
     2
 67
     7
 79
     5
170
     0
171
     0
290
     0
174
     0
 93
       13
 44
0.0
173
     0
291
     0
 45
0.0
1001
ACAD
1000
AcDbSavedByObjectVersion
1070
     0
  0
VISUALSTYLE
  5
37
102
{ACAD_REACTORS
330
2A
102
}
330
2A
100
AcDbVisualStyle
  2
Thicken
 70
    13
 71
     2
 72
     2
 73
     0
 90
        0
 40
-0.6
 41
-30.0
 62
     5
 63
     7
 74
     1
 91
        4
 64
     7
 65
   257
 75
     1
175
     1
 42
1.0
 92
       12
 66
     7
 43
1.0
 76
     1
 77
     6
 78
     2
 67
     7
 79
     5
170
     0
171
     0
290
     0
174
     0
 93
        1
 44
0.0
173
     0
291
     1
 45
0.0
1001
ACAD
1000
AcDbSavedByObjectVersion
1070
     0
  0
DICTIONARYVAR
  5
15C
102
{ACAD_REACTORS
330
159
102
}
330
159
100
DictionaryVariables
280
     0
  1
1:1
  0
ENDSEC
  0
EOF
