  0
SECTION
  2
HEADER
  9
$ACADVER
  1
AC1015
  9
$ACADMAINTVER
 70
     6
  9
$DWGCODEPAGE
  3
ANSI_1252
  9
$INSBASE
 10
0.0
 20
0.0
 30
0.0
  9
$EXTMIN
 10
40.7936202345995
 20
355.974381723
 30
0.0
  9
$EXTMAX
 10
348.882980555394
 20
490.402899901854
 30
0.0
  9
$LIMMIN
 10
0.0
 20
0.0
  9
$LIMMAX
 10
12.0
 20
9.0
  9
$ORTHOMODE
 70
     0
  9
$REGENMODE
 70
     1
  9
$FILLMODE
 70
     1
  9
$QTEXTMODE
 70
     0
  9
$MIRRTEXT
 70
     1
  9
$LTSCALE
 40
1.0
  9
$ATTMODE
 70
     1
  9
$TEXTSIZE
 40
0.2
  9
$TRACEWID
 40
0.05
  9
$TEXTSTYLE
  7
Standard
  9
$CLAYER
  8
0
  9
$CELTYPE
  6
ByLayer
  9
$CECOLOR
 62
   256
  9
$CELTSCALE
 40
1.0
  9
$DISPSILH
 70
     0
  9
$DIMSCALE
 40
1.0
  9
$DIMASZ
 40
0.18
  9
$DIMEXO
 40
0.0625
  9
$DIMDLI
 40
0.38
  9
$DIMRND
 40
0.0
  9
$DIMDLE
 40
0.0
  9
$DIMEXE
 40
0.18
  9
$DIMTP
 40
0.0
  9
$DIMTM
 40
0.0
  9
$DIMTXT
 40
0.18
  9
$DIMCEN
 40
0.09
  9
$DIMTSZ
 40
0.0
  9
$DIMTOL
 70
     0
  9
$DIMLIM
 70
     0
  9
$DIMTIH
 70
     1
  9
$DIMTOH
 70
     1
  9
$DIMSE1
 70
     0
  9
$DIMSE2
 70
     0
  9
$DIMTAD
 70
     0
  9
$DIMZIN
 70
     0
  9
$DIMBLK
  1

  9
$DIMASO
 70
     1
  9
$DIMSHO
 70
     1
  9
$DIMPOST
  1

  9
$DIMAPOST
  1

  9
$DIMALT
 70
     0
  9
$DIMALTD
 70
     2
  9
$DIMALTF
 40
25.4
  9
$DIMLFAC
 40
1.0
  9
$DIMTOFL
 70
     0
  9
$DIMTVP
 40
0.0
  9
$DIMTIX
 70
     0
  9
$DIMSOXD
 70
     0
  9
$DIMSAH
 70
     0
  9
$DIMBLK1
  1

  9
$DIMBLK2
  1

  9
$DIMSTYLE
  2
Standard
  9
$DIMCLRD
 70
     0
  9
$DIMCLRE
 70
     0
  9
$DIMCLRT
 70
     0
  9
$DIMTFAC
 40
1.0
  9
$DIMGAP
 40
0.09
  9
$DIMJUST
 70
     0
  9
$DIMSD1
 70
     0
  9
$DIMSD2
 70
     0
  9
$DIMTOLJ
 70
     1
  9
$DIMTZIN
 70
     0
  9
$DIMALTZ
 70
     0
  9
$DIMALTTZ
 70
     0
  9
$DIMUPT
 70
     0
  9
$DIMDEC
 70
     4
  9
$DIMTDEC
 70
     4
  9
$DIMALTU
 70
     2
  9
$DIMALTTD
 70
     2
  9
$DIMTXSTY
  7
Standard
  9
$DIMAUNIT
 70
     0
  9
$DIMADEC
 70
     0
  9
$DIMALTRND
 40
0.0
  9
$DIMAZIN
 70
     0
  9
$DIMDSEP
 70
    46
  9
$DIMATFIT
 70
     3
  9
$DIMFRAC
 70
     0
  9
$DIMLDRBLK
  1

  9
$DIMLUNIT
 70
     2
  9
$DIMLWD
 70
    -2
  9
$DIMLWE
 70
    -2
  9
$DIMTMOVE
 70
     0
  9
$LUNITS
 70
     2
  9
$LUPREC
 70
     4
  9
$SKETCHINC
 40
0.1
  9
$FILLETRAD
 40
0.5
  9
$AUNITS
 70
     0
  9
$AUPREC
 70
     0
  9
$MENU
  1
.
  9
$ELEVATION
 40
0.0
  9
$PELEVATION
 40
0.0
  9
$THICKNESS
 40
0.0
  9
$LIMCHECK
 70
     0
  9
$CHAMFERA
 40
0.5
  9
$CHAMFERB
 40
0.5
  9
$CHAMFERC
 40
1.0
  9
$CHAMFERD
 40
0.0
  9
$SKPOLY
 70
     0
  9
$TDCREATE
 40
2456821.364342998
  9
$TDUCREATE
 40
2456821.281009664
  9
$TDUPDATE
 40
2456821.364343009
  9
$TDUUPDATE
 40
2456821.281009676
  9
$TDINDWG
 40
0.0000000116
  9
$TDUSRTIMER
 40
0.0000000116
  9
$USRTIMER
 70
     1
  9
$ANGBASE
 50
0.0
  9
$ANGDIR
 70
     0
  9
$PDMODE
 70
     0
  9
$PDSIZE
 40
0.0
  9
$PLINEWID
 40
0.0
  9
$SPLFRAME
 70
     0
  9
$SPLINETYPE
 70
     6
  9
$SPLINESEGS
 70
     8
  9
$HANDSEED
  5
15F
  9
$SURFTAB1
 70
     6
  9
$SURFTAB2
 70
     6
  9
$SURFTYPE
 70
     6
  9
$SURFU
 70
     6
  9
$SURFV
 70
     6
  9
$UCSBASE
  2

  9
$UCSNAME
  2

  9
$UCSORG
 10
0.0
 20
0.0
 30
0.0
  9
$UCSXDIR
 10
1.0
 20
0.0
 30
0.0
  9
$UCSYDIR
 10
0.0
 20
1.0
 30
0.0
  9
$UCSORTHOREF
  2

  9
$UCSORTHOVIEW
 70
     0
  9
$UCSORGTOP
 10
0.0
 20
0.0
 30
0.0
  9
$UCSORGBOTTOM
 10
0.0
 20
0.0
 30
0.0
  9
$UCSORGLEFT
 10
0.0
 20
0.0
 30
0.0
  9
$UCSORGRIGHT
 10
0.0
 20
0.0
 30
0.0
  9
$UCSORGFRONT
 10
0.0
 20
0.0
 30
0.0
  9
$UCSORGBACK
 10
0.0
 20
0.0
 30
0.0
  9
$PUCSBASE
  2

  9
$PUCSNAME
  2

  9
$PUCSORG
 10
0.0
 20
0.0
 30
0.0
  9
$PUCSXDIR
 10
1.0
 20
0.0
 30
0.0
  9
$PUCSYDIR
 10
0.0
 20
1.0
 30
0.0
  9
$PUCSORTHOREF
  2

  9
$PUCSORTHOVIEW
 70
     0
  9
$PUCSORGTOP
 10
0.0
 20
0.0
 30
0.0
  9
$PUCSORGBOTTOM
 10
0.0
 20
0.0
 30
0.0
  9
$PUCSORGLEFT
 10
0.0
 20
0.0
 30
0.0
  9
$PUCSORGRIGHT
 10
0.0
 20
0.0
 30
0.0
  9
$PUCSORGFRONT
 10
0.0
 20
0.0
 30
0.0
  9
$PUCSORGBACK
 10
0.0
 20
0.0
 30
0.0
  9
$USERI1
 70
     0
  9
$USERI2
 70
     0
  9
$USERI3
 70
     0
  9
$USERI4
 70
     0
  9
$USERI5
 70
     0
  9
$USERR1
 40
16.5
  9
$USERR2
 40
0.0
  9
$USERR3
 40
0.0
  9
$USERR4
 40
0.0
  9
$USERR5
 40
0.0
  9
$WORLDVIEW
 70
     1
  9
$SHADEDGE
 70
     3
  9
$SHADEDIF
 70
    70
  9
$TILEMODE
 70
     1
  9
$MAXACTVP
 70
    64
  9
$PINSBASE
 10
0.0
 20
0.0
 30
0.0
  9
$PLIMCHECK
 70
     0
  9
$PEXTMIN
 10
1.00000000000000E+20
 20
1.00000000000000E+20
 30
1.00000000000000E+20
  9
$PEXTMAX
 10
-1.00000000000000E+20
 20
-1.00000000000000E+20
 30
-1.00000000000000E+20
  9
$PLIMMIN
 10
0.0
 20
0.0
  9
$PLIMMAX
 10
12.0
 20
9.0
  9
$UNITMODE
 70
     0
  9
$VISRETAIN
 70
     1
  9
$PLINEGEN
 70
     0
  9
$PSLTSCALE
 70
     1
  9
$TREEDEPTH
 70
  3020
  9
$CMLSTYLE
  2
Standard
  9
$CMLJUST
 70
     0
  9
$CMLSCALE
 40
1.0
  9
$PROXYGRAPHICS
 70
     1
  9
$MEASUREMENT
 70
     1
  9
$CELWEIGHT
370
    -1
  9
$ENDCAPS
280
     0
  9
$JOINSTYLE
280
     0
  9
$LWDISPLAY
290
     0
  9
$INSUNITS
 70
     1
  9
$HYPERLINKBASE
  1

  9
$STYLESHEET
  1

  9
$XEDIT
290
     1
  9
$CEPSNTYPE
380
     0
  9
$PSTYLEMODE
290
     1
  9
$FINGERPRINTGUID
  2
{EA6F2DBC-43A3-40B3-A338-45244F8D3FF7}
  9
$VERSIONGUID
  2
{FAEB1C32-E019-11D5-929B-00C0DF256EC4}
  9
$EXTNAMES
290
     1
  9
$PSVPSCALE
 40
0.0
  9
$OLESTARTUP
290
     0
  0
ENDSEC
  0
SECTION
  2
CLASSES
  0
CLASS
  1
ACDBDICTIONARYWDFLT
  2
AcDbDictionaryWithDefault
  3
ObjectDBX Classes
 90
        0
280
     0
281
     0
  0
CLASS
  1
VISUALSTYLE
  2
AcDbVisualStyle
  3
ObjectDBX Classes
 90
     4095
280
     0
281
     0
  0
CLASS
  1
SCALE
  2
AcDbScale
  3
ObjectDBX Classes
 90
     1153
280
     0
281
     0
  0
CLASS
  1

  2
exOdDbPolyline
  3

 90
        0
280
     0
281
     1
  0
CLASS
  1

  2
exOdDbSpline
  3

 90
        0
280
     0
281
     1
  0
CLASS
  1
DICTIONARYVAR
  2
AcDbDictionaryVar
  3
ObjectDBX Classes
 90
        0
280
     0
281
     0
  0
CLASS
  1
ACDBPLACEHOLDER
  2
AcDbPlaceHolder
  3
ObjectDBX Classes
 90
        0
280
     0
281
     0
  0
CLASS
  1
LAYOUT
  2
AcDbLayout
  3
ObjectDBX Classes
 90
        0
280
     0
281
     0
  0
ENDSEC
  0
SECTION
  2
TABLES
  0
TABLE
  2
VPORT
  5
8
330
0
100
AcDbSymbolTable
 70
     1
  0
VPORT
  5
29
330
8
100
AcDbSymbolTableRecord
100
AcDbViewportTableRecord
  2
*Active
 70
     0
 10
0.0
 20
0.0
 11
1.0
 21
1.0
 12
194.8383003949967
 22
423.188640812427
 13
0.0
 23
0.0
 14
0.5
 24
0.5
 15
0.5
 25
0.5
 16
0.0
 26
0.0
 36
1.0
 17
0.0
 27
0.0
 37
0.0
 40
211.457432821849
 41
1.60267857142857
 42
50.0
 43
0.0
 44
0.0
 50
0.0
 51
0.0
 71
     0
 72
   100
 73
     1
 74
     3
 75
     0
 76
     0
 77
     0
 78
     0
281
     0
 65
     1
110
0.0
120
0.0
130
0.0
111
1.0
121
0.0
131
0.0
112
0.0
122
1.0
132
0.0
 79
     0
146
0.0
  0
ENDTAB
  0
TABLE
  2
LTYPE
  5
5
330
0
100
AcDbSymbolTable
 70
     8
  0
LTYPE
  5
14
330
5
100
AcDbSymbolTableRecord
100
AcDbLinetypeTableRecord
  2
ByBlock
 70
     0
  3

 72
    65
 73
     0
 40
0.0
  0
LTYPE
  5
15
330
5
100
AcDbSymbolTableRecord
100
AcDbLinetypeTableRecord
  2
ByLayer
 70
     0
  3

 72
    65
 73
     0
 40
0.0
  0
LTYPE
  5
16
330
5
100
AcDbSymbolTableRecord
100
AcDbLinetypeTableRecord
  2
Continuous
 70
     0
  3
Solid line
 72
    65
 73
     0
 40
0.0
  0
LTYPE
  5
3B
330
5
100
AcDbSymbolTableRecord
100
AcDbLinetypeTableRecord
  2
DASHED
 70
     0
  3
Dashed
 72
    65
 73
     2
 40
15.0
 49
7.0
 74
     0
 49
-8.0
 74
     0
  0
LTYPE
  5
3C
330
5
100
AcDbSymbolTableRecord
100
AcDbLinetypeTableRecord
  2
DOTTED
 70
     0
  3
Dotted
 72
    65
 73
     2
 40
1.0
 49
0.0
 74
     0
 49
-1.0
 74
     0
  0
LTYPE
  5
3D
330
5
100
AcDbSymbolTableRecord
100
AcDbLinetypeTableRecord
  2
DOT_CENTER
 70
     0
  3
Dot_Center
 72
    65
 73
     4
 40
14.0
 49
12.0
 74
     0
 49
-1.0
 74
     0
 49
0.0
 74
     0
 49
-1.0
 74
     0
  0
LTYPE
  5
3E
330
5
100
AcDbSymbolTableRecord
100
AcDbLinetypeTableRecord
  2
LONG_DASHED
 70
     0
  3
Long_Dashed
 72
    65
 73
     2
 40
15.0
 49
10.0
 74
     0
 49
-5.0
 74
     0
  0
LTYPE
  5
3F
330
5
100
AcDbSymbolTableRecord
100
AcDbLinetypeTableRecord
  2
DASH_CENTER
 70
     0
  3
Dash_Center
 72
    65
 73
     4
 40
14.0
 49
11.0
 74
     0
 49
-1.0
 74
     0
 49
1.0
 74
     0
 49
-1.0
 74
     0
  0
LTYPE
  5
40
330
5
100
AcDbSymbolTableRecord
100
AcDbLinetypeTableRecord
  2
PHANTOM
 70
     0
  3
Phantom
 72
    65
 73
     6
 40
13.0
 49
10.0
 74
     0
 49
-1.0
 74
     0
 49
0.0
 74
     0
 49
-1.0
 74
     0
 49
0.0
 74
     0
 49
-1.0
 74
     0
  0
LTYPE
  5
41
330
5
100
AcDbSymbolTableRecord
100
AcDbLinetypeTableRecord
  2
CENTER_DASH_DASH
 70
     0
  3
Center_Dash_Dash
 72
    65
 73
     6
 40
14.0
 49
9.0
 74
     0
 49
-1.0
 74
     0
 49
1.0
 74
     0
 49
-1.0
 74
     0
 49
1.0
 74
     0
 49
-1.0
 74
     0
  0
ENDTAB
  0
TABLE
  2
LAYER
  5
2
330
0
100
AcDbSymbolTable
 70
     6
  0
LAYER
  5
10
330
2
100
AcDbSymbolTableRecord
100
AcDbLayerTableRecord
  2
0
 70
     0
 62
     7
  6
Continuous
370
    -3
390
F
  0
LAYER
  5
42
330
2
100
AcDbSymbolTableRecord
100
AcDbLayerTableRecord
  2
1
 70
     0
 62
     7
  6
Continuous
370
    -3
390
F
  0
LAYER
  5
43
330
2
100
AcDbSymbolTableRecord
100
AcDbLayerTableRecord
  2
BG_STARTBEZUEGE
 70
     0
 62
     7
  6
Continuous
370
    -3
390
F
  0
LAYER
  5
44
330
2
100
AcDbSymbolTableRecord
100
AcDbLayerTableRecord
  2
DEFAULT_2
 70
     0
 62
     7
  6
Continuous
370
    -3
390
F
  0
LAYER
  5
45
330
2
100
AcDbSymbolTableRecord
100
AcDbLayerTableRecord
  2
RUNDUNGEN
 70
     0
 62
     7
  6
Continuous
370
    -3
390
F
  0
LAYER
  5
46
330
2
100
AcDbSymbolTableRecord
100
AcDbLayerTableRecord
  2
TEIL_STARTBEZUEGE
 70
     0
 62
     7
  6
Continuous
370
    -3
390
F
  0
ENDTAB
  0
TABLE
  2
STYLE
  5
3
330
0
100
AcDbSymbolTable
 70
     2
  0
STYLE
  5
11
330
3
100
AcDbSymbolTableRecord
100
AcDbTextStyleTableRecord
  2
Standard
 70
     0
 40
0.0
 41
1.0
 50
0.0
 71
     0
 42
0.2
  3
txt
  4

  0
STYLE
  5
6D
330
3
100
AcDbSymbolTableRecord
100
AcDbTextStyleTableRecord
  2
CONVERTER_11
 70
     0
 40
0.0
 41
0.72
 50
0.0
 71
     0
 42
0.2
  3
txt.shx
  4

  0
ENDTAB
  0
TABLE
  2
VIEW
  5
6
330
0
100
AcDbSymbolTable
 70
     0
  0
ENDTAB
  0
TABLE
  2
UCS
  5
7
330
0
100
AcDbSymbolTable
 70
     0
  0
ENDTAB
  0
TABLE
  2
APPID
  5
9
330
0
100
AcDbSymbolTable
 70
     1
  0
APPID
  5
12
330
9
100
AcDbSymbolTableRecord
100
AcDbRegAppTableRecord
  2
ACAD
 70
     0
  0
ENDTAB
  0
TABLE
  2
DIMSTYLE
  5
A
330
0
100
AcDbSymbolTable
 70
     7
100
AcDbDimStyleTable
  0
DIMSTYLE
105
27
330
A
100
AcDbSymbolTableRecord
100
AcDbDimStyleTableRecord
  2
Standard
 70
     0
340
11
  0
DIMSTYLE
105
11B
102
{ACAD_REACTORS
330
11C
102
}
330
A
100
AcDbSymbolTableRecord
100
AcDbDimStyleTableRecord
  2
ME10_DIM_10
 70
     0
  3
<>
 41
3.5
 42
2.0
 44
2.0
 71
     1
 73
     0
 74
     0
 77
     1
 78
     8
140
3.5
146
0.7
147
2.0
172
     1
173
     1
176
     2
177
     2
178
     3
271
     2
272
     0
340
6D
  0
DIMSTYLE
105
126
102
{ACAD_REACTORS
330
127
102
}
330
A
100
AcDbSymbolTableRecord
100
AcDbDimStyleTableRecord
  2
ME10_DIM_11
 70
     0
  3
<>
 41
3.5
 42
2.0
 44
2.0
 71
     1
 73
     0
 74
     0
 77
     1
 78
     8
140
3.5
146
0.7
147
2.0
172
     1
173
     1
176
     2
177
     2
178
     3
271
     2
272
     0
340
6D
  0
DIMSTYLE
105
131
102
{ACAD_REACTORS
330
132
102
}
330
A
100
AcDbSymbolTableRecord
100
AcDbDimStyleTableRecord
  2
ME10_DIM_12
 70
     0
  3
<>
 41
3.5
 42
2.0
 44
2.0
 71
     1
 73
     0
 74
     0
 77
     1
 78
     8
140
3.5
146
0.7
147
2.0
172
     1
173
     1
176
     2
177
     2
178
     3
271
     2
272
     0
340
6D
  0
DIMSTYLE
105
13C
102
{ACAD_REACTORS
330
13D
102
}
330
A
100
AcDbSymbolTableRecord
100
AcDbDimStyleTableRecord
  2
ME10_DIM_13
 70
     0
  3
<>
 41
3.5
 42
2.0
 44
2.0
 71
     1
 73
     0
 74
     0
 77
     1
 78
     8
140
3.5
146
0.7
147
2.0
172
     1
173
     1
176
     2
177
     2
178
     3
271
     2
272
     0
340
6D
  0
DIMSTYLE
105
147
102
{ACAD_REACTORS
330
148
102
}
330
A
100
AcDbSymbolTableRecord
100
AcDbDimStyleTableRecord
  2
ME10_DIM_14
 70
     0
  3
\U+2300<>
 41
3.5
 42
2.0
 44
2.0
 71
     1
 73
     0
 74
     0
 77
     1
 78
     8
140
3.5
146
0.7
147
2.0
172
     1
173
     1
176
     2
177
     2
178
     3
271
     2
272
     0
340
6D
  0
DIMSTYLE
105
152
102
{ACAD_REACTORS
330
153
102
}
330
A
100
AcDbSymbolTableRecord
100
AcDbDimStyleTableRecord
  2
ME10_DIM_15
 70
     0
  3
\U+2300<>
 41
3.5
 42
2.0
 44
2.0
 71
     1
 73
     0
 74
     0
 77
     1
 78
     8
140
3.5
146
0.7
147
2.0
172
     1
173
     1
176
     2
177
     2
178
     3
271
     2
272
     0
340
6D
  0
ENDTAB
  0
TABLE
  2
BLOCK_RECORD
  5
1
330
0
100
AcDbSymbolTable
 70
     9
  0
BLOCK_RECORD
  5
1F
330
1
100
AcDbSymbolTableRecord
100
AcDbBlockTableRecord
  2
*Model_Space
340
22
  0
BLOCK_RECORD
  5
1B
330
1
100
AcDbSymbolTableRecord
100
AcDbBlockTableRecord
  2
*Paper_Space
340
1E
  0
BLOCK_RECORD
  5
23
330
1
100
AcDbSymbolTableRecord
100
AcDbBlockTableRecord
  2
*Paper_Space0
340
26
  0
BLOCK_RECORD
  5
47
330
1
100
AcDbSymbolTableRecord
100
AcDbBlockTableRecord
  2
Urheberrecht_DE-EN
340
0
102
{BLKREFS
331
6C
102
}
  0
BLOCK_RECORD
  5
112
330
1
100
AcDbSymbolTableRecord
100
AcDbBlockTableRecord
  2
*D2
340
0
  0
BLOCK_RECORD
  5
11D
330
1
100
AcDbSymbolTableRecord
100
AcDbBlockTableRecord
  2
*D3
340
0
  0
BLOCK_RECORD
  5
128
330
1
100
AcDbSymbolTableRecord
100
AcDbBlockTableRecord
  2
*D4
340
0
  0
BLOCK_RECORD
  5
133
330
1
100
AcDbSymbolTableRecord
100
AcDbBlockTableRecord
  2
*D5
340
0
  0
BLOCK_RECORD
  5
13E
330
1
100
AcDbSymbolTableRecord
100
AcDbBlockTableRecord
  2
*D6
340
0
  0
BLOCK_RECORD
  5
149
330
1
100
AcDbSymbolTableRecord
100
AcDbBlockTableRecord
  2
*D7
340
0
  0
BLOCK_RECORD
  5
154
330
1
100
AcDbSymbolTableRecord
100
AcDbBlockTableRecord
  2
*D8
340
0
102
{BLKREFS
331
15A
102
}
  0
ENDTAB
  0
ENDSEC
  0
SECTION
  2
BLOCKS
  0
BLOCK
  5
20
330
1F
100
AcDbEntity
  8
0
100
AcDbBlockBegin
  2
*Model_Space
 70
     0
 10
0.0
 20
0.0
 30
0.0
  3
*Model_Space
  1

  0
ENDBLK
  5
21
330
1F
100
AcDbEntity
  8
0
100
AcDbBlockEnd
  0
BLOCK
  5
1C
330
1B
100
AcDbEntity
 67
     1
  8
0
100
AcDbBlockBegin
  2
*Paper_Space
 70
     0
 10
0.0
 20
0.0
 30
0.0
  3
*Paper_Space
  1

  0
ENDBLK
  5
1D
330
1B
100
AcDbEntity
 67
     1
  8
0
100
AcDbBlockEnd
  0
BLOCK
  5
24
330
23
100
AcDbEntity
  8
0
100
AcDbBlockBegin
  2
*Paper_Space0
 70
     0
 10
0.0
 20
0.0
 30
0.0
  3
*Paper_Space0
  1

  0
ENDBLK
  5
25
330
23
100
AcDbEntity
  8
0
100
AcDbBlockEnd
  0
BLOCK
  5
48
330
47
100
AcDbEntity
  8
0
100
AcDbBlockBegin
  2
Urheberrecht_DE-EN
 70
     0
 10
54.7936202345995
 20
417.872545854653
 30
0.0
  3
Urheberrecht_DE-EN
  1

  0
MTEXT
  5
6E
330
47
100
AcDbEntity
  8
1
 62
     1
100
AcDbMText
 10
54.7936202345995
 20
417.872545854653
 30
0.0
 40
2.0
 41
0.0
 71
     7
 72
     1
  1
We own the copyright of this document. It \Pdetermined and may neither be copied or \Pmade accessible to outsiders without our\Ppermission.
  7
CONVERTER_11
 11
0.0
 21
1.0
 31
0.0
 73
     1
 44
0.90036014405762
  0
MTEXT
  5
6F
330
47
100
AcDbEntity
  8
1
 62
     1
100
AcDbMText
 10
54.7936202345995
 20
361.5831589373468
 30
0.0
 40
2.0
 41
0.0
 71
     7
 72
     1
  1
F\U+00fcr diese Unterlage behalten wir das Ur-\Pheberrecht. Sie darf nur f\U+00fcr den von uns \Pbestimmten Zweck benutzt und ohne unsere \PZustimmung weder vervielf\U+00e4ltigt noch\PDritten zug\U+00e4nglich gemacht werden.
  7
CONVERTER_11
 11
0.0
 21
1.0
 31
0.0
 73
     1
 44
0.90036014405762
  0
ENDBLK
  5
49
330
47
100
AcDbEntity
  8
0
100
AcDbBlockEnd
  0
BLOCK
  5
119
330
112
100
AcDbEntity
  8
0
100
AcDbBlockBegin
  2
*D2
 70
     1
 10
0.0
 20
0.0
 30
0.0
  3
*D2
  1

  0
LINE
  5
113
330
112
100
AcDbEntity
  8
1
  6
Continuous
 62
     2
100
AcDbLine
 10
312.3283264033
 20
462.597131031849
 30
0.0
 11
184.4283264033
 21
462.597131031849
 31
0.0
  0
LINE
  5
114
330
112
100
AcDbEntity
  8
1
  6
Continuous
 62
     2
100
AcDbLine
 10
312.3283264033
 20
429.836881723
 30
0.0
 11
312.3283264033
 21
464.597131031849
 31
0.0
  0
LINE
  5
115
330
112
100
AcDbEntity
  8
1
  6
Continuous
 62
     2
100
AcDbLine
 10
184.4283264033
 20
457.574381723
 30
0.0
 11
184.4283264033
 21
464.597131031849
 31
0.0
  0
SOLID
  5
116
330
112
100
AcDbEntity
  8
1
 62
     2
100
AcDbTrace
 10
308.8283264033
 20
462.1363472902931
 30
0.0
 11
308.8283264033
 21
463.0579147734049
 31
0.0
 12
312.3283264033
 22
462.597131031849
 32
0.0
 13
312.3283264033
 23
462.597131031849
 33
0.0
  0
SOLID
  5
117
330
112
100
AcDbEntity
  8
1
 62
     2
100
AcDbTrace
 10
187.9283264033
 20
463.0579147734049
 30
0.0
 11
187.9283264033
 21
462.1363472902931
 31
0.0
 12
184.4283264033
 22
462.597131031849
 32
0.0
 13
184.4283264033
 23
462.597131031849
 33
0.0
  0
MTEXT
  5
118
330
112
100
AcDbEntity
  8
1
 62
     3
100
AcDbMText
 10
242.4222860924479
 20
464.597131031849
 30
0.0
 40
3.5
 41
0.0
 71
     7
 72
     1
  1
\C3;\C3;\C3;127.9\C2;\H2.45;\S^ ;\C3;
  7
CONVERTER_11
 11
0.9999999999970619
 21
2.424068405545306E-6
 31
0.0
 73
     1
 44
0.60024009603842
  0
ENDBLK
  5
11A
330
112
100
AcDbEntity
  8
0
100
AcDbBlockEnd
  0
BLOCK
  5
124
330
11D
100
AcDbEntity
  8
0
100
AcDbBlockBegin
  2
*D3
 70
     1
 10
0.0
 20
0.0
 30
0.0
  3
*D3
  1

  0
LINE
  5
11E
330
11D
100
AcDbEntity
  8
1
  6
Continuous
 62
     2
100
AcDbLine
 10
312.3283264033
 20
469.574891331592
 30
0.0
 11
165.3283264033
 21
469.574891331592
 31
0.0
  0
LINE
  5
11F
330
11D
100
AcDbEntity
  8
1
  6
Continuous
 62
     2
100
AcDbLine
 10
312.3283264033
 20
429.836881723
 30
0.0
 11
312.3283264033
 21
471.574891331592
 31
0.0
  0
LINE
  5
120
330
11D
100
AcDbEntity
  8
1
  6
Continuous
 62
     2
100
AcDbLine
 10
165.3283264033
 20
461.574381723
 30
0.0
 11
165.3283264033
 21
471.574891331592
 31
0.0
  0
SOLID
  5
121
330
11D
100
AcDbEntity
  8
1
 62
     2
100
AcDbTrace
 10
308.8283264033
 20
469.1141075900362
 30
0.0
 11
308.8283264033
 21
470.0356750731479
 31
0.0
 12
312.3283264033
 22
469.574891331592
 32
0.0
 13
312.3283264033
 23
469.574891331592
 33
0.0
  0
SOLID
  5
122
330
11D
100
AcDbEntity
  8
1
 62
     2
100
AcDbTrace
 10
168.8283264033
 20
470.0356750731479
 30
0.0
 11
168.8283264033
 21
469.1141075900362
 31
0.0
 12
165.3283264033
 22
469.574891331592
 32
0.0
 13
165.3283264033
 23
469.574891331592
 33
0.0
  0
MTEXT
  5
123
330
11D
100
AcDbEntity
  8
1
 62
     3
100
AcDbMText
 10
234.706970115698
 20
471.574891331592
 30
0.0
 40
3.5
 41
0.0
 71
     7
 72
     1
  1
\C3;\C3;\C3;147\C2;\H2.45;\S^ ;\C3;
  7
CONVERTER_11
 11
0.9999999999970619
 21
2.424068405545306E-6
 31
0.0
 73
     1
 44
0.60024009603842
  0
ENDBLK
  5
125
330
11D
100
AcDbEntity
  8
0
100
AcDbBlockEnd
  0
BLOCK
  5
12F
330
128
100
AcDbEntity
  8
0
100
AcDbBlockBegin
  2
*D4
 70
     1
 10
0.0
 20
0.0
 30
0.0
  3
*D4
  1

  0
LINE
  5
129
330
128
100
AcDbEntity
  8
1
  6
Continuous
 62
     2
100
AcDbLine
 10
165.3283264033
 20
477.453878486175
 30
0.0
 11
325.3283264033
 21
477.453878486175
 31
0.0
  0
LINE
  5
12A
330
128
100
AcDbEntity
  8
1
  6
Continuous
 62
     2
100
AcDbLine
 10
165.3283264033
 20
461.574381723
 30
0.0
 11
165.3283264033
 21
479.453878486175
 31
0.0
  0
LINE
  5
12B
330
128
100
AcDbEntity
  8
1
  6
Continuous
 62
     2
100
AcDbLine
 10
325.3283264033
 20
428.086881723
 30
0.0
 11
325.3283264033
 21
479.453878486175
 31
0.0
  0
SOLID
  5
12C
330
128
100
AcDbEntity
  8
1
 62
     2
100
AcDbTrace
 10
168.8283264033
 20
477.9146622277308
 30
0.0
 11
168.8283264033
 21
476.9930947446191
 31
0.0
 12
165.3283264033
 22
477.453878486175
 32
0.0
 13
165.3283264033
 23
477.453878486175
 33
0.0
  0
SOLID
  5
12D
330
128
100
AcDbEntity
  8
1
 62
     2
100
AcDbTrace
 10
321.8283264033
 20
476.9930947446191
 30
0.0
 11
321.8283264033
 21
477.9146622277308
 31
0.0
 12
325.3283264033
 22
477.453878486175
 32
0.0
 13
325.3283264033
 23
477.453878486175
 33
0.0
  0
MTEXT
  5
12E
330
128
100
AcDbEntity
  8
1
 62
     3
100
AcDbMText
 10
242.12953888294
 20
479.453878486175
 30
0.0
 40
3.5
 41
0.0
 71
     7
 72
     1
  1
\C3;\C3;\C3;160\C2;\H2.45;\S^ ;\C3;
  7
CONVERTER_11
 11
0.9999999999970619
 21
2.424068405545306E-6
 31
0.0
 73
     1
 44
0.60024009603842
  0
ENDBLK
  5
130
330
128
100
AcDbEntity
  8
0
100
AcDbBlockEnd
  0
BLOCK
  5
13A
330
133
100
AcDbEntity
  8
0
100
AcDbBlockBegin
  2
*D5
 70
     1
 10
0.0
 20
0.0
 30
0.0
  3
*D5
  1

  0
LINE
  5
134
330
133
100
AcDbEntity
  8
1
  6
Continuous
 62
     2
100
AcDbLine
 10
312.3283264033
 20
484.902899901854
 30
0.0
 11
63.5783264033
 21
484.902899901854
 31
0.0
  0
LINE
  5
135
330
133
100
AcDbEntity
  8
1
  6
Continuous
 62
     2
100
AcDbLine
 10
312.3283264033
 20
429.836881723
 30
0.0
 11
312.3283264033
 21
486.902899901854
 31
0.0
  0
LINE
  5
136
330
133
100
AcDbEntity
  8
1
  6
Continuous
 62
     2
100
AcDbLine
 10
63.5783264033
 20
427.998115923
 30
0.0
 11
63.5783264033
 21
486.902899901854
 31
0.0
  0
SOLID
  5
137
330
133
100
AcDbEntity
  8
1
 62
     2
100
AcDbTrace
 10
308.8283264033
 20
484.4421161602982
 30
0.0
 11
308.8283264033
 21
485.3636836434099
 31
0.0
 12
312.3283264033
 22
484.902899901854
 32
0.0
 13
312.3283264033
 23
484.902899901854
 33
0.0
  0
SOLID
  5
138
330
133
100
AcDbEntity
  8
1
 62
     2
100
AcDbTrace
 10
67.0783264033
 20
485.3636836434099
 30
0.0
 11
67.0783264033
 21
484.4421161602982
 31
0.0
 12
63.5783264033
 22
484.902899901854
 32
0.0
 13
63.5783264033
 23
484.902899901854
 33
0.0
  0
MTEXT
  5
139
330
133
100
AcDbEntity
  8
1
 62
     3
100
AcDbMText
 10
199.063066406638
 20
486.902899901854
 30
0.0
 40
3.5
 41
0.0
 71
     7
 72
     1
  1
\C3;\C3;\C3;248.75\C2;\H2.45;\S^ ;\C3;
  7
CONVERTER_11
 11
0.9999999999970619
 21
2.424068405545306E-6
 31
0.0
 73
     1
 44
0.60024009603842
  0
ENDBLK
  5
13B
330
133
100
AcDbEntity
  8
0
100
AcDbBlockEnd
  0
BLOCK
  5
145
330
13E
100
AcDbEntity
  8
0
100
AcDbBlockBegin
  2
*D6
 70
     1
 10
0.0
 20
0.0
 30
0.0
  3
*D6
  1

  0
LINE
  5
13F
330
13E
100
AcDbEntity
  8
1
  6
Continuous
 62
     2
100
AcDbLine
 10
338.091464854339
 20
423.836881723
 30
0.0
 11
338.091464854339
 21
391.836881723
 31
0.0
  0
LINE
  5
140
330
13E
100
AcDbEntity
  8
1
  6
Continuous
 62
     2
100
AcDbLine
 10
314.3283264033
 20
423.836881723
 30
0.0
 11
340.091464854339
 21
423.836881723
 31
0.0
  0
LINE
  5
141
330
13E
100
AcDbEntity
  8
1
  6
Continuous
 62
     2
100
AcDbLine
 10
314.3283264033
 20
391.836881723
 30
0.0
 11
340.091464854339
 21
391.836881723
 31
0.0
  0
SOLID
  5
142
330
13E
100
AcDbEntity
  8
1
 62
     2
100
AcDbTrace
 10
338.5522485958949
 20
420.336881723
 30
0.0
 11
337.6306811127831
 21
420.336881723
 31
0.0
 12
338.091464854339
 22
423.836881723
 32
0.0
 13
338.091464854339
 23
423.836881723
 33
0.0
  0
SOLID
  5
143
330
13E
100
AcDbEntity
  8
1
 62
     2
100
AcDbTrace
 10
337.6306811127831
 20
395.336881723
 30
0.0
 11
338.5522485958949
 21
395.336881723
 31
0.0
 12
338.091464854339
 22
391.836881723
 32
0.0
 13
338.091464854339
 23
391.836881723
 33
0.0
  0
MTEXT
  5
144
330
13E
100
AcDbEntity
  8
1
 62
     3
100
AcDbMText
 10
336.091464854339
 20
398.650750558463
 30
0.0
 40
3.5
 41
0.0
 71
     7
 72
     1
  1
\C3;%%c\C3;\C3;32\C2;\H2.45;\S^ ;\C3;
  7
CONVERTER_11
 11
0.0
 21
1.0
 31
0.0
 73
     1
 44
0.60024009603842
  0
ENDBLK
  5
146
330
13E
100
AcDbEntity
  8
0
100
AcDbBlockEnd
  0
BLOCK
  5
150
330
149
100
AcDbEntity
  8
0
100
AcDbBlockBegin
  2
*D7
 70
     1
 10
0.0
 20
0.0
 30
0.0
  3
*D7
  1

  0
LINE
  5
14A
330
149
100
AcDbEntity
  8
1
  6
Continuous
 62
     2
100
AcDbLine
 10
346.882980555394
 20
432.836881723
 30
0.0
 11
346.882980555394
 21
382.836881723
 31
0.0
  0
LINE
  5
14B
330
149
100
AcDbEntity
  8
1
  6
Continuous
 62
     2
100
AcDbLine
 10
322.7095242498
 20
432.836881723
 30
0.0
 11
348.882980555394
 21
432.836881723
 31
0.0
  0
LINE
  5
14C
330
149
100
AcDbEntity
  8
1
  6
Continuous
 62
     2
100
AcDbLine
 10
322.7095242498
 20
382.836881723
 30
0.0
 11
348.882980555394
 21
382.836881723
 31
0.0
  0
SOLID
  5
14D
330
149
100
AcDbEntity
  8
1
 62
     2
100
AcDbTrace
 10
347.3437642969499
 20
429.336881723
 30
0.0
 11
346.4221968138381
 21
429.336881723
 31
0.0
 12
346.882980555394
 22
432.836881723
 32
0.0
 13
346.882980555394
 23
432.836881723
 33
0.0
  0
SOLID
  5
14E
330
149
100
AcDbEntity
  8
1
 62
     2
100
AcDbTrace
 10
346.4221968138381
 20
386.336881723
 30
0.0
 11
347.3437642969499
 21
386.336881723
 31
0.0
 12
346.882980555394
 22
382.836881723
 32
0.0
 13
346.882980555394
 23
382.836881723
 33
0.0
  0
MTEXT
  5
14F
330
149
100
AcDbEntity
  8
1
 62
     3
100
AcDbMText
 10
344.882980555394
 20
399.274605993714
 30
0.0
 40
3.5
 41
0.0
 71
     7
 72
     1
  1
\C3;%%c\C3;\C3;50\C2;\H2.45;\S^ ;\C3;
  7
CONVERTER_11
 11
0.0
 21
1.0
 31
0.0
 73
     1
 44
0.60024009603842
  0
ENDBLK
  5
151
330
149
100
AcDbEntity
  8
0
100
AcDbBlockEnd
  0
BLOCK
  5
158
330
154
100
AcDbEntity
  8
0
100
AcDbBlockBegin
  2
*D8
 70
     1
 10
0.0
 20
0.0
 30
0.0
  3
*D8
  1

  0
LINE
  5
155
330
154
100
AcDbEntity
  8
1
  6
Continuous
 62
     2
100
AcDbLine
 10
196.8963576328464
 20
447.733816209968
 30
0.0
 11
189.547862210947
 21
437.2335015124841
 31
0.0
  0
SOLID
  5
156
330
154
100
AcDbEntity
  8
1
 62
     2
100
AcDbTrace
 10
191.1771463856483
 20
440.3652350156018
 30
0.0
 11
191.9321821484476
 21
439.8368340099033
 31
0.0
 12
189.547862210947
 22
437.2335015124841
 32
0.0
 13
189.547862210947
 23
437.2335015124841
 33
0.0
  0
MTEXT
  5
157
330
154
100
AcDbEntity
  8
1
 62
     3
100
AcDbMText
 10
190.040082001116
 20
441.4249744413277
 30
0.0
 40
3.5
 41
0.0
 71
     7
 72
     1
  1
\C3; R\C3;\C3;12\C2;\H2.45;\S^ ;\C3;
  7
CONVERTER_11
 11
0.5733720160288576
 21
0.8192951429338535
 31
0.0
 73
     1
 44
0.60024009603842
  0
ENDBLK
  5
159
330
154
100
AcDbEntity
  8
0
100
AcDbBlockEnd
  0
ENDSEC
  0
SECTION
  2
ENTITIES
  0
INSERT
  5
6C
330
1F
100
AcDbEntity
  8
0
100
AcDbBlockReference
  2
Urheberrecht_DE-EN
 10
54.7936202345995
 20
417.872545854653
 30
0.0
  0
LINE
  5
70
330
1F
100
AcDbEntity
  8
0
  6
Continuous
 62
     7
100
AcDbLine
 10
63.5783264033
 20
425.998115923
 30
0.0
 11
63.5783264033
 21
389.6754347219
 31
0.0
  0
LINE
  5
71
330
1F
100
AcDbEntity
  8
0
  6
Continuous
 62
     9
100
AcDbLine
 10
65.50360939769999
 20
387.4489893787
 30
0.0
 11
65.50360939769999
 21
428.2247740674
 31
0.0
  0
LINE
  5
72
330
1F
100
AcDbEntity
  8
0
  6
Continuous
 62
     7
100
AcDbLine
 10
169.5283264033
 20
359.099381723
 30
0.0
 11
173.2629480175
 21
359.099381723
 31
0.0
  0
LINE
  5
73
330
1F
100
AcDbEntity
  8
0
  6
Continuous
 62
     7
100
AcDbLine
 10
179.7437047892
 20
359.099381723
 30
0.0
 11
183.4283264033
 21
359.099381723
 31
0.0
  0
LINE
  5
74
330
1F
100
AcDbEntity
  8
0
  6
Continuous
 62
     7
100
AcDbLine
 10
175.3408264033
 20
362.336881723
 30
0.0
 11
177.6658264033
 21
362.336881723
 31
0.0
  0
LINE
  5
75
330
1F
100
AcDbEntity
  8
0
  6
Continuous
 62
     7
100
AcDbLine
 10
178.4158264033
 20
454.2744288925
 30
0.0
 11
179.7437047892
 21
456.574381723
 31
0.0
  0
LINE
  5
76
330
1F
100
AcDbEntity
  8
0
  6
Continuous
 62
     7
100
AcDbLine
 10
169.5283264033
 20
369.3099897351
 30
0.0
 11
173.2629480175
 21
369.3099897351
 31
0.0
  0
LINE
  5
77
330
1F
100
AcDbEntity
  8
0
  6
Continuous
 62
     7
100
AcDbLine
 10
179.7437047892
 20
369.3099897351
 30
0.0
 11
183.4283264033
 21
369.3099897351
 31
0.0
  0
LINE
  5
78
330
1F
100
AcDbEntity
  8
0
  6
Continuous
 62
     7
100
AcDbLine
 10
65.50360939769999
 20
387.4489893787
 30
0.0
 11
164.8386440701
 21
372.9832996815
 31
0.0
  0
LINE
  5
79
330
1F
100
AcDbEntity
  8
0
  6
Continuous
 62
     7
100
AcDbLine
 10
178.4158264033
 20
361.3993345536
 30
0.0
 11
179.7437047892
 21
359.099381723
 31
0.0
  0
LINE
  5
7A
330
1F
100
AcDbEntity
  8
0
  6
Continuous
 62
     7
100
AcDbLine
 10
164.8386440701
 20
372.9832996815
 30
0.0
 11
164.8386440701
 21
442.6904637646
 31
0.0
  0
LWPOLYLINE
  5
7B
330
1F
100
AcDbEntity
  8
BG_STARTBEZUEGE
  6
DOT_CENTER
 62
     7
100
AcDbPolyline
 90
        2
 70
     0
 43
0.25
 10
165.3283264033
 20
459.574381723
 10
165.3283264033
 20
356.099381723
  0
LINE
  5
7C
330
1F
100
AcDbEntity
  8
0
  6
Continuous
 62
     7
100
AcDbLine
 10
165.8783264033
 20
373.261881723
 30
0.0
 11
165.8783264033
 21
442.411881723
 31
0.0
  0
LINE
  5
7D
330
1F
100
AcDbEntity
  8
0
  6
Continuous
 62
     9
100
AcDbLine
 10
167.5283264033
 20
373.261881723
 30
0.0
 11
167.5283264033
 21
442.411881723
 31
0.0
  0
LINE
  5
7E
330
1F
100
AcDbEntity
  8
0
  6
Continuous
 62
     7
100
AcDbLine
 10
165.8783264033
 20
373.261881723
 30
0.0
 11
167.5283264033
 21
373.261881723
 31
0.0
  0
LINE
  5
7F
330
1F
100
AcDbEntity
  8
0
  6
Continuous
 62
     7
100
AcDbLine
 10
175.3408264033
 20
373.4969996615
 30
0.0
 11
177.6658264033
 21
373.4969996615
 31
0.0
  0
LINE
  5
80
330
1F
100
AcDbEntity
  8
0
  6
Continuous
 62
     9
100
AcDbLine
 10
184.4283264033
 20
376.236881723
 30
0.0
 11
168.5283264033
 21
376.236881723
 31
0.0
  0
LINE
  5
81
330
1F
100
AcDbEntity
  8
0
  6
Continuous
 62
     7
100
AcDbLine
 10
168.5283264033
 20
377.986881723
 30
0.0
 11
184.4283264033
 21
377.986881723
 31
0.0
  0
LINE
  5
82
330
1F
100
AcDbEntity
  8
0
  6
Continuous
 62
     7
100
AcDbLine
 10
168.5283264033
 20
360.099381723
 30
0.0
 11
168.5283264033
 21
455.5741996944
 31
0.0
  0
LINE
  5
83
330
1F
100
AcDbEntity
  8
0
  6
Continuous
 62
     9
100
AcDbLine
 10
169.5283264033
 20
456.574381723
 30
0.0
 11
169.5283264033
 21
420.736881723
 31
0.0
  0
LINE
  5
84
330
1F
100
AcDbEntity
  8
0
  6
Continuous
 62
     9
100
AcDbLine
 10
169.5283264033
 20
359.099381723
 30
0.0
 11
169.5283264033
 21
369.3099897351
 31
0.0
  0
LINE
  5
85
330
1F
100
AcDbEntity
  8
0
  6
Continuous
 62
     9
100
AcDbLine
 10
169.5283264033
 20
377.986881723
 30
0.0
 11
169.5283264033
 21
394.936881723
 31
0.0
  0
LINE
  5
86
330
1F
100
AcDbEntity
  8
0
  6
Continuous
 62
     7
100
AcDbLine
 10
173.2629480175
 20
456.574381723
 30
0.0
 11
173.2629480175
 21
420.736881723
 31
0.0
  0
LINE
  5
87
330
1F
100
AcDbEntity
  8
0
  6
Continuous
 62
     7
100
AcDbLine
 10
173.2629480175
 20
394.936881723
 30
0.0
 11
173.2629480175
 21
377.986881723
 31
0.0
  0
LINE
  5
88
330
1F
100
AcDbEntity
  8
0
  6
Continuous
 62
     7
100
AcDbLine
 10
173.2629480175
 20
369.3099897351
 30
0.0
 11
173.2629480175
 21
359.099381723
 31
0.0
  0
LINE
  5
89
330
1F
100
AcDbEntity
  8
0
  6
Continuous
 62
     7
100
AcDbLine
 10
174.5908264033
 20
454.2742571208
 30
0.0
 11
174.5908264033
 21
420.736881723
 31
0.0
  0
LINE
  5
8A
330
1F
100
AcDbEntity
  8
0
  6
Continuous
 62
     7
100
AcDbLine
 10
174.5908264033
 20
361.3994581357
 30
0.0
 11
174.5908264033
 21
372.5092721237
 31
0.0
  0
LINE
  5
8B
330
1F
100
AcDbEntity
  8
0
  6
Continuous
 62
     7
100
AcDbLine
 10
174.5908264033
 20
377.986881723
 30
0.0
 11
174.5908264033
 21
394.936881723
 31
0.0
  0
LINE
  5
8C
330
1F
100
AcDbEntity
  8
0
  6
Continuous
 62
     9
100
AcDbLine
 10
175.3408264033
 20
453.336881723
 30
0.0
 11
175.3408264033
 21
420.736881723
 31
0.0
  0
LINE
  5
8D
330
1F
100
AcDbEntity
  8
0
  6
Continuous
 62
     9
100
AcDbLine
 10
175.3408264033
 20
362.336881723
 30
0.0
 11
175.3408264033
 21
373.4969996615
 31
0.0
  0
LINE
  5
8E
330
1F
100
AcDbEntity
  8
0
  6
Continuous
 62
     9
100
AcDbLine
 10
175.3408264033
 20
377.986881723
 30
0.0
 11
175.3408264033
 21
394.936881723
 31
0.0
  0
LINE
  5
8F
330
1F
100
AcDbEntity
  8
0
  6
Continuous
 62
     7
100
AcDbLine
 10
164.8386440701
 20
372.9832996815
 30
0.0
 11
165.8783264033
 21
373.261881723
 31
0.0
  0
LINE
  5
90
330
1F
100
AcDbEntity
  8
0
  6
Continuous
 62
     7
100
AcDbLine
 10
304.0783264033
 20
382.836881723
 30
0.0
 11
320.7095242498
 21
382.836881723
 31
0.0
  0
LINE
  5
91
330
1F
100
AcDbEntity
  8
0
  6
Continuous
 62
     7
100
AcDbLine
 10
239.4283264033
 20
383.836881723
 30
0.0
 11
288.5856857162
 21
383.836881723
 31
0.0
  0
LINE
  5
92
330
1F
100
AcDbEntity
  8
0
  6
Continuous
 62
     7
100
AcDbLine
 10
312.8283264033
 20
384.7467619581
 30
0.0
 11
320.7095242498
 21
384.7467619581
 31
0.0
  0
LINE
  5
93
330
1F
100
AcDbEntity
  8
0
  6
Continuous
 62
     7
100
AcDbLine
 10
322.9601893397
 20
387.311117759
 30
0.0
 11
312.8283264033
 21
387.311117759
 31
0.0
  0
LINE
  5
94
330
1F
100
AcDbEntity
  8
0
  6
Continuous
 62
     7
100
AcDbLine
 10
294.2425399657
 20
387.836881723
 30
0.0
 11
302.8283264033
 21
387.836881723
 31
0.0
  0
LWPOLYLINE
  5
95
330
1F
100
AcDbEntity
  8
DEFAULT_2
  6
DASHED
 62
     8
100
AcDbPolyline
 90
        2
 70
     0
 43
0.35
 10
302.8283264033
 20
387.836881723
 10
312.3283264033
 20
387.836881723
  0
LINE
  5
96
330
1F
100
AcDbEntity
  8
0
  6
Continuous
 62
     7
100
AcDbLine
 10
312.8283264033
 20
387.9921364893
 30
0.0
 11
320.7095242498
 21
387.9921364893
 31
0.0
  0
LINE
  5
97
330
1F
100
AcDbEntity
  8
0
  6
Continuous
 62
     9
100
AcDbLine
 10
177.6658264033
 20
453.336881723
 30
0.0
 11
177.6658264033
 21
420.736881723
 31
0.0
  0
LINE
  5
98
330
1F
100
AcDbEntity
  8
0
  6
Continuous
 62
     9
100
AcDbLine
 10
177.6658264033
 20
362.336881723
 30
0.0
 11
177.6658264033
 21
373.4969996615
 31
0.0
  0
LINE
  5
99
330
1F
100
AcDbEntity
  8
0
  6
Continuous
 62
     9
100
AcDbLine
 10
177.6658264033
 20
377.986881723
 30
0.0
 11
177.6658264033
 21
394.936881723
 31
0.0
  0
LINE
  5
9A
330
1F
100
AcDbEntity
  8
0
  6
Continuous
 62
     7
100
AcDbLine
 10
178.4158264033
 20
454.2742571208
 30
0.0
 11
178.4158264033
 21
420.736881723
 31
0.0
  0
LINE
  5
9B
330
1F
100
AcDbEntity
  8
0
  6
Continuous
 62
     7
100
AcDbLine
 10
178.4158264033
 20
361.3994581357
 30
0.0
 11
178.4158264033
 21
372.5092721237
 31
0.0
  0
LINE
  5
9C
330
1F
100
AcDbEntity
  8
0
  6
Continuous
 62
     7
100
AcDbLine
 10
178.4158264033
 20
377.986881723
 30
0.0
 11
178.4158264033
 21
394.936881723
 31
0.0
  0
LINE
  5
9D
330
1F
100
AcDbEntity
  8
0
  6
Continuous
 62
     7
100
AcDbLine
 10
179.7437047892
 20
456.574381723
 30
0.0
 11
179.7437047892
 21
420.736881723
 31
0.0
  0
LINE
  5
9E
330
1F
100
AcDbEntity
  8
0
  6
Continuous
 62
     7
100
AcDbLine
 10
179.7437047892
 20
394.936881723
 30
0.0
 11
179.7437047892
 21
377.986881723
 31
0.0
  0
LINE
  5
9F
330
1F
100
AcDbEntity
  8
0
  6
Continuous
 62
     7
100
AcDbLine
 10
179.7437047892
 20
369.3099897351
 30
0.0
 11
179.7437047892
 21
359.099381723
 31
0.0
  0
LINE
  5
A0
330
1F
100
AcDbEntity
  8
0
  6
Continuous
 62
     9
100
AcDbLine
 10
183.4283264033
 20
456.574381723
 30
0.0
 11
183.4283264033
 21
420.736881723
 31
0.0
  0
LINE
  5
A1
330
1F
100
AcDbEntity
  8
0
  6
Continuous
 62
     9
100
AcDbLine
 10
183.4283264033
 20
359.099381723
 30
0.0
 11
183.4283264033
 21
369.3099897351
 31
0.0
  0
LINE
  5
A2
330
1F
100
AcDbEntity
  8
0
  6
Continuous
 62
     9
100
AcDbLine
 10
183.4283264033
 20
377.986881723
 30
0.0
 11
183.4283264033
 21
394.936881723
 31
0.0
  0
LINE
  5
A3
330
1F
100
AcDbEntity
  8
0
  6
Continuous
 62
     7
100
AcDbLine
 10
184.4283264033
 20
455.574381723
 30
0.0
 11
184.4283264033
 21
420.736881723
 31
0.0
  0
LINE
  5
A4
330
1F
100
AcDbEntity
  8
RUNDUNGEN
  6
Continuous
 62
     7
100
AcDbLine
 10
184.4283264033
 20
420.736881723
 30
0.0
 11
184.4283264033
 21
419.2746722062
 31
0.0
  0
LINE
  5
A5
330
1F
100
AcDbEntity
  8
RUNDUNGEN
  6
Continuous
 62
     7
100
AcDbLine
 10
184.4283264033
 20
396.3994473817
 30
0.0
 11
184.4283264033
 21
394.936881723
 31
0.0
  0
LINE
  5
A6
330
1F
100
AcDbEntity
  8
0
  6
Continuous
 62
     7
100
AcDbLine
 10
184.4283264033
 20
360.099381723
 30
0.0
 11
184.4283264033
 21
394.936881723
 31
0.0
  0
LINE
  5
A7
330
1F
100
AcDbEntity
  8
0
  6
Continuous
 62
     7
100
AcDbLine
 10
168.5283264033
 20
394.936881723
 30
0.0
 11
184.4283264033
 21
394.936881723
 31
0.0
  0
LWPOLYLINE
  5
A8
330
1F
100
AcDbEntity
  8
DEFAULT_2
  6
DASHED
 62
     8
100
AcDbPolyline
 90
        2
 70
     0
 43
0.35
 10
261.3283264033
 20
396.086881723
 10
282.0880050832
 20
396.086881723
  0
LINE
  5
A9
330
1F
100
AcDbEntity
  8
RUNDUNGEN
  6
Continuous
 62
     9
100
AcDbLine
 10
184.4287913131
 20
396.686881723
 30
0.0
 11
168.5283264033
 21
396.686881723
 31
0.0
  0
LINE
  5
AA
330
1F
100
AcDbEntity
  8
RUNDUNGEN
  6
Continuous
 62
     9
100
AcDbLine
 10
194.6366597367
 20
435.1995499557
 30
0.0
 11
194.6366597367
 21
380.4742134904
 31
0.0
  0
LWPOLYLINE
  5
AB
330
1F
100
AcDbEntity
  8
DEFAULT_2
  6
DASHED
 62
     8
100
AcDbPolyline
 90
        2
 70
     0
 43
0.35
 10
282.0880050832
 20
419.586881723
 10
312.3283264033
 20
423.836881723
  0
LINE
  5
AC
330
1F
100
AcDbEntity
  8
0
  6
Continuous
 62
     7
100
AcDbLine
 10
312.8283264033
 20
404.5915071919
 30
0.0
 11
320.7095242498
 21
404.5915071919
 31
0.0
  0
LINE
  5
AD
330
1F
100
AcDbEntity
  8
0
  6
Continuous
 62
     7
100
AcDbLine
 10
322.9601893397
 20
405.236881723
 30
0.0
 11
312.8283264033
 21
405.236881723
 31
0.0
  0
LWPOLYLINE
  5
AE
330
1F
100
AcDbEntity
  8
TEIL_STARTBEZUEGE
  6
DOT_CENTER
 62
     7
100
AcDbPolyline
 90
        2
 70
     0
 43
0.25
 10
329.0122049356
 20
407.836881723
 10
60.57832640329994
 20
407.836881723
  0
LWPOLYLINE
  5
AF
330
1F
100
AcDbEntity
  8
DEFAULT_2
  6
DASHED
 62
     8
100
AcDbPolyline
 90
        2
 70
     0
 43
0.35
 10
282.0880050832
 20
396.086881723
 10
312.3283264033
 20
391.836881723
  0
LINE
  5
B0
330
1F
100
AcDbEntity
  8
0
  6
Continuous
 62
     7
100
AcDbLine
 10
173.2629480175
 20
359.099381723
 30
0.0
 11
174.5908264033
 21
361.3993345536
 31
0.0
  0
LINE
  5
B1
330
1F
100
AcDbEntity
  8
0
  6
Continuous
 62
     7
100
AcDbLine
 10
322.9601893397
 20
410.436881723
 30
0.0
 11
312.8283264033
 21
410.436881723
 31
0.0
  0
LINE
  5
B2
330
1F
100
AcDbEntity
  8
0
  6
Continuous
 62
     7
100
AcDbLine
 10
312.8283264033
 20
411.0822562542
 30
0.0
 11
320.7095242498
 21
411.0822562542
 31
0.0
  0
LINE
  5
B3
330
1F
100
AcDbEntity
  8
0
  6
Continuous
 62
     7
100
AcDbLine
 10
173.2629480175
 20
456.574381723
 30
0.0
 11
174.5908264033
 21
454.2744288925
 31
0.0
  0
LINE
  5
B4
330
1F
100
AcDbEntity
  8
RUNDUNGEN
  6
Continuous
 62
     9
100
AcDbLine
 10
184.4287913131
 20
418.986881723
 30
0.0
 11
168.5283264033
 21
418.986881723
 31
0.0
  0
LWPOLYLINE
  5
B5
330
1F
100
AcDbEntity
  8
DEFAULT_2
  6
DASHED
 62
     8
100
AcDbPolyline
 90
        2
 70
     0
 43
0.35
 10
261.3283264033
 20
419.586881723
 10
282.0880050832
 20
419.586881723
  0
LINE
  5
B6
330
1F
100
AcDbEntity
  8
0
  6
Continuous
 62
     7
100
AcDbLine
 10
168.5283264033
 20
420.736881723
 30
0.0
 11
184.4283264033
 21
420.736881723
 31
0.0
  0
LINE
  5
B7
330
1F
100
AcDbEntity
  8
0
  6
Continuous
 62
     7
100
AcDbLine
 10
312.8283264033
 20
427.6816269568
 30
0.0
 11
320.7095242498
 21
427.6816269568
 31
0.0
  0
LINE
  5
B8
330
1F
100
AcDbEntity
  8
0
  6
Continuous
 62
     7
100
AcDbLine
 10
294.2425399657
 20
427.836881723
 30
0.0
 11
302.8283264033
 21
427.836881723
 31
0.0
  0
LWPOLYLINE
  5
B9
330
1F
100
AcDbEntity
  8
DEFAULT_2
  6
DASHED
 62
     8
100
AcDbPolyline
 90
        2
 70
     0
 43
0.35
 10
302.8283264033
 20
427.836881723
 10
312.3283264033
 20
427.836881723
  0
LINE
  5
BA
330
1F
100
AcDbEntity
  8
0
  6
Continuous
 62
     7
100
AcDbLine
 10
322.9601893397
 20
428.3626456871
 30
0.0
 11
312.8283264033
 21
428.3626456871
 31
0.0
  0
LINE
  5
BB
330
1F
100
AcDbEntity
  8
0
  6
Continuous
 62
     7
100
AcDbLine
 10
312.8283264033
 20
430.927001488
 30
0.0
 11
320.7095242498
 21
430.927001488
 31
0.0
  0
LINE
  5
BC
330
1F
100
AcDbEntity
  8
0
  6
Continuous
 62
     7
100
AcDbLine
 10
239.4283264033
 20
431.836881723
 30
0.0
 11
288.5856857162
 21
431.836881723
 31
0.0
  0
LINE
  5
BD
330
1F
100
AcDbEntity
  8
RUNDUNGEN
  6
Continuous
 62
     7
100
AcDbLine
 10
320.7095242498
 20
432.836881723
 30
0.0
 11
304.0783264033
 21
432.836881723
 31
0.0
  0
LINE
  5
BE
330
1F
100
AcDbEntity
  8
0
  6
Continuous
 62
     7
100
AcDbLine
 10
304.0783264033
 20
432.836881723
 30
0.0
 11
320.7095242498
 21
432.836881723
 31
0.0
  0
LINE
  5
BF
330
1F
100
AcDbEntity
  8
0
  6
Continuous
 62
     7
100
AcDbLine
 10
164.8386440701
 20
442.6904637646
 30
0.0
 11
165.8783264033
 21
442.411881723
 31
0.0
  0
LINE
  5
C0
330
1F
100
AcDbEntity
  8
0
  6
Continuous
 62
     7
100
AcDbLine
 10
165.8783264033
 20
442.411881723
 30
0.0
 11
167.5283264033
 21
442.411881723
 31
0.0
  0
LINE
  5
C1
330
1F
100
AcDbEntity
  8
0
  6
Continuous
 62
     9
100
AcDbLine
 10
239.4283264033
 20
431.836881723
 30
0.0
 11
239.4283264033
 21
383.836881723
 31
0.0
  0
LINE
  5
C2
330
1F
100
AcDbEntity
  8
0
  6
Continuous
 62
     7
100
AcDbLine
 10
65.50360939769999
 20
428.2247740674
 30
0.0
 11
164.8386440701
 21
442.6904637646
 31
0.0
  0
LINE
  5
C3
330
1F
100
AcDbEntity
  8
0
  6
Continuous
 62
     7
100
AcDbLine
 10
175.3408264033
 20
453.336881723
 30
0.0
 11
177.6658264033
 21
453.336881723
 31
0.0
  0
LINE
  5
C4
330
1F
100
AcDbEntity
  8
0
  6
Continuous
 62
     7
100
AcDbLine
 10
169.5283264033
 20
456.574381723
 30
0.0
 11
173.2629480175
 21
456.574381723
 31
0.0
  0
LINE
  5
C5
330
1F
100
AcDbEntity
  8
0
  6
Continuous
 62
     7
100
AcDbLine
 10
179.7437047892
 20
456.574381723
 30
0.0
 11
183.4283264033
 21
456.574381723
 31
0.0
  0
LWPOLYLINE
  5
C6
330
1F
100
AcDbEntity
  8
DEFAULT_2
  6
DASHED
 62
     8
100
AcDbPolyline
 90
        2
 70
     0
 43
0.35
 10
261.3283264033
 20
396.086881723
 10
261.3283264033
 20
419.586881723
  0
LINE
  5
C7
330
1F
100
AcDbEntity
  8
0
  6
Continuous
 62
     7
100
AcDbLine
 10
290.7070060598
 20
384.7155613795
 30
0.0
 11
293.5354331845
 21
387.5439885042
 31
0.0
  0
LINE
  5
C8
330
1F
100
AcDbEntity
  8
0
  6
Continuous
 62
     7
100
AcDbLine
 10
290.7070060598
 20
430.9582020666
 30
0.0
 11
293.5354331845
 21
428.1297749419
 31
0.0
  0
LWPOLYLINE
  5
C9
330
1F
100
AcDbEntity
  8
DEFAULT_2
  6
DASHED
 62
     8
100
AcDbPolyline
 90
        2
 70
     0
 43
0.35
 10
282.0880050832
 20
419.586881723
 10
282.0880050832
 20
396.086881723
  0
LINE
  5
CA
330
1F
100
AcDbEntity
  8
RUNDUNGEN
  6
Continuous
 62
     9
100
AcDbLine
 10
288.5856857162
 20
383.836881723
 30
0.0
 11
288.5856857162
 21
431.836881723
 31
0.0
  0
LINE
  5
CB
330
1F
100
AcDbEntity
  8
RUNDUNGEN
  6
Continuous
 62
     9
100
AcDbLine
 10
290.7070060598
 20
384.7155613795
 30
0.0
 11
290.7070060598
 21
430.9582020666
 31
0.0
  0
LINE
  5
CC
330
1F
100
AcDbEntity
  8
RUNDUNGEN
  6
Continuous
 62
     9
100
AcDbLine
 10
293.5354331845
 20
428.1297749419
 30
0.0
 11
293.5354331845
 21
387.5439885042
 31
0.0
  0
LINE
  5
CD
330
1F
100
AcDbEntity
  8
RUNDUNGEN
  6
Continuous
 62
     9
100
AcDbLine
 10
294.2425399657
 20
427.836881723
 30
0.0
 11
294.2425399657
 21
387.836881723
 31
0.0
  0
LINE
  5
CE
330
1F
100
AcDbEntity
  8
RUNDUNGEN
  6
Continuous
 62
     7
100
AcDbLine
 10
302.8283264033
 20
431.586881723
 30
0.0
 11
302.8283264033
 21
384.086881723
 31
0.0
  0
LINE
  5
CF
330
1F
100
AcDbEntity
  8
RUNDUNGEN
  6
Continuous
 62
     9
100
AcDbLine
 10
304.0783264033
 20
382.836881723
 30
0.0
 11
304.0783264033
 21
432.836881723
 31
0.0
  0
LWPOLYLINE
  5
D0
330
1F
100
AcDbEntity
  8
DEFAULT_2
  6
DASHED
 62
     8
100
AcDbPolyline
 90
        2
 70
     0
 43
0.35
 10
312.3283264033
 20
387.836881723
 10
312.3283264033
 20
427.836881723
  0
LINE
  5
D1
330
1F
100
AcDbEntity
  8
0
  6
Continuous
 62
     7
100
AcDbLine
 10
312.8283264033
 20
430.927001488
 30
0.0
 11
312.8283264033
 21
427.6816269568
 31
0.0
  0
LINE
  5
D2
330
1F
100
AcDbEntity
  8
0
  6
Continuous
 62
     7
100
AcDbLine
 10
312.8283264033
 20
411.0822562542
 30
0.0
 11
312.8283264033
 21
404.5915071919
 31
0.0
  0
LINE
  5
D3
330
1F
100
AcDbEntity
  8
0
  6
Continuous
 62
     7
100
AcDbLine
 10
312.8283264033
 20
387.9921364893
 30
0.0
 11
312.8283264033
 21
384.7467619581
 31
0.0
  0
LINE
  5
D4
330
1F
100
AcDbEntity
  8
0
  6
Continuous
 62
     9
100
AcDbLine
 10
320.7095242498
 20
382.836881723
 30
0.0
 11
320.7095242498
 21
384.7467619581
 31
0.0
  0
LINE
  5
D5
330
1F
100
AcDbEntity
  8
0
  6
Continuous
 62
     9
100
AcDbLine
 10
320.7095242498
 20
387.9921364893
 30
0.0
 11
320.7095242498
 21
404.5915071919
 31
0.0
  0
LINE
  5
D6
330
1F
100
AcDbEntity
  8
0
  6
Continuous
 62
     9
100
AcDbLine
 10
320.7095242498
 20
411.0822562542
 30
0.0
 11
320.7095242498
 21
427.6816269568
 31
0.0
  0
LINE
  5
D7
330
1F
100
AcDbEntity
  8
0
  6
Continuous
 62
     9
100
AcDbLine
 10
320.7095242498
 20
430.927001488
 30
0.0
 11
320.7095242498
 21
432.836881723
 31
0.0
  0
LINE
  5
D8
330
1F
100
AcDbEntity
  8
0
  6
Continuous
 62
     9
100
AcDbLine
 10
321.7920560045
 20
383.461881723
 30
0.0
 11
321.7920560045
 21
385.351589003
 31
0.0
  0
LINE
  5
D9
330
1F
100
AcDbEntity
  8
0
  6
Continuous
 62
     9
100
AcDbLine
 10
321.7920560045
 20
388.444745979
 30
0.0
 11
321.7920560045
 21
404.743724747
 31
0.0
  0
LINE
  5
DA
330
1F
100
AcDbEntity
  8
0
  6
Continuous
 62
     9
100
AcDbLine
 10
321.7920560045
 20
410.9300386991
 30
0.0
 11
321.7920560045
 21
427.2290174671
 31
0.0
  0
LINE
  5
DB
330
1F
100
AcDbEntity
  8
0
  6
Continuous
 62
     9
100
AcDbLine
 10
321.7920560045
 20
430.3221744431
 30
0.0
 11
321.7920560045
 21
432.211881723
 31
0.0
  0
LINE
  5
DC
330
1F
100
AcDbEntity
  8
0
  6
Continuous
 62
     7
100
AcDbLine
 10
325.3283264033
 20
426.086881723
 30
0.0
 11
325.3283264033
 21
389.586881723
 31
0.0
  0
LINE
  5
DD
330
1F
100
AcDbEntity
  8
RUNDUNGEN
  6
Continuous
 62
     7
100
AcDbLine
 10
325.3283264033
 20
389.586881723
 30
0.0
 11
321.7920560045
 21
383.461881723
 31
0.0
  0
LINE
  5
DE
330
1F
100
AcDbEntity
  8
0
  6
Continuous
 62
     7
100
AcDbLine
 10
321.7920560045
 20
383.461881723
 30
0.0
 11
325.3283264033
 21
389.586881723
 31
0.0
  0
LINE
  5
DF
330
1F
100
AcDbEntity
  8
0
  6
Continuous
 62
     7
100
AcDbLine
 10
321.7920560045
 20
432.211881723
 30
0.0
 11
325.3283264033
 21
426.086881723
 31
0.0
  0
LINE
  5
E0
330
1F
100
AcDbEntity
  8
RUNDUNGEN
  6
Continuous
 62
     7
100
AcDbLine
 10
325.3283264033
 20
426.086881723
 30
0.0
 11
321.7920560045
 21
432.211881723
 31
0.0
  0
LINE
  5
E1
330
1F
100
AcDbEntity
  8
0
  6
Continuous
 62
     7
100
AcDbLine
 10
322.9601893397
 20
405.236881723
 30
0.0
 11
321.7920560045
 21
404.743724747
 31
0.0
  0
LINE
  5
E2
330
1F
100
AcDbEntity
  8
0
  6
Continuous
 62
     7
100
AcDbLine
 10
321.7920560045
 20
410.9300386991
 30
0.0
 11
322.9601893397
 21
410.436881723
 31
0.0
  0
ARC
  5
E3
330
1F
100
AcDbEntity
  8
0
  6
Continuous
 62
     7
100
AcDbCircle
 10
239.4283264033
 20
83.836881723
 30
0.0
 40
300.0
100
AcDbArc
 50
90.0
 51
98.58668464229999
  0
ARC
  5
E4
330
1F
100
AcDbEntity
  8
0
  6
Continuous
 62
     7
100
AcDbCircle
 10
239.4283264033
 20
731.836881723
 30
0.0
 40
300.0000000000001
100
AcDbArc
 50
261.4133153577
 51
270.0
  0
ARC
  5
E5
330
1F
100
AcDbEntity
  8
0
  6
Continuous
 62
     7
100
AcDbCircle
 10
-77.4630497756
 20
483.787575701
 30
0.0
 40
275.6240984709531
100
AcDbArc
 50
335.4592993178373
 51
336.1325788933
  0
ARC
  5
E6
330
1F
100
AcDbEntity
  8
0
  6
Continuous
 62
     7
100
AcDbCircle
 10
430.4697025807
 20
483.7875757003
 30
0.0
 40
275.6240984692004
100
AcDbArc
 50
203.8674211067
 51
204.5407006821684
  0
ARC
  5
E7
330
1F
100
AcDbEntity
  8
RUNDUNGEN
  6
Continuous
 62
     7
100
AcDbCircle
 10
285.5583968663
 20
419.294169711
 30
0.0
 40
101.1300724080002
100
AcDbArc
 50
180.0112372106998
 51
180.1740959091668
  0
ARC
  5
E8
330
1F
100
AcDbEntity
  8
RUNDUNGEN
  6
Continuous
 62
     7
100
AcDbCircle
 10
285.5580669923
 20
396.3795942686
 30
0.0
 40
101.1297425339314
100
AcDbArc
 50
179.825903825266
 51
179.9887630548999
  0
ARC
  5
E9
330
1F
100
AcDbEntity
  8
0
  6
Continuous
 62
     7
100
AcDbCircle
 10
284.418869257
 20
407.836881723
 30
0.0
 40
38.62891861956705
100
AcDbArc
 50
356.1406702632809
 51
3.85932973671919
  0
ARC
  5
EA
330
1F
100
AcDbEntity
  8
RUNDUNGEN
  6
Continuous
 62
     7
100
AcDbCircle
 10
196.4283264033
 20
447.0650432277
 30
0.0
 40
12.0
100
AcDbArc
 50
180.0
 51
261.4133153568216
  0
ARC
  5
EB
330
1F
100
AcDbEntity
  8
RUNDUNGEN
  6
Continuous
 62
     7
100
AcDbCircle
 10
196.4283264033
 20
368.6087202184
 30
0.0
 40
11.99999999991291
100
AcDbArc
 50
98.58668464324968
 51
180.0
  0
ARC
  5
EC
330
1F
100
AcDbEntity
  8
0
  6
Continuous
 62
     7
100
AcDbCircle
 10
313.3577087703
 20
388.611117759
 30
0.0
 40
9.690079106266577
100
AcDbArc
 50
352.2900758040112
 51
7.70992419599982
  0
ARC
  5
ED
330
1F
100
AcDbEntity
  8
0
  6
Continuous
 62
     7
100
AcDbCircle
 10
313.3577087703
 20
427.0626456871
 30
0.0
 40
9.690079106200232
100
AcDbArc
 50
352.2900758040002
 51
7.70992419598877
  0
ARC
  5
EE
330
1F
100
AcDbEntity
  8
RUNDUNGEN
  6
Continuous
 62
     7
100
AcDbCircle
 10
288.5856857162
 20
428.836881723
 30
0.0
 40
3.0000000000571
100
AcDbArc
 50
45.0
 51
90.0
  0
ARC
  5
EF
330
1F
100
AcDbEntity
  8
RUNDUNGEN
  6
Continuous
 62
     7
100
AcDbCircle
 10
288.5856857162
 20
386.836881723
 30
0.0
 40
3.0
100
AcDbArc
 50
270.0
 51
315.0000000013511
  0
ARC
  5
F0
330
1F
100
AcDbEntity
  8
0
  6
Continuous
 62
     7
100
AcDbCircle
 10
65.8283264033
 20
389.6754347219
 30
0.0
 40
2.25
100
AcDbArc
 50
180.0
 51
261.7021731726453
  0
ARC
  5
F1
330
1F
100
AcDbEntity
  8
0
  6
Continuous
 62
     7
100
AcDbCircle
 10
65.8283264033
 20
425.9983287242
 30
0.0
 40
2.249999999996176
100
AcDbArc
 50
98.29782682735467
 51
180.0
  0
ARC
  5
F2
330
1F
100
AcDbEntity
  8
RUNDUNGEN
  6
Continuous
 62
     7
100
AcDbCircle
 10
304.0783264033
 20
431.586881723
 30
0.0
 40
1.25
100
AcDbArc
 50
90.0
 51
180.0
  0
ARC
  5
F3
330
1F
100
AcDbEntity
  8
RUNDUNGEN
  6
Continuous
 62
     7
100
AcDbCircle
 10
304.0783264033
 20
384.086881723
 30
0.0
 40
1.25
100
AcDbArc
 50
180.0
 51
270.0
  0
ARC
  5
F4
330
1F
100
AcDbEntity
  8
RUNDUNGEN
  6
Continuous
 62
     7
100
AcDbCircle
 10
320.7095242498
 20
431.586881723
 30
0.0
 40
1.249999999973569
100
AcDbArc
 50
30.00000000069947
 51
90.0
  0
ARC
  5
F5
330
1F
100
AcDbEntity
  8
RUNDUNGEN
  6
Continuous
 62
     7
100
AcDbCircle
 10
320.7095242498
 20
384.086881723
 30
0.0
 40
1.25
100
AcDbArc
 50
270.0
 51
329.9999999993005
  0
ARC
  5
F6
330
1F
100
AcDbEntity
  8
RUNDUNGEN
  6
Continuous
 62
     7
100
AcDbCircle
 10
294.2425399657
 20
428.836881723
 30
0.0
 40
0.9999999999483181
100
AcDbArc
 50
224.9999999959468
 51
270.0
  0
ARC
  5
F7
330
1F
100
AcDbEntity
  8
RUNDUNGEN
  6
Continuous
 62
     7
100
AcDbCircle
 10
294.2425399657
 20
386.836881723
 30
0.0
 40
1.0
100
AcDbArc
 50
90.0
 51
135.0
  0
ARC
  5
F8
330
1F
100
AcDbEntity
  8
0
  6
Continuous
 62
     7
100
AcDbCircle
 10
167.5283264033
 20
372.261881723
 30
0.0
 40
1.0
100
AcDbArc
 50
0.0
 51
90.0
  0
ARC
  5
F9
330
1F
100
AcDbEntity
  8
0
  6
Continuous
 62
     7
100
AcDbCircle
 10
169.5283264033
 20
360.099381723
 30
0.0
 40
1.0
100
AcDbArc
 50
180.0
 51
270.0
  0
ARC
  5
FA
330
1F
100
AcDbEntity
  8
0
  6
Continuous
 62
     7
100
AcDbCircle
 10
183.4283264033
 20
360.099381723
 30
0.0
 40
1.0
100
AcDbArc
 50
270.0
 51
0.0
  0
ARC
  5
FB
330
1F
100
AcDbEntity
  8
0
  6
Continuous
 62
     7
100
AcDbCircle
 10
167.5283264033
 20
443.411881723
 30
0.0
 40
1.0
100
AcDbArc
 50
270.0
 51
0.0
  0
ARC
  5
FC
330
1F
100
AcDbEntity
  8
0
  6
Continuous
 62
     7
100
AcDbCircle
 10
183.4283264033
 20
455.574381723
 30
0.0
 40
1.0
100
AcDbArc
 50
0.0
 51
90.0
  0
ARC
  5
FD
330
1F
100
AcDbEntity
  8
0
  6
Continuous
 62
     7
100
AcDbCircle
 10
169.5283264033
 20
455.574381723
 30
0.0
 40
1.0
100
AcDbArc
 50
90.0
 51
180.0
  0
ARC
  5
FE
330
1F
100
AcDbEntity
  8
0
  6
Continuous
 62
     7
100
AcDbCircle
 10
177.6658264033
 20
361.586881723
 30
0.0
 40
0.75
100
AcDbArc
 50
0.0
 51
90.0
  0
ARC
  5
FF
330
1F
100
AcDbEntity
  8
0
  6
Continuous
 62
     7
100
AcDbCircle
 10
175.3408264033
 20
361.586881723
 30
0.0
 40
0.75
100
AcDbArc
 50
90.0
 51
180.0
  0
ARC
  5
100
330
1F
100
AcDbEntity
  8
0
  6
Continuous
 62
     7
100
AcDbCircle
 10
177.6658264033
 20
454.086881723
 30
0.0
 40
0.75
100
AcDbArc
 50
270.0
 51
0.0
  0
ARC
  5
101
330
1F
100
AcDbEntity
  8
0
  6
Continuous
 62
     7
100
AcDbCircle
 10
175.3408264033
 20
454.086881723
 30
0.0
 40
0.75
100
AcDbArc
 50
180.0
 51
270.0
  0
SPLINE
  5
102
330
1F
100
AcDbEntity
  8
0
  6
Continuous
 62
     7
100
AcDbSpline
210
0.0
220
0.0
230
1.0
 70
     8
 71
     3
 72
     9
 73
     5
 74
     3
 42
0.0000000001
 43
0.0000000001
 44
0.00000001
 40
0.0
 40
0.0
 40
0.0
 40
0.0
 40
0.9373875654547487
 40
1.874775126650635
 40
1.874775126650635
 40
1.874775126650635
 40
1.874775126650635
 10
321.7920560045
 20
388.444745979
 30
0.0
 10
321.9868034571741
 20
388.6890946240392
 30
0.0
 10
322.3762983616374
 20
389.1777919130072
 30
0.0
 10
322.7655590139299
 20
389.6666758107012
 30
0.0
 10
322.960189339634
 20
389.911117758993
 30
0.0
 11
321.7920560045
 21
388.444745979
 31
0.0
 11
322.3762397994792
 21
389.1778385662991
 31
0.0
 11
322.960189339634
 21
389.911117758993
 31
0.0
  0
SPLINE
  5
103
330
1F
100
AcDbEntity
  8
0
  6
Continuous
 62
     7
100
AcDbSpline
210
0.0
220
0.0
230
1.0
 70
     8
 71
     3
 72
     9
 73
     5
 74
     3
 42
0.0000000001
 43
0.0000000001
 44
0.00000001
 40
0.0
 40
0.0
 40
0.0
 40
0.0
 40
0.9373875611958508
 40
1.874775126650635
 40
1.874775126650635
 40
1.874775126650635
 40
1.874775126650635
 10
322.960189339634
 20
425.762645687107
 30
0.0
 10
322.7655590139299
 20
426.0070876353988
 30
0.0
 10
322.3762983616374
 20
426.4959715330928
 30
0.0
 10
321.986803457174
 20
426.9846688220607
 30
0.0
 10
321.7920560045
 20
427.2290174671
 30
0.0
 11
322.960189339634
 21
425.762645687107
 31
0.0
 11
322.3762397994793
 21
426.4959248798009
 31
0.0
 11
321.7920560045
 21
427.2290174671
 31
0.0
  0
SPLINE
  5
104
330
1F
100
AcDbEntity
  8
0
  6
Continuous
 62
     7
100
AcDbSpline
210
0.0
220
0.0
230
1.0
 70
     8
 71
     3
 72
    11
 73
     7
 74
     5
 42
0.0000000001
 43
0.0000000001
 44
0.00000001
 40
0.0
 40
0.0
 40
0.0
 40
0.0
 40
0.3193928183626162
 40
0.640668384110103
 40
0.9266302170631598
 40
1.209081101797064
 40
1.209081101797064
 40
1.209081101797064
 40
1.209081101797064
 10
320.7095242498
 20
387.9921364893
 30
0.0
 10
320.8162470438713
 20
387.9975476917965
 30
0.0
 10
321.0303217383992
 20
388.0084019945868
 30
0.0
 10
321.3275383012969
 20
388.1007821186498
 30
0.0
 10
321.5943782980647
 20
388.238843331793
 30
0.0
 10
321.7264353304978
 20
388.3763949710275
 30
0.0
 10
321.7920560045
 20
388.444745979
 30
0.0
 11
320.7095242498
 21
387.9921364893
 31
0.0
 11
321.0275601298748
 21
388.0215465455162
 31
0.0
 11
321.3353254123222
 21
388.1137339636733
 31
0.0
 11
321.5857062087762
 21
388.2518774639652
 31
0.0
 11
321.7920560045
 21
388.444745979
 31
0.0
  0
SPLINE
  5
105
330
1F
100
AcDbEntity
  8
0
  6
Continuous
 62
     7
100
AcDbSpline
210
0.0
220
0.0
230
1.0
 70
     8
 71
     3
 72
    11
 73
     7
 74
     5
 42
0.0000000001
 43
0.0000000001
 44
0.00000001
 40
0.0
 40
0.0
 40
0.0
 40
0.0
 40
0.2824513204325806
 40
0.5684136014286272
 40
0.8896887254914005
 40
1.209081100079233
 40
1.209081100079233
 40
1.209081100079233
 40
1.209081100079233
 10
321.7920560045
 20
427.2290174671
 30
0.0
 10
321.7264352186178
 20
427.297368572186
 30
0.0
 10
321.5943779594245
 20
427.4349204085307
 30
0.0
 10
321.3275377433573
 20
427.572981548498
 30
0.0
 10
321.0303212932406
 20
427.6653614975808
 30
0.0
 10
320.816246895253
 20
427.6762157696558
 30
0.0
 10
320.7095242498
 20
427.6816269568
 30
0.0
 11
321.7920560045
 21
427.2290174671
 31
0.0
 11
321.5857058502317
 21
427.4218862365977
 31
0.0
 11
321.3353245913402
 21
427.5600298262006
 31
0.0
 11
321.027559691894
 21
427.652216983714
 31
0.0
 11
320.7095242498
 21
427.6816269568
 31
0.0
  0
SPLINE
  5
106
330
1F
100
AcDbEntity
  8
0
  6
Continuous
 62
     7
100
AcDbSpline
210
0.0
220
0.0
230
1.0
 70
     8
 71
     3
 72
     9
 73
     5
 74
     3
 42
0.0000000001
 43
0.0000000001
 44
0.00000001
 40
0.0
 40
0.0
 40
0.0
 40
0.0
 40
1.14064549284346
 40
2.281290981565111
 40
2.281290981565111
 40
2.281290981565111
 40
2.281290981565111
 10
321.7920560045
 20
430.3221744431
 30
0.0
 10
321.9868155213242
 20
429.9956284195262
 30
0.0
 10
322.3763345542689
 20
429.3425363735589
 30
0.0
 10
322.765571078124
 20
428.6892759155261
 30
0.0
 10
322.9601893397
 20
428.3626456871
 30
0.0
 11
321.7920560045
 21
430.3221744431
 31
0.0
 11
322.3762639277
 21
429.3424942693624
 31
0.0
 11
322.9601893397
 21
428.3626456871
 31
0.0
  0
SPLINE
  5
107
330
1F
100
AcDbEntity
  8
0
  6
Continuous
 62
     7
100
AcDbSpline
210
0.0
220
0.0
230
1.0
 70
     8
 71
     3
 72
     9
 73
     5
 74
     3
 42
0.0000000001
 43
0.0000000001
 44
0.00000001
 40
0.0
 40
0.0
 40
0.0
 40
0.0
 40
1.140645488721749
 40
2.281290981565111
 40
2.281290981565111
 40
2.281290981565111
 40
2.281290981565111
 10
322.9601893397
 20
387.311117759
 30
0.0
 10
322.765571078124
 20
386.9844875305738
 30
0.0
 10
322.3763345542689
 20
386.3312270725411
 30
0.0
 10
321.9868155213242
 20
385.6781350265737
 30
0.0
 10
321.7920560045
 20
385.351589003
 30
0.0
 11
322.9601893397
 21
387.311117759
 31
0.0
 11
322.3762639277
 21
386.3312691767375
 31
0.0
 11
321.7920560045
 21
385.351589003
 31
0.0
  0
SPLINE
  5
108
330
1F
100
AcDbEntity
  8
0
  6
Continuous
 62
     7
100
AcDbSpline
210
0.0
220
0.0
230
1.0
 70
     8
 71
     3
 72
    15
 73
    11
 74
     9
 42
0.0000000001
 43
0.0000000001
 44
0.00000001
 40
0.0
 40
0.0
 40
0.0
 40
0.0
 40
0.1597014530099618
 40
0.3197013835309694
 40
0.4812180800580981
 40
0.6426522275850686
 40
0.8054905617198493
 40
0.9684179306106366
 40
1.13225350185524
 40
1.295812828075604
 40
1.295812828075604
 40
1.295812828075604
 40
1.295812828075604
 10
321.7920560045
 20
385.351589003
 30
0.0
 10
321.7629887953162
 20
385.3069000305077
 30
0.0
 10
321.7048000511545
 20
385.2174385630939
 30
0.0
 10
321.5958087475519
 20
385.0987982654847
 30
0.0
 10
321.4730006074371
 20
384.9941572540866
 30
0.0
 10
321.3366029553574
 20
384.9060065145893
 30
0.0
 10
321.1896695229301
 20
384.8357391087187
 30
0.0
 10
321.0342150160602
 20
384.784920617021
 30
0.0
 10
320.8732811469404
 20
384.7528005916341
 30
0.0
 10
320.7640791685034
 20
384.7487737033595
 30
0.0
 10
320.7095242498
 20
384.7467619581
 30
0.0
 11
321.7920560045
 21
385.351589003
 31
0.0
 11
321.7013058699106
 21
385.2201775607071
 31
0.0
 11
321.5939390426986
 21
385.1015506574299
 31
0.0
 11
321.4708399159695
 21
384.9969837015806
 31
0.0
 11
321.3353245913605
 21
384.9092535426622
 31
0.0
 11
321.1884001397282
 21
384.839042941067
 31
0.0
 11
321.0336334818195
 21
384.7881252709175
 31
0.0
 11
320.872753684383
 21
384.757144870955
 31
0.0
 11
320.7095242498
 21
384.7467619581
 31
0.0
  0
SPLINE
  5
109
330
1F
100
AcDbEntity
  8
0
  6
Continuous
 62
     7
100
AcDbSpline
210
0.0
220
0.0
230
1.0
 70
     8
 71
     3
 72
    13
 73
     9
 74
     7
 42
0.0000000001
 43
0.0000000001
 44
0.00000001
 40
0.0
 40
0.0
 40
0.0
 40
0.0
 40
0.1039309465865614
 40
0.2080397814848949
 40
0.3396638172600243
 40
0.4712212345210984
 40
0.7849452670958211
 40
1.098743092810338
 40
1.098743092810338
 40
1.098743092810338
 40
1.098743092810338
 10
321.7920560045
 20
404.743724747
 30
0.0
 10
321.7596871479801
 20
404.7313063024921
 30
0.0
 10
321.6948940323732
 20
404.7064481580543
 30
0.0
 10
321.5851985424335
 20
404.6777782271008
 30
0.0
 10
321.4654177435249
 20
404.6523410602177
 30
0.0
 10
321.2754478260385
 20
404.6221464296577
 30
0.0
 10
321.0233589358473
 20
404.5964939874358
 30
0.0
 10
320.8141440126595
 20
404.5931695873891
 30
0.0
 10
320.7095242498
 20
404.5915071919
 30
0.0
 11
321.7920560045
 21
404.743724747
 31
0.0
 11
321.694351962723
 21
404.7082908383981
 31
0.0
 11
321.5939390427304
 21
404.6807972936567
 31
0.0
 11
321.4651872761107
 21
404.653450092958
 31
0.0
 11
321.3353245912893
 21
404.6324016458089
 31
0.0
 11
321.0231794855177
 21
404.6009659724784
 31
0.0
 11
320.7095242498
 21
404.5915071919
 31
0.0
  0
SPLINE
  5
10A
330
1F
100
AcDbEntity
  8
0
  6
Continuous
 62
     7
100
AcDbSpline
210
0.0
220
0.0
230
1.0
 70
     8
 71
     3
 72
    13
 73
     9
 74
     7
 42
0.0000000001
 43
0.0000000001
 44
0.00000001
 40
0.0
 40
0.0
 40
0.0
 40
0.0
 40
0.3137982402318452
 40
0.6275226869382198
 40
0.7590799143377753
 40
0.8907037595456445
 40
0.9948123697137934
 40
1.09874309270242
 40
1.09874309270242
 40
1.09874309270242
 40
1.09874309270242
 10
320.7095242498
 20
411.0822562542
 30
0.0
 10
320.8141441509106
 20
411.080593854784
 30
0.0
 10
321.0233593504723
 20
411.0772694468858
 30
0.0
 10
321.2754484503888
 20
411.0516169446379
 30
0.0
 10
321.4654183719238
 20
411.0214222688597
 30
0.0
 10
321.585198967991
 20
410.9959851171776
 30
0.0
 10
321.6948942442598
 20
410.9673152138687
 30
0.0
 10
321.759687218491
 20
410.9424571189262
 30
0.0
 10
321.7920560045
 20
410.9300386991
 30
0.0
 11
320.7095242498
 21
411.0822562542
 31
0.0
 11
321.0231798994765
 21
411.0727974488515
 31
0.0
 11
321.3353254123218
 21
411.0413616846372
 31
0.0
 11
321.4651879048645
 21
411.0203132378616
 31
0.0
 11
321.5939394787922
 21
410.9929660471752
 31
0.0
 11
321.6943521762247
 21
410.9654725405695
 31
0.0
 11
321.7920560045
 21
410.9300386991
 31
0.0
  0
SPLINE
  5
10B
330
1F
100
AcDbEntity
  8
0
  6
Continuous
 62
     7
100
AcDbSpline
210
0.0
220
0.0
230
1.0
 70
     8
 71
     3
 72
    15
 73
    11
 74
     9
 42
0.0000000001
 43
0.0000000001
 44
0.00000001
 40
0.0
 40
0.0
 40
0.0
 40
0.0
 40
0.1635596290562517
 40
0.3273955048269555
 40
0.4903230395467327
 40
0.6531615383035081
 40
0.8145955186720878
 40
0.9761120469339901
 40
1.136111675326286
 40
1.295812828037155
 40
1.295812828037155
 40
1.295812828037155
 40
1.295812828037155
 10
320.7095242498
 20
430.927001488
 30
0.0
 10
320.7640792696338
 20
430.9249897347696
 30
0.0
 10
320.8732814508958
 20
430.9209628305252
 30
0.0
 10
321.0342155639777
 20
430.8888426922745
 30
0.0
 10
321.1896702458178
 20
430.8380240520099
 30
0.0
 10
321.3366036823251
 20
430.7677565252155
 30
0.0
 10
321.4730012265857
 20
430.6796057262262
 30
0.0
 10
321.5958091470429
 20
430.574964785952
 30
0.0
 10
321.7048002269614
 20
430.4563246368306
 30
0.0
 10
321.7629888538052
 20
430.3668633337032
 30
0.0
 10
321.7920560045
 20
430.3221744431
 30
0.0
 11
320.7095242498
 21
430.927001488
 31
0.0
 11
320.8727539852743
 21
430.9166185349517
 31
0.0
 11
321.0336340704125
 21
430.8856380185665
 31
0.0
 11
321.188400858549
 21
430.834720213628
 31
0.0
 11
321.3353254123089
 21
430.7645094439425
 31
0.0
 11
321.4708405379758
 21
430.6767792853133
 31
0.0
 11
321.5939394788307
 21
430.5722123705544
 31
0.0
 11
321.7013060582665
 21
430.4535856505208
 31
0.0
 11
321.7920560045
 21
430.3221744431
 31
0.0
  0
SPLINE
  5
10C
330
1F
100
AcDbEntity
  8
0
  6
Continuous
 62
     7
100
AcDbSpline
210
0.0
220
0.0
230
1.0
 70
     8
 71
     3
 72
    17
 73
    13
 74
    11
 42
0.0000000001
 43
0.0000000001
 44
0.00000001
 40
0.0
 40
0.0
 40
0.0
 40
0.0
 40
0.2235602340687824
 40
0.4475666315541499
 40
0.6712655547380801
 40
0.8950713345038415
 40
1.119203328730539
 40
1.342351511389652
 40
1.454388474255013
 40
1.566418982941072
 40
1.67855429141508
 40
1.790469539371583
 40
1.790469539371583
 40
1.790469539371583
 40
1.790469539371583
 10
184.4283264033
 20
370.5830710958
 30
0.0
 10
184.4253863911447
 20
370.5084910344789
 30
0.0
 10
184.419500499396
 20
370.3591820709881
 30
0.0
 10
184.3715428360658
 20
370.1394915525258
 30
0.0
 10
184.2942000468055
 20
369.9286673681116
 30
0.0
 10
184.1825429114748
 20
369.7332236077311
 30
0.0
 10
184.0372391850551
 20
369.5614128770034
 30
0.0
 10
183.8887303979958
 20
369.4458250250236
 30
0.0
 10
183.7559847750411
 20
369.3771297773263
 30
0.0
 10
183.6502971425474
 20
369.3390824255605
 30
0.0
 10
183.5403994687182
 20
369.314679678068
 30
0.0
 10
183.4656596221626
 20
369.3115520254382
 30
0.0
 10
183.4283264033
 20
369.3099897351
 30
0.0
 11
184.4283264033
 21
370.5830710958
 31
0.0
 11
184.4129968885686
 21
370.3600370530285
 31
0.0
 11
184.3666192042768
 21
370.1408841919609
 31
0.0
 11
184.2885016670975
 21
369.9312682130407
 31
0.0
 11
184.1769754388692
 21
369.7372297439844
 31
0.0
 11
184.03152311134
 21
369.5667047568054
 31
0.0
 11
183.8545771240536
 21
369.43074436181
 31
0.0
 11
183.7550008305333
 21
369.3793941639832
 31
0.0
 11
183.6496223455253
 21
369.3413650991264
 31
0.0
 11
183.5399578165998
 21
369.3179553041232
 31
0.0
 11
183.4283264033
 21
369.3099897351
 31
0.0
  0
SPLINE
  5
10D
330
1F
100
AcDbEntity
  8
0
  6
Continuous
 62
     7
100
AcDbSpline
210
0.0
220
0.0
230
1.0
 70
     8
 71
     3
 72
    17
 73
    13
 74
    11
 42
0.0000000001
 43
0.0000000001
 44
0.00000001
 40
0.0
 40
0.0
 40
0.0
 40
0.0
 40
0.0856061207761219
 40
0.1714040658060091
 40
0.2570770785094167
 40
0.3427486324102373
 40
0.5133560119400354
 40
0.6847864607893762
 40
0.8559332498914505
 40
1.026944760415443
 40
1.198166489471747
 40
1.369069305218808
 40
1.369069305218808
 40
1.369069305218808
 40
1.369069305218808
 10
175.3408264033
 20
373.4969996615
 30
0.0
 10
175.3122670759242
 20
373.4957185255984
 30
0.0
 10
175.2550844260797
 20
373.493153383055
 30
0.0
 10
175.1712420804594
 20
373.4732808268207
 30
0.0
 10
175.09103035461
 20
373.4424591158594
 30
0.0
 10
174.9909147656422
 20
373.3873019286333
 30
0.0
 10
174.8799051933438
 20
373.2957023432553
 30
0.0
 10
174.7723918454651
 20
373.1614279934008
 30
0.0
 10
174.6899707677301
 20
373.0104093868484
 30
0.0
 10
174.6329439923516
 20
372.8485258448655
 30
0.0
 10
174.5974084174286
 20
372.6804097737505
 30
0.0
 10
174.5930190441499
 20
372.5662825456053
 30
0.0
 10
174.5908264033
 20
372.5092721237
 30
0.0
 11
175.3408264033
 21
373.4969996615
 31
0.0
 11
175.2554680652845
 21
373.4904910483166
 31
0.0
 11
175.1718110341792
 21
373.4714440402053
 31
0.0
 11
175.0918505739329
 21
373.4406838402243
 31
0.0
 11
175.0167337507902
 21
373.3994882333137
 31
0.0
 11
174.8843773209833
 21
373.2918376251463
 31
0.0
 11
174.7765377938395
 21
373.1585745950964
 31
0.0
 11
174.6941780273983
 21
373.0085476232157
 31
0.0
 11
174.6365417888329
 21
372.8475414098706
 31
0.0
 11
174.6022211715708
 21
372.6797946491514
 31
0.0
 11
174.5908264033
 21
372.5092721237
 31
0.0
  0
SPLINE
  5
10E
330
1F
100
AcDbEntity
  8
0
  6
Continuous
 62
     7
100
AcDbSpline
210
0.0
220
0.0
230
1.0
 70
     8
 71
     3
 72
    17
 73
    13
 74
    11
 42
0.0000000001
 43
0.0000000001
 44
0.00000001
 40
0.0
 40
0.0
 40
0.0
 40
0.0
 40
0.1119154476661611
 40
0.2240509586530764
 40
0.3360819825981084
 40
0.448119461702621
 40
0.671267349810793
 40
0.895399033339106
 40
1.119204507531819
 40
1.342903129616136
 40
1.566909390358235
 40
1.790469488967076
 40
1.790469488967076
 40
1.790469488967076
 40
1.790469488967076
 10
169.5283264033
 20
369.3099897351
 30
0.0
 10
169.4909931176769
 20
369.3115520346016
 30
0.0
 10
169.4162531366648
 20
369.3146797056095
 30
0.0
 10
169.3063551772758
 20
369.3390825967399
 30
0.0
 10
169.2006671952033
 20
369.3771302007581
 30
0.0
 10
169.0679214549586
 20
369.4458257632155
 30
0.0
 10
168.9194128403288
 20
369.5614137680002
 30
0.0
 10
168.7741094345207
 20
369.7332243645135
 30
0.0
 10
168.6624525385234
 20
369.9286679036395
 30
0.0
 10
168.5851098805084
 20
370.1394918696575
 30
0.0
 10
168.5371522923888
 20
370.3591822072057
 30
0.0
 10
168.5312664105246
 20
370.508491079742
 30
0.0
 10
168.5283264033
 20
370.5830710958
 30
0.0
 11
169.5283264033
 21
369.3099897351
 31
0.0
 11
169.4166947928463
 21
369.3179553470552
 31
0.0
 11
169.3070300808448
 21
369.341365254486
 31
0.0
 11
169.2016511508499
 21
369.3793946041953
 31
0.0
 11
169.1020744745263
 21
369.4307451860464
 31
0.0
 11
168.92512889333
 21
369.5667056261098
 31
0.0
 11
168.7796768942972
 21
369.7372304851146
 31
0.0
 11
168.668150904264
 21
369.9312687386259
 31
0.0
 11
168.5900335209378
 21
370.1408844535537
 31
0.0
 11
168.5436558951849
 21
370.3600371872378
 31
0.0
 11
168.5283264033
 21
370.5830710958
 31
0.0
  0
SPLINE
  5
10F
330
1F
100
AcDbEntity
  8
0
  6
Continuous
 62
     7
100
AcDbSpline
210
0.0
220
0.0
230
1.0
 70
     8
 71
     3
 72
    17
 73
    13
 74
    11
 42
0.0000000001
 43
0.0000000001
 44
0.00000001
 40
0.0
 40
0.0
 40
0.0
 40
0.0
 40
0.1709021129122407
 40
0.3421231434977795
 40
0.513135376384024
 40
0.6842828841296906
 40
0.8557140430198499
 40
1.026322127420437
 40
1.111993247418347
 40
1.197665821324523
 40
1.283463468662914
 40
1.369069297547904
 40
1.369069297547904
 40
1.369069297547904
 40
1.369069297547904
 10
178.4158264033
 20
372.5092721237
 30
0.0
 10
178.4136337751937
 20
372.5662823108821
 30
0.0
 10
178.4092444273534
 20
372.6804090710361
 30
0.0
 10
178.373709018414
 20
372.8485249354268
 30
0.0
 10
178.3166823385874
 20
373.0104087776475
 30
0.0
 10
178.2342609849132
 20
373.161428064662
 30
0.0
 10
178.1267471057404
 20
373.2957029184462
 30
0.0
 10
178.0157371355335
 20
373.3873025583893
 30
0.0
 10
177.9156215105309
 20
373.4424595562728
 30
0.0
 10
177.8354101152391
 20
373.4732810360841
 30
0.0
 10
177.7515680860143
 20
373.4931534221291
 30
0.0
 10
177.6943856331523
 20
373.4957185385878
 30
0.0
 10
177.6658264033
 20
373.4969996615
 30
0.0
 11
178.4158264033
 21
372.5092721237
 31
0.0
 11
178.4044317110803
 21
372.6797939498311
 31
0.0
 11
178.3701113597074
 21
372.8475400520106
 31
0.0
 11
178.3124750424572
 21
373.0085470044399
 31
0.0
 11
178.2301149918224
 21
373.1585746401174
 31
0.0
 11
178.1222749443816
 21
373.2918381625321
 31
0.0
 11
177.9899178089319
 21
373.3994890202082
 31
0.0
 11
177.9148012988257
 21
373.4406842955582
 31
0.0
 11
177.8348412117527
 21
373.4714442434611
 31
0.0
 11
177.751184453057
 21
373.4904911070699
 31
0.0
 11
177.6658264033
 21
373.4969996615
 31
0.0
  0
SPLINE
  5
110
330
1F
100
AcDbEntity
  8
RUNDUNGEN
  6
Continuous
 62
     7
100
AcDbSpline
210
0.0
220
0.0
230
1.0
 70
     8
 71
     3
 72
    13
 73
     9
 74
     7
 42
0.0000000001
 43
0.0000000001
 44
0.00000001
 40
0.0
 40
0.0
 40
0.0
 40
0.0
 40
1.394337899189229
 40
2.788677108728065
 40
4.18300636849371
 40
5.577348728442948
 40
8.366062821915179
 40
11.1546876552074
 40
11.1546876552074
 40
11.1546876552074
 40
11.1546876552074
 10
184.5534176244
 20
407.8407612019
 30
0.0
 10
184.55267007732
 20
407.3759814394697
 30
0.0
 10
184.5511749824576
 20
406.4464214778255
 30
0.0
 10
184.5398119157192
 20
405.0521234239949
 30
0.0
 10
184.5226694782645
 20
403.6578895109036
 30
0.0
 10
184.4942222427182
 20
401.7989788210257
 30
0.0
 10
184.449708639158
 20
399.4754824822998
 30
0.0
 10
184.4357636807273
 20
397.616405391827
 30
0.0
 10
184.4287913131
 20
396.686881723
 30
0.0
 11
184.5534176244
 21
407.8407612019
 31
0.0
 11
184.5496549096397
 21
406.4464283796897
 31
0.0
 11
184.5388486572553
 21
405.0521310454862
 31
0.0
 11
184.5219707317393
 21
403.6579039405034
 31
0.0
 11
184.5007371943516
 21
402.2637232658278
 31
0.0
 11
184.455124713975
 21
399.4753822184011
 31
0.0
 11
184.4287913131
 21
396.686881723
 31
0.0
  0
SPLINE
  5
111
330
1F
100
AcDbEntity
  8
RUNDUNGEN
  6
Continuous
 62
     7
100
AcDbSpline
210
0.0
220
0.0
230
1.0
 70
     8
 71
     3
 72
    13
 73
     9
 74
     7
 42
0.0000000001
 43
0.0000000001
 44
0.00000001
 40
0.0
 40
0.0
 40
0.0
 40
0.0
 40
2.78668519255593
 40
5.573459506192074
 40
6.966831984676727
 40
8.360191380012214
 40
9.753560708023278
 40
11.14692872879552
 40
11.14692872879552
 40
11.14692872879552
 40
11.14692872879552
 10
184.4287913131
 20
418.986881723
 30
0.0
 10
184.4357559965608
 20
418.058004568718
 30
0.0
 10
184.4496855862203
 20
416.2002205537004
 30
0.0
 10
184.4941586759577
 20
413.8783401964113
 30
0.0
 10
184.5225997376934
 20
412.0207227569711
 30
0.0
 10
184.5397506120971
 20
410.6274589075206
 30
0.0
 10
184.5511362826596
 20
409.2341309741372
 30
0.0
 10
184.552657177391
 20
408.3052176473968
 30
0.0
 10
184.5534176244
 20
407.8407612019
 30
0.0
 11
184.4287913131
 21
418.986881723
 31
0.0
 11
184.4550974012257
 21
416.2003206969075
 31
0.0
 11
184.5006742705806
 21
413.4139191063032
 31
0.0
 11
184.5219031690165
 21
412.0207083549559
 31
0.0
 11
184.5387897147756
 21
410.6274512899668
 31
0.0
 11
184.5496188925067
 21
409.2341240444313
 31
0.0
 11
184.5534176244
 21
407.8407612019
 31
0.0
  0
DIMENSION
  5
11C
330
1F
100
AcDbEntity
  8
1
100
AcDbDimension
  2
*D2
 10
312.3283264033
 20
462.597131031849
 30
0.0
 11
247.0772860924479
 21
466.347131031849
 31
0.0
 70
    32
  1
<>
 71
     5
 42
-1.0
 53
0.00013888888889
  3
ME10_DIM_10
100
AcDbAlignedDimension
 13
184.4283264033
 23
455.574381723
 33
0.0
 14
312.3283264033
 24
427.836881723
 34
0.0
100
AcDbRotatedDimension
  0
DIMENSION
  5
127
330
1F
100
AcDbEntity
  8
1
100
AcDbDimension
  2
*D3
 10
312.3283264033
 20
469.574891331592
 30
0.0
 11
237.646970115698
 21
473.324891331592
 31
0.0
 70
    32
  1
<>
 71
     5
 42
-1.0
 53
0.00013888888889
  3
ME10_DIM_11
100
AcDbAlignedDimension
 13
165.3283264033
 23
459.574381723
 33
0.0
 14
312.3283264033
 24
427.836881723
 34
0.0
100
AcDbRotatedDimension
  0
DIMENSION
  5
132
330
1F
100
AcDbEntity
  8
1
100
AcDbDimension
  2
*D4
 10
165.3283264033
 20
477.453878486175
 30
0.0
 11
245.06953888294
 21
481.203878486175
 31
0.0
 70
    32
  1
<>
 71
     5
 42
-1.0
 53
0.00013888888889
  3
ME10_DIM_12
100
AcDbAlignedDimension
 13
325.3283264033
 23
426.086881723
 33
0.0
 14
165.3283264033
 24
459.574381723
 34
0.0
100
AcDbRotatedDimension
  0
DIMENSION
  5
13D
330
1F
100
AcDbEntity
  8
1
100
AcDbDimension
  2
*D5
 10
312.3283264033
 20
484.902899901854
 30
0.0
 11
205.398066406638
 21
488.652899901854
 31
0.0
 70
    32
  1
<>
 71
     5
 42
-1.0
 53
0.00013888888889
  3
ME10_DIM_13
100
AcDbAlignedDimension
 13
63.5783264033
 23
425.998115923
 33
0.0
 14
312.3283264033
 24
427.836881723
 34
0.0
100
AcDbRotatedDimension
  0
DIMENSION
  5
148
330
1F
100
AcDbEntity
  8
1
100
AcDbDimension
  2
*D6
 10
338.091464854339
 20
423.836881723
 30
0.0
 11
334.341464854339
 21
407.505750558463
 31
0.0
 70
    32
  1
<>
 71
     5
 42
-1.0
 53
90.0
  3
ME10_DIM_14
100
AcDbAlignedDimension
 13
312.3283264033
 23
391.836881723
 33
0.0
 14
312.3283264033
 24
423.836881723
 34
0.0
 50
90.0
100
AcDbRotatedDimension
  0
DIMENSION
  5
153
330
1F
100
AcDbEntity
  8
1
100
AcDbDimension
  2
*D7
 10
346.882980555394
 20
432.836881723
 30
0.0
 11
343.132980555394
 21
408.129605993714
 31
0.0
 70
    32
  1
<>
 71
     5
 42
-1.0
 53
90.0
  3
ME10_DIM_15
100
AcDbAlignedDimension
 13
320.7095242498
 23
382.836881723
 33
0.0
 14
320.7095242498
 24
432.836881723
 34
0.0
 50
90.0
100
AcDbRotatedDimension
  0
INSERT
  5
15A
330
1F
100
AcDbEntity
  8
1
100
AcDbBlockReference
  2
*D8
 10
0.0
 20
0.0
 30
0.0
  0
ENDSEC
  0
SECTION
  2
OBJECTS
  0
DICTIONARY
  5
C
330
0
100
AcDbDictionary
281
     1
  3
ACAD_GROUP
350
D
  3
ACAD_LAYOUT
350
1A
  3
ACAD_MLEADERSTYLE
350
15D
  3
ACAD_MLINESTYLE
350
17
  3
ACAD_PLOTSETTINGS
350
19
  3
ACAD_PLOTSTYLENAME
350
E
  3
ACAD_SCALELIST
350
4A
  3
ACAD_VISUALSTYLE
350
2A
  3
AcDbVariableDictionary
350
15B
  0
DICTIONARY
  5
D
102
{ACAD_REACTORS
330
C
102
}
330
C
100
AcDbDictionary
281
     1
  0
DICTIONARY
  5
1A
102
{ACAD_REACTORS
330
C
102
}
330
C
100
AcDbDictionary
281
     1
  3
Layout1
350
1E
  3
Layout2
350
26
  3
Model
350
22
  0
DICTIONARY
  5
15D
102
{ACAD_REACTORS
330
C
102
}
330
C
100
AcDbDictionary
281
     1
  0
DICTIONARY
  5
17
102
{ACAD_REACTORS
330
C
102
}
330
C
100
AcDbDictionary
281
     1
  3
Standard
350
18
  0
DICTIONARY
  5
19
102
{ACAD_REACTORS
330
C
102
}
330
C
100
AcDbDictionary
281
     1
  0
ACDBDICTIONARYWDFLT
  5
E
102
{ACAD_REACTORS
330
C
102
}
330
C
100
AcDbDictionary
281
     1
  3
Normal
350
F
100
AcDbDictionaryWithDefault
340
F
  0
DICTIONARY
  5
4A
102
{ACAD_REACTORS
330
C
102
}
330
C
100
AcDbDictionary
281
     1
  3
A0
350
4B
  3
A1
350
4C
  3
A2
350
4D
  3
A3
350
4E
  3
A4
350
4F
  3
A5
350
50
  3
A6
350
51
  3
A7
350
52
  3
A8
350
53
  3
A9
350
54
  3
B0
350
55
  3
B1
350
56
  3
B2
350
57
  3
B3
350
58
  3
B4
350
59
  3
B5
350
5A
  3
B6
350
5B
  3
B7
350
5C
  3
B8
350
5D
  3
B9
350
5E
  3
C0
350
5F
  3
C1
350
60
  3
C2
350
61
  3
C3
350
62
  3
C4
350
63
  3
C5
350
64
  3
C6
350
65
  3
C7
350
66
  3
C8
350
67
  3
C9
350
68
  3
D0
350
69
  3
D1
350
6A
  3
D2
350
6B
  0
DICTIONARY
  5
2A
102
{ACAD_REACTORS
330
C
102
}
330
C
100
AcDbDictionary
281
     1
  3
2dWireframe
350
2F
  3
3D Hidden
350
31
  3
3dWireframe
350
30
  3
Basic
350
32
  3
Brighten
350
36
  3
ColorChange
350
3A
  3
Conceptual
350
34
  3
Dim
350
35
  3
Facepattern
350
39
  3
Flat
350
2B
  3
FlatWithEdges
350
2C
  3
Gouraud
350
2D
  3
GouraudWithEdges
350
2E
  3
Linepattern
350
38
  3
Realistic
350
33
  3
Thicken
350
37
  0
DICTIONARY
  5
15B
102
{ACAD_REACTORS
330
C
102
}
330
C
100
AcDbDictionary
281
     1
  3
CANNOSCALE
350
15E
  0
LAYOUT
  5
1E
102
{ACAD_REACTORS
330
1A
102
}
330
1A
100
AcDbPlotSettings
  1

  2
none_device
  4

  6

 40
0.0
 41
0.0
 42
0.0
 43
0.0
 44
0.0
 45
0.0
 46
0.0
 47
0.0
 48
0.0
 49
0.0
140
0.0
141
0.0
142
1.0
143
1.0
 70
   688
 72
     0
 73
     0
 74
     5
  7

 75
    16
147
1.0
148
0.0
149
0.0
100
AcDbLayout
  1
Layout1
 70
     1
 71
     1
 10
0.0
 20
0.0
 11
12.0
 21
9.0
 12
0.0
 22
0.0
 32
0.0
 14
1.00000000000000E+20
 24
1.00000000000000E+20
 34
1.00000000000000E+20
 15
-1.00000000000000E+20
 25
-1.00000000000000E+20
 35
-1.00000000000000E+20
146
0.0
 13
0.0
 23
0.0
 33
0.0
 16
1.0
 26
0.0
 36
0.0
 17
0.0
 27
1.0
 37
0.0
 76
     0
330
1B
  0
LAYOUT
  5
26
102
{ACAD_REACTORS
330
1A
102
}
330
1A
100
AcDbPlotSettings
  1

  2
none_device
  4

  6

 40
0.0
 41
0.0
 42
0.0
 43
0.0
 44
0.0
 45
0.0
 46
0.0
 47
0.0
 48
0.0
 49
0.0
140
0.0
141
0.0
142
1.0
143
1.0
 70
   688
 72
     0
 73
     0
 74
     5
  7

 75
    16
147
1.0
148
0.0
149
0.0
100
AcDbLayout
  1
Layout2
 70
     1
 71
     2
 10
0.0
 20
0.0
 11
0.0
 21
0.0
 12
0.0
 22
0.0
 32
0.0
 14
0.0
 24
0.0
 34
0.0
 15
0.0
 25
0.0
 35
0.0
146
0.0
 13
0.0
 23
0.0
 33
0.0
 16
1.0
 26
0.0
 36
0.0
 17
0.0
 27
1.0
 37
0.0
 76
     0
330
23
  0
LAYOUT
  5
22
102
{ACAD_REACTORS
330
1A
102
}
330
1A
100
AcDbPlotSettings
  1

  2
none_device
  4

  6

 40
0.0
 41
0.0
 42
0.0
 43
0.0
 44
0.0
 45
0.0
 46
0.0
 47
0.0
 48
0.0
 49
0.0
140
0.0
141
0.0
142
1.0
143
1.0
 70
  1712
 72
     0
 73
     0
 74
     0
  7

 75
     0
147
1.0
148
0.0
149
0.0
100
AcDbLayout
  1
Model
 70
     1
 71
     0
 10
0.0
 20
0.0
 11
12.0
 21
9.0
 12
0.0
 22
0.0
 32
0.0
 14
40.7936202345995
 24
355.974381723
 34
0.0
 15
348.882980555394
 25
490.402899901854
 35
0.0
146
0.0
 13
0.0
 23
0.0
 33
0.0
 16
1.0
 26
0.0
 36
0.0
 17
0.0
 27
1.0
 37
0.0
 76
     0
330
1F
331
29
  0
MLINESTYLE
  5
18
102
{ACAD_REACTORS
330
17
102
}
330
17
100
AcDbMlineStyle
  2
Standard
 70
     0
  3

 62
   256
 51
90.0
 52
90.0
 71
     2
 49
0.5
 62
   256
  6
BYLAYER
 49
-0.5
 62
   256
  6
BYLAYER
  0
ACDBPLACEHOLDER
  5
F
102
{ACAD_REACTORS
330
E
102
}
330
E
  0
SCALE
  5
4B
102
{ACAD_REACTORS
330
4A
102
}
330
4A
100
AcDbScale
 70
     0
300
1:1
140
1.0
141
1.0
290
     1
  0
SCALE
  5
4C
102
{ACAD_REACTORS
330
4A
102
}
330
4A
100
AcDbScale
 70
     0
300
1:2
140
1.0
141
2.0
290
     0
  0
SCALE
  5
4D
102
{ACAD_REACTORS
330
4A
102
}
330
4A
100
AcDbScale
 70
     0
300
1:4
140
1.0
141
4.0
290
     0
  0
SCALE
  5
4E
102
{ACAD_REACTORS
330
4A
102
}
330
4A
100
AcDbScale
 70
     0
300
1:5
140
1.0
141
5.0
290
     0
  0
SCALE
  5
4F
102
{ACAD_REACTORS
330
4A
102
}
330
4A
100
AcDbScale
 70
     0
300
1:8
140
1.0
141
8.0
290
     0
  0
SCALE
  5
50
102
{ACAD_REACTORS
330
4A
102
}
330
4A
100
AcDbScale
 70
     0
300
1:10
140
1.0
141
10.0
290
     0
  0
SCALE
  5
51
102
{ACAD_REACTORS
330
4A
102
}
330
4A
100
AcDbScale
 70
     0
300
1:16
140
1.0
141
16.0
290
     0
  0
SCALE
  5
52
102
{ACAD_REACTORS
330
4A
102
}
330
4A
100
AcDbScale
 70
     0
300
1:20
140
1.0
141
20.0
290
     0
  0
SCALE
  5
53
102
{ACAD_REACTORS
330
4A
102
}
330
4A
100
AcDbScale
 70
     0
300
1:30
140
1.0
141
30.0
290
     0
  0
SCALE
  5
54
102
{ACAD_REACTORS
330
4A
102
}
330
4A
100
AcDbScale
 70
     0
300
1:40
140
1.0
141
40.0
290
     0
  0
SCALE
  5
55
102
{ACAD_REACTORS
330
4A
102
}
330
4A
100
AcDbScale
 70
     0
300
1:50
140
1.0
141
50.0
290
     0
  0
SCALE
  5
56
102
{ACAD_REACTORS
330
4A
102
}
330
4A
100
AcDbScale
 70
     0
300
1:100
140
1.0
141
100.0
290
     0
  0
SCALE
  5
57
102
{ACAD_REACTORS
330
4A
102
}
330
4A
100
AcDbScale
 70
     0
300
2:1
140
2.0
141
1.0
290
     0
  0
SCALE
  5
58
102
{ACAD_REACTORS
330
4A
102
}
330
4A
100
AcDbScale
 70
     0
300
4:1
140
4.0
141
1.0
290
     0
  0
SCALE
  5
59
102
{ACAD_REACTORS
330
4A
102
}
330
4A
100
AcDbScale
 70
     0
300
8:1
140
8.0
141
1.0
290
     0
  0
SCALE
  5
5A
102
{ACAD_REACTORS
330
4A
102
}
330
4A
100
AcDbScale
 70
     0
300
10:1
140
10.0
141
1.0
290
     0
  0
SCALE
  5
5B
102
{ACAD_REACTORS
330
4A
102
}
330
4A
100
AcDbScale
 70
     0
300
100:1
140
100.0
141
1.0
290
     0
  0
SCALE
  5
5C
102
{ACAD_REACTORS
330
4A
102
}
330
4A
100
AcDbScale
 70
     0
300
1/128" = 1'-0"
140
0.0078125
141
12.0
290
     0
  0
SCALE
  5
5D
102
{ACAD_REACTORS
330
4A
102
}
330
4A
100
AcDbScale
 70
     0
300
1/64" = 1'-0"
140
0.015625
141
12.0
290
     0
  0
SCALE
  5
5E
102
{ACAD_REACTORS
330
4A
102
}
330
4A
100
AcDbScale
 70
     0
300
1/32" = 1'-0"
140
0.03125
141
12.0
290
     0
  0
SCALE
  5
5F
102
{ACAD_REACTORS
330
4A
102
}
330
4A
100
AcDbScale
 70
     0
300
1/16" = 1'-0"
140
0.0625
141
12.0
290
     0
  0
SCALE
  5
60
102
{ACAD_REACTORS
330
4A
102
}
330
4A
100
AcDbScale
 70
     0
300
3/32" = 1'-0"
140
0.09375
141
12.0
290
     0
  0
SCALE
  5
61
102
{ACAD_REACTORS
330
4A
102
}
330
4A
100
AcDbScale
 70
     0
300
1/8" = 1'-0"
140
0.125
141
12.0
290
     0
  0
SCALE
  5
62
102
{ACAD_REACTORS
330
4A
102
}
330
4A
100
AcDbScale
 70
     0
300
3/16" = 1'-0"
140
0.1875
141
12.0
290
     0
  0
SCALE
  5
63
102
{ACAD_REACTORS
330
4A
102
}
330
4A
100
AcDbScale
 70
     0
300
1/4" = 1'-0"
140
0.25
141
12.0
290
     0
  0
SCALE
  5
64
102
{ACAD_REACTORS
330
4A
102
}
330
4A
100
AcDbScale
 70
     0
300
3/8" = 1'-0"
140
0.375
141
12.0
290
     0
  0
SCALE
  5
65
102
{ACAD_REACTORS
330
4A
102
}
330
4A
100
AcDbScale
 70
     0
300
1/2" = 1'-0"
140
0.5
141
12.0
290
     0
  0
SCALE
  5
66
102
{ACAD_REACTORS
330
4A
102
}
330
4A
100
AcDbScale
 70
     0
300
3/4" = 1'-0"
140
0.75
141
12.0
290
     0
  0
SCALE
  5
67
102
{ACAD_REACTORS
330
4A
102
}
330
4A
100
AcDbScale
 70
     0
300
1" = 1'-0"
140
1.0
141
12.0
290
     0
  0
SCALE
  5
68
102
{ACAD_REACTORS
330
4A
102
}
330
4A
100
AcDbScale
 70
     0
300
1-1/2" = 1'-0"
140
1.5
141
12.0
290
     0
  0
SCALE
  5
69
102
{ACAD_REACTORS
330
4A
102
}
330
4A
100
AcDbScale
 70
     0
300
3" = 1'-0"
140
3.0
141
12.0
290
     0
  0
SCALE
  5
6A
102
{ACAD_REACTORS
330
4A
102
}
330
4A
100
AcDbScale
 70
     0
300
6" = 1'-0"
140
6.0
141
12.0
290
     0
  0
SCALE
  5
6B
102
{ACAD_REACTORS
330
4A
102
}
330
4A
100
AcDbScale
 70
     0
300
1'-0" = 1'-0"
140
12.0
141
12.0
290
     0
  0
VISUALSTYLE
  5
2F
102
{ACAD_REACTORS
330
2A
102
}
330
2A
100
AcDbVisualStyle
  2
2dWireframe
 70
     4
 71
     0
 72
     2
 73
     0
 90
        0
 40
-0.6
 41
-30.0
 62
     5
 63
     7
 74
     1
 91
        4
 64
     7
 65
   257
 75
     1
175
     1
 42
1.0
 92
        0
 66
   257
 43
1.0
 76
     1
 77
     6
 78
     2
 67
     7
 79
     5
170
     0
171
     0
290
     0
174
     0
 93
        1
 44
0.0
173
     0
291
     0
 45
0.0
1001
ACAD
1000
AcDbSavedByObjectVersion
1070
     0
  0
VISUALSTYLE
  5
31
102
{ACAD_REACTORS
330
2A
102
}
330
2A
100
AcDbVisualStyle
  2
3D Hidden
 70
     6
 71
     1
 72
     2
 73
     2
 90
        0
 40
-0.6
 41
-30.0
 62
     5
 63
     7
 74
     2
 91
        2
 64
     7
 65
   257
 75
     2
175
     1
 42
40.0
 92
        0
 66
   257
 43
1.0
 76
     1
 77
     6
 78
     2
 67
     7
 79
     3
170
     0
171
     0
290
     0
174
     0
 93
        1
 44
0.0
173
     0
291
     0
 45
0.0
1001
ACAD
1000
AcDbSavedByObjectVersion
1070
     0
  0
VISUALSTYLE
  5
30
102
{ACAD_REACTORS
330
2A
102
}
330
2A
100
AcDbVisualStyle
  2
3dWireframe
 70
     5
 71
     0
 72
     2
 73
     0
 90
        0
 40
-0.6
 41
-30.0
 62
     5
 63
     7
 74
     1
 91
        4
 64
     7
 65
   257
 75
     1
175
     1
 42
1.0
 92
        0
 66
   257
 43
1.0
 76
     1
 77
     6
 78
     2
 67
     7
 79
     5
170
     0
171
     0
290
     0
174
     0
 93
        1
 44
0.0
173
     0
291
     0
 45
0.0
1001
ACAD
1000
AcDbSavedByObjectVersion
1070
     0
  0
VISUALSTYLE
  5
32
102
{ACAD_REACTORS
330
2A
102
}
330
2A
100
AcDbVisualStyle
  2
Basic
 70
     7
 71
     1
 72
     0
 73
     1
 90
        0
 40
-0.6
 41
-30.0
 62
     5
 63
     7
 74
     0
 91
        4
 64
     7
 65
   257
 75
     1
175
     1
 42
1.0
 92
        8
 66
     7
 43
1.0
 76
     1
 77
     6
 78
     2
 67
     7
 79
     5
170
     0
171
     0
290
     0
174
     0
 93
        1
 44
0.0
173
     0
291
     1
 45
0.0
1001
ACAD
1000
AcDbSavedByObjectVersion
1070
     0
  0
VISUALSTYLE
  5
36
102
{ACAD_REACTORS
330
2A
102
}
330
2A
100
AcDbVisualStyle
  2
Brighten
 70
    12
 71
     2
 72
     2
 73
     0
 90
        0
 40
-0.6
 41
-30.0
 62
     5
 63
     7
 74
     1
 91
        4
 64
     7
 65
   257
 75
     1
175
     1
 42
1.0
 92
        8
 66
     7
 43
1.0
 76
     1
 77
     6
 78
     2
 67
     7
 79
     5
170
     0
171
     0
290
     0
174
     0
 93
        1
 44
50.0
173
     0
291
     1
 45
0.0
1001
ACAD
1000
AcDbSavedByObjectVersion
1070
     0
  0
VISUALSTYLE
  5
3A
102
{ACAD_REACTORS
330
2A
102
}
330
2A
100
AcDbVisualStyle
  2
ColorChange
 70
    16
 71
     2
 72
     2
 73
     3
 90
        0
 40
-0.6
 41
-30.0
 62
     5
 63
     8
 74
     1
 91
        4
 64
     7
 65
   257
 75
     1
175
     1
 42
1.0
 92
        8
 66
     8
 43
1.0
 76
     1
 77
     6
 78
     2
 67
     7
 79
     5
170
     0
171
     0
290
     0
174
     0
 93
        1
 44
0.0
173
     0
291
     1
 45
0.0
1001
ACAD
1000
AcDbSavedByObjectVersion
1070
     0
  0
VISUALSTYLE
  5
34
102
{ACAD_REACTORS
330
2A
102
}
330
2A
100
AcDbVisualStyle
  2
Conceptual
 70
     9
 71
     3
 72
     2
 73
     0
 90
        0
 40
-0.6
 41
-30.0
 62
     5
 63
     7
 74
     2
 91
        2
 64
     7
 65
   257
 75
     1
175
     1
 42
40.0
 92
        8
 66
     7
 43
1.0
 76
     1
 77
     6
 78
     2
 67
     7
 79
     3
170
     0
171
     0
290
     0
174
     0
 93
        1
 44
0.0
173
     0
291
     0
 45
0.0
1001
ACAD
1000
AcDbSavedByObjectVersion
1070
     0
  0
VISUALSTYLE
  5
35
102
{ACAD_REACTORS
330
2A
102
}
330
2A
100
AcDbVisualStyle
  2
Dim
 70
    11
 71
     2
 72
     2
 73
     0
 90
        0
 40
-0.6
 41
-30.0
 62
     5
 63
     7
 74
     1
 91
        4
 64
     7
 65
   257
 75
     1
175
     1
 42
1.0
 92
        8
 66
     7
 43
1.0
 76
     1
 77
     6
 78
     2
 67
     7
 79
     5
170
     0
171
     0
290
     0
174
     0
 93
        1
 44
-50.0
173
     0
291
     1
 45
0.0
1001
ACAD
1000
AcDbSavedByObjectVersion
1070
     0
  0
VISUALSTYLE
  5
39
102
{ACAD_REACTORS
330
2A
102
}
330
2A
100
AcDbVisualStyle
  2
Facepattern
 70
    15
 71
     2
 72
     2
 73
     0
 90
        0
 40
-0.6
 41
-30.0
 62
     5
 63
     7
 74
     1
 91
        4
 64
     7
 65
   257
 75
     1
175
     1
 42
1.0
 92
        8
 66
     7
 43
1.0
 76
     1
 77
     6
 78
     2
 67
     7
 79
     5
170
     0
171
     0
290
     0
174
     0
 93
        1
 44
0.0
173
     0
291
     1
 45
0.0
1001
ACAD
1000
AcDbSavedByObjectVersion
1070
     0
  0
VISUALSTYLE
  5
2B
102
{ACAD_REACTORS
330
2A
102
}
330
2A
100
AcDbVisualStyle
  2
Flat
 70
     0
 71
     2
 72
     1
 73
     1
 90
        2
 40
-0.6
 41
30.0
 62
     5
 63
     7
 74
     0
 91
        4
 64
     7
 65
   257
 75
     1
175
     1
 42
1.0
 92
        8
 66
     7
 43
1.0
 76
     1
 77
     6
 78
     2
 67
     7
 79
     5
170
     0
171
     0
290
     0
174
     0
 93
       13
 44
0.0
173
     0
291
     1
 45
0.0
1001
ACAD
1000
AcDbSavedByObjectVersion
1070
     0
  0
VISUALSTYLE
  5
2C
102
{ACAD_REACTORS
330
2A
102
}
330
2A
100
AcDbVisualStyle
  2
FlatWithEdges
 70
     1
 71
     2
 72
     1
 73
     1
 90
        2
 40
-0.6
 41
30.0
 62
     5
 63
     7
 74
     1
 91
        4
 64
     7
 65
   257
 75
     1
175
     1
 42
1.0
 92
        0
 66
   257
 43
1.0
 76
     1
 77
     6
 78
     2
 67
     7
 79
     5
170
     0
171
     0
290
     0
174
     0
 93
       13
 44
0.0
173
     0
291
     1
 45
0.0
1001
ACAD
1000
AcDbSavedByObjectVersion
1070
     0
  0
VISUALSTYLE
  5
2D
102
{ACAD_REACTORS
330
2A
102
}
330
2A
100
AcDbVisualStyle
  2
Gouraud
 70
     2
 71
     2
 72
     2
 73
     1
 90
        2
 40
-0.6
 41
30.0
 62
     5
 63
     7
 74
     0
 91
        4
 64
     7
 65
   257
 75
     1
175
     1
 42
1.0
 92
        0
 66
     7
 43
1.0
 76
     1
 77
     6
 78
     2
 67
     7
 79
     5
170
     0
171
     0
290
     0
174
     0
 93
       13
 44
0.0
173
     0
291
     1
 45
0.0
1001
ACAD
1000
AcDbSavedByObjectVersion
1070
     0
  0
VISUALSTYLE
  5
2E
102
{ACAD_REACTORS
330
2A
102
}
330
2A
100
AcDbVisualStyle
  2
GouraudWithEdges
 70
     3
 71
     2
 72
     2
 73
     1
 90
        2
 40
-0.6
 41
30.0
 62
     5
 63
     7
 74
     1
 91
        4
 64
     7
 65
   257
 75
     1
175
     1
 42
1.0
 92
        0
 66
   257
 43
1.0
 76
     1
 77
     6
 78
     2
 67
     7
 79
     5
170
     0
171
     0
290
     0
174
     0
 93
       13
 44
0.0
173
     0
291
     1
 45
0.0
1001
ACAD
1000
AcDbSavedByObjectVersion
1070
     0
  0
VISUALSTYLE
  5
38
102
{ACAD_REACTORS
330
2A
102
}
330
2A
100
AcDbVisualStyle
  2
Linepattern
 70
    14
 71
     2
 72
     2
 73
     0
 90
        0
 40
-0.6
 41
-30.0
 62
     5
 63
     7
 74
     1
 91
        4
 64
     7
 65
   257
 75
     7
175
     7
 42
1.0
 92
        8
 66
     7
 43
1.0
 76
     1
 77
     6
 78
     2
 67
     7
 79
     5
170
     0
171
     0
290
     0
174
     0
 93
        1
 44
0.0
173
     0
291
     1
 45
0.0
1001
ACAD
1000
AcDbSavedByObjectVersion
1070
     0
  0
VISUALSTYLE
  5
33
102
{ACAD_REACTORS
330
2A
102
}
330
2A
100
AcDbVisualStyle
  2
Realistic
 70
     8
 71
     2
 72
     2
 73
     0
 90
        0
 40
-0.6
 41
-30.0
 62
     5
 63
     7
 74
     1
 91
        0
 64
     7
 65
   257
 75
     1
175
     1
 42
1.0
 92
        8
 66
     8
 43
1.0
 76
     1
 77
     6
 78
     2
 67
     7
 79
     5
170
     0
171
     0
290
     0
174
     0
 93
       13
 44
0.0
173
     0
291
     0
 45
0.0
1001
ACAD
1000
AcDbSavedByObjectVersion
1070
     0
  0
VISUALSTYLE
  5
37
102
{ACAD_REACTORS
330
2A
102
}
330
2A
100
AcDbVisualStyle
  2
Thicken
 70
    13
 71
     2
 72
     2
 73
     0
 90
        0
 40
-0.6
 41
-30.0
 62
     5
 63
     7
 74
     1
 91
        4
 64
     7
 65
   257
 75
     1
175
     1
 42
1.0
 92
       12
 66
     7
 43
1.0
 76
     1
 77
     6
 78
     2
 67
     7
 79
     5
170
     0
171
     0
290
     0
174
     0
 93
        1
 44
0.0
173
     0
291
     1
 45
0.0
1001
ACAD
1000
AcDbSavedByObjectVersion
1070
     0
  0
DICTIONARYVAR
  5
15E
102
{ACAD_REACTORS
330
15B
102
}
330
15B
100
DictionaryVariables
280
     0
  1
1:1
  0
ENDSEC
  0
EOF
