  0
SECTION
  2
HEADER
  9
$ACADVER
  1
AC1015
  9
$ACADMAINTVER
 70
     6
  9
$DWGCODEPAGE
  3
ANSI_1252
  9
$INSBASE
 10
0.0
 20
0.0
 30
0.0
  9
$EXTMIN
 10
41.1671980160782
 20
338.5669246415
 30
0.0
  9
$EXTMAX
 10
349.014334922464
 20
471.331479041589
 30
0.0
  9
$LIMMIN
 10
0.0
 20
0.0
  9
$LIMMAX
 10
12.0
 20
9.0
  9
$ORTHOMODE
 70
     0
  9
$REGENMODE
 70
     1
  9
$FILLMODE
 70
     1
  9
$QTEXTMODE
 70
     0
  9
$MIRRTEXT
 70
     1
  9
$LTSCALE
 40
1.0
  9
$ATTMODE
 70
     1
  9
$TEXTSIZE
 40
0.2
  9
$TRACEWID
 40
0.05
  9
$TEXTSTYLE
  7
Standard
  9
$CLAYER
  8
0
  9
$CELTYPE
  6
ByLayer
  9
$CECOLOR
 62
   256
  9
$CELTSCALE
 40
1.0
  9
$DISPSILH
 70
     0
  9
$DIMSCALE
 40
1.0
  9
$DIMASZ
 40
0.18
  9
$DIMEXO
 40
0.0625
  9
$DIMDLI
 40
0.38
  9
$DIMRND
 40
0.0
  9
$DIMDLE
 40
0.0
  9
$DIMEXE
 40
0.18
  9
$DIMTP
 40
0.0
  9
$DIMTM
 40
0.0
  9
$DIMTXT
 40
0.18
  9
$DIMCEN
 40
0.09
  9
$DIMTSZ
 40
0.0
  9
$DIMTOL
 70
     0
  9
$DIMLIM
 70
     0
  9
$DIMTIH
 70
     1
  9
$DIMTOH
 70
     1
  9
$DIMSE1
 70
     0
  9
$DIMSE2
 70
     0
  9
$DIMTAD
 70
     0
  9
$DIMZIN
 70
     0
  9
$DIMBLK
  1

  9
$DIMASO
 70
     1
  9
$DIMSHO
 70
     1
  9
$DIMPOST
  1

  9
$DIMAPOST
  1

  9
$DIMALT
 70
     0
  9
$DIMALTD
 70
     2
  9
$DIMALTF
 40
25.4
  9
$DIMLFAC
 40
1.0
  9
$DIMTOFL
 70
     0
  9
$DIMTVP
 40
0.0
  9
$DIMTIX
 70
     0
  9
$DIMSOXD
 70
     0
  9
$DIMSAH
 70
     0
  9
$DIMBLK1
  1

  9
$DIMBLK2
  1

  9
$DIMSTYLE
  2
Standard
  9
$DIMCLRD
 70
     0
  9
$DIMCLRE
 70
     0
  9
$DIMCLRT
 70
     0
  9
$DIMTFAC
 40
1.0
  9
$DIMGAP
 40
0.09
  9
$DIMJUST
 70
     0
  9
$DIMSD1
 70
     0
  9
$DIMSD2
 70
     0
  9
$DIMTOLJ
 70
     1
  9
$DIMTZIN
 70
     0
  9
$DIMALTZ
 70
     0
  9
$DIMALTTZ
 70
     0
  9
$DIMUPT
 70
     0
  9
$DIMDEC
 70
     4
  9
$DIMTDEC
 70
     4
  9
$DIMALTU
 70
     2
  9
$DIMALTTD
 70
     2
  9
$DIMTXSTY
  7
Standard
  9
$DIMAUNIT
 70
     0
  9
$DIMADEC
 70
     0
  9
$DIMALTRND
 40
0.0
  9
$DIMAZIN
 70
     0
  9
$DIMDSEP
 70
    46
  9
$DIMATFIT
 70
     3
  9
$DIMFRAC
 70
     0
  9
$DIMLDRBLK
  1

  9
$DIMLUNIT
 70
     2
  9
$DIMLWD
 70
    -2
  9
$DIMLWE
 70
    -2
  9
$DIMTMOVE
 70
     0
  9
$LUNITS
 70
     2
  9
$LUPREC
 70
     4
  9
$SKETCHINC
 40
0.1
  9
$FILLETRAD
 40
0.5
  9
$AUNITS
 70
     0
  9
$AUPREC
 70
     0
  9
$MENU
  1
.
  9
$ELEVATION
 40
0.0
  9
$PELEVATION
 40
0.0
  9
$THICKNESS
 40
0.0
  9
$LIMCHECK
 70
     0
  9
$CHAMFERA
 40
0.5
  9
$CHAMFERB
 40
0.5
  9
$CHAMFERC
 40
1.0
  9
$CHAMFERD
 40
0.0
  9
$SKPOLY
 70
     0
  9
$TDCREATE
 40
2456821.364415521
  9
$TDUCREATE
 40
2456821.281082187
  9
$TDUPDATE
 40
2456821.364415532
  9
$TDUUPDATE
 40
2456821.281082199
  9
$TDINDWG
 40
0.0000000116
  9
$TDUSRTIMER
 40
0.0000000116
  9
$USRTIMER
 70
     1
  9
$ANGBASE
 50
0.0
  9
$ANGDIR
 70
     0
  9
$PDMODE
 70
     0
  9
$PDSIZE
 40
0.0
  9
$PLINEWID
 40
0.0
  9
$SPLFRAME
 70
     0
  9
$SPLINETYPE
 70
     6
  9
$SPLINESEGS
 70
     8
  9
$HANDSEED
  5
158
  9
$SURFTAB1
 70
     6
  9
$SURFTAB2
 70
     6
  9
$SURFTYPE
 70
     6
  9
$SURFU
 70
     6
  9
$SURFV
 70
     6
  9
$UCSBASE
  2

  9
$UCSNAME
  2

  9
$UCSORG
 10
0.0
 20
0.0
 30
0.0
  9
$UCSXDIR
 10
1.0
 20
0.0
 30
0.0
  9
$UCSYDIR
 10
0.0
 20
1.0
 30
0.0
  9
$UCSORTHOREF
  2

  9
$UCSORTHOVIEW
 70
     0
  9
$UCSORGTOP
 10
0.0
 20
0.0
 30
0.0
  9
$UCSORGBOTTOM
 10
0.0
 20
0.0
 30
0.0
  9
$UCSORGLEFT
 10
0.0
 20
0.0
 30
0.0
  9
$UCSORGRIGHT
 10
0.0
 20
0.0
 30
0.0
  9
$UCSORGFRONT
 10
0.0
 20
0.0
 30
0.0
  9
$UCSORGBACK
 10
0.0
 20
0.0
 30
0.0
  9
$PUCSBASE
  2

  9
$PUCSNAME
  2

  9
$PUCSORG
 10
0.0
 20
0.0
 30
0.0
  9
$PUCSXDIR
 10
1.0
 20
0.0
 30
0.0
  9
$PUCSYDIR
 10
0.0
 20
1.0
 30
0.0
  9
$PUCSORTHOREF
  2

  9
$PUCSORTHOVIEW
 70
     0
  9
$PUCSORGTOP
 10
0.0
 20
0.0
 30
0.0
  9
$PUCSORGBOTTOM
 10
0.0
 20
0.0
 30
0.0
  9
$PUCSORGLEFT
 10
0.0
 20
0.0
 30
0.0
  9
$PUCSORGRIGHT
 10
0.0
 20
0.0
 30
0.0
  9
$PUCSORGFRONT
 10
0.0
 20
0.0
 30
0.0
  9
$PUCSORGBACK
 10
0.0
 20
0.0
 30
0.0
  9
$USERI1
 70
     0
  9
$USERI2
 70
     0
  9
$USERI3
 70
     0
  9
$USERI4
 70
     0
  9
$USERI5
 70
     0
  9
$USERR1
 40
16.5
  9
$USERR2
 40
0.0
  9
$USERR3
 40
0.0
  9
$USERR4
 40
0.0
  9
$USERR5
 40
0.0
  9
$WORLDVIEW
 70
     1
  9
$SHADEDGE
 70
     3
  9
$SHADEDIF
 70
    70
  9
$TILEMODE
 70
     1
  9
$MAXACTVP
 70
    64
  9
$PINSBASE
 10
0.0
 20
0.0
 30
0.0
  9
$PLIMCHECK
 70
     0
  9
$PEXTMIN
 10
1.00000000000000E+20
 20
1.00000000000000E+20
 30
1.00000000000000E+20
  9
$PEXTMAX
 10
-1.00000000000000E+20
 20
-1.00000000000000E+20
 30
-1.00000000000000E+20
  9
$PLIMMIN
 10
0.0
 20
0.0
  9
$PLIMMAX
 10
12.0
 20
9.0
  9
$UNITMODE
 70
     0
  9
$VISRETAIN
 70
     1
  9
$PLINEGEN
 70
     0
  9
$PSLTSCALE
 70
     1
  9
$TREEDEPTH
 70
  3020
  9
$CMLSTYLE
  2
Standard
  9
$CMLJUST
 70
     0
  9
$CMLSCALE
 40
1.0
  9
$PROXYGRAPHICS
 70
     1
  9
$MEASUREMENT
 70
     1
  9
$CELWEIGHT
370
    -1
  9
$ENDCAPS
280
     0
  9
$JOINSTYLE
280
     0
  9
$LWDISPLAY
290
     0
  9
$INSUNITS
 70
     1
  9
$HYPERLINKBASE
  1

  9
$STYLESHEET
  1

  9
$XEDIT
290
     1
  9
$CEPSNTYPE
380
     0
  9
$PSTYLEMODE
290
     1
  9
$FINGERPRINTGUID
  2
{9F203A18-687B-4BEA-B7AC-1666D20A6626}
  9
$VERSIONGUID
  2
{FAEB1C32-E019-11D5-929B-00C0DF256EC4}
  9
$EXTNAMES
290
     1
  9
$PSVPSCALE
 40
0.0
  9
$OLESTARTUP
290
     0
  0
ENDSEC
  0
SECTION
  2
CLASSES
  0
CLASS
  1
ACDBDICTIONARYWDFLT
  2
AcDbDictionaryWithDefault
  3
ObjectDBX Classes
 90
        0
280
     0
281
     0
  0
CLASS
  1
VISUALSTYLE
  2
AcDbVisualStyle
  3
ObjectDBX Classes
 90
     4095
280
     0
281
     0
  0
CLASS
  1
SCALE
  2
AcDbScale
  3
ObjectDBX Classes
 90
     1153
280
     0
281
     0
  0
CLASS
  1

  2
exOdDbPolyline
  3

 90
        0
280
     0
281
     1
  0
CLASS
  1

  2
exOdDbSpline
  3

 90
        0
280
     0
281
     1
  0
CLASS
  1
DICTIONARYVAR
  2
AcDbDictionaryVar
  3
ObjectDBX Classes
 90
        0
280
     0
281
     0
  0
CLASS
  1
ACDBPLACEHOLDER
  2
AcDbPlaceHolder
  3
ObjectDBX Classes
 90
        0
280
     0
281
     0
  0
CLASS
  1
LAYOUT
  2
AcDbLayout
  3
ObjectDBX Classes
 90
        0
280
     0
281
     0
  0
ENDSEC
  0
SECTION
  2
TABLES
  0
TABLE
  2
VPORT
  5
8
330
0
100
AcDbSymbolTable
 70
     1
  0
VPORT
  5
29
330
8
100
AcDbSymbolTableRecord
100
AcDbViewportTableRecord
  2
*Active
 70
     0
 10
0.0
 20
0.0
 11
1.0
 21
1.0
 12
195.0907664692711
 22
404.9492018415445
 13
0.0
 23
0.0
 14
0.5
 24
0.5
 15
0.5
 25
0.5
 16
0.0
 26
0.0
 36
1.0
 17
0.0
 27
0.0
 37
0.0
 40
211.2911825452186
 41
1.60267857142857
 42
50.0
 43
0.0
 44
0.0
 50
0.0
 51
0.0
 71
     0
 72
   100
 73
     1
 74
     3
 75
     0
 76
     0
 77
     0
 78
     0
281
     0
 65
     1
110
0.0
120
0.0
130
0.0
111
1.0
121
0.0
131
0.0
112
0.0
122
1.0
132
0.0
 79
     0
146
0.0
  0
ENDTAB
  0
TABLE
  2
LTYPE
  5
5
330
0
100
AcDbSymbolTable
 70
     8
  0
LTYPE
  5
14
330
5
100
AcDbSymbolTableRecord
100
AcDbLinetypeTableRecord
  2
ByBlock
 70
     0
  3

 72
    65
 73
     0
 40
0.0
  0
LTYPE
  5
15
330
5
100
AcDbSymbolTableRecord
100
AcDbLinetypeTableRecord
  2
ByLayer
 70
     0
  3

 72
    65
 73
     0
 40
0.0
  0
LTYPE
  5
16
330
5
100
AcDbSymbolTableRecord
100
AcDbLinetypeTableRecord
  2
Continuous
 70
     0
  3
Solid line
 72
    65
 73
     0
 40
0.0
  0
LTYPE
  5
3B
330
5
100
AcDbSymbolTableRecord
100
AcDbLinetypeTableRecord
  2
DASHED
 70
     0
  3
Dashed
 72
    65
 73
     2
 40
15.0
 49
7.0
 74
     0
 49
-8.0
 74
     0
  0
LTYPE
  5
3C
330
5
100
AcDbSymbolTableRecord
100
AcDbLinetypeTableRecord
  2
DOTTED
 70
     0
  3
Dotted
 72
    65
 73
     2
 40
1.0
 49
0.0
 74
     0
 49
-1.0
 74
     0
  0
LTYPE
  5
3D
330
5
100
AcDbSymbolTableRecord
100
AcDbLinetypeTableRecord
  2
DOT_CENTER
 70
     0
  3
Dot_Center
 72
    65
 73
     4
 40
14.0
 49
12.0
 74
     0
 49
-1.0
 74
     0
 49
0.0
 74
     0
 49
-1.0
 74
     0
  0
LTYPE
  5
3E
330
5
100
AcDbSymbolTableRecord
100
AcDbLinetypeTableRecord
  2
LONG_DASHED
 70
     0
  3
Long_Dashed
 72
    65
 73
     2
 40
15.0
 49
10.0
 74
     0
 49
-5.0
 74
     0
  0
LTYPE
  5
3F
330
5
100
AcDbSymbolTableRecord
100
AcDbLinetypeTableRecord
  2
DASH_CENTER
 70
     0
  3
Dash_Center
 72
    65
 73
     4
 40
14.0
 49
11.0
 74
     0
 49
-1.0
 74
     0
 49
1.0
 74
     0
 49
-1.0
 74
     0
  0
LTYPE
  5
40
330
5
100
AcDbSymbolTableRecord
100
AcDbLinetypeTableRecord
  2
PHANTOM
 70
     0
  3
Phantom
 72
    65
 73
     6
 40
13.0
 49
10.0
 74
     0
 49
-1.0
 74
     0
 49
0.0
 74
     0
 49
-1.0
 74
     0
 49
0.0
 74
     0
 49
-1.0
 74
     0
  0
LTYPE
  5
41
330
5
100
AcDbSymbolTableRecord
100
AcDbLinetypeTableRecord
  2
CENTER_DASH_DASH
 70
     0
  3
Center_Dash_Dash
 72
    65
 73
     6
 40
14.0
 49
9.0
 74
     0
 49
-1.0
 74
     0
 49
1.0
 74
     0
 49
-1.0
 74
     0
 49
1.0
 74
     0
 49
-1.0
 74
     0
  0
ENDTAB
  0
TABLE
  2
LAYER
  5
2
330
0
100
AcDbSymbolTable
 70
     6
  0
LAYER
  5
10
330
2
100
AcDbSymbolTableRecord
100
AcDbLayerTableRecord
  2
0
 70
     0
 62
     7
  6
Continuous
370
    -3
390
F
  0
LAYER
  5
42
330
2
100
AcDbSymbolTableRecord
100
AcDbLayerTableRecord
  2
1
 70
     0
 62
     7
  6
Continuous
370
    -3
390
F
  0
LAYER
  5
43
330
2
100
AcDbSymbolTableRecord
100
AcDbLayerTableRecord
  2
BG_STARTBEZUEGE
 70
     0
 62
     7
  6
Continuous
370
    -3
390
F
  0
LAYER
  5
44
330
2
100
AcDbSymbolTableRecord
100
AcDbLayerTableRecord
  2
DEFAULT_2
 70
     0
 62
     7
  6
Continuous
370
    -3
390
F
  0
LAYER
  5
45
330
2
100
AcDbSymbolTableRecord
100
AcDbLayerTableRecord
  2
RUNDUNGEN
 70
     0
 62
     7
  6
Continuous
370
    -3
390
F
  0
LAYER
  5
46
330
2
100
AcDbSymbolTableRecord
100
AcDbLayerTableRecord
  2
TEIL_STARTBEZUEGE
 70
     0
 62
     7
  6
Continuous
370
    -3
390
F
  0
ENDTAB
  0
TABLE
  2
STYLE
  5
3
330
0
100
AcDbSymbolTable
 70
     2
  0
STYLE
  5
11
330
3
100
AcDbSymbolTableRecord
100
AcDbTextStyleTableRecord
  2
Standard
 70
     0
 40
0.0
 41
1.0
 50
0.0
 71
     0
 42
0.2
  3
txt
  4

  0
STYLE
  5
6D
330
3
100
AcDbSymbolTableRecord
100
AcDbTextStyleTableRecord
  2
CONVERTER_11
 70
     0
 40
0.0
 41
0.72
 50
0.0
 71
     0
 42
0.2
  3
txt.shx
  4

  0
ENDTAB
  0
TABLE
  2
VIEW
  5
6
330
0
100
AcDbSymbolTable
 70
     0
  0
ENDTAB
  0
TABLE
  2
UCS
  5
7
330
0
100
AcDbSymbolTable
 70
     0
  0
ENDTAB
  0
TABLE
  2
APPID
  5
9
330
0
100
AcDbSymbolTable
 70
     1
  0
APPID
  5
12
330
9
100
AcDbSymbolTableRecord
100
AcDbRegAppTableRecord
  2
ACAD
 70
     0
  0
ENDTAB
  0
TABLE
  2
DIMSTYLE
  5
A
330
0
100
AcDbSymbolTable
 70
     7
100
AcDbDimStyleTable
  0
DIMSTYLE
105
27
330
A
100
AcDbSymbolTableRecord
100
AcDbDimStyleTableRecord
  2
Standard
 70
     0
340
11
  0
DIMSTYLE
105
114
102
{ACAD_REACTORS
330
115
102
}
330
A
100
AcDbSymbolTableRecord
100
AcDbDimStyleTableRecord
  2
ME10_DIM_10
 70
     0
  3
\U+2300<>
 41
3.5
 42
2.0
 44
2.0
 71
     1
 73
     0
 74
     0
 77
     1
 78
     8
140
3.5
146
0.7
147
2.0
172
     1
173
     1
176
     2
177
     2
178
     3
271
     2
272
     0
340
6D
  0
DIMSTYLE
105
11F
102
{ACAD_REACTORS
330
120
102
}
330
A
100
AcDbSymbolTableRecord
100
AcDbDimStyleTableRecord
  2
ME10_DIM_11
 70
     0
  3
\U+2300<>
 41
3.5
 42
2.0
 44
2.0
 71
     1
 73
     0
 74
     0
 77
     1
 78
     8
140
3.5
146
0.7
147
2.0
172
     1
173
     1
176
     2
177
     2
178
     3
271
     2
272
     0
340
6D
  0
DIMSTYLE
105
12A
102
{ACAD_REACTORS
330
12B
102
}
330
A
100
AcDbSymbolTableRecord
100
AcDbDimStyleTableRecord
  2
ME10_DIM_12
 70
     0
  3
<>
 41
3.5
 42
2.0
 44
2.0
 71
     1
 73
     0
 74
     0
 77
     1
 78
     8
140
3.5
146
0.7
147
2.0
172
     1
173
     1
176
     2
177
     2
178
     3
271
     2
272
     0
340
6D
  0
DIMSTYLE
105
135
102
{ACAD_REACTORS
330
136
102
}
330
A
100
AcDbSymbolTableRecord
100
AcDbDimStyleTableRecord
  2
ME10_DIM_13
 70
     0
  3
<>
 41
3.5
 42
2.0
 44
2.0
 71
     1
 73
     0
 74
     0
 77
     1
 78
     8
140
3.5
146
0.7
147
2.0
172
     1
173
     1
176
     2
177
     2
178
     3
271
     2
272
     0
340
6D
  0
DIMSTYLE
105
140
102
{ACAD_REACTORS
330
141
102
}
330
A
100
AcDbSymbolTableRecord
100
AcDbDimStyleTableRecord
  2
ME10_DIM_14
 70
     0
  3
<>
 41
3.5
 42
2.0
 44
2.0
 71
     1
 73
     0
 74
     0
 77
     1
 78
     8
140
3.5
146
0.7
147
2.0
172
     1
173
     1
176
     2
177
     2
178
     3
271
     2
272
     0
340
6D
  0
DIMSTYLE
105
14B
102
{ACAD_REACTORS
330
14C
102
}
330
A
100
AcDbSymbolTableRecord
100
AcDbDimStyleTableRecord
  2
ME10_DIM_15
 70
     0
  3
<>
 41
3.5
 42
2.0
 44
2.0
 71
     1
 73
     0
 74
     0
 77
     1
 78
     8
140
3.5
146
0.7
147
2.0
172
     1
173
     1
176
     2
177
     2
178
     3
271
     2
272
     0
340
6D
  0
ENDTAB
  0
TABLE
  2
BLOCK_RECORD
  5
1
330
0
100
AcDbSymbolTable
 70
     9
  0
BLOCK_RECORD
  5
1F
330
1
100
AcDbSymbolTableRecord
100
AcDbBlockTableRecord
  2
*Model_Space
340
22
  0
BLOCK_RECORD
  5
1B
330
1
100
AcDbSymbolTableRecord
100
AcDbBlockTableRecord
  2
*Paper_Space
340
1E
  0
BLOCK_RECORD
  5
23
330
1
100
AcDbSymbolTableRecord
100
AcDbBlockTableRecord
  2
*Paper_Space0
340
26
  0
BLOCK_RECORD
  5
47
330
1
100
AcDbSymbolTableRecord
100
AcDbBlockTableRecord
  2
Urheberrecht_DE-EN
340
0
102
{BLKREFS
331
6C
102
}
  0
BLOCK_RECORD
  5
10B
330
1
100
AcDbSymbolTableRecord
100
AcDbBlockTableRecord
  2
*D2
340
0
  0
BLOCK_RECORD
  5
116
330
1
100
AcDbSymbolTableRecord
100
AcDbBlockTableRecord
  2
*D3
340
0
  0
BLOCK_RECORD
  5
121
330
1
100
AcDbSymbolTableRecord
100
AcDbBlockTableRecord
  2
*D4
340
0
  0
BLOCK_RECORD
  5
12C
330
1
100
AcDbSymbolTableRecord
100
AcDbBlockTableRecord
  2
*D5
340
0
  0
BLOCK_RECORD
  5
137
330
1
100
AcDbSymbolTableRecord
100
AcDbBlockTableRecord
  2
*D6
340
0
  0
BLOCK_RECORD
  5
142
330
1
100
AcDbSymbolTableRecord
100
AcDbBlockTableRecord
  2
*D7
340
0
  0
BLOCK_RECORD
  5
14D
330
1
100
AcDbSymbolTableRecord
100
AcDbBlockTableRecord
  2
*D8
340
0
102
{BLKREFS
331
153
102
}
  0
ENDTAB
  0
ENDSEC
  0
SECTION
  2
BLOCKS
  0
BLOCK
  5
20
330
1F
100
AcDbEntity
  8
0
100
AcDbBlockBegin
  2
*Model_Space
 70
     0
 10
0.0
 20
0.0
 30
0.0
  3
*Model_Space
  1

  0
ENDBLK
  5
21
330
1F
100
AcDbEntity
  8
0
100
AcDbBlockEnd
  0
BLOCK
  5
1C
330
1B
100
AcDbEntity
 67
     1
  8
0
100
AcDbBlockBegin
  2
*Paper_Space
 70
     0
 10
0.0
 20
0.0
 30
0.0
  3
*Paper_Space
  1

  0
ENDBLK
  5
1D
330
1B
100
AcDbEntity
 67
     1
  8
0
100
AcDbBlockEnd
  0
BLOCK
  5
24
330
23
100
AcDbEntity
  8
0
100
AcDbBlockBegin
  2
*Paper_Space0
 70
     0
 10
0.0
 20
0.0
 30
0.0
  3
*Paper_Space0
  1

  0
ENDBLK
  5
25
330
23
100
AcDbEntity
  8
0
100
AcDbBlockEnd
  0
BLOCK
  5
48
330
47
100
AcDbEntity
  8
0
100
AcDbBlockBegin
  2
Urheberrecht_DE-EN
 70
     0
 10
55.1671980160782
 20
404.86820370642
 30
0.0
  3
Urheberrecht_DE-EN
  1

  0
MTEXT
  5
6E
330
47
100
AcDbEntity
  8
1
 62
     1
100
AcDbMText
 10
55.1671980160782
 20
404.86820370642
 30
0.0
 40
2.0
 41
0.0
 71
     7
 72
     1
  1
We own the copyright of this document. It \Pdetermined and may neither be copied or \Pmade accessible to outsiders without our\Ppermission.
  7
CONVERTER_11
 11
0.0
 21
1.0
 31
0.0
 73
     1
 44
0.90036014405762
  0
MTEXT
  5
6F
330
47
100
AcDbEntity
  8
1
 62
     1
100
AcDbMText
 10
55.1671980160782
 20
348.5788167891138
 30
0.0
 40
2.0
 41
0.0
 71
     7
 72
     1
  1
F\U+00fcr diese Unterlage behalten wir das Ur-\Pheberrecht. Sie darf nur f\U+00fcr den von uns \Pbestimmten Zweck benutzt und ohne unsere \PZustimmung weder vervielf\U+00e4ltigt noch\PDritten zug\U+00e4nglich gemacht werden.
  7
CONVERTER_11
 11
0.0
 21
1.0
 31
0.0
 73
     1
 44
0.90036014405762
  0
ENDBLK
  5
49
330
47
100
AcDbEntity
  8
0
100
AcDbBlockEnd
  0
BLOCK
  5
112
330
10B
100
AcDbEntity
  8
0
100
AcDbBlockBegin
  2
*D2
 70
     1
 10
0.0
 20
0.0
 30
0.0
  3
*D2
  1

  0
LINE
  5
10C
330
10B
100
AcDbEntity
  8
1
  6
Continuous
 62
     2
100
AcDbLine
 10
338.483552509915
 20
399.8044246415
 30
0.0
 11
338.483552509915
 21
374.8044246415
 31
0.0
  0
LINE
  5
10D
330
10B
100
AcDbEntity
  8
1
  6
Continuous
 62
     2
100
AcDbLine
 10
315.3283264033
 20
399.8044246415
 30
0.0
 11
340.483552509915
 21
399.8044246415
 31
0.0
  0
LINE
  5
10E
330
10B
100
AcDbEntity
  8
1
  6
Continuous
 62
     2
100
AcDbLine
 10
315.3283264033
 20
374.8044246415
 30
0.0
 11
340.483552509915
 21
374.8044246415
 31
0.0
  0
SOLID
  5
10F
330
10B
100
AcDbEntity
  8
1
 62
     2
100
AcDbTrace
 10
338.9443362514709
 20
396.3044246415
 30
0.0
 11
338.0227687683591
 21
396.3044246415
 31
0.0
 12
338.483552509915
 22
399.8044246415
 32
0.0
 13
338.483552509915
 23
399.8044246415
 33
0.0
  0
SOLID
  5
110
330
10B
100
AcDbEntity
  8
1
 62
     2
100
AcDbTrace
 10
338.0227687683591
 20
378.3044246415
 30
0.0
 11
338.9443362514709
 21
378.3044246415
 31
0.0
 12
338.483552509915
 22
374.8044246415
 32
0.0
 13
338.483552509915
 23
374.8044246415
 33
0.0
  0
MTEXT
  5
111
330
10B
100
AcDbEntity
  8
1
 62
     3
100
AcDbMText
 10
336.483552509915
 20
378.4494246415
 30
0.0
 40
3.5
 41
0.0
 71
     7
 72
     1
  1
\C3;%%c\C3;\C3;25\C2;\H2.45;\S^ ;\C3;
  7
CONVERTER_11
 11
0.0
 21
1.0
 31
0.0
 73
     1
 44
0.60024009603842
  0
ENDBLK
  5
113
330
10B
100
AcDbEntity
  8
0
100
AcDbBlockEnd
  0
BLOCK
  5
11D
330
116
100
AcDbEntity
  8
0
100
AcDbBlockBegin
  2
*D3
 70
     1
 10
0.0
 20
0.0
 30
0.0
  3
*D3
  1

  0
LINE
  5
117
330
116
100
AcDbEntity
  8
1
  6
Continuous
 62
     2
100
AcDbLine
 10
347.014334922464
 20
408.3044246415
 30
0.0
 11
347.014334922464
 21
366.3044246415
 31
0.0
  0
LINE
  5
118
330
116
100
AcDbEntity
  8
1
  6
Continuous
 62
     2
100
AcDbLine
 10
293.5856857162
 20
408.3044246415
 30
0.0
 11
349.014334922464
 21
408.3044246415
 31
0.0
  0
LINE
  5
119
330
116
100
AcDbEntity
  8
1
  6
Continuous
 62
     2
100
AcDbLine
 10
293.5856857162
 20
366.3044246415
 30
0.0
 11
349.014334922464
 21
366.3044246415
 31
0.0
  0
SOLID
  5
11A
330
116
100
AcDbEntity
  8
1
 62
     2
100
AcDbTrace
 10
347.4751186640199
 20
404.8044246415
 30
0.0
 11
346.5535511809081
 21
404.8044246415
 31
0.0
 12
347.014334922464
 22
408.3044246415
 32
0.0
 13
347.014334922464
 23
408.3044246415
 33
0.0
  0
SOLID
  5
11B
330
116
100
AcDbEntity
  8
1
 62
     2
100
AcDbTrace
 10
346.5535511809081
 20
369.8044246415
 30
0.0
 11
347.4751186640199
 21
369.8044246415
 31
0.0
 12
347.014334922464
 22
366.3044246415
 32
0.0
 13
347.014334922464
 23
366.3044246415
 33
0.0
  0
MTEXT
  5
11C
330
116
100
AcDbEntity
  8
1
 62
     3
100
AcDbMText
 10
345.014334922464
 20
379.363437042844
 30
0.0
 40
3.5
 41
0.0
 71
     7
 72
     1
  1
\C3;%%c\C3;\C3;42\C2;\H2.45;\S^ ;\C3;
  7
CONVERTER_11
 11
0.0
 21
1.0
 31
0.0
 73
     1
 44
0.60024009603842
  0
ENDBLK
  5
11E
330
116
100
AcDbEntity
  8
0
100
AcDbBlockEnd
  0
BLOCK
  5
128
330
121
100
AcDbEntity
  8
0
100
AcDbBlockBegin
  2
*D4
 70
     1
 10
0.0
 20
0.0
 30
0.0
  3
*D4
  1

  0
LINE
  5
122
330
121
100
AcDbEntity
  8
1
  6
Continuous
 62
     2
100
AcDbLine
 10
313.3283264033001
 20
443.668522724411
 30
0.0
 11
184.4283264033001
 21
443.668522724411
 31
0.0
  0
LINE
  5
123
330
121
100
AcDbEntity
  8
1
  6
Continuous
 62
     2
100
AcDbLine
 10
313.3283264033001
 20
405.3042371664
 30
0.0
 11
313.3283264033001
 21
445.668522724411
 31
0.0
  0
LINE
  5
124
330
121
100
AcDbEntity
  8
1
  6
Continuous
 62
     2
100
AcDbLine
 10
184.4283264033001
 20
437.0419246415
 30
0.0
 11
184.4283264033001
 21
445.668522724411
 31
0.0
  0
SOLID
  5
125
330
121
100
AcDbEntity
  8
1
 62
     2
100
AcDbTrace
 10
309.8283264033001
 20
443.2077389828551
 30
0.0
 11
309.8283264033001
 21
444.1293064659669
 31
0.0
 12
313.3283264033001
 22
443.668522724411
 32
0.0
 13
313.3283264033001
 23
443.668522724411
 33
0.0
  0
SOLID
  5
126
330
121
100
AcDbEntity
  8
1
 62
     2
100
AcDbTrace
 10
187.9283264033001
 20
444.1293064659669
 30
0.0
 11
187.9283264033001
 21
443.2077389828551
 31
0.0
 12
184.4283264033001
 22
443.668522724411
 32
0.0
 13
184.4283264033001
 23
443.668522724411
 33
0.0
  0
MTEXT
  5
127
330
121
100
AcDbEntity
  8
1
 62
     3
100
AcDbMText
 10
240.9302357551667
 20
445.668522724411
 30
0.0
 40
3.5
 41
0.0
 71
     7
 72
     1
  1
\C3;\C3;\C3;128.9\C2;\H2.45;\S^ ;\C3;
  7
CONVERTER_11
 11
0.9999999999970619
 21
2.424068405545306E-6
 31
0.0
 73
     1
 44
0.60024009603842
  0
ENDBLK
  5
129
330
121
100
AcDbEntity
  8
0
100
AcDbBlockEnd
  0
BLOCK
  5
133
330
12C
100
AcDbEntity
  8
0
100
AcDbBlockBegin
  2
*D5
 70
     1
 10
0.0
 20
0.0
 30
0.0
  3
*D5
  1

  0
LINE
  5
12D
330
12C
100
AcDbEntity
  8
1
  6
Continuous
 62
     2
100
AcDbLine
 10
165.3283264033
 20
451.285292735615
 30
0.0
 11
313.3283264033
 21
451.285292735615
 31
0.0
  0
LINE
  5
12E
330
12C
100
AcDbEntity
  8
1
  6
Continuous
 62
     2
100
AcDbLine
 10
165.3283264033
 20
429.3419246415
 30
0.0
 11
165.3283264033
 21
453.285292735615
 31
0.0
  0
LINE
  5
12F
330
12C
100
AcDbEntity
  8
1
  6
Continuous
 62
     2
100
AcDbLine
 10
313.3283264033
 20
405.3044246415
 30
0.0
 11
313.3283264033
 21
453.285292735615
 31
0.0
  0
SOLID
  5
130
330
12C
100
AcDbEntity
  8
1
 62
     2
100
AcDbTrace
 10
168.8283264033
 20
451.7460764771708
 30
0.0
 11
168.8283264033
 21
450.8245089940591
 31
0.0
 12
165.3283264033
 22
451.285292735615
 32
0.0
 13
165.3283264033
 23
451.285292735615
 33
0.0
  0
SOLID
  5
131
330
12C
100
AcDbEntity
  8
1
 62
     2
100
AcDbTrace
 10
309.8283264033
 20
450.8245089940591
 30
0.0
 11
309.8283264033
 21
451.7460764771708
 31
0.0
 12
313.3283264033
 22
451.285292735615
 32
0.0
 13
313.3283264033
 23
451.285292735615
 33
0.0
  0
MTEXT
  5
132
330
12C
100
AcDbEntity
  8
1
 62
     3
100
AcDbMText
 10
233.935840560451
 20
453.285292735615
 30
0.0
 40
3.5
 41
0.0
 71
     7
 72
     1
  1
\C3;\C3;\C3;148\C2;\H2.45;\S^ ;\C3;
  7
CONVERTER_11
 11
0.9999999999970619
 21
2.424068405545306E-6
 31
0.0
 73
     1
 44
0.60024009603842
  0
ENDBLK
  5
134
330
12C
100
AcDbEntity
  8
0
100
AcDbBlockEnd
  0
BLOCK
  5
13E
330
137
100
AcDbEntity
  8
0
100
AcDbBlockBegin
  2
*D6
 70
     1
 10
0.0
 20
0.0
 30
0.0
  3
*D6
  1

  0
LINE
  5
138
330
137
100
AcDbEntity
  8
1
  6
Continuous
 62
     2
100
AcDbLine
 10
165.3283264033
 20
458.749727346595
 30
0.0
 11
325.3283264033
 21
458.749727346595
 31
0.0
  0
LINE
  5
139
330
137
100
AcDbEntity
  8
1
  6
Continuous
 62
     2
100
AcDbLine
 10
165.3283264033
 20
429.3419246415
 30
0.0
 11
165.3283264033
 21
460.749727346595
 31
0.0
  0
LINE
  5
13A
330
137
100
AcDbEntity
  8
1
  6
Continuous
 62
     2
100
AcDbLine
 10
325.3283264033
 20
403.8044246415
 30
0.0
 11
325.3283264033
 21
460.749727346595
 31
0.0
  0
SOLID
  5
13B
330
137
100
AcDbEntity
  8
1
 62
     2
100
AcDbTrace
 10
168.8283264033
 20
459.2105110881509
 30
0.0
 11
168.8283264033
 21
458.2889436050392
 31
0.0
 12
165.3283264033
 22
458.749727346595
 32
0.0
 13
165.3283264033
 23
458.749727346595
 33
0.0
  0
SOLID
  5
13C
330
137
100
AcDbEntity
  8
1
 62
     2
100
AcDbTrace
 10
321.8283264033
 20
458.2889436050392
 30
0.0
 11
321.8283264033
 21
459.2105110881509
 31
0.0
 12
325.3283264033
 22
458.749727346595
 32
0.0
 13
325.3283264033
 23
458.749727346595
 33
0.0
  0
MTEXT
  5
13D
330
137
100
AcDbEntity
  8
1
 62
     3
100
AcDbMText
 10
243.075964573896
 20
460.749727346595
 30
0.0
 40
3.5
 41
0.0
 71
     7
 72
     1
  1
\C3;\C3;\C3;160\C2;\H2.45;\S^ ;\C3;
  7
CONVERTER_11
 11
0.9999999999970619
 21
2.424068405545306E-6
 31
0.0
 73
     1
 44
0.60024009603842
  0
ENDBLK
  5
13F
330
137
100
AcDbEntity
  8
0
100
AcDbBlockEnd
  0
BLOCK
  5
149
330
142
100
AcDbEntity
  8
0
100
AcDbBlockBegin
  2
*D7
 70
     1
 10
0.0
 20
0.0
 30
0.0
  3
*D7
  1

  0
LINE
  5
143
330
142
100
AcDbEntity
  8
1
  6
Continuous
 62
     2
100
AcDbLine
 10
313.3283264033001
 20
465.831479041589
 30
0.0
 11
63.5783264033
 21
465.831479041589
 31
0.0
  0
LINE
  5
144
330
142
100
AcDbEntity
  8
1
  6
Continuous
 62
     2
100
AcDbLine
 10
313.3283264033001
 20
405.3044246415
 30
0.0
 11
313.3283264033001
 21
467.831479041589
 31
0.0
  0
LINE
  5
145
330
142
100
AcDbEntity
  8
1
  6
Continuous
 62
     2
100
AcDbLine
 10
63.5783264033
 20
407.4656588415
 30
0.0
 11
63.5783264033
 21
467.831479041589
 31
0.0
  0
SOLID
  5
146
330
142
100
AcDbEntity
  8
1
 62
     2
100
AcDbTrace
 10
309.8283264033001
 20
465.3706953000331
 30
0.0
 11
309.8283264033001
 21
466.2922627831448
 31
0.0
 12
313.3283264033001
 22
465.831479041589
 32
0.0
 13
313.3283264033001
 23
465.831479041589
 33
0.0
  0
SOLID
  5
147
330
142
100
AcDbEntity
  8
1
 62
     2
100
AcDbTrace
 10
67.0783264033
 20
466.2922627831448
 30
0.0
 11
67.0783264033
 21
465.3706953000331
 31
0.0
 12
63.5783264033
 22
465.831479041589
 32
0.0
 13
63.5783264033
 23
465.831479041589
 33
0.0
  0
MTEXT
  5
148
330
142
100
AcDbEntity
  8
1
 62
     3
100
AcDbMText
 10
199.1776851016041
 20
467.831479041589
 30
0.0
 40
3.5
 41
0.0
 71
     7
 72
     1
  1
\C3;\C3;\C3;249.75\C2;\H2.45;\S^ ;\C3;
  7
CONVERTER_11
 11
0.9999999999970619
 21
2.424068405545306E-6
 31
0.0
 73
     1
 44
0.60024009603842
  0
ENDBLK
  5
14A
330
142
100
AcDbEntity
  8
0
100
AcDbBlockEnd
  0
BLOCK
  5
151
330
14D
100
AcDbEntity
  8
0
100
AcDbBlockBegin
  2
*D8
 70
     1
 10
0.0
 20
0.0
 30
0.0
  3
*D8
  1

  0
LINE
  5
14E
330
14D
100
AcDbEntity
  8
1
  6
Continuous
 62
     2
100
AcDbLine
 10
196.9077917245627
 20
423.9856080183448
 30
0.0
 11
187.7059260888696
 21
415.2912432485857
 31
0.0
  0
SOLID
  5
14F
330
14D
100
AcDbEntity
  8
1
 62
     2
100
AcDbTrace
 10
189.9335031125849
 20
418.0298966147308
 30
0.0
 11
190.5664159152169
 21
417.3600399060284
 31
0.0
 12
187.7059260888696
 22
415.2912432485857
 32
0.0
 13
187.7059260888696
 23
415.2912432485857
 33
0.0
  0
MTEXT
  5
150
330
14D
100
AcDbEntity
  8
1
 62
     3
100
AcDbMText
 10
188.9197476698848
 20
419.1896563734129
 30
0.0
 40
3.5
 41
0.0
 71
     7
 72
     1
  1
\C3; R\C3;\C3;12\C2;\H2.45;\S^ ;\C3;
  7
CONVERTER_11
 11
0.7268666928660888
 21
0.6867785747982496
 31
0.0
 73
     1
 44
0.60024009603842
  0
ENDBLK
  5
152
330
14D
100
AcDbEntity
  8
0
100
AcDbBlockEnd
  0
ENDSEC
  0
SECTION
  2
ENTITIES
  0
INSERT
  5
6C
330
1F
100
AcDbEntity
  8
0
100
AcDbBlockReference
  2
Urheberrecht_DE-EN
 10
55.1671980160782
 20
404.86820370642
 30
0.0
  0
LINE
  5
70
330
1F
100
AcDbEntity
  8
0
  6
Continuous
 62
     7
100
AcDbLine
 10
63.5783264033
 20
405.4656588415
 30
0.0
 11
63.5783264033
 21
369.1429776403
 31
0.0
  0
LINE
  5
71
330
1F
100
AcDbEntity
  8
0
  6
Continuous
 62
     9
100
AcDbLine
 10
65.50360939769999
 20
366.9165322971
 30
0.0
 11
65.50360939769999
 21
407.6923169859
 31
0.0
  0
LINE
  5
72
330
1F
100
AcDbEntity
  8
0
  6
Continuous
 62
     7
100
AcDbLine
 10
169.5283264033
 20
338.5669246415
 30
0.0
 11
173.2629480175
 21
338.5669246415
 31
0.0
  0
LINE
  5
73
330
1F
100
AcDbEntity
  8
0
  6
Continuous
 62
     7
100
AcDbLine
 10
179.7437047892
 20
338.5669246415
 30
0.0
 11
183.4283264033
 21
338.5669246415
 31
0.0
  0
LINE
  5
74
330
1F
100
AcDbEntity
  8
0
  6
Continuous
 62
     7
100
AcDbLine
 10
175.3408264033
 20
341.8044246415
 30
0.0
 11
177.6658264033
 21
341.8044246415
 31
0.0
  0
LINE
  5
75
330
1F
100
AcDbEntity
  8
0
  6
Continuous
 62
     7
100
AcDbLine
 10
178.4158264033
 20
433.741971811
 30
0.0
 11
179.7437047892
 21
436.0419246415
 31
0.0
  0
LINE
  5
76
330
1F
100
AcDbEntity
  8
0
  6
Continuous
 62
     7
100
AcDbLine
 10
169.5283264033
 20
348.7775326536
 30
0.0
 11
173.2629480175
 21
348.7775326536
 31
0.0
  0
LINE
  5
77
330
1F
100
AcDbEntity
  8
0
  6
Continuous
 62
     7
100
AcDbLine
 10
179.7437047892
 20
348.7775326536
 30
0.0
 11
183.4283264033
 21
348.7775326536
 31
0.0
  0
LINE
  5
78
330
1F
100
AcDbEntity
  8
0
  6
Continuous
 62
     7
100
AcDbLine
 10
65.50360939769999
 20
366.9165322971
 30
0.0
 11
164.8386440701
 21
352.4508425999
 31
0.0
  0
LINE
  5
79
330
1F
100
AcDbEntity
  8
0
  6
Continuous
 62
     7
100
AcDbLine
 10
178.4158264033
 20
340.866877472
 30
0.0
 11
179.7437047892
 21
338.5669246415
 31
0.0
  0
LINE
  5
7A
330
1F
100
AcDbEntity
  8
0
  6
Continuous
 62
     7
100
AcDbLine
 10
164.8386440701
 20
352.4508425999
 30
0.0
 11
164.8386440701
 21
422.1580066831
 31
0.0
  0
LWPOLYLINE
  5
7B
330
1F
100
AcDbEntity
  8
BG_STARTBEZUEGE
  6
DOT_CENTER
 62
     7
100
AcDbPolyline
 90
        2
 70
     0
 43
0.25
 10
165.3283264033
 20
427.3419246415
 10
165.3283264033
 20
346.0669246415
  0
LINE
  5
7C
330
1F
100
AcDbEntity
  8
0
  6
Continuous
 62
     7
100
AcDbLine
 10
165.8783264033
 20
352.7294246415
 30
0.0
 11
165.8783264033
 21
421.8794246415
 31
0.0
  0
LINE
  5
7D
330
1F
100
AcDbEntity
  8
0
  6
Continuous
 62
     9
100
AcDbLine
 10
167.5283264033
 20
352.7294246415
 30
0.0
 11
167.5283264033
 21
421.8794246415
 31
0.0
  0
LINE
  5
7E
330
1F
100
AcDbEntity
  8
0
  6
Continuous
 62
     7
100
AcDbLine
 10
165.8783264033
 20
352.7294246415
 30
0.0
 11
167.5283264033
 21
352.7294246415
 31
0.0
  0
LINE
  5
7F
330
1F
100
AcDbEntity
  8
0
  6
Continuous
 62
     7
100
AcDbLine
 10
175.3408264033
 20
352.96454258
 30
0.0
 11
177.6658264033
 21
352.96454258
 31
0.0
  0
LINE
  5
80
330
1F
100
AcDbEntity
  8
0
  6
Continuous
 62
     9
100
AcDbLine
 10
184.4283264033
 20
355.7044246415
 30
0.0
 11
168.5283264033
 21
355.7044246415
 31
0.0
  0
LINE
  5
81
330
1F
100
AcDbEntity
  8
0
  6
Continuous
 62
     7
100
AcDbLine
 10
168.5283264033
 20
357.4544246415
 30
0.0
 11
184.4283264033
 21
357.4544246415
 31
0.0
  0
LINE
  5
82
330
1F
100
AcDbEntity
  8
0
  6
Continuous
 62
     7
100
AcDbLine
 10
168.5283264033
 20
339.5669246415
 30
0.0
 11
168.5283264033
 21
435.0417426129
 31
0.0
  0
LINE
  5
83
330
1F
100
AcDbEntity
  8
0
  6
Continuous
 62
     9
100
AcDbLine
 10
169.5283264033
 20
436.0419246415
 30
0.0
 11
169.5283264033
 21
400.2044246415
 31
0.0
  0
LINE
  5
84
330
1F
100
AcDbEntity
  8
0
  6
Continuous
 62
     9
100
AcDbLine
 10
169.5283264033
 20
338.5669246415
 30
0.0
 11
169.5283264033
 21
348.7775326536
 31
0.0
  0
LINE
  5
85
330
1F
100
AcDbEntity
  8
0
  6
Continuous
 62
     9
100
AcDbLine
 10
169.5283264033
 20
357.4544246415
 30
0.0
 11
169.5283264033
 21
374.4044246415
 31
0.0
  0
LINE
  5
86
330
1F
100
AcDbEntity
  8
0
  6
Continuous
 62
     7
100
AcDbLine
 10
173.2629480175
 20
436.0419246415
 30
0.0
 11
173.2629480175
 21
400.2044246415
 31
0.0
  0
LINE
  5
87
330
1F
100
AcDbEntity
  8
0
  6
Continuous
 62
     7
100
AcDbLine
 10
173.2629480175
 20
374.4044246415
 30
0.0
 11
173.2629480175
 21
357.4544246415
 31
0.0
  0
LINE
  5
88
330
1F
100
AcDbEntity
  8
0
  6
Continuous
 62
     7
100
AcDbLine
 10
173.2629480175
 20
348.7775326536
 30
0.0
 11
173.2629480175
 21
338.5669246415
 31
0.0
  0
LINE
  5
89
330
1F
100
AcDbEntity
  8
0
  6
Continuous
 62
     7
100
AcDbLine
 10
174.5908264033
 20
433.7418000393
 30
0.0
 11
174.5908264033
 21
400.2044246415
 31
0.0
  0
LINE
  5
8A
330
1F
100
AcDbEntity
  8
0
  6
Continuous
 62
     7
100
AcDbLine
 10
174.5908264033
 20
340.8670010542
 30
0.0
 11
174.5908264033
 21
351.9768150422
 31
0.0
  0
LINE
  5
8B
330
1F
100
AcDbEntity
  8
0
  6
Continuous
 62
     7
100
AcDbLine
 10
174.5908264033
 20
357.4544246415
 30
0.0
 11
174.5908264033
 21
374.4044246415
 31
0.0
  0
LINE
  5
8C
330
1F
100
AcDbEntity
  8
0
  6
Continuous
 62
     9
100
AcDbLine
 10
175.3408264033
 20
432.8044246415
 30
0.0
 11
175.3408264033
 21
400.2044246415
 31
0.0
  0
LINE
  5
8D
330
1F
100
AcDbEntity
  8
0
  6
Continuous
 62
     9
100
AcDbLine
 10
175.3408264033
 20
341.8044246415
 30
0.0
 11
175.3408264033
 21
352.96454258
 31
0.0
  0
LINE
  5
8E
330
1F
100
AcDbEntity
  8
0
  6
Continuous
 62
     9
100
AcDbLine
 10
175.3408264033
 20
357.4544246415
 30
0.0
 11
175.3408264033
 21
374.4044246415
 31
0.0
  0
LINE
  5
8F
330
1F
100
AcDbEntity
  8
0
  6
Continuous
 62
     7
100
AcDbLine
 10
164.8386440701
 20
352.4508425999
 30
0.0
 11
165.8783264033
 21
352.7294246415
 31
0.0
  0
LINE
  5
90
330
1F
100
AcDbEntity
  8
0
  6
Continuous
 62
     7
100
AcDbLine
 10
239.4283264033
 20
366.3044246415
 30
0.0
 11
291.5856857162
 21
366.3044246415
 31
0.0
  0
LINE
  5
91
330
1F
100
AcDbEntity
  8
0
  6
Continuous
 62
     7
100
AcDbLine
 10
306.5783264033
 20
366.3044246415
 30
0.0
 11
320.8538618171
 21
366.3044246415
 31
0.0
  0
LINE
  5
92
330
1F
100
AcDbEntity
  8
0
  6
Continuous
 62
     7
100
AcDbLine
 10
314.4283264033
 20
367.7085131148
 30
0.0
 11
320.8538618171
 21
367.7085131148
 31
0.0
  0
LINE
  5
93
330
1F
100
AcDbEntity
  8
0
  6
Continuous
 62
     9
100
AcDbLine
 10
177.6658264033
 20
432.8044246415
 30
0.0
 11
177.6658264033
 21
400.2044246415
 31
0.0
  0
LINE
  5
94
330
1F
100
AcDbEntity
  8
0
  6
Continuous
 62
     9
100
AcDbLine
 10
177.6658264033
 20
341.8044246415
 30
0.0
 11
177.6658264033
 21
352.96454258
 31
0.0
  0
LINE
  5
95
330
1F
100
AcDbEntity
  8
0
  6
Continuous
 62
     9
100
AcDbLine
 10
177.6658264033
 20
357.4544246415
 30
0.0
 11
177.6658264033
 21
374.4044246415
 31
0.0
  0
LINE
  5
96
330
1F
100
AcDbEntity
  8
0
  6
Continuous
 62
     7
100
AcDbLine
 10
178.4158264033
 20
433.7418000393
 30
0.0
 11
178.4158264033
 21
400.2044246415
 31
0.0
  0
LINE
  5
97
330
1F
100
AcDbEntity
  8
0
  6
Continuous
 62
     7
100
AcDbLine
 10
178.4158264033
 20
340.8670010542
 30
0.0
 11
178.4158264033
 21
351.9768150422
 31
0.0
  0
LINE
  5
98
330
1F
100
AcDbEntity
  8
0
  6
Continuous
 62
     7
100
AcDbLine
 10
178.4158264033
 20
357.4544246415
 30
0.0
 11
178.4158264033
 21
374.4044246415
 31
0.0
  0
LINE
  5
99
330
1F
100
AcDbEntity
  8
0
  6
Continuous
 62
     7
100
AcDbLine
 10
179.7437047892
 20
436.0419246415
 30
0.0
 11
179.7437047892
 21
400.2044246415
 31
0.0
  0
LINE
  5
9A
330
1F
100
AcDbEntity
  8
0
  6
Continuous
 62
     7
100
AcDbLine
 10
179.7437047892
 20
374.4044246415
 30
0.0
 11
179.7437047892
 21
357.4544246415
 31
0.0
  0
LINE
  5
9B
330
1F
100
AcDbEntity
  8
0
  6
Continuous
 62
     7
100
AcDbLine
 10
179.7437047892
 20
348.7775326536
 30
0.0
 11
179.7437047892
 21
338.5669246415
 31
0.0
  0
LINE
  5
9C
330
1F
100
AcDbEntity
  8
0
  6
Continuous
 62
     9
100
AcDbLine
 10
183.4283264033
 20
436.0419246415
 30
0.0
 11
183.4283264033
 21
400.2044246415
 31
0.0
  0
LINE
  5
9D
330
1F
100
AcDbEntity
  8
0
  6
Continuous
 62
     9
100
AcDbLine
 10
183.4283264033
 20
338.5669246415
 30
0.0
 11
183.4283264033
 21
348.7775326536
 31
0.0
  0
LINE
  5
9E
330
1F
100
AcDbEntity
  8
0
  6
Continuous
 62
     9
100
AcDbLine
 10
183.4283264033
 20
357.4544246415
 30
0.0
 11
183.4283264033
 21
374.4044246415
 31
0.0
  0
LINE
  5
9F
330
1F
100
AcDbEntity
  8
0
  6
Continuous
 62
     7
100
AcDbLine
 10
184.4283264033
 20
339.5669246415
 30
0.0
 11
184.4283264033
 21
435.0419246415
 31
0.0
  0
LINE
  5
A0
330
1F
100
AcDbEntity
  8
0
  6
Continuous
 62
     7
100
AcDbLine
 10
323.1426013578
 20
370.329364833
 30
0.0
 11
314.4283264033
 21
370.329364833
 31
0.0
  0
LINE
  5
A1
330
1F
100
AcDbEntity
  8
0
  6
Continuous
 62
     7
100
AcDbLine
 10
314.4283264033
 20
370.9681060419
 30
0.0
 11
320.8538618171
 21
370.9681060419
 31
0.0
  0
LINE
  5
A2
330
1F
100
AcDbEntity
  8
0
  6
Continuous
 62
     7
100
AcDbLine
 10
298.2425399657
 20
371.3044246415
 30
0.0
 11
305.3283264033
 21
371.3044246415
 31
0.0
  0
LWPOLYLINE
  5
A3
330
1F
100
AcDbEntity
  8
DEFAULT_2
  6
DASHED
 62
     8
100
AcDbPolyline
 90
        2
 70
     0
 43
0.35
 10
305.3283264033
 20
371.3044246415
 10
313.3283264033
 20
371.3044246415
  0
LINE
  5
A4
330
1F
100
AcDbEntity
  8
0
  6
Continuous
 62
     7
100
AcDbLine
 10
168.5283264033
 20
374.4044246415
 30
0.0
 11
184.4283264033
 21
374.4044246415
 31
0.0
  0
LINE
  5
A5
330
1F
100
AcDbEntity
  8
0
  6
Continuous
 62
     9
100
AcDbLine
 10
184.4283264033
 20
376.1544246415
 30
0.0
 11
168.5283264033
 21
376.1544246415
 31
0.0
  0
LWPOLYLINE
  5
A6
330
1F
100
AcDbEntity
  8
DEFAULT_2
  6
DASHED
 62
     8
100
AcDbPolyline
 90
        2
 70
     0
 43
0.35
 10
268.3283264033
 20
378.3044246415
 10
288.424532375
 20
378.3044246415
  0
LINE
  5
A7
330
1F
100
AcDbEntity
  8
RUNDUNGEN
  6
Continuous
 62
     9
100
AcDbLine
 10
194.6366597367
 20
411.6670928755
 30
0.0
 11
194.6366597367
 21
362.9417564074
 31
0.0
  0
LWPOLYLINE
  5
A8
330
1F
100
AcDbEntity
  8
DEFAULT_2
  6
DASHED
 62
     8
100
AcDbPolyline
 90
        2
 70
     0
 43
0.35
 10
288.424532375
 20
396.3044246415
 10
313.3283264033
 20
399.8044246415
  0
LINE
  5
A9
330
1F
100
AcDbEntity
  8
0
  6
Continuous
 62
     7
100
AcDbLine
 10
314.4283264033
 20
384.0448317144
 30
0.0
 11
320.8538618171
 21
384.0448317144
 31
0.0
  0
LINE
  5
AA
330
1F
100
AcDbEntity
  8
0
  6
Continuous
 62
     7
100
AcDbLine
 10
323.1426013578
 20
384.7044246415
 30
0.0
 11
314.4283264033
 21
384.7044246415
 31
0.0
  0
LWPOLYLINE
  5
AB
330
1F
100
AcDbEntity
  8
TEIL_STARTBEZUEGE
  6
DOT_CENTER
 62
     7
100
AcDbPolyline
 90
        2
 70
     0
 43
0.25
 10
330.1528969957
 20
387.3044246415
 10
60.57832640330001
 20
387.3044246415
  0
LINE
  5
AC
330
1F
100
AcDbEntity
  8
0
  6
Continuous
 62
     7
100
AcDbLine
 10
173.2629480175
 20
338.5669246415
 30
0.0
 11
174.5908264033
 21
340.866877472
 31
0.0
  0
LINE
  5
AD
330
1F
100
AcDbEntity
  8
0
  6
Continuous
 62
     7
100
AcDbLine
 10
323.1426013578
 20
389.9044246415
 30
0.0
 11
314.4283264033
 21
389.9044246415
 31
0.0
  0
LINE
  5
AE
330
1F
100
AcDbEntity
  8
0
  6
Continuous
 62
     7
100
AcDbLine
 10
314.4283264033
 20
390.5640175686
 30
0.0
 11
320.8538618171
 21
390.5640175686
 31
0.0
  0
LWPOLYLINE
  5
AF
330
1F
100
AcDbEntity
  8
DEFAULT_2
  6
DASHED
 62
     8
100
AcDbPolyline
 90
        2
 70
     0
 43
0.35
 10
268.3283264033
 20
396.3044246415
 10
288.424532375
 20
396.3044246415
  0
LWPOLYLINE
  5
B0
330
1F
100
AcDbEntity
  8
DEFAULT_2
  6
DASHED
 62
     8
100
AcDbPolyline
 90
        2
 70
     0
 43
0.35
 10
288.424532375
 20
378.3044246415
 10
313.3283264033
 20
374.8044246415
  0
LINE
  5
B1
330
1F
100
AcDbEntity
  8
0
  6
Continuous
 62
     7
100
AcDbLine
 10
173.2629480175
 20
436.0419246415
 30
0.0
 11
174.5908264033
 21
433.741971811
 31
0.0
  0
LINE
  5
B2
330
1F
100
AcDbEntity
  8
0
  6
Continuous
 62
     9
100
AcDbLine
 10
184.4283264033
 20
398.4544246415
 30
0.0
 11
168.5283264033
 21
398.4544246415
 31
0.0
  0
LINE
  5
B3
330
1F
100
AcDbEntity
  8
0
  6
Continuous
 62
     7
100
AcDbLine
 10
168.5283264033
 20
400.2044246415
 30
0.0
 11
184.4283264033
 21
400.2044246415
 31
0.0
  0
LINE
  5
B4
330
1F
100
AcDbEntity
  8
0
  6
Continuous
 62
     7
100
AcDbLine
 10
298.2425399657
 20
403.3044246415
 30
0.0
 11
305.3283264033
 21
403.3044246415
 31
0.0
  0
LWPOLYLINE
  5
B5
330
1F
100
AcDbEntity
  8
DEFAULT_2
  6
DASHED
 62
     8
100
AcDbPolyline
 90
        2
 70
     0
 43
0.35
 10
305.3283264033
 20
403.3044246415
 10
313.3283264033
 20
403.3044246415
  0
LINE
  5
B6
330
1F
100
AcDbEntity
  8
0
  6
Continuous
 62
     7
100
AcDbLine
 10
314.4283264033
 20
403.6407432411
 30
0.0
 11
320.8538618171
 21
403.6407432411
 31
0.0
  0
LINE
  5
B7
330
1F
100
AcDbEntity
  8
0
  6
Continuous
 62
     7
100
AcDbLine
 10
323.1426013578
 20
404.27948445
 30
0.0
 11
314.4283264033
 21
404.27948445
 31
0.0
  0
LINE
  5
B8
330
1F
100
AcDbEntity
  8
0
  6
Continuous
 62
     7
100
AcDbLine
 10
314.4283264033
 20
406.9003361682
 30
0.0
 11
320.8538618171
 21
406.9003361682
 31
0.0
  0
LINE
  5
B9
330
1F
100
AcDbEntity
  8
RUNDUNGEN
  6
Continuous
 62
     7
100
AcDbLine
 10
320.8538618171
 20
408.3044246415
 30
0.0
 11
306.5783264033
 21
408.3044246415
 31
0.0
  0
LINE
  5
BA
330
1F
100
AcDbEntity
  8
0
  6
Continuous
 62
     7
100
AcDbLine
 10
239.4283264033
 20
408.3044246415
 30
0.0
 11
291.5856857162
 21
408.3044246415
 31
0.0
  0
LINE
  5
BB
330
1F
100
AcDbEntity
  8
0
  6
Continuous
 62
     7
100
AcDbLine
 10
306.5783264033
 20
408.3044246415
 30
0.0
 11
320.8538618171
 21
408.3044246415
 31
0.0
  0
LINE
  5
BC
330
1F
100
AcDbEntity
  8
0
  6
Continuous
 62
     7
100
AcDbLine
 10
164.8386440701
 20
422.1580066831
 30
0.0
 11
165.8783264033
 21
421.8794246415
 31
0.0
  0
LINE
  5
BD
330
1F
100
AcDbEntity
  8
0
  6
Continuous
 62
     7
100
AcDbLine
 10
165.8783264033
 20
421.8794246415
 30
0.0
 11
167.5283264033
 21
421.8794246415
 31
0.0
  0
LINE
  5
BE
330
1F
100
AcDbEntity
  8
0
  6
Continuous
 62
     9
100
AcDbLine
 10
239.4283264033
 20
408.3044246415
 30
0.0
 11
239.4283264033
 21
366.3044246415
 31
0.0
  0
LINE
  5
BF
330
1F
100
AcDbEntity
  8
0
  6
Continuous
 62
     7
100
AcDbLine
 10
65.50360939769999
 20
407.6923169859
 30
0.0
 11
164.8386440701
 21
422.1580066831
 31
0.0
  0
LINE
  5
C0
330
1F
100
AcDbEntity
  8
0
  6
Continuous
 62
     7
100
AcDbLine
 10
175.3408264033
 20
432.8044246415
 30
0.0
 11
177.6658264033
 21
432.8044246415
 31
0.0
  0
LINE
  5
C1
330
1F
100
AcDbEntity
  8
0
  6
Continuous
 62
     7
100
AcDbLine
 10
169.5283264033
 20
436.0419246415
 30
0.0
 11
173.2629480175
 21
436.0419246415
 31
0.0
  0
LINE
  5
C2
330
1F
100
AcDbEntity
  8
0
  6
Continuous
 62
     7
100
AcDbLine
 10
179.7437047892
 20
436.0419246415
 30
0.0
 11
183.4283264033
 21
436.0419246415
 31
0.0
  0
LWPOLYLINE
  5
C3
330
1F
100
AcDbEntity
  8
DEFAULT_2
  6
DASHED
 62
     8
100
AcDbPolyline
 90
        2
 70
     0
 43
0.35
 10
268.3283264033
 20
378.3045300962
 10
268.3283264033
 20
396.3043191867
  0
LINE
  5
C4
330
1F
100
AcDbEntity
  8
0
  6
Continuous
 62
     7
100
AcDbLine
 10
293.7070060598
 20
367.1831042979
 30
0.0
 11
297.5354331845
 21
371.0115314227
 31
0.0
  0
LINE
  5
C5
330
1F
100
AcDbEntity
  8
0
  6
Continuous
 62
     7
100
AcDbLine
 10
293.7070060598
 20
407.4257449851
 30
0.0
 11
297.5354331845
 21
403.5973178603
 31
0.0
  0
LWPOLYLINE
  5
C6
330
1F
100
AcDbEntity
  8
DEFAULT_2
  6
DASHED
 62
     8
100
AcDbPolyline
 90
        2
 70
     0
 43
0.35
 10
288.424532375
 20
396.3044246415
 10
288.424532375
 20
378.3044246415
  0
LINE
  5
C7
330
1F
100
AcDbEntity
  8
RUNDUNGEN
  6
Continuous
 62
     9
100
AcDbLine
 10
291.5856857162
 20
366.3044246415
 30
0.0
 11
291.5856857162
 21
408.3044246415
 31
0.0
  0
LINE
  5
C8
330
1F
100
AcDbEntity
  8
RUNDUNGEN
  6
Continuous
 62
     9
100
AcDbLine
 10
293.7070060598
 20
367.1831042979
 30
0.0
 11
293.7070060598
 21
407.4257449851
 31
0.0
  0
LINE
  5
C9
330
1F
100
AcDbEntity
  8
RUNDUNGEN
  6
Continuous
 62
     9
100
AcDbLine
 10
297.5354331845
 20
403.5973178603
 30
0.0
 11
297.5354331845
 21
371.0115314227
 31
0.0
  0
LINE
  5
CA
330
1F
100
AcDbEntity
  8
RUNDUNGEN
  6
Continuous
 62
     9
100
AcDbLine
 10
298.2425399657
 20
403.3044246415
 30
0.0
 11
298.2425399657
 21
371.3044246415
 31
0.0
  0
LINE
  5
CB
330
1F
100
AcDbEntity
  8
RUNDUNGEN
  6
Continuous
 62
     7
100
AcDbLine
 10
305.3283264033
 20
407.0544246415
 30
0.0
 11
305.3283264033
 21
367.5544246415
 31
0.0
  0
LINE
  5
CC
330
1F
100
AcDbEntity
  8
RUNDUNGEN
  6
Continuous
 62
     9
100
AcDbLine
 10
306.5783264033
 20
366.3044246415
 30
0.0
 11
306.5783264033
 21
408.3044246415
 31
0.0
  0
LWPOLYLINE
  5
CD
330
1F
100
AcDbEntity
  8
DEFAULT_2
  6
DASHED
 62
     8
100
AcDbPolyline
 90
        2
 70
     0
 43
0.35
 10
313.3283264033
 20
371.3046121166
 10
313.3283264033
 20
403.3042371664
  0
LINE
  5
CE
330
1F
100
AcDbEntity
  8
0
  6
Continuous
 62
     7
100
AcDbLine
 10
314.4283264033
 20
406.9003361682
 30
0.0
 11
314.4283264033
 21
403.6407432411
 31
0.0
  0
LINE
  5
CF
330
1F
100
AcDbEntity
  8
0
  6
Continuous
 62
     7
100
AcDbLine
 10
314.4283264033
 20
390.5640175686
 30
0.0
 11
314.4283264033
 21
384.0448317144
 31
0.0
  0
LINE
  5
D0
330
1F
100
AcDbEntity
  8
0
  6
Continuous
 62
     7
100
AcDbLine
 10
314.4283264033
 20
370.9681060419
 30
0.0
 11
314.4283264033
 21
367.7085131148
 31
0.0
  0
LINE
  5
D1
330
1F
100
AcDbEntity
  8
RUNDUNGEN
  6
Continuous
 62
     7
100
AcDbLine
 10
325.3283264033
 20
372.8044246415
 30
0.0
 11
321.9363935718
 21
366.9294246415
 31
0.0
  0
LINE
  5
D2
330
1F
100
AcDbEntity
  8
0
  6
Continuous
 62
     7
100
AcDbLine
 10
321.9363935718
 20
366.9294246415
 30
0.0
 11
325.3283264033
 21
372.8044246415
 31
0.0
  0
LINE
  5
D3
330
1F
100
AcDbEntity
  8
0
  6
Continuous
 62
     7
100
AcDbLine
 10
321.9363935718
 20
407.6794246415
 30
0.0
 11
325.3283264033
 21
401.8044246415
 31
0.0
  0
LINE
  5
D4
330
1F
100
AcDbEntity
  8
RUNDUNGEN
  6
Continuous
 62
     7
100
AcDbLine
 10
325.3283264033
 20
401.8044246415
 30
0.0
 11
321.9363935718
 21
407.6794246415
 31
0.0
  0
LINE
  5
D5
330
1F
100
AcDbEntity
  8
0
  6
Continuous
 62
     9
100
AcDbLine
 10
320.8538618171
 20
366.3044246415
 30
0.0
 11
320.8538618171
 21
367.7085131148
 31
0.0
  0
LINE
  5
D6
330
1F
100
AcDbEntity
  8
0
  6
Continuous
 62
     9
100
AcDbLine
 10
320.8538618171
 20
370.9681060419
 30
0.0
 11
320.8538618171
 21
384.0448317144
 31
0.0
  0
LINE
  5
D7
330
1F
100
AcDbEntity
  8
0
  6
Continuous
 62
     9
100
AcDbLine
 10
320.8538618171
 20
390.5640175686
 30
0.0
 11
320.8538618171
 21
403.6407432411
 31
0.0
  0
LINE
  5
D8
330
1F
100
AcDbEntity
  8
0
  6
Continuous
 62
     9
100
AcDbLine
 10
320.8538618171
 20
406.9003361682
 30
0.0
 11
320.8538618171
 21
408.3044246415
 31
0.0
  0
LINE
  5
D9
330
1F
100
AcDbEntity
  8
0
  6
Continuous
 62
     9
100
AcDbLine
 10
321.9363935718
 20
366.9294246415
 30
0.0
 11
321.9363935718
 21
368.3117348408
 31
0.0
  0
LINE
  5
DA
330
1F
100
AcDbEntity
  8
0
  6
Continuous
 62
     9
100
AcDbLine
 10
321.9363935718
 20
371.4195142253
 30
0.0
 11
321.9363935718
 21
384.196645257
 31
0.0
  0
LINE
  5
DB
330
1F
100
AcDbEntity
  8
0
  6
Continuous
 62
     9
100
AcDbLine
 10
321.9363935718
 20
390.412204026
 30
0.0
 11
321.9363935718
 21
403.1893350577
 31
0.0
  0
LINE
  5
DC
330
1F
100
AcDbEntity
  8
0
  6
Continuous
 62
     9
100
AcDbLine
 10
321.9363935718
 20
406.2971144422
 30
0.0
 11
321.9363935718
 21
407.6794246415
 31
0.0
  0
LINE
  5
DD
330
1F
100
AcDbEntity
  8
0
  6
Continuous
 62
     7
100
AcDbLine
 10
325.3283264033
 20
401.8044246415
 30
0.0
 11
325.3283264033
 21
372.8044246415
 31
0.0
  0
LINE
  5
DE
330
1F
100
AcDbEntity
  8
0
  6
Continuous
 62
     7
100
AcDbLine
 10
323.1426013578
 20
384.7044246415
 30
0.0
 11
321.9363935718
 21
384.196645257
 31
0.0
  0
LINE
  5
DF
330
1F
100
AcDbEntity
  8
0
  6
Continuous
 62
     7
100
AcDbLine
 10
321.9363935718
 20
390.412204026
 30
0.0
 11
323.1426013578
 21
389.9044246415
 31
0.0
  0
ARC
  5
E0
330
1F
100
AcDbEntity
  8
0
  6
Continuous
 62
     7
100
AcDbCircle
 10
239.4283264033
 20
66.3044246415
 30
0.0
 40
300.0
100
AcDbArc
 50
90.0
 51
98.58668464225184
  0
ARC
  5
E1
330
1F
100
AcDbEntity
  8
0
  6
Continuous
 62
     7
100
AcDbCircle
 10
239.4283264033
 20
708.3044246415
 30
0.0
 40
300.0000000000396
100
AcDbArc
 50
261.413315357751
 51
270.0
  0
ARC
  5
E2
330
1F
100
AcDbEntity
  8
0
  6
Continuous
 62
     7
100
AcDbCircle
 10
-77.4630497751
 20
463.2551186193
 30
0.0
 40
275.6240984704152
100
AcDbArc
 50
335.459299317832
 51
336.1325788932999
  0
ARC
  5
E3
330
1F
100
AcDbEntity
  8
0
  6
Continuous
 62
     7
100
AcDbCircle
 10
430.4697025812
 20
463.255118619
 30
0.0
 40
275.6240984697998
100
AcDbArc
 50
203.8674211067001
 51
204.5407006821631
  0
ARC
  5
E4
330
1F
100
AcDbEntity
  8
0
  6
Continuous
 62
     7
100
AcDbCircle
 10
291.6824176733
 20
387.3044246415
 30
0.0
 40
31.56743824675168
100
AcDbArc
 50
355.2755757623104
 51
4.72442423768947
  0
ARC
  5
E5
330
1F
100
AcDbEntity
  8
RUNDUNGEN
  6
Continuous
 62
     7
100
AcDbCircle
 10
196.4283264033
 20
351.0762631368
 30
0.0
 40
11.99999999995251
100
AcDbArc
 50
98.58668464197524
 51
180.0
  0
ARC
  5
E6
330
1F
100
AcDbEntity
  8
RUNDUNGEN
  6
Continuous
 62
     7
100
AcDbCircle
 10
196.4283264033
 20
423.5325861462
 30
0.0
 40
12.0
100
AcDbArc
 50
180.0
 51
261.413315358096
  0
ARC
  5
E7
330
1F
100
AcDbEntity
  8
RUNDUNGEN
  6
Continuous
 62
     7
100
AcDbCircle
 10
291.5856857162
 20
405.3044246415
 30
0.0
 40
3.00000000005706
100
AcDbArc
 50
44.99999999999923
 51
90.0
  0
ARC
  5
E8
330
1F
100
AcDbEntity
  8
RUNDUNGEN
  6
Continuous
 62
     7
100
AcDbCircle
 10
291.5856857162
 20
369.3044246415
 30
0.0
 40
3.0
100
AcDbArc
 50
270.0
 51
315.0
  0
ARC
  5
E9
330
1F
100
AcDbEntity
  8
0
  6
Continuous
 62
     7
100
AcDbCircle
 10
65.8283264033
 20
369.1429776403
 30
0.0
 40
2.25
100
AcDbArc
 50
180.0
 51
261.7021731726453
  0
ARC
  5
EA
330
1F
100
AcDbEntity
  8
0
  6
Continuous
 62
     7
100
AcDbCircle
 10
65.8283264033
 20
405.4658716427
 30
0.0
 40
2.249999999996176
100
AcDbArc
 50
98.29782682735467
 51
180.0
  0
ARC
  5
EB
330
1F
100
AcDbEntity
  8
RUNDUNGEN
  6
Continuous
 62
     7
100
AcDbCircle
 10
320.8538618171
 20
407.0544246415
 30
0.0
 40
1.249999999973569
100
AcDbArc
 50
30.00000000069947
 51
90.0
  0
ARC
  5
EC
330
1F
100
AcDbEntity
  8
RUNDUNGEN
  6
Continuous
 62
     7
100
AcDbCircle
 10
320.8538618171
 20
367.5544246415
 30
0.0
 40
1.25
100
AcDbArc
 50
270.0
 51
329.9999999993005
  0
ARC
  5
ED
330
1F
100
AcDbEntity
  8
RUNDUNGEN
  6
Continuous
 62
     7
100
AcDbCircle
 10
306.5783264033
 20
407.0544246415
 30
0.0
 40
1.25
100
AcDbArc
 50
90.0
 51
180.0
  0
ARC
  5
EE
330
1F
100
AcDbEntity
  8
RUNDUNGEN
  6
Continuous
 62
     7
100
AcDbCircle
 10
306.5783264033
 20
367.5544246415
 30
0.0
 40
1.25
100
AcDbArc
 50
180.0
 51
270.0
  0
ARC
  5
EF
330
1F
100
AcDbEntity
  8
RUNDUNGEN
  6
Continuous
 62
     7
100
AcDbCircle
 10
298.2425399657
 20
404.3044246415
 30
0.0
 40
1.00000000001906
100
AcDbArc
 50
225.0
 51
270.0
  0
ARC
  5
F0
330
1F
100
AcDbEntity
  8
RUNDUNGEN
  6
Continuous
 62
     7
100
AcDbCircle
 10
298.2425399657
 20
370.3044246415
 30
0.0
 40
1.0
100
AcDbArc
 50
90.0
 51
135.0000000000023
  0
ARC
  5
F1
330
1F
100
AcDbEntity
  8
0
  6
Continuous
 62
     7
100
AcDbCircle
 10
167.5283264033
 20
351.7294246415
 30
0.0
 40
1.0
100
AcDbArc
 50
0.0
 51
90.0
  0
ARC
  5
F2
330
1F
100
AcDbEntity
  8
0
  6
Continuous
 62
     7
100
AcDbCircle
 10
169.5283264033
 20
339.5669246415
 30
0.0
 40
1.0
100
AcDbArc
 50
180.0
 51
270.0
  0
ARC
  5
F3
330
1F
100
AcDbEntity
  8
0
  6
Continuous
 62
     7
100
AcDbCircle
 10
183.4283264033
 20
339.5669246415
 30
0.0
 40
1.0
100
AcDbArc
 50
270.0
 51
0.0
  0
ARC
  5
F4
330
1F
100
AcDbEntity
  8
0
  6
Continuous
 62
     7
100
AcDbCircle
 10
167.5283264033
 20
422.8794246415
 30
0.0
 40
1.0
100
AcDbArc
 50
270.0
 51
0.0
  0
ARC
  5
F5
330
1F
100
AcDbEntity
  8
0
  6
Continuous
 62
     7
100
AcDbCircle
 10
183.4283264033
 20
435.0419246415
 30
0.0
 40
1.0
100
AcDbArc
 50
0.0
 51
90.0
  0
ARC
  5
F6
330
1F
100
AcDbEntity
  8
0
  6
Continuous
 62
     7
100
AcDbCircle
 10
169.5283264033
 20
435.0419246415
 30
0.0
 40
1.0
100
AcDbArc
 50
90.0
 51
180.0
  0
ARC
  5
F7
330
1F
100
AcDbEntity
  8
0
  6
Continuous
 62
     7
100
AcDbCircle
 10
177.6658264033
 20
341.0544246415
 30
0.0
 40
0.75
100
AcDbArc
 50
0.0
 51
90.0
  0
ARC
  5
F8
330
1F
100
AcDbEntity
  8
0
  6
Continuous
 62
     7
100
AcDbCircle
 10
175.3408264033
 20
341.0544246415
 30
0.0
 40
0.75
100
AcDbArc
 50
90.0
 51
180.0
  0
ARC
  5
F9
330
1F
100
AcDbEntity
  8
0
  6
Continuous
 62
     7
100
AcDbCircle
 10
177.6658264033
 20
433.5544246415
 30
0.0
 40
0.75
100
AcDbArc
 50
270.0
 51
0.0
  0
ARC
  5
FA
330
1F
100
AcDbEntity
  8
0
  6
Continuous
 62
     7
100
AcDbCircle
 10
175.3408264033
 20
433.5544246415
 30
0.0
 40
0.75
100
AcDbArc
 50
180.0
 51
270.0
  0
SPLINE
  5
FB
330
1F
100
AcDbEntity
  8
0
  6
Continuous
 62
     7
100
AcDbSpline
210
0.0
220
0.0
230
1.0
 70
     8
 71
     3
 72
     9
 73
     5
 74
     3
 42
0.0000000001
 43
0.0000000001
 44
0.00000001
 40
0.0
 40
0.0
 40
0.0
 40
0.0
 40
0.9662538680225834
 40
1.932507732813666
 40
1.932507732813666
 40
1.932507732813666
 40
1.932507732813666
 10
321.9363935718
 20
371.4195142253
 30
0.0
 10
322.137474756182
 20
371.6711188028083
 30
0.0
 10
322.5396371242734
 20
372.1743279569835
 30
0.0
 10
322.9416132801819
 20
372.6776858746084
 30
0.0
 10
323.1426013578
 20
372.929364833
 30
0.0
 11
321.9363935718
 21
371.4195142253
 31
0.0
 11
322.5395905719
 21
372.1743651486875
 31
0.0
 11
323.1426013578
 21
372.929364833
 31
0.0
  0
SPLINE
  5
FC
330
1F
100
AcDbEntity
  8
0
  6
Continuous
 62
     7
100
AcDbSpline
210
0.0
220
0.0
230
1.0
 70
     8
 71
     3
 72
     9
 73
     5
 74
     3
 42
0.0000000001
 43
0.0000000001
 44
0.00000001
 40
0.0
 40
0.0
 40
0.0
 40
0.0
 40
0.9662538647911263
 40
1.932507732813666
 40
1.932507732813666
 40
1.932507732813666
 40
1.932507732813666
 10
323.1426013578
 20
401.67948445
 30
0.0
 10
322.9416132801819
 20
401.9311634083916
 30
0.0
 10
322.5396371242736
 20
402.4345213260167
 30
0.0
 10
322.137474756182
 20
402.9377304801917
 30
0.0
 10
321.9363935718
 20
403.1893350577
 30
0.0
 11
323.1426013578
 21
401.67948445
 31
0.0
 11
322.5395905719
 21
402.4344841343126
 31
0.0
 11
321.9363935718
 21
403.1893350577
 31
0.0
  0
SPLINE
  5
FD
330
1F
100
AcDbEntity
  8
0
  6
Continuous
 62
     7
100
AcDbSpline
210
0.0
220
0.0
230
1.0
 70
     8
 71
     3
 72
    11
 73
     7
 74
     5
 42
0.0000000001
 43
0.0000000001
 44
0.00000001
 40
0.0
 40
0.0
 40
0.0
 40
0.0
 40
0.3191836448575013
 40
0.6402502089773965
 40
0.9261233346105011
 40
1.208476691937742
 40
1.208476691937742
 40
1.208476691937742
 40
1.208476691937742
 10
320.8538618171
 20
370.9681060419
 30
0.0
 10
320.9605139197086
 20
370.973493586284
 30
0.0
 10
321.1744472840372
 20
370.9843004571036
 30
0.0
 10
321.4715652758097
 20
371.0763551877399
 30
0.0
 10
321.7384864354537
 20
371.2139629122719
 30
0.0
 10
321.8706975116071
 20
371.3512806502874
 30
0.0
 10
321.9363935718
 20
371.4195142253
 30
0.0
 11
320.8538618171
 21
370.9681060419
 31
0.0
 11
321.1716984198693
 21
370.9973992678162
 31
0.0
 11
321.4793455064089
 21
371.0892524590478
 31
0.0
 11
321.7298382725168
 21
371.2270088312665
 31
0.0
 11
321.9363935718
 21
371.4195142253
 31
0.0
  0
SPLINE
  5
FE
330
1F
100
AcDbEntity
  8
0
  6
Continuous
 62
     7
100
AcDbSpline
210
0.0
220
0.0
230
1.0
 70
     8
 71
     3
 72
    11
 73
     7
 74
     5
 42
0.0000000001
 43
0.0000000001
 44
0.00000001
 40
0.0
 40
0.0
 40
0.0
 40
0.0
 40
0.2823536204080661
 40
0.5682270165516761
 40
0.889293313988372
 40
1.208476690917568
 40
1.208476690917568
 40
1.208476690917568
 40
1.208476690917568
 10
321.9363935718
 20
403.1893350577
 30
0.0
 10
321.8706974439718
 20
403.2575686912558
 30
0.0
 10
321.7384862307388
 20
403.39488654809
 30
0.0
 10
321.4715649388472
 20
403.532494228391
 30
0.0
 10
321.1744470152705
 20
403.6245488536146
 30
0.0
 10
320.9605138299814
 20
403.6353557059531
 30
0.0
 10
320.8538618171
 20
403.6407432411
 30
0.0
 11
321.9363935718
 21
403.1893350577
 31
0.0
 11
321.7298380558256
 21
403.3818406050956
 31
0.0
 11
321.4793450105116
 21
403.5195970309785
 31
0.0
 11
321.1716981554176
 21
403.6114500652259
 31
0.0
 11
320.8538618171
 21
403.6407432411
 31
0.0
  0
SPLINE
  5
FF
330
1F
100
AcDbEntity
  8
0
  6
Continuous
 62
     7
100
AcDbSpline
210
0.0
220
0.0
230
1.0
 70
     8
 71
     3
 72
    11
 73
     7
 74
     5
 42
0.0000000001
 43
0.0000000001
 44
0.00000001
 40
0.0
 40
0.0
 40
0.0
 40
0.0
 40
0.652524950510935
 40
1.305495242843203
 40
1.958465532818477
 40
2.610990481002781
 40
2.610990481002781
 40
2.610990481002781
 40
2.610990481002781
 10
323.1426013578
 20
372.929364833
 30
0.0
 10
323.1730202876031
 20
372.7138625061763
 30
0.0
 10
323.2338789078277
 20
372.2827107743232
 30
0.0
 10
323.2578471513855
 20
371.6293648314395
 30
0.0
 10
323.2338789075129
 20
370.9760188893567
 30
0.0
 10
323.1730202874986
 20
370.5448671590538
 30
0.0
 10
323.1426013578
 20
370.329364833
 30
0.0
 11
323.1426013578
 21
372.929364833
 31
0.0
 11
323.222645399128
 21
372.2817679194132
 31
0.0
 11
323.249855920075
 21
371.6293648306573
 31
0.0
 11
323.2226453989095
 21
370.9769617442695
 31
0.0
 11
323.1426013578
 21
370.329364833
 31
0.0
  0
SPLINE
  5
100
330
1F
100
AcDbEntity
  8
0
  6
Continuous
 62
     7
100
AcDbSpline
210
0.0
220
0.0
230
1.0
 70
     8
 71
     3
 72
    15
 73
    11
 74
     9
 42
0.0000000001
 43
0.0000000001
 44
0.00000001
 40
0.0
 40
0.0
 40
0.0
 40
0.0
 40
0.1595838697354229
 40
0.3194675130351702
 40
0.4808668842869438
 40
0.6421836149166997
 40
0.8048995798690775
 40
0.9677041984959737
 40
1.13141120560047
 40
1.29484385621784
 40
1.29484385621784
 40
1.29484385621784
 40
1.29484385621784
 10
321.9363935718
 20
368.3117348408
 30
0.0
 10
321.9072900312577
 20
368.2671160360379
 30
0.0
 10
321.8490282800356
 20
368.1777946114129
 30
0.0
 10
321.7399303736319
 20
368.0594097775034
 30
0.0
 10
321.6170461241665
 20
367.955039950577
 30
0.0
 10
321.4806160152173
 20
367.8671612711846
 30
0.0
 10
321.3337022804083
 20
367.7971386522215
 30
0.0
 10
321.178317092111
 20
367.746515706459
 30
0.0
 10
321.0174907042428
 20
367.7145256854743
 30
0.0
 10
320.9083742758929
 20
367.7105161841653
 30
0.0
 10
320.8538618171
 20
367.7085131148
 30
0.0
 11
321.9363935718
 21
368.3117348408
 31
0.0
 11
321.8455350530954
 21
368.1805413155843
 31
0.0
 11
321.7380661649131
 21
368.0621638791039
 31
0.0
 11
321.6148925244027
 21
367.9578661738373
 31
0.0
 11
321.4793450105863
 21
367.8704021293432
 31
0.0
 11
321.3324405459954
 21
367.8004338255647
 31
0.0
 11
321.1777398824627
 21
367.7497085996037
 31
0.0
 11
321.0169670740223
 21
367.7188526724374
 31
0.0
 11
320.8538618171
 21
367.7085131148
 31
0.0
  0
SPLINE
  5
101
330
1F
100
AcDbEntity
  8
0
  6
Continuous
 62
     7
100
AcDbSpline
210
0.0
220
0.0
230
1.0
 70
     8
 71
     3
 72
    13
 73
     9
 74
     7
 42
0.0000000001
 43
0.0000000001
 44
0.00000001
 40
0.0
 40
0.0
 40
0.0
 40
0.0
 40
0.1040133930617357
 40
0.2082044461838956
 40
0.3398684106970854
 40
0.4714656349881605
 40
0.7850253128024904
 40
1.098658437891391
 40
1.098658437891391
 40
1.098658437891391
 40
1.098658437891391
 10
321.9363935718
 20
384.196645257
 30
0.0
 10
321.9039875452698
 20
384.1842471488298
 30
0.0
 10
321.8391201411009
 20
384.1594297559027
 30
0.0
 10
321.7293367685446
 20
384.1308280544773
 30
0.0
 10
321.609487121214
 20
384.1054565497972
 30
0.0
 10
321.4195301607054
 20
384.0753616651448
 30
0.0
 10
321.1675315137666
 20
384.0498005677809
 30
0.0
 10
320.9584265450525
 20
384.0464881281611
 30
0.0
 10
320.8538618171
 20
384.0448317144
 30
0.0
 11
321.9363935718
 21
384.196645257
 31
0.0
 11
321.8385799519705
 21
384.1612717964389
 31
0.0
 11
321.7380661649201
 21
384.1338354307268
 31
0.0
 11
321.6092577189837
 21
384.1065630306347
 31
0.0
 11
321.4793450105491
 21
384.0855745188173
 31
0.0
 11
321.1673533193109
 21
384.054255895774
 31
0.0
 11
320.8538618171
 21
384.0448317144
 31
0.0
  0
SPLINE
  5
102
330
1F
100
AcDbEntity
  8
0
  6
Continuous
 62
     7
100
AcDbSpline
210
0.0
220
0.0
230
1.0
 70
     8
 71
     3
 72
     9
 73
     5
 74
     3
 42
0.0000000001
 43
0.0000000001
 44
0.00000001
 40
0.0
 40
0.0
 40
0.0
 40
0.0
 40
1.175347614787377
 40
2.35069523268939
 40
2.35069523268939
 40
2.35069523268939
 40
2.35069523268939
 10
323.1426013578
 20
370.329364833
 30
0.0
 10
322.941622910723
 20
369.9930595795793
 30
0.0
 10
322.5396660160366
 20
369.3204490718468
 30
0.0
 10
322.1374843867231
 20
368.6479729181126
 30
0.0
 10
321.9363935718
 20
368.3117348408
 30
0.0
 11
323.1426013578
 21
370.329364833
 31
0.0
 11
322.5396098329126
 21
369.3204826612375
 31
0.0
 11
321.9363935718
 21
368.3117348408
 31
0.0
  0
SPLINE
  5
103
330
1F
100
AcDbEntity
  8
0
  6
Continuous
 62
     7
100
AcDbSpline
210
0.0
220
0.0
230
1.0
 70
     8
 71
     3
 72
    13
 73
     9
 74
     7
 42
0.0000000001
 43
0.0000000001
 44
0.00000001
 40
0.0
 40
0.0
 40
0.0
 40
0.0
 40
0.313633375386945
 40
0.6271933033236695
 40
0.7587904132508902
 40
0.8904542629898573
 40
0.9946451800949749
 40
1.098658437831121
 40
1.098658437831121
 40
1.098658437831121
 40
1.098658437831121
 10
320.8538618171
 20
390.5640175686
 30
0.0
 10
320.9584266285324
 20
390.5623611524666
 30
0.0
 10
321.1675317641478
 20
390.5590487081037
 30
0.0
 10
321.4195305378456
 20
390.533487574586
 30
0.0
 10
321.609487501043
 20
390.5033926627316
 30
0.0
 10
321.7293370259791
 20
390.4780211671728
 30
0.0
 10
321.839120269391
 20
390.4494194823478
 30
0.0
 10
321.9039875879612
 20
390.4246021192805
 30
0.0
 10
321.9363935718
 20
390.412204026
 30
0.0
 11
320.8538618171
 21
390.5640175686
 31
0.0
 11
321.1673535692731
 21
390.5545933722938
 31
0.0
 11
321.4793455064005
 21
390.5232746945566
 31
0.0
 11
321.60925809902
 21
390.5022861829354
 31
0.0
 11
321.7380664288969
 21
390.4750137887902
 31
0.0
 11
321.8385800812292
 21
390.4475774460671
 31
0.0
 11
321.9363935718
 21
390.412204026
 31
0.0
  0
SPLINE
  5
104
330
1F
100
AcDbEntity
  8
0
  6
Continuous
 62
     7
100
AcDbSpline
210
0.0
220
0.0
230
1.0
 70
     8
 71
     3
 72
    11
 73
     7
 74
     5
 42
0.0000000001
 43
0.0000000001
 44
0.00000001
 40
0.0
 40
0.0
 40
0.0
 40
0.0
 40
0.6525249505108786
 40
1.30549524284309
 40
1.958465532818421
 40
2.610990481002724
 40
2.610990481002724
 40
2.610990481002724
 40
2.610990481002724
 10
323.1426013578
 20
404.27948445
 30
0.0
 10
323.1730202876031
 20
404.0639821231762
 30
0.0
 10
323.2338789078277
 20
403.6328303913232
 30
0.0
 10
323.2578471513855
 20
402.9794844484395
 30
0.0
 10
323.2338789075129
 20
402.3261385063567
 30
0.0
 10
323.1730202874986
 20
401.8949867760538
 30
0.0
 10
323.1426013578
 20
401.67948445
 30
0.0
 11
323.1426013578
 21
404.27948445
 31
0.0
 11
323.222645399128
 21
403.6318875364132
 31
0.0
 11
323.249855920075
 21
402.9794844476573
 31
0.0
 11
323.2226453989095
 21
402.3270813612695
 31
0.0
 11
323.1426013578
 21
401.67948445
 31
0.0
  0
SPLINE
  5
105
330
1F
100
AcDbEntity
  8
0
  6
Continuous
 62
     7
100
AcDbSpline
210
0.0
220
0.0
230
1.0
 70
     8
 71
     3
 72
    15
 73
    11
 74
     9
 42
0.0000000001
 43
0.0000000001
 44
0.00000001
 40
0.0
 40
0.0
 40
0.0
 40
0.0
 40
0.1634328331419101
 40
0.3271400237197467
 40
0.4899447426702256
 40
0.652660807260613
 40
0.8139774373455557
 40
0.9753767073580831
 40
1.135260168024019
 40
1.294843856216974
 40
1.294843856216974
 40
1.294843856216974
 40
1.294843856216974
 10
320.8538618171
 20
406.9003361682
 30
0.0
 10
320.9083743368457
 20
406.8983330940673
 30
0.0
 10
321.0174908874175
 20
406.8943235832077
 30
0.0
 10
321.178317422503
 20
406.8623334944918
 30
0.0
 10
321.3337027165929
 20
406.81171045924
 30
0.0
 10
321.4806164542326
 20
406.7416877672087
 30
0.0
 10
321.6170464984648
 20
406.653809051698
 30
0.0
 10
321.7399306153948
 20
406.5494392674091
 30
0.0
 10
321.8490283865156
 20
406.431054522908
 30
0.0
 10
321.9072900666831
 20
406.3417331975032
 30
0.0
 10
321.9363935718
 20
406.2971144422
 30
0.0
 11
320.8538618171
 21
406.9003361682
 31
0.0
 11
321.0169672553868
 21
406.8899965864836
 31
0.0
 11
321.1777402372375
 21
406.8591405894373
 31
0.0
 11
321.3324409797146
 21
406.808415282247
 31
0.0
 11
321.4793455063536
 21
406.7384468770289
 31
0.0
 11
321.6148929004177
 21
406.6509828323912
 31
0.0
 11
321.7380664289427
 21
406.5466851515383
 31
0.0
 11
321.8455351671643
 21
406.4283078255862
 31
0.0
 11
321.9363935718
 21
406.2971144422
 31
0.0
  0
SPLINE
  5
106
330
1F
100
AcDbEntity
  8
0
  6
Continuous
 62
     7
100
AcDbSpline
210
0.0
220
0.0
230
1.0
 70
     8
 71
     3
 72
     9
 73
     5
 74
     3
 42
0.0000000001
 43
0.0000000001
 44
0.00000001
 40
0.0
 40
0.0
 40
0.0
 40
0.0
 40
1.175347617934212
 40
2.350695232689386
 40
2.350695232689386
 40
2.350695232689386
 40
2.350695232689386
 10
321.9363935718
 20
406.2971144422
 30
0.0
 10
322.1374843867204
 20
405.9608763648732
 30
0.0
 10
322.5396660160172
 20
405.2884002111292
 30
0.0
 10
322.9416229107203
 20
404.6157897034065
 30
0.0
 10
323.1426013578
 20
404.27948445
 30
0.0
 11
321.9363935718
 21
406.2971144422
 31
0.0
 11
322.5396098329126
 21
405.288366621725
 31
0.0
 11
323.1426013578
 21
404.27948445
 31
0.0
  0
SPLINE
  5
107
330
1F
100
AcDbEntity
  8
0
  6
Continuous
 62
     7
100
AcDbSpline
210
0.0
220
0.0
230
1.0
 70
     8
 71
     3
 72
    17
 73
    13
 74
    11
 42
0.0000000001
 43
0.0000000001
 44
0.00000001
 40
0.0
 40
0.0
 40
0.0
 40
0.0
 40
0.2235602340969104
 40
0.447566631628102
 40
0.671265554830089
 40
0.8950713345833818
 40
1.119203328780325
 40
1.342351511418692
 40
1.454388474281344
 40
1.566418982967094
 40
1.678554291441102
 40
1.790469539397606
 40
1.790469539397606
 40
1.790469539397606
 40
1.790469539397606
 10
184.4283264033
 20
350.0506140143
 30
0.0
 10
184.4253863911442
 20
349.9760339529696
 30
0.0
 10
184.4195004993942
 20
349.8267249894544
 30
0.0
 10
184.3715428360698
 20
349.6070344709597
 30
0.0
 10
184.2942000468121
 20
349.3962102865257
 30
0.0
 10
184.1825429114805
 20
349.2007665261535
 30
0.0
 10
184.0372391850518
 20
349.0289557954595
 30
0.0
 10
183.8887303979902
 20
348.9133679435134
 30
0.0
 10
183.7559847750401
 20
348.8446726958259
 30
0.0
 10
183.6502971425473
 20
348.8066253440605
 30
0.0
 10
183.5403994687182
 20
348.7822225965681
 30
0.0
 10
183.4656596221626
 20
348.7790949439382
 30
0.0
 10
183.4283264033
 20
348.7775326536
 30
0.0
 11
184.4283264033
 21
350.0506140143
 31
0.0
 11
184.4129968885686
 21
349.8275799715003
 31
0.0
 11
184.3666192042768
 21
349.6084271103859
 31
0.0
 11
184.2885016670975
 21
349.3988111314464
 31
0.0
 11
184.1769754388692
 21
349.2047726624044
 31
0.0
 11
184.03152311134
 21
349.0342476752646
 31
0.0
 11
183.8545771240536
 21
348.8982872803032
 31
0.0
 11
183.7550008305333
 21
348.8469370824824
 31
0.0
 11
183.6496223455253
 21
348.8089080176264
 31
0.0
 11
183.5399578165998
 21
348.7854982226232
 31
0.0
 11
183.4283264033
 21
348.7775326536
 31
0.0
  0
SPLINE
  5
108
330
1F
100
AcDbEntity
  8
0
  6
Continuous
 62
     7
100
AcDbSpline
210
0.0
220
0.0
230
1.0
 70
     8
 71
     3
 72
    17
 73
    13
 74
    11
 42
0.0000000001
 43
0.0000000001
 44
0.00000001
 40
0.0
 40
0.0
 40
0.0
 40
0.0
 40
0.0856061207782569
 40
0.1714040658185549
 40
0.2570770785295139
 40
0.3427486324290224
 40
0.5133560119373002
 40
0.6847864607561955
 40
0.8559332498429225
 40
1.026944760364507
 40
1.198166489420866
 40
1.369069305167927
 40
1.369069305167927
 40
1.369069305167927
 40
1.369069305167927
 10
175.3408264033
 20
352.96454258
 30
0.0
 10
175.3122670759235
 20
352.963261444091
 30
0.0
 10
175.2550844260747
 20
352.9606963015326
 30
0.0
 10
175.1712420804613
 20
352.9408237452388
 30
0.0
 10
175.0910303546142
 20
352.9100020342615
 30
0.0
 10
174.9909147656483
 20
352.8548448470438
 30
0.0
 10
174.8799051933468
 20
352.7632452616994
 30
0.0
 10
174.77239184546
 20
352.6289709118786
 30
0.0
 10
174.6899707677277
 20
352.4779523053422
 30
0.0
 10
174.6329439923514
 20
352.3160687633646
 30
0.0
 10
174.5974084174286
 20
352.1479526922504
 30
0.0
 10
174.5930190441499
 20
352.0338254641053
 30
0.0
 10
174.5908264033
 20
351.9768150422
 30
0.0
 11
175.3408264033
 21
352.96454258
 31
0.0
 11
175.2554680652845
 21
352.9580339667885
 31
0.0
 11
175.1718110341792
 21
352.9389869586303
 31
0.0
 11
175.0918505739329
 21
352.9082267586282
 31
0.0
 11
175.0167337507902
 21
352.8670311517204
 31
0.0
 11
174.8843773209833
 21
352.7593805435872
 31
0.0
 11
174.7765377938395
 21
352.6261175135764
 31
0.0
 11
174.6941780273983
 21
352.4760905417132
 31
0.0
 11
174.6365417888329
 21
352.3150843283706
 31
0.0
 11
174.6022211715708
 21
352.1473375676514
 31
0.0
 11
174.5908264033
 21
351.9768150422
 31
0.0
  0
SPLINE
  5
109
330
1F
100
AcDbEntity
  8
0
  6
Continuous
 62
     7
100
AcDbSpline
210
0.0
220
0.0
230
1.0
 70
     8
 71
     3
 72
    17
 73
    13
 74
    11
 42
0.0000000001
 43
0.0000000001
 44
0.00000001
 40
0.0
 40
0.0
 40
0.0
 40
0.0
 40
0.170902112912184
 40
0.3421231434978341
 40
0.5131353763840786
 40
0.6842828841296456
 40
0.8557140430166675
 40
1.026322127398891
 40
1.111993247384528
 40
1.197665821289357
 40
1.283463468635724
 40
1.369069297522732
 40
1.369069297522732
 40
1.369069297522732
 40
1.369069297522732
 10
178.4158264033
 20
351.9768150422
 30
0.0
 10
178.4136337751937
 20
352.033825229382
 30
0.0
 10
178.4092444273534
 20
352.1479519895361
 30
0.0
 10
178.373709018414
 20
352.3160678539267
 30
0.0
 10
178.3166823385875
 20
352.4779516961476
 30
0.0
 10
178.2342609849135
 20
352.6289709831608
 30
0.0
 10
178.126747105746
 20
352.7632458369402
 30
0.0
 10
178.0157371355367
 20
352.8548454768666
 30
0.0
 10
177.9156215105255
 20
352.9100024747135
 30
0.0
 10
177.8354101152338
 20
352.9408239545126
 30
0.0
 10
177.7515680860183
 20
352.9606963406067
 30
0.0
 10
177.6943856331529
 20
352.9632614570804
 30
0.0
 10
177.6658264033
 20
352.96454258
 30
0.0
 11
178.4158264033
 21
351.9768150422
 31
0.0
 11
178.4044317110803
 21
352.147336868331
 31
0.0
 11
178.3701113597074
 21
352.3150829705106
 31
0.0
 11
178.3124750424572
 21
352.4760899229399
 31
0.0
 11
178.2301149918224
 21
352.6261175586174
 31
0.0
 11
178.1222749443816
 21
352.759381081028
 31
0.0
 11
177.9899178089319
 21
352.867031938675
 31
0.0
 11
177.9148012988257
 21
352.9082272139995
 31
0.0
 11
177.8348412117527
 21
352.9389871618986
 31
0.0
 11
177.751184453057
 21
352.9580340255434
 31
0.0
 11
177.6658264033
 21
352.96454258
 31
0.0
  0
SPLINE
  5
10A
330
1F
100
AcDbEntity
  8
0
  6
Continuous
 62
     7
100
AcDbSpline
210
0.0
220
0.0
230
1.0
 70
     8
 71
     3
 72
    17
 73
    13
 74
    11
 42
0.0000000001
 43
0.0000000001
 44
0.00000001
 40
0.0
 40
0.0
 40
0.0
 40
0.0
 40
0.111915447666157
 40
0.2240509586530723
 40
0.3360819825981237
 40
0.4481194617026102
 40
0.6712673498095354
 40
0.8953990333267771
 40
1.11920450749061
 40
1.342903129543715
 40
1.5669093902837
 40
1.790469488977719
 40
1.790469488977719
 40
1.790469488977719
 40
1.790469488977719
 10
169.5283264033
 20
348.7775326536
 30
0.0
 10
169.4909931176769
 20
348.7790949531015
 30
0.0
 10
169.4162531366648
 20
348.7822226241095
 30
0.0
 10
169.3063551772758
 20
348.8066255152399
 30
0.0
 10
169.2006671952033
 20
348.844673119258
 30
0.0
 10
169.0679214549589
 20
348.9133686817152
 30
0.0
 10
168.9194128403325
 20
349.0289566864972
 30
0.0
 10
168.7741094345263
 20
349.2007672829928
 30
0.0
 10
168.6624525385237
 20
349.3962108220883
 30
0.0
 10
168.5851098805035
 20
349.607034788083
 30
0.0
 10
168.537152292383
 20
349.826725125649
 30
0.0
 10
168.531266410523
 20
349.9760339982134
 30
0.0
 10
168.5283264033
 20
350.0506140143
 30
0.0
 11
169.5283264033
 21
348.7775326536
 31
0.0
 11
169.4166947928463
 21
348.7854982655552
 31
0.0
 11
169.3070300808448
 21
348.808908172986
 31
0.0
 11
169.2016511508499
 21
348.8469375226954
 31
0.0
 11
169.1020744745263
 21
348.8982881045464
 31
0.0
 11
168.92512889333
 21
349.0342485446077
 31
0.0
 11
168.7796768942972
 21
349.204773403598
 31
0.0
 11
168.668150904264
 21
349.398811657076
 31
0.0
 11
168.5900335209378
 21
349.6084273719705
 31
0.0
 11
168.5436558951849
 21
349.8275801056524
 31
0.0
 11
168.5283264033
 21
350.0506140143
 31
0.0
  0
DIMENSION
  5
115
330
1F
100
AcDbEntity
  8
1
100
AcDbDimension
  2
*D2
 10
338.483552509915
 20
399.8044246415
 30
0.0
 11
334.733552509915
 21
387.3044246415
 31
0.0
 70
    32
  1
<>
 71
     5
 42
-1.0
 53
90.0
  3
ME10_DIM_10
100
AcDbAlignedDimension
 13
313.3283264033
 23
374.8044246415
 33
0.0
 14
313.3283264033
 24
399.8044246415
 34
0.0
 50
90.0
100
AcDbRotatedDimension
  0
DIMENSION
  5
120
330
1F
100
AcDbEntity
  8
1
100
AcDbDimension
  2
*D3
 10
347.014334922464
 20
408.3044246415
 30
0.0
 11
343.264334922464
 21
388.218437042844
 31
0.0
 70
    32
  1
<>
 71
     5
 42
-1.0
 53
90.0
  3
ME10_DIM_11
100
AcDbAlignedDimension
 13
291.5856857162
 23
366.3044246415
 33
0.0
 14
291.5856857162
 24
408.3044246415
 34
0.0
 50
90.0
100
AcDbRotatedDimension
  0
DIMENSION
  5
12B
330
1F
100
AcDbEntity
  8
1
100
AcDbDimension
  2
*D4
 10
313.3283264033001
 20
443.668522724411
 30
0.0
 11
245.5852357551667
 21
447.418522724411
 31
0.0
 70
    32
  1
<>
 71
     5
 42
-1.0
 53
0.00013888888889
  3
ME10_DIM_12
100
AcDbAlignedDimension
 13
184.4283264033
 23
435.0419246415
 33
0.0
 14
313.3283264033
 24
403.3042371664
 34
0.0
100
AcDbRotatedDimension
  0
DIMENSION
  5
136
330
1F
100
AcDbEntity
  8
1
100
AcDbDimension
  2
*D5
 10
165.3283264033
 20
451.285292735615
 30
0.0
 11
236.875840560451
 21
455.035292735615
 31
0.0
 70
    32
  1
<>
 71
     5
 42
-1.0
 53
0.00013888888889
  3
ME10_DIM_13
100
AcDbAlignedDimension
 13
313.3283264033
 23
403.3044246415
 33
0.0
 14
165.3283264033
 24
427.3419246415
 34
0.0
100
AcDbRotatedDimension
  0
DIMENSION
  5
141
330
1F
100
AcDbEntity
  8
1
100
AcDbDimension
  2
*D6
 10
165.3283264033
 20
458.749727346595
 30
0.0
 11
246.015964573896
 21
462.499727346595
 31
0.0
 70
    32
  1
<>
 71
     5
 42
-1.0
 53
0.00013888888889
  3
ME10_DIM_14
100
AcDbAlignedDimension
 13
325.3283264033
 23
401.8044246415
 33
0.0
 14
165.3283264033
 24
427.3419246415
 34
0.0
100
AcDbRotatedDimension
  0
DIMENSION
  5
14C
330
1F
100
AcDbEntity
  8
1
100
AcDbDimension
  2
*D7
 10
313.3283264033001
 20
465.831479041589
 30
0.0
 11
205.5126851016041
 21
469.581479041589
 31
0.0
 70
    32
  1
<>
 71
     5
 42
-1.0
 53
0.00013888888889
  3
ME10_DIM_15
100
AcDbAlignedDimension
 13
63.5783264033
 23
405.4656588415
 33
0.0
 14
313.3283264033
 24
403.3044246415
 34
0.0
100
AcDbRotatedDimension
  0
INSERT
  5
153
330
1F
100
AcDbEntity
  8
1
100
AcDbBlockReference
  2
*D8
 10
0.0
 20
0.0
 30
0.0
  0
ENDSEC
  0
SECTION
  2
OBJECTS
  0
DICTIONARY
  5
C
330
0
100
AcDbDictionary
281
     1
  3
ACAD_GROUP
350
D
  3
ACAD_LAYOUT
350
1A
  3
ACAD_MLEADERSTYLE
350
156
  3
ACAD_MLINESTYLE
350
17
  3
ACAD_PLOTSETTINGS
350
19
  3
ACAD_PLOTSTYLENAME
350
E
  3
ACAD_SCALELIST
350
4A
  3
ACAD_VISUALSTYLE
350
2A
  3
AcDbVariableDictionary
350
154
  0
DICTIONARY
  5
D
102
{ACAD_REACTORS
330
C
102
}
330
C
100
AcDbDictionary
281
     1
  0
DICTIONARY
  5
1A
102
{ACAD_REACTORS
330
C
102
}
330
C
100
AcDbDictionary
281
     1
  3
Layout1
350
1E
  3
Layout2
350
26
  3
Model
350
22
  0
DICTIONARY
  5
156
102
{ACAD_REACTORS
330
C
102
}
330
C
100
AcDbDictionary
281
     1
  0
DICTIONARY
  5
17
102
{ACAD_REACTORS
330
C
102
}
330
C
100
AcDbDictionary
281
     1
  3
Standard
350
18
  0
DICTIONARY
  5
19
102
{ACAD_REACTORS
330
C
102
}
330
C
100
AcDbDictionary
281
     1
  0
ACDBDICTIONARYWDFLT
  5
E
102
{ACAD_REACTORS
330
C
102
}
330
C
100
AcDbDictionary
281
     1
  3
Normal
350
F
100
AcDbDictionaryWithDefault
340
F
  0
DICTIONARY
  5
4A
102
{ACAD_REACTORS
330
C
102
}
330
C
100
AcDbDictionary
281
     1
  3
A0
350
4B
  3
A1
350
4C
  3
A2
350
4D
  3
A3
350
4E
  3
A4
350
4F
  3
A5
350
50
  3
A6
350
51
  3
A7
350
52
  3
A8
350
53
  3
A9
350
54
  3
B0
350
55
  3
B1
350
56
  3
B2
350
57
  3
B3
350
58
  3
B4
350
59
  3
B5
350
5A
  3
B6
350
5B
  3
B7
350
5C
  3
B8
350
5D
  3
B9
350
5E
  3
C0
350
5F
  3
C1
350
60
  3
C2
350
61
  3
C3
350
62
  3
C4
350
63
  3
C5
350
64
  3
C6
350
65
  3
C7
350
66
  3
C8
350
67
  3
C9
350
68
  3
D0
350
69
  3
D1
350
6A
  3
D2
350
6B
  0
DICTIONARY
  5
2A
102
{ACAD_REACTORS
330
C
102
}
330
C
100
AcDbDictionary
281
     1
  3
2dWireframe
350
2F
  3
3D Hidden
350
31
  3
3dWireframe
350
30
  3
Basic
350
32
  3
Brighten
350
36
  3
ColorChange
350
3A
  3
Conceptual
350
34
  3
Dim
350
35
  3
Facepattern
350
39
  3
Flat
350
2B
  3
FlatWithEdges
350
2C
  3
Gouraud
350
2D
  3
GouraudWithEdges
350
2E
  3
Linepattern
350
38
  3
Realistic
350
33
  3
Thicken
350
37
  0
DICTIONARY
  5
154
102
{ACAD_REACTORS
330
C
102
}
330
C
100
AcDbDictionary
281
     1
  3
CANNOSCALE
350
157
  0
LAYOUT
  5
1E
102
{ACAD_REACTORS
330
1A
102
}
330
1A
100
AcDbPlotSettings
  1

  2
none_device
  4

  6

 40
0.0
 41
0.0
 42
0.0
 43
0.0
 44
0.0
 45
0.0
 46
0.0
 47
0.0
 48
0.0
 49
0.0
140
0.0
141
0.0
142
1.0
143
1.0
 70
   688
 72
     0
 73
     0
 74
     5
  7

 75
    16
147
1.0
148
0.0
149
0.0
100
AcDbLayout
  1
Layout1
 70
     1
 71
     1
 10
0.0
 20
0.0
 11
12.0
 21
9.0
 12
0.0
 22
0.0
 32
0.0
 14
1.00000000000000E+20
 24
1.00000000000000E+20
 34
1.00000000000000E+20
 15
-1.00000000000000E+20
 25
-1.00000000000000E+20
 35
-1.00000000000000E+20
146
0.0
 13
0.0
 23
0.0
 33
0.0
 16
1.0
 26
0.0
 36
0.0
 17
0.0
 27
1.0
 37
0.0
 76
     0
330
1B
  0
LAYOUT
  5
26
102
{ACAD_REACTORS
330
1A
102
}
330
1A
100
AcDbPlotSettings
  1

  2
none_device
  4

  6

 40
0.0
 41
0.0
 42
0.0
 43
0.0
 44
0.0
 45
0.0
 46
0.0
 47
0.0
 48
0.0
 49
0.0
140
0.0
141
0.0
142
1.0
143
1.0
 70
   688
 72
     0
 73
     0
 74
     5
  7

 75
    16
147
1.0
148
0.0
149
0.0
100
AcDbLayout
  1
Layout2
 70
     1
 71
     2
 10
0.0
 20
0.0
 11
0.0
 21
0.0
 12
0.0
 22
0.0
 32
0.0
 14
0.0
 24
0.0
 34
0.0
 15
0.0
 25
0.0
 35
0.0
146
0.0
 13
0.0
 23
0.0
 33
0.0
 16
1.0
 26
0.0
 36
0.0
 17
0.0
 27
1.0
 37
0.0
 76
     0
330
23
  0
LAYOUT
  5
22
102
{ACAD_REACTORS
330
1A
102
}
330
1A
100
AcDbPlotSettings
  1

  2
none_device
  4

  6

 40
0.0
 41
0.0
 42
0.0
 43
0.0
 44
0.0
 45
0.0
 46
0.0
 47
0.0
 48
0.0
 49
0.0
140
0.0
141
0.0
142
1.0
143
1.0
 70
  1712
 72
     0
 73
     0
 74
     0
  7

 75
     0
147
1.0
148
0.0
149
0.0
100
AcDbLayout
  1
Model
 70
     1
 71
     0
 10
0.0
 20
0.0
 11
12.0
 21
9.0
 12
0.0
 22
0.0
 32
0.0
 14
41.1671980160782
 24
338.5669246415
 34
0.0
 15
349.014334922464
 25
471.331479041589
 35
0.0
146
0.0
 13
0.0
 23
0.0
 33
0.0
 16
1.0
 26
0.0
 36
0.0
 17
0.0
 27
1.0
 37
0.0
 76
     0
330
1F
331
29
  0
MLINESTYLE
  5
18
102
{ACAD_REACTORS
330
17
102
}
330
17
100
AcDbMlineStyle
  2
Standard
 70
     0
  3

 62
   256
 51
90.0
 52
90.0
 71
     2
 49
0.5
 62
   256
  6
BYLAYER
 49
-0.5
 62
   256
  6
BYLAYER
  0
ACDBPLACEHOLDER
  5
F
102
{ACAD_REACTORS
330
E
102
}
330
E
  0
SCALE
  5
4B
102
{ACAD_REACTORS
330
4A
102
}
330
4A
100
AcDbScale
 70
     0
300
1:1
140
1.0
141
1.0
290
     1
  0
SCALE
  5
4C
102
{ACAD_REACTORS
330
4A
102
}
330
4A
100
AcDbScale
 70
     0
300
1:2
140
1.0
141
2.0
290
     0
  0
SCALE
  5
4D
102
{ACAD_REACTORS
330
4A
102
}
330
4A
100
AcDbScale
 70
     0
300
1:4
140
1.0
141
4.0
290
     0
  0
SCALE
  5
4E
102
{ACAD_REACTORS
330
4A
102
}
330
4A
100
AcDbScale
 70
     0
300
1:5
140
1.0
141
5.0
290
     0
  0
SCALE
  5
4F
102
{ACAD_REACTORS
330
4A
102
}
330
4A
100
AcDbScale
 70
     0
300
1:8
140
1.0
141
8.0
290
     0
  0
SCALE
  5
50
102
{ACAD_REACTORS
330
4A
102
}
330
4A
100
AcDbScale
 70
     0
300
1:10
140
1.0
141
10.0
290
     0
  0
SCALE
  5
51
102
{ACAD_REACTORS
330
4A
102
}
330
4A
100
AcDbScale
 70
     0
300
1:16
140
1.0
141
16.0
290
     0
  0
SCALE
  5
52
102
{ACAD_REACTORS
330
4A
102
}
330
4A
100
AcDbScale
 70
     0
300
1:20
140
1.0
141
20.0
290
     0
  0
SCALE
  5
53
102
{ACAD_REACTORS
330
4A
102
}
330
4A
100
AcDbScale
 70
     0
300
1:30
140
1.0
141
30.0
290
     0
  0
SCALE
  5
54
102
{ACAD_REACTORS
330
4A
102
}
330
4A
100
AcDbScale
 70
     0
300
1:40
140
1.0
141
40.0
290
     0
  0
SCALE
  5
55
102
{ACAD_REACTORS
330
4A
102
}
330
4A
100
AcDbScale
 70
     0
300
1:50
140
1.0
141
50.0
290
     0
  0
SCALE
  5
56
102
{ACAD_REACTORS
330
4A
102
}
330
4A
100
AcDbScale
 70
     0
300
1:100
140
1.0
141
100.0
290
     0
  0
SCALE
  5
57
102
{ACAD_REACTORS
330
4A
102
}
330
4A
100
AcDbScale
 70
     0
300
2:1
140
2.0
141
1.0
290
     0
  0
SCALE
  5
58
102
{ACAD_REACTORS
330
4A
102
}
330
4A
100
AcDbScale
 70
     0
300
4:1
140
4.0
141
1.0
290
     0
  0
SCALE
  5
59
102
{ACAD_REACTORS
330
4A
102
}
330
4A
100
AcDbScale
 70
     0
300
8:1
140
8.0
141
1.0
290
     0
  0
SCALE
  5
5A
102
{ACAD_REACTORS
330
4A
102
}
330
4A
100
AcDbScale
 70
     0
300
10:1
140
10.0
141
1.0
290
     0
  0
SCALE
  5
5B
102
{ACAD_REACTORS
330
4A
102
}
330
4A
100
AcDbScale
 70
     0
300
100:1
140
100.0
141
1.0
290
     0
  0
SCALE
  5
5C
102
{ACAD_REACTORS
330
4A
102
}
330
4A
100
AcDbScale
 70
     0
300
1/128" = 1'-0"
140
0.0078125
141
12.0
290
     0
  0
SCALE
  5
5D
102
{ACAD_REACTORS
330
4A
102
}
330
4A
100
AcDbScale
 70
     0
300
1/64" = 1'-0"
140
0.015625
141
12.0
290
     0
  0
SCALE
  5
5E
102
{ACAD_REACTORS
330
4A
102
}
330
4A
100
AcDbScale
 70
     0
300
1/32" = 1'-0"
140
0.03125
141
12.0
290
     0
  0
SCALE
  5
5F
102
{ACAD_REACTORS
330
4A
102
}
330
4A
100
AcDbScale
 70
     0
300
1/16" = 1'-0"
140
0.0625
141
12.0
290
     0
  0
SCALE
  5
60
102
{ACAD_REACTORS
330
4A
102
}
330
4A
100
AcDbScale
 70
     0
300
3/32" = 1'-0"
140
0.09375
141
12.0
290
     0
  0
SCALE
  5
61
102
{ACAD_REACTORS
330
4A
102
}
330
4A
100
AcDbScale
 70
     0
300
1/8" = 1'-0"
140
0.125
141
12.0
290
     0
  0
SCALE
  5
62
102
{ACAD_REACTORS
330
4A
102
}
330
4A
100
AcDbScale
 70
     0
300
3/16" = 1'-0"
140
0.1875
141
12.0
290
     0
  0
SCALE
  5
63
102
{ACAD_REACTORS
330
4A
102
}
330
4A
100
AcDbScale
 70
     0
300
1/4" = 1'-0"
140
0.25
141
12.0
290
     0
  0
SCALE
  5
64
102
{ACAD_REACTORS
330
4A
102
}
330
4A
100
AcDbScale
 70
     0
300
3/8" = 1'-0"
140
0.375
141
12.0
290
     0
  0
SCALE
  5
65
102
{ACAD_REACTORS
330
4A
102
}
330
4A
100
AcDbScale
 70
     0
300
1/2" = 1'-0"
140
0.5
141
12.0
290
     0
  0
SCALE
  5
66
102
{ACAD_REACTORS
330
4A
102
}
330
4A
100
AcDbScale
 70
     0
300
3/4" = 1'-0"
140
0.75
141
12.0
290
     0
  0
SCALE
  5
67
102
{ACAD_REACTORS
330
4A
102
}
330
4A
100
AcDbScale
 70
     0
300
1" = 1'-0"
140
1.0
141
12.0
290
     0
  0
SCALE
  5
68
102
{ACAD_REACTORS
330
4A
102
}
330
4A
100
AcDbScale
 70
     0
300
1-1/2" = 1'-0"
140
1.5
141
12.0
290
     0
  0
SCALE
  5
69
102
{ACAD_REACTORS
330
4A
102
}
330
4A
100
AcDbScale
 70
     0
300
3" = 1'-0"
140
3.0
141
12.0
290
     0
  0
SCALE
  5
6A
102
{ACAD_REACTORS
330
4A
102
}
330
4A
100
AcDbScale
 70
     0
300
6" = 1'-0"
140
6.0
141
12.0
290
     0
  0
SCALE
  5
6B
102
{ACAD_REACTORS
330
4A
102
}
330
4A
100
AcDbScale
 70
     0
300
1'-0" = 1'-0"
140
12.0
141
12.0
290
     0
  0
VISUALSTYLE
  5
2F
102
{ACAD_REACTORS
330
2A
102
}
330
2A
100
AcDbVisualStyle
  2
2dWireframe
 70
     4
 71
     0
 72
     2
 73
     0
 90
        0
 40
-0.6
 41
-30.0
 62
     5
 63
     7
 74
     1
 91
        4
 64
     7
 65
   257
 75
     1
175
     1
 42
1.0
 92
        0
 66
   257
 43
1.0
 76
     1
 77
     6
 78
     2
 67
     7
 79
     5
170
     0
171
     0
290
     0
174
     0
 93
        1
 44
0.0
173
     0
291
     0
 45
0.0
1001
ACAD
1000
AcDbSavedByObjectVersion
1070
     0
  0
VISUALSTYLE
  5
31
102
{ACAD_REACTORS
330
2A
102
}
330
2A
100
AcDbVisualStyle
  2
3D Hidden
 70
     6
 71
     1
 72
     2
 73
     2
 90
        0
 40
-0.6
 41
-30.0
 62
     5
 63
     7
 74
     2
 91
        2
 64
     7
 65
   257
 75
     2
175
     1
 42
40.0
 92
        0
 66
   257
 43
1.0
 76
     1
 77
     6
 78
     2
 67
     7
 79
     3
170
     0
171
     0
290
     0
174
     0
 93
        1
 44
0.0
173
     0
291
     0
 45
0.0
1001
ACAD
1000
AcDbSavedByObjectVersion
1070
     0
  0
VISUALSTYLE
  5
30
102
{ACAD_REACTORS
330
2A
102
}
330
2A
100
AcDbVisualStyle
  2
3dWireframe
 70
     5
 71
     0
 72
     2
 73
     0
 90
        0
 40
-0.6
 41
-30.0
 62
     5
 63
     7
 74
     1
 91
        4
 64
     7
 65
   257
 75
     1
175
     1
 42
1.0
 92
        0
 66
   257
 43
1.0
 76
     1
 77
     6
 78
     2
 67
     7
 79
     5
170
     0
171
     0
290
     0
174
     0
 93
        1
 44
0.0
173
     0
291
     0
 45
0.0
1001
ACAD
1000
AcDbSavedByObjectVersion
1070
     0
  0
VISUALSTYLE
  5
32
102
{ACAD_REACTORS
330
2A
102
}
330
2A
100
AcDbVisualStyle
  2
Basic
 70
     7
 71
     1
 72
     0
 73
     1
 90
        0
 40
-0.6
 41
-30.0
 62
     5
 63
     7
 74
     0
 91
        4
 64
     7
 65
   257
 75
     1
175
     1
 42
1.0
 92
        8
 66
     7
 43
1.0
 76
     1
 77
     6
 78
     2
 67
     7
 79
     5
170
     0
171
     0
290
     0
174
     0
 93
        1
 44
0.0
173
     0
291
     1
 45
0.0
1001
ACAD
1000
AcDbSavedByObjectVersion
1070
     0
  0
VISUALSTYLE
  5
36
102
{ACAD_REACTORS
330
2A
102
}
330
2A
100
AcDbVisualStyle
  2
Brighten
 70
    12
 71
     2
 72
     2
 73
     0
 90
        0
 40
-0.6
 41
-30.0
 62
     5
 63
     7
 74
     1
 91
        4
 64
     7
 65
   257
 75
     1
175
     1
 42
1.0
 92
        8
 66
     7
 43
1.0
 76
     1
 77
     6
 78
     2
 67
     7
 79
     5
170
     0
171
     0
290
     0
174
     0
 93
        1
 44
50.0
173
     0
291
     1
 45
0.0
1001
ACAD
1000
AcDbSavedByObjectVersion
1070
     0
  0
VISUALSTYLE
  5
3A
102
{ACAD_REACTORS
330
2A
102
}
330
2A
100
AcDbVisualStyle
  2
ColorChange
 70
    16
 71
     2
 72
     2
 73
     3
 90
        0
 40
-0.6
 41
-30.0
 62
     5
 63
     8
 74
     1
 91
        4
 64
     7
 65
   257
 75
     1
175
     1
 42
1.0
 92
        8
 66
     8
 43
1.0
 76
     1
 77
     6
 78
     2
 67
     7
 79
     5
170
     0
171
     0
290
     0
174
     0
 93
        1
 44
0.0
173
     0
291
     1
 45
0.0
1001
ACAD
1000
AcDbSavedByObjectVersion
1070
     0
  0
VISUALSTYLE
  5
34
102
{ACAD_REACTORS
330
2A
102
}
330
2A
100
AcDbVisualStyle
  2
Conceptual
 70
     9
 71
     3
 72
     2
 73
     0
 90
        0
 40
-0.6
 41
-30.0
 62
     5
 63
     7
 74
     2
 91
        2
 64
     7
 65
   257
 75
     1
175
     1
 42
40.0
 92
        8
 66
     7
 43
1.0
 76
     1
 77
     6
 78
     2
 67
     7
 79
     3
170
     0
171
     0
290
     0
174
     0
 93
        1
 44
0.0
173
     0
291
     0
 45
0.0
1001
ACAD
1000
AcDbSavedByObjectVersion
1070
     0
  0
VISUALSTYLE
  5
35
102
{ACAD_REACTORS
330
2A
102
}
330
2A
100
AcDbVisualStyle
  2
Dim
 70
    11
 71
     2
 72
     2
 73
     0
 90
        0
 40
-0.6
 41
-30.0
 62
     5
 63
     7
 74
     1
 91
        4
 64
     7
 65
   257
 75
     1
175
     1
 42
1.0
 92
        8
 66
     7
 43
1.0
 76
     1
 77
     6
 78
     2
 67
     7
 79
     5
170
     0
171
     0
290
     0
174
     0
 93
        1
 44
-50.0
173
     0
291
     1
 45
0.0
1001
ACAD
1000
AcDbSavedByObjectVersion
1070
     0
  0
VISUALSTYLE
  5
39
102
{ACAD_REACTORS
330
2A
102
}
330
2A
100
AcDbVisualStyle
  2
Facepattern
 70
    15
 71
     2
 72
     2
 73
     0
 90
        0
 40
-0.6
 41
-30.0
 62
     5
 63
     7
 74
     1
 91
        4
 64
     7
 65
   257
 75
     1
175
     1
 42
1.0
 92
        8
 66
     7
 43
1.0
 76
     1
 77
     6
 78
     2
 67
     7
 79
     5
170
     0
171
     0
290
     0
174
     0
 93
        1
 44
0.0
173
     0
291
     1
 45
0.0
1001
ACAD
1000
AcDbSavedByObjectVersion
1070
     0
  0
VISUALSTYLE
  5
2B
102
{ACAD_REACTORS
330
2A
102
}
330
2A
100
AcDbVisualStyle
  2
Flat
 70
     0
 71
     2
 72
     1
 73
     1
 90
        2
 40
-0.6
 41
30.0
 62
     5
 63
     7
 74
     0
 91
        4
 64
     7
 65
   257
 75
     1
175
     1
 42
1.0
 92
        8
 66
     7
 43
1.0
 76
     1
 77
     6
 78
     2
 67
     7
 79
     5
170
     0
171
     0
290
     0
174
     0
 93
       13
 44
0.0
173
     0
291
     1
 45
0.0
1001
ACAD
1000
AcDbSavedByObjectVersion
1070
     0
  0
VISUALSTYLE
  5
2C
102
{ACAD_REACTORS
330
2A
102
}
330
2A
100
AcDbVisualStyle
  2
FlatWithEdges
 70
     1
 71
     2
 72
     1
 73
     1
 90
        2
 40
-0.6
 41
30.0
 62
     5
 63
     7
 74
     1
 91
        4
 64
     7
 65
   257
 75
     1
175
     1
 42
1.0
 92
        0
 66
   257
 43
1.0
 76
     1
 77
     6
 78
     2
 67
     7
 79
     5
170
     0
171
     0
290
     0
174
     0
 93
       13
 44
0.0
173
     0
291
     1
 45
0.0
1001
ACAD
1000
AcDbSavedByObjectVersion
1070
     0
  0
VISUALSTYLE
  5
2D
102
{ACAD_REACTORS
330
2A
102
}
330
2A
100
AcDbVisualStyle
  2
Gouraud
 70
     2
 71
     2
 72
     2
 73
     1
 90
        2
 40
-0.6
 41
30.0
 62
     5
 63
     7
 74
     0
 91
        4
 64
     7
 65
   257
 75
     1
175
     1
 42
1.0
 92
        0
 66
     7
 43
1.0
 76
     1
 77
     6
 78
     2
 67
     7
 79
     5
170
     0
171
     0
290
     0
174
     0
 93
       13
 44
0.0
173
     0
291
     1
 45
0.0
1001
ACAD
1000
AcDbSavedByObjectVersion
1070
     0
  0
VISUALSTYLE
  5
2E
102
{ACAD_REACTORS
330
2A
102
}
330
2A
100
AcDbVisualStyle
  2
GouraudWithEdges
 70
     3
 71
     2
 72
     2
 73
     1
 90
        2
 40
-0.6
 41
30.0
 62
     5
 63
     7
 74
     1
 91
        4
 64
     7
 65
   257
 75
     1
175
     1
 42
1.0
 92
        0
 66
   257
 43
1.0
 76
     1
 77
     6
 78
     2
 67
     7
 79
     5
170
     0
171
     0
290
     0
174
     0
 93
       13
 44
0.0
173
     0
291
     1
 45
0.0
1001
ACAD
1000
AcDbSavedByObjectVersion
1070
     0
  0
VISUALSTYLE
  5
38
102
{ACAD_REACTORS
330
2A
102
}
330
2A
100
AcDbVisualStyle
  2
Linepattern
 70
    14
 71
     2
 72
     2
 73
     0
 90
        0
 40
-0.6
 41
-30.0
 62
     5
 63
     7
 74
     1
 91
        4
 64
     7
 65
   257
 75
     7
175
     7
 42
1.0
 92
        8
 66
     7
 43
1.0
 76
     1
 77
     6
 78
     2
 67
     7
 79
     5
170
     0
171
     0
290
     0
174
     0
 93
        1
 44
0.0
173
     0
291
     1
 45
0.0
1001
ACAD
1000
AcDbSavedByObjectVersion
1070
     0
  0
VISUALSTYLE
  5
33
102
{ACAD_REACTORS
330
2A
102
}
330
2A
100
AcDbVisualStyle
  2
Realistic
 70
     8
 71
     2
 72
     2
 73
     0
 90
        0
 40
-0.6
 41
-30.0
 62
     5
 63
     7
 74
     1
 91
        0
 64
     7
 65
   257
 75
     1
175
     1
 42
1.0
 92
        8
 66
     8
 43
1.0
 76
     1
 77
     6
 78
     2
 67
     7
 79
     5
170
     0
171
     0
290
     0
174
     0
 93
       13
 44
0.0
173
     0
291
     0
 45
0.0
1001
ACAD
1000
AcDbSavedByObjectVersion
1070
     0
  0
VISUALSTYLE
  5
37
102
{ACAD_REACTORS
330
2A
102
}
330
2A
100
AcDbVisualStyle
  2
Thicken
 70
    13
 71
     2
 72
     2
 73
     0
 90
        0
 40
-0.6
 41
-30.0
 62
     5
 63
     7
 74
     1
 91
        4
 64
     7
 65
   257
 75
     1
175
     1
 42
1.0
 92
       12
 66
     7
 43
1.0
 76
     1
 77
     6
 78
     2
 67
     7
 79
     5
170
     0
171
     0
290
     0
174
     0
 93
        1
 44
0.0
173
     0
291
     1
 45
0.0
1001
ACAD
1000
AcDbSavedByObjectVersion
1070
     0
  0
DICTIONARYVAR
  5
157
102
{ACAD_REACTORS
330
154
102
}
330
154
100
DictionaryVariables
280
     0
  1
1:1
  0
ENDSEC
  0
EOF
