  0
SECTION
  2
HEADER
  9
$ACADVER
  1
AC1015
  9
$ACADMAINTVER
 70
     6
  9
$DWGCODEPAGE
  3
ANSI_1252
  9
$INSBASE
 10
0.0
 20
0.0
 30
0.0
  9
$EXTMIN
 10
70.2295297685651
 20
365.8603795771
 30
0.0
  9
$EXTMAX
 10
321.747055371896
 20
499.631589979114
 30
0.0
  9
$LIMMIN
 10
0.0
 20
0.0
  9
$LIMMAX
 10
12.0
 20
9.0
  9
$ORTHOMODE
 70
     0
  9
$REGENMODE
 70
     1
  9
$FILLMODE
 70
     1
  9
$QTEXTMODE
 70
     0
  9
$MIRRTEXT
 70
     1
  9
$LTSCALE
 40
1.0
  9
$ATTMODE
 70
     1
  9
$TEXTSIZE
 40
0.2
  9
$TRACEWID
 40
0.05
  9
$TEXTSTYLE
  7
Standard
  9
$CLAYER
  8
0
  9
$CELTYPE
  6
ByLayer
  9
$CECOLOR
 62
   256
  9
$CELTSCALE
 40
1.0
  9
$DISPSILH
 70
     0
  9
$DIMSCALE
 40
1.0
  9
$DIMASZ
 40
0.18
  9
$DIMEXO
 40
0.0625
  9
$DIMDLI
 40
0.38
  9
$DIMRND
 40
0.0
  9
$DIMDLE
 40
0.0
  9
$DIMEXE
 40
0.18
  9
$DIMTP
 40
0.0
  9
$DIMTM
 40
0.0
  9
$DIMTXT
 40
0.18
  9
$DIMCEN
 40
0.09
  9
$DIMTSZ
 40
0.0
  9
$DIMTOL
 70
     0
  9
$DIMLIM
 70
     0
  9
$DIMTIH
 70
     1
  9
$DIMTOH
 70
     1
  9
$DIMSE1
 70
     0
  9
$DIMSE2
 70
     0
  9
$DIMTAD
 70
     0
  9
$DIMZIN
 70
     0
  9
$DIMBLK
  1

  9
$DIMASO
 70
     1
  9
$DIMSHO
 70
     1
  9
$DIMPOST
  1

  9
$DIMAPOST
  1

  9
$DIMALT
 70
     0
  9
$DIMALTD
 70
     2
  9
$DIMALTF
 40
25.4
  9
$DIMLFAC
 40
1.0
  9
$DIMTOFL
 70
     0
  9
$DIMTVP
 40
0.0
  9
$DIMTIX
 70
     0
  9
$DIMSOXD
 70
     0
  9
$DIMSAH
 70
     0
  9
$DIMBLK1
  1

  9
$DIMBLK2
  1

  9
$DIMSTYLE
  2
Standard
  9
$DIMCLRD
 70
     0
  9
$DIMCLRE
 70
     0
  9
$DIMCLRT
 70
     0
  9
$DIMTFAC
 40
1.0
  9
$DIMGAP
 40
0.09
  9
$DIMJUST
 70
     0
  9
$DIMSD1
 70
     0
  9
$DIMSD2
 70
     0
  9
$DIMTOLJ
 70
     1
  9
$DIMTZIN
 70
     0
  9
$DIMALTZ
 70
     0
  9
$DIMALTTZ
 70
     0
  9
$DIMUPT
 70
     0
  9
$DIMDEC
 70
     4
  9
$DIMTDEC
 70
     4
  9
$DIMALTU
 70
     2
  9
$DIMALTTD
 70
     2
  9
$DIMTXSTY
  7
Standard
  9
$DIMAUNIT
 70
     0
  9
$DIMADEC
 70
     0
  9
$DIMALTRND
 40
0.0
  9
$DIMAZIN
 70
     0
  9
$DIMDSEP
 70
    46
  9
$DIMATFIT
 70
     3
  9
$DIMFRAC
 70
     0
  9
$DIMLDRBLK
  1

  9
$DIMLUNIT
 70
     2
  9
$DIMLWD
 70
    -2
  9
$DIMLWE
 70
    -2
  9
$DIMTMOVE
 70
     0
  9
$LUNITS
 70
     2
  9
$LUPREC
 70
     4
  9
$SKETCHINC
 40
0.1
  9
$FILLETRAD
 40
0.5
  9
$AUNITS
 70
     0
  9
$AUPREC
 70
     0
  9
$MENU
  1
.
  9
$ELEVATION
 40
0.0
  9
$PELEVATION
 40
0.0
  9
$THICKNESS
 40
0.0
  9
$LIMCHECK
 70
     0
  9
$CHAMFERA
 40
0.5
  9
$CHAMFERB
 40
0.5
  9
$CHAMFERC
 40
1.0
  9
$CHAMFERD
 40
0.0
  9
$SKPOLY
 70
     0
  9
$TDCREATE
 40
2456821.364580636
  9
$TDUCREATE
 40
2456821.281247303
  9
$TDUPDATE
 40
2456821.364580648
  9
$TDUUPDATE
 40
2456821.281247315
  9
$TDINDWG
 40
0.0000000116
  9
$TDUSRTIMER
 40
0.0000000116
  9
$USRTIMER
 70
     1
  9
$ANGBASE
 50
0.0
  9
$ANGDIR
 70
     0
  9
$PDMODE
 70
     0
  9
$PDSIZE
 40
0.0
  9
$PLINEWID
 40
0.0
  9
$SPLFRAME
 70
     0
  9
$SPLINETYPE
 70
     6
  9
$SPLINESEGS
 70
     8
  9
$HANDSEED
  5
156
  9
$SURFTAB1
 70
     6
  9
$SURFTAB2
 70
     6
  9
$SURFTYPE
 70
     6
  9
$SURFU
 70
     6
  9
$SURFV
 70
     6
  9
$UCSBASE
  2

  9
$UCSNAME
  2

  9
$UCSORG
 10
0.0
 20
0.0
 30
0.0
  9
$UCSXDIR
 10
1.0
 20
0.0
 30
0.0
  9
$UCSYDIR
 10
0.0
 20
1.0
 30
0.0
  9
$UCSORTHOREF
  2

  9
$UCSORTHOVIEW
 70
     0
  9
$UCSORGTOP
 10
0.0
 20
0.0
 30
0.0
  9
$UCSORGBOTTOM
 10
0.0
 20
0.0
 30
0.0
  9
$UCSORGLEFT
 10
0.0
 20
0.0
 30
0.0
  9
$UCSORGRIGHT
 10
0.0
 20
0.0
 30
0.0
  9
$UCSORGFRONT
 10
0.0
 20
0.0
 30
0.0
  9
$UCSORGBACK
 10
0.0
 20
0.0
 30
0.0
  9
$PUCSBASE
  2

  9
$PUCSNAME
  2

  9
$PUCSORG
 10
0.0
 20
0.0
 30
0.0
  9
$PUCSXDIR
 10
1.0
 20
0.0
 30
0.0
  9
$PUCSYDIR
 10
0.0
 20
1.0
 30
0.0
  9
$PUCSORTHOREF
  2

  9
$PUCSORTHOVIEW
 70
     0
  9
$PUCSORGTOP
 10
0.0
 20
0.0
 30
0.0
  9
$PUCSORGBOTTOM
 10
0.0
 20
0.0
 30
0.0
  9
$PUCSORGLEFT
 10
0.0
 20
0.0
 30
0.0
  9
$PUCSORGRIGHT
 10
0.0
 20
0.0
 30
0.0
  9
$PUCSORGFRONT
 10
0.0
 20
0.0
 30
0.0
  9
$PUCSORGBACK
 10
0.0
 20
0.0
 30
0.0
  9
$USERI1
 70
     0
  9
$USERI2
 70
     0
  9
$USERI3
 70
     0
  9
$USERI4
 70
     0
  9
$USERI5
 70
     0
  9
$USERR1
 40
16.5
  9
$USERR2
 40
0.0
  9
$USERR3
 40
0.0
  9
$USERR4
 40
0.0
  9
$USERR5
 40
0.0
  9
$WORLDVIEW
 70
     1
  9
$SHADEDGE
 70
     3
  9
$SHADEDIF
 70
    70
  9
$TILEMODE
 70
     1
  9
$MAXACTVP
 70
    64
  9
$PINSBASE
 10
0.0
 20
0.0
 30
0.0
  9
$PLIMCHECK
 70
     0
  9
$PEXTMIN
 10
1.00000000000000E+20
 20
1.00000000000000E+20
 30
1.00000000000000E+20
  9
$PEXTMAX
 10
-1.00000000000000E+20
 20
-1.00000000000000E+20
 30
-1.00000000000000E+20
  9
$PLIMMIN
 10
0.0
 20
0.0
  9
$PLIMMAX
 10
12.0
 20
9.0
  9
$UNITMODE
 70
     0
  9
$VISRETAIN
 70
     1
  9
$PLINEGEN
 70
     0
  9
$PSLTSCALE
 70
     1
  9
$TREEDEPTH
 70
  3020
  9
$CMLSTYLE
  2
Standard
  9
$CMLJUST
 70
     0
  9
$CMLSCALE
 40
1.0
  9
$PROXYGRAPHICS
 70
     1
  9
$MEASUREMENT
 70
     1
  9
$CELWEIGHT
370
    -1
  9
$ENDCAPS
280
     0
  9
$JOINSTYLE
280
     0
  9
$LWDISPLAY
290
     0
  9
$INSUNITS
 70
     1
  9
$HYPERLINKBASE
  1

  9
$STYLESHEET
  1

  9
$XEDIT
290
     1
  9
$CEPSNTYPE
380
     0
  9
$PSTYLEMODE
290
     1
  9
$FINGERPRINTGUID
  2
{211592A8-8BF9-4471-8D03-807A1D84686B}
  9
$VERSIONGUID
  2
{FAEB1C32-E019-11D5-929B-00C0DF256EC4}
  9
$EXTNAMES
290
     1
  9
$PSVPSCALE
 40
0.0
  9
$OLESTARTUP
290
     0
  0
ENDSEC
  0
SECTION
  2
CLASSES
  0
CLASS
  1
ACDBDICTIONARYWDFLT
  2
AcDbDictionaryWithDefault
  3
ObjectDBX Classes
 90
        0
280
     0
281
     0
  0
CLASS
  1
VISUALSTYLE
  2
AcDbVisualStyle
  3
ObjectDBX Classes
 90
     4095
280
     0
281
     0
  0
CLASS
  1
SCALE
  2
AcDbScale
  3
ObjectDBX Classes
 90
     1153
280
     0
281
     0
  0
CLASS
  1

  2
exOdDbPolyline
  3

 90
        0
280
     0
281
     1
  0
CLASS
  1

  2
exOdDbSpline
  3

 90
        0
280
     0
281
     1
  0
CLASS
  1
DICTIONARYVAR
  2
AcDbDictionaryVar
  3
ObjectDBX Classes
 90
        0
280
     0
281
     0
  0
CLASS
  1
ACDBPLACEHOLDER
  2
AcDbPlaceHolder
  3
ObjectDBX Classes
 90
        0
280
     0
281
     0
  0
CLASS
  1
LAYOUT
  2
AcDbLayout
  3
ObjectDBX Classes
 90
        0
280
     0
281
     0
  0
ENDSEC
  0
SECTION
  2
TABLES
  0
TABLE
  2
VPORT
  5
8
330
0
100
AcDbSymbolTable
 70
     1
  0
VPORT
  5
29
330
8
100
AcDbSymbolTableRecord
100
AcDbViewportTableRecord
  2
*Active
 70
     0
 10
0.0
 20
0.0
 11
1.0
 21
1.0
 12
195.9882925702306
 22
432.745984778107
 13
0.0
 23
0.0
 14
0.5
 24
0.5
 15
0.5
 25
0.5
 16
0.0
 26
0.0
 36
1.0
 17
0.0
 27
0.0
 37
0.0
 40
172.6292989099186
 41
1.60267857142857
 42
50.0
 43
0.0
 44
0.0
 50
0.0
 51
0.0
 71
     0
 72
   100
 73
     1
 74
     3
 75
     0
 76
     0
 77
     0
 78
     0
281
     0
 65
     1
110
0.0
120
0.0
130
0.0
111
1.0
121
0.0
131
0.0
112
0.0
122
1.0
132
0.0
 79
     0
146
0.0
  0
ENDTAB
  0
TABLE
  2
LTYPE
  5
5
330
0
100
AcDbSymbolTable
 70
     8
  0
LTYPE
  5
14
330
5
100
AcDbSymbolTableRecord
100
AcDbLinetypeTableRecord
  2
ByBlock
 70
     0
  3

 72
    65
 73
     0
 40
0.0
  0
LTYPE
  5
15
330
5
100
AcDbSymbolTableRecord
100
AcDbLinetypeTableRecord
  2
ByLayer
 70
     0
  3

 72
    65
 73
     0
 40
0.0
  0
LTYPE
  5
16
330
5
100
AcDbSymbolTableRecord
100
AcDbLinetypeTableRecord
  2
Continuous
 70
     0
  3
Solid line
 72
    65
 73
     0
 40
0.0
  0
LTYPE
  5
3B
330
5
100
AcDbSymbolTableRecord
100
AcDbLinetypeTableRecord
  2
DASHED
 70
     0
  3
Dashed
 72
    65
 73
     2
 40
15.0
 49
7.0
 74
     0
 49
-8.0
 74
     0
  0
LTYPE
  5
3C
330
5
100
AcDbSymbolTableRecord
100
AcDbLinetypeTableRecord
  2
DOTTED
 70
     0
  3
Dotted
 72
    65
 73
     2
 40
1.0
 49
0.0
 74
     0
 49
-1.0
 74
     0
  0
LTYPE
  5
3D
330
5
100
AcDbSymbolTableRecord
100
AcDbLinetypeTableRecord
  2
DOT_CENTER
 70
     0
  3
Dot_Center
 72
    65
 73
     4
 40
14.0
 49
12.0
 74
     0
 49
-1.0
 74
     0
 49
0.0
 74
     0
 49
-1.0
 74
     0
  0
LTYPE
  5
3E
330
5
100
AcDbSymbolTableRecord
100
AcDbLinetypeTableRecord
  2
LONG_DASHED
 70
     0
  3
Long_Dashed
 72
    65
 73
     2
 40
15.0
 49
10.0
 74
     0
 49
-5.0
 74
     0
  0
LTYPE
  5
3F
330
5
100
AcDbSymbolTableRecord
100
AcDbLinetypeTableRecord
  2
DASH_CENTER
 70
     0
  3
Dash_Center
 72
    65
 73
     4
 40
14.0
 49
11.0
 74
     0
 49
-1.0
 74
     0
 49
1.0
 74
     0
 49
-1.0
 74
     0
  0
LTYPE
  5
40
330
5
100
AcDbSymbolTableRecord
100
AcDbLinetypeTableRecord
  2
PHANTOM
 70
     0
  3
Phantom
 72
    65
 73
     6
 40
13.0
 49
10.0
 74
     0
 49
-1.0
 74
     0
 49
0.0
 74
     0
 49
-1.0
 74
     0
 49
0.0
 74
     0
 49
-1.0
 74
     0
  0
LTYPE
  5
41
330
5
100
AcDbSymbolTableRecord
100
AcDbLinetypeTableRecord
  2
CENTER_DASH_DASH
 70
     0
  3
Center_Dash_Dash
 72
    65
 73
     6
 40
14.0
 49
9.0
 74
     0
 49
-1.0
 74
     0
 49
1.0
 74
     0
 49
-1.0
 74
     0
 49
1.0
 74
     0
 49
-1.0
 74
     0
  0
ENDTAB
  0
TABLE
  2
LAYER
  5
2
330
0
100
AcDbSymbolTable
 70
     6
  0
LAYER
  5
10
330
2
100
AcDbSymbolTableRecord
100
AcDbLayerTableRecord
  2
0
 70
     0
 62
     7
  6
Continuous
370
    -3
390
F
  0
LAYER
  5
42
330
2
100
AcDbSymbolTableRecord
100
AcDbLayerTableRecord
  2
1
 70
     0
 62
     7
  6
Continuous
370
    -3
390
F
  0
LAYER
  5
43
330
2
100
AcDbSymbolTableRecord
100
AcDbLayerTableRecord
  2
BG_STARTBEZUEGE
 70
     0
 62
     7
  6
Continuous
370
    -3
390
F
  0
LAYER
  5
44
330
2
100
AcDbSymbolTableRecord
100
AcDbLayerTableRecord
  2
DEFAULT_2
 70
     0
 62
     7
  6
Continuous
370
    -3
390
F
  0
LAYER
  5
45
330
2
100
AcDbSymbolTableRecord
100
AcDbLayerTableRecord
  2
RUNDUNGEN
 70
     0
 62
     7
  6
Continuous
370
    -3
390
F
  0
LAYER
  5
46
330
2
100
AcDbSymbolTableRecord
100
AcDbLayerTableRecord
  2
TEIL_STARTBEZUEGE
 70
     0
 62
     7
  6
Continuous
370
    -3
390
F
  0
ENDTAB
  0
TABLE
  2
STYLE
  5
3
330
0
100
AcDbSymbolTable
 70
     2
  0
STYLE
  5
11
330
3
100
AcDbSymbolTableRecord
100
AcDbTextStyleTableRecord
  2
Standard
 70
     0
 40
0.0
 41
1.0
 50
0.0
 71
     0
 42
0.2
  3
txt
  4

  0
STYLE
  5
6D
330
3
100
AcDbSymbolTableRecord
100
AcDbTextStyleTableRecord
  2
CONVERTER_11
 70
     0
 40
0.0
 41
0.72
 50
0.0
 71
     0
 42
0.2
  3
txt.shx
  4

  0
ENDTAB
  0
TABLE
  2
VIEW
  5
6
330
0
100
AcDbSymbolTable
 70
     0
  0
ENDTAB
  0
TABLE
  2
UCS
  5
7
330
0
100
AcDbSymbolTable
 70
     0
  0
ENDTAB
  0
TABLE
  2
APPID
  5
9
330
0
100
AcDbSymbolTable
 70
     1
  0
APPID
  5
12
330
9
100
AcDbSymbolTableRecord
100
AcDbRegAppTableRecord
  2
ACAD
 70
     0
  0
ENDTAB
  0
TABLE
  2
DIMSTYLE
  5
A
330
0
100
AcDbSymbolTable
 70
     7
100
AcDbDimStyleTable
  0
DIMSTYLE
105
27
330
A
100
AcDbSymbolTableRecord
100
AcDbDimStyleTableRecord
  2
Standard
 70
     0
340
11
  0
DIMSTYLE
105
112
102
{ACAD_REACTORS
330
113
102
}
330
A
100
AcDbSymbolTableRecord
100
AcDbDimStyleTableRecord
  2
ME10_DIM_10
 70
     0
  3
<>
 41
3.5
 42
2.0
 44
2.0
 71
     1
 73
     0
 74
     0
 77
     1
 78
     8
140
3.5
146
0.7
147
2.0
172
     1
173
     1
176
     2
177
     2
178
     3
271
     2
272
     0
340
6D
  0
DIMSTYLE
105
11D
102
{ACAD_REACTORS
330
11E
102
}
330
A
100
AcDbSymbolTableRecord
100
AcDbDimStyleTableRecord
  2
ME10_DIM_11
 70
     0
  3
<>
 41
3.5
 42
2.0
 44
2.0
 71
     1
 73
     0
 74
     0
 77
     1
 78
     8
140
3.5
146
0.7
147
2.0
172
     1
173
     1
176
     2
177
     2
178
     3
271
     2
272
     0
340
6D
  0
DIMSTYLE
105
128
102
{ACAD_REACTORS
330
129
102
}
330
A
100
AcDbSymbolTableRecord
100
AcDbDimStyleTableRecord
  2
ME10_DIM_12
 70
     0
  3
<>
 41
3.5
 42
2.0
 44
2.0
 71
     1
 73
     0
 74
     0
 77
     1
 78
     8
140
3.5
146
0.7
147
2.0
172
     1
173
     1
176
     2
177
     2
178
     3
271
     2
272
     0
340
6D
  0
DIMSTYLE
105
133
102
{ACAD_REACTORS
330
134
102
}
330
A
100
AcDbSymbolTableRecord
100
AcDbDimStyleTableRecord
  2
ME10_DIM_13
 70
     0
  3
<>
 41
3.5
 42
2.0
 44
2.0
 71
     1
 73
     0
 74
     0
 77
     1
 78
     8
140
3.5
146
0.7
147
2.0
172
     1
173
     1
176
     2
177
     2
178
     3
271
     2
272
     0
340
6D
  0
DIMSTYLE
105
13E
102
{ACAD_REACTORS
330
13F
102
}
330
A
100
AcDbSymbolTableRecord
100
AcDbDimStyleTableRecord
  2
ME10_DIM_14
 70
     0
  3
\U+2300<>
 41
3.5
 42
2.0
 44
2.0
 71
     1
 73
     0
 74
     0
 77
     1
 78
     8
140
3.5
146
0.7
147
2.0
172
     1
173
     1
176
     2
177
     2
178
     3
271
     2
272
     0
340
6D
  0
DIMSTYLE
105
149
102
{ACAD_REACTORS
330
14A
102
}
330
A
100
AcDbSymbolTableRecord
100
AcDbDimStyleTableRecord
  2
ME10_DIM_15
 70
     0
  3
\U+2300<>
 41
3.5
 42
2.0
 44
2.0
 71
     1
 73
     0
 74
     0
 77
     1
 78
     8
140
3.5
146
0.7
147
2.0
172
     1
173
     1
176
     2
177
     2
178
     3
271
     2
272
     0
340
6D
  0
ENDTAB
  0
TABLE
  2
BLOCK_RECORD
  5
1
330
0
100
AcDbSymbolTable
 70
     9
  0
BLOCK_RECORD
  5
1F
330
1
100
AcDbSymbolTableRecord
100
AcDbBlockTableRecord
  2
*Model_Space
340
22
  0
BLOCK_RECORD
  5
1B
330
1
100
AcDbSymbolTableRecord
100
AcDbBlockTableRecord
  2
*Paper_Space
340
1E
  0
BLOCK_RECORD
  5
23
330
1
100
AcDbSymbolTableRecord
100
AcDbBlockTableRecord
  2
*Paper_Space0
340
26
  0
BLOCK_RECORD
  5
47
330
1
100
AcDbSymbolTableRecord
100
AcDbBlockTableRecord
  2
Urheberrecht_DE-EN
340
0
102
{BLKREFS
331
6C
102
}
  0
BLOCK_RECORD
  5
109
330
1
100
AcDbSymbolTableRecord
100
AcDbBlockTableRecord
  2
*D2
340
0
  0
BLOCK_RECORD
  5
114
330
1
100
AcDbSymbolTableRecord
100
AcDbBlockTableRecord
  2
*D3
340
0
  0
BLOCK_RECORD
  5
11F
330
1
100
AcDbSymbolTableRecord
100
AcDbBlockTableRecord
  2
*D4
340
0
  0
BLOCK_RECORD
  5
12A
330
1
100
AcDbSymbolTableRecord
100
AcDbBlockTableRecord
  2
*D5
340
0
  0
BLOCK_RECORD
  5
135
330
1
100
AcDbSymbolTableRecord
100
AcDbBlockTableRecord
  2
*D6
340
0
  0
BLOCK_RECORD
  5
140
330
1
100
AcDbSymbolTableRecord
100
AcDbBlockTableRecord
  2
*D7
340
0
  0
BLOCK_RECORD
  5
14B
330
1
100
AcDbSymbolTableRecord
100
AcDbBlockTableRecord
  2
*D8
340
0
102
{BLKREFS
331
151
102
}
  0
ENDTAB
  0
ENDSEC
  0
SECTION
  2
BLOCKS
  0
BLOCK
  5
20
330
1F
100
AcDbEntity
  8
0
100
AcDbBlockBegin
  2
*Model_Space
 70
     0
 10
0.0
 20
0.0
 30
0.0
  3
*Model_Space
  1

  0
ENDBLK
  5
21
330
1F
100
AcDbEntity
  8
0
100
AcDbBlockEnd
  0
BLOCK
  5
1C
330
1B
100
AcDbEntity
 67
     1
  8
0
100
AcDbBlockBegin
  2
*Paper_Space
 70
     0
 10
0.0
 20
0.0
 30
0.0
  3
*Paper_Space
  1

  0
ENDBLK
  5
1D
330
1B
100
AcDbEntity
 67
     1
  8
0
100
AcDbBlockEnd
  0
BLOCK
  5
24
330
23
100
AcDbEntity
  8
0
100
AcDbBlockBegin
  2
*Paper_Space0
 70
     0
 10
0.0
 20
0.0
 30
0.0
  3
*Paper_Space0
  1

  0
ENDBLK
  5
25
330
23
100
AcDbEntity
  8
0
100
AcDbBlockEnd
  0
BLOCK
  5
48
330
47
100
AcDbEntity
  8
0
100
AcDbBlockBegin
  2
Urheberrecht_DE-EN
 70
     0
 10
84.2295297685651
 20
428.8127883977
 30
0.0
  3
Urheberrecht_DE-EN
  1

  0
MTEXT
  5
6E
330
47
100
AcDbEntity
  8
1
 62
     1
100
AcDbMText
 10
84.2295297685651
 20
428.8127883977
 30
0.0
 40
2.0
 41
0.0
 71
     7
 72
     1
  1
We own the copyright of this document. It \Pdetermined and may neither be copied or \Pmade accessible to outsiders without our\Ppermission.
  7
CONVERTER_11
 11
0.0
 21
1.0
 31
0.0
 73
     1
 44
0.90036014405762
  0
MTEXT
  5
6F
330
47
100
AcDbEntity
  8
1
 62
     1
100
AcDbMText
 10
84.2295297685651
 20
372.5234014803938
 30
0.0
 40
2.0
 41
0.0
 71
     7
 72
     1
  1
F\U+00fcr diese Unterlage behalten wir das Ur-\Pheberrecht. Sie darf nur f\U+00fcr den von uns \Pbestimmten Zweck benutzt und ohne unsere \PZustimmung weder vervielf\U+00e4ltigt noch\PDritten zug\U+00e4nglich gemacht werden.
  7
CONVERTER_11
 11
0.0
 21
1.0
 31
0.0
 73
     1
 44
0.90036014405762
  0
ENDBLK
  5
49
330
47
100
AcDbEntity
  8
0
100
AcDbBlockEnd
  0
BLOCK
  5
110
330
109
100
AcDbEntity
  8
0
100
AcDbBlockBegin
  2
*D2
 70
     1
 10
0.0
 20
0.0
 30
0.0
  3
*D2
  1

  0
LINE
  5
10A
330
109
100
AcDbEntity
  8
1
  6
Continuous
 62
     2
100
AcDbLine
 10
280.3283264033
 20
472.032306615488
 30
0.0
 11
214.4283264033
 21
472.032306615488
 31
0.0
  0
LINE
  5
10B
330
109
100
AcDbEntity
  8
1
  6
Continuous
 62
     2
100
AcDbLine
 10
280.3283264033
 20
444.7228795771
 30
0.0
 11
280.3283264033
 21
474.032306615488
 31
0.0
  0
LINE
  5
10C
330
109
100
AcDbEntity
  8
1
  6
Continuous
 62
     2
100
AcDbLine
 10
214.4283264033
 20
467.4603795771
 30
0.0
 11
214.4283264033
 21
474.032306615488
 31
0.0
  0
SOLID
  5
10D
330
109
100
AcDbEntity
  8
1
 62
     2
100
AcDbTrace
 10
276.8283264033
 20
471.5715228739321
 30
0.0
 11
276.8283264033
 21
472.4930903570439
 31
0.0
 12
280.3283264033
 22
472.032306615488
 32
0.0
 13
280.3283264033
 23
472.032306615488
 33
0.0
  0
SOLID
  5
10E
330
109
100
AcDbEntity
  8
1
 62
     2
100
AcDbTrace
 10
217.9283264033
 20
472.4930903570439
 30
0.0
 11
217.9283264033
 21
471.5715228739321
 31
0.0
 12
214.4283264033
 22
472.032306615488
 32
0.0
 13
214.4283264033
 23
472.032306615488
 33
0.0
  0
MTEXT
  5
10F
330
109
100
AcDbEntity
  8
1
 62
     3
100
AcDbMText
 10
240.2862381427224
 20
474.032306615488
 30
0.0
 40
3.5
 41
0.0
 71
     7
 72
     1
  1
\C3;\C3;\C3;65.9\C2;\H2.45;\S^ ;\C3;
  7
CONVERTER_11
 11
0.9999999999970619
 21
2.424068405545306E-6
 31
0.0
 73
     1
 44
0.60024009603842
  0
ENDBLK
  5
111
330
109
100
AcDbEntity
  8
0
100
AcDbBlockEnd
  0
BLOCK
  5
11B
330
114
100
AcDbEntity
  8
0
100
AcDbBlockBegin
  2
*D3
 70
     1
 10
0.0
 20
0.0
 30
0.0
  3
*D3
  1

  0
LINE
  5
115
330
114
100
AcDbEntity
  8
1
  6
Continuous
 62
     2
100
AcDbLine
 10
280.3283264033
 20
479.900990843446
 30
0.0
 11
195.3283264033
 21
479.900990843446
 31
0.0
  0
LINE
  5
116
330
114
100
AcDbEntity
  8
1
  6
Continuous
 62
     2
100
AcDbLine
 10
280.3283264033
 20
444.7228795771
 30
0.0
 11
280.3283264033
 21
481.900990843446
 31
0.0
  0
LINE
  5
117
330
114
100
AcDbEntity
  8
1
  6
Continuous
 62
     2
100
AcDbLine
 10
195.3283264033
 20
471.4603795771
 30
0.0
 11
195.3283264033
 21
481.900990843446
 31
0.0
  0
SOLID
  5
118
330
114
100
AcDbEntity
  8
1
 62
     2
100
AcDbTrace
 10
276.8283264033
 20
479.4402071018901
 30
0.0
 11
276.8283264033
 21
480.3617745850019
 31
0.0
 12
280.3283264033
 22
479.900990843446
 32
0.0
 13
280.3283264033
 23
479.900990843446
 33
0.0
  0
SOLID
  5
119
330
114
100
AcDbEntity
  8
1
 62
     2
100
AcDbTrace
 10
198.8283264033
 20
480.3617745850019
 30
0.0
 11
198.8283264033
 21
479.4402071018901
 31
0.0
 12
195.3283264033
 22
479.900990843446
 32
0.0
 13
195.3283264033
 23
479.900990843446
 33
0.0
  0
MTEXT
  5
11A
330
114
100
AcDbEntity
  8
1
 62
     3
100
AcDbMText
 10
233.770229878134
 20
481.900990843446
 30
0.0
 40
3.5
 41
0.0
 71
     7
 72
     1
  1
\C3;\C3;\C3;85\C2;\H2.45;\S^ ;\C3;
  7
CONVERTER_11
 11
0.9999999999970619
 21
2.424068405545306E-6
 31
0.0
 73
     1
 44
0.60024009603842
  0
ENDBLK
  5
11C
330
114
100
AcDbEntity
  8
0
100
AcDbBlockEnd
  0
BLOCK
  5
126
330
11F
100
AcDbEntity
  8
0
100
AcDbBlockBegin
  2
*D4
 70
     1
 10
0.0
 20
0.0
 30
0.0
  3
*D4
  1

  0
LINE
  5
120
330
11F
100
AcDbEntity
  8
1
  6
Continuous
 62
     2
100
AcDbLine
 10
195.3283264033
 20
487.602256258043
 30
0.0
 11
295.3283264033
 21
487.602256258043
 31
0.0
  0
LINE
  5
121
330
11F
100
AcDbEntity
  8
1
  6
Continuous
 62
     2
100
AcDbLine
 10
195.3283264033
 20
471.4603795771
 30
0.0
 11
195.3283264033
 21
489.602256258043
 31
0.0
  0
LINE
  5
122
330
11F
100
AcDbEntity
  8
1
  6
Continuous
 62
     2
100
AcDbLine
 10
295.3283264033
 20
445.2228795771
 30
0.0
 11
295.3283264033
 21
489.602256258043
 31
0.0
  0
SOLID
  5
123
330
11F
100
AcDbEntity
  8
1
 62
     2
100
AcDbTrace
 10
198.8283264033
 20
488.0630399995989
 30
0.0
 11
198.8283264033
 21
487.1414725164871
 31
0.0
 12
195.3283264033
 22
487.602256258043
 32
0.0
 13
195.3283264033
 23
487.602256258043
 33
0.0
  0
SOLID
  5
124
330
11F
100
AcDbEntity
  8
1
 62
     2
100
AcDbTrace
 10
291.8283264033
 20
487.1414725164871
 30
0.0
 11
291.8283264033
 21
488.0630399995989
 31
0.0
 12
295.3283264033
 22
487.602256258043
 32
0.0
 13
295.3283264033
 23
487.602256258043
 33
0.0
  0
MTEXT
  5
125
330
11F
100
AcDbEntity
  8
1
 62
     3
100
AcDbMText
 10
242.4731022397
 20
489.602256258043
 30
0.0
 40
3.5
 41
0.0
 71
     7
 72
     1
  1
\C3;\C3;\C3;100\C2;\H2.45;\S^ ;\C3;
  7
CONVERTER_11
 11
0.9999999999970619
 21
2.424068405545306E-6
 31
0.0
 73
     1
 44
0.60024009603842
  0
ENDBLK
  5
127
330
11F
100
AcDbEntity
  8
0
100
AcDbBlockEnd
  0
BLOCK
  5
131
330
12A
100
AcDbEntity
  8
0
100
AcDbBlockBegin
  2
*D5
 70
     1
 10
0.0
 20
0.0
 30
0.0
  3
*D5
  1

  0
LINE
  5
12B
330
12A
100
AcDbEntity
  8
1
  6
Continuous
 62
     2
100
AcDbLine
 10
280.3283264033
 20
494.131589979114
 30
0.0
 11
93.5783264033
 21
494.131589979114
 31
0.0
  0
LINE
  5
12C
330
12A
100
AcDbEntity
  8
1
  6
Continuous
 62
     2
100
AcDbLine
 10
280.3283264033
 20
444.7228795771
 30
0.0
 11
280.3283264033
 21
496.131589979114
 31
0.0
  0
LINE
  5
12D
330
12A
100
AcDbEntity
  8
1
  6
Continuous
 62
     2
100
AcDbLine
 10
93.5783264033
 20
437.8841137771
 30
0.0
 11
93.5783264033
 21
496.131589979114
 31
0.0
  0
SOLID
  5
12E
330
12A
100
AcDbEntity
  8
1
 62
     2
100
AcDbTrace
 10
276.8283264033
 20
493.6708062375581
 30
0.0
 11
276.8283264033
 21
494.5923737206699
 31
0.0
 12
280.3283264033
 22
494.131589979114
 32
0.0
 13
280.3283264033
 23
494.131589979114
 33
0.0
  0
SOLID
  5
12F
330
12A
100
AcDbEntity
  8
1
 62
     2
100
AcDbTrace
 10
97.0783264033
 20
494.5923737206699
 30
0.0
 11
97.0783264033
 21
493.6708062375581
 31
0.0
 12
93.5783264033
 22
494.131589979114
 32
0.0
 13
93.5783264033
 23
494.131589979114
 33
0.0
  0
MTEXT
  5
130
330
12A
100
AcDbEntity
  8
1
 62
     3
100
AcDbMText
 10
183.5072016094861
 20
496.131589979114
 30
0.0
 40
3.5
 41
0.0
 71
     7
 72
     1
  1
\C3;\C3;\C3;186.75\C2;\H2.45;\S^ ;\C3;
  7
CONVERTER_11
 11
0.9999999999970619
 21
2.424068405545306E-6
 31
0.0
 73
     1
 44
0.60024009603842
  0
ENDBLK
  5
132
330
12A
100
AcDbEntity
  8
0
100
AcDbBlockEnd
  0
BLOCK
  5
13C
330
135
100
AcDbEntity
  8
0
100
AcDbBlockBegin
  2
*D6
 70
     1
 10
0.0
 20
0.0
 30
0.0
  3
*D6
  1

  0
LINE
  5
136
330
135
100
AcDbEntity
  8
1
  6
Continuous
 62
     2
100
AcDbLine
 10
310.539020637052
 20
437.7228795771
 30
0.0
 11
310.539020637052
 21
397.7228795771
 31
0.0
  0
LINE
  5
137
330
135
100
AcDbEntity
  8
1
  6
Continuous
 62
     2
100
AcDbLine
 10
282.3283264033
 20
437.7228795771
 30
0.0
 11
312.539020637052
 21
437.7228795771
 31
0.0
  0
LINE
  5
138
330
135
100
AcDbEntity
  8
1
  6
Continuous
 62
     2
100
AcDbLine
 10
282.3283264033
 20
397.7228795771
 30
0.0
 11
312.539020637052
 21
397.7228795771
 31
0.0
  0
SOLID
  5
139
330
135
100
AcDbEntity
  8
1
 62
     2
100
AcDbTrace
 10
310.9998043786078
 20
434.2228795771
 30
0.0
 11
310.0782368954961
 21
434.2228795771
 31
0.0
 12
310.539020637052
 22
437.7228795771
 32
0.0
 13
310.539020637052
 23
437.7228795771
 33
0.0
  0
SOLID
  5
13A
330
135
100
AcDbEntity
  8
1
 62
     2
100
AcDbTrace
 10
310.0782368954961
 20
401.2228795771
 30
0.0
 11
310.9998043786078
 21
401.2228795771
 31
0.0
 12
310.539020637052
 22
397.7228795771
 32
0.0
 13
310.539020637052
 23
397.7228795771
 33
0.0
  0
MTEXT
  5
13B
330
135
100
AcDbEntity
  8
1
 62
     3
100
AcDbMText
 10
308.539020637052
 20
408.598773459867
 30
0.0
 40
3.5
 41
0.0
 71
     7
 72
     1
  1
\C3;%%c\C3;\C3;40\C2;\H2.45;\S^ ;\C3;
  7
CONVERTER_11
 11
0.0
 21
1.0
 31
0.0
 73
     1
 44
0.60024009603842
  0
ENDBLK
  5
13D
330
135
100
AcDbEntity
  8
0
100
AcDbBlockEnd
  0
BLOCK
  5
147
330
140
100
AcDbEntity
  8
0
100
AcDbBlockBegin
  2
*D7
 70
     1
 10
0.0
 20
0.0
 30
0.0
  3
*D7
  1

  0
LINE
  5
141
330
140
100
AcDbEntity
  8
1
  6
Continuous
 62
     2
100
AcDbLine
 10
319.747055371896
 20
449.2228795771
 30
0.0
 11
319.747055371896
 21
386.2228795771
 31
0.0
  0
LINE
  5
142
330
140
100
AcDbEntity
  8
1
  6
Continuous
 62
     2
100
AcDbLine
 10
252.5856857162
 20
449.2228795771
 30
0.0
 11
321.747055371896
 21
449.2228795771
 31
0.0
  0
LINE
  5
143
330
140
100
AcDbEntity
  8
1
  6
Continuous
 62
     2
100
AcDbLine
 10
252.5856857162
 20
386.2228795771
 30
0.0
 11
321.747055371896
 21
386.2228795771
 31
0.0
  0
SOLID
  5
144
330
140
100
AcDbEntity
  8
1
 62
     2
100
AcDbTrace
 10
320.2078391134519
 20
445.7228795771
 30
0.0
 11
319.2862716303401
 21
445.7228795771
 31
0.0
 12
319.747055371896
 22
449.2228795771
 32
0.0
 13
319.747055371896
 23
449.2228795771
 33
0.0
  0
SOLID
  5
145
330
140
100
AcDbEntity
  8
1
 62
     2
100
AcDbTrace
 10
319.2862716303401
 20
389.7228795771
 30
0.0
 11
320.2078391134519
 21
389.7228795771
 31
0.0
 12
319.747055371896
 22
386.2228795771
 32
0.0
 13
319.747055371896
 23
386.2228795771
 33
0.0
  0
MTEXT
  5
146
330
140
100
AcDbEntity
  8
1
 62
     3
100
AcDbMText
 10
317.747055371896
 20
408.766192273228
 30
0.0
 40
3.5
 41
0.0
 71
     7
 72
     1
  1
\C3;%%c\C3;\C3;63\C2;\H2.45;\S^ ;\C3;
  7
CONVERTER_11
 11
0.0
 21
1.0
 31
0.0
 73
     1
 44
0.60024009603842
  0
ENDBLK
  5
148
330
140
100
AcDbEntity
  8
0
100
AcDbBlockEnd
  0
BLOCK
  5
14F
330
14B
100
AcDbEntity
  8
0
100
AcDbBlockBegin
  2
*D8
 70
     1
 10
0.0
 20
0.0
 30
0.0
  3
*D8
  1

  0
LINE
  5
14C
330
14B
100
AcDbEntity
  8
1
  6
Continuous
 62
     2
100
AcDbLine
 10
223.9294837615161
 20
459.7568005404654
 30
0.0
 11
216.2733174486328
 21
450.3439727084101
 31
0.0
  0
SOLID
  5
14D
330
14B
100
AcDbEntity
  8
1
 62
     2
100
AcDbTrace
 10
218.1243562728796
 20
453.3499628826478
 30
0.0
 11
218.8392911609203
 21
452.7684521503382
 31
0.0
 12
216.2733174486328
 22
450.3439727084101
 32
0.0
 13
216.2733174486328
 23
450.3439727084101
 33
0.0
  0
MTEXT
  5
14E
330
14B
100
AcDbEntity
  8
1
 62
     3
100
AcDbMText
 10
217.695887725314
 20
455.2625063291964
 30
0.0
 40
3.5
 41
0.0
 71
     7
 72
     1
  1
\C3; R\C3;\C3;5\C2;\H2.45;\S^ ;\C3;
  7
CONVERTER_11
 11
0.6310017909334397
 21
0.7757813737379827
 31
0.0
 73
     1
 44
0.60024009603842
  0
ENDBLK
  5
150
330
14B
100
AcDbEntity
  8
0
100
AcDbBlockEnd
  0
ENDSEC
  0
SECTION
  2
ENTITIES
  0
INSERT
  5
6C
330
1F
100
AcDbEntity
  8
0
100
AcDbBlockReference
  2
Urheberrecht_DE-EN
 10
84.2295297685651
 20
428.8127883977
 30
0.0
  0
LINE
  5
70
330
1F
100
AcDbEntity
  8
0
  6
Continuous
 62
     7
100
AcDbLine
 10
93.5783264033
 20
435.8841137771
 30
0.0
 11
93.5783264033
 21
399.5614325759
 31
0.0
  0
LINE
  5
71
330
1F
100
AcDbEntity
  8
0
  6
Continuous
 62
     9
100
AcDbLine
 10
95.50360939769999
 20
397.3349872327
 30
0.0
 11
95.50360939769999
 21
438.1107719215
 31
0.0
  0
LINE
  5
72
330
1F
100
AcDbEntity
  8
0
  6
Continuous
 62
     7
100
AcDbLine
 10
199.5283264033
 20
368.9853795771
 30
0.0
 11
203.2629480175
 21
368.9853795771
 31
0.0
  0
LINE
  5
73
330
1F
100
AcDbEntity
  8
0
  6
Continuous
 62
     7
100
AcDbLine
 10
209.7437047892
 20
368.9853795771
 30
0.0
 11
213.4283264033
 21
368.9853795771
 31
0.0
  0
LINE
  5
74
330
1F
100
AcDbEntity
  8
0
  6
Continuous
 62
     7
100
AcDbLine
 10
205.3408264033
 20
372.2228795771
 30
0.0
 11
207.6658264033
 21
372.2228795771
 31
0.0
  0
LINE
  5
75
330
1F
100
AcDbEntity
  8
0
  6
Continuous
 62
     7
100
AcDbLine
 10
199.5283264033
 20
379.1959875892
 30
0.0
 11
203.2629480175
 21
379.1959875892
 31
0.0
  0
LINE
  5
76
330
1F
100
AcDbEntity
  8
0
  6
Continuous
 62
     7
100
AcDbLine
 10
209.7437047892
 20
379.1959875892
 30
0.0
 11
213.4283264033
 21
379.1959875892
 31
0.0
  0
LINE
  5
77
330
1F
100
AcDbEntity
  8
0
  6
Continuous
 62
     7
100
AcDbLine
 10
194.8386440701
 20
382.8692975355
 30
0.0
 11
195.8783264033
 21
383.1478795771
 31
0.0
  0
LINE
  5
78
330
1F
100
AcDbEntity
  8
0
  6
Continuous
 62
     7
100
AcDbLine
 10
195.8783264033
 20
383.1478795771
 30
0.0
 11
197.5283264033
 21
383.1478795771
 31
0.0
  0
LINE
  5
79
330
1F
100
AcDbEntity
  8
0
  6
Continuous
 62
     7
100
AcDbLine
 10
205.3408264033
 20
383.3829975156
 30
0.0
 11
207.6658264033
 21
383.3829975156
 31
0.0
  0
LINE
  5
7A
330
1F
100
AcDbEntity
  8
0
  6
Continuous
 62
     9
100
AcDbLine
 10
214.4283264033
 20
386.1228795771
 30
0.0
 11
198.5283264033
 21
386.1228795771
 31
0.0
  0
LINE
  5
7B
330
1F
100
AcDbEntity
  8
RUNDUNGEN
  6
Continuous
 62
     7
100
AcDbLine
 10
291.1425369517
 20
386.2228795771
 30
0.0
 11
271.0783264033
 21
386.2228795771
 31
0.0
  0
LINE
  5
7C
330
1F
100
AcDbEntity
  8
0
  6
Continuous
 62
     7
100
AcDbLine
 10
219.4283264033
 20
386.2228795771
 30
0.0
 11
250.5856857162
 21
386.2228795771
 31
0.0
  0
LINE
  5
7D
330
1F
100
AcDbEntity
  8
0
  6
Continuous
 62
     7
100
AcDbLine
 10
271.0783264033
 20
386.2228795771
 30
0.0
 11
291.1425369517
 21
386.2228795771
 31
0.0
  0
LINE
  5
7E
330
1F
100
AcDbEntity
  8
0
  6
Continuous
 62
     7
100
AcDbLine
 10
198.5283264033
 20
387.8728795771
 30
0.0
 11
214.4283264033
 21
387.8728795771
 31
0.0
  0
LINE
  5
7F
330
1F
100
AcDbEntity
  8
0
  6
Continuous
 62
     7
100
AcDbLine
 10
280.3283264033
 20
388.6744586371
 30
0.0
 11
291.1425369517
 21
388.6744586371
 31
0.0
  0
LINE
  5
80
330
1F
100
AcDbEntity
  8
0
  6
Continuous
 62
     7
100
AcDbLine
 10
95.50360939769999
 20
397.3349872327
 30
0.0
 11
194.8386440701
 21
382.8692975355
 31
0.0
  0
LINE
  5
81
330
1F
100
AcDbEntity
  8
0
  6
Continuous
 62
     7
100
AcDbLine
 10
293.3396342281
 20
391.1496492183
 30
0.0
 11
280.3283264033
 21
391.1496492183
 31
0.0
  0
LINE
  5
82
330
1F
100
AcDbEntity
  8
0
  6
Continuous
 62
     7
100
AcDbLine
 10
280.3283264033
 20
392.6473928494
 30
0.0
 11
291.1425369517
 21
392.6473928494
 31
0.0
  0
LINE
  5
83
330
1F
100
AcDbEntity
  8
0
  6
Continuous
 62
     7
100
AcDbLine
 10
258.7425399657
 20
392.7228795771
 30
0.0
 11
269.8283264033
 21
392.7228795771
 31
0.0
  0
LWPOLYLINE
  5
84
330
1F
100
AcDbEntity
  8
DEFAULT_2
  6
DASHED
 62
     8
100
AcDbPolyline
 90
        2
 70
     0
 43
0.35
 10
269.8283264033
 20
392.7228795771
 10
280.3283264033
 20
392.7228795771
  0
LINE
  5
85
330
1F
100
AcDbEntity
  8
0
  6
Continuous
 62
     7
100
AcDbLine
 10
208.4158264033
 20
464.1604267466
 30
0.0
 11
209.7437047892
 21
466.4603795771
 31
0.0
  0
LWPOLYLINE
  5
86
330
1F
100
AcDbEntity
  8
DEFAULT_2
  6
DASHED
 62
     8
100
AcDbPolyline
 90
        2
 70
     0
 43
0.35
 10
222.3283264033
 20
404.2228795771
 10
234.0784232078
 20
404.2228795771
  0
LINE
  5
87
330
1F
100
AcDbEntity
  8
0
  6
Continuous
 62
     7
100
AcDbLine
 10
198.5283264033
 20
404.8228795771
 30
0.0
 11
214.4283264033
 21
404.8228795771
 31
0.0
  0
LINE
  5
88
330
1F
100
AcDbEntity
  8
0
  6
Continuous
 62
     9
100
AcDbLine
 10
214.4283264033
 20
406.5728795771
 30
0.0
 11
198.5283264033
 21
406.5728795771
 31
0.0
  0
LWPOLYLINE
  5
89
330
1F
100
AcDbEntity
  8
DEFAULT_2
  6
DASHED
 62
     8
100
AcDbPolyline
 90
        2
 70
     0
 43
0.35
 10
234.0784232078
 20
404.2228795771
 10
280.3283264033
 20
397.7228795771
  0
LINE
  5
8A
330
1F
100
AcDbEntity
  8
0
  6
Continuous
 62
     7
100
AcDbLine
 10
208.4158264033
 20
371.2853324076
 30
0.0
 11
209.7437047892
 21
368.9853795771
 31
0.0
  0
LINE
  5
8B
330
1F
100
AcDbEntity
  8
0
  6
Continuous
 62
     7
100
AcDbLine
 10
194.8386440701
 20
382.8692975355
 30
0.0
 11
194.8386440701
 21
452.5764616187
 31
0.0
  0
LWPOLYLINE
  5
8C
330
1F
100
AcDbEntity
  8
BG_STARTBEZUEGE
  6
DOT_CENTER
 62
     7
100
AcDbPolyline
 90
        2
 70
     0
 43
0.25
 10
195.3283264033
 20
469.4603795771
 10
195.3283264033
 20
365.9853795771
  0
LINE
  5
8D
330
1F
100
AcDbEntity
  8
0
  6
Continuous
 62
     7
100
AcDbLine
 10
280.3283264033
 20
413.7499453648
 30
0.0
 11
291.1425369517
 21
413.7499453648
 31
0.0
  0
LINE
  5
8E
330
1F
100
AcDbEntity
  8
0
  6
Continuous
 62
     7
100
AcDbLine
 10
293.3396342281
 20
414.3728795771
 30
0.0
 11
280.3283264033
 21
414.3728795771
 31
0.0
  0
LWPOLYLINE
  5
8F
330
1F
100
AcDbEntity
  8
TEIL_STARTBEZUEGE
  6
DOT_CENTER
 62
     7
100
AcDbPolyline
 90
        2
 70
     0
 43
0.25
 10
302.7762875536
 20
417.7228795771
 10
90.57832640330003
 20
417.7228795771
  0
LINE
  5
90
330
1F
100
AcDbEntity
  8
0
  6
Continuous
 62
     7
100
AcDbLine
 10
195.8783264033
 20
383.1478795771
 30
0.0
 11
195.8783264033
 21
452.2978795771
 31
0.0
  0
LINE
  5
91
330
1F
100
AcDbEntity
  8
0
  6
Continuous
 62
     9
100
AcDbLine
 10
197.5283264033
 20
383.1478795771
 30
0.0
 11
197.5283264033
 21
452.2978795771
 31
0.0
  0
LINE
  5
92
330
1F
100
AcDbEntity
  8
0
  6
Continuous
 62
     7
100
AcDbLine
 10
198.5283264033
 20
369.9853795771
 30
0.0
 11
198.5283264033
 21
465.4601975485
 31
0.0
  0
LINE
  5
93
330
1F
100
AcDbEntity
  8
0
  6
Continuous
 62
     9
100
AcDbLine
 10
199.5283264033
 20
466.4603795771
 30
0.0
 11
199.5283264033
 21
430.6228795771
 31
0.0
  0
LINE
  5
94
330
1F
100
AcDbEntity
  8
0
  6
Continuous
 62
     9
100
AcDbLine
 10
199.5283264033
 20
368.9853795771
 30
0.0
 11
199.5283264033
 21
379.1959875892
 31
0.0
  0
LINE
  5
95
330
1F
100
AcDbEntity
  8
0
  6
Continuous
 62
     9
100
AcDbLine
 10
199.5283264033
 20
387.8728795771
 30
0.0
 11
199.5283264033
 21
404.8228795771
 31
0.0
  0
LWPOLYLINE
  5
96
330
1F
100
AcDbEntity
  8
DEFAULT_2
  6
DASHED
 62
     8
100
AcDbPolyline
 90
        2
 70
     0
 43
0.35
 10
234.0784232078
 20
431.2228795771
 10
280.3283264033
 20
437.7228795771
  0
LINE
  5
97
330
1F
100
AcDbEntity
  8
0
  6
Continuous
 62
     7
100
AcDbLine
 10
293.3396342281
 20
421.0728795771
 30
0.0
 11
280.3283264033
 21
421.0728795771
 31
0.0
  0
LINE
  5
98
330
1F
100
AcDbEntity
  8
0
  6
Continuous
 62
     7
100
AcDbLine
 10
280.3283264033
 20
421.6958137894
 30
0.0
 11
291.1425369517
 21
421.6958137894
 31
0.0
  0
LINE
  5
99
330
1F
100
AcDbEntity
  8
0
  6
Continuous
 62
     7
100
AcDbLine
 10
203.2629480175
 20
466.4603795771
 30
0.0
 11
203.2629480175
 21
430.6228795771
 31
0.0
  0
LINE
  5
9A
330
1F
100
AcDbEntity
  8
0
  6
Continuous
 62
     7
100
AcDbLine
 10
203.2629480175
 20
404.8228795771
 30
0.0
 11
203.2629480175
 21
387.8728795771
 31
0.0
  0
LINE
  5
9B
330
1F
100
AcDbEntity
  8
0
  6
Continuous
 62
     7
100
AcDbLine
 10
203.2629480175
 20
379.1959875892
 30
0.0
 11
203.2629480175
 21
368.9853795771
 31
0.0
  0
LINE
  5
9C
330
1F
100
AcDbEntity
  8
0
  6
Continuous
 62
     7
100
AcDbLine
 10
204.5908264033
 20
464.1602549749
 30
0.0
 11
204.5908264033
 21
430.6228795771
 31
0.0
  0
LINE
  5
9D
330
1F
100
AcDbEntity
  8
0
  6
Continuous
 62
     7
100
AcDbLine
 10
204.5908264033
 20
371.2854559898
 30
0.0
 11
204.5908264033
 21
382.3952699778
 31
0.0
  0
LINE
  5
9E
330
1F
100
AcDbEntity
  8
0
  6
Continuous
 62
     7
100
AcDbLine
 10
204.5908264033
 20
387.8728795771
 30
0.0
 11
204.5908264033
 21
404.8228795771
 31
0.0
  0
LINE
  5
9F
330
1F
100
AcDbEntity
  8
0
  6
Continuous
 62
     9
100
AcDbLine
 10
205.3408264033
 20
463.2228795771
 30
0.0
 11
205.3408264033
 21
430.6228795771
 31
0.0
  0
LINE
  5
A0
330
1F
100
AcDbEntity
  8
0
  6
Continuous
 62
     9
100
AcDbLine
 10
205.3408264033
 20
372.2228795771
 30
0.0
 11
205.3408264033
 21
383.3829975156
 31
0.0
  0
LINE
  5
A1
330
1F
100
AcDbEntity
  8
0
  6
Continuous
 62
     9
100
AcDbLine
 10
205.3408264033
 20
387.8728795771
 30
0.0
 11
205.3408264033
 21
404.8228795771
 31
0.0
  0
LINE
  5
A2
330
1F
100
AcDbEntity
  8
0
  6
Continuous
 62
     9
100
AcDbLine
 10
207.6658264033
 20
463.2228795771
 30
0.0
 11
207.6658264033
 21
430.6228795771
 31
0.0
  0
LINE
  5
A3
330
1F
100
AcDbEntity
  8
0
  6
Continuous
 62
     9
100
AcDbLine
 10
207.6658264033
 20
372.2228795771
 30
0.0
 11
207.6658264033
 21
383.3829975156
 31
0.0
  0
LINE
  5
A4
330
1F
100
AcDbEntity
  8
0
  6
Continuous
 62
     9
100
AcDbLine
 10
207.6658264033
 20
387.8728795771
 30
0.0
 11
207.6658264033
 21
404.8228795771
 31
0.0
  0
LINE
  5
A5
330
1F
100
AcDbEntity
  8
0
  6
Continuous
 62
     7
100
AcDbLine
 10
208.4158264033
 20
464.1602549749
 30
0.0
 11
208.4158264033
 21
430.6228795771
 31
0.0
  0
LINE
  5
A6
330
1F
100
AcDbEntity
  8
0
  6
Continuous
 62
     7
100
AcDbLine
 10
208.4158264033
 20
371.2854559898
 30
0.0
 11
208.4158264033
 21
382.3952699778
 31
0.0
  0
LINE
  5
A7
330
1F
100
AcDbEntity
  8
0
  6
Continuous
 62
     7
100
AcDbLine
 10
208.4158264033
 20
387.8728795771
 30
0.0
 11
208.4158264033
 21
404.8228795771
 31
0.0
  0
LINE
  5
A8
330
1F
100
AcDbEntity
  8
0
  6
Continuous
 62
     7
100
AcDbLine
 10
209.7437047892
 20
466.4603795771
 30
0.0
 11
209.7437047892
 21
430.6228795771
 31
0.0
  0
LINE
  5
A9
330
1F
100
AcDbEntity
  8
0
  6
Continuous
 62
     7
100
AcDbLine
 10
209.7437047892
 20
404.8228795771
 30
0.0
 11
209.7437047892
 21
387.8728795771
 31
0.0
  0
LINE
  5
AA
330
1F
100
AcDbEntity
  8
0
  6
Continuous
 62
     7
100
AcDbLine
 10
209.7437047892
 20
379.1959875892
 30
0.0
 11
209.7437047892
 21
368.9853795771
 31
0.0
  0
LINE
  5
AB
330
1F
100
AcDbEntity
  8
0
  6
Continuous
 62
     9
100
AcDbLine
 10
214.4283264033
 20
428.8728795771
 30
0.0
 11
198.5283264033
 21
428.8728795771
 31
0.0
  0
LINE
  5
AC
330
1F
100
AcDbEntity
  8
0
  6
Continuous
 62
     7
100
AcDbLine
 10
198.5283264033
 20
430.6228795771
 30
0.0
 11
214.4283264033
 21
430.6228795771
 31
0.0
  0
LWPOLYLINE
  5
AD
330
1F
100
AcDbEntity
  8
DEFAULT_2
  6
DASHED
 62
     8
100
AcDbPolyline
 90
        2
 70
     0
 43
0.35
 10
222.3283264033
 20
431.2228795771
 10
234.0784232078
 20
431.2228795771
  0
LINE
  5
AE
330
1F
100
AcDbEntity
  8
0
  6
Continuous
 62
     9
100
AcDbLine
 10
213.4283264033
 20
466.4603795771
 30
0.0
 11
213.4283264033
 21
430.6228795771
 31
0.0
  0
LINE
  5
AF
330
1F
100
AcDbEntity
  8
0
  6
Continuous
 62
     9
100
AcDbLine
 10
213.4283264033
 20
368.9853795771
 30
0.0
 11
213.4283264033
 21
379.1959875892
 31
0.0
  0
LINE
  5
B0
330
1F
100
AcDbEntity
  8
0
  6
Continuous
 62
     9
100
AcDbLine
 10
213.4283264033
 20
387.8728795771
 30
0.0
 11
213.4283264033
 21
404.8228795771
 31
0.0
  0
LINE
  5
B1
330
1F
100
AcDbEntity
  8
0
  6
Continuous
 62
     7
100
AcDbLine
 10
214.4283264033
 20
369.9853795771
 30
0.0
 11
214.4283264033
 21
465.4603795771
 31
0.0
  0
LINE
  5
B2
330
1F
100
AcDbEntity
  8
RUNDUNGEN
  6
Continuous
 62
     9
100
AcDbLine
 10
219.4283264033
 20
449.2228795771
 30
0.0
 11
219.4283264033
 21
386.2228795771
 31
0.0
  0
LWPOLYLINE
  5
B3
330
1F
100
AcDbEntity
  8
DEFAULT_2
  6
DASHED
 62
     8
100
AcDbPolyline
 90
        2
 70
     0
 43
0.35
 10
222.3283264033
 20
404.2228795771
 10
222.3283264033
 20
431.2228795771
  0
LINE
  5
B4
330
1F
100
AcDbEntity
  8
0
  6
Continuous
 62
     7
100
AcDbLine
 10
258.7425399657
 20
442.7228795771
 30
0.0
 11
269.8283264033
 21
442.7228795771
 31
0.0
  0
LWPOLYLINE
  5
B5
330
1F
100
AcDbEntity
  8
DEFAULT_2
  6
DASHED
 62
     8
100
AcDbPolyline
 90
        2
 70
     0
 43
0.35
 10
269.8283264033
 20
442.7228795771
 10
280.3283264033
 20
442.7228795771
  0
LINE
  5
B6
330
1F
100
AcDbEntity
  8
0
  6
Continuous
 62
     7
100
AcDbLine
 10
280.3283264033
 20
442.7983663049
 30
0.0
 11
291.1425369517
 21
442.7983663049
 31
0.0
  0
LINE
  5
B7
330
1F
100
AcDbEntity
  8
0
  6
Continuous
 62
     7
100
AcDbLine
 10
293.3396342281
 20
444.2961099359
 30
0.0
 11
280.3283264033
 21
444.2961099359
 31
0.0
  0
LINE
  5
B8
330
1F
100
AcDbEntity
  8
0
  6
Continuous
 62
     7
100
AcDbLine
 10
280.3283264033
 20
446.7713005172
 30
0.0
 11
291.1425369517
 21
446.7713005172
 31
0.0
  0
LINE
  5
B9
330
1F
100
AcDbEntity
  8
0
  6
Continuous
 62
     7
100
AcDbLine
 10
203.2629480175
 20
368.9853795771
 30
0.0
 11
204.5908264033
 21
371.2853324076
 31
0.0
  0
LINE
  5
BA
330
1F
100
AcDbEntity
  8
0
  6
Continuous
 62
     7
100
AcDbLine
 10
95.50360939769999
 20
438.1107719215
 30
0.0
 11
194.8386440701
 21
452.5764616187
 31
0.0
  0
LINE
  5
BB
330
1F
100
AcDbEntity
  8
0
  6
Continuous
 62
     7
100
AcDbLine
 10
219.4283264033
 20
449.2228795771
 30
0.0
 11
250.5856857162
 21
449.2228795771
 31
0.0
  0
LINE
  5
BC
330
1F
100
AcDbEntity
  8
0
  6
Continuous
 62
     7
100
AcDbLine
 10
271.0783264033
 20
449.2228795771
 30
0.0
 11
291.1425369517
 21
449.2228795771
 31
0.0
  0
LINE
  5
BD
330
1F
100
AcDbEntity
  8
0
  6
Continuous
 62
     7
100
AcDbLine
 10
195.8783264033
 20
452.2978795771
 30
0.0
 11
197.5283264033
 21
452.2978795771
 31
0.0
  0
LINE
  5
BE
330
1F
100
AcDbEntity
  8
0
  6
Continuous
 62
     7
100
AcDbLine
 10
194.8386440701
 20
452.5764616187
 30
0.0
 11
195.8783264033
 21
452.2978795771
 31
0.0
  0
LINE
  5
BF
330
1F
100
AcDbEntity
  8
0
  6
Continuous
 62
     7
100
AcDbLine
 10
203.2629480175
 20
466.4603795771
 30
0.0
 11
204.5908264033
 21
464.1604267466
 31
0.0
  0
LWPOLYLINE
  5
C0
330
1F
100
AcDbEntity
  8
DEFAULT_2
  6
DASHED
 62
     8
100
AcDbPolyline
 90
        2
 70
     0
 43
0.35
 10
234.0784232078
 20
431.2228795771
 10
234.0784232078
 20
404.2228795771
  0
LINE
  5
C1
330
1F
100
AcDbEntity
  8
0
  6
Continuous
 62
     7
100
AcDbLine
 10
205.3408264033
 20
463.2228795771
 30
0.0
 11
207.6658264033
 21
463.2228795771
 31
0.0
  0
LINE
  5
C2
330
1F
100
AcDbEntity
  8
0
  6
Continuous
 62
     7
100
AcDbLine
 10
199.5283264033
 20
466.4603795771
 30
0.0
 11
203.2629480175
 21
466.4603795771
 31
0.0
  0
LINE
  5
C3
330
1F
100
AcDbEntity
  8
0
  6
Continuous
 62
     7
100
AcDbLine
 10
209.7437047892
 20
466.4603795771
 30
0.0
 11
213.4283264033
 21
466.4603795771
 31
0.0
  0
LINE
  5
C4
330
1F
100
AcDbEntity
  8
RUNDUNGEN
  6
Continuous
 62
     9
100
AcDbLine
 10
250.5856857162
 20
386.2228795771
 30
0.0
 11
250.5856857162
 21
449.2228795771
 31
0.0
  0
LINE
  5
C5
330
1F
100
AcDbEntity
  8
RUNDUNGEN
  6
Continuous
 62
     9
100
AcDbLine
 10
252.7070060598
 20
387.1015592336
 30
0.0
 11
252.7070060598
 21
448.3441999207
 31
0.0
  0
LINE
  5
C6
330
1F
100
AcDbEntity
  8
RUNDUNGEN
  6
Continuous
 62
     9
100
AcDbLine
 10
258.0354331845
 20
443.0157727959
 30
0.0
 11
258.0354331845
 21
392.4299863583
 31
0.0
  0
LINE
  5
C7
330
1F
100
AcDbEntity
  8
RUNDUNGEN
  6
Continuous
 62
     9
100
AcDbLine
 10
258.7425399657
 20
442.7228795771
 30
0.0
 11
258.7425399657
 21
392.7228795771
 31
0.0
  0
LINE
  5
C8
330
1F
100
AcDbEntity
  8
0
  6
Continuous
 62
     7
100
AcDbLine
 10
252.7070060598
 20
387.1015592336
 30
0.0
 11
258.0354331845
 21
392.4299863583
 31
0.0
  0
LINE
  5
C9
330
1F
100
AcDbEntity
  8
0
  6
Continuous
 62
     7
100
AcDbLine
 10
252.7070060598
 20
448.3441999207
 30
0.0
 11
258.0354331845
 21
443.0157727959
 31
0.0
  0
LINE
  5
CA
330
1F
100
AcDbEntity
  8
RUNDUNGEN
  6
Continuous
 62
     7
100
AcDbLine
 10
269.8283264033
 20
387.4728795771
 30
0.0
 11
269.8283264033
 21
447.9728795771
 31
0.0
  0
LINE
  5
CB
330
1F
100
AcDbEntity
  8
RUNDUNGEN
  6
Continuous
 62
     9
100
AcDbLine
 10
271.0783264033
 20
386.2228795771
 30
0.0
 11
271.0783264033
 21
449.2228795771
 31
0.0
  0
LINE
  5
CC
330
1F
100
AcDbEntity
  8
0
  6
Continuous
 62
     7
100
AcDbLine
 10
280.3283264033
 20
446.7713005172
 30
0.0
 11
280.3283264033
 21
442.7983663049
 31
0.0
  0
LINE
  5
CD
330
1F
100
AcDbEntity
  8
0
  6
Continuous
 62
     7
100
AcDbLine
 10
280.3283264033
 20
421.6958137894
 30
0.0
 11
280.3283264033
 21
413.7499453648
 31
0.0
  0
LINE
  5
CE
330
1F
100
AcDbEntity
  8
0
  6
Continuous
 62
     7
100
AcDbLine
 10
280.3283264033
 20
392.6473928494
 30
0.0
 11
280.3283264033
 21
388.6744586371
 31
0.0
  0
LWPOLYLINE
  5
CF
330
1F
100
AcDbEntity
  8
DEFAULT_2
  6
DASHED
 62
     8
100
AcDbPolyline
 90
        2
 70
     0
 43
0.35
 10
280.3283264033
 20
392.7228795771
 10
280.3283264033
 20
413.7499453648
  0
LWPOLYLINE
  5
D0
330
1F
100
AcDbEntity
  8
DEFAULT_2
  6
DASHED
 62
     8
100
AcDbPolyline
 90
        2
 70
     0
 43
0.35
 10
280.3283264033
 20
421.6958137894
 10
280.3283264033
 20
442.7228795771
  0
LINE
  5
D1
330
1F
100
AcDbEntity
  8
0
  6
Continuous
 62
     9
100
AcDbLine
 10
291.1425369517
 20
386.2228795771
 30
0.0
 11
291.1425369517
 21
388.6744586371
 31
0.0
  0
LINE
  5
D2
330
1F
100
AcDbEntity
  8
0
  6
Continuous
 62
     9
100
AcDbLine
 10
291.1425369517
 20
392.6473928494
 30
0.0
 11
291.1425369517
 21
413.7499453648
 31
0.0
  0
LINE
  5
D3
330
1F
100
AcDbEntity
  8
0
  6
Continuous
 62
     9
100
AcDbLine
 10
291.1425369517
 20
421.6958137894
 30
0.0
 11
291.1425369517
 21
442.7983663049
 31
0.0
  0
LINE
  5
D4
330
1F
100
AcDbEntity
  8
0
  6
Continuous
 62
     9
100
AcDbLine
 10
291.1425369517
 20
446.7713005172
 30
0.0
 11
291.1425369517
 21
449.2228795771
 31
0.0
  0
LINE
  5
D5
330
1F
100
AcDbEntity
  8
0
  6
Continuous
 62
     9
100
AcDbLine
 10
292.2250687064
 20
386.8478795771
 30
0.0
 11
292.2250687064
 21
389.2795319181
 31
0.0
  0
LINE
  5
D6
330
1F
100
AcDbEntity
  8
0
  6
Continuous
 62
     9
100
AcDbLine
 10
292.2250687064
 20
393.1001866047
 30
0.0
 11
292.2250687064
 21
413.9022248905
 31
0.0
  0
LINE
  5
D7
330
1F
100
AcDbEntity
  8
0
  6
Continuous
 62
     9
100
AcDbLine
 10
292.2250687064
 20
421.5435342637
 30
0.0
 11
292.2250687064
 21
442.3455725495
 31
0.0
  0
LINE
  5
D8
330
1F
100
AcDbEntity
  8
0
  6
Continuous
 62
     9
100
AcDbLine
 10
292.2250687064
 20
446.1662272361
 30
0.0
 11
292.2250687064
 21
448.5978795771
 31
0.0
  0
LINE
  5
D9
330
1F
100
AcDbEntity
  8
0
  6
Continuous
 62
     7
100
AcDbLine
 10
295.3283264033
 20
392.2228795771
 30
0.0
 11
295.3283264033
 21
443.2228795771
 31
0.0
  0
LINE
  5
DA
330
1F
100
AcDbEntity
  8
RUNDUNGEN
  6
Continuous
 62
     7
100
AcDbLine
 10
295.3283264033
 20
392.2228795771
 30
0.0
 11
292.2250687064
 21
386.8478795771
 31
0.0
  0
LINE
  5
DB
330
1F
100
AcDbEntity
  8
0
  6
Continuous
 62
     7
100
AcDbLine
 10
292.2250687064
 20
386.8478795771
 30
0.0
 11
295.3283264033
 21
392.2228795771
 31
0.0
  0
LINE
  5
DC
330
1F
100
AcDbEntity
  8
0
  6
Continuous
 62
     7
100
AcDbLine
 10
292.2250687064
 20
448.5978795771
 30
0.0
 11
295.3283264033
 21
443.2228795771
 31
0.0
  0
LINE
  5
DD
330
1F
100
AcDbEntity
  8
RUNDUNGEN
  6
Continuous
 62
     7
100
AcDbLine
 10
295.3283264033
 20
443.2228795771
 30
0.0
 11
292.2250687064
 21
448.5978795771
 31
0.0
  0
LINE
  5
DE
330
1F
100
AcDbEntity
  8
0
  6
Continuous
 62
     7
100
AcDbLine
 10
293.3396342281
 20
414.3728795771
 30
0.0
 11
292.2250687064
 21
413.9022248905
 31
0.0
  0
LINE
  5
DF
330
1F
100
AcDbEntity
  8
0
  6
Continuous
 62
     7
100
AcDbLine
 10
292.2250687064
 20
421.5435342637
 30
0.0
 11
293.3396342281
 21
421.0728795771
 31
0.0
  0
ARC
  5
E0
330
1F
100
AcDbEntity
  8
0
  6
Continuous
 62
     7
100
AcDbCircle
 10
-47.4630497756
 20
493.6735735551
 30
0.0
 40
275.6240984709531
100
AcDbArc
 50
335.4592993178373
 51
336.1325788933
  0
ARC
  5
E1
330
1F
100
AcDbEntity
  8
0
  6
Continuous
 62
     7
100
AcDbCircle
 10
460.4697025807
 20
493.6735735544
 30
0.0
 40
275.6240984692003
100
AcDbArc
 50
203.8674211067
 51
204.5407006821684
  0
ARC
  5
E2
330
1F
100
AcDbEntity
  8
0
  6
Continuous
 62
     7
100
AcDbCircle
 10
243.4280658022
 20
417.7228795771
 30
0.0
 40
50.02386593150613
100
AcDbArc
 50
356.1601404676776
 51
3.83985953232235
  0
ARC
  5
E3
330
1F
100
AcDbEntity
  8
0
  6
Continuous
 62
     7
100
AcDbCircle
 10
280.9038536862
 20
442.6211099359
 30
0.0
 40
12.54807804749972
100
AcDbArc
 50
352.328884866801
 51
7.67111513316774
  0
ARC
  5
E4
330
1F
100
AcDbEntity
  8
0
  6
Continuous
 62
     7
100
AcDbCircle
 10
280.9038536862
 20
392.8246492183
 30
0.0
 40
12.54807804750586
100
AcDbArc
 50
352.3288848668323
 51
7.67111513319901
  0
ARC
  5
E5
330
1F
100
AcDbEntity
  8
RUNDUNGEN
  6
Continuous
 62
     7
100
AcDbCircle
 10
219.4283264033
 20
381.2228795771
 30
0.0
 40
5.0
100
AcDbArc
 50
90.0
 51
180.0
  0
ARC
  5
E6
330
1F
100
AcDbEntity
  8
RUNDUNGEN
  6
Continuous
 62
     7
100
AcDbCircle
 10
219.4283264033
 20
454.2228795771
 30
0.0
 40
5.0
100
AcDbArc
 50
180.0
 51
270.0
  0
ARC
  5
E7
330
1F
100
AcDbEntity
  8
RUNDUNGEN
  6
Continuous
 62
     7
100
AcDbCircle
 10
250.5856857162
 20
446.2228795771
 30
0.0
 40
3.00000000005708
100
AcDbArc
 50
45.00000000000039
 51
90.0
  0
ARC
  5
E8
330
1F
100
AcDbEntity
  8
RUNDUNGEN
  6
Continuous
 62
     7
100
AcDbCircle
 10
250.5856857162
 20
389.2228795771
 30
0.0
 40
3.0
100
AcDbArc
 50
270.0
 51
315.0000000013507
  0
ARC
  5
E9
330
1F
100
AcDbEntity
  8
0
  6
Continuous
 62
     7
100
AcDbCircle
 10
95.8283264033
 20
399.5614325759
 30
0.0
 40
2.25
100
AcDbArc
 50
180.0
 51
261.7021731726456
  0
ARC
  5
EA
330
1F
100
AcDbEntity
  8
0
  6
Continuous
 62
     7
100
AcDbCircle
 10
95.8283264033
 20
435.8843265783
 30
0.0
 40
2.249999999996176
100
AcDbArc
 50
98.29782682735467
 51
180.0
  0
ARC
  5
EB
330
1F
100
AcDbEntity
  8
RUNDUNGEN
  6
Continuous
 62
     7
100
AcDbCircle
 10
291.1425369517
 20
447.9728795771
 30
0.0
 40
1.249999999973569
100
AcDbArc
 50
30.00000000069947
 51
90.0
  0
ARC
  5
EC
330
1F
100
AcDbEntity
  8
RUNDUNGEN
  6
Continuous
 62
     7
100
AcDbCircle
 10
291.1425369517
 20
387.4728795771
 30
0.0
 40
1.25
100
AcDbArc
 50
270.0
 51
329.9999999993005
  0
ARC
  5
ED
330
1F
100
AcDbEntity
  8
RUNDUNGEN
  6
Continuous
 62
     7
100
AcDbCircle
 10
271.0783264033
 20
447.9728795771
 30
0.0
 40
1.25
100
AcDbArc
 50
90.0
 51
180.0
  0
ARC
  5
EE
330
1F
100
AcDbEntity
  8
RUNDUNGEN
  6
Continuous
 62
     7
100
AcDbCircle
 10
271.0783264033
 20
387.4728795771
 30
0.0
 40
1.25
100
AcDbArc
 50
180.0
 51
270.0
  0
ARC
  5
EF
330
1F
100
AcDbEntity
  8
RUNDUNGEN
  6
Continuous
 62
     7
100
AcDbCircle
 10
258.7425399657
 20
443.7228795771
 30
0.0
 40
1.00000000001906
100
AcDbArc
 50
225.0
 51
270.0
  0
ARC
  5
F0
330
1F
100
AcDbEntity
  8
RUNDUNGEN
  6
Continuous
 62
     7
100
AcDbCircle
 10
258.7425399657
 20
391.7228795771
 30
0.0
 40
1.0
100
AcDbArc
 50
90.0
 51
135.0
  0
ARC
  5
F1
330
1F
100
AcDbEntity
  8
0
  6
Continuous
 62
     7
100
AcDbCircle
 10
197.5283264033
 20
382.1478795771
 30
0.0
 40
1.0
100
AcDbArc
 50
0.0
 51
90.0
  0
ARC
  5
F2
330
1F
100
AcDbEntity
  8
0
  6
Continuous
 62
     7
100
AcDbCircle
 10
199.5283264033
 20
369.9853795771
 30
0.0
 40
1.0
100
AcDbArc
 50
180.0
 51
270.0
  0
ARC
  5
F3
330
1F
100
AcDbEntity
  8
0
  6
Continuous
 62
     7
100
AcDbCircle
 10
213.4283264033
 20
369.9853795771
 30
0.0
 40
1.0
100
AcDbArc
 50
270.0
 51
0.0
  0
ARC
  5
F4
330
1F
100
AcDbEntity
  8
0
  6
Continuous
 62
     7
100
AcDbCircle
 10
197.5283264033
 20
453.2978795771
 30
0.0
 40
1.0
100
AcDbArc
 50
270.0
 51
0.0
  0
ARC
  5
F5
330
1F
100
AcDbEntity
  8
0
  6
Continuous
 62
     7
100
AcDbCircle
 10
199.5283264033
 20
465.4603795771
 30
0.0
 40
1.0
100
AcDbArc
 50
90.0
 51
180.0
  0
ARC
  5
F6
330
1F
100
AcDbEntity
  8
0
  6
Continuous
 62
     7
100
AcDbCircle
 10
213.4283264033
 20
465.4603795771
 30
0.0
 40
1.0
100
AcDbArc
 50
0.0
 51
90.0
  0
ARC
  5
F7
330
1F
100
AcDbEntity
  8
0
  6
Continuous
 62
     7
100
AcDbCircle
 10
207.6658264033
 20
371.4728795771
 30
0.0
 40
0.75
100
AcDbArc
 50
0.0
 51
90.0
  0
ARC
  5
F8
330
1F
100
AcDbEntity
  8
0
  6
Continuous
 62
     7
100
AcDbCircle
 10
205.3408264033
 20
371.4728795771
 30
0.0
 40
0.75
100
AcDbArc
 50
90.0
 51
180.0
  0
ARC
  5
F9
330
1F
100
AcDbEntity
  8
0
  6
Continuous
 62
     7
100
AcDbCircle
 10
207.6658264033
 20
463.9728795771
 30
0.0
 40
0.75
100
AcDbArc
 50
270.0
 51
0.0
  0
ARC
  5
FA
330
1F
100
AcDbEntity
  8
0
  6
Continuous
 62
     7
100
AcDbCircle
 10
205.3408264033
 20
463.9728795771
 30
0.0
 40
0.75
100
AcDbArc
 50
180.0
 51
270.0
  0
SPLINE
  5
FB
330
1F
100
AcDbEntity
  8
0
  6
Continuous
 62
     7
100
AcDbSpline
210
0.0
220
0.0
230
1.0
 70
     8
 71
     3
 72
    11
 73
     7
 74
     5
 42
0.0000000001
 43
0.0000000001
 44
0.00000001
 40
0.0
 40
0.0
 40
0.0
 40
0.0
 40
0.2824665656321695
 40
0.5684424498184142
 40
0.8897488044323969
 40
1.209172372514504
 40
1.209172372514504
 40
1.209172372514504
 40
1.209172372514504
 10
292.2250687064
 20
442.3455725495
 30
0.0
 10
292.159458606853
 20
442.4139408707398
 30
0.0
 10
292.0274232785803
 20
442.5515269100946
 30
0.0
 10
291.7605961200584
 20
442.6896575131717
 30
0.0
 10
291.463365626564
 20
442.7820890352197
 30
0.0
 10
291.2492701366047
 20
442.7929511878277
 30
0.0
 10
291.1425369517
 20
442.7983663049
 30
0.0
 11
292.2250687064
 21
442.3455725495
 31
0.0
 11
292.0187479007681
 21
442.5384950361713
 31
0.0
 11
291.7683837604612
 21
442.6766977987504
 31
0.0
 11
291.4606019681748
 21
442.7689373881482
 31
0.0
 11
291.1425369517
 21
442.7983663049
 31
0.0
  0
SPLINE
  5
FC
330
1F
100
AcDbEntity
  8
0
  6
Continuous
 62
     7
100
AcDbSpline
210
0.0
220
0.0
230
1.0
 70
     8
 71
     3
 72
    11
 73
     7
 74
     5
 42
0.0000000001
 43
0.0000000001
 44
0.00000001
 40
0.0
 40
0.0
 40
0.0
 40
0.0
 40
0.3194240369407281
 40
0.6407308582647062
 40
0.9267062690662614
 40
1.209172374262843
 40
1.209172374262843
 40
1.209172374262843
 40
1.209172374262843
 10
291.1425369517
 20
392.6473928494
 30
0.0
 10
291.2492702936239
 20
392.6528079827064
 30
0.0
 10
291.4633660969057
 20
392.6636701677951
 30
0.0
 10
291.7605967095294
 20
392.7561018748114
 30
0.0
 10
292.0274236363178
 20
392.8942325551235
 30
0.0
 10
292.1594587250497
 20
393.0318183861247
 30
0.0
 10
292.2250687064
 20
393.1001866047
 30
0.0
 11
291.1425369517
 21
392.6473928494
 31
0.0
 11
291.4606024309043
 21
392.6768218540387
 31
0.0
 11
291.7683846278408
 21
392.769061718947
 31
0.0
 11
292.0187482795762
 21
392.9072643870574
 31
0.0
 11
292.2250687064
 21
393.1001866047
 31
0.0
  0
SPLINE
  5
FD
330
1F
100
AcDbEntity
  8
0
  6
Continuous
 62
     7
100
AcDbSpline
210
0.0
220
0.0
230
1.0
 70
     8
 71
     3
 72
     9
 73
     5
 74
     3
 42
0.0000000001
 43
0.0000000001
 44
0.00000001
 40
0.0
 40
0.0
 40
0.0
 40
0.0
 40
0.8945322732060268
 40
1.789064548103913
 40
1.789064548103913
 40
1.789064548103913
 40
1.789064548103913
 10
293.339634228093
 20
440.946109935894
 30
0.0
 10
293.1539162660368
 20
441.1793879174272
 30
0.0
 10
292.7824803415731
 20
441.6459438809348
 30
0.0
 10
292.4108725849081
 20
442.1123629931645
 30
0.0
 10
292.2250687064
 20
442.3455725495
 30
0.0
 11
293.339634228093
 21
440.946109935894
 31
0.0
 11
292.7824373838741
 21
441.6459096676742
 31
0.0
 11
292.2250687064
 21
442.3455725495
 31
0.0
  0
SPLINE
  5
FE
330
1F
100
AcDbEntity
  8
0
  6
Continuous
 62
     7
100
AcDbSpline
210
0.0
220
0.0
230
1.0
 70
     8
 71
     3
 72
     9
 73
     5
 74
     3
 42
0.0000000001
 43
0.0000000001
 44
0.00000001
 40
0.0
 40
0.0
 40
0.0
 40
0.0
 40
0.8945322749565293
 40
1.789064548103902
 40
1.789064548103902
 40
1.789064548103902
 40
1.789064548103902
 10
292.2250687064
 20
393.1001866047
 30
0.0
 10
292.4108725849021
 20
393.3333961610653
 30
0.0
 10
292.7824803415305
 20
393.7998152733242
 30
0.0
 10
293.1539162660307
 20
394.2663712368027
 30
0.0
 10
293.339634228093
 20
394.499649218306
 30
0.0
 11
292.2250687064
 21
393.1001866047
 31
0.0
 11
292.7824373838741
 21
393.7998494866007
 31
0.0
 11
293.339634228093
 21
394.499649218306
 31
0.0
  0
SPLINE
  5
FF
330
1F
100
AcDbEntity
  8
0
  6
Continuous
 62
     7
100
AcDbSpline
210
0.0
220
0.0
230
1.0
 70
     8
 71
     3
 72
     9
 73
     5
 74
     3
 42
0.0000000001
 43
0.0000000001
 44
0.00000001
 40
0.0
 40
0.0
 40
0.0
 40
0.0
 40
1.088530555848417
 40
2.17706111004291
 40
2.17706111004291
 40
2.17706111004291
 40
2.17706111004291
 10
292.2250687064
 20
446.1662272361
 30
0.0
 10
292.4108814314378
 20
445.8545718940371
 30
0.0
 10
292.782506881231
 20
445.2312612103849
 30
0.0
 10
293.1539251125712
 20
444.6078270272372
 30
0.0
 10
293.3396342281
 20
444.2961099359
 30
0.0
 11
292.2250687064
 21
446.1662272361
 31
0.0
 11
292.7824550769
 21
445.2312303350375
 31
0.0
 11
293.3396342281
 21
444.2961099359
 31
0.0
  0
SPLINE
  5
100
330
1F
100
AcDbEntity
  8
0
  6
Continuous
 62
     7
100
AcDbSpline
210
0.0
220
0.0
230
1.0
 70
     8
 71
     3
 72
    15
 73
    11
 74
     9
 42
0.0000000001
 43
0.0000000001
 44
0.00000001
 40
0.0
 40
0.0
 40
0.0
 40
0.0
 40
0.1635787864367744
 40
0.3274341230722374
 40
0.4903801840820666
 40
0.6532371553341847
 40
0.8146888508027391
 40
0.97622309207282
 40
1.136240333943238
 40
1.29595929672772
 40
1.29595929672772
 40
1.29595929672772
 40
1.29595929672772
 10
291.1425369517
 20
446.7713005172
 30
0.0
 10
291.1970983948146
 20
446.7692873607008
 30
0.0
 10
291.306313523921
 20
446.7652576442118
 30
0.0
 10
291.4672636890222
 20
446.7331166664576
 30
0.0
 10
291.6227283274164
 20
446.6822669331204
 30
0.0
 10
291.7696639943235
 20
446.6119609902048
 30
0.0
 10
291.9060559824243
 20
446.5237682300662
 30
0.0
 10
292.028852204383
 20
446.4190861968144
 30
0.0
 10
292.1378278254585
 20
446.3004081424342
 30
0.0
 10
292.1960065042117
 20
446.2109263792955
 30
0.0
 10
292.2250687064
 20
446.1662272361
 30
0.0
 11
291.1425369517
 21
446.7713005172
 31
0.0
 11
291.305785439105
 21
446.7609105830282
 31
0.0
 11
291.466681506259
 21
446.7299101488649
 31
0.0
 11
291.621457747715
 21
446.6789618036576
 31
0.0
 11
291.7683846278272
 21
446.6087130671145
 31
0.0
 11
291.9038942918086
 21
446.5209418819948
 31
0.0
 11
292.026981831198
 21
446.4163341922691
 31
0.0
 11
292.1343336740803
 21
446.2976703834409
 31
0.0
 11
292.2250687064
 21
446.1662272361
 31
0.0
  0
SPLINE
  5
101
330
1F
100
AcDbEntity
  8
0
  6
Continuous
 62
     7
100
AcDbSpline
210
0.0
220
0.0
230
1.0
 70
     8
 71
     3
 72
    13
 73
     9
 74
     7
 42
0.0000000001
 43
0.0000000001
 44
0.00000001
 40
0.0
 40
0.0
 40
0.0
 40
0.0
 40
0.3138224605695197
 40
0.6275710913548667
 40
0.759121968231448
 40
0.8907394320537794
 40
0.9948365677334987
 40
1.098755804293738
 40
1.098755804293738
 40
1.098755804293738
 40
1.098755804293738
 10
291.1425369517
 20
421.6958137894
 30
0.0
 10
291.2471649473482
 20
421.6941503996634
 30
0.0
 10
291.4563963238919
 20
421.6908240115189
 30
0.0
 10
291.7084984448713
 20
421.6651570066796
 30
0.0
 10
291.8984697963151
 20
421.6349468355686
 30
0.0
 10
292.018240056404
 20
421.6094996742092
 30
0.0
 10
292.1279225865354
 20
421.5808195226892
 30
0.0
 10
292.1927051341552
 20
421.5559555953459
 30
0.0
 10
292.2250687064
 20
421.5435342637
 30
0.0
 11
291.1425369517
 21
421.6958137894
 31
0.0
 11
291.456216664126
 21
421.6863493945301
 31
0.0
 11
291.7683846277719
 21
421.6548952089126
 31
0.0
 11
291.8982391793887
 21
421.6338374637485
 31
0.0
 11
292.026981831181
 21
421.6064789843959
 31
0.0
 11
292.1273802678908
 21
421.5789768469707
 31
0.0
 11
292.2250687064
 21
421.5435342637
 31
0.0
  0
SPLINE
  5
102
330
1F
100
AcDbEntity
  8
0
  6
Continuous
 62
     7
100
AcDbSpline
210
0.0
220
0.0
230
1.0
 70
     8
 71
     3
 72
     9
 73
     5
 74
     3
 42
0.0000000001
 43
0.0000000001
 44
0.00000001
 40
0.0
 40
0.0
 40
0.0
 40
0.0
 40
1.088530554162312
 40
2.177061110042906
 40
2.177061110042906
 40
2.177061110042906
 40
2.177061110042906
 10
293.3396342281
 20
391.1496492183
 30
0.0
 10
293.1539251125683
 20
390.837932126977
 30
0.0
 10
292.7825068812119
 20
390.214497943839
 30
0.0
 10
292.4108814314351
 20
389.591187260177
 30
0.0
 10
292.2250687064
 20
389.2795319181
 30
0.0
 11
293.3396342281
 21
391.1496492183
 31
0.0
 11
292.7824550769
 21
390.2145288192
 31
0.0
 11
292.2250687064
 21
389.2795319181
 31
0.0
  0
SPLINE
  5
103
330
1F
100
AcDbEntity
  8
0
  6
Continuous
 62
     7
100
AcDbSpline
210
0.0
220
0.0
230
1.0
 70
     8
 71
     3
 72
    15
 73
    11
 74
     9
 42
0.0000000001
 43
0.0000000001
 44
0.00000001
 40
0.0
 40
0.0
 40
0.0
 40
0.0
 40
0.1597192799850043
 40
0.3197368409725907
 40
0.4812712601287684
 40
0.642723132316226
 40
0.8055799297116877
 40
0.9685258155826042
 40
1.132380830363907
 40
1.295959296699983
 40
1.295959296699983
 40
1.295959296699983
 40
1.295959296699983
 10
292.2250687064
 20
389.2795319181
 30
0.0
 10
292.1960064424525
 20
389.2348326883907
 30
0.0
 10
292.1378276398246
 20
389.1453507516921
 30
0.0
 10
292.0288517824223
 20
389.0266725404321
 30
0.0
 10
291.9060553283595
 20
388.9219904319718
 30
0.0
 10
291.7696632262426
 20
388.8337977346161
 30
0.0
 10
291.6227275635404
 20
388.7634919194362
 30
0.0
 10
291.4672631099581
 20
388.7126423431355
 30
0.0
 10
291.3063132026472
 20
388.6805014847581
 30
0.0
 10
291.1970982879183
 20
388.6764717851656
 30
0.0
 10
291.1425369517
 20
388.6744586371
 30
0.0
 11
292.2250687064
 21
389.2795319181
 31
0.0
 11
292.1343334751747
 21
389.1480885226272
 31
0.0
 11
292.0269813705842
 21
389.0294245202322
 31
0.0
 11
291.9038936347235
 21
388.924816786996
 31
0.0
 11
291.7683837604534
 21
388.8370456014728
 31
0.0
 11
291.6214569881334
 21
388.7667970425301
 31
0.0
 11
291.4666808841673
 21
388.7158488397814
 31
0.0
 11
291.305785121063
 21
388.6848485287499
 31
0.0
 11
291.1425369517
 21
388.6744586371
 31
0.0
  0
SPLINE
  5
104
330
1F
100
AcDbEntity
  8
0
  6
Continuous
 62
     7
100
AcDbSpline
210
0.0
220
0.0
230
1.0
 70
     8
 71
     3
 72
    13
 73
     9
 74
     7
 42
0.0000000001
 43
0.0000000001
 44
0.00000001
 40
0.0
 40
0.0
 40
0.0
 40
0.0
 40
0.1039194727053363
 40
0.2080168457233001
 40
0.3396345108738792
 40
0.4711855883484283
 40
0.7849337816955793
 40
1.098755804385505
 40
1.098755804385505
 40
1.098755804385505
 40
1.098755804385505
 10
292.2250687064
 20
413.9022248905
 30
0.0
 10
292.1927050596888
 20
413.8898035327819
 30
0.0
 10
292.1279223627629
 20
413.8649395531558
 30
0.0
 10
292.0182396069199
 20
413.8362593725295
 30
0.0
 10
291.8984691325595
 20
413.8108121951028
 30
0.0
 10
291.7084977853663
 20
413.7806020717076
 30
0.0
 10
291.4563958859098
 20
413.7549351302513
 30
0.0
 10
291.2471648013052
 20
413.7516087503923
 30
0.0
 10
291.1425369517
 20
413.7499453648
 30
0.0
 11
292.2250687064
 21
413.9022248905
 31
0.0
 11
292.1273800424069
 21
413.8667822363304
 31
0.0
 11
292.0269813706332
 21
413.8392800586833
 31
0.0
 11
291.8982385152639
 21
413.8119215687572
 31
0.0
 11
291.7683837605001
 21
413.7908638231523
 31
0.0
 11
291.4562162268362
 21
413.7594097335169
 31
0.0
 11
291.1425369517
 21
413.7499453648
 31
0.0
  0
SPLINE
  5
105
330
1F
100
AcDbEntity
  8
0
  6
Continuous
 62
     7
100
AcDbSpline
210
0.0
220
0.0
230
1.0
 70
     8
 71
     3
 72
    17
 73
    13
 74
    11
 42
0.0000000001
 43
0.0000000001
 44
0.00000001
 40
0.0
 40
0.0
 40
0.0
 40
0.0
 40
0.2235602340948689
 40
0.4475666316117682
 40
0.6712655547848858
 40
0.895071334524478
 40
1.119203328740129
 40
1.34235151139804
 40
1.45438847426335
 40
1.56641898294937
 40
1.67855429142339
 40
1.790469539379894
 40
1.790469539379894
 40
1.790469539379894
 40
1.790469539379894
 10
214.4283264033
 20
380.4690689499
 30
0.0
 10
214.4253863911443
 20
380.3944888885704
 30
0.0
 10
214.4195004993946
 20
380.2451799250605
 30
0.0
 10
214.3715428360725
 20
380.0254894065807
 30
0.0
 10
214.2942000468094
 20
379.8146652221679
 30
0.0
 10
214.1825429114698
 20
379.6192214618112
 30
0.0
 10
214.0372391850514
 20
379.4474107311003
 30
0.0
 10
213.8887303979954
 20
379.3318228791231
 30
0.0
 10
213.7559847750411
 20
379.2631276314262
 30
0.0
 10
213.6502971425474
 20
379.2250802796607
 30
0.0
 10
213.5403994687182
 20
379.200677532168
 30
0.0
 10
213.4656596221626
 20
379.1975498795382
 30
0.0
 10
213.4283264033
 20
379.1959875892
 30
0.0
 11
214.4283264033
 21
380.4690689499
 31
0.0
 11
214.4129968885686
 21
380.2460349071024
 31
0.0
 11
214.3666192042768
 21
380.0268820460026
 31
0.0
 11
214.2885016670975
 21
379.8172660670939
 31
0.0
 11
214.1769754388692
 21
379.6232275980677
 31
0.0
 11
214.03152311134
 21
379.4527026109033
 31
0.0
 11
213.8545771240536
 21
379.3167422159099
 31
0.0
 11
213.7550008305333
 21
379.2653920180832
 31
0.0
 11
213.6496223455253
 21
379.2273629532265
 31
0.0
 11
213.5399578165998
 21
379.2039531582232
 31
0.0
 11
213.4283264033
 21
379.1959875892
 31
0.0
  0
SPLINE
  5
106
330
1F
100
AcDbEntity
  8
0
  6
Continuous
 62
     7
100
AcDbSpline
210
0.0
220
0.0
230
1.0
 70
     8
 71
     3
 72
    17
 73
    13
 74
    11
 42
0.0000000001
 43
0.0000000001
 44
0.00000001
 40
0.0
 40
0.0
 40
0.0
 40
0.0
 40
0.0856061207781685
 40
0.1714040658159907
 40
0.2570770785180452
 40
0.342748632406618
 40
0.513356011918052
 40
0.6847864607641313
 40
0.8559332498662828
 40
1.026944760390285
 40
1.198166489446577
 40
1.369069305193584
 40
1.369069305193584
 40
1.369069305193584
 40
1.369069305193584
 10
205.3408264033
 20
383.3829975156
 30
0.0
 10
205.3122670759236
 20
383.381716379691
 30
0.0
 10
205.2550844260757
 20
383.3791512371326
 30
0.0
 10
205.1712420804646
 20
383.3592786808492
 30
0.0
 10
205.0910303546154
 20
383.3284569698999
 30
0.0
 10
204.990914765639
 20
383.2732997827108
 30
0.0
 10
204.8799051933381
 20
383.1817001973492
 30
0.0
 10
204.7723918454647
 20
383.0474258474998
 30
0.0
 10
204.6899707677301
 20
382.8964072409484
 30
0.0
 10
204.6329439923514
 20
382.7345236989654
 30
0.0
 10
204.5974084174287
 20
382.5664076278504
 30
0.0
 10
204.5930190441499
 20
382.4522803997053
 30
0.0
 10
204.5908264033
 20
382.3952699778
 30
0.0
 11
205.3408264033
 21
383.3829975156
 31
0.0
 11
205.2554680652845
 21
383.3764889023901
 31
0.0
 11
205.1718110341792
 21
383.3574418942429
 31
0.0
 11
205.0918505739329
 21
383.3266816942655
 31
0.0
 11
205.0167337507902
 21
383.2854860873805
 31
0.0
 11
204.8843773209833
 21
383.1778354792422
 31
0.0
 11
204.7765377938396
 21
383.0445724491964
 31
0.0
 11
204.6941780273983
 21
382.8945454773157
 31
0.0
 11
204.6365417888329
 21
382.7335392639706
 31
0.0
 11
204.6022211715708
 21
382.5657925032514
 31
0.0
 11
204.5908264033
 21
382.3952699778
 31
0.0
  0
SPLINE
  5
107
330
1F
100
AcDbEntity
  8
0
  6
Continuous
 62
     7
100
AcDbSpline
210
0.0
220
0.0
230
1.0
 70
     8
 71
     3
 72
    17
 73
    13
 74
    11
 42
0.0000000001
 43
0.0000000001
 44
0.00000001
 40
0.0
 40
0.0
 40
0.0
 40
0.0
 40
0.1709021129121859
 40
0.3421231434978304
 40
0.5131353763839581
 40
0.684282884129611
 40
0.8557140430166246
 40
1.026322127398847
 40
1.111993247384537
 40
1.197665821289319
 40
1.283463468635714
 40
1.369069297522693
 40
1.369069297522693
 40
1.369069297522693
 40
1.369069297522693
 10
208.4158264033
 20
382.3952699778
 30
0.0
 10
208.4136337751937
 20
382.4522801649821
 30
0.0
 10
208.4092444273533
 20
382.5664069251361
 30
0.0
 10
208.3737090184141
 20
382.7345227895268
 30
0.0
 10
208.3166823385875
 20
382.8964066317476
 30
0.0
 10
208.2342609849136
 20
383.0474259187609
 30
0.0
 10
208.1267471057461
 20
383.1817007725402
 30
0.0
 10
208.0157371355368
 20
383.2733004124666
 30
0.0
 10
207.9156215105255
 20
383.3284574103134
 30
0.0
 10
207.8354101152339
 20
383.3592788901127
 30
0.0
 10
207.7515680860182
 20
383.3791512762067
 30
0.0
 10
207.6943856331529
 20
383.3817163926803
 30
0.0
 10
207.6658264033
 20
383.3829975156
 30
0.0
 11
208.4158264033
 21
382.3952699778
 31
0.0
 11
208.4044317110803
 21
382.5657918039311
 31
0.0
 11
208.3701113597074
 21
382.7335379061107
 31
0.0
 11
208.3124750424572
 21
382.8945448585399
 31
0.0
 11
208.2301149918225
 21
383.0445724942174
 31
0.0
 11
208.1222749443816
 21
383.177836016628
 31
0.0
 11
207.9899178089319
 21
383.285486874275
 31
0.0
 11
207.9148012988256
 21
383.3266821495995
 31
0.0
 11
207.8348412117527
 21
383.3574420974986
 31
0.0
 11
207.751184453057
 21
383.3764889611434
 31
0.0
 11
207.6658264033
 21
383.3829975156
 31
0.0
  0
SPLINE
  5
108
330
1F
100
AcDbEntity
  8
0
  6
Continuous
 62
     7
100
AcDbSpline
210
0.0
220
0.0
230
1.0
 70
     8
 71
     3
 72
    17
 73
    13
 74
    11
 42
0.0000000001
 43
0.0000000001
 44
0.00000001
 40
0.0
 40
0.0
 40
0.0
 40
0.0
 40
0.1119154476661611
 40
0.2240509586530764
 40
0.3360819825980891
 40
0.4481194617025764
 40
0.6712673498095136
 40
0.8953990333267489
 40
1.119204507490582
 40
1.342903129543677
 40
1.566909390283668
 40
1.790469488977744
 40
1.790469488977744
 40
1.790469488977744
 40
1.790469488977744
 10
199.5283264033
 20
379.1959875892
 30
0.0
 10
199.4909931176769
 20
379.1975498887016
 30
0.0
 10
199.4162531366647
 20
379.2006775597095
 30
0.0
 10
199.3063551772759
 20
379.22508045084
 30
0.0
 10
199.2006671952032
 20
379.2631280548579
 30
0.0
 10
199.0679214549589
 20
379.3318236173153
 30
0.0
 10
198.9194128403327
 20
379.4474116220972
 30
0.0
 10
198.7741094345262
 20
379.6192222185927
 30
0.0
 10
198.6624525385237
 20
379.8146657576883
 30
0.0
 10
198.5851098805036
 20
380.0254897236829
 30
0.0
 10
198.537152292383
 20
380.245180061249
 30
0.0
 10
198.531266410523
 20
380.3944889338134
 30
0.0
 10
198.5283264033
 20
380.4690689499
 30
0.0
 11
199.5283264033
 21
379.1959875892
 31
0.0
 11
199.4166947928463
 21
379.2039532011552
 31
0.0
 11
199.3070300808448
 21
379.2273631085861
 31
0.0
 11
199.2016511508499
 21
379.2653924582953
 31
0.0
 11
199.1020744745263
 21
379.3167430401464
 31
0.0
 11
198.9251288933301
 21
379.4527034802078
 31
0.0
 11
198.7796768942972
 21
379.623228339198
 31
0.0
 11
198.668150904264
 21
379.817266592676
 31
0.0
 11
198.5900335209378
 21
380.0268823075705
 31
0.0
 11
198.5436558951849
 21
380.2460350412524
 31
0.0
 11
198.5283264033
 21
380.4690689499
 31
0.0
  0
DIMENSION
  5
113
330
1F
100
AcDbEntity
  8
1
100
AcDbDimension
  2
*D2
 10
280.3283264033
 20
472.032306615488
 30
0.0
 11
244.1012381427224
 21
475.782306615488
 31
0.0
 70
    32
  1
<>
 71
     5
 42
-1.0
 53
0.00013888888889
  3
ME10_DIM_10
100
AcDbAlignedDimension
 13
214.4283264033
 23
465.4603795771
 33
0.0
 14
280.3283264033
 24
442.7228795771
 34
0.0
100
AcDbRotatedDimension
  0
DIMENSION
  5
11E
330
1F
100
AcDbEntity
  8
1
100
AcDbDimension
  2
*D3
 10
280.3283264033
 20
479.900990843446
 30
0.0
 11
235.870229878134
 21
483.650990843446
 31
0.0
 70
    32
  1
<>
 71
     5
 42
-1.0
 53
0.00013888888889
  3
ME10_DIM_11
100
AcDbAlignedDimension
 13
195.3283264033
 23
469.4603795771
 33
0.0
 14
280.3283264033
 24
442.7228795771
 34
0.0
100
AcDbRotatedDimension
  0
DIMENSION
  5
129
330
1F
100
AcDbEntity
  8
1
100
AcDbDimension
  2
*D4
 10
195.3283264033
 20
487.602256258043
 30
0.0
 11
245.4131022397
 21
491.352256258043
 31
0.0
 70
    32
  1
<>
 71
     5
 42
-1.0
 53
0.00013888888889
  3
ME10_DIM_12
100
AcDbAlignedDimension
 13
295.3283264033
 23
443.2228795771
 33
0.0
 14
195.3283264033
 24
469.4603795771
 34
0.0
100
AcDbRotatedDimension
  0
DIMENSION
  5
134
330
1F
100
AcDbEntity
  8
1
100
AcDbDimension
  2
*D5
 10
280.3283264033
 20
494.131589979114
 30
0.0
 11
189.4222016094861
 21
497.881589979114
 31
0.0
 70
    32
  1
<>
 71
     5
 42
-1.0
 53
0.00013888888889
  3
ME10_DIM_13
100
AcDbAlignedDimension
 13
93.5783264033
 23
435.8841137771
 33
0.0
 14
280.3283264033
 24
442.7228795771
 34
0.0
100
AcDbRotatedDimension
  0
DIMENSION
  5
13F
330
1F
100
AcDbEntity
  8
1
100
AcDbDimension
  2
*D6
 10
310.539020637052
 20
437.7228795771
 30
0.0
 11
306.789020637052
 21
417.453773459867
 31
0.0
 70
    32
  1
<>
 71
     5
 42
-1.0
 53
90.0
  3
ME10_DIM_14
100
AcDbAlignedDimension
 13
280.3283264033
 23
397.7228795771
 33
0.0
 14
280.3283264033
 24
437.7228795771
 34
0.0
 50
90.0
100
AcDbRotatedDimension
  0
DIMENSION
  5
14A
330
1F
100
AcDbEntity
  8
1
100
AcDbDimension
  2
*D7
 10
319.747055371896
 20
449.2228795771
 30
0.0
 11
315.997055371896
 21
417.621192273228
 31
0.0
 70
    32
  1
<>
 71
     5
 42
-1.0
 53
90.0
  3
ME10_DIM_15
100
AcDbAlignedDimension
 13
250.5856857162
 23
386.2228795771
 33
0.0
 14
250.5856857162
 24
449.2228795771
 34
0.0
 50
90.0
100
AcDbRotatedDimension
  0
INSERT
  5
151
330
1F
100
AcDbEntity
  8
1
100
AcDbBlockReference
  2
*D8
 10
0.0
 20
0.0
 30
0.0
  0
ENDSEC
  0
SECTION
  2
OBJECTS
  0
DICTIONARY
  5
C
330
0
100
AcDbDictionary
281
     1
  3
ACAD_GROUP
350
D
  3
ACAD_LAYOUT
350
1A
  3
ACAD_MLEADERSTYLE
350
154
  3
ACAD_MLINESTYLE
350
17
  3
ACAD_PLOTSETTINGS
350
19
  3
ACAD_PLOTSTYLENAME
350
E
  3
ACAD_SCALELIST
350
4A
  3
ACAD_VISUALSTYLE
350
2A
  3
AcDbVariableDictionary
350
152
  0
DICTIONARY
  5
D
102
{ACAD_REACTORS
330
C
102
}
330
C
100
AcDbDictionary
281
     1
  0
DICTIONARY
  5
1A
102
{ACAD_REACTORS
330
C
102
}
330
C
100
AcDbDictionary
281
     1
  3
Layout1
350
1E
  3
Layout2
350
26
  3
Model
350
22
  0
DICTIONARY
  5
154
102
{ACAD_REACTORS
330
C
102
}
330
C
100
AcDbDictionary
281
     1
  0
DICTIONARY
  5
17
102
{ACAD_REACTORS
330
C
102
}
330
C
100
AcDbDictionary
281
     1
  3
Standard
350
18
  0
DICTIONARY
  5
19
102
{ACAD_REACTORS
330
C
102
}
330
C
100
AcDbDictionary
281
     1
  0
ACDBDICTIONARYWDFLT
  5
E
102
{ACAD_REACTORS
330
C
102
}
330
C
100
AcDbDictionary
281
     1
  3
Normal
350
F
100
AcDbDictionaryWithDefault
340
F
  0
DICTIONARY
  5
4A
102
{ACAD_REACTORS
330
C
102
}
330
C
100
AcDbDictionary
281
     1
  3
A0
350
4B
  3
A1
350
4C
  3
A2
350
4D
  3
A3
350
4E
  3
A4
350
4F
  3
A5
350
50
  3
A6
350
51
  3
A7
350
52
  3
A8
350
53
  3
A9
350
54
  3
B0
350
55
  3
B1
350
56
  3
B2
350
57
  3
B3
350
58
  3
B4
350
59
  3
B5
350
5A
  3
B6
350
5B
  3
B7
350
5C
  3
B8
350
5D
  3
B9
350
5E
  3
C0
350
5F
  3
C1
350
60
  3
C2
350
61
  3
C3
350
62
  3
C4
350
63
  3
C5
350
64
  3
C6
350
65
  3
C7
350
66
  3
C8
350
67
  3
C9
350
68
  3
D0
350
69
  3
D1
350
6A
  3
D2
350
6B
  0
DICTIONARY
  5
2A
102
{ACAD_REACTORS
330
C
102
}
330
C
100
AcDbDictionary
281
     1
  3
2dWireframe
350
2F
  3
3D Hidden
350
31
  3
3dWireframe
350
30
  3
Basic
350
32
  3
Brighten
350
36
  3
ColorChange
350
3A
  3
Conceptual
350
34
  3
Dim
350
35
  3
Facepattern
350
39
  3
Flat
350
2B
  3
FlatWithEdges
350
2C
  3
Gouraud
350
2D
  3
GouraudWithEdges
350
2E
  3
Linepattern
350
38
  3
Realistic
350
33
  3
Thicken
350
37
  0
DICTIONARY
  5
152
102
{ACAD_REACTORS
330
C
102
}
330
C
100
AcDbDictionary
281
     1
  3
CANNOSCALE
350
155
  0
LAYOUT
  5
1E
102
{ACAD_REACTORS
330
1A
102
}
330
1A
100
AcDbPlotSettings
  1

  2
none_device
  4

  6

 40
0.0
 41
0.0
 42
0.0
 43
0.0
 44
0.0
 45
0.0
 46
0.0
 47
0.0
 48
0.0
 49
0.0
140
0.0
141
0.0
142
1.0
143
1.0
 70
   688
 72
     0
 73
     0
 74
     5
  7

 75
    16
147
1.0
148
0.0
149
0.0
100
AcDbLayout
  1
Layout1
 70
     1
 71
     1
 10
0.0
 20
0.0
 11
12.0
 21
9.0
 12
0.0
 22
0.0
 32
0.0
 14
1.00000000000000E+20
 24
1.00000000000000E+20
 34
1.00000000000000E+20
 15
-1.00000000000000E+20
 25
-1.00000000000000E+20
 35
-1.00000000000000E+20
146
0.0
 13
0.0
 23
0.0
 33
0.0
 16
1.0
 26
0.0
 36
0.0
 17
0.0
 27
1.0
 37
0.0
 76
     0
330
1B
  0
LAYOUT
  5
26
102
{ACAD_REACTORS
330
1A
102
}
330
1A
100
AcDbPlotSettings
  1

  2
none_device
  4

  6

 40
0.0
 41
0.0
 42
0.0
 43
0.0
 44
0.0
 45
0.0
 46
0.0
 47
0.0
 48
0.0
 49
0.0
140
0.0
141
0.0
142
1.0
143
1.0
 70
   688
 72
     0
 73
     0
 74
     5
  7

 75
    16
147
1.0
148
0.0
149
0.0
100
AcDbLayout
  1
Layout2
 70
     1
 71
     2
 10
0.0
 20
0.0
 11
0.0
 21
0.0
 12
0.0
 22
0.0
 32
0.0
 14
0.0
 24
0.0
 34
0.0
 15
0.0
 25
0.0
 35
0.0
146
0.0
 13
0.0
 23
0.0
 33
0.0
 16
1.0
 26
0.0
 36
0.0
 17
0.0
 27
1.0
 37
0.0
 76
     0
330
23
  0
LAYOUT
  5
22
102
{ACAD_REACTORS
330
1A
102
}
330
1A
100
AcDbPlotSettings
  1

  2
none_device
  4

  6

 40
0.0
 41
0.0
 42
0.0
 43
0.0
 44
0.0
 45
0.0
 46
0.0
 47
0.0
 48
0.0
 49
0.0
140
0.0
141
0.0
142
1.0
143
1.0
 70
  1712
 72
     0
 73
     0
 74
     0
  7

 75
     0
147
1.0
148
0.0
149
0.0
100
AcDbLayout
  1
Model
 70
     1
 71
     0
 10
0.0
 20
0.0
 11
12.0
 21
9.0
 12
0.0
 22
0.0
 32
0.0
 14
70.2295297685651
 24
365.8603795771
 34
0.0
 15
321.747055371896
 25
499.631589979114
 35
0.0
146
0.0
 13
0.0
 23
0.0
 33
0.0
 16
1.0
 26
0.0
 36
0.0
 17
0.0
 27
1.0
 37
0.0
 76
     0
330
1F
331
29
  0
MLINESTYLE
  5
18
102
{ACAD_REACTORS
330
17
102
}
330
17
100
AcDbMlineStyle
  2
Standard
 70
     0
  3

 62
   256
 51
90.0
 52
90.0
 71
     2
 49
0.5
 62
   256
  6
BYLAYER
 49
-0.5
 62
   256
  6
BYLAYER
  0
ACDBPLACEHOLDER
  5
F
102
{ACAD_REACTORS
330
E
102
}
330
E
  0
SCALE
  5
4B
102
{ACAD_REACTORS
330
4A
102
}
330
4A
100
AcDbScale
 70
     0
300
1:1
140
1.0
141
1.0
290
     1
  0
SCALE
  5
4C
102
{ACAD_REACTORS
330
4A
102
}
330
4A
100
AcDbScale
 70
     0
300
1:2
140
1.0
141
2.0
290
     0
  0
SCALE
  5
4D
102
{ACAD_REACTORS
330
4A
102
}
330
4A
100
AcDbScale
 70
     0
300
1:4
140
1.0
141
4.0
290
     0
  0
SCALE
  5
4E
102
{ACAD_REACTORS
330
4A
102
}
330
4A
100
AcDbScale
 70
     0
300
1:5
140
1.0
141
5.0
290
     0
  0
SCALE
  5
4F
102
{ACAD_REACTORS
330
4A
102
}
330
4A
100
AcDbScale
 70
     0
300
1:8
140
1.0
141
8.0
290
     0
  0
SCALE
  5
50
102
{ACAD_REACTORS
330
4A
102
}
330
4A
100
AcDbScale
 70
     0
300
1:10
140
1.0
141
10.0
290
     0
  0
SCALE
  5
51
102
{ACAD_REACTORS
330
4A
102
}
330
4A
100
AcDbScale
 70
     0
300
1:16
140
1.0
141
16.0
290
     0
  0
SCALE
  5
52
102
{ACAD_REACTORS
330
4A
102
}
330
4A
100
AcDbScale
 70
     0
300
1:20
140
1.0
141
20.0
290
     0
  0
SCALE
  5
53
102
{ACAD_REACTORS
330
4A
102
}
330
4A
100
AcDbScale
 70
     0
300
1:30
140
1.0
141
30.0
290
     0
  0
SCALE
  5
54
102
{ACAD_REACTORS
330
4A
102
}
330
4A
100
AcDbScale
 70
     0
300
1:40
140
1.0
141
40.0
290
     0
  0
SCALE
  5
55
102
{ACAD_REACTORS
330
4A
102
}
330
4A
100
AcDbScale
 70
     0
300
1:50
140
1.0
141
50.0
290
     0
  0
SCALE
  5
56
102
{ACAD_REACTORS
330
4A
102
}
330
4A
100
AcDbScale
 70
     0
300
1:100
140
1.0
141
100.0
290
     0
  0
SCALE
  5
57
102
{ACAD_REACTORS
330
4A
102
}
330
4A
100
AcDbScale
 70
     0
300
2:1
140
2.0
141
1.0
290
     0
  0
SCALE
  5
58
102
{ACAD_REACTORS
330
4A
102
}
330
4A
100
AcDbScale
 70
     0
300
4:1
140
4.0
141
1.0
290
     0
  0
SCALE
  5
59
102
{ACAD_REACTORS
330
4A
102
}
330
4A
100
AcDbScale
 70
     0
300
8:1
140
8.0
141
1.0
290
     0
  0
SCALE
  5
5A
102
{ACAD_REACTORS
330
4A
102
}
330
4A
100
AcDbScale
 70
     0
300
10:1
140
10.0
141
1.0
290
     0
  0
SCALE
  5
5B
102
{ACAD_REACTORS
330
4A
102
}
330
4A
100
AcDbScale
 70
     0
300
100:1
140
100.0
141
1.0
290
     0
  0
SCALE
  5
5C
102
{ACAD_REACTORS
330
4A
102
}
330
4A
100
AcDbScale
 70
     0
300
1/128" = 1'-0"
140
0.0078125
141
12.0
290
     0
  0
SCALE
  5
5D
102
{ACAD_REACTORS
330
4A
102
}
330
4A
100
AcDbScale
 70
     0
300
1/64" = 1'-0"
140
0.015625
141
12.0
290
     0
  0
SCALE
  5
5E
102
{ACAD_REACTORS
330
4A
102
}
330
4A
100
AcDbScale
 70
     0
300
1/32" = 1'-0"
140
0.03125
141
12.0
290
     0
  0
SCALE
  5
5F
102
{ACAD_REACTORS
330
4A
102
}
330
4A
100
AcDbScale
 70
     0
300
1/16" = 1'-0"
140
0.0625
141
12.0
290
     0
  0
SCALE
  5
60
102
{ACAD_REACTORS
330
4A
102
}
330
4A
100
AcDbScale
 70
     0
300
3/32" = 1'-0"
140
0.09375
141
12.0
290
     0
  0
SCALE
  5
61
102
{ACAD_REACTORS
330
4A
102
}
330
4A
100
AcDbScale
 70
     0
300
1/8" = 1'-0"
140
0.125
141
12.0
290
     0
  0
SCALE
  5
62
102
{ACAD_REACTORS
330
4A
102
}
330
4A
100
AcDbScale
 70
     0
300
3/16" = 1'-0"
140
0.1875
141
12.0
290
     0
  0
SCALE
  5
63
102
{ACAD_REACTORS
330
4A
102
}
330
4A
100
AcDbScale
 70
     0
300
1/4" = 1'-0"
140
0.25
141
12.0
290
     0
  0
SCALE
  5
64
102
{ACAD_REACTORS
330
4A
102
}
330
4A
100
AcDbScale
 70
     0
300
3/8" = 1'-0"
140
0.375
141
12.0
290
     0
  0
SCALE
  5
65
102
{ACAD_REACTORS
330
4A
102
}
330
4A
100
AcDbScale
 70
     0
300
1/2" = 1'-0"
140
0.5
141
12.0
290
     0
  0
SCALE
  5
66
102
{ACAD_REACTORS
330
4A
102
}
330
4A
100
AcDbScale
 70
     0
300
3/4" = 1'-0"
140
0.75
141
12.0
290
     0
  0
SCALE
  5
67
102
{ACAD_REACTORS
330
4A
102
}
330
4A
100
AcDbScale
 70
     0
300
1" = 1'-0"
140
1.0
141
12.0
290
     0
  0
SCALE
  5
68
102
{ACAD_REACTORS
330
4A
102
}
330
4A
100
AcDbScale
 70
     0
300
1-1/2" = 1'-0"
140
1.5
141
12.0
290
     0
  0
SCALE
  5
69
102
{ACAD_REACTORS
330
4A
102
}
330
4A
100
AcDbScale
 70
     0
300
3" = 1'-0"
140
3.0
141
12.0
290
     0
  0
SCALE
  5
6A
102
{ACAD_REACTORS
330
4A
102
}
330
4A
100
AcDbScale
 70
     0
300
6" = 1'-0"
140
6.0
141
12.0
290
     0
  0
SCALE
  5
6B
102
{ACAD_REACTORS
330
4A
102
}
330
4A
100
AcDbScale
 70
     0
300
1'-0" = 1'-0"
140
12.0
141
12.0
290
     0
  0
VISUALSTYLE
  5
2F
102
{ACAD_REACTORS
330
2A
102
}
330
2A
100
AcDbVisualStyle
  2
2dWireframe
 70
     4
 71
     0
 72
     2
 73
     0
 90
        0
 40
-0.6
 41
-30.0
 62
     5
 63
     7
 74
     1
 91
        4
 64
     7
 65
   257
 75
     1
175
     1
 42
1.0
 92
        0
 66
   257
 43
1.0
 76
     1
 77
     6
 78
     2
 67
     7
 79
     5
170
     0
171
     0
290
     0
174
     0
 93
        1
 44
0.0
173
     0
291
     0
 45
0.0
1001
ACAD
1000
AcDbSavedByObjectVersion
1070
     0
  0
VISUALSTYLE
  5
31
102
{ACAD_REACTORS
330
2A
102
}
330
2A
100
AcDbVisualStyle
  2
3D Hidden
 70
     6
 71
     1
 72
     2
 73
     2
 90
        0
 40
-0.6
 41
-30.0
 62
     5
 63
     7
 74
     2
 91
        2
 64
     7
 65
   257
 75
     2
175
     1
 42
40.0
 92
        0
 66
   257
 43
1.0
 76
     1
 77
     6
 78
     2
 67
     7
 79
     3
170
     0
171
     0
290
     0
174
     0
 93
        1
 44
0.0
173
     0
291
     0
 45
0.0
1001
ACAD
1000
AcDbSavedByObjectVersion
1070
     0
  0
VISUALSTYLE
  5
30
102
{ACAD_REACTORS
330
2A
102
}
330
2A
100
AcDbVisualStyle
  2
3dWireframe
 70
     5
 71
     0
 72
     2
 73
     0
 90
        0
 40
-0.6
 41
-30.0
 62
     5
 63
     7
 74
     1
 91
        4
 64
     7
 65
   257
 75
     1
175
     1
 42
1.0
 92
        0
 66
   257
 43
1.0
 76
     1
 77
     6
 78
     2
 67
     7
 79
     5
170
     0
171
     0
290
     0
174
     0
 93
        1
 44
0.0
173
     0
291
     0
 45
0.0
1001
ACAD
1000
AcDbSavedByObjectVersion
1070
     0
  0
VISUALSTYLE
  5
32
102
{ACAD_REACTORS
330
2A
102
}
330
2A
100
AcDbVisualStyle
  2
Basic
 70
     7
 71
     1
 72
     0
 73
     1
 90
        0
 40
-0.6
 41
-30.0
 62
     5
 63
     7
 74
     0
 91
        4
 64
     7
 65
   257
 75
     1
175
     1
 42
1.0
 92
        8
 66
     7
 43
1.0
 76
     1
 77
     6
 78
     2
 67
     7
 79
     5
170
     0
171
     0
290
     0
174
     0
 93
        1
 44
0.0
173
     0
291
     1
 45
0.0
1001
ACAD
1000
AcDbSavedByObjectVersion
1070
     0
  0
VISUALSTYLE
  5
36
102
{ACAD_REACTORS
330
2A
102
}
330
2A
100
AcDbVisualStyle
  2
Brighten
 70
    12
 71
     2
 72
     2
 73
     0
 90
        0
 40
-0.6
 41
-30.0
 62
     5
 63
     7
 74
     1
 91
        4
 64
     7
 65
   257
 75
     1
175
     1
 42
1.0
 92
        8
 66
     7
 43
1.0
 76
     1
 77
     6
 78
     2
 67
     7
 79
     5
170
     0
171
     0
290
     0
174
     0
 93
        1
 44
50.0
173
     0
291
     1
 45
0.0
1001
ACAD
1000
AcDbSavedByObjectVersion
1070
     0
  0
VISUALSTYLE
  5
3A
102
{ACAD_REACTORS
330
2A
102
}
330
2A
100
AcDbVisualStyle
  2
ColorChange
 70
    16
 71
     2
 72
     2
 73
     3
 90
        0
 40
-0.6
 41
-30.0
 62
     5
 63
     8
 74
     1
 91
        4
 64
     7
 65
   257
 75
     1
175
     1
 42
1.0
 92
        8
 66
     8
 43
1.0
 76
     1
 77
     6
 78
     2
 67
     7
 79
     5
170
     0
171
     0
290
     0
174
     0
 93
        1
 44
0.0
173
     0
291
     1
 45
0.0
1001
ACAD
1000
AcDbSavedByObjectVersion
1070
     0
  0
VISUALSTYLE
  5
34
102
{ACAD_REACTORS
330
2A
102
}
330
2A
100
AcDbVisualStyle
  2
Conceptual
 70
     9
 71
     3
 72
     2
 73
     0
 90
        0
 40
-0.6
 41
-30.0
 62
     5
 63
     7
 74
     2
 91
        2
 64
     7
 65
   257
 75
     1
175
     1
 42
40.0
 92
        8
 66
     7
 43
1.0
 76
     1
 77
     6
 78
     2
 67
     7
 79
     3
170
     0
171
     0
290
     0
174
     0
 93
        1
 44
0.0
173
     0
291
     0
 45
0.0
1001
ACAD
1000
AcDbSavedByObjectVersion
1070
     0
  0
VISUALSTYLE
  5
35
102
{ACAD_REACTORS
330
2A
102
}
330
2A
100
AcDbVisualStyle
  2
Dim
 70
    11
 71
     2
 72
     2
 73
     0
 90
        0
 40
-0.6
 41
-30.0
 62
     5
 63
     7
 74
     1
 91
        4
 64
     7
 65
   257
 75
     1
175
     1
 42
1.0
 92
        8
 66
     7
 43
1.0
 76
     1
 77
     6
 78
     2
 67
     7
 79
     5
170
     0
171
     0
290
     0
174
     0
 93
        1
 44
-50.0
173
     0
291
     1
 45
0.0
1001
ACAD
1000
AcDbSavedByObjectVersion
1070
     0
  0
VISUALSTYLE
  5
39
102
{ACAD_REACTORS
330
2A
102
}
330
2A
100
AcDbVisualStyle
  2
Facepattern
 70
    15
 71
     2
 72
     2
 73
     0
 90
        0
 40
-0.6
 41
-30.0
 62
     5
 63
     7
 74
     1
 91
        4
 64
     7
 65
   257
 75
     1
175
     1
 42
1.0
 92
        8
 66
     7
 43
1.0
 76
     1
 77
     6
 78
     2
 67
     7
 79
     5
170
     0
171
     0
290
     0
174
     0
 93
        1
 44
0.0
173
     0
291
     1
 45
0.0
1001
ACAD
1000
AcDbSavedByObjectVersion
1070
     0
  0
VISUALSTYLE
  5
2B
102
{ACAD_REACTORS
330
2A
102
}
330
2A
100
AcDbVisualStyle
  2
Flat
 70
     0
 71
     2
 72
     1
 73
     1
 90
        2
 40
-0.6
 41
30.0
 62
     5
 63
     7
 74
     0
 91
        4
 64
     7
 65
   257
 75
     1
175
     1
 42
1.0
 92
        8
 66
     7
 43
1.0
 76
     1
 77
     6
 78
     2
 67
     7
 79
     5
170
     0
171
     0
290
     0
174
     0
 93
       13
 44
0.0
173
     0
291
     1
 45
0.0
1001
ACAD
1000
AcDbSavedByObjectVersion
1070
     0
  0
VISUALSTYLE
  5
2C
102
{ACAD_REACTORS
330
2A
102
}
330
2A
100
AcDbVisualStyle
  2
FlatWithEdges
 70
     1
 71
     2
 72
     1
 73
     1
 90
        2
 40
-0.6
 41
30.0
 62
     5
 63
     7
 74
     1
 91
        4
 64
     7
 65
   257
 75
     1
175
     1
 42
1.0
 92
        0
 66
   257
 43
1.0
 76
     1
 77
     6
 78
     2
 67
     7
 79
     5
170
     0
171
     0
290
     0
174
     0
 93
       13
 44
0.0
173
     0
291
     1
 45
0.0
1001
ACAD
1000
AcDbSavedByObjectVersion
1070
     0
  0
VISUALSTYLE
  5
2D
102
{ACAD_REACTORS
330
2A
102
}
330
2A
100
AcDbVisualStyle
  2
Gouraud
 70
     2
 71
     2
 72
     2
 73
     1
 90
        2
 40
-0.6
 41
30.0
 62
     5
 63
     7
 74
     0
 91
        4
 64
     7
 65
   257
 75
     1
175
     1
 42
1.0
 92
        0
 66
     7
 43
1.0
 76
     1
 77
     6
 78
     2
 67
     7
 79
     5
170
     0
171
     0
290
     0
174
     0
 93
       13
 44
0.0
173
     0
291
     1
 45
0.0
1001
ACAD
1000
AcDbSavedByObjectVersion
1070
     0
  0
VISUALSTYLE
  5
2E
102
{ACAD_REACTORS
330
2A
102
}
330
2A
100
AcDbVisualStyle
  2
GouraudWithEdges
 70
     3
 71
     2
 72
     2
 73
     1
 90
        2
 40
-0.6
 41
30.0
 62
     5
 63
     7
 74
     1
 91
        4
 64
     7
 65
   257
 75
     1
175
     1
 42
1.0
 92
        0
 66
   257
 43
1.0
 76
     1
 77
     6
 78
     2
 67
     7
 79
     5
170
     0
171
     0
290
     0
174
     0
 93
       13
 44
0.0
173
     0
291
     1
 45
0.0
1001
ACAD
1000
AcDbSavedByObjectVersion
1070
     0
  0
VISUALSTYLE
  5
38
102
{ACAD_REACTORS
330
2A
102
}
330
2A
100
AcDbVisualStyle
  2
Linepattern
 70
    14
 71
     2
 72
     2
 73
     0
 90
        0
 40
-0.6
 41
-30.0
 62
     5
 63
     7
 74
     1
 91
        4
 64
     7
 65
   257
 75
     7
175
     7
 42
1.0
 92
        8
 66
     7
 43
1.0
 76
     1
 77
     6
 78
     2
 67
     7
 79
     5
170
     0
171
     0
290
     0
174
     0
 93
        1
 44
0.0
173
     0
291
     1
 45
0.0
1001
ACAD
1000
AcDbSavedByObjectVersion
1070
     0
  0
VISUALSTYLE
  5
33
102
{ACAD_REACTORS
330
2A
102
}
330
2A
100
AcDbVisualStyle
  2
Realistic
 70
     8
 71
     2
 72
     2
 73
     0
 90
        0
 40
-0.6
 41
-30.0
 62
     5
 63
     7
 74
     1
 91
        0
 64
     7
 65
   257
 75
     1
175
     1
 42
1.0
 92
        8
 66
     8
 43
1.0
 76
     1
 77
     6
 78
     2
 67
     7
 79
     5
170
     0
171
     0
290
     0
174
     0
 93
       13
 44
0.0
173
     0
291
     0
 45
0.0
1001
ACAD
1000
AcDbSavedByObjectVersion
1070
     0
  0
VISUALSTYLE
  5
37
102
{ACAD_REACTORS
330
2A
102
}
330
2A
100
AcDbVisualStyle
  2
Thicken
 70
    13
 71
     2
 72
     2
 73
     0
 90
        0
 40
-0.6
 41
-30.0
 62
     5
 63
     7
 74
     1
 91
        4
 64
     7
 65
   257
 75
     1
175
     1
 42
1.0
 92
       12
 66
     7
 43
1.0
 76
     1
 77
     6
 78
     2
 67
     7
 79
     5
170
     0
171
     0
290
     0
174
     0
 93
        1
 44
0.0
173
     0
291
     1
 45
0.0
1001
ACAD
1000
AcDbSavedByObjectVersion
1070
     0
  0
DICTIONARYVAR
  5
155
102
{ACAD_REACTORS
330
152
102
}
330
152
100
DictionaryVariables
280
     0
  1
1:1
  0
ENDSEC
  0
EOF
